0
SECTION
2
HEADER
9
$ACADVER
1
AC1015
9
$ACADMAINTVER
70
20
9
$DWGCODEPAGE
3
ANSI_1252
9
$INSBASE
10
0.0
20
0.0
30
0.0
9
$EXTMIN
10
-150.000000000000
20
-105.000000000000
30
0.0
9
$EXTMAX
10
150.000000000000
20
105.000000000000
30
0.0
9
$LIMMIN
10
0.0
20
0.0
9
$LIMMAX
10
12.0
20
9.0
9
$ORTHOMODE
70
0
9
$REGENMODE
70
1
9
$FILLMODE
70
1
9
$QTEXTMODE
70
0
9
$MIRRTEXT
70
1
9
$LTSCALE
40
1.0
9
$ATTMODE
70
1
9
$TEXTSIZE
40
0.2
9
$TRACEWID
40
0.05
9
$TEXTSTYLE
7
Standard
9
$CLAYER
8
0
9
$CELTYPE
6
ByLayer
9
$CECOLOR
62
256
9
$CELTSCALE
40
1.0
9
$DISPSILH
70
0
9
$DIMSCALE
40
1.0
9
$DIMASZ
40
2.5
9
$DIMEXO
40
0.625
9
$DIMDLI
40
0.38
9
$DIMRND
40
0.0
9
$DIMDLE
40
0.0
9
$DIMEXE
40
1.25
9
$DIMTP
40
0.0
9
$DIMTM
40
0.000000001
9
$DIMTXT
40
2.5
9
$DIMCEN
40
0.09
9
$DIMTSZ
40
0.0
9
$DIMTOL
70
1
9
$DIMLIM
70
0
9
$DIMTIH
70
0
9
$DIMTOH
70
0
9
$DIMSE1
70
0
9
$DIMSE2
70
0
9
$DIMTAD
70
1
9
$DIMZIN
70
0
9
$DIMBLK
1
VDDIM_DEFAULT
9
$DIMASO
70
1
9
$DIMSHO
70
1
9
$DIMPOST
1

9
$DIMAPOST
1

9
$DIMALT
70
0
9
$DIMALTD
70
2
9
$DIMALTF
40
25.4
9
$DIMLFAC
40
1.00000000000000
9
$DIMTOFL
70
0
9
$DIMTVP
40
0.0
9
$DIMTIX
70
0
9
$DIMSOXD
70
0
9
$DIMSAH
70
0
9
$DIMBLK1
1

9
$DIMBLK2
1

9
$DIMSTYLE
2
BEM-ISBE
9
$DIMCLRD
70
0
9
$DIMCLRE
70
0
9
$DIMCLRT
70
0
9
$DIMTFAC
40
0.5
9
$DIMGAP
40
0.625
9
$DIMJUST
70
0
9
$DIMSD1
70
0
9
$DIMSD2
70
0
9
$DIMTOLJ
70
1
9
$DIMTZIN
70
0
9
$DIMALTZ
70
0
9
$DIMALTTZ
70
0
9
$DIMUPT
70
0
9
$DIMDEC
70
3
9
$DIMTDEC
70
3
9
$DIMALTU
70
2
9
$DIMALTTD
70
2
9
$DIMTXSTY
7
Standard
9
$DIMAUNIT
70
0
9
$DIMADEC
70
3
9
$DIMALTRND
40
0.0
9
$DIMAZIN
70
0
9
$DIMDSEP
70
46
9
$DIMATFIT
70
3
9
$DIMFRAC
70
0
9
$DIMLDRBLK
1

9
$DIMLUNIT
70
2
9
$DIMLWD
70
-2
9
$DIMLWE
70
-2
9
$DIMTMOVE
70
0
9
$LUNITS
70
2
9
$LUPREC
70
4
9
$SKETCHINC
40
0.1
9
$FILLETRAD
40
0.5
9
$AUNITS
70
0
9
$AUPREC
70
0
9
$MENU
1
.
9
$ELEVATION
40
0.0
9
$PELEVATION
40
0.0
9
$THICKNESS
40
0.0
9
$LIMCHECK
70
0
9
$CHAMFERA
40
0.5
9
$CHAMFERB
40
0.5
9
$CHAMFERC
40
1.0
9
$CHAMFERD
40
0.0
9
$SKPOLY
70
0
9
$TDCREATE
40
0.0
9
$TDUCREATE
40
0.0
9
$TDUPDATE
40
0.0
9
$TDUUPDATE
40
0.0
9
$TDINDWG
40
0.0
9
$TDUSRTIMER
40
0.0
9
$USRTIMER
70
1
9
$ANGBASE
50
0.0
9
$ANGDIR
70
0
9
$PDMODE
70
0
9
$PDSIZE
40
0.0
9
$PLINEWID
40
0.0
9
$SPLFRAME
70
0
9
$SPLINETYPE
70
6
9
$SPLINESEGS
70
8
9
$HANDSEED
5
10AB
9
$SURFTAB1
70
6
9
$SURFTAB2
70
6
9
$SURFTYPE
70
6
9
$SURFU
70
6
9
$SURFV
70
6
9
$UCSBASE
2

9
$UCSNAME
2

9
$UCSORG
10
0.0
20
0.0
30
0.0
9
$UCSXDIR
10
1.0
20
0.0
30
0.0
9
$UCSYDIR
10
0.0
20
1.0
30
0.0
9
$UCSORTHOREF
2

9
$UCSORTHOVIEW
70
0
9
$UCSORGTOP
10
0.0
20
0.0
30
0.0
9
$UCSORGBOTTOM
10
0.0
20
0.0
30
0.0
9
$UCSORGLEFT
10
0.0
20
0.0
30
0.0
9
$UCSORGRIGHT
10
0.0
20
0.0
30
0.0
9
$UCSORGFRONT
10
0.0
20
0.0
30
0.0
9
$UCSORGBACK
10
0.0
20
0.0
30
0.0
9
$PUCSBASE
2

9
$PUCSNAME
2

9
$PUCSORG
10
0.0
20
0.0
30
0.0
9
$PUCSXDIR
10
1.0
20
0.0
30
0.0
9
$PUCSYDIR
10
0.0
20
1.0
30
0.0
9
$PUCSORTHOREF
2

9
$PUCSORTHOVIEW
70
0
9
$PUCSORGTOP
10
0.0
20
0.0
30
0.0
9
$PUCSORGBOTTOM
10
0.0
20
0.0
30
0.0
9
$PUCSORGLEFT
10
0.0
20
0.0
30
0.0
9
$PUCSORGRIGHT
10
0.0
20
0.0
30
0.0
9
$PUCSORGFRONT
10
0.0
20
0.0
30
0.0
9
$PUCSORGBACK
10
0.0
20
0.0
30
0.0
9
$USERI1
70
0
9
$USERI2
70
0
9
$USERI3
70
0
9
$USERI4
70
0
9
$USERI5
70
0
9
$USERR1
40
0.0
9
$USERR2
40
0.0
9
$USERR3
40
0.0
9
$USERR4
40
0.0
9
$USERR5
40
0.0
9
$WORLDVIEW
70
1
9
$SHADEDGE
70
3
9
$SHADEDIF
70
70
9
$TILEMODE
70
1
9
$MAXACTVP
70
64
9
$PINSBASE
10
0.0
20
0.0
30
0.0
9
$PLIMCHECK
70
0
9
$PEXTMIN
10
1.000000000000000E+20
20
1.000000000000000E+20
30
1.000000000000000E+20
9
$PEXTMAX
10
-1.000000000000000E+20
20
-1.000000000000000E+20
30
-1.000000000000000E+20
9
$PLIMMIN
10
0.0
20
0.0
9
$PLIMMAX
10
12.0
20
9.0
9
$UNITMODE
70
0
9
$VISRETAIN
70
1
9
$PLINEGEN
70
0
9
$PSLTSCALE
70
1
9
$TREEDEPTH
70
3020
9
$CMLSTYLE
2
Standard
9
$CMLJUST
70
0
9
$CMLSCALE
40
1.0
9
$PROXYGRAPHICS
70
1
9
$MEASUREMENT
70
0
9
$CELWEIGHT
370
-1
9
$ENDCAPS
280
0
9
$JOINSTYLE
280
0
9
$LWDISPLAY
290
0
9
$INSUNITS
70
4
9
$HYPERLINKBASE
1

9
$STYLESHEET
1

9
$XEDIT
290
1
9
$CEPSNTYPE
380
0
9
$PSTYLEMODE
290
0
9
$FINGERPRINTGUID
2
{FAEB1C30-E019-11D5-929B-00C0DF256EC4}
9
$VERSIONGUID
2
{04C5C4E4-4947-4D90-8812-D401569E61F7}
9
$EXTNAMES
290
1
9
$PSVPSCALE
40
0.0
9
$OLESTARTUP
290
0
0
ENDSEC
0
SECTION
2
TABLES
0
TABLE
2
VPORT
5
24A
330
0
100
AcDbSymbolTable
70
1
0
VPORT
5
26B
330
24A
100
AcDbSymbolTableRecord
100
AcDbViewportTableRecord
2
*Active
70
0
10
0.0
20
0.0
11
1.0
21
1.0
12
0.000000000000000
22
0.000000000000000
13
0.0
23
0.0
14
10.0
24
10.0
15
10.0
25
10.0
16
0.0
26
0.0
36
1.0
17
0.0
27
0.0
37
0.0
40
210.000000000000
41
1.42857142857143
42
1.0
43
0.0
44
0.0
50
0.0
51
0.0000000000007958
71
0
72
100
73
1
74
3
75
0
76
0
77
0
78
1
281
0
65
1
110
0.0
120
0.0
130
0.0
111
1.0
121
0.0
131
0.0
112
0.0
122
1.0
132
0.0
79
0
146
0.0
0
ENDTAB
0
TABLE
2
LTYPE
5
247
330
0
100
AcDbSymbolTable
70
25
0
LTYPE
5
256
330
247
100
AcDbSymbolTableRecord
100
AcDbLinetypeTableRecord
2
ByBlock
70
0
3

72
65
73
0
40
0.0
0
LTYPE
5
257
330
247
100
AcDbSymbolTableRecord
100
AcDbLinetypeTableRecord
2
ByLayer
70
0
3

72
65
73
0
40
0.0
0
LTYPE
5
258
330
247
100
AcDbSymbolTableRecord
100
AcDbLinetypeTableRecord
2
Continuous
70
0
3
Solid line
72
65
73
0
40
0.0
0
LTYPE
5
273
330
247
100
AcDbSymbolTableRecord
100
AcDbLinetypeTableRecord
2
CENTER
70
0
3
Center ____ _ ____ _ ____ _ ____ _ ____ _ ____
72
65
73
4
40
2.0
49
1.25
74
0
49
-0.25
74
0
49
0.25
74
0
49
-0.25
74
0
0
LTYPE
5
274
330
247
100
AcDbSymbolTableRecord
100
AcDbLinetypeTableRecord
2
DASHDOT
70
0
3
Dashdot __ . __ . __ . __ . __ . __ . __ . __
72
65
73
4
40
1.0
49
0.5
74
0
49
-0.25
74
0
49
0.0
74
0
49
-0.25
74
0
0
LTYPE
5
275
330
247
100
AcDbSymbolTableRecord
100
AcDbLinetypeTableRecord
2
DASHED
70
0
3
Dashed __ __ __ __ __ __ __ __ __ __ __ __ __ _
72
65
73
2
40
0.75
49
0.5
74
0
49
-0.25
74
0
0
LTYPE
5
276
330
247
100
AcDbSymbolTableRecord
100
AcDbLinetypeTableRecord
2
HIDDEN
70
0
3
Hidden __ __ __ __ __ __ __ __ __ __ __ __ __ __
72
65
73
2
40
0.375
49
0.25
74
0
49
-0.125
74
0
0
LTYPE
5
277
330
247
100
AcDbSymbolTableRecord
100
AcDbLinetypeTableRecord
2
HIDDEN2
70
0
3
Hidden2 _ _ _ _ _ _ _ _ _ _ _ _ _ _ _ _ _
72
65
73
2
40
0.1875
49
0.125
74
0
49
-0.0625
74
0
0
LTYPE
5
278
330
247
100
AcDbSymbolTableRecord
100
AcDbLinetypeTableRecord
2
BORDER
70
0
3
Border __ __ . __ __ . __ __ . __ __ . __ __ .
72
65
73
6
40
1.75
49
0.5
74
0
49
-0.25
74
0
49
0.5
74
0
49
-0.25
74
0
49
0.0
74
0
49
-0.25
74
0
0
LTYPE
5
279
330
247
100
AcDbSymbolTableRecord
100
AcDbLinetypeTableRecord
2
BORDER2
70
0
3
Border2 __.__.__.__.__.__.__.__.__.__.__.
72
65
73
6
40
0.875
49
0.25
74
0
49
-0.125
74
0
49
0.25
74
0
49
-0.125
74
0
49
0.0
74
0
49
-0.125
74
0
0
LTYPE
5
27A
330
247
100
AcDbSymbolTableRecord
100
AcDbLinetypeTableRecord
2
BORDERX2
70
0
3
Borderx2  ____  ____  .  ____  ____  .  ___
72
65
73
6
40
3.5
49
1.0
74
0
49
-0.5
74
0
49
1.0
74
0
49
-0.5
74
0
49
0.0
74
0
49
-0.5
74
0
0
LTYPE
5
27B
330
247
100
AcDbSymbolTableRecord
100
AcDbLinetypeTableRecord
2
CENTER2
70
0
3
Center2  ___ _ ___ _ ___ _ ___ _ ___ _ ___
72
65
73
4
40
1.125
49
0.75
74
0
49
-0.125
74
0
49
0.125
74
0
49
-0.125
74
0
0
LTYPE
5
27C
330
247
100
AcDbSymbolTableRecord
100
AcDbLinetypeTableRecord
2
CENTERX2
70
0
3
Centerx2  ________  __  ________  __  _____
72
65
73
4
40
4.0
49
2.5
74
0
49
-0.5
74
0
49
0.5
74
0
49
-0.5
74
0
0
LTYPE
5
27D
330
247
100
AcDbSymbolTableRecord
100
AcDbLinetypeTableRecord
2
DASHDOT2
70
0
3
Dashdot2  _._._._._._._._._._._._._._._.
72
65
73
4
40
0.5
49
0.25
74
0
49
-0.125
74
0
49
0.0
74
0
49
-0.125
74
0
0
LTYPE
5
27E
330
247
100
AcDbSymbolTableRecord
100
AcDbLinetypeTableRecord
2
DASHDOTX2
70
0
3
Dashdotx2 ____  .  ____  .  ____  .  ___
72
65
73
4
40
2.0
49
1.0
74
0
49
-0.5
74
0
49
0.0
74
0
49
-0.5
74
0
0
LTYPE
5
27F
330
247
100
AcDbSymbolTableRecord
100
AcDbLinetypeTableRecord
2
DASHED2
70
0
3
Dashed2 _ _ _ _ _ _ _ _ _ _ _ _ _ _ _ _ _
72
65
73
2
40
0.375
49
0.25
74
0
49
-0.125
74
0
0
LTYPE
5
280
330
247
100
AcDbSymbolTableRecord
100
AcDbLinetypeTableRecord
2
DASHEDX2
70
0
3
Dashedx2 ____  ____  ____  ____  ____  ___
72
65
73
2
40
1.5
49
1.0
74
0
49
-0.5
74
0
0
LTYPE
5
281
330
247
100
AcDbSymbolTableRecord
100
AcDbLinetypeTableRecord
2
DIVIDE
70
0
3
Divide ____ . . ____ . . ____ . . ____ . . ____
72
65
73
6
40
1.25
49
0.5
74
0
49
-0.25
74
0
49
0.0
74
0
49
-0.25
74
0
49
0.0
74
0
49
-0.25
74
0
0
LTYPE
5
282
330
247
100
AcDbSymbolTableRecord
100
AcDbLinetypeTableRecord
2
DIVIDE2
70
0
3
Divide2 __..__..__..__..__..__..__..__.._
72
65
73
6
40
0.625
49
0.25
74
0
49
-0.125
74
0
49
0.0
74
0
49
-0.125
74
0
49
0.0
74
0
49
-0.125
74
0
0
LTYPE
5
283
330
247
100
AcDbSymbolTableRecord
100
AcDbLinetypeTableRecord
2
DIVIDEX2
70
0
3
Dividex2 ________  .  .  ________  .  .  _
72
65
73
6
40
2.5
49
1.0
74
0
49
-0.5
74
0
49
0.0
74
0
49
-0.5
74
0
49
0.0
74
0
49
-0.5
74
0
0
LTYPE
5
284
330
247
100
AcDbSymbolTableRecord
100
AcDbLinetypeTableRecord
2
DOT
70
0
3
Dot . . . . . . . . . . . . . . . . . . . . . . . .
72
65
73
2
40
0.25
49
0.0
74
0
49
-0.25
74
0
0
LTYPE
5
285
330
247
100
AcDbSymbolTableRecord
100
AcDbLinetypeTableRecord
2
DOT2
70
0
3
Dot2 ........................................
72
65
73
2
40
0.125
49
0.0
74
0
49
-0.125
74
0
0
LTYPE
5
286
330
247
100
AcDbSymbolTableRecord
100
AcDbLinetypeTableRecord
2
DOTX2
70
0
3
Dotx2 .  .  .  .  .  .  .  .  .  .  .  .  .  .
72
65
73
2
40
0.5
49
0.0
74
0
49
-0.5
74
0
0
LTYPE
5
287
330
247
100
AcDbSymbolTableRecord
100
AcDbLinetypeTableRecord
2
HIDDENX2
70
0
3
Hiddenx2 ____ ____ ____ ____ ____ ____ ____
72
65
73
2
40
0.75
49
0.5
74
0
49
-0.25
74
0
0
LTYPE
5
288
330
247
100
AcDbSymbolTableRecord
100
AcDbLinetypeTableRecord
2
PHANTOM
70
0
3
Phantom ______  __  __  ______  __  __  ______
72
65
73
6
40
2.5
49
1.25
74
0
49
-0.25
74
0
49
0.25
74
0
49
-0.25
74
0
49
0.25
74
0
49
-0.25
74
0
0
LTYPE
5
289
330
247
100
AcDbSymbolTableRecord
100
AcDbLinetypeTableRecord
2
PHANTOM2
70
0
3
Phantom2 ___ _ _ ___ _ _ ___ _ _ ___ _ _
72
65
73
6
40
1.25
49
0.625
74
0
49
-0.125
74
0
49
0.125
74
0
49
-0.125
74
0
49
0.125
74
0
49
-0.125
74
0
0
LTYPE
5
28A
330
247
100
AcDbSymbolTableRecord
100
AcDbLinetypeTableRecord
2
PHANTOMX2
70
0
3
Phantomx2 ____________    ____    ____   _
72
65
73
6
40
5.0
49
2.5
74
0
49
-0.5
74
0
49
0.5
74
0
49
-0.5
74
0
49
0.5
74
0
49
-0.5
74
0
0
ENDTAB
0
TABLE
2
LAYER
5
244
330
0
100
AcDbSymbolTable
70
6
0
LAYER
5
252
330
244
100
AcDbSymbolTableRecord
100
AcDbLayerTableRecord
2
0
70
0
62
7
6
Continuous
370
0
390
251
0
LAYER
5
23F
330
244
100
AcDbSymbolTableRecord
100
AcDbLayerTableRecord
2
Bemassung
70
0
 62
   7
6
Continuous
370
0
390
251
0
LAYER
5
240
330
244
100
AcDbSymbolTableRecord
100
AcDbLayerTableRecord
2
Rahmen
70
0
 62
   7
6
Continuous
370
0
390
251
0
LAYER
5
241
330
244
100
AcDbSymbolTableRecord
100
AcDbLayerTableRecord
2
Geo
70
0
 62
   7
6
Continuous
370
0
390
251
0
LAYER
5
33A
330
244
100
AcDbSymbolTableRecord
100
AcDbLayerTableRecord
2
Defpoints
70
0
62
7
6
Continuous
290
0
370
-3
390
251
0
LAYER
5
57E
330
244
100
AcDbSymbolTableRecord
100
AcDbLayerTableRecord
2
Text
70
0
 62
   7
6
Continuous
370
0
390
251
1001
AcAecLayerStandard
1000

1000

0
ENDTAB
0
TABLE
2
STYLE
5
245
330
0
100
AcDbSymbolTable
70
2
0
STYLE
5
253
330
245
100
AcDbSymbolTableRecord
100
AcDbTextStyleTableRecord
2
Standard
70
0
40
0.0
41
1.0
50
0.0
71
0
42
0.2
3
Arial
4

1001
ACAD
1000
Arial
1071
0
0
STYLE
5
132
330
245
100
AcDbSymbolTableRecord
100
AcDbTextStyleTableRecord
2
Beschriftung
70
0
40
0.0
41
1.0
50
0.0
71
0
42
0.2
3
Arial
4

1001
ACAD
1000
Arial
1071
0
1001
AcadAnnotative
1000
AnnotativeData
1070
1
1070
1
0
ENDTAB
0
TABLE
2
VIEW
5
248
330
0
100
AcDbSymbolTable
70
0
0
ENDTAB
0
TABLE
2
UCS
5
249
330
0
100
AcDbSymbolTable
70
0
0
ENDTAB
0
TABLE
2
APPID
5
24B
330
0
100
AcDbSymbolTable
70
13
0
APPID
5
254
330
24B
100
AcDbSymbolTableRecord
100
AcDbRegAppTableRecord
2
ACAD
70
0
0
APPID
5
26C
330
24B
100
AcDbSymbolTableRecord
100
AcDbRegAppTableRecord
2
VD_INVISIBLE_NOT_FOR_READ
70
0
0
APPID
5
26D
330
24B
100
AcDbSymbolTableRecord
100
AcDbRegAppTableRecord
2
VD_TEMPHATCH
70
0
0
APPID
5
26E
330
24B
100
AcDbSymbolTableRecord
100
AcDbRegAppTableRecord
2
VDEXTRAPARAM
70
0
0
APPID
5
26F
330
24B
100
AcDbSymbolTableRecord
100
AcDbRegAppTableRecord
2
PE_URL
70
0
0
APPID
5
270
330
24B
100
AcDbSymbolTableRecord
100
AcDbRegAppTableRecord
2
VD_UNKNOWN
70
0
0
APPID
5
28F
330
24B
100
AcDbSymbolTableRecord
100
AcDbRegAppTableRecord
2
AcadAnnotative
70
0
0
APPID
5
290
330
24B
100
AcDbSymbolTableRecord
100
AcDbRegAppTableRecord
2
ACAD_DSTYLE_DIMJAG
70
0
0
APPID
5
291
330
24B
100
AcDbSymbolTableRecord
100
AcDbRegAppTableRecord
2
ACAD_DSTYLE_DIMTALN
70
0
0
APPID
5
293
330
24B
100
AcDbSymbolTableRecord
100
AcDbRegAppTableRecord
2
ACAD_PSEXT
70
0
0
APPID
5
42A
330
24B
100
AcDbSymbolTableRecord
100
AcDbRegAppTableRecord
2
ACAD_MLEADERVER
70
0
0
APPID
5
532
330
24B
100
AcDbSymbolTableRecord
100
AcDbRegAppTableRecord
2
ACAD_EXEMPT_FROM_CAD_STANDARDS
70
0
0
APPID
5
57F
330
24B
100
AcDbSymbolTableRecord
100
AcDbRegAppTableRecord
2
AcAecLayerStandard
70
0
0
ENDTAB
0
TABLE
2
DIMSTYLE
5
24C
330
0
100
AcDbSymbolTable
70
3
100
AcDbDimStyleTable
71
2
340
27
340
269
0
DIMSTYLE
105
269
330
24C
100
AcDbSymbolTableRecord
100
AcDbDimStyleTableRecord
2
Standard
70
0
172
1
174
1
288
1
340
253
342
23C
0
DIMSTYLE
105
137
330
24C
100
AcDbSymbolTableRecord
100
AcDbDimStyleTableRecord
2
Beschriftung
70
0
41
2.5
42
0.625
44
1.25
73
0
74
0
77
1
140
2.5
147
0.625
172
1
174
1
271
2
288
1
340
253
342
23C
1001
AcadAnnotative
1000
AnnotativeData
1070
1
1070
1
1001
ACAD_DSTYLE_DIMJAG
1070
388
1040
1.5
1001
ACAD_DSTYLE_DIMTALN
1070
392
1070
0
0
DIMSTYLE
105
27
102
{ACAD_REACTORS
330
F10012
330
F1001C
330
F10021
330
F10003
330
F1000D
330
F10008
330
F10017
102
}
330
24C
100
AcDbSymbolTableRecord
100
AcDbDimStyleTableRecord
2
BEM-ISBE
70
0
41
2.5
42
0.625
44
1.25
48
0.000000001
71
1
73
0
74
0
77
1
140
2.5
144
1.00000000000000
146
0.5
147
0.625
171
 3
172
 1
179
 3
271
 3
272
 3
274
 3
340
253
342
23C
1001
ACAD_DSTYLE_DIMJAG
1070
388
1040
1.5
1001
ACAD_DSTYLE_DIMTALN
1070
392
1070
1
0
ENDTAB
0
TABLE
2
BLOCK_RECORD
5
243
330
0
100
AcDbSymbolTable
70
5
0
BLOCK_RECORD
5
261
330
243
100
AcDbSymbolTableRecord
100
AcDbBlockTableRecord
2
*Model_Space
340
FD0
0
BLOCK_RECORD
5
25D
330
243
100
AcDbSymbolTableRecord
100
AcDbBlockTableRecord
2
*Paper_Space
340
FD1
0
BLOCK_RECORD
5
265
330
243
100
AcDbSymbolTableRecord
100
AcDbBlockTableRecord
2
*Paper_Space0
340
0
0
BLOCK_RECORD
5
23C
330
243
100
AcDbSymbolTableRecord
100
AcDbBlockTableRecord
2
VDDIM_DEFAULT
340
0
102
{BLKREFS
102
}
0
BLOCK_RECORD
5
23E
330
243
100
AcDbSymbolTableRecord
100
AcDbBlockTableRecord
2
VDDIM_NONE
340
0
0
BLOCK_RECORD
5
F10011
330
243
100
AcDbSymbolTableRecord
100
AcDbBlockTableRecord
2
*D6
340
0
0
BLOCK_RECORD
5
F1001B
330
243
100
AcDbSymbolTableRecord
100
AcDbBlockTableRecord
2
*D8
340
0
0
BLOCK_RECORD
5
F10020
330
243
100
AcDbSymbolTableRecord
100
AcDbBlockTableRecord
2
*D9
340
0
0
BLOCK_RECORD
5
F10002
330
243
100
AcDbSymbolTableRecord
100
AcDbBlockTableRecord
2
*D3
340
0
0
BLOCK_RECORD
5
F1000C
330
243
100
AcDbSymbolTableRecord
100
AcDbBlockTableRecord
2
*D5
340
0
0
BLOCK_RECORD
5
F10007
330
243
100
AcDbSymbolTableRecord
100
AcDbBlockTableRecord
2
*D4
340
0
0
BLOCK_RECORD
5
F10016
330
243
100
AcDbSymbolTableRecord
100
AcDbBlockTableRecord
2
*D7
340
0
0
ENDTAB
0
ENDSEC
0
SECTION
2
BLOCKS
0
BLOCK
5
262
330
261
100
AcDbEntity
8
0
100
AcDbBlockBegin
2
*Model_Space
70
0
10
0.0
20
0.0
30
0.0
3
*Model_Space
1

0
ENDBLK
5
263
330
261
100
AcDbEntity
8
0
100
AcDbBlockEnd
0
BLOCK
5
25E
330
25D
100
AcDbEntity
67
1
8
0
100
AcDbBlockBegin
2
*Paper_Space
70
0
10
0.0
20
0.0
30
0.0
3
*Paper_Space
1

0
ENDBLK
5
25F
330
25D
100
AcDbEntity
67
1
8
0
100
AcDbBlockEnd
0
BLOCK
5
266
330
265
100
AcDbEntity
8
0
100
AcDbBlockBegin
2
*Paper_Space0
70
0
10
0.0
20
0.0
30
0.0
3
*Paper_Space0
1

0
VIEWPORT
5
296
102
{ACAD_XDICTIONARY
360
58E
102
}
330
265
100
AcDbEntity
8
0
60
1
100
AcDbViewport
10
0.0
20
0.0
30
0.0
40
10.0
41
10.0
69
0
12
0.0
22
0.0
13
0.0
23
0.0
14
1.0
24
1.0
15
0.0
25
0.0
16
0.0
26
0.0
36
1.0
17
0.0
27
0.0
37
0.0
42
0.0
43
0.0
44
0.0
45
10.0
50
0.0
51
0.0000000000007958
72
100
90
163872
1

281
0
71
0
74
0
110
0.0
120
0.0
130
0.0
111
1.0
121
0.0
131
0.0
112
0.0
122
1.0
132
0.0
79
0
146
0.0
1001
VD_INVISIBLE_NOT_FOR_READ
1000
VD_INVISIBLE_NOT_FOR_READ
0
VIEWPORT
5
297
102
{ACAD_XDICTIONARY
360
590
102
}
330
265
100
AcDbEntity
8
0
60
1
100
AcDbViewport
10
0.0
20
0.0
30
0.0
40
10.0
41
10.0
69
0
12
0.0
22
0.0
13
0.0
23
0.0
14
1.0
24
1.0
15
0.0
25
0.0
16
0.0
26
0.0
36
1.0
17
0.0
27
0.0
37
0.0
42
0.0
43
0.0
44
0.0
45
10.0
50
0.0
51
0.0000000000007958
72
100
90
163872
1

281
0
71
0
74
0
110
0.0
120
0.0
130
0.0
111
1.0
121
0.0
131
0.0
112
0.0
122
1.0
132
0.0
79
0
146
0.0
1001
VD_INVISIBLE_NOT_FOR_READ
1000
VD_INVISIBLE_NOT_FOR_READ
0
ENDBLK
5
267
330
265
100
AcDbEntity
8
0
100
AcDbBlockEnd
0
BLOCK
5
28B
330
23C
100
AcDbEntity
8
0
100
AcDbBlockBegin
2
VDDIM_DEFAULT
70
0
10
0.0
20
0.0
30
0.0
3
VDDIM_DEFAULT
1

0
LWPOLYLINE
5
23D
330
23C
100
AcDbEntity
8
0
6
Continuous
62
0
100
AcDbPolyline
90
4
70
0
43
0.0
10
0.0
20
0.0
10
-1.0
20
-0.1665
10
-1.0
20
0.1665
10
0.0
20
0.0
1001
VDEXTRAPARAM
1071
1
1071
0
1071
0
1040
1.0
1000

1000

1040
0.0
1040
0.0
0
HATCH
5
292
330
23C
100
AcDbEntity
8
0
6
Continuous
62
0
100
AcDbHatch
10
0.0
20
0.0
30
0.0
210
0.0
220
0.0
230
1.0
2
SOLID
70
1
71
0
91
1
92
2
72
0
73
1
93
3
10
0.0
20
0.0
10
-1.0
20
-0.1665
10
-1.0
20
0.1665
97
0
75
0
76
1
98
1
10
0.0
20
0.0
1001
VDEXTRAPARAM
1071
1
1071
0
1071
0
1040
1.0
1000

1000

1040
0.0
1040
0.0
1001
VD_TEMPHATCH
1000
VD_TEMPHATCH
0
ENDBLK
5
28C
330
23C
100
AcDbEntity
8
0
100
AcDbBlockEnd
0
BLOCK
5
28D
330
23E
100
AcDbEntity
8
0
100
AcDbBlockBegin
2
VDDIM_NONE
70
0
10
0.0
20
0.0
30
0.0
3
VDDIM_NONE
1

0
ENDBLK
5
28E
330
23E
100
AcDbEntity
8
0
100
AcDbBlockEnd
  0
BLOCK
  5
F10025
330
F10011
100
AcDbEntity
  8
0
100
AcDbBlockBegin
  2
*D6
 70
     1
 10
0.0
 20
0.0
 30
0.0
  3
*D6
  1

  0
LINE
  5
F10026
330
F10011
100
AcDbEntity
  8
Bemassung
 62
     0
370
    -2
100
AcDbLine
10
-78.1302982848285
20
4.23931593413815
30
0.000000000000000
11
-78.1302982848285
21
16.2393159341381
31
0.000000000000000
  0
LINE
  5
F10027
330
F10011
100
AcDbEntity
  8
Bemassung
 62
     0
370
    -2
100
AcDbLine
10
-32.1302982848285
20
3.23931593413815
30
0.000000000000000
11
-32.1302982848285
21
21.2393159341381
31
0.000000000000000
  0
LINE
  5
F10028
330
F10011
100
AcDbEntity
  8
Bemassung
 62
     0
370
    -2
100
AcDbLine
10
-78.1302982848285
20
14.2393159341381
30
0.000000000000000
11
27.5506816715490
21
14.2393159341381
31
0.000000000000000
  0
INSERT
  5
F10029
330
F10011
100
AcDbEntity
  8
Bemassung
 62
     0
370
    -2
100
AcDbBlockReference
  2
VDDIM_DEFAULT
10
-78.1302982848285
20
14.2393159341381
30
0.000000000000000
 41
2.50000000000000
 42
2.50000000000000
 43
2.50000000000000
 50
180.000000000000
  0
INSERT
  5
F1002A
330
F10011
100
AcDbEntity
  8
Bemassung
 62
     0
370
    -2
100
AcDbBlockReference
  2
VDDIM_DEFAULT
10
-32.1302982848285
20
14.2393159341381
30
0.000000000000000
 41
2.50000000000000
 42
2.50000000000000
 43
2.50000000000000
  0
MTEXT
  5
F1002B
330
F10011
100
AcDbEntity
  8
Bemassung
 62
     0
100
AcDbMText
10
-55.1302982848285
20
14.9059826008048
30
0.000000000000000
 40
2.50000000000000
 41
0.0
 71
     8
 72
     1
  1
46
 11
1.00000000000000
 21
0.000000000000000
 31
0.0
 73
     1
 44
1.0
1001
ACAD
1000
MTEXTBEGIN
1070
73
1070
1
1070
44
1040
1.0
1070
74
1070
0
1000
MTEXTEND
  0
POINT
  5
F1002C
330
F10011
100
AcDbEntity
  8
Bemassung
 62
     0
100
AcDbPoint
10
-78.1302982848285
20
4.23931593413815
30
0.000000000000000
  0
POINT
  5
F1002D
330
F10011
100
AcDbEntity
  8
Bemassung
 62
     0
100
AcDbPoint
10
-32.1302982848285
20
3.23931593413815
30
0.000000000000000
  0
ENDBLK
  5
F1002E
330
F10011
100
AcDbEntity
  8
0
100
AcDbBlockEnd
  0
BLOCK
  5
F1002F
330
F1001B
100
AcDbEntity
  8
0
100
AcDbBlockBegin
  2
*D8
 70
     1
 10
0.0
 20
0.0
 30
0.0
  3
*D8
  1

  0
LINE
  5
F10030
330
F1001B
100
AcDbEntity
  8
Bemassung
 62
     0
370
    -2
100
AcDbLine
10
-78.1302982848285
20
-3.76068406586185
30
0.000000000000000
11
-78.1302982848285
21
-10.7606840658619
31
0.000000000000000
  0
LINE
  5
F10031
330
F1001B
100
AcDbEntity
  8
Bemassung
 62
     0
370
    -2
100
AcDbLine
10
-96.1302982848285
20
-10.7606840658619
30
0.000000000000000
11
-96.1302982848285
21
21.2393159341381
31
0.000000000000000
  0
LINE
  5
F10032
330
F1001B
100
AcDbEntity
  8
Bemassung
 62
     0
370
    -2
100
AcDbLine
10
-68.5245799656245
20
-8.76068406586185
30
0.000000000000000
11
-96.1302982848285
21
-8.76068406586185
31
0.000000000000000
  0
INSERT
  5
F10033
330
F1001B
100
AcDbEntity
  8
Bemassung
 62
     0
370
    -2
100
AcDbBlockReference
  2
VDDIM_DEFAULT
10
-78.1302982848285
20
-8.76068406586185
30
0.000000000000000
 41
2.50000000000000
 42
2.50000000000000
 43
2.50000000000000
  0
INSERT
  5
F10034
330
F1001B
100
AcDbEntity
  8
Bemassung
 62
     0
370
    -2
100
AcDbBlockReference
  2
VDDIM_DEFAULT
10
-96.1302982848285
20
-8.76068406586185
30
0.000000000000000
 41
2.50000000000000
 42
2.50000000000000
 43
2.50000000000000
 50
180.000000000000
  0
MTEXT
  5
F10035
330
F1001B
100
AcDbEntity
  8
Bemassung
 62
     0
100
AcDbMText
10
-87.1302982848285
20
-8.09401739919519
30
0.000000000000000
 40
2.50000000000000
 41
0.0
 71
     8
 72
     1
  1
18
 11
1.00000000000000
 21
0.000000000000000
 31
0.0
 73
     1
 44
1.0
1001
ACAD
1000
MTEXTBEGIN
1070
73
1070
1
1070
44
1040
1.0
1070
74
1070
0
1000
MTEXTEND
  0
POINT
  5
F10036
330
F1001B
100
AcDbEntity
  8
Bemassung
 62
     0
100
AcDbPoint
10
-78.1302982848285
20
-3.76068406586185
30
0.000000000000000
  0
POINT
  5
F10037
330
F1001B
100
AcDbEntity
  8
Bemassung
 62
     0
100
AcDbPoint
10
-96.1302982848285
20
-10.7606840658619
30
0.000000000000000
  0
ENDBLK
  5
F10038
330
F1001B
100
AcDbEntity
  8
0
100
AcDbBlockEnd
  0
BLOCK
  5
F10039
330
F10020
100
AcDbEntity
  8
0
100
AcDbBlockBegin
  2
*D9
 70
     1
 10
0.0
 20
0.0
 30
0.0
  3
*D9
  1

  0
LINE
  5
F1003A
330
F10020
100
AcDbEntity
  8
Bemassung
 62
     0
370
    -2
100
AcDbLine
10
-32.1302982848285
20
3.23931593413815
30
0.000000000000000
11
-32.1302982848285
21
21.2393159341381
31
0.000000000000000
  0
LINE
  5
F1003B
330
F10020
100
AcDbEntity
  8
Bemassung
 62
     0
370
    -2
100
AcDbLine
10
-96.1302982848285
20
-10.7606840658619
30
0.000000000000000
11
-96.1302982848285
21
21.2393159341381
31
0.000000000000000
  0
LINE
  5
F1003C
330
F10020
100
AcDbEntity
  8
Bemassung
 62
     0
370
    -2
100
AcDbLine
10
0.434112499187876
20
19.2393159341381
30
0.000000000000000
11
-96.1302982848285
21
19.2393159341381
31
0.000000000000000
  0
INSERT
  5
F1003D
330
F10020
100
AcDbEntity
  8
Bemassung
 62
     0
370
    -2
100
AcDbBlockReference
  2
VDDIM_DEFAULT
10
-32.1302982848285
20
19.2393159341381
30
0.000000000000000
 41
2.50000000000000
 42
2.50000000000000
 43
2.50000000000000
  0
INSERT
  5
F1003E
330
F10020
100
AcDbEntity
  8
Bemassung
 62
     0
370
    -2
100
AcDbBlockReference
  2
VDDIM_DEFAULT
10
-96.1302982848285
20
19.2393159341381
30
0.000000000000000
 41
2.50000000000000
 42
2.50000000000000
 43
2.50000000000000
 50
180.000000000000
  0
MTEXT
  5
F1003F
330
F10020
100
AcDbEntity
  8
Bemassung
 62
     0
100
AcDbMText
10
-64.1302982848285
20
19.9059826008048
30
0.000000000000000
 40
2.50000000000000
 41
0.0
 71
     8
 72
     1
  1
64
 11
1.00000000000000
 21
0.000000000000000
 31
0.0
 73
     1
 44
1.0
1001
ACAD
1000
MTEXTBEGIN
1070
73
1070
1
1070
44
1040
1.0
1070
74
1070
0
1000
MTEXTEND
  0
POINT
  5
F10040
330
F10020
100
AcDbEntity
  8
Bemassung
 62
     0
100
AcDbPoint
10
-32.1302982848285
20
3.23931593413815
30
0.000000000000000
  0
POINT
  5
F10041
330
F10020
100
AcDbEntity
  8
Bemassung
 62
     0
100
AcDbPoint
10
-96.1302982848285
20
-10.7606840658619
30
0.000000000000000
  0
ENDBLK
  5
F10042
330
F10020
100
AcDbEntity
  8
0
100
AcDbBlockEnd
  0
BLOCK
  5
F10043
330
F10002
100
AcDbEntity
  8
0
100
AcDbBlockBegin
  2
*D3
 70
     1
 10
0.0
 20
0.0
 30
0.0
  3
*D3
  1

 0
ARC
  5
F10044
330
F10002
100
AcDbEntity
  8
Bemassung
 62
     0
370
   -2
100
AcDbCircle
10
-96.1296891118476
20
3.20441643743565
30
0.000000000000000
 40
18.9091232513799
100
AcDbArc
 50
90.0000000000000
 51
102.167628526855
  0
LINE
  5
F10045
330
F10002
100
AcDbEntity
  8
Bemassung
 62
     0
370
    -2
100
AcDbLine
10
-96.1296891118476
20
3.20441643743565
30
0.000000000000000
11
-96.1296891118476
21
24.1135396888156
31
0.000000000000000
  0
LINE
  5
F10046
330
F10002
100
AcDbEntity
  8
Bemassung
 62
     0
370
    -2
100
AcDbLine
10
-96.1296891118476
20
3.20441643743565
30
0.000000000000000
11
-96.8594069898113
21
24.1008024158764
31
0.000000000000000
  0
INSERT
  5
F10047
330
F10002
100
AcDbEntity
  8
Bemassung
 62
     0
370
    -2
100
AcDbBlockReference
  2
VDDIM_DEFAULT
10
-96.1296891118476
20
22.1135396888156
30
0.000000000000000
 41
2.50000000000000
 42
2.50000000000000
 43
2.50000000000000
 50
179.848496819447
  0
INSERT
  5
F10048
330
F10002
100
AcDbEntity
  8
Bemassung
 62
     0
370
    -2
100
AcDbBlockReference
  2
VDDIM_DEFAULT
10
-96.7896079964063
20
22.1020207618382
30
0.000000000000000
 41
2.50000000000000
 42
2.50000000000000
 43
2.50000000000000
 50
2.15150318055596
  0
MTEXT
  5
F10049
330
F10002
100
AcDbEntity
  8
Bemassung
 62
     0
100
AcDbMText
10
-100.625960892517
20
21.5711930248022
30
0.000000000000000
 40
2.50000000000000
 41
0.0
 71
     8
 72
     1
  1
2°
 11
0.971252396495779
 21
0.238052057964652
 31
0.0
 73
     1
 44
1.0
1001
ACAD
1000
MTEXTBEGIN
1070
73
1070
1
1070
44
1040
1.0
1070
74
1070
0
1000
MTEXTEND
  0
POINT
  5
F1004A
330
F10002
100
AcDbEntity
  8
Bemassung
 62
     0
100
AcDbPoint
10
-96.1296891118476
20
3.20441643743565
30
0.000000000000000
  0
POINT
  5
F1004B
330
F10002
100
AcDbEntity
  8
Bemassung
 62
     0
100
AcDbPoint
10
-96.1296891118476
20
22.1135396888156
30
0.000000000000000
  0
POINT
  5
F1004C
330
F10002
100
AcDbEntity
  8
Bemassung
 62
     0
100
AcDbPoint
10
-96.7896079964063
20
22.1020207618382
30
0.000000000000000
  0
POINT
  5
F1004D
330
F10002
100
AcDbEntity
  8
Bemassung
 62
     0
100
AcDbPoint
10
-96.4596988162033
20
22.1106597377560
30
0.000000000000000
  0
ENDBLK
  5
F1004E
330
F10002
100
AcDbEntity
  8
0
100
AcDbBlockEnd
  0
BLOCK
  5
F1004F
330
F1000C
100
AcDbEntity
  8
0
100
AcDbBlockBegin
  2
*D5
 70
     1
 10
0.0
 20
0.0
 30
0.0
  3
*D5
  1

  0
LINE
  5
F10050
330
F1000C
100
AcDbEntity
  8
Bemassung
 62
     0
370
    -2
100
AcDbLine
10
-95.8496380851671
20
3.93397430459714
30
0.000000000000000
11
-107.247999770805
21
14.9412442356084
31
0.000000000000000
  0
INSERT
  5
F10051
330
F1000C
100
AcDbEntity
  8
Bemassung
 62
     0
370
    -2
100
AcDbBlockReference
  2
VDDIM_DEFAULT
10
-95.8496380851671
20
3.93397430459714
30
0.000000000000000
 41
2.50000000000000
 42
2.50000000000000
 43
2.50000000000000
 50
316.000000000000
  0
MTEXT
  5
F10052
330
F1000C
100
AcDbEntity
  8
Bemassung
 62
     0
100
AcDbMText
10
-103.043036088554
20
10.8805580091871
30
0.000000000000000
 40
2.50000000000000
 41
0.0
 71
     8
 72
     1
  1
R1
 11
0.719339800338653
 21
-0.694658370458996
 31
0.0
 73
     1
 44
1.0
1001
ACAD
1000
MTEXTBEGIN
1070
73
1070
1
1070
44
1040
1.0
1070
74
1070
0
1000
MTEXTEND
  0
POINT
  5
F10053
330
F1000C
100
AcDbEntity
  8
Bemassung
 62
     0
100
AcDbPoint
10
-95.8496380851671
20
3.93397430459714
30
0.000000000000000
  0
POINT
  5
F10054
330
F1000C
100
AcDbEntity
  8
Bemassung
 62
     0
100
AcDbPoint
10
-95.1302982848285
20
3.23931593413815
30
0.000000000000000
  0
ENDBLK
  5
F10055
330
F1000C
100
AcDbEntity
  8
0
100
AcDbBlockEnd
  0
BLOCK
  5
F10056
330
F10007
100
AcDbEntity
  8
0
100
AcDbBlockBegin
  2
*D4
 70
     1
 10
0.0
 20
0.0
 30
0.0
  3
*D4
  1

  0
LINE
  5
F10057
330
F10007
100
AcDbEntity
  8
Bemassung
 62
     0
370
    -2
100
AcDbLine
10
-95.1302982848285
20
-3.76068406586185
30
0.000000000000000
11
-108.130298284828
21
-3.76068406586185
31
0.000000000000000
  0
LINE
  5
F10058
330
F10007
100
AcDbEntity
  8
Bemassung
 62
     0
370
    -2
100
AcDbLine
10
-95.1302982848285
20
4.23931593413815
30
0.000000000000000
11
-108.130298284828
21
4.23931593413815
31
0.000000000000000
  0
LINE
  5
F10059
330
F10007
100
AcDbEntity
  8
Bemassung
 62
     0
370
    -2
100
AcDbLine
10
-106.130298284828
20
-3.76068406586185
30
0.000000000000000
11
-106.130298284828
21
4.23931593413815
31
0.000000000000000
  0
INSERT
  5
F1005A
330
F10007
100
AcDbEntity
  8
Bemassung
 62
     0
370
    -2
100
AcDbBlockReference
  2
VDDIM_DEFAULT
10
-106.130298284828
20
-3.76068406586185
30
0.000000000000000
 41
2.50000000000000
 42
2.50000000000000
 43
2.50000000000000
 50
270.000000000000
  0
INSERT
  5
F1005B
330
F10007
100
AcDbEntity
  8
Bemassung
 62
     0
370
    -2
100
AcDbBlockReference
  2
VDDIM_DEFAULT
10
-106.130298284828
20
4.23931593413815
30
0.000000000000000
 41
2.50000000000000
 42
2.50000000000000
 43
2.50000000000000
 50
90.0000000000000
  0
MTEXT
  5
F1005C
330
F10007
100
AcDbEntity
  8
Bemassung
 62
     0
100
AcDbMText
10
-105.463631618162
20
0.239315934138148
30
0.000000000000000
 40
2.50000000000000
 41
0.0
 71
     8
 72
     1
  1
8
 11
6.12323399573677e-017
 21
1.00000000000000
 31
0.0
 73
     1
 44
1.0
1001
ACAD
1000
MTEXTBEGIN
1070
73
1070
1
1070
44
1040
1.0
1070
74
1070
0
1000
MTEXTEND
  0
POINT
  5
F1005D
330
F10007
100
AcDbEntity
  8
Bemassung
 62
     0
100
AcDbPoint
10
-95.1302982848285
20
-3.76068406586185
30
0.000000000000000
  0
POINT
  5
F1005E
330
F10007
100
AcDbEntity
  8
Bemassung
 62
     0
100
AcDbPoint
10
-95.1302982848285
20
4.23931593413815
30
0.000000000000000
  0
ENDBLK
  5
F1005F
330
F10007
100
AcDbEntity
  8
0
100
AcDbBlockEnd
  0
BLOCK
  5
F10060
330
F10016
100
AcDbEntity
  8
0
100
AcDbBlockBegin
  2
*D7
 70
     1
 10
0.0
 20
0.0
 30
0.0
  3
*D7
  1

  0
LINE
  5
F10061
330
F10016
100
AcDbEntity
  8
Bemassung
 62
     0
370
    -2
100
AcDbLine
10
-33.1302982848285
20
-3.76068406586185
30
0.000000000000000
11
-20.1302982848285
21
-3.76068406586185
31
0.000000000000000
  0
LINE
  5
F10062
330
F10016
100
AcDbEntity
  8
Bemassung
 62
     0
370
    -2
100
AcDbLine
10
-33.1302982848285
20
4.23931593413815
30
0.000000000000000
11
-20.1302982848285
21
4.23931593413815
31
0.000000000000000
  0
LINE
  5
F10063
330
F10016
100
AcDbEntity
  8
Bemassung
 62
     0
370
    -2
100
AcDbLine
10
-22.1302982848285
20
-3.76068406586185
30
0.000000000000000
11
-22.1302982848285
21
4.23931593413815
31
0.000000000000000
  0
INSERT
  5
F10064
330
F10016
100
AcDbEntity
  8
Bemassung
 62
     0
370
    -2
100
AcDbBlockReference
  2
VDDIM_DEFAULT
10
-22.1302982848285
20
-3.76068406586185
30
0.000000000000000
 41
2.50000000000000
 42
2.50000000000000
 43
2.50000000000000
 50
270.000000000000
  0
INSERT
  5
F10065
330
F10016
100
AcDbEntity
  8
Bemassung
 62
     0
370
    -2
100
AcDbBlockReference
  2
VDDIM_DEFAULT
10
-22.1302982848285
20
4.23931593413815
30
0.000000000000000
 41
2.50000000000000
 42
2.50000000000000
 43
2.50000000000000
 50
90.0000000000000
  0
MTEXT
  5
F10066
330
F10016
100
AcDbEntity
  8
Bemassung
 62
     0
100
AcDbMText
10
-21.4636316181618
20
0.239315934138148
30
0.000000000000000
 40
2.50000000000000
 41
0.0
 71
     8
 72
     1
  1
8h6
 11
6.12323399573677e-017
 21
1.00000000000000
 31
0.0
 73
     1
 44
1.0
  0
POINT
  5
F10067
330
F10016
100
AcDbEntity
  8
Bemassung
 62
     0
100
AcDbPoint
10
-33.1302982848285
20
-3.76068406586185
30
0.000000000000000
  0
POINT
  5
F10068
330
F10016
100
AcDbEntity
  8
Bemassung
 62
     0
100
AcDbPoint
10
-33.1302982848285
20
4.23931593413815
30
0.000000000000000
  0
ENDBLK
  5
F10069
330
F10016
100
AcDbEntity
  8
0
100
AcDbBlockEnd
0
ENDSEC
0
SECTION
2
ENTITIES
  0
DIMENSION
  5
F10012
330
261
100
AcDbEntity
  8
Bemassung
100
AcDbDimension
  2
*D6
10
-32.1302982848285
20
14.2393159341381
30
0.000000000000000
11
-55.1302982848285
21
14.9059826008048
31
0.000000000000000
 70
32
 1
46
 71
     8
  3
BEM-ISBE
100
AcDbAlignedDimension
13
-78.1302982848285
23
4.23931593413815
33
0.000000000000000
14
-32.1302982848285
24
3.23931593413815
34
0.000000000000000
100
AcDbRotatedDimension
1001
ACAD
1000
DSTYLE
1002
{
1070
284
1070
8
1070
78
1070
8
1070
144
1040
1.00000000000000
1070
147
1040
0.625
1070
 72
1070
 0
1070
 71
1070
 0
1002
}
  0
DIMENSION
  5
F1001C
330
261
100
AcDbEntity
  8
Bemassung
100
AcDbDimension
  2
*D8
10
-96.1302982848285
20
-8.76068406586185
30
0.000000000000000
11
-87.1302982848285
21
-8.09401739919519
31
0.000000000000000
 70
32
 1
18
 71
     8
  3
BEM-ISBE
100
AcDbAlignedDimension
13
-78.1302982848285
23
-3.76068406586185
33
0.000000000000000
14
-96.1302982848285
24
-10.7606840658619
34
0.000000000000000
100
AcDbRotatedDimension
1001
ACAD
1000
DSTYLE
1002
{
1070
284
1070
8
1070
78
1070
8
1070
144
1040
1.00000000000000
1070
147
1040
0.625
1070
 72
1070
 0
1070
 71
1070
 0
1002
}
  0
DIMENSION
  5
F10021
330
261
100
AcDbEntity
  8
Bemassung
100
AcDbDimension
  2
*D9
10
-96.1302982848285
20
19.2393159341381
30
0.000000000000000
11
-64.1302982848285
21
19.9059826008048
31
0.000000000000000
 70
32
 1
64
 71
     8
  3
BEM-ISBE
100
AcDbAlignedDimension
13
-32.1302982848285
23
3.23931593413815
33
0.000000000000000
14
-96.1302982848285
24
-10.7606840658619
34
0.000000000000000
100
AcDbRotatedDimension
1001
ACAD
1000
DSTYLE
1002
{
1070
284
1070
8
1070
78
1070
8
1070
144
1040
1.00000000000000
1070
147
1040
0.625
1070
 72
1070
 0
1070
 71
1070
 0
1002
}
  0
DIMENSION
  5
F10003
330
261
100
AcDbEntity
  8
Bemassung
100
AcDbDimension
  2
*D3
10
-96.1296891118476
20
3.20441643743565
30
0.000000000000000
11
-100.625960892517
21
21.5711930248022
31
0.000000000000000
 70
34
 1
2°
 71
     8
  3
BEM-ISBE
100
AcDb2LineAngularDimension
13
-96.1296891118476
23
3.20441643743565
33
0.000000000000000
14
-100.115212930201
24
21.6887487767228
34
0.000000000000000
15
-96.1296891118476
25
22.1135396888156
35
0.000000000000000
16
-96.4596988162033
26
22.1106597377560
36
0.000000000000000
1001
ACAD
1000
DSTYLE
1002
{
1070
284
1070
8
1070
79
1070
2
1070
147
1040
0.625
1070
 72
1070
 0
1070
 71
1070
 0
1002
}
  0
DIMENSION
  5
F1000D
330
261
100
AcDbEntity
  8
Bemassung
100
AcDbDimension
  2
*D5
10
-95.1302982848285
20
3.23931593413815
30
0.000000000000000
11
-103.043036088554
21
10.8805580091871
31
0.000000000000000
 70
164
 1
R1
 71
     8
  3
BEM-ISBE
100
AcDbRadialDimension
15
-95.8496380851671
25
3.93397430459714
35
0.000000000000000
40
0.0
1001
ACAD
1000
DSTYLE
1002
{
1070
284
1070
8
1070
78
1070
8
1070
144
1040
1.00000000000000
1070
147
1040
0.625
1070
 72
1070
 0
1070
 71
1070
 0
1002
}
  0
DIMENSION
  5
F10008
330
261
100
AcDbEntity
  8
Bemassung
100
AcDbDimension
  2
*D4
10
-106.130298284828
20
4.23931593413815
30
0.000000000000000
11
-105.463631618162
21
0.239315934138148
31
0.000000000000000
 70
32
 1
8
 71
     8
  3
BEM-ISBE
100
AcDbAlignedDimension
13
-95.1302982848285
23
-3.76068406586185
33
0.000000000000000
14
-95.1302982848285
24
4.23931593413815
34
0.000000000000000
50
90.0000000000000
100
AcDbRotatedDimension
1001
ACAD
1000
DSTYLE
1002
{
1070
284
1070
8
1070
78
1070
8
1070
144
1040
1.00000000000000
1070
147
1040
0.625
1070
 72
1070
 0
1070
 71
1070
 0
1002
}
  0
DIMENSION
  5
F10017
330
261
100
AcDbEntity
  8
Bemassung
100
AcDbDimension
  2
*D7
10
-22.1302982848285
20
4.23931593413815
30
0.000000000000000
11
-21.4636316181618
21
0.239315934138148
31
0.000000000000000
 70
32
 1
8h6
 71
     8
  3
BEM-ISBE
100
AcDbAlignedDimension
13
-33.1302982848285
23
-3.76068406586185
33
0.000000000000000
14
-33.1302982848285
24
4.23931593413815
34
0.000000000000000
50
90.0000000000000
100
AcDbRotatedDimension
1001
ACAD
1000
DSTYLE
1002
{
1070
284
1070
8
1070
78
1070
8
1070
144
1040
1.00000000000000
1070
147
1040
0.625
1070
 72
1070
 0
1070
 71
1070
 0
1002
}
  0
LINE
  5
F1006A
330
F1006B
100
AcDbEntity
8
Geo
100
AcDbLine
10
-96.0261455206520
20
0.239315934138148
30
0.000000000000000
11
-96.1296891118476
21
3.20441643743565
31
0.000000000000000
  0
ARC
  5
F1006C
330
F1006D
100
AcDbEntity
8
Geo
100
AcDbCircle
10
-95.1302982848285
20
3.23931593413815
30
0.000000000000000
 40
1.00000000000000
100
AcDbArc
 50
90.0000000000000
 51
182.000000000000
  0
LINE
  5
F1006E
330
F1006F
100
AcDbEntity
8
Geo
100
AcDbLine
10
-95.1302982848285
20
4.23931593413815
30
0.000000000000000
11
-78.1302982848285
21
4.23931593413815
31
0.000000000000000
  0
LINE
  5
F10070
330
F10071
100
AcDbEntity
8
Geo
100
AcDbLine
10
-78.1302982848285
20
4.23931593413815
30
0.000000000000000
11
-33.1302982848285
21
4.23931593413815
31
0.000000000000000
  0
LINE
  5
F10072
330
F10073
100
AcDbEntity
8
Geo
100
AcDbLine
10
-33.1302982848285
20
4.23931593413815
30
0.000000000000000
11
-32.1302982848285
21
3.23931593413815
31
0.000000000000000
  0
LINE
  5
F10074
330
F10075
100
AcDbEntity
8
Geo
100
AcDbLine
10
-92.9302982848285
20
4.23807034628569
30
0.000000000000000
11
-92.8302982848285
21
4.23894962681835
31
0.000000000000000
  0
LINE
  5
F10076
330
F10077
100
AcDbEntity
8
Geo
100
AcDbLine
10
-92.8302982848285
20
4.23894962681835
30
0.000000000000000
11
-92.7302982848285
21
4.23390425559526
31
0.000000000000000
  0
LINE
  5
F10078
330
F10079
100
AcDbEntity
8
Geo
100
AcDbLine
10
-92.7302982848285
20
4.23390425559526
30
0.000000000000000
11
-92.6302982848285
21
4.22294170631772
31
0.000000000000000
  0
LINE
  5
F1007A
330
F1007B
100
AcDbEntity
8
Geo
100
AcDbLine
10
-92.6302982848285
20
4.22294170631772
30
0.000000000000000
11
-92.5302982848284
21
4.20607821779452
31
0.000000000000000
  0
LINE
  5
F1007C
330
F1007D
100
AcDbEntity
8
Geo
100
AcDbLine
10
-92.5302982848284
20
4.20607821779452
30
0.000000000000000
11
-92.4302982848285
21
4.18333876988748
31
0.000000000000000
  0
LINE
  5
F1007E
330
F1007F
100
AcDbEntity
8
Geo
100
AcDbLine
10
-92.4302982848285
20
4.18333876988748
30
0.000000000000000
11
-92.3302982848285
21
4.15475704650873
31
0.000000000000000
  0
LINE
  5
F10080
330
F10081
100
AcDbEntity
8
Geo
100
AcDbLine
10
-92.3302982848285
20
4.15475704650873
30
0.000000000000000
11
-92.2302982848285
21
4.12037538572488
31
0.000000000000000
  0
LINE
  5
F10082
330
F10083
100
AcDbEntity
8
Geo
100
AcDbLine
10
-92.2302982848285
20
4.12037538572488
30
0.000000000000000
11
-92.1302982848285
21
4.08024471704161
31
0.000000000000000
  0
LINE
  5
F10084
330
F10085
100
AcDbEntity
8
Geo
100
AcDbLine
10
-92.1302982848285
20
4.08024471704161
30
0.000000000000000
11
-92.0302982848285
21
4.03442448596193
31
0.000000000000000
  0
LINE
  5
F10086
330
F10087
100
AcDbEntity
8
Geo
100
AcDbLine
10
-92.0302982848285
20
4.03442448596193
30
0.000000000000000
11
-91.9302982848285
21
3.98298256592959
31
0.000000000000000
  0
LINE
  5
F10088
330
F10089
100
AcDbEntity
8
Geo
100
AcDbLine
10
-91.9302982848285
20
3.98298256592959
30
0.000000000000000
11
-91.8302982848285
21
3.92599515778829
31
0.000000000000000
  0
LINE
  5
F1008A
330
F1008B
100
AcDbEntity
8
Geo
100
AcDbLine
10
-91.8302982848285
20
3.92599515778829
30
0.000000000000000
11
-91.7302982848285
21
3.86354667690545
31
0.000000000000000
  0
LINE
  5
F1008C
330
F1008D
100
AcDbEntity
8
Geo
100
AcDbLine
10
-91.7302982848285
20
3.86354667690545
30
0.000000000000000
11
-91.6302982848285
21
3.79572962812784
31
0.000000000000000
  0
LINE
  5
F1008E
330
F1008F
100
AcDbEntity
8
Geo
100
AcDbLine
10
-91.6302982848285
20
3.79572962812784
30
0.000000000000000
11
-91.5302982848285
21
3.72264446875430
31
0.000000000000000
  0
LINE
  5
F10090
330
F10091
100
AcDbEntity
8
Geo
100
AcDbLine
10
-91.5302982848285
20
3.72264446875430
30
0.000000000000000
11
-91.4302982848285
21
3.64439945972847
31
0.000000000000000
  0
LINE
  5
F10092
330
F10093
100
AcDbEntity
8
Geo
100
AcDbLine
10
-91.4302982848285
20
3.64439945972847
30
0.000000000000000
11
-91.3302982848285
21
3.56111050527203
31
0.000000000000000
  0
LINE
  5
F10094
330
F10095
100
AcDbEntity
8
Geo
100
AcDbLine
10
-91.3302982848285
20
3.56111050527203
30
0.000000000000000
11
-91.2302982848285
21
3.47290098119590
31
0.000000000000000
  0
LINE
  5
F10096
330
F10097
100
AcDbEntity
8
Geo
100
AcDbLine
10
-91.2302982848285
20
3.47290098119590
30
0.000000000000000
11
-91.1302982848285
21
3.37990155214386
31
0.000000000000000
  0
LINE
  5
F10098
330
F10099
100
AcDbEntity
8
Geo
100
AcDbLine
10
-91.1302982848285
20
3.37990155214386
30
0.000000000000000
11
-91.0302982848285
21
3.28224997803917
31
0.000000000000000
  0
LINE
  5
F1009A
330
F1009B
100
AcDbEntity
8
Geo
100
AcDbLine
10
-91.0302982848285
20
3.28224997803917
30
0.000000000000000
11
-90.9302982848285
21
3.18009091002103
31
0.000000000000000
  0
LINE
  5
F1009C
330
F1009D
100
AcDbEntity
8
Geo
100
AcDbLine
10
-90.9302982848285
20
3.18009091002103
30
0.000000000000000
11
-90.8302982848285
21
3.07357567617301
31
0.000000000000000
  0
LINE
  5
F1009E
330
F1009F
100
AcDbEntity
8
Geo
100
AcDbLine
10
-90.8302982848285
20
3.07357567617301
30
0.000000000000000
11
-90.7302982848285
21
2.96286205736098
31
0.000000000000000
  0
LINE
  5
F100A0
330
F100A1
100
AcDbEntity
8
Geo
100
AcDbLine
10
-90.7302982848285
20
2.96286205736098
30
0.000000000000000
11
-90.6302982848285
21
2.84811405351255
31
0.000000000000000
  0
LINE
  5
F100A2
330
F100A3
100
AcDbEntity
8
Geo
100
AcDbLine
10
-90.6302982848285
20
2.84811405351255
30
0.000000000000000
11
-90.5302982848285
21
2.72950164068422
31
0.000000000000000
  0
LINE
  5
F100A4
330
F100A5
100
AcDbEntity
8
Geo
100
AcDbLine
10
-90.5302982848285
20
2.72950164068422
30
0.000000000000000
11
-90.4302982848285
21
2.60720051927605
31
0.000000000000000
  0
LINE
  5
F100A6
330
F100A7
100
AcDbEntity
8
Geo
100
AcDbLine
10
-90.4302982848285
20
2.60720051927605
30
0.000000000000000
11
-90.3302982848285
21
2.48139185376693
31
0.000000000000000
  0
LINE
  5
F100A8
330
F100A9
100
AcDbEntity
8
Geo
100
AcDbLine
10
-90.3302982848285
20
2.48139185376693
30
0.000000000000000
11
-90.2302982848285
21
2.35226200435588
31
0.000000000000000
  0
LINE
  5
F100AA
330
F100AB
100
AcDbEntity
8
Geo
100
AcDbLine
10
-90.2302982848285
20
2.35226200435588
30
0.000000000000000
11
-90.1302982848285
21
2.22000225090696
31
0.000000000000000
  0
LINE
  5
F100AC
330
F100AD
100
AcDbEntity
8
Geo
100
AcDbLine
10
-90.1302982848285
20
2.22000225090696
30
0.000000000000000
11
-90.0302982848285
21
2.08480850960668
31
0.000000000000000
  0
LINE
  5
F100AE
330
F100AF
100
AcDbEntity
8
Geo
100
AcDbLine
10
-90.0302982848285
20
2.08480850960668
30
0.000000000000000
11
-89.9302982848285
21
1.94688104275361
31
0.000000000000000
  0
LINE
  5
F100B0
330
F100B1
100
AcDbEntity
8
Geo
100
AcDbLine
10
-89.9302982848285
20
1.94688104275361
30
0.000000000000000
11
-89.8302982848285
21
1.80642416211015
31
0.000000000000000
  0
LINE
  5
F100B2
330
F100B3
100
AcDbEntity
8
Geo
100
AcDbLine
10
-89.8302982848285
20
1.80642416211015
30
0.000000000000000
11
-89.7302982848285
21
1.66364592625576
31
0.000000000000000
  0
LINE
  5
F100B4
330
F100B5
100
AcDbEntity
8
Geo
100
AcDbLine
10
-89.7302982848285
20
1.66364592625576
30
0.000000000000000
11
-89.6302982848285
21
1.51875783239013
31
0.000000000000000
  0
LINE
  5
F100B6
330
F100B7
100
AcDbEntity
8
Geo
100
AcDbLine
10
-89.6302982848285
20
1.51875783239013
30
0.000000000000000
11
-89.5302982848285
21
1.37197450304262
31
0.000000000000000
  0
LINE
  5
F100B8
330
F100B9
100
AcDbEntity
8
Geo
100
AcDbLine
10
-89.5302982848285
20
1.37197450304262
30
0.000000000000000
11
-89.4302982848285
21
1.22351336815228
31
0.000000000000000
  0
LINE
  5
F100BA
330
F100BB
100
AcDbEntity
8
Geo
100
AcDbLine
10
-89.4302982848285
20
1.22351336815228
30
0.000000000000000
11
-89.3302982848285
21
1.07359434298910
31
0.000000000000000
  0
LINE
  5
F100BC
330
F100BD
100
AcDbEntity
8
Geo
100
AcDbLine
10
-89.3302982848285
20
1.07359434298910
30
0.000000000000000
11
-89.2302982848285
21
0.922439502393925
31
0.000000000000000
  0
LINE
  5
F100BE
330
F100BF
100
AcDbEntity
8
Geo
100
AcDbLine
10
-89.2302982848285
20
0.922439502393925
30
0.000000000000000
11
-89.1302982848285
21
0.770272751819226
31
0.000000000000000
  0
LINE
  5
F100C0
330
F100C1
100
AcDbEntity
8
Geo
100
AcDbLine
10
-89.1302982848285
20
0.770272751819226
30
0.000000000000000
11
-89.0302982848285
21
0.617319495658313
31
0.000000000000000
  0
LINE
  5
F100C2
330
F100C3
100
AcDbEntity
8
Geo
100
AcDbLine
10
-89.0302982848285
20
0.617319495658313
30
0.000000000000000
11
-88.9302982848285
21
0.463806303354113
31
0.000000000000000
  0
LINE
  5
F100C4
330
F100C5
100
AcDbEntity
8
Geo
100
AcDbLine
10
-88.9302982848285
20
0.463806303354113
30
0.000000000000000
11
-88.8302982848285
21
0.309960573782175
31
0.000000000000000
  0
LINE
  5
F100C6
330
F100C7
100
AcDbEntity
8
Geo
100
AcDbLine
10
-88.8302982848285
20
0.309960573782175
30
0.000000000000000
11
-88.7302982848285
21
0.156010198405030
31
0.000000000000000
  0
LINE
  5
F100C8
330
F100C9
100
AcDbEntity
8
Geo
100
AcDbLine
10
-88.7302982848285
20
0.156010198405030
30
0.000000000000000
11
-88.6302982848285
21
0.00218322369689672
31
0.000000000000000
  0
LINE
  5
F100CA
330
F100CB
100
AcDbEntity
8
Geo
100
AcDbLine
10
-88.6302982848285
20
0.00218322369689672
30
0.000000000000000
11
-88.5302982848285
21
-0.151292486661246
31
0.000000000000000
  0
LINE
  5
F100CC
330
F100CD
100
AcDbEntity
8
Geo
100
AcDbLine
10
-88.5302982848285
20
-0.151292486661246
30
0.000000000000000
11
-88.4302982848285
21
-0.304189589315808
31
0.000000000000000
  0
LINE
  5
F100CE
330
F100CF
100
AcDbEntity
8
Geo
100
AcDbLine
10
-88.4302982848285
20
-0.304189589315808
30
0.000000000000000
11
-88.3302982848285
21
-0.456281598003967
31
0.000000000000000
  0
LINE
  5
F100D0
330
F100D1
100
AcDbEntity
8
Geo
100
AcDbLine
10
-88.3302982848285
20
-0.456281598003967
30
0.000000000000000
11
-88.2302982848285
21
-0.607343219047468
31
0.000000000000000
  0
LINE
  5
F100D2
330
F100D3
100
AcDbEntity
8
Geo
100
AcDbLine
10
-88.2302982848285
20
-0.607343219047468
30
0.000000000000000
11
-88.1302982848285
21
-0.757150685079820
31
0.000000000000000
  0
LINE
  5
F100D4
330
F100D5
100
AcDbEntity
8
Geo
100
AcDbLine
10
-88.1302982848285
20
-0.757150685079820
30
0.000000000000000
11
-88.0302982848285
21
-0.905482086512583
31
0.000000000000000
  0
LINE
  5
F100D6
330
F100D7
100
AcDbEntity
8
Geo
100
AcDbLine
10
-88.0302982848285
20
-0.905482086512583
30
0.000000000000000
11
-87.9302982848285
21
-1.05211770024973
31
0.000000000000000
  0
LINE
  5
F100D8
330
F100D9
100
AcDbEntity
8
Geo
100
AcDbLine
10
-87.9302982848285
20
-1.05211770024973
30
0.000000000000000
11
-87.8302982848285
21
-1.19684031516316
31
0.000000000000000
  0
LINE
  5
F100DA
330
F100DB
100
AcDbEntity
8
Geo
100
AcDbLine
10
-87.8302982848285
20
-1.19684031516316
30
0.000000000000000
11
-87.7302982848285
21
-1.33943555384723
31
0.000000000000000
  0
LINE
  5
F100DC
330
F100DD
100
AcDbEntity
8
Geo
100
AcDbLine
10
-87.7302982848285
20
-1.33943555384723
30
0.000000000000000
11
-87.6302982848285
21
-1.47969219017572
31
0.000000000000000
  0
LINE
  5
F100DE
330
F100DF
100
AcDbEntity
8
Geo
100
AcDbLine
10
-87.6302982848285
20
-1.47969219017572
30
0.000000000000000
11
-87.5302982848285
21
-1.61740246219077
31
0.000000000000000
  0
LINE
  5
F100E0
330
F100E1
100
AcDbEntity
8
Geo
100
AcDbLine
10
-87.5302982848285
20
-1.61740246219077
30
0.000000000000000
11
-87.4302982848285
21
-1.75236237986041
31
0.000000000000000
  0
LINE
  5
F100E2
330
F100E3
100
AcDbEntity
8
Geo
100
AcDbLine
10
-87.4302982848285
20
-1.75236237986041
30
0.000000000000000
11
-87.3302982848285
21
-1.88437202724867
31
0.000000000000000
  0
LINE
  5
F100E4
330
F100E5
100
AcDbEntity
8
Geo
100
AcDbLine
10
-87.3302982848285
20
-1.88437202724867
30
0.000000000000000
11
-87.2302982848285
21
-2.01323585865081
31
0.000000000000000
  0
LINE
  5
F100E6
330
F100E7
100
AcDbEntity
8
Geo
100
AcDbLine
10
-87.2302982848285
20
-2.01323585865081
30
0.000000000000000
11
-87.1302982848285
21
-2.13876298825486
31
0.000000000000000
  0
LINE
  5
F100E8
330
F100E9
100
AcDbEntity
8
Geo
100
AcDbLine
10
-87.1302982848285
20
-2.13876298825486
30
0.000000000000000
11
-87.0302982848285
21
-2.26076747290053
31
0.000000000000000
  0
LINE
  5
F100EA
330
F100EB
100
AcDbEntity
8
Geo
100
AcDbLine
10
-87.0302982848285
20
-2.26076747290053
30
0.000000000000000
11
-86.9302982848285
21
-2.37906858751657
31
0.000000000000000
  0
LINE
  5
F100EC
330
F100ED
100
AcDbEntity
8
Geo
100
AcDbLine
10
-86.9302982848285
20
-2.37906858751657
30
0.000000000000000
11
-86.8302982848285
21
-2.49349109282851
31
0.000000000000000
  0
LINE
  5
F100EE
330
F100EF
100
AcDbEntity
8
Geo
100
AcDbLine
10
-86.8302982848285
20
-2.49349109282851
30
0.000000000000000
11
-86.7302982848285
21
-2.60386549494038
31
0.000000000000000
  0
LINE
  5
F100F0
330
F100F1
100
AcDbEntity
8
Geo
100
AcDbLine
10
-86.7302982848285
20
-2.60386549494038
30
0.000000000000000
11
-86.6302982848285
21
-2.71002829640579
31
0.000000000000000
  0
LINE
  5
F100F2
330
F100F3
100
AcDbEntity
8
Geo
100
AcDbLine
10
-86.6302982848285
20
-2.71002829640579
30
0.000000000000000
11
-86.5302982848285
21
-2.81182223841646
31
0.000000000000000
  0
LINE
  5
F100F4
330
F100F5
100
AcDbEntity
8
Geo
100
AcDbLine
10
-86.5302982848285
20
-2.81182223841646
30
0.000000000000000
11
-86.4302982848285
21
-2.90909653374945
31
0.000000000000000
  0
LINE
  5
F100F6
330
F100F7
100
AcDbEntity
8
Geo
100
AcDbLine
10
-86.4302982848285
20
-2.90909653374945
30
0.000000000000000
11
-86.3302982848285
21
-3.00170709012810
31
0.000000000000000
  0
LINE
  5
F100F8
330
F100F9
100
AcDbEntity
8
Geo
100
AcDbLine
10
-86.3302982848285
20
-3.00170709012810
30
0.000000000000000
11
-86.2302982848285
21
-3.08951672366567
31
0.000000000000000
  0
LINE
  5
F100FA
330
F100FB
100
AcDbEntity
8
Geo
100
AcDbLine
10
-86.2302982848285
20
-3.08951672366567
30
0.000000000000000
11
-86.1302982848285
21
-3.17239536207568
31
0.000000000000000
  0
LINE
  5
F100FC
330
F100FD
100
AcDbEntity
8
Geo
100
AcDbLine
10
-86.1302982848285
20
-3.17239536207568
30
0.000000000000000
11
-86.0302982848285
21
-3.25022023734778
31
0.000000000000000
  0
LINE
  5
F100FE
330
F100FF
100
AcDbEntity
8
Geo
100
AcDbLine
10
-86.0302982848285
20
-3.25022023734778
30
0.000000000000000
11
-85.9302982848285
21
-3.32287606760385
31
0.000000000000000
  0
LINE
  5
F10100
330
F10101
100
AcDbEntity
8
Geo
100
AcDbLine
10
-85.9302982848285
20
-3.32287606760385
30
0.000000000000000
11
-85.8302982848285
21
-3.39025522786485
31
0.000000000000000
  0
LINE
  5
F10102
330
F10103
100
AcDbEntity
8
Geo
100
AcDbLine
10
-85.8302982848285
20
-3.39025522786485
30
0.000000000000000
11
-85.7302982848285
21
-3.45225790947559
31
0.000000000000000
  0
LINE
  5
F10104
330
F10105
100
AcDbEntity
8
Geo
100
AcDbLine
10
-85.7302982848285
20
-3.45225790947559
30
0.000000000000000
11
-85.6302982848285
21
-3.50879226795113
31
0.000000000000000
  0
LINE
  5
F10106
330
F10107
100
AcDbEntity
8
Geo
100
AcDbLine
10
-85.6302982848285
20
-3.50879226795113
30
0.000000000000000
11
-85.5302982848285
21
-3.55977455902588
31
0.000000000000000
  0
LINE
  5
F10108
330
F10109
100
AcDbEntity
8
Geo
100
AcDbLine
10
-85.5302982848285
20
-3.55977455902588
30
0.000000000000000
11
-85.4302982848285
21
-3.60512926270388
31
0.000000000000000
  0
LINE
  5
F1010A
330
F1010B
100
AcDbEntity
8
Geo
100
AcDbLine
10
-85.4302982848285
20
-3.60512926270388
30
0.000000000000000
11
-85.3302982848285
21
-3.64478919512644
31
0.000000000000000
  0
LINE
  5
F1010C
330
F1010D
100
AcDbEntity
8
Geo
100
AcDbLine
10
-85.3302982848285
20
-3.64478919512644
30
0.000000000000000
11
-85.2302982848285
21
-3.67869560809154
31
0.000000000000000
  0
LINE
  5
F1010E
330
F1010F
100
AcDbEntity
8
Geo
100
AcDbLine
10
-85.2302982848285
20
-3.67869560809154
30
0.000000000000000
11
-85.1302982848285
21
-3.70679827607740
31
0.000000000000000
  0
LINE
  5
F10110
330
F10111
100
AcDbEntity
8
Geo
100
AcDbLine
10
-85.1302982848285
20
-3.70679827607740
30
0.000000000000000
11
-85.0302982848285
21
-3.72905557064151
31
0.000000000000000
  0
LINE
  5
F10112
330
F10113
100
AcDbEntity
8
Geo
100
AcDbLine
10
-85.0302982848285
20
-3.72905557064151
30
0.000000000000000
11
-84.9302982848285
21
-3.74543452208479
31
0.000000000000000
  0
LINE
  5
F10114
330
F10115
100
AcDbEntity
8
Geo
100
AcDbLine
10
-84.9302982848285
20
-3.74543452208479
30
0.000000000000000
11
-84.8302982848285
21
-3.75591086828952
31
0.000000000000000
  0
LINE
  5
F10116
330
F10117
100
AcDbEntity
8
Geo
100
AcDbLine
10
-84.8302982848285
20
-3.75591086828952
30
0.000000000000000
11
-84.7302982848285
21
-3.76046909065884
31
0.000000000000000
  0
LINE
  5
F10118
330
F10119
100
AcDbEntity
8
Geo
100
AcDbLine
10
-96.1302982848285
20
3.23931593413815
30
0.000000000000000
11
-96.0302982848285
21
3.67266103906158
31
0.000000000000000
  0
LINE
  5
F1011A
330
F1011B
100
AcDbEntity
8
Geo
100
AcDbLine
10
-96.0302982848285
20
3.67266103906158
30
0.000000000000000
11
-95.9302982848285
21
3.82865453392081
31
0.000000000000000
  0
LINE
  5
F1011C
330
F1011D
100
AcDbEntity
8
Geo
100
AcDbLine
10
-95.9302982848285
20
3.82865453392081
30
0.000000000000000
11
-95.8302982848285
21
3.92872532465122
31
0.000000000000000
  0
LINE
  5
F1011E
330
F1011F
100
AcDbEntity
8
Geo
100
AcDbLine
10
-95.8302982848285
20
3.92872532465122
30
0.000000000000000
11
-95.7302982848285
21
3.99436778888832
31
0.000000000000000
  0
LINE
  5
F10120
330
F10121
100
AcDbEntity
8
Geo
100
AcDbLine
10
-95.7302982848285
20
3.99436778888832
30
0.000000000000000
11
-95.6302982848285
21
4.03396896851599
31
0.000000000000000
  0
LINE
  5
F10122
330
F10123
100
AcDbEntity
8
Geo
100
AcDbLine
10
-95.6302982848285
20
4.03396896851599
30
0.000000000000000
11
-95.5302982848285
21
4.05185402457223
31
0.000000000000000
  0
LINE
  5
F10124
330
F10125
100
AcDbEntity
8
Geo
100
AcDbLine
10
-95.5302982848285
20
4.05185402457223
30
0.000000000000000
11
-95.4302982848285
21
4.05060785590543
31
0.000000000000000
  0
LINE
  5
F10126
330
F10127
100
AcDbEntity
8
Geo
100
AcDbLine
10
-95.4302982848285
20
4.05060785590543
30
0.000000000000000
11
-95.3302982848285
21
4.03192606244372
31
0.000000000000000
  0
LINE
  5
F10128
330
F10129
100
AcDbEntity
8
Geo
100
AcDbLine
10
-95.3302982848285
20
4.03192606244372
30
0.000000000000000
11
-95.2302982848285
21
3.99699155002907
31
0.000000000000000
  0
LINE
  5
F1012A
330
F1012B
100
AcDbEntity
8
Geo
100
AcDbLine
10
-95.2302982848285
20
3.99699155002907
30
0.000000000000000
11
-95.1302982848285
21
3.94665960042484
31
0.000000000000000
  0
LINE
  5
F1012C
330
F1012D
100
AcDbEntity
8
Geo
100
AcDbLine
10
-95.1302982848285
20
3.94665960042484
30
0.000000000000000
11
-95.0302982848285
21
3.88612116321619
31
0.000000000000000
  0
LINE
  5
F1012E
330
F1012F
100
AcDbEntity
8
Geo
100
AcDbLine
10
-95.0302982848285
20
3.88612116321619
30
0.000000000000000
11
-94.9302982848285
21
3.82018071855800
31
0.000000000000000
  0
LINE
  5
F10130
330
F10131
100
AcDbEntity
8
Geo
100
AcDbLine
10
-94.9302982848285
20
3.82018071855800
30
0.000000000000000
11
-94.8302982848285
21
3.74893594393806
31
0.000000000000000
  0
LINE
  5
F10132
330
F10133
100
AcDbEntity
8
Geo
100
AcDbLine
10
-94.8302982848285
20
3.74893594393806
30
0.000000000000000
11
-94.7302982848285
21
3.67249237414067
31
0.000000000000000
  0
LINE
  5
F10134
330
F10135
100
AcDbEntity
8
Geo
100
AcDbLine
10
-94.7302982848285
20
3.67249237414067
30
0.000000000000000
11
-94.6302982848285
21
3.59096324491812
31
0.000000000000000
  0
LINE
  5
F10136
330
F10137
100
AcDbEntity
8
Geo
100
AcDbLine
10
-94.6302982848285
20
3.59096324491812
30
0.000000000000000
11
-94.5302982848285
21
3.50446932525468
31
0.000000000000000
  0
LINE
  5
F10138
330
F10139
100
AcDbEntity
8
Geo
100
AcDbLine
10
-94.5302982848285
20
3.50446932525468
30
0.000000000000000
11
-94.4302982848285
21
3.41313873847174
31
0.000000000000000
  0
LINE
  5
F1013A
330
F1013B
100
AcDbEntity
8
Geo
100
AcDbLine
10
-94.4302982848285
20
3.41313873847174
30
0.000000000000000
11
-94.3302982848285
21
3.31710677243887
31
0.000000000000000
  0
LINE
  5
F1013C
330
F1013D
100
AcDbEntity
8
Geo
100
AcDbLine
10
-94.3302982848285
20
3.31710677243887
30
0.000000000000000
11
-94.2302982848285
21
3.21651567917209
31
0.000000000000000
  0
LINE
  5
F1013E
330
F1013F
100
AcDbEntity
8
Geo
100
AcDbLine
10
-94.2302982848285
20
3.21651567917209
30
0.000000000000000
11
-94.1302982848285
21
3.11151446411618
31
0.000000000000000
  0
LINE
  5
F10140
330
F10141
100
AcDbEntity
8
Geo
100
AcDbLine
10
-94.1302982848285
20
3.11151446411618
30
0.000000000000000
11
-94.0302982848285
21
3.00225866542312
31
0.000000000000000
  0
LINE
  5
F10142
330
F10143
100
AcDbEntity
8
Geo
100
AcDbLine
10
-94.0302982848285
20
3.00225866542312
30
0.000000000000000
11
-93.9302982848285
21
2.88891012355363
31
0.000000000000000
  0
LINE
  5
F10144
330
F10145
100
AcDbEntity
8
Geo
100
AcDbLine
10
-93.9302982848285
20
2.88891012355363
30
0.000000000000000
11
-93.8302982848285
21
2.77163674154314
31
0.000000000000000
  0
LINE
  5
F10146
330
F10147
100
AcDbEntity
8
Geo
100
AcDbLine
10
-93.8302982848285
20
2.77163674154314
30
0.000000000000000
11
-93.7302982848285
21
2.65061223628726
31
0.000000000000000
  0
LINE
  5
F10148
330
F10149
100
AcDbEntity
8
Geo
100
AcDbLine
10
-93.7302982848285
20
2.65061223628726
30
0.000000000000000
11
-93.6302982848285
21
2.52601588121515
31
0.000000000000000
  0
LINE
  5
F1014A
330
F1014B
100
AcDbEntity
8
Geo
100
AcDbLine
10
-93.6302982848285
20
2.52601588121515
30
0.000000000000000
11
-93.5302982848285
21
2.39803224073211
31
0.000000000000000
  0
LINE
  5
F1014C
330
F1014D
100
AcDbEntity
8
Geo
100
AcDbLine
10
-93.5302982848285
20
2.39803224073211
30
0.000000000000000
11
-93.4302982848285
21
2.26685089682452
31
0.000000000000000
  0
LINE
  5
F1014E
330
F1014F
100
AcDbEntity
8
Geo
100
AcDbLine
10
-93.4302982848285
20
2.26685089682452
30
0.000000000000000
11
-93.3302982848285
21
2.13266616823236
31
0.000000000000000
  0
LINE
  5
F10150
330
F10151
100
AcDbEntity
8
Geo
100
AcDbLine
10
-93.3302982848285
20
2.13266616823236
30
0.000000000000000
11
-93.2302982848285
21
1.99567682260509
31
0.000000000000000
  0
LINE
  5
F10152
330
F10153
100
AcDbEntity
8
Geo
100
AcDbLine
10
-93.2302982848285
20
1.99567682260509
30
0.000000000000000
11
-93.1302982848285
21
1.85608578206745
31
0.000000000000000
  0
LINE
  5
F10154
330
F10155
100
AcDbEntity
8
Geo
100
AcDbLine
10
-93.1302982848285
20
1.85608578206745
30
0.000000000000000
11
-93.0302982848285
21
1.71409982263120
31
0.000000000000000
  0
LINE
  5
F10156
330
F10157
100
AcDbEntity
8
Geo
100
AcDbLine
10
-93.0302982848285
20
1.71409982263120
30
0.000000000000000
11
-92.9302982848285
21
1.56992926789806
31
0.000000000000000
  0
LINE
  5
F10158
330
F10159
100
AcDbEntity
8
Geo
100
AcDbLine
10
-92.9302982848285
20
1.56992926789806
30
0.000000000000000
11
-92.8302982848285
21
1.42378767750770
31
0.000000000000000
  0
LINE
  5
F1015A
330
F1015B
100
AcDbEntity
8
Geo
100
AcDbLine
10
-92.8302982848285
20
1.42378767750770
30
0.000000000000000
11
-92.7302982848285
21
1.27589153079213
31
0.000000000000000
  0
LINE
  5
F1015C
330
F1015D
100
AcDbEntity
8
Geo
100
AcDbLine
10
-92.7302982848285
20
1.27589153079213
30
0.000000000000000
11
-92.6302982848285
21
1.12645990610520
31
0.000000000000000
  0
LINE
  5
F1015E
330
F1015F
100
AcDbEntity
8
Geo
100
AcDbLine
10
-92.6302982848285
20
1.12645990610520
30
0.000000000000000
11
-92.5302982848284
21
0.975714156302074
31
0.000000000000000
  0
LINE
  5
F10160
330
F10161
100
AcDbEntity
8
Geo
100
AcDbLine
10
-92.5302982848284
20
0.975714156302074
30
0.000000000000000
11
-92.4302982848285
21
0.823877580849626
31
0.000000000000000
  0
LINE
  5
F10162
330
F10163
100
AcDbEntity
8
Geo
100
AcDbLine
10
-92.4302982848285
20
0.823877580849626
30
0.000000000000000
11
-92.3302982848285
21
0.671175095053222
31
0.000000000000000
  0
LINE
  5
F10164
330
F10165
100
AcDbEntity
8
Geo
100
AcDbLine
10
-92.3302982848285
20
0.671175095053222
30
0.000000000000000
11
-92.2302982848285
21
0.517832896889999
31
0.000000000000000
  0
LINE
  5
F10166
330
F10167
100
AcDbEntity
8
Geo
100
AcDbLine
10
-92.2302982848285
20
0.517832896889999
30
0.000000000000000
11
-92.1302982848285
21
0.364078131942126
31
0.000000000000000
  0
LINE
  5
F10168
330
F10169
100
AcDbEntity
8
Geo
100
AcDbLine
10
-92.1302982848285
20
0.364078131942126
30
0.000000000000000
11
-92.0302982848285
21
0.210138556926366
31
0.000000000000000
  0
LINE
  5
F1016A
330
F1016B
100
AcDbEntity
8
Geo
100
AcDbLine
10
-92.0302982848285
20
0.210138556926366
30
0.000000000000000
11
-91.9302982848285
21
0.0562422023183740
31
0.000000000000000
  0
LINE
  5
F1016C
330
F1016D
100
AcDbEntity
8
Geo
100
AcDbLine
10
-91.9302982848285
20
0.0562422023183740
30
0.000000000000000
11
-91.8302982848285
21
-0.0973829654285197
31
0.000000000000000
  0
LINE
  5
F1016E
330
F1016F
100
AcDbEntity
8
Geo
100
AcDbLine
10
-91.8302982848285
20
-0.0973829654285197
30
0.000000000000000
11
-91.7302982848285
21
-0.250509381569705
31
0.000000000000000
  0
LINE
  5
F10170
330
F10171
100
AcDbEntity
8
Geo
100
AcDbLine
10
-91.7302982848285
20
-0.250509381569705
30
0.000000000000000
11
-91.6302982848285
21
-0.402910220160618
31
0.000000000000000
  0
LINE
  5
F10172
330
F10173
100
AcDbEntity
8
Geo
100
AcDbLine
10
-91.6302982848285
20
-0.402910220160618
30
0.000000000000000
11
-91.5302982848285
21
-0.554359730053703
31
0.000000000000000
  0
LINE
  5
F10174
330
F10175
100
AcDbEntity
8
Geo
100
AcDbLine
10
-91.5302982848285
20
-0.554359730053703
30
0.000000000000000
11
-91.4302982848285
21
-0.704633569303261
31
0.000000000000000
  0
LINE
  5
F10176
330
F10177
100
AcDbEntity
8
Geo
100
AcDbLine
10
-91.4302982848285
20
-0.704633569303261
30
0.000000000000000
11
-91.3302982848285
21
-0.853509137482862
31
0.000000000000000
  0
LINE
  5
F10178
330
F10179
100
AcDbEntity
8
Geo
100
AcDbLine
10
-91.3302982848285
20
-0.853509137482862
30
0.000000000000000
11
-91.2302982848285
21
-1.00076590542305
31
0.000000000000000
  0
LINE
  5
F1017A
330
F1017B
100
AcDbEntity
8
Geo
100
AcDbLine
10
-91.2302982848285
20
-1.00076590542305
30
0.000000000000000
11
-91.1302982848285
21
-1.14618574188086
31
0.000000000000000
  0
LINE
  5
F1017C
330
F1017D
100
AcDbEntity
8
Geo
100
AcDbLine
10
-91.1302982848285
20
-1.14618574188086
30
0.000000000000000
11
-91.0302982848285
21
-1.28955323665738
31
0.000000000000000
  0
LINE
  5
F1017E
330
F1017F
100
AcDbEntity
8
Geo
100
AcDbLine
10
-91.0302982848285
20
-1.28955323665738
30
0.000000000000000
11
-90.9302982848285
21
-1.43065601968451
31
0.000000000000000
  0
LINE
  5
F10180
330
F10181
100
AcDbEntity
8
Geo
100
AcDbLine
10
-90.9302982848285
20
-1.43065601968451
30
0.000000000000000
11
-90.8302982848285
21
-1.56928507560849
31
0.000000000000000
  0
LINE
  5
F10182
330
F10183
100
AcDbEntity
8
Geo
100
AcDbLine
10
-90.8302982848285
20
-1.56928507560849
30
0.000000000000000
11
-90.7302982848285
21
-1.70523505340403
31
0.000000000000000
  0
LINE
  5
F10184
330
F10185
100
AcDbEntity
8
Geo
100
AcDbLine
10
-90.7302982848285
20
-1.70523505340403
30
0.000000000000000
11
-90.6302982848285
21
-1.83830457056050
31
0.000000000000000
  0
LINE
  5
F10186
330
F10187
100
AcDbEntity
8
Geo
100
AcDbLine
10
-90.6302982848285
20
-1.83830457056050
30
0.000000000000000
11
-90.5302982848285
21
-1.96829651138955
31
0.000000000000000
  0
LINE
  5
F10188
330
F10189
100
AcDbEntity
8
Geo
100
AcDbLine
10
-90.5302982848285
20
-1.96829651138955
30
0.000000000000000
11
-90.4302982848285
21
-2.09501831901232
31
0.000000000000000
  0
LINE
  5
F1018A
330
F1018B
100
AcDbEntity
8
Geo
100
AcDbLine
10
-90.4302982848285
20
-2.09501831901232
30
0.000000000000000
11
-90.3302982848285
21
-2.21828228059365
31
0.000000000000000
  0
LINE
  5
F1018C
330
F1018D
100
AcDbEntity
8
Geo
100
AcDbLine
10
-90.3302982848285
20
-2.21828228059365
30
0.000000000000000
11
-90.2302982848285
21
-2.33790580540087
31
0.000000000000000
  0
LINE
  5
F1018E
330
F1018F
100
AcDbEntity
8
Geo
100
AcDbLine
10
-90.2302982848285
20
-2.33790580540087
30
0.000000000000000
11
-90.1302982848285
21
-2.45371169527517
31
0.000000000000000
  0
LINE
  5
F10190
330
F10191
100
AcDbEntity
8
Geo
100
AcDbLine
10
-90.1302982848285
20
-2.45371169527517
30
0.000000000000000
11
-90.0302982848285
21
-2.56552840711496
31
0.000000000000000
  0
LINE
  5
F10192
330
F10193
100
AcDbEntity
8
Geo
100
AcDbLine
10
-90.0302982848285
20
-2.56552840711496
30
0.000000000000000
11
-89.9302982848285
21
-2.67319030698250
31
0.000000000000000
  0
LINE
  5
F10194
330
F10195
100
AcDbEntity
8
Geo
100
AcDbLine
10
-89.9302982848285
20
-2.67319030698250
30
0.000000000000000
11
-89.8302982848285
21
-2.77653791545714
31
0.000000000000000
  0
LINE
  5
F10196
330
F10197
100
AcDbEntity
8
Geo
100
AcDbLine
10
-89.8302982848285
20
-2.77653791545714
30
0.000000000000000
11
-89.7302982848285
21
-2.87541814387202
31
0.000000000000000
  0
LINE
  5
F10198
330
F10199
100
AcDbEntity
8
Geo
100
AcDbLine
10
-89.7302982848285
20
-2.87541814387202
30
0.000000000000000
11
-89.6302982848285
21
-2.96968452108403
31
0.000000000000000
  0
LINE
  5
F1019A
330
F1019B
100
AcDbEntity
8
Geo
100
AcDbLine
10
-89.6302982848285
20
-2.96968452108403
30
0.000000000000000
11
-89.5302982848285
21
-3.05919741044139
31
0.000000000000000
  0
LINE
  5
F1019C
330
F1019D
100
AcDbEntity
8
Geo
100
AcDbLine
10
-89.5302982848285
20
-3.05919741044139
30
0.000000000000000
11
-89.4302982848285
21
-3.14382421662717
31
0.000000000000000
  0
LINE
  5
F1019E
330
F1019F
100
AcDbEntity
8
Geo
100
AcDbLine
10
-89.4302982848285
20
-3.14382421662717
30
0.000000000000000
11
-89.3302982848285
21
-3.22343958207256
31
0.000000000000000
  0
LINE
  5
F101A0
330
F101A1
100
AcDbEntity
8
Geo
100
AcDbLine
10
-89.3302982848285
20
-3.22343958207256
30
0.000000000000000
11
-89.2302982848285
21
-3.29792557264885
31
0.000000000000000
  0
LINE
  5
F101A2
330
F101A3
100
AcDbEntity
8
Geo
100
AcDbLine
10
-89.2302982848285
20
-3.29792557264885
30
0.000000000000000
11
-89.1302982848285
21
-3.36717185236311
31
0.000000000000000
  0
LINE
  5
F101A4
330
F101A5
100
AcDbEntity
8
Geo
100
AcDbLine
10
-89.1302982848285
20
-3.36717185236311
30
0.000000000000000
11
-89.0302982848285
21
-3.43107584679872
31
0.000000000000000
  0
LINE
  5
F101A6
330
F101A7
100
AcDbEntity
8
Geo
100
AcDbLine
10
-89.0302982848285
20
-3.43107584679872
30
0.000000000000000
11
-88.9302982848285
21
-3.48954289505875
31
0.000000000000000
  0
LINE
  5
F101A8
330
F101A9
100
AcDbEntity
8
Geo
100
AcDbLine
10
-88.9302982848285
20
-3.48954289505875
30
0.000000000000000
11
-88.8302982848285
21
-3.54248638998694
31
0.000000000000000
  0
LINE
  5
F101AA
330
F101AB
100
AcDbEntity
8
Geo
100
AcDbLine
10
-88.8302982848285
20
-3.54248638998694
30
0.000000000000000
11
-88.7302982848285
21
-3.58982790645883
31
0.000000000000000
  0
LINE
  5
F101AC
330
F101AD
100
AcDbEntity
8
Geo
100
AcDbLine
10
-88.7302982848285
20
-3.58982790645883
30
0.000000000000000
11
-88.6302982848285
21
-3.63149731755274
31
0.000000000000000
  0
LINE
  5
F101AE
330
F101AF
100
AcDbEntity
8
Geo
100
AcDbLine
10
-88.6302982848285
20
-3.63149731755274
30
0.000000000000000
11
-88.5302982848285
21
-3.66743289842871
31
0.000000000000000
  0
LINE
  5
F101B0
330
F101B1
100
AcDbEntity
8
Geo
100
AcDbLine
10
-88.5302982848285
20
-3.66743289842871
30
0.000000000000000
11
-88.4302982848285
21
-3.69758141776140
31
0.000000000000000
  0
LINE
  5
F101B2
330
F101B3
100
AcDbEntity
8
Geo
100
AcDbLine
10
-88.4302982848285
20
-3.69758141776140
30
0.000000000000000
11
-88.3302982848285
21
-3.72189821659159
31
0.000000000000000
  0
LINE
  5
F101B4
330
F101B5
100
AcDbEntity
8
Geo
100
AcDbLine
10
-88.3302982848285
20
-3.72189821659159
30
0.000000000000000
11
-88.2302982848285
21
-3.74034727447942
31
0.000000000000000
  0
LINE
  5
F101B6
330
F101B7
100
AcDbEntity
8
Geo
100
AcDbLine
10
-88.2302982848285
20
-3.74034727447942
30
0.000000000000000
11
-88.1302982848285
21
-3.75290126286141
31
0.000000000000000
  0
LINE
  5
F101B8
330
F101B9
100
AcDbEntity
8
Geo
100
AcDbLine
10
-88.1302982848285
20
-3.75290126286141
30
0.000000000000000
11
-88.0302982848285
21
-3.75954158553227
31
0.000000000000000
  0
LINE
  5
F101BA
330
F101BB
100
AcDbEntity
8
Geo
100
AcDbLine
10
-96.1302982848285
20
3.09248548302361
30
0.000000000000000
11
-96.0302982848285
21
3.46376454492036
31
0.000000000000000
  0
LINE
  5
F101BC
330
F101BD
100
AcDbEntity
8
Geo
100
AcDbLine
10
-96.0302982848285
20
3.46376454492036
30
0.000000000000000
11
-95.9302982848285
21
3.56742705209931
31
0.000000000000000
  0
LINE
  5
F101BE
330
F101BF
100
AcDbEntity
8
Geo
100
AcDbLine
10
-95.9302982848285
20
3.56742705209931
30
0.000000000000000
11
-95.8302982848285
21
3.61591826739047
31
0.000000000000000
  0
LINE
  5
F101C0
330
F101C1
100
AcDbEntity
8
Geo
100
AcDbLine
10
-95.8302982848285
20
3.61591826739047
30
0.000000000000000
11
-95.7302982848285
21
3.63050599632809
31
0.000000000000000
  0
LINE
  5
F101C2
330
F101C3
100
AcDbEntity
8
Geo
100
AcDbLine
10
-95.7302982848285
20
3.63050599632809
30
0.000000000000000
11
-95.6302982848285
21
3.61974814787323
31
0.000000000000000
  0
LINE
  5
F101C4
330
F101C5
100
AcDbEntity
8
Geo
100
AcDbLine
10
-95.6302982848285
20
3.61974814787323
30
0.000000000000000
11
-95.5302982848285
21
3.58823313146392
31
0.000000000000000
  0
LINE
  5
F101C6
330
F101C7
100
AcDbEntity
8
Geo
100
AcDbLine
10
-95.5302982848285
20
3.58823313146392
30
0.000000000000000
11
-95.4302982848285
21
3.53883942377318
31
0.000000000000000
  0
LINE
  5
F101C8
330
F101C9
100
AcDbEntity
8
Geo
100
AcDbLine
10
-95.4302982848285
20
3.53883942377318
30
0.000000000000000
11
-95.3302982848285
21
3.47357064940014
31
0.000000000000000
  0
LINE
  5
F101CA
330
F101CB
100
AcDbEntity
8
Geo
100
AcDbLine
10
-95.3302982848285
20
3.47357064940014
30
0.000000000000000
11
-95.2302982848285
21
3.39392971195962
31
0.000000000000000
  0
LINE
  5
F101CC
330
F101CD
100
AcDbEntity
8
Geo
100
AcDbLine
10
-95.2302982848285
20
3.39392971195962
30
0.000000000000000
11
-95.1302982848285
21
3.30110701882705
31
0.000000000000000
  0
LINE
  5
F101CE
330
F101CF
100
AcDbEntity
8
Geo
100
AcDbLine
10
-95.1302982848285
20
3.30110701882705
30
0.000000000000000
11
-95.0302982848285
21
3.19979076378138
31
0.000000000000000
  0
LINE
  5
F101D0
330
F101D1
100
AcDbEntity
8
Geo
100
AcDbLine
10
-95.0302982848285
20
3.19979076378138
30
0.000000000000000
11
-94.9302982848285
21
3.09408916154020
31
0.000000000000000
  0
LINE
  5
F101D2
330
F101D3
100
AcDbEntity
8
Geo
100
AcDbLine
10
-94.9302982848285
20
3.09408916154020
30
0.000000000000000
11
-94.8302982848285
21
2.98415878773802
31
0.000000000000000
  0
LINE
  5
F101D4
330
F101D5
100
AcDbEntity
8
Geo
100
AcDbLine
10
-94.8302982848285
20
2.98415878773802
30
0.000000000000000
11
-94.7302982848285
21
2.87016248208274
31
0.000000000000000
  0
LINE
  5
F101D6
330
F101D7
100
AcDbEntity
8
Geo
100
AcDbLine
10
-94.7302982848285
20
2.87016248208274
30
0.000000000000000
11
-94.6302982848285
21
2.75226910714137
31
0.000000000000000
  0
LINE
  5
F101D8
330
F101D9
100
AcDbEntity
8
Geo
100
AcDbLine
10
-94.6302982848285
20
2.75226910714137
30
0.000000000000000
11
-94.5302982848285
21
2.63065329820416
31
0.000000000000000
  0
LINE
  5
F101DA
330
F101DB
100
AcDbEntity
8
Geo
100
AcDbLine
10
-94.5302982848285
20
2.63065329820416
30
0.000000000000000
11
-94.4302982848285
21
2.50549520459760
31
0.000000000000000
  0
LINE
  5
F101DC
330
F101DD
100
AcDbEntity
8
Geo
100
AcDbLine
10
-94.4302982848285
20
2.50549520459760
30
0.000000000000000
11
-94.3302982848285
21
2.37698022282948
31
0.000000000000000
  0
LINE
  5
F101DE
330
F101DF
100
AcDbEntity
8
Geo
100
AcDbLine
10
-94.3302982848285
20
2.37698022282948
30
0.000000000000000
11
-94.2302982848285
21
2.24529872196128
31
0.000000000000000
  0
LINE
  5
F101E0
330
F101E1
100
AcDbEntity
8
Geo
100
AcDbLine
10
-94.2302982848285
20
2.24529872196128
30
0.000000000000000
11
-94.1302982848285
21
2.11064576161477
31
0.000000000000000
  0
LINE
  5
F101E2
330
F101E3
100
AcDbEntity
8
Geo
100
AcDbLine
10
-94.1302982848285
20
2.11064576161477
30
0.000000000000000
11
-94.0302982848285
21
1.97322080303047
31
0.000000000000000
  0
LINE
  5
F101E4
330
F101E5
100
AcDbEntity
8
Geo
100
AcDbLine
10
-94.0302982848285
20
1.97322080303047
30
0.000000000000000
11
-93.9302982848285
21
1.83322741360597
31
0.000000000000000
  0
LINE
  5
F101E6
330
F101E7
100
AcDbEntity
8
Geo
100
AcDbLine
10
-93.9302982848285
20
1.83322741360597
30
0.000000000000000
11
-93.8302982848285
21
1.69087296535186
31
0.000000000000000
  0
LINE
  5
F101E8
330
F101E9
100
AcDbEntity
8
Geo
100
AcDbLine
10
-93.8302982848285
20
1.69087296535186
30
0.000000000000000
11
-93.7302982848285
21
1.54636832771183
31
0.000000000000000
  0
LINE
  5
F101EA
330
F101EB
100
AcDbEntity
8
Geo
100
AcDbLine
10
-93.7302982848285
20
1.54636832771183
30
0.000000000000000
11
-93.6302982848285
21
1.39992755520210
31
0.000000000000000
  0
LINE
  5
F101EC
330
F101ED
100
AcDbEntity
8
Geo
100
AcDbLine
10
-93.6302982848285
20
1.39992755520210
30
0.000000000000000
11
-93.5302982848285
21
1.25176757033274
31
0.000000000000000
  0
LINE
  5
F101EE
330
F101EF
100
AcDbEntity
8
Geo
100
AcDbLine
10
-93.5302982848285
20
1.25176757033274
30
0.000000000000000
11
-93.4302982848285
21
1.10210784228065
31
0.000000000000000
  0
LINE
  5
F101F0
330
F101F1
100
AcDbEntity
8
Geo
100
AcDbLine
10
-93.4302982848285
20
1.10210784228065
30
0.000000000000000
11
-93.3302982848285
21
0.951170061790218
31
0.000000000000000
  0
LINE
  5
F101F2
330
F101F3
100
AcDbEntity
8
Geo
100
AcDbLine
10
-93.3302982848285
20
0.951170061790218
30
0.000000000000000
11
-93.2302982848285
21
0.799177812783094
31
0.000000000000000
  0
LINE
  5
F101F4
330
F101F5
100
AcDbEntity
8
Geo
100
AcDbLine
10
-93.2302982848285
20
0.799177812783094
30
0.000000000000000
11
-93.1302982848285
21
0.646356241163663
31
0.000000000000000
  0
LINE
  5
F101F6
330
F101F7
100
AcDbEntity
8
Geo
100
AcDbLine
10
-93.1302982848285
20
0.646356241163663
30
0.000000000000000
11
-93.0302982848285
21
0.492931721310725
31
0.000000000000000
  0
LINE
  5
F101F8
330
F101F9
100
AcDbEntity
8
Geo
100
AcDbLine
10
-93.0302982848285
20
0.492931721310725
30
0.000000000000000
11
-92.9302982848285
21
0.339131520749449
31
0.000000000000000
  0
LINE
  5
F101FA
330
F101FB
100
AcDbEntity
8
Geo
100
AcDbLine
10
-92.9302982848285
20
0.339131520749449
30
0.000000000000000
11
-92.8302982848285
21
0.185183463500309
31
0.000000000000000
  0
LINE
  5
F101FC
330
F101FD
100
AcDbEntity
8
Geo
100
AcDbLine
10
-92.8302982848285
20
0.185183463500309
30
0.000000000000000
11
-92.7302982848285
21
0.0313155926036834
31
0.000000000000000
  0
LINE
  5
F101FE
330
F101FF
100
AcDbEntity
8
Geo
100
AcDbLine
10
-92.7302982848285
20
0.0313155926036834
30
0.000000000000000
11
-92.6302982848285
21
-0.122244167679982
31
0.000000000000000
  0
LINE
  5
F10200
330
F10201
100
AcDbEntity
8
Geo
100
AcDbLine
10
-92.6302982848285
20
-0.122244167679982
30
0.000000000000000
11
-92.5302982848284
21
-0.275268349494058
31
0.000000000000000
  0
LINE
  5
F10202
330
F10203
100
AcDbEntity
8
Geo
100
AcDbLine
10
-92.5302982848284
20
-0.275268349494058
30
0.000000000000000
11
-92.4302982848285
21
-0.427530278333548
31
0.000000000000000
  0
LINE
  5
F10204
330
F10205
100
AcDbEntity
8
Geo
100
AcDbLine
10
-92.4302982848285
20
-0.427530278333548
30
0.000000000000000
11
-92.3302982848285
21
-0.578804408817714
31
0.000000000000000
  0
LINE
  5
F10206
330
F10207
100
AcDbEntity
8
Geo
100
AcDbLine
10
-92.3302982848285
20
-0.578804408817714
30
0.000000000000000
11
-92.2302982848285
21
-0.728866658790129
31
0.000000000000000
  0
LINE
  5
F10208
330
F10209
100
AcDbEntity
8
Geo
100
AcDbLine
10
-92.2302982848285
20
-0.728866658790129
30
0.000000000000000
11
-92.1302982848285
21
-0.877494741251260
31
0.000000000000000
  0
LINE
  5
F1020A
330
F1020B
100
AcDbEntity
8
Geo
100
AcDbLine
10
-92.1302982848285
20
-0.877494741251260
30
0.000000000000000
11
-92.0302982848285
21
-1.02446849363189
31
0.000000000000000
  0
LINE
  5
F1020C
330
F1020D
100
AcDbEntity
8
Geo
100
AcDbLine
10
-92.0302982848285
20
-1.02446849363189
30
0.000000000000000
11
-91.9302982848285
21
-1.16957020391963
31
0.000000000000000
  0
LINE
  5
F1020E
330
F1020F
100
AcDbEntity
8
Geo
100
AcDbLine
10
-91.9302982848285
20
-1.16957020391963
30
0.000000000000000
11
-91.8302982848285
21
-1.31258493315538
31
0.000000000000000
  0
LINE
  5
F10210
330
F10211
100
AcDbEntity
8
Geo
100
AcDbLine
10
-91.8302982848285
20
-1.31258493315538
30
0.000000000000000
11
-91.7302982848285
21
-1.45330083382217
31
0.000000000000000
  0
LINE
  5
F10212
330
F10213
100
AcDbEntity
8
Geo
100
AcDbLine
10
-91.7302982848285
20
-1.45330083382217
30
0.000000000000000
11
-91.6302982848285
21
-1.59150946365451
31
0.000000000000000
  0
LINE
  5
F10214
330
F10215
100
AcDbEntity
8
Geo
100
AcDbLine
10
-91.6302982848285
20
-1.59150946365451
30
0.000000000000000
11
-91.5302982848285
21
-1.72700609440371
31
0.000000000000000
  0
LINE
  5
F10216
330
F10217
100
AcDbEntity
8
Geo
100
AcDbLine
10
-91.5302982848285
20
-1.72700609440371
30
0.000000000000000
11
-91.4302982848285
21
-1.85959001510146
31
0.000000000000000
  0
LINE
  5
F10218
330
F10219
100
AcDbEntity
8
Geo
100
AcDbLine
10
-91.4302982848285
20
-1.85959001510146
30
0.000000000000000
11
-91.3302982848285
21
-1.98906482937277
31
0.000000000000000
  0
LINE
  5
F1021A
330
F1021B
100
AcDbEntity
8
Geo
100
AcDbLine
10
-91.3302982848285
20
-1.98906482937277
30
0.000000000000000
11
-91.2302982848285
21
-2.11523874635763
31
0.000000000000000
  0
LINE
  5
F1021C
330
F1021D
100
AcDbEntity
8
Geo
100
AcDbLine
10
-91.2302982848285
20
-2.11523874635763
30
0.000000000000000
11
-91.1302982848285
21
-2.23792486481051
31
0.000000000000000
  0
LINE
  5
F1021E
330
F1021F
100
AcDbEntity
8
Geo
100
AcDbLine
10
-91.1302982848285
20
-2.23792486481051
30
0.000000000000000
11
-91.0302982848285
21
-2.35694144995693
31
0.000000000000000
  0
LINE
  5
F10220
330
F10221
100
AcDbEntity
8
Geo
100
AcDbLine
10
-91.0302982848285
20
-2.35694144995693
30
0.000000000000000
11
-90.9302982848285
21
-2.47211220269696
31
0.000000000000000
  0
LINE
  5
F10222
330
F10223
100
AcDbEntity
8
Geo
100
AcDbLine
10
-90.9302982848285
20
-2.47211220269696
30
0.000000000000000
11
-90.8302982848285
21
-2.58326652075676
31
0.000000000000000
  0
LINE
  5
F10224
330
F10225
100
AcDbEntity
8
Geo
100
AcDbLine
10
-90.8302982848285
20
-2.58326652075676
30
0.000000000000000
11
-90.7302982848285
21
-2.69023975140155
31
0.000000000000000
  0
LINE
  5
F10226
330
F10227
100
AcDbEntity
8
Geo
100
AcDbLine
10
-90.7302982848285
20
-2.69023975140155
30
0.000000000000000
11
-90.6302982848285
21
-2.79287343533544
31
0.000000000000000
  0
LINE
  5
F10228
330
F10229
100
AcDbEntity
8
Geo
100
AcDbLine
10
-90.6302982848285
20
-2.79287343533544
30
0.000000000000000
11
-90.5302982848285
21
-2.89101554142697
31
0.000000000000000
  0
LINE
  5
F1022A
330
F1022B
100
AcDbEntity
8
Geo
100
AcDbLine
10
-90.5302982848285
20
-2.89101554142697
30
0.000000000000000
11
-90.4302982848285
21
-2.98452069191261
31
0.000000000000000
  0
LINE
  5
F1022C
330
F1022D
100
AcDbEntity
8
Geo
100
AcDbLine
10
-90.4302982848285
20
-2.98452069191261
30
0.000000000000000
11
-90.3302982848285
21
-3.07325037774465
31
0.000000000000000
  0
LINE
  5
F1022E
330
F1022F
100
AcDbEntity
8
Geo
100
AcDbLine
10
-90.3302982848285
20
-3.07325037774465
30
0.000000000000000
11
-90.2302982848285
21
-3.15707316376443
31
0.000000000000000
  0
LINE
  5
F10230
330
F10231
100
AcDbEntity
8
Geo
100
AcDbLine
10
-90.2302982848285
20
-3.15707316376443
30
0.000000000000000
11
-90.1302982848285
21
-3.23586488339709
31
0.000000000000000
  0
LINE
  5
F10232
330
F10233
100
AcDbEntity
8
Geo
100
AcDbLine
10
-90.1302982848285
20
-3.23586488339709
30
0.000000000000000
11
-90.0302982848285
21
-3.30950882257929
31
0.000000000000000
  0
LINE
  5
F10234
330
F10235
100
AcDbEntity
8
Geo
100
AcDbLine
10
-90.0302982848285
20
-3.30950882257929
30
0.000000000000000
11
-89.9302982848285
21
-3.37789589264766
31
0.000000000000000
  0
LINE
  5
F10236
330
F10237
100
AcDbEntity
8
Geo
100
AcDbLine
10
-89.9302982848285
20
-3.37789589264766
30
0.000000000000000
11
-89.8302982848285
21
-3.44092479193161
31
0.000000000000000
  0
LINE
  5
F10238
330
F10239
100
AcDbEntity
8
Geo
100
AcDbLine
10
-89.8302982848285
20
-3.44092479193161
30
0.000000000000000
11
-89.7302982848285
21
-3.49850215581142
31
0.000000000000000
  0
LINE
  5
F1023A
330
F1023B
100
AcDbEntity
8
Geo
100
AcDbLine
10
-89.7302982848285
20
-3.49850215581142
30
0.000000000000000
11
-89.6302982848285
21
-3.55054269501907
31
0.000000000000000
  0
LINE
  5
F1023C
330
F1023D
100
AcDbEntity
8
Geo
100
AcDbLine
10
-89.6302982848285
20
-3.55054269501907
30
0.000000000000000
11
-89.5302982848285
21
-3.59696932197711
31
0.000000000000000
  0
LINE
  5
F1023E
330
F1023F
100
AcDbEntity
8
Geo
100
AcDbLine
10
-89.5302982848285
20
-3.59696932197711
30
0.000000000000000
11
-89.4302982848285
21
-3.63771326498842
31
0.000000000000000
  0
LINE
  5
F10240
330
F10241
100
AcDbEntity
8
Geo
100
AcDbLine
10
-89.4302982848285
20
-3.63771326498842
30
0.000000000000000
11
-89.3302982848285
21
-3.67271417010762
31
0.000000000000000
  0
LINE
  5
F10242
330
F10243
100
AcDbEntity
8
Geo
100
AcDbLine
10
-89.3302982848285
20
-3.67271417010762
30
0.000000000000000
11
-89.2302982848285
21
-3.70192019054323
31
0.000000000000000
  0
LINE
  5
F10244
330
F10245
100
AcDbEntity
8
Geo
100
AcDbLine
10
-89.2302982848285
20
-3.70192019054323
30
0.000000000000000
11
-89.1302982848285
21
-3.72528806345833
31
0.000000000000000
  0
LINE
  5
F10246
330
F10247
100
AcDbEntity
8
Geo
100
AcDbLine
10
-89.1302982848285
20
-3.72528806345833
30
0.000000000000000
11
-89.0302982848285
21
-3.74278317405568
31
0.000000000000000
  0
LINE
  5
F10248
330
F10249
100
AcDbEntity
8
Geo
100
AcDbLine
10
-89.0302982848285
20
-3.74278317405568
30
0.000000000000000
11
-88.9302982848285
21
-3.75437960685259
31
0.000000000000000
  0
LINE
  5
F1024A
330
F1024B
100
AcDbEntity
8
Geo
100
AcDbLine
10
-88.9302982848285
20
-3.75437960685259
30
0.000000000000000
11
-88.8302982848285
21
-3.76006018406949
31
0.000000000000000
  0
LINE
  5
F1024C
330
F1024D
100
AcDbEntity
8
Geo
100
AcDbLine
10
-79.9302982848285
20
4.23931593413815
30
0.000000000000000
11
-79.8302982848285
21
4.23881993419859
31
0.000000000000000
  0
LINE
  5
F1024E
330
F1024F
100
AcDbEntity
8
Geo
100
AcDbLine
10
-79.8302982848285
20
4.23881993419859
30
0.000000000000000
11
-79.7302982848285
21
4.23736201053821
31
0.000000000000000
  0
LINE
  5
F10250
330
F10251
100
AcDbEntity
8
Geo
100
AcDbLine
10
-79.7302982848285
20
4.23736201053821
30
0.000000000000000
11
-79.6302982848285
21
4.23509742202167
31
0.000000000000000
  0
LINE
  5
F10252
330
F10253
100
AcDbEntity
8
Geo
100
AcDbLine
10
-79.6302982848285
20
4.23509742202167
30
0.000000000000000
11
-79.5302982848285
21
4.23217381921046
31
0.000000000000000
  0
LINE
  5
F10254
330
F10255
100
AcDbEntity
8
Geo
100
AcDbLine
10
-79.5302982848285
20
4.23217381921046
30
0.000000000000000
11
-79.4302982848285
21
4.22873044705401
31
0.000000000000000
  0
LINE
  5
F10256
330
F10257
100
AcDbEntity
8
Geo
100
AcDbLine
10
-79.4302982848285
20
4.22873044705401
30
0.000000000000000
11
-79.3302982848285
21
4.22489808631015
31
0.000000000000000
  0
LINE
  5
F10258
330
F10259
100
AcDbEntity
8
Geo
100
AcDbLine
10
-79.3302982848285
20
4.22489808631015
30
0.000000000000000
11
-79.2302982848285
21
4.22079901562675
31
0.000000000000000
  0
LINE
  5
F1025A
330
F1025B
100
AcDbEntity
8
Geo
100
AcDbLine
10
-79.2302982848285
20
4.22079901562675
30
0.000000000000000
11
-79.1302982848285
21
4.21654699108047
31
0.000000000000000
  0
LINE
  5
F1025C
330
F1025D
100
AcDbEntity
8
Geo
100
AcDbLine
10
-79.1302982848285
20
4.21654699108047
30
0.000000000000000
11
-79.0302982848284
21
4.21224724017021
31
0.000000000000000
  0
LINE
  5
F1025E
330
F1025F
100
AcDbEntity
8
Geo
100
AcDbLine
10
-79.0302982848284
20
4.21224724017021
30
0.000000000000000
11
-78.9302982848285
21
4.20799646746740
31
0.000000000000000
  0
LINE
  5
F10260
330
F10261
100
AcDbEntity
8
Geo
100
AcDbLine
10
-78.9302982848285
20
4.20799646746740
30
0.000000000000000
11
-78.8302982848284
21
4.20388286933255
31
0.000000000000000
  0
LINE
  5
F10262
330
F10263
100
AcDbEntity
8
Geo
100
AcDbLine
10
-78.8302982848284
20
4.20388286933255
30
0.000000000000000
11
-78.7302982848285
21
4.19998615531641
31
0.000000000000000
  0
LINE
  5
F10264
330
F10265
100
AcDbEntity
8
Geo
100
AcDbLine
10
-78.7302982848285
20
4.19998615531641
30
0.000000000000000
11
-78.6302982848284
21
4.19637757407353
31
0.000000000000000
  0
LINE
  5
F10266
330
F10267
100
AcDbEntity
8
Geo
100
AcDbLine
10
-78.6302982848284
20
4.19637757407353
30
0.000000000000000
11
-78.5302982848284
21
4.19311994182559
31
0.000000000000000
  0
LINE
  5
F10268
330
F10269
100
AcDbEntity
8
Geo
100
AcDbLine
10
-78.5302982848284
20
4.19311994182559
30
0.000000000000000
11
-78.4302982848284
21
4.19026767162106
31
0.000000000000000
  0
LINE
  5
F1026A
330
F1026B
100
AcDbEntity
8
Geo
100
AcDbLine
10
-78.4302982848284
20
4.19026767162106
30
0.000000000000000
11
-78.3302982848284
21
4.18786680184655
31
0.000000000000000
  0
LINE
  5
F1026C
330
F1026D
100
AcDbEntity
8
Geo
100
AcDbLine
10
-78.3302982848284
20
4.18786680184655
30
0.000000000000000
11
-78.2302982848284
21
4.18595502265246
31
0.000000000000000
  0
LINE
  5
F1026E
330
F1026F
100
AcDbEntity
8
Geo
100
AcDbLine
10
-78.2302982848284
20
4.18595502265246
30
0.000000000000000
11
-78.1302982848285
21
4.18456169916265
31
0.000000000000000
  0
LINE
  5
F10270
330
F10271
100
AcDbEntity
8
Geo
100
AcDbLine
10
-96.1302982848285
20
0.239315934138137
30
0.000000000000000
11
-96.0302982848285
21
0.107101121720086
31
0.000000000000000
  0
LINE
  5
F10272
330
F10273
100
AcDbEntity
8
Geo
100
AcDbLine
10
-96.0302982848285
20
0.107101121720086
30
0.000000000000000
11
-95.9302982848285
21
-0.0375385693654707
31
0.000000000000000
  0
LINE
  5
F10274
330
F10275
100
AcDbEntity
8
Geo
100
AcDbLine
10
-95.9302982848285
20
-0.0375385693654707
30
0.000000000000000
11
-95.8302982848285
21
-0.188603925554824
31
0.000000000000000
  0
LINE
  5
F10276
330
F10277
100
AcDbEntity
8
Geo
100
AcDbLine
10
-95.8302982848285
20
-0.188603925554824
30
0.000000000000000
11
-95.7302982848285
21
-0.343423774597482
31
0.000000000000000
  0
LINE
  5
F10278
330
F10279
100
AcDbEntity
8
Geo
100
AcDbLine
10
-95.7302982848285
20
-0.343423774597482
30
0.000000000000000
11
-95.6302982848285
21
-0.500116802081799
31
0.000000000000000
  0
LINE
  5
F1027A
330
F1027B
100
AcDbEntity
8
Geo
100
AcDbLine
10
-95.6302982848285
20
-0.500116802081799
30
0.000000000000000
11
-95.5302982848285
21
-0.657146080080111
31
0.000000000000000
  0
LINE
  5
F1027C
330
F1027D
100
AcDbEntity
8
Geo
100
AcDbLine
10
-95.5302982848285
20
-0.657146080080111
30
0.000000000000000
11
-95.4302982848285
21
-0.813152163037783
31
0.000000000000000
  0
LINE
  5
F1027E
330
F1027F
100
AcDbEntity
8
Geo
100
AcDbLine
10
-95.4302982848285
20
-0.813152163037783
30
0.000000000000000
11
-95.3302982848285
21
-0.966869705534974
31
0.000000000000000
  0
LINE
  5
F10280
330
F10281
100
AcDbEntity
8
Geo
100
AcDbLine
10
-95.3302982848285
20
-0.966869705534974
30
0.000000000000000
11
-95.2302982848285
21
-1.11707581914649
31
0.000000000000000
  0
LINE
  5
F10282
330
F10283
100
AcDbEntity
8
Geo
100
AcDbLine
10
-95.2302982848285
20
-1.11707581914649
30
0.000000000000000
11
-95.1302982848285
21
-1.26255055128723
31
0.000000000000000
  0
LINE
  5
F10284
330
F10285
100
AcDbEntity
8
Geo
100
AcDbLine
10
-95.1302982848285
20
-1.26255055128723
30
0.000000000000000
11
-95.0302982848285
21
-1.40409868827735
31
0.000000000000000
  0
LINE
  5
F10286
330
F10287
100
AcDbEntity
8
Geo
100
AcDbLine
10
-95.0302982848285
20
-1.40409868827735
30
0.000000000000000
11
-94.9302982848285
21
-1.54321243750193
31
0.000000000000000
  0
LINE
  5
F10288
330
F10289
100
AcDbEntity
8
Geo
100
AcDbLine
10
-94.9302982848285
20
-1.54321243750193
30
0.000000000000000
11
-94.8302982848285
21
-1.67968572996017
31
0.000000000000000
  0
LINE
  5
F1028A
330
F1028B
100
AcDbEntity
8
Geo
100
AcDbLine
10
-94.8302982848285
20
-1.67968572996017
30
0.000000000000000
11
-94.7302982848285
21
-1.81331640795618
31
0.000000000000000
  0
LINE
  5
F1028C
330
F1028D
100
AcDbEntity
8
Geo
100
AcDbLine
10
-94.7302982848285
20
-1.81331640795618
30
0.000000000000000
11
-94.6302982848285
21
-1.94390652455484
31
0.000000000000000
  0
LINE
  5
F1028E
330
F1028F
100
AcDbEntity
8
Geo
100
AcDbLine
10
-94.6302982848285
20
-1.94390652455484
30
0.000000000000000
11
-94.5302982848285
21
-2.07126263680036
31
0.000000000000000
  0
LINE
  5
F10290
330
F10291
100
AcDbEntity
8
Geo
100
AcDbLine
10
-94.5302982848285
20
-2.07126263680036
30
0.000000000000000
11
-94.4302982848285
21
-2.19519609226305
31
0.000000000000000
  0
LINE
  5
F10292
330
F10293
100
AcDbEntity
8
Geo
100
AcDbLine
10
-94.4302982848285
20
-2.19519609226305
30
0.000000000000000
11
-94.3302982848285
21
-2.31552330848989
31
0.000000000000000
  0
LINE
  5
F10294
330
F10295
100
AcDbEntity
8
Geo
100
AcDbLine
10
-94.3302982848285
20
-2.31552330848989
30
0.000000000000000
11
-94.2302982848285
21
-2.43206604494495
31
0.000000000000000
  0
LINE
  5
F10296
330
F10297
100
AcDbEntity
8
Geo
100
AcDbLine
10
-94.2302982848285
20
-2.43206604494495
30
0.000000000000000
11
-94.1302982848285
21
-2.54465166703686
31
0.000000000000000
  0
LINE
  5
F10298
330
F10299
100
AcDbEntity
8
Geo
100
AcDbLine
10
-94.1302982848285
20
-2.54465166703686
30
0.000000000000000
11
-94.0302982848285
21
-2.65311340184218
31
0.000000000000000
  0
LINE
  5
F1029A
330
F1029B
100
AcDbEntity
8
Geo
100
AcDbLine
10
-94.0302982848285
20
-2.65311340184218
30
0.000000000000000
11
-93.9302982848285
21
-2.75729058514592
31
0.000000000000000
  0
LINE
  5
F1029C
330
F1029D
100
AcDbEntity
8
Geo
100
AcDbLine
10
-93.9302982848285
20
-2.75729058514592
30
0.000000000000000
11
-93.8302982848285
21
-2.85702889943316
31
0.000000000000000
  0
LINE
  5
F1029E
330
F1029F
100
AcDbEntity
8
Geo
100
AcDbLine
10
-93.8302982848285
20
-2.85702889943316
30
0.000000000000000
11
-93.7302982848285
21
-2.95218060247944
31
0.000000000000000
  0
LINE
  5
F102A0
330
F102A1
100
AcDbEntity
8
Geo
100
AcDbLine
10
-93.7302982848285
20
-2.95218060247944
30
0.000000000000000
11
-93.6302982848285
21
-3.04260474620105
31
0.000000000000000
  0
LINE
  5
F102A2
330
F102A3
100
AcDbEntity
8
Geo
100
AcDbLine
10
-93.6302982848285
20
-3.04260474620105
30
0.000000000000000
11
-93.5302982848285
21
-3.12816738544123
31
0.000000000000000
  0
LINE
  5
F102A4
330
F102A5
100
AcDbEntity
8
Geo
100
AcDbLine
10
-93.5302982848285
20
-3.12816738544123
30
0.000000000000000
11
-93.4302982848285
21
-3.20874177638301
31
0.000000000000000
  0
LINE
  5
F102A6
330
F102A7
100
AcDbEntity
8
Geo
100
AcDbLine
10
-93.4302982848285
20
-3.20874177638301
30
0.000000000000000
11
-93.3302982848285
21
-3.28420856429456
31
0.000000000000000
  0
LINE
  5
F102A8
330
F102A9
100
AcDbEntity
8
Geo
100
AcDbLine
10
-93.3302982848285
20
-3.28420856429456
30
0.000000000000000
11
-93.2302982848285
21
-3.35445596032923
31
0.000000000000000
  0
LINE
  5
F102AA
330
F102AB
100
AcDbEntity
8
Geo
100
AcDbLine
10
-93.2302982848285
20
-3.35445596032923
30
0.000000000000000
11
-93.1302982848285
21
-3.41937990711823
31
0.000000000000000
  0
LINE
  5
F102AC
330
F102AD
100
AcDbEntity
8
Geo
100
AcDbLine
10
-93.1302982848285
20
-3.41937990711823
30
0.000000000000000
11
-93.0302982848285
21
-3.47888423291060
31
0.000000000000000
  0
LINE
  5
F102AE
330
F102AF
100
AcDbEntity
8
Geo
100
AcDbLine
10
-93.0302982848285
20
-3.47888423291060
30
0.000000000000000
11
-92.9302982848285
21
-3.53288079403237
31
0.000000000000000
  0
LINE
  5
F102B0
330
F102B1
100
AcDbEntity
8
Geo
100
AcDbLine
10
-92.9302982848285
20
-3.53288079403237
30
0.000000000000000
11
-92.8302982848285
21
-3.58128960545360
31
0.000000000000000
  0
LINE
  5
F102B2
330
F102B3
100
AcDbEntity
8
Geo
100
AcDbLine
10
-92.8302982848285
20
-3.58128960545360
30
0.000000000000000
11
-92.7302982848285
21
-3.62403895927010
31
0.000000000000000
  0
LINE
  5
F102B4
330
F102B5
100
AcDbEntity
8
Geo
100
AcDbLine
10
-92.7302982848285
20
-3.62403895927010
30
0.000000000000000
11
-92.6302982848285
21
-3.66106553092428
31
0.000000000000000
  0
LINE
  5
F102B6
330
F102B7
100
AcDbEntity
8
Geo
100
AcDbLine
10
-92.6302982848285
20
-3.66106553092428
30
0.000000000000000
11
-92.5302982848284
21
-3.69231447300770
31
0.000000000000000
  0
LINE
  5
F102B8
330
F102B9
100
AcDbEntity
8
Geo
100
AcDbLine
10
-92.5302982848284
20
-3.69231447300770
30
0.000000000000000
11
-92.4302982848285
21
-3.71773949650646
31
0.000000000000000
  0
LINE
  5
F102BA
330
F102BB
100
AcDbEntity
8
Geo
100
AcDbLine
10
-92.4302982848285
20
-3.71773949650646
30
0.000000000000000
11
-92.3302982848285
21
-3.73730293936906
31
0.000000000000000
  0
LINE
  5
F102BC
330
F102BD
100
AcDbEntity
8
Geo
100
AcDbLine
10
-92.3302982848285
20
-3.73730293936906
30
0.000000000000000
11
-92.2302982848285
21
-3.75097582229514
31
0.000000000000000
  0
LINE
  5
F102BE
330
F102BF
100
AcDbEntity
8
Geo
100
AcDbLine
10
-92.2302982848285
20
-3.75097582229514
30
0.000000000000000
11
-92.1302982848285
21
-3.75873789166249
31
0.000000000000000
  0
LINE
  5
F102C0
330
F102C1
100
AcDbEntity
8
Geo
100
AcDbLine
10
-83.9302982848285
20
4.23876437580128
30
0.000000000000000
11
-83.8302982848285
21
4.23835822111259
31
0.000000000000000
  0
LINE
  5
F102C2
330
F102C3
100
AcDbEntity
8
Geo
100
AcDbLine
10
-83.8302982848285
20
4.23835822111259
30
0.000000000000000
11
-83.7302982848285
21
4.23202829071659
31
0.000000000000000
  0
LINE
  5
F102C4
330
F102C5
100
AcDbEntity
8
Geo
100
AcDbLine
10
-83.7302982848285
20
4.23202829071659
30
0.000000000000000
11
-83.6302982848285
21
4.21978396113026
31
0.000000000000000
  0
LINE
  5
F102C6
330
F102C7
100
AcDbEntity
8
Geo
100
AcDbLine
10
-83.6302982848285
20
4.21978396113026
30
0.000000000000000
11
-83.5302982848285
21
4.20164336986179
31
0.000000000000000
  0
LINE
  5
F102C8
330
F102C9
100
AcDbEntity
8
Geo
100
AcDbLine
10
-83.5302982848285
20
4.20164336986179
30
0.000000000000000
11
-83.4302982848285
21
4.17763338854346
31
0.000000000000000
  0
LINE
  5
F102CA
330
F102CB
100
AcDbEntity
8
Geo
100
AcDbLine
10
-83.4302982848285
20
4.17763338854346
30
0.000000000000000
11
-83.3302982848285
21
4.14778958312678
31
0.000000000000000
  0
LINE
  5
F102CC
330
F102CD
100
AcDbEntity
8
Geo
100
AcDbLine
10
-83.3302982848285
20
4.14778958312678
30
0.000000000000000
11
-83.2302982848285
21
4.11215616119868
31
0.000000000000000
  0
LINE
  5
F102CE
330
F102CF
100
AcDbEntity
8
Geo
100
AcDbLine
10
-83.2302982848285
20
4.11215616119868
30
0.000000000000000
11
-83.1302982848285
21
4.07078590649687
31
0.000000000000000
  0
LINE
  5
F102D0
330
F102D1
100
AcDbEntity
8
Geo
100
AcDbLine
10
-83.1302982848285
20
4.07078590649687
30
0.000000000000000
11
-83.0302982848285
21
4.07624525430832
31
0.000000000000000
  0
LINE
  5
F102D2
330
F102D3
100
AcDbEntity
8
Geo
100
AcDbLine
10
-83.0302982848285
20
4.07624525430832
30
0.000000000000000
11
-82.9302982848285
21
4.08151318079451
31
0.000000000000000
  0
LINE
  5
F102D4
330
F102D5
100
AcDbEntity
8
Geo
100
AcDbLine
10
-82.9302982848285
20
4.08151318079451
30
0.000000000000000
11
-82.8302982848285
21
4.08659459844640
31
0.000000000000000
  0
LINE
  5
F102D6
330
F102D7
100
AcDbEntity
8
Geo
100
AcDbLine
10
-82.8302982848285
20
4.08659459844640
30
0.000000000000000
11
-82.7302982848285
21
4.09149433541203
31
0.000000000000000
  0
LINE
  5
F102D8
330
F102D9
100
AcDbEntity
8
Geo
100
AcDbLine
10
-82.7302982848285
20
4.09149433541203
30
0.000000000000000
11
-82.6302982848285
21
4.09621713449120
31
0.000000000000000
  0
LINE
  5
F102DA
330
F102DB
100
AcDbEntity
8
Geo
100
AcDbLine
10
-82.6302982848285
20
4.09621713449120
30
0.000000000000000
11
-82.5302982848285
21
4.10076765217395
31
0.000000000000000
  0
LINE
  5
F102DC
330
F102DD
100
AcDbEntity
8
Geo
100
AcDbLine
10
-82.5302982848285
20
4.10076765217395
30
0.000000000000000
11
-82.4302982848285
21
4.10515045772101
31
0.000000000000000
  0
LINE
  5
F102DE
330
F102DF
100
AcDbEntity
8
Geo
100
AcDbLine
10
-82.4302982848285
20
4.10515045772101
30
0.000000000000000
11
-82.3302982848285
21
4.10937003228534
31
0.000000000000000
  0
LINE
  5
F102E0
330
F102E1
100
AcDbEntity
8
Geo
100
AcDbLine
10
-82.3302982848285
20
4.10937003228534
30
0.000000000000000
11
-82.2302982848285
21
4.11343076807301
31
0.000000000000000
  0
LINE
  5
F102E2
330
F102E3
100
AcDbEntity
8
Geo
100
AcDbLine
10
-82.2302982848285
20
4.11343076807301
30
0.000000000000000
11
-82.1302982848285
21
4.11733696754248
31
0.000000000000000
  0
LINE
  5
F102E4
330
F102E5
100
AcDbEntity
8
Geo
100
AcDbLine
10
-82.1302982848285
20
4.11733696754248
30
0.000000000000000
11
-82.0302982848285
21
4.12109284264079
31
0.000000000000000
  0
LINE
  5
F102E6
330
F102E7
100
AcDbEntity
8
Geo
100
AcDbLine
10
-82.0302982848285
20
4.12109284264079
30
0.000000000000000
11
-81.9302982848285
21
4.12470251407546
31
0.000000000000000
  0
LINE
  5
F102E8
330
F102E9
100
AcDbEntity
8
Geo
100
AcDbLine
10
-81.9302982848285
20
4.12470251407546
30
0.000000000000000
11
-81.8302982848285
21
4.12817001062095
31
0.000000000000000
  0
LINE
  5
F102EA
330
F102EB
100
AcDbEntity
8
Geo
100
AcDbLine
10
-81.8302982848285
20
4.12817001062095
30
0.000000000000000
11
-81.7302982848285
21
4.13149926845831
31
0.000000000000000
  0
LINE
  5
F102EC
330
F102ED
100
AcDbEntity
8
Geo
100
AcDbLine
10
-81.7302982848285
20
4.13149926845831
30
0.000000000000000
11
-81.6302982848285
21
4.13469413054703
31
0.000000000000000
  0
LINE
  5
F102EE
330
F102EF
100
AcDbEntity
8
Geo
100
AcDbLine
10
-81.6302982848285
20
4.13469413054703
30
0.000000000000000
11
-81.5302982848285
21
4.13775834602779
31
0.000000000000000
  0
LINE
  5
F102F0
330
F102F1
100
AcDbEntity
8
Geo
100
AcDbLine
10
-81.5302982848285
20
4.13775834602779
30
0.000000000000000
11
-81.4302982848285
21
4.14069556965504
31
0.000000000000000
  0
LINE
  5
F102F2
330
F102F3
100
AcDbEntity
8
Geo
100
AcDbLine
10
-81.4302982848285
20
4.14069556965504
30
0.000000000000000
11
-81.3302982848285
21
4.14350936125829
31
0.000000000000000
  0
LINE
  5
F102F4
330
F102F5
100
AcDbEntity
8
Geo
100
AcDbLine
10
-81.3302982848285
20
4.14350936125829
30
0.000000000000000
11
-81.2302982848285
21
4.14620318523103
31
0.000000000000000
  0
LINE
  5
F102F6
330
F102F7
100
AcDbEntity
8
Geo
100
AcDbLine
10
-81.2302982848285
20
4.14620318523103
30
0.000000000000000
11
-81.1302982848285
21
4.14878041004625
31
0.000000000000000
  0
LINE
  5
F102F8
330
F102F9
100
AcDbEntity
8
Geo
100
AcDbLine
10
-81.1302982848285
20
4.14878041004625
30
0.000000000000000
11
-81.0302982848285
21
4.15124430779750
31
0.000000000000000
  0
LINE
  5
F102FA
330
F102FB
100
AcDbEntity
8
Geo
100
AcDbLine
10
-81.0302982848285
20
4.15124430779750
30
0.000000000000000
11
-80.9302982848285
21
4.15359805376448
31
0.000000000000000
  0
LINE
  5
F102FC
330
F102FD
100
AcDbEntity
8
Geo
100
AcDbLine
10
-80.9302982848285
20
4.15359805376448
30
0.000000000000000
11
-80.8302982848285
21
4.15584472600224
31
0.000000000000000
  0
LINE
  5
F102FE
330
F102FF
100
AcDbEntity
8
Geo
100
AcDbLine
10
-80.8302982848285
20
4.15584472600224
30
0.000000000000000
11
-80.7302982848285
21
4.15798730495299
31
0.000000000000000
  0
LINE
  5
F10300
330
F10301
100
AcDbEntity
8
Geo
100
AcDbLine
10
-80.7302982848285
20
4.15798730495299
30
0.000000000000000
11
-80.6302982848285
21
4.16002867307965
31
0.000000000000000
  0
LINE
  5
F10302
330
F10303
100
AcDbEntity
8
Geo
100
AcDbLine
10
-80.6302982848285
20
4.16002867307965
30
0.000000000000000
11
-80.5302982848285
21
4.16197161452022
31
0.000000000000000
  0
LINE
  5
F10304
330
F10305
100
AcDbEntity
8
Geo
100
AcDbLine
10
-80.5302982848285
20
4.16197161452022
30
0.000000000000000
11
-80.4302982848285
21
4.16381881476207
31
0.000000000000000
  0
LINE
  5
F10306
330
F10307
100
AcDbEntity
8
Geo
100
AcDbLine
10
-80.4302982848285
20
4.16381881476207
30
0.000000000000000
11
-80.3302982848285
21
4.16557286033543
31
0.000000000000000
  0
LINE
  5
F10308
330
F10309
100
AcDbEntity
8
Geo
100
AcDbLine
10
-80.3302982848285
20
4.16557286033543
30
0.000000000000000
11
-80.2302982848285
21
4.16723623852518
31
0.000000000000000
  0
LINE
  5
F1030A
330
F1030B
100
AcDbEntity
8
Geo
100
AcDbLine
10
-80.2302982848285
20
4.16723623852518
30
0.000000000000000
11
-80.1302982848285
21
4.16881133710018
31
0.000000000000000
  0
LINE
  5
F1030C
330
F1030D
100
AcDbEntity
8
Geo
100
AcDbLine
10
-80.1302982848285
20
4.16881133710018
30
0.000000000000000
11
-80.0302982848285
21
4.17030044405939
31
0.000000000000000
  0
LINE
  5
F1030E
330
F1030F
100
AcDbEntity
8
Geo
100
AcDbLine
10
-80.0302982848285
20
4.17030044405939
30
0.000000000000000
11
-79.9302982848285
21
4.17170574739418
31
0.000000000000000
  0
LINE
  5
F10310
330
F10311
100
AcDbEntity
8
Geo
100
AcDbLine
10
-79.9302982848285
20
4.17170574739418
30
0.000000000000000
11
-79.8302982848285
21
4.17302933486588
31
0.000000000000000
  0
LINE
  5
F10312
330
F10313
100
AcDbEntity
8
Geo
100
AcDbLine
10
-79.8302982848285
20
4.17302933486588
30
0.000000000000000
11
-79.7302982848285
21
4.17427319379822
31
0.000000000000000
  0
LINE
  5
F10314
330
F10315
100
AcDbEntity
8
Geo
100
AcDbLine
10
-79.7302982848285
20
4.17427319379822
30
0.000000000000000
11
-79.6302982848285
21
4.17543921088384
31
0.000000000000000
  0
LINE
  5
F10316
330
F10317
100
AcDbEntity
8
Geo
100
AcDbLine
10
-79.6302982848285
20
4.17543921088384
30
0.000000000000000
11
-79.5302982848285
21
4.17652917200427
31
0.000000000000000
  0
LINE
  5
F10318
330
F10319
100
AcDbEntity
8
Geo
100
AcDbLine
10
-79.5302982848285
20
4.17652917200427
30
0.000000000000000
11
-79.4302982848285
21
4.17754476206295
31
0.000000000000000
  0
LINE
  5
F1031A
330
F1031B
100
AcDbEntity
8
Geo
100
AcDbLine
10
-79.4302982848285
20
4.17754476206295
30
0.000000000000000
11
-79.3302982848285
21
4.17848756483059
31
0.000000000000000
  0
LINE
  5
F1031C
330
F1031D
100
AcDbEntity
8
Geo
100
AcDbLine
10
-79.3302982848285
20
4.17848756483059
30
0.000000000000000
11
-79.2302982848285
21
4.17935906280245
31
0.000000000000000
  0
LINE
  5
F1031E
330
F1031F
100
AcDbEntity
8
Geo
100
AcDbLine
10
-79.2302982848285
20
4.17935906280245
30
0.000000000000000
11
-79.1302982848285
21
4.18016063706710
31
0.000000000000000
  0
LINE
  5
F10320
330
F10321
100
AcDbEntity
8
Geo
100
AcDbLine
10
-79.1302982848285
20
4.18016063706710
30
0.000000000000000
11
-79.0302982848284
21
4.18089356718611
31
0.000000000000000
  0
LINE
  5
F10322
330
F10323
100
AcDbEntity
8
Geo
100
AcDbLine
10
-79.0302982848284
20
4.18089356718611
30
0.000000000000000
11
-78.9302982848285
21
4.18155903108430
31
0.000000000000000
  0
LINE
  5
F10324
330
F10325
100
AcDbEntity
8
Geo
100
AcDbLine
10
-78.9302982848285
20
4.18155903108430
30
0.000000000000000
11
-78.8302982848284
21
4.18215810495019
31
0.000000000000000
  0
LINE
  5
F10326
330
F10327
100
AcDbEntity
8
Geo
100
AcDbLine
10
-78.8302982848284
20
4.18215810495019
30
0.000000000000000
11
-78.7302982848285
21
4.18269176314631
31
0.000000000000000
  0
LINE
  5
F10328
330
F10329
100
AcDbEntity
8
Geo
100
AcDbLine
10
-78.7302982848285
20
4.18269176314631
30
0.000000000000000
11
-78.6302982848284
21
4.18316087812888
31
0.000000000000000
  0
LINE
  5
F1032A
330
F1032B
100
AcDbEntity
8
Geo
100
AcDbLine
10
-78.6302982848284
20
4.18316087812888
30
0.000000000000000
11
-78.5302982848284
21
4.18356622037689
31
0.000000000000000
  0
LINE
  5
F1032C
330
F1032D
100
AcDbEntity
8
Geo
100
AcDbLine
10
-78.5302982848284
20
4.18356622037689
30
0.000000000000000
11
-78.4302982848284
21
4.18390845832991
31
0.000000000000000
  0
LINE
  5
F1032E
330
F1032F
100
AcDbEntity
8
Geo
100
AcDbLine
10
-78.4302982848284
20
4.18390845832991
30
0.000000000000000
11
-78.3302982848284
21
4.18418815833478
31
0.000000000000000
  0
LINE
  5
F10330
330
F10331
100
AcDbEntity
8
Geo
100
AcDbLine
10
-78.3302982848284
20
4.18418815833478
30
0.000000000000000
11
-78.2302982848284
21
4.18440578460069
31
0.000000000000000
  0
LINE
  5
F10332
330
F10333
100
AcDbEntity
8
Geo
100
AcDbLine
10
-78.2302982848284
20
4.18440578460069
30
0.000000000000000
11
-78.1302982848285
21
4.18456169916265
31
0.000000000000000
  0
LINE
  5
F10334
330
F10335
100
AcDbEntity
8
Geo
100
AcDbLine
10
-96.1302982848285
20
-0.687735048986686
30
0.000000000000000
11
-96.0302982848285
21
-0.947389809738146
31
0.000000000000000
  0
LINE
  5
F10336
330
F10337
100
AcDbEntity
8
Geo
100
AcDbLine
10
-96.0302982848285
20
-0.947389809738146
30
0.000000000000000
11
-95.9302982848285
21
-1.13315497138343
31
0.000000000000000
  0
LINE
  5
F10338
330
F10339
100
AcDbEntity
8
Geo
100
AcDbLine
10
-95.9302982848285
20
-1.13315497138343
30
0.000000000000000
11
-95.8302982848285
21
-1.30775023775000
31
0.000000000000000
  0
LINE
  5
F1033A
330
F1033B
100
AcDbEntity
8
Geo
100
AcDbLine
10
-95.8302982848285
20
-1.30775023775000
30
0.000000000000000
11
-95.7302982848285
21
-1.47527730103576
31
0.000000000000000
  0
LINE
  5
F1033C
330
F1033D
100
AcDbEntity
8
Geo
100
AcDbLine
10
-95.7302982848285
20
-1.47527730103576
30
0.000000000000000
11
-95.6302982848285
21
-1.63653866338498
31
0.000000000000000
  0
LINE
  5
F1033E
330
F1033F
100
AcDbEntity
8
Geo
100
AcDbLine
10
-95.6302982848285
20
-1.63653866338498
30
0.000000000000000
11
-95.5302982848285
21
-1.79140916774112
31
0.000000000000000
  0
LINE
  5
F10340
330
F10341
100
AcDbEntity
8
Geo
100
AcDbLine
10
-95.5302982848285
20
-1.79140916774112
30
0.000000000000000
11
-95.4302982848285
21
-1.93939468222380
31
0.000000000000000
  0
LINE
  5
F10342
330
F10343
100
AcDbEntity
8
Geo
100
AcDbLine
10
-95.4302982848285
20
-1.93939468222380
30
0.000000000000000
11
-95.3302982848285
21
-2.07981576101956
31
0.000000000000000
  0
LINE
  5
F10344
330
F10345
100
AcDbEntity
8
Geo
100
AcDbLine
10
-95.3302982848285
20
-2.07981576101956
30
0.000000000000000
11
-95.2302982848285
21
-2.21187490613083
31
0.000000000000000
  0
LINE
  5
F10346
330
F10347
100
AcDbEntity
8
Geo
100
AcDbLine
10
-95.2302982848285
20
-2.21187490613083
30
0.000000000000000
11
-95.1302982848285
21
-2.33467617030185
31
0.000000000000000
  0
LINE
  5
F10348
330
F10349
100
AcDbEntity
8
Geo
100
AcDbLine
10
-95.1302982848285
20
-2.33467617030185
30
0.000000000000000
11
-95.0302982848285
21
-2.45058904244537
31
0.000000000000000
  0
LINE
  5
F1034A
330
F1034B
100
AcDbEntity
8
Geo
100
AcDbLine
10
-95.0302982848285
20
-2.45058904244537
30
0.000000000000000
11
-94.9302982848285
21
-2.56251736213563
31
0.000000000000000
  0
LINE
  5
F1034C
330
F1034D
100
AcDbEntity
8
Geo
100
AcDbLine
10
-94.9302982848285
20
-2.56251736213563
30
0.000000000000000
11
-94.8302982848285
21
-2.67029533011033
31
0.000000000000000
  0
LINE
  5
F1034E
330
F1034F
100
AcDbEntity
8
Geo
100
AcDbLine
10
-94.8302982848285
20
-2.67029533011033
30
0.000000000000000
11
-94.7302982848285
21
-2.77376329501728
31
0.000000000000000
  0
LINE
  5
F10350
330
F10351
100
AcDbEntity
8
Geo
100
AcDbLine
10
-94.7302982848285
20
-2.77376329501728
30
0.000000000000000
11
-94.6302982848285
21
-2.87276798990582
31
0.000000000000000
  0
LINE
  5
F10352
330
F10353
100
AcDbEntity
8
Geo
100
AcDbLine
10
-94.6302982848285
20
-2.87276798990582
30
0.000000000000000
11
-94.5302982848285
21
-2.96716275926084
31
0.000000000000000
  0
LINE
  5
F10354
330
F10355
100
AcDbEntity
8
Geo
100
AcDbLine
10
-94.5302982848285
20
-2.96716275926084
30
0.000000000000000
11
-94.4302982848285
21
-3.05680777624345
31
0.000000000000000
  0
LINE
  5
F10356
330
F10357
100
AcDbEntity
8
Geo
100
AcDbLine
10
-94.4302982848285
20
-3.05680777624345
30
0.000000000000000
11
-94.3302982848285
21
-3.14157024981624
31
0.000000000000000
  0
LINE
  5
F10358
330
F10359
100
AcDbEntity
8
Geo
100
AcDbLine
10
-94.3302982848285
20
-3.14157024981624
30
0.000000000000000
11
-94.2302982848285
21
-3.22132462144650
31
0.000000000000000
  0
LINE
  5
F1035A
330
F1035B
100
AcDbEntity
8
Geo
100
AcDbLine
10
-94.2302982848285
20
-3.22132462144650
30
0.000000000000000
11
-94.1302982848285
21
-3.29595275109586
31
0.000000000000000
  0
LINE
  5
F1035C
330
F1035D
100
AcDbEntity
8
Geo
100
AcDbLine
10
-94.1302982848285
20
-3.29595275109586
30
0.000000000000000
11
-94.0302982848285
21
-3.36534409222098
31
0.000000000000000
  0
LINE
  5
F1035E
330
F1035F
100
AcDbEntity
8
Geo
100
AcDbLine
10
-94.0302982848285
20
-3.36534409222098
30
0.000000000000000
11
-93.9302982848285
21
-3.42939585552599
31
0.000000000000000
  0
LINE
  5
F10360
330
F10361
100
AcDbEntity
8
Geo
100
AcDbLine
10
-93.9302982848285
20
-3.42939585552599
30
0.000000000000000
11
-93.8302982848285
21
-3.48801316122410
31
0.000000000000000
  0
LINE
  5
F10362
330
F10363
100
AcDbEntity
8
Geo
100
AcDbLine
10
-93.8302982848285
20
-3.48801316122410
30
0.000000000000000
11
-93.7302982848285
21
-3.54110917958296
31
0.000000000000000
  0
LINE
  5
F10364
330
F10365
100
AcDbEntity
8
Geo
100
AcDbLine
10
-93.7302982848285
20
-3.54110917958296
30
0.000000000000000
11
-93.6302982848285
21
-3.58860525954534
31
0.000000000000000
  0
LINE
  5
F10366
330
F10367
100
AcDbEntity
8
Geo
100
AcDbLine
10
-93.6302982848285
20
-3.58860525954534
30
0.000000000000000
11
-93.5302982848285
21
-3.63043104523490
31
0.000000000000000
  0
LINE
  5
F10368
330
F10369
100
AcDbEntity
8
Geo
100
AcDbLine
10
-93.5302982848285
20
-3.63043104523490
30
0.000000000000000
11
-93.4302982848285
21
-3.66652458017420
31
0.000000000000000
  0
LINE
  5
F1036A
330
F1036B
100
AcDbEntity
8
Geo
100
AcDbLine
10
-93.4302982848285
20
-3.66652458017420
30
0.000000000000000
11
-93.3302982848285
21
-3.69683239906078
31
0.000000000000000
  0
LINE
  5
F1036C
330
F1036D
100
AcDbEntity
8
Geo
100
AcDbLine
10
-93.3302982848285
20
-3.69683239906078
30
0.000000000000000
11
-93.2302982848285
21
-3.72130960696519
31
0.000000000000000
  0
LINE
  5
F1036E
330
F1036F
100
AcDbEntity
8
Geo
100
AcDbLine
10
-93.2302982848285
20
-3.72130960696519
30
0.000000000000000
11
-93.1302982848285
21
-3.73991994583385
31
0.000000000000000
  0
LINE
  5
F10370
330
F10371
100
AcDbEntity
8
Geo
100
AcDbLine
10
-93.1302982848285
20
-3.73991994583385
30
0.000000000000000
11
-93.0302982848285
21
-3.75263584819801
31
0.000000000000000
  0
LINE
  5
F10372
330
F10373
100
AcDbEntity
8
Geo
100
AcDbLine
10
-93.0302982848285
20
-3.75263584819801
30
0.000000000000000
11
-92.9302982848285
21
-3.75943847800939
31
0.000000000000000
  0
LINE
  5
F10374
330
F10375
100
AcDbEntity
8
Geo
100
AcDbLine
10
-84.7302982848285
20
4.23910095893513
30
0.000000000000000
11
-84.6302982848285
21
4.23773430538065
31
0.000000000000000
  0
LINE
  5
F10376
330
F10377
100
AcDbEntity
8
Geo
100
AcDbLine
10
-84.6302982848285
20
4.23773430538065
30
0.000000000000000
11
-84.5302982848285
21
4.23044480032437
31
0.000000000000000
  0
LINE
  5
F10378
330
F10379
100
AcDbEntity
8
Geo
100
AcDbLine
10
-84.5302982848285
20
4.23044480032437
30
0.000000000000000
11
-84.4302982848285
21
4.21724324169984
31
0.000000000000000
  0
LINE
  5
F1037A
330
F1037B
100
AcDbEntity
8
Geo
100
AcDbLine
10
-84.4302982848285
20
4.21724324169984
30
0.000000000000000
11
-84.3302982848285
21
4.19814918495728
31
0.000000000000000
  0
LINE
  5
F1037C
330
F1037D
100
AcDbEntity
8
Geo
100
AcDbLine
10
-84.3302982848285
20
4.19814918495728
30
0.000000000000000
11
-84.2302982848285
21
4.17319091409604
31
0.000000000000000
  0
LINE
  5
F1037E
330
F1037F
100
AcDbEntity
8
Geo
100
AcDbLine
10
-84.2302982848285
20
4.17319091409604
30
0.000000000000000
11
-84.1302982848285
21
4.14240539976759
31
0.000000000000000
  0
LINE
  5
F10380
330
F10381
100
AcDbEntity
8
Geo
100
AcDbLine
10
-84.1302982848285
20
4.14240539976759
30
0.000000000000000
11
-84.0302982848285
21
4.10583824451096
31
0.000000000000000
  0
LINE
  5
F10382
330
F10383
100
AcDbEntity
8
Geo
100
AcDbLine
10
-84.0302982848285
20
4.10583824451096
30
0.000000000000000
11
-83.9302982848285
21
4.06354361520171
31
0.000000000000000
  0
LINE
  5
F10384
330
F10385
100
AcDbEntity
8
Geo
100
AcDbLine
10
-83.9302982848285
20
4.06354361520171
30
0.000000000000000
11
-83.8302982848285
21
4.01558416281469
31
0.000000000000000
  0
LINE
  5
F10386
330
F10387
100
AcDbEntity
8
Geo
100
AcDbLine
10
-83.8302982848285
20
4.01558416281469
30
0.000000000000000
11
-83.7302982848285
21
3.96203092961915
31
0.000000000000000
  0
LINE
  5
F10388
330
F10389
100
AcDbEntity
8
Geo
100
AcDbLine
10
-83.7302982848285
20
3.96203092961915
30
0.000000000000000
11
-83.6302982848285
21
3.90296324394401
31
0.000000000000000
  0
LINE
  5
F1038A
330
F1038B
100
AcDbEntity
8
Geo
100
AcDbLine
10
-83.6302982848285
20
3.90296324394401
30
0.000000000000000
11
-83.5302982848285
21
3.83846860266886
31
0.000000000000000
  0
LINE
  5
F1038C
330
F1038D
100
AcDbEntity
8
Geo
100
AcDbLine
10
-83.5302982848285
20
3.83846860266886
30
0.000000000000000
11
-83.4302982848285
21
3.76864254161500
31
0.000000000000000
  0
LINE
  5
F1038E
330
F1038F
100
AcDbEntity
8
Geo
100
AcDbLine
10
-83.4302982848285
20
3.76864254161500
30
0.000000000000000
11
-83.3302982848285
21
3.69358849402830
31
0.000000000000000
  0
LINE
  5
F10390
330
F10391
100
AcDbEntity
8
Geo
100
AcDbLine
10
-83.3302982848285
20
3.69358849402830
30
0.000000000000000
11
-83.2302982848285
21
3.61341763736376
31
0.000000000000000
  0
LINE
  5
F10392
330
F10393
100
AcDbEntity
8
Geo
100
AcDbLine
10
-83.2302982848285
20
3.61341763736376
30
0.000000000000000
11
-83.1302982848285
21
3.52824872859840
31
0.000000000000000
  0
LINE
  5
F10394
330
F10395
100
AcDbEntity
8
Geo
100
AcDbLine
10
-83.1302982848285
20
3.52824872859840
30
0.000000000000000
11
-83.0302982848285
21
3.42707192112580
31
0.000000000000000
  0
LINE
  5
F10396
330
F10397
100
AcDbEntity
8
Geo
100
AcDbLine
10
-83.0302982848285
20
3.42707192112580
30
0.000000000000000
11
-82.9302982848285
21
3.32210394055464
31
0.000000000000000
  0
LINE
  5
F10398
330
F10399
100
AcDbEntity
8
Geo
100
AcDbLine
10
-82.9302982848285
20
3.32210394055464
30
0.000000000000000
11
-82.8302982848285
21
3.21386494719606
31
0.000000000000000
  0
LINE
  5
F1039A
330
F1039B
100
AcDbEntity
8
Geo
100
AcDbLine
10
-82.8302982848285
20
3.21386494719606
30
0.000000000000000
11
-82.7302982848285
21
3.10285571952386
31
0.000000000000000
  0
LINE
  5
F1039C
330
F1039D
100
AcDbEntity
8
Geo
100
AcDbLine
10
-82.7302982848285
20
3.10285571952386
30
0.000000000000000
11
-82.6302982848285
21
2.98955666506048
31
0.000000000000000
  0
LINE
  5
F1039E
330
F1039F
100
AcDbEntity
8
Geo
100
AcDbLine
10
-82.6302982848285
20
2.98955666506048
30
0.000000000000000
11
-82.5302982848285
21
2.87442704616909
31
0.000000000000000
  0
LINE
  5
F103A0
330
F103A1
100
AcDbEntity
8
Geo
100
AcDbLine
10
-82.5302982848285
20
2.87442704616909
30
0.000000000000000
11
-82.4302982848285
21
2.75790440622177
31
0.000000000000000
  0
LINE
  5
F103A2
330
F103A3
100
AcDbEntity
8
Geo
100
AcDbLine
10
-82.4302982848285
20
2.75790440622177
30
0.000000000000000
11
-82.3302982848285
21
2.64040418151111
31
0.000000000000000
  0
LINE
  5
F103A4
330
F103A5
100
AcDbEntity
8
Geo
100
AcDbLine
10
-82.3302982848285
20
2.64040418151111
30
0.000000000000000
11
-82.2302982848285
21
2.52231948430813
31
0.000000000000000
  0
LINE
  5
F103A6
330
F103A7
100
AcDbEntity
8
Geo
100
AcDbLine
10
-82.2302982848285
20
2.52231948430813
30
0.000000000000000
11
-82.1302982848285
21
2.40402104262807
31
0.000000000000000
  0
LINE
  5
F103A8
330
F103A9
100
AcDbEntity
8
Geo
100
AcDbLine
10
-82.1302982848285
20
2.40402104262807
30
0.000000000000000
11
-82.0302982848285
21
2.28585728253060
31
0.000000000000000
  0
LINE
  5
F103AA
330
F103AB
100
AcDbEntity
8
Geo
100
AcDbLine
10
-82.0302982848285
20
2.28585728253060
30
0.000000000000000
11
-81.9302982848285
21
2.16815453913802
31
0.000000000000000
  0
LINE
  5
F103AC
330
F103AD
100
AcDbEntity
8
Geo
100
AcDbLine
10
-81.9302982848285
20
2.16815453913802
30
0.000000000000000
11
-81.8302982848285
21
2.05121738298986
31
0.000000000000000
  0
LINE
  5
F103AE
330
F103AF
100
AcDbEntity
8
Geo
100
AcDbLine
10
-81.8302982848285
20
2.05121738298986
30
0.000000000000000
11
-81.7302982848285
21
1.93532904885152
31
0.000000000000000
  0
LINE
  5
F103B0
330
F103B1
100
AcDbEntity
8
Geo
100
AcDbLine
10
-81.7302982848285
20
1.93532904885152
30
0.000000000000000
11
-81.6302982848285
21
1.82075195464632
31
0.000000000000000
  0
LINE
  5
F103B2
330
F103B3
100
AcDbEntity
8
Geo
100
AcDbLine
10
-81.6302982848285
20
1.82075195464632
30
0.000000000000000
11
-81.5302982848285
21
1.70772829877244
31
0.000000000000000
  0
LINE
  5
F103B4
330
F103B5
100
AcDbEntity
8
Geo
100
AcDbLine
10
-81.5302982848285
20
1.70772829877244
30
0.000000000000000
11
-81.4302982848285
21
1.59648072468988
31
0.000000000000000
  0
LINE
  5
F103B6
330
F103B7
100
AcDbEntity
8
Geo
100
AcDbLine
10
-81.4302982848285
20
1.59648072468988
30
0.000000000000000
11
-81.3302982848285
21
1.48721304230629
31
0.000000000000000
  0
LINE
  5
F103B8
330
F103B9
100
AcDbEntity
8
Geo
100
AcDbLine
10
-81.3302982848285
20
1.48721304230629
30
0.000000000000000
11
-81.2302982848285
21
1.38011099634765
31
0.000000000000000
  0
LINE
  5
F103BA
330
F103BB
100
AcDbEntity
8
Geo
100
AcDbLine
10
-81.2302982848285
20
1.38011099634765
30
0.000000000000000
11
-81.1302982848285
21
1.27534307256137
31
0.000000000000000
  0
LINE
  5
F103BC
330
F103BD
100
AcDbEntity
8
Geo
100
AcDbLine
10
-81.1302982848285
20
1.27534307256137
30
0.000000000000000
11
-81.0302982848285
21
1.17306133325973
31
0.000000000000000
  0
LINE
  5
F103BE
330
F103BF
100
AcDbEntity
8
Geo
100
AcDbLine
10
-81.0302982848285
20
1.17306133325973
30
0.000000000000000
11
-80.9302982848285
21
1.07340227436381
31
0.000000000000000
  0
LINE
  5
F103C0
330
F103C1
100
AcDbEntity
8
Geo
100
AcDbLine
10
-80.9302982848285
20
1.07340227436381
30
0.000000000000000
11
-80.8302982848285
21
0.976487696747663
31
0.000000000000000
  0
LINE
  5
F103C2
330
F103C3
100
AcDbEntity
8
Geo
100
AcDbLine
10
-80.8302982848285
20
0.976487696747663
30
0.000000000000000
11
-80.7302982848285
21
0.882425585305135
31
0.000000000000000
  0
LINE
  5
F103C4
330
F103C5
100
AcDbEntity
8
Geo
100
AcDbLine
10
-80.7302982848285
20
0.882425585305135
30
0.000000000000000
11
-80.6302982848285
21
0.791310989762765
31
0.000000000000000
  0
LINE
  5
F103C6
330
F103C7
100
AcDbEntity
8
Geo
100
AcDbLine
10
-80.6302982848285
20
0.791310989762765
30
0.000000000000000
11
-80.5302982848285
21
0.703226901840148
31
0.000000000000000
  0
LINE
  5
F103C8
330
F103C9
100
AcDbEntity
8
Geo
100
AcDbLine
10
-80.5302982848285
20
0.703226901840148
30
0.000000000000000
11
-80.4302982848285
21
0.618245123909796
31
0.000000000000000
  0
LINE
  5
F103CA
330
F103CB
100
AcDbEntity
8
Geo
100
AcDbLine
10
-80.4302982848285
20
0.618245123909796
30
0.000000000000000
11
-80.3302982848285
21
0.536427124831247
31
0.000000000000000
  0
LINE
  5
F103CC
330
F103CD
100
AcDbEntity
8
Geo
100
AcDbLine
10
-80.3302982848285
20
0.536427124831247
30
0.000000000000000
11
-80.2302982848285
21
0.457824879126760
31
0.000000000000000
  0
LINE
  5
F103CE
330
F103CF
100
AcDbEntity
8
Geo
100
AcDbLine
10
-80.2302982848285
20
0.457824879126760
30
0.000000000000000
11
-80.1302982848285
21
0.382481686127789
31
0.000000000000000
  0
LINE
  5
F103D0
330
F103D1
100
AcDbEntity
8
Geo
100
AcDbLine
10
-80.1302982848285
20
0.382481686127789
30
0.000000000000000
11
-80.0302982848285
21
0.310432966151644
31
0.000000000000000
  0
LINE
  5
F103D2
330
F103D3
100
AcDbEntity
8
Geo
100
AcDbLine
10
-80.0302982848285
20
0.310432966151644
30
0.000000000000000
11
-79.9302982848285
21
0.241707031166301
31
0.000000000000000
  0
LINE
  5
F103D4
330
F103D5
100
AcDbEntity
8
Geo
100
AcDbLine
10
-79.9302982848285
20
0.241707031166301
30
0.000000000000000
11
-79.8302982848285
21
0.176325827768138
31
0.000000000000000
  0
LINE
  5
F103D6
330
F103D7
100
AcDbEntity
8
Geo
100
AcDbLine
10
-79.8302982848285
20
0.176325827768138
30
0.000000000000000
11
-79.7302982848285
21
0.114305650632831
31
0.000000000000000
  0
LINE
  5
F103D8
330
F103D9
100
AcDbEntity
8
Geo
100
AcDbLine
10
-79.7302982848285
20
0.114305650632831
30
0.000000000000000
11
-79.6302982848285
21
0.0556578249043371
31
0.000000000000000
  0
LINE
  5
F103DA
330
F103DB
100
AcDbEntity
8
Geo
100
AcDbLine
10
-79.6302982848285
20
0.0556578249043371
30
0.000000000000000
11
-79.5302982848285
21
0.000389356261523810
31
0.000000000000000
  0
LINE
  5
F103DC
330
F103DD
100
AcDbEntity
8
Geo
100
AcDbLine
10
-79.5302982848285
20
0.000389356261523810
30
0.000000000000000
11
-79.4302982848285
21
-0.0514964523523576
31
0.000000000000000
  0
LINE
  5
F103DE
330
F103DF
100
AcDbEntity
8
Geo
100
AcDbLine
10
-79.4302982848285
20
-0.0514964523523576
30
0.000000000000000
11
-79.3302982848285
21
-0.0999994181345440
31
0.000000000000000
  0
LINE
  5
F103E0
330
F103E1
100
AcDbEntity
8
Geo
100
AcDbLine
10
-79.3302982848285
20
-0.0999994181345440
30
0.000000000000000
11
-79.2302982848285
21
-0.145121930568213
31
0.000000000000000
  0
LINE
  5
F103E2
330
F103E3
100
AcDbEntity
8
Geo
100
AcDbLine
10
-79.2302982848285
20
-0.145121930568213
30
0.000000000000000
11
-79.1302982848285
21
-0.186868438749299
31
0.000000000000000
  0
LINE
  5
F103E4
330
F103E5
100
AcDbEntity
8
Geo
100
AcDbLine
10
-79.1302982848285
20
-0.186868438749299
30
0.000000000000000
11
-79.0302982848284
21
-0.225244974193960
31
0.000000000000000
  0
LINE
  5
F103E6
330
F103E7
100
AcDbEntity
8
Geo
100
AcDbLine
10
-79.0302982848284
20
-0.225244974193960
30
0.000000000000000
11
-78.9302982848285
21
-0.260258709307043
31
0.000000000000000
  0
LINE
  5
F103E8
330
F103E9
100
AcDbEntity
8
Geo
100
AcDbLine
10
-78.9302982848285
20
-0.260258709307043
30
0.000000000000000
11
-78.8302982848284
21
-0.291917551594093
31
0.000000000000000
  0
LINE
  5
F103EA
330
F103EB
100
AcDbEntity
8
Geo
100
AcDbLine
10
-78.8302982848284
20
-0.291917551594093
30
0.000000000000000
11
-78.7302982848285
21
-0.320229773621024
31
0.000000000000000
  0
LINE
  5
F103EC
330
F103ED
100
AcDbEntity
8
Geo
100
AcDbLine
10
-78.7302982848285
20
-0.320229773621024
30
0.000000000000000
11
-78.6302982848284
21
-0.345203678665264
31
0.000000000000000
  0
LINE
  5
F103EE
330
F103EF
100
AcDbEntity
8
Geo
100
AcDbLine
10
-78.6302982848284
20
-0.345203678665264
30
0.000000000000000
11
-78.5302982848284
21
-0.366847301958118
31
0.000000000000000
  0
LINE
  5
F103F0
330
F103F1
100
AcDbEntity
8
Geo
100
AcDbLine
10
-78.5302982848284
20
-0.366847301958118
30
0.000000000000000
11
-78.4302982848284
21
-0.385168147388911
31
0.000000000000000
  0
LINE
  5
F103F2
330
F103F3
100
AcDbEntity
8
Geo
100
AcDbLine
10
-78.4302982848284
20
-0.385168147388911
30
0.000000000000000
11
-78.3302982848284
21
-0.400172959525521
31
0.000000000000000
  0
LINE
  5
F103F4
330
F103F5
100
AcDbEntity
8
Geo
100
AcDbLine
10
-78.3302982848284
20
-0.400172959525521
30
0.000000000000000
11
-78.2302982848284
21
-0.411867530801561
31
0.000000000000000
  0
LINE
  5
F103F6
330
F103F7
100
AcDbEntity
8
Geo
100
AcDbLine
10
-78.2302982848284
20
-0.411867530801561
30
0.000000000000000
11
-78.1302982848285
21
-0.420256543726247
31
0.000000000000000
  0
LINE
  5
F103F8
330
F103F9
100
AcDbEntity
8
Geo
100
AcDbLine
10
-88.0302982848285
20
4.23817345380857
30
0.000000000000000
11
-87.9302982848285
21
4.23889027446767
31
0.000000000000000
  0
LINE
  5
F103FA
330
F103FB
100
AcDbEntity
8
Geo
100
AcDbLine
10
-87.9302982848285
20
4.23889027446767
30
0.000000000000000
11
-87.8302982848285
21
4.23368253128958
31
0.000000000000000
  0
LINE
  5
F103FC
330
F103FD
100
AcDbEntity
8
Geo
100
AcDbLine
10
-87.8302982848285
20
4.23368253128958
30
0.000000000000000
11
-87.7302982848285
21
4.22255793849694
31
0.000000000000000
  0
LINE
  5
F103FE
330
F103FF
100
AcDbEntity
8
Geo
100
AcDbLine
10
-87.7302982848285
20
4.22255793849694
30
0.000000000000000
11
-87.6302982848285
21
4.20553297493338
31
0.000000000000000
  0
LINE
  5
F10400
330
F10401
100
AcDbEntity
8
Geo
100
AcDbLine
10
-87.6302982848285
20
4.20553297493338
30
0.000000000000000
11
-87.5302982848285
21
4.18263285965345
31
0.000000000000000
  0
LINE
  5
F10402
330
F10403
100
AcDbEntity
8
Geo
100
AcDbLine
10
-87.5302982848285
20
4.18263285965345
30
0.000000000000000
11
-87.4302982848285
21
4.15389151456566
31
0.000000000000000
  0
LINE
  5
F10404
330
F10405
100
AcDbEntity
8
Geo
100
AcDbLine
10
-87.4302982848285
20
4.15389151456566
30
0.000000000000000
11
-87.3302982848285
21
4.11935151418401
31
0.000000000000000
  0
LINE
  5
F10406
330
F10407
100
AcDbEntity
8
Geo
100
AcDbLine
10
-87.3302982848285
20
4.11935151418401
30
0.000000000000000
11
-87.2302982848285
21
4.07906402256241
31
0.000000000000000
  0
LINE
  5
F10408
330
F10409
100
AcDbEntity
8
Geo
100
AcDbLine
10
-87.2302982848285
20
4.07906402256241
30
0.000000000000000
11
-87.1302982848285
21
4.03308871750547
31
0.000000000000000
  0
LINE
  5
F1040A
330
F1040B
100
AcDbEntity
8
Geo
100
AcDbLine
10
-87.1302982848285
20
4.03308871750547
30
0.000000000000000
11
-87.0302982848285
21
3.98149370216781
31
0.000000000000000
  0
LINE
  5
F1040C
330
F1040D
100
AcDbEntity
8
Geo
100
AcDbLine
10
-87.0302982848285
20
3.98149370216781
30
0.000000000000000
11
-86.9302982848285
21
3.92435540417298
31
0.000000000000000
  0
LINE
  5
F1040E
330
F1040F
100
AcDbEntity
8
Geo
100
AcDbLine
10
-86.9302982848285
20
3.92435540417298
30
0.000000000000000
11
-86.8302982848285
21
3.86175846240132
31
0.000000000000000
  0
LINE
  5
F10410
330
F10411
100
AcDbEntity
8
Geo
100
AcDbLine
10
-86.8302982848285
20
3.86175846240132
30
0.000000000000000
11
-86.7302982848285
21
3.79379560161453
31
0.000000000000000
  0
LINE
  5
F10412
330
F10413
100
AcDbEntity
8
Geo
100
AcDbLine
10
-86.7302982848285
20
3.79379560161453
30
0.000000000000000
11
-86.6302982848285
21
3.72056749510255
31
0.000000000000000
  0
LINE
  5
F10414
330
F10415
100
AcDbEntity
8
Geo
100
AcDbLine
10
-86.6302982848285
20
3.72056749510255
30
0.000000000000000
11
-86.5302982848285
21
3.64218261555644
31
0.000000000000000
  0
LINE
  5
F10416
330
F10417
100
AcDbEntity
8
Geo
100
AcDbLine
10
-86.5302982848285
20
3.64218261555644
30
0.000000000000000
11
-86.4302982848285
21
3.55875707438785
31
0.000000000000000
  0
LINE
  5
F10418
330
F10419
100
AcDbEntity
8
Geo
100
AcDbLine
10
-86.4302982848285
20
3.55875707438785
30
0.000000000000000
11
-86.3302982848285
21
3.47041444973343
31
0.000000000000000
  0
LINE
  5
F1041A
330
F1041B
100
AcDbEntity
8
Geo
100
AcDbLine
10
-86.3302982848285
20
3.47041444973343
30
0.000000000000000
11
-86.2302982848285
21
3.37728560339866
31
0.000000000000000
  0
LINE
  5
F1041C
330
F1041D
100
AcDbEntity
8
Geo
100
AcDbLine
10
-86.2302982848285
20
3.37728560339866
30
0.000000000000000
11
-86.1302982848285
21
3.27950848701243
31
0.000000000000000
  0
LINE
  5
F1041E
330
F1041F
100
AcDbEntity
8
Geo
100
AcDbLine
10
-86.1302982848285
20
3.27950848701243
30
0.000000000000000
11
-86.0302982848285
21
3.17722793767955
31
0.000000000000000
  0
LINE
  5
F10420
330
F10421
100
AcDbEntity
8
Geo
100
AcDbLine
10
-86.0302982848285
20
3.17722793767955
30
0.000000000000000
11
-85.9302982848285
21
3.07059546343368
31
0.000000000000000
  0
LINE
  5
F10422
330
F10423
100
AcDbEntity
8
Geo
100
AcDbLine
10
-85.9302982848285
20
3.07059546343368
30
0.000000000000000
11
-85.8302982848285
21
2.95976901880873
31
0.000000000000000
  0
LINE
  5
F10424
330
F10425
100
AcDbEntity
8
Geo
100
AcDbLine
10
-85.8302982848285
20
2.95976901880873
30
0.000000000000000
11
-85.7302982848285
21
2.84491277086105
31
0.000000000000000
  0
LINE
  5
F10426
330
F10427
100
AcDbEntity
8
Geo
100
AcDbLine
10
-85.7302982848285
20
2.84491277086105
30
0.000000000000000
11
-85.6302982848285
21
2.72619685598894
31
0.000000000000000
  0
LINE
  5
F10428
330
F10429
100
AcDbEntity
8
Geo
100
AcDbLine
10
-85.6302982848285
20
2.72619685598894
30
0.000000000000000
11
-85.5302982848285
21
2.60379712790990
31
0.000000000000000
  0
LINE
  5
F1042A
330
F1042B
100
AcDbEntity
8
Geo
100
AcDbLine
10
-85.5302982848285
20
2.60379712790990
30
0.000000000000000
11
-85.4302982848285
21
2.47789489716875
31
0.000000000000000
  0
LINE
  5
F1042C
330
F1042D
100
AcDbEntity
8
Geo
100
AcDbLine
10
-85.4302982848285
20
2.47789489716875
30
0.000000000000000
11
-85.3302982848285
21
2.34867666256255
31
0.000000000000000
  0
LINE
  5
F1042E
330
F1042F
100
AcDbEntity
8
Geo
100
AcDbLine
10
-85.3302982848285
20
2.34867666256255
30
0.000000000000000
11
-85.2302982848285
21
2.21633383488024
31
0.000000000000000
  0
LINE
  5
F10430
330
F10431
100
AcDbEntity
8
Geo
100
AcDbLine
10
-85.2302982848285
20
2.21633383488024
30
0.000000000000000
11
-85.1302982848285
21
2.08106245336606
31
0.000000000000000
  0
LINE
  5
F10432
330
F10433
100
AcDbEntity
8
Geo
100
AcDbLine
10
-85.1302982848285
20
2.08106245336606
30
0.000000000000000
11
-85.0302982848285
21
1.94306289532692
31
0.000000000000000
  0
LINE
  5
F10434
330
F10435
100
AcDbEntity
8
Geo
100
AcDbLine
10
-85.0302982848285
20
1.94306289532692
30
0.000000000000000
11
-84.9302982848285
21
1.80253957931380
31
0.000000000000000
  0
LINE
  5
F10436
330
F10437
100
AcDbEntity
8
Geo
100
AcDbLine
10
-84.9302982848285
20
1.80253957931380
30
0.000000000000000
11
-84.8302982848285
21
1.65970066231677
31
0.000000000000000
  0
LINE
  5
F10438
330
F10439
100
AcDbEntity
8
Geo
100
AcDbLine
10
-84.8302982848285
20
1.65970066231677
30
0.000000000000000
11
-84.7302982848285
21
1.51475773142241
31
0.000000000000000
  0
LINE
  5
F1043A
330
F1043B
100
AcDbEntity
8
Geo
100
AcDbLine
10
-84.7302982848285
20
1.51475773142241
30
0.000000000000000
11
-84.6302982848285
21
1.36792549039012
31
0.000000000000000
  0
LINE
  5
F1043C
330
F1043D
100
AcDbEntity
8
Geo
100
AcDbLine
10
-84.6302982848285
20
1.36792549039012
30
0.000000000000000
11
-84.5302982848285
21
1.21942144161172
31
0.000000000000000
  0
LINE
  5
F1043E
330
F1043F
100
AcDbEntity
8
Geo
100
AcDbLine
10
-84.5302982848285
20
1.21942144161172
30
0.000000000000000
11
-84.4302982848285
21
1.06946556392551
31
0.000000000000000
  0
LINE
  5
F10440
330
F10441
100
AcDbEntity
8
Geo
100
AcDbLine
10
-84.4302982848285
20
1.06946556392551
30
0.000000000000000
11
-84.3302982848285
21
0.918279986761915
31
0.000000000000000
  0
LINE
  5
F10442
330
F10443
100
AcDbEntity
8
Geo
100
AcDbLine
10
-84.3302982848285
20
0.918279986761915
30
0.000000000000000
11
-84.2302982848285
21
0.766088661103443
31
0.000000000000000
  0
LINE
  5
F10444
330
F10445
100
AcDbEntity
8
Geo
100
AcDbLine
10
-84.2302982848285
20
0.766088661103443
30
0.000000000000000
11
-84.1302982848285
21
0.613117027746442
31
0.000000000000000
  0
LINE
  5
F10446
330
F10447
100
AcDbEntity
8
Geo
100
AcDbLine
10
-84.1302982848285
20
0.613117027746442
30
0.000000000000000
11
-84.0302982848285
21
0.459591683355954
31
0.000000000000000
  0
LINE
  5
F10448
330
F10449
100
AcDbEntity
8
Geo
100
AcDbLine
10
-84.0302982848285
20
0.459591683355954
30
0.000000000000000
11
-83.9302982848285
21
0.305740044808393
31
0.000000000000000
  0
LINE
  5
F1044A
330
F1044B
100
AcDbEntity
8
Geo
100
AcDbLine
10
-83.9302982848285
20
0.305740044808393
30
0.000000000000000
11
-83.8302982848285
21
0.151790012319248
31
0.000000000000000
  0
LINE
  5
F1044C
330
F1044D
100
AcDbEntity
8
Geo
100
AcDbLine
10
-83.8302982848285
20
0.151790012319248
30
0.000000000000000
11
-83.7302982848285
21
-0.00203036814517882
31
0.000000000000000
  0
LINE
  5
F1044E
330
F1044F
100
AcDbEntity
8
Geo
100
AcDbLine
10
-83.7302982848285
20
-0.00203036814517882
30
0.000000000000000
11
-83.6302982848285
21
-0.155493242671954
31
0.000000000000000
  0
LINE
  5
F10450
330
F10451
100
AcDbEntity
8
Geo
100
AcDbLine
10
-83.6302982848285
20
-0.155493242671954
30
0.000000000000000
11
-83.5302982848285
21
-0.308371286921183
31
0.000000000000000
  0
LINE
  5
F10452
330
F10453
100
AcDbEntity
8
Geo
100
AcDbLine
10
-83.5302982848285
20
-0.308371286921183
30
0.000000000000000
11
-83.4302982848285
21
-0.460438042861238
31
0.000000000000000
  0
LINE
  5
F10454
330
F10455
100
AcDbEntity
8
Geo
100
AcDbLine
10
-83.4302982848285
20
-0.460438042861238
30
0.000000000000000
11
-83.3302982848285
21
-0.611468254220723
31
0.000000000000000
  0
LINE
  5
F10456
330
F10457
100
AcDbEntity
8
Geo
100
AcDbLine
10
-83.3302982848285
20
-0.611468254220723
30
0.000000000000000
11
-83.2302982848285
21
-0.761238200160266
31
0.000000000000000
  0
LINE
  5
F10458
330
F10459
100
AcDbEntity
8
Geo
100
AcDbLine
10
-83.2302982848285
20
-0.761238200160266
30
0.000000000000000
11
-83.1302982848285
21
-0.909526026669929
31
0.000000000000000
  0
LINE
  5
F1045A
330
F1045B
100
AcDbEntity
8
Geo
100
AcDbLine
10
-83.1302982848285
20
-0.909526026669929
30
0.000000000000000
11
-83.0302982848285
21
-0.891158918310315
31
0.000000000000000
  0
LINE
  5
F1045C
330
F1045D
100
AcDbEntity
8
Geo
100
AcDbLine
10
-83.0302982848285
20
-0.891158918310315
30
0.000000000000000
11
-82.9302982848285
21
-0.873122971054510
31
0.000000000000000
  0
LINE
  5
F1045E
330
F1045F
100
AcDbEntity
8
Geo
100
AcDbLine
10
-82.9302982848285
20
-0.873122971054510
30
0.000000000000000
11
-82.8302982848285
21
-0.855420051914385
31
0.000000000000000
  0
LINE
  5
F10460
330
F10461
100
AcDbEntity
8
Geo
100
AcDbLine
10
-82.8302982848285
20
-0.855420051914385
30
0.000000000000000
11
-82.7302982848285
21
-0.838051953242462
31
0.000000000000000
  0
LINE
  5
F10462
330
F10463
100
AcDbEntity
8
Geo
100
AcDbLine
10
-82.7302982848285
20
-0.838051953242462
30
0.000000000000000
11
-82.6302982848285
21
-0.821020394917449
31
0.000000000000000
  0
LINE
  5
F10464
330
F10465
100
AcDbEntity
8
Geo
100
AcDbLine
10
-82.6302982848285
20
-0.821020394917449
30
0.000000000000000
11
-82.5302982848285
21
-0.804327026494618
31
0.000000000000000
  0
LINE
  5
F10466
330
F10467
100
AcDbEntity
8
Geo
100
AcDbLine
10
-82.5302982848285
20
-0.804327026494618
30
0.000000000000000
11
-82.4302982848285
21
-0.787973429320258
31
0.000000000000000
  0
LINE
  5
F10468
330
F10469
100
AcDbEntity
8
Geo
100
AcDbLine
10
-82.4302982848285
20
-0.787973429320258
30
0.000000000000000
11
-82.3302982848285
21
-0.771961118609546
31
0.000000000000000
  0
LINE
  5
F1046A
330
F1046B
100
AcDbEntity
8
Geo
100
AcDbLine
10
-82.3302982848285
20
-0.771961118609546
30
0.000000000000000
11
-82.2302982848285
21
-0.756291545487130
31
0.000000000000000
  0
LINE
  5
F1046C
330
F1046D
100
AcDbEntity
8
Geo
100
AcDbLine
10
-82.2302982848285
20
-0.756291545487130
30
0.000000000000000
11
-82.1302982848285
21
-0.740966098989833
31
0.000000000000000
  0
LINE
  5
F1046E
330
F1046F
100
AcDbEntity
8
Geo
100
AcDbLine
10
-82.1302982848285
20
-0.740966098989833
30
0.000000000000000
11
-82.0302982848285
21
-0.725986108030843
31
0.000000000000000
  0
LINE
  5
F10470
330
F10471
100
AcDbEntity
8
Geo
100
AcDbLine
10
-82.0302982848285
20
-0.725986108030843
30
0.000000000000000
11
-81.9302982848285
21
-0.711352843324832
31
0.000000000000000
  0
LINE
  5
F10472
330
F10473
100
AcDbEntity
8
Geo
100
AcDbLine
10
-81.9302982848285
20
-0.711352843324832
30
0.000000000000000
11
-81.8302982848285
21
-0.697067519273457
31
0.000000000000000
  0
LINE
  5
F10474
330
F10475
100
AcDbEntity
8
Geo
100
AcDbLine
10
-81.8302982848285
20
-0.697067519273457
30
0.000000000000000
11
-81.7302982848285
21
-0.683131295810722
31
0.000000000000000
  0
LINE
  5
F10476
330
F10477
100
AcDbEntity
8
Geo
100
AcDbLine
10
-81.7302982848285
20
-0.683131295810722
30
0.000000000000000
11
-81.6302982848285
21
-0.669545280207713
31
0.000000000000000
  0
LINE
  5
F10478
330
F10479
100
AcDbEntity
8
Geo
100
AcDbLine
10
-81.6302982848285
20
-0.669545280207713
30
0.000000000000000
11
-81.5302982848285
21
-0.656310528836237
31
0.000000000000000
  0
LINE
  5
F1047A
330
F1047B
100
AcDbEntity
8
Geo
100
AcDbLine
10
-81.5302982848285
20
-0.656310528836237
30
0.000000000000000
11
-81.4302982848285
21
-0.643428048890923
31
0.000000000000000
  0
LINE
  5
F1047C
330
F1047D
100
AcDbEntity
8
Geo
100
AcDbLine
10
-81.4302982848285
20
-0.643428048890923
30
0.000000000000000
11
-81.3302982848285
21
-0.630898800069371
31
0.000000000000000
  0
LINE
  5
F1047E
330
F1047F
100
AcDbEntity
8
Geo
100
AcDbLine
10
-81.3302982848285
20
-0.630898800069371
30
0.000000000000000
11
-81.2302982848285
21
-0.618723696209942
31
0.000000000000000
  0
LINE
  5
F10480
330
F10481
100
AcDbEntity
8
Geo
100
AcDbLine
10
-81.2302982848285
20
-0.618723696209942
30
0.000000000000000
11
-81.1302982848285
21
-0.606903606886835
31
0.000000000000000
  0
LINE
  5
F10482
330
F10483
100
AcDbEntity
8
Geo
100
AcDbLine
10
-81.1302982848285
20
-0.606903606886835
30
0.000000000000000
11
-81.0302982848285
21
-0.595439358962066
31
0.000000000000000
  0
LINE
  5
F10484
330
F10485
100
AcDbEntity
8
Geo
100
AcDbLine
10
-81.0302982848285
20
-0.595439358962066
30
0.000000000000000
11
-80.9302982848285
21
-0.584331738094046
31
0.000000000000000
  0
LINE
  5
F10486
330
F10487
100
AcDbEntity
8
Geo
100
AcDbLine
10
-80.9302982848285
20
-0.584331738094046
30
0.000000000000000
11
-80.8302982848285
21
-0.573581490202426
31
0.000000000000000
  0
LINE
  5
F10488
330
F10489
100
AcDbEntity
8
Geo
100
AcDbLine
10
-80.8302982848285
20
-0.573581490202426
30
0.000000000000000
11
-80.7302982848285
21
-0.563189322888913
31
0.000000000000000
  0
LINE
  5
F1048A
330
F1048B
100
AcDbEntity
8
Geo
100
AcDbLine
10
-80.7302982848285
20
-0.563189322888913
30
0.000000000000000
11
-80.6302982848285
21
-0.553155906813780
31
0.000000000000000
  0
LINE
  5
F1048C
330
F1048D
100
AcDbEntity
8
Geo
100
AcDbLine
10
-80.6302982848285
20
-0.553155906813780
30
0.000000000000000
11
-80.5302982848285
21
-0.543481877027813
31
0.000000000000000
  0
LINE
  5
F1048E
330
F1048F
100
AcDbEntity
8
Geo
100
AcDbLine
10
-80.5302982848285
20
-0.543481877027813
30
0.000000000000000
11
-80.4302982848285
21
-0.534167834259431
31
0.000000000000000
  0
LINE
  5
F10490
330
F10491
100
AcDbEntity
8
Geo
100
AcDbLine
10
-80.4302982848285
20
-0.534167834259431
30
0.000000000000000
11
-80.3302982848285
21
-0.525214346156774
31
0.000000000000000
  0
LINE
  5
F10492
330
F10493
100
AcDbEntity
8
Geo
100
AcDbLine
10
-80.3302982848285
20
-0.525214346156774
30
0.000000000000000
11
-80.2302982848285
21
-0.516621948484511
31
0.000000000000000
  0
LINE
  5
F10494
330
F10495
100
AcDbEntity
8
Geo
100
AcDbLine
10
-80.2302982848285
20
-0.516621948484511
30
0.000000000000000
11
-80.1302982848285
21
-0.508391146275190
31
0.000000000000000
  0
LINE
  5
F10496
330
F10497
100
AcDbEntity
8
Geo
100
AcDbLine
10
-80.1302982848285
20
-0.508391146275190
30
0.000000000000000
11
-80.0302982848285
21
-0.500522414934924
31
0.000000000000000
  0
LINE
  5
F10498
330
F10499
100
AcDbEntity
8
Geo
100
AcDbLine
10
-80.0302982848285
20
-0.500522414934924
30
0.000000000000000
11
-79.9302982848285
21
-0.493016201303246
31
0.000000000000000
  0
LINE
  5
F1049A
330
F1049B
100
AcDbEntity
8
Geo
100
AcDbLine
10
-79.9302982848285
20
-0.493016201303246
30
0.000000000000000
11
-79.8302982848285
21
-0.485872924666958
31
0.000000000000000
  0
LINE
  5
F1049C
330
F1049D
100
AcDbEntity
8
Geo
100
AcDbLine
10
-79.8302982848285
20
-0.485872924666958
30
0.000000000000000
11
-79.7302982848285
21
-0.479092977727827
31
0.000000000000000
  0
LINE
  5
F1049E
330
F1049F
100
AcDbEntity
8
Geo
100
AcDbLine
10
-79.7302982848285
20
-0.479092977727827
30
0.000000000000000
11
-79.6302982848285
21
-0.472676727523981
31
0.000000000000000
  0
LINE
  5
F104A0
330
F104A1
100
AcDbEntity
8
Geo
100
AcDbLine
10
-79.6302982848285
20
-0.472676727523981
30
0.000000000000000
11
-79.5302982848285
21
-0.466624516304873
31
0.000000000000000
  0
LINE
  5
F104A2
330
F104A3
100
AcDbEntity
8
Geo
100
AcDbLine
10
-79.5302982848285
20
-0.466624516304873
30
0.000000000000000
11
-79.4302982848285
21
-0.460936662359686
31
0.000000000000000
  0
LINE
  5
F104A4
330
F104A5
100
AcDbEntity
8
Geo
100
AcDbLine
10
-79.4302982848285
20
-0.460936662359686
30
0.000000000000000
11
-79.3302982848285
21
-0.455613460799079
31
0.000000000000000
  0
LINE
  5
F104A6
330
F104A7
100
AcDbEntity
8
Geo
100
AcDbLine
10
-79.3302982848285
20
-0.455613460799079
30
0.000000000000000
11
-79.2302982848285
21
-0.450655184290144
31
0.000000000000000
  0
LINE
  5
F104A8
330
F104A9
100
AcDbEntity
8
Geo
100
AcDbLine
10
-79.2302982848285
20
-0.450655184290144
30
0.000000000000000
11
-79.1302982848285
21
-0.446062083744506
31
0.000000000000000
  0
LINE
  5
F104AA
330
F104AB
100
AcDbEntity
8
Geo
100
AcDbLine
10
-79.1302982848285
20
-0.446062083744506
30
0.000000000000000
11
-79.0302982848284
21
-0.441834388959453
31
0.000000000000000
  0
LINE
  5
F104AC
330
F104AD
100
AcDbEntity
8
Geo
100
AcDbLine
10
-79.0302982848284
20
-0.441834388959453
30
0.000000000000000
11
-78.9302982848285
21
-0.437972309212035
31
0.000000000000000
  0
LINE
  5
F104AE
330
F104AF
100
AcDbEntity
8
Geo
100
AcDbLine
10
-78.9302982848285
20
-0.437972309212035
30
0.000000000000000
11
-78.8302982848284
21
-0.434476033806044
31
0.000000000000000
  0
LINE
  5
F104B0
330
F104B1
100
AcDbEntity
8
Geo
100
AcDbLine
10
-78.8302982848284
20
-0.434476033806044
30
0.000000000000000
11
-78.7302982848285
21
-0.431345732571815
31
0.000000000000000
  0
LINE
  5
F104B2
330
F104B3
100
AcDbEntity
8
Geo
100
AcDbLine
10
-78.7302982848285
20
-0.431345732571815
30
0.000000000000000
11
-78.6302982848284
21
-0.428581556318794
31
0.000000000000000
  0
LINE
  5
F104B4
330
F104B5
100
AcDbEntity
8
Geo
100
AcDbLine
10
-78.6302982848284
20
-0.428581556318794
30
0.000000000000000
11
-78.5302982848284
21
-0.426183637240804
31
0.000000000000000
  0
LINE
  5
F104B6
330
F104B7
100
AcDbEntity
8
Geo
100
AcDbLine
10
-78.5302982848284
20
-0.426183637240804
30
0.000000000000000
11
-78.4302982848284
21
-0.424152089273981
31
0.000000000000000
  0
LINE
  5
F104B8
330
F104B9
100
AcDbEntity
8
Geo
100
AcDbLine
10
-78.4302982848284
20
-0.424152089273981
30
0.000000000000000
11
-78.3302982848284
21
-0.422487008407326
31
0.000000000000000
  0
LINE
  5
F104BA
330
F104BB
100
AcDbEntity
8
Geo
100
AcDbLine
10
-78.3302982848284
20
-0.422487008407326
30
0.000000000000000
11
-78.2302982848284
21
-0.421188472945845
31
0.000000000000000
  0
LINE
  5
F104BC
330
F104BD
100
AcDbEntity
8
Geo
100
AcDbLine
10
-78.2302982848284
20
-0.421188472945845
30
0.000000000000000
11
-78.1302982848285
21
-0.420256543726240
31
0.000000000000000
  0
LINE
  5
F104BE
330
F104BF
100
AcDbEntity
8
Geo
100
AcDbLine
10
-88.8302982848285
20
4.23869205234578
30
0.000000000000000
11
-88.7302982848285
21
4.23844835935164
31
0.000000000000000
  0
LINE
  5
F104C0
330
F104C1
100
AcDbEntity
8
Geo
100
AcDbLine
10
-88.7302982848285
20
4.23844835935164
30
0.000000000000000
11
-88.6302982848285
21
4.23228075712855
31
0.000000000000000
  0
LINE
  5
F104C2
330
F104C3
100
AcDbEntity
8
Geo
100
AcDbLine
10
-88.6302982848285
20
4.23228075712855
30
0.000000000000000
11
-88.5302982848285
21
4.22019838173700
31
0.000000000000000
  0
LINE
  5
F104C4
330
F104C5
100
AcDbEntity
8
Geo
100
AcDbLine
10
-88.5302982848285
20
4.22019838173700
30
0.000000000000000
11
-88.4302982848285
21
4.20221913078263
31
0.000000000000000
  0
LINE
  5
F104C6
330
F104C7
100
AcDbEntity
8
Geo
100
AcDbLine
10
-88.4302982848285
20
4.20221913078263
30
0.000000000000000
11
-88.3302982848285
21
4.17836963690456
31
0.000000000000000
  0
LINE
  5
F104C8
330
F104C9
100
AcDbEntity
8
Geo
100
AcDbLine
10
-88.3302982848285
20
4.17836963690456
30
0.000000000000000
11
-88.2302982848285
21
4.14868522832449
31
0.000000000000000
  0
LINE
  5
F104CA
330
F104CB
100
AcDbEntity
8
Geo
100
AcDbLine
10
-88.2302982848285
20
4.14868522832449
30
0.000000000000000
11
-88.1302982848285
21
4.11320987651503
31
0.000000000000000
  0
LINE
  5
F104CC
330
F104CD
100
AcDbEntity
8
Geo
100
AcDbLine
10
-88.1302982848285
20
4.11320987651503
30
0.000000000000000
11
-88.0302982848285
21
4.07199613106486
31
0.000000000000000
  0
LINE
  5
F104CE
330
F104CF
100
AcDbEntity
8
Geo
100
AcDbLine
10
-88.0302982848285
20
4.07199613106486
30
0.000000000000000
11
-87.9302982848285
21
4.02510504183706
31
0.000000000000000
  0
LINE
  5
F104D0
330
F104D1
100
AcDbEntity
8
Geo
100
AcDbLine
10
-87.9302982848285
20
4.02510504183706
30
0.000000000000000
11
-87.8302982848285
21
3.97260606853606
31
0.000000000000000
  0
LINE
  5
F104D2
330
F104D3
100
AcDbEntity
8
Geo
100
AcDbLine
10
-87.8302982848285
20
3.97260606853606
30
0.000000000000000
11
-87.7302982848285
21
3.91457697781708
31
0.000000000000000
  0
LINE
  5
F104D4
330
F104D5
100
AcDbEntity
8
Geo
100
AcDbLine
10
-87.7302982848285
20
3.91457697781708
30
0.000000000000000
11
-87.6302982848285
21
3.85110372809046
31
0.000000000000000
  0
LINE
  5
F104D6
330
F104D7
100
AcDbEntity
8
Geo
100
AcDbLine
10
-87.6302982848285
20
3.85110372809046
30
0.000000000000000
11
-87.5302982848285
21
3.78228034219163
31
0.000000000000000
  0
LINE
  5
F104D8
330
F104D9
100
AcDbEntity
8
Geo
100
AcDbLine
10
-87.5302982848285
20
3.78228034219163
30
0.000000000000000
11
-87.4302982848285
21
3.70820876810519
31
0.000000000000000
  0
LINE
  5
F104DA
330
F104DB
100
AcDbEntity
8
Geo
100
AcDbLine
10
-87.4302982848285
20
3.70820876810519
30
0.000000000000000
11
-87.3302982848285
21
3.62899872794950
31
0.000000000000000
  0
LINE
  5
F104DC
330
F104DD
100
AcDbEntity
8
Geo
100
AcDbLine
10
-87.3302982848285
20
3.62899872794950
30
0.000000000000000
11
-87.2302982848285
21
3.54476755544548
31
0.000000000000000
  0
LINE
  5
F104DE
330
F104DF
100
AcDbEntity
8
Geo
100
AcDbLine
10
-87.2302982848285
20
3.54476755544548
30
0.000000000000000
11
-87.1302982848285
21
3.45564002211034
31
0.000000000000000
  0
LINE
  5
F104E0
330
F104E1
100
AcDbEntity
8
Geo
100
AcDbLine
10
-87.1302982848285
20
3.45564002211034
30
0.000000000000000
11
-87.0302982848285
21
3.36174815243366
31
0.000000000000000
  0
LINE
  5
F104E2
330
F104E3
100
AcDbEntity
8
Geo
100
AcDbLine
10
-87.0302982848285
20
3.36174815243366
30
0.000000000000000
11
-86.9302982848285
21
3.26323102830977
31
0.000000000000000
  0
LINE
  5
F104E4
330
F104E5
100
AcDbEntity
8
Geo
100
AcDbLine
10
-86.9302982848285
20
3.26323102830977
30
0.000000000000000
11
-86.8302982848285
21
3.16023458301587
31
0.000000000000000
  0
LINE
  5
F104E6
330
F104E7
100
AcDbEntity
8
Geo
100
AcDbLine
10
-86.8302982848285
20
3.16023458301587
30
0.000000000000000
11
-86.7302982848285
21
3.05291138504132
31
0.000000000000000
  0
LINE
  5
F104E8
330
F104E9
100
AcDbEntity
8
Geo
100
AcDbLine
10
-86.7302982848285
20
3.05291138504132
30
0.000000000000000
11
-86.6302982848285
21
2.94142041208810
31
0.000000000000000
  0
LINE
  5
F104EA
330
F104EB
100
AcDbEntity
8
Geo
100
AcDbLine
10
-86.6302982848285
20
2.94142041208810
30
0.000000000000000
11
-86.5302982848285
21
2.82592681557744
31
0.000000000000000
  0
LINE
  5
F104EC
330
F104ED
100
AcDbEntity
8
Geo
100
AcDbLine
10
-86.5302982848285
20
2.82592681557744
30
0.000000000000000
11
-86.4302982848285
21
2.70660167601117
31
0.000000000000000
  0
LINE
  5
F104EE
330
F104EF
100
AcDbEntity
8
Geo
100
AcDbLine
10
-86.4302982848285
20
2.70660167601117
30
0.000000000000000
11
-86.3302982848285
21
2.58362174955048
31
0.000000000000000
  0
LINE
  5
F104F0
330
F104F1
100
AcDbEntity
8
Geo
100
AcDbLine
10
-86.3302982848285
20
2.58362174955048
30
0.000000000000000
11
-86.2302982848285
21
2.45716920618722
31
0.000000000000000
  0
LINE
  5
F104F2
330
F104F3
100
AcDbEntity
8
Geo
100
AcDbLine
10
-86.2302982848285
20
2.45716920618722
30
0.000000000000000
11
-86.1302982848285
21
2.32743135989578
31
0.000000000000000
  0
LINE
  5
F104F4
330
F104F5
100
AcDbEntity
8
Geo
100
AcDbLine
10
-86.1302982848285
20
2.32743135989578
30
0.000000000000000
11
-86.0302982848285
21
2.19460039116513
31
0.000000000000000
  0
LINE
  5
F104F6
330
F104F7
100
AcDbEntity
8
Geo
100
AcDbLine
10
-86.0302982848285
20
2.19460039116513
30
0.000000000000000
11
-85.9302982848285
21
2.05887306232219
31
0.000000000000000
  0
LINE
  5
F104F8
330
F104F9
100
AcDbEntity
8
Geo
100
AcDbLine
10
-85.9302982848285
20
2.05887306232219
30
0.000000000000000
11
-85.8302982848285
21
1.92045042606799
31
0.000000000000000
  0
LINE
  5
F104FA
330
F104FB
100
AcDbEntity
8
Geo
100
AcDbLine
10
-85.8302982848285
20
1.92045042606799
30
0.000000000000000
11
-85.7302982848285
21
1.77953752765867
31
0.000000000000000
  0
LINE
  5
F104FC
330
F104FD
100
AcDbEntity
8
Geo
100
AcDbLine
10
-85.7302982848285
20
1.77953752765867
30
0.000000000000000
11
-85.6302982848285
21
1.63634310117217
31
0.000000000000000
  0
LINE
  5
F104FE
330
F104FF
100
AcDbEntity
8
Geo
100
AcDbLine
10
-85.6302982848285
20
1.63634310117217
30
0.000000000000000
11
-85.5302982848285
21
1.49107926031076
31
0.000000000000000
  0
LINE
  5
F10500
330
F10501
100
AcDbEntity
8
Geo
100
AcDbLine
10
-85.5302982848285
20
1.49107926031076
30
0.000000000000000
11
-85.4302982848285
21
1.34396118419732
31
0.000000000000000
  0
LINE
  5
F10502
330
F10503
100
AcDbEntity
8
Geo
100
AcDbLine
10
-85.4302982848285
20
1.34396118419732
30
0.000000000000000
11
-85.3302982848285
21
1.19520679863079
31
0.000000000000000
  0
LINE
  5
F10504
330
F10505
100
AcDbEntity
8
Geo
100
AcDbLine
10
-85.3302982848285
20
1.19520679863079
30
0.000000000000000
11
-85.2302982848285
21
1.04503645327299
31
0.000000000000000
  0
LINE
  5
F10506
330
F10507
100
AcDbEntity
8
Geo
100
AcDbLine
10
-85.2302982848285
20
1.04503645327299
30
0.000000000000000
11
-85.1302982848285
21
0.893672595245008
31
0.000000000000000
  0
LINE
  5
F10508
330
F10509
100
AcDbEntity
8
Geo
100
AcDbLine
10
-85.1302982848285
20
0.893672595245008
30
0.000000000000000
11
-85.0302982848285
21
0.741339439616545
31
0.000000000000000
  0
LINE
  5
F1050A
330
F1050B
100
AcDbEntity
8
Geo
100
AcDbLine
10
-85.0302982848285
20
0.741339439616545
30
0.000000000000000
11
-84.9302982848285
21
0.588262637276485
31
0.000000000000000
  0
LINE
  5
F1050C
330
F1050D
100
AcDbEntity
8
Geo
100
AcDbLine
10
-84.9302982848285
20
0.588262637276485
30
0.000000000000000
11
-84.8302982848285
21
0.434668940676535
31
0.000000000000000
  0
LINE
  5
F1050E
330
F1050F
100
AcDbEntity
8
Geo
100
AcDbLine
10
-84.8302982848285
20
0.434668940676535
30
0.000000000000000
11
-84.7302982848285
21
0.280785867943137
31
0.000000000000000
  0
LINE
  5
F10510
330
F10511
100
AcDbEntity
8
Geo
100
AcDbLine
10
-84.7302982848285
20
0.280785867943137
30
0.000000000000000
11
-84.6302982848285
21
0.126841365855206
31
0.000000000000000
  0
LINE
  5
F10512
330
F10513
100
AcDbEntity
8
Geo
100
AcDbLine
10
-84.6302982848285
20
0.126841365855206
30
0.000000000000000
11
-84.5302982848285
21
-0.0269365278131410
31
0.000000000000000
  0
LINE
  5
F10514
330
F10515
100
AcDbEntity
8
Geo
100
AcDbLine
10
-84.5302982848285
20
-0.0269365278131410
30
0.000000000000000
11
-84.4302982848285
21
-0.180320022084599
31
0.000000000000000
  0
LINE
  5
F10516
330
F10517
100
AcDbEntity
8
Geo
100
AcDbLine
10
-84.4302982848285
20
-0.180320022084599
30
0.000000000000000
11
-84.3302982848285
21
-0.333081910205134
31
0.000000000000000
  0
LINE
  5
F10518
330
F10519
100
AcDbEntity
8
Geo
100
AcDbLine
10
-84.3302982848285
20
-0.333081910205134
30
0.000000000000000
11
-84.2302982848285
21
-0.484995906205025
31
0.000000000000000
  0
LINE
  5
F1051A
330
F1051B
100
AcDbEntity
8
Geo
100
AcDbLine
10
-84.2302982848285
20
-0.484995906205025
30
0.000000000000000
11
-84.1302982848285
21
-0.635836980095965
31
0.000000000000000
  0
LINE
  5
F1051C
330
F1051D
100
AcDbEntity
8
Geo
100
AcDbLine
10
-84.1302982848285
20
-0.635836980095965
30
0.000000000000000
11
-84.0302982848285
21
-0.785381691207647
31
0.000000000000000
  0
LINE
  5
F1051E
330
F1051F
100
AcDbEntity
8
Geo
100
AcDbLine
10
-84.0302982848285
20
-0.785381691207647
30
0.000000000000000
11
-83.9302982848285
21
-0.933408519170124
31
0.000000000000000
  0
LINE
  5
F10520
330
F10521
100
AcDbEntity
8
Geo
100
AcDbLine
10
-83.9302982848285
20
-0.933408519170124
30
0.000000000000000
11
-83.8302982848285
21
-1.07969819205163
31
0.000000000000000
  0
LINE
  5
F10522
330
F10523
100
AcDbEntity
8
Geo
100
AcDbLine
10
-83.8302982848285
20
-1.07969819205163
30
0.000000000000000
11
-83.7302982848285
21
-1.22403401116575
31
0.000000000000000
  0
LINE
  5
F10524
330
F10525
100
AcDbEntity
8
Geo
100
AcDbLine
10
-83.7302982848285
20
-1.22403401116575
30
0.000000000000000
11
-83.6302982848285
21
-1.36620217206692
31
0.000000000000000
  0
LINE
  5
F10526
330
F10527
100
AcDbEntity
8
Geo
100
AcDbLine
10
-83.6302982848285
20
-1.36620217206692
30
0.000000000000000
11
-83.5302982848285
21
-1.50599208125864
31
0.000000000000000
  0
LINE
  5
F10528
330
F10529
100
AcDbEntity
8
Geo
100
AcDbLine
10
-83.5302982848285
20
-1.50599208125864
30
0.000000000000000
11
-83.4302982848285
21
-1.64319666814530
31
0.000000000000000
  0
LINE
  5
F1052A
330
F1052B
100
AcDbEntity
8
Geo
100
AcDbLine
10
-83.4302982848285
20
-1.64319666814530
30
0.000000000000000
11
-83.3302982848285
21
-1.77761269176560
31
0.000000000000000
  0
LINE
  5
F1052C
330
F1052D
100
AcDbEntity
8
Geo
100
AcDbLine
10
-83.3302982848285
20
-1.77761269176560
30
0.000000000000000
11
-83.2302982848285
21
-1.90904104185306
31
0.000000000000000
  0
LINE
  5
F1052E
330
F1052F
100
AcDbEntity
8
Geo
100
AcDbLine
10
-83.2302982848285
20
-1.90904104185306
30
0.000000000000000
11
-83.1302982848285
21
-2.03728703377785
31
0.000000000000000
  0
LINE
  5
F10530
330
F10531
100
AcDbEntity
8
Geo
100
AcDbLine
10
-83.1302982848285
20
-2.03728703377785
30
0.000000000000000
11
-83.0302982848285
21
-2.17692324430102
31
0.000000000000000
  0
LINE
  5
F10532
330
F10533
100
AcDbEntity
8
Geo
100
AcDbLine
10
-83.0302982848285
20
-2.17692324430102
30
0.000000000000000
11
-82.9302982848285
21
-2.30949125894153
31
0.000000000000000
  0
LINE
  5
F10534
330
F10535
100
AcDbEntity
8
Geo
100
AcDbLine
10
-82.9302982848285
20
-2.30949125894153
30
0.000000000000000
11
-82.8302982848285
21
-2.43501728536092
31
0.000000000000000
  0
LINE
  5
F10536
330
F10537
100
AcDbEntity
8
Geo
100
AcDbLine
10
-82.8302982848285
20
-2.43501728536092
30
0.000000000000000
11
-82.7302982848285
21
-2.55355712017585
31
0.000000000000000
  0
LINE
  5
F10538
330
F10539
100
AcDbEntity
8
Geo
100
AcDbLine
10
-82.7302982848285
20
-2.55355712017585
30
0.000000000000000
11
-82.6302982848285
21
-2.66519364959124
31
0.000000000000000
  0
LINE
  5
F1053A
330
F1053B
100
AcDbEntity
8
Geo
100
AcDbLine
10
-82.6302982848285
20
-2.66519364959124
30
0.000000000000000
11
-82.5302982848285
21
-2.77003439894890
31
0.000000000000000
  0
LINE
  5
F1053C
330
F1053D
100
AcDbEntity
8
Geo
100
AcDbLine
10
-82.5302982848285
20
-2.77003439894890
30
0.000000000000000
11
-82.4302982848285
21
-2.86820914352213
31
0.000000000000000
  0
LINE
  5
F1053E
330
F1053F
100
AcDbEntity
8
Geo
100
AcDbLine
10
-82.4302982848285
20
-2.86820914352213
30
0.000000000000000
11
-82.3302982848285
21
-2.95986759112693
31
0.000000000000000
  0
LINE
  5
F10540
330
F10541
100
AcDbEntity
8
Geo
100
AcDbLine
10
-82.3302982848285
20
-2.95986759112693
30
0.000000000000000
11
-82.2302982848285
21
-3.04517714545744
31
0.000000000000000
  0
LINE
  5
F10542
330
F10543
100
AcDbEntity
8
Geo
100
AcDbLine
10
-82.2302982848285
20
-3.04517714545744
30
0.000000000000000
11
-82.1302982848285
21
-3.12432075749157
31
0.000000000000000
  0
LINE
  5
F10544
330
F10545
100
AcDbEntity
8
Geo
100
AcDbLine
10
-82.1302982848285
20
-3.12432075749157
30
0.000000000000000
11
-82.0302982848285
21
-3.19749487085535
31
0.000000000000000
  0
LINE
  5
F10546
330
F10547
100
AcDbEntity
8
Geo
100
AcDbLine
10
-82.0302982848285
20
-3.19749487085535
30
0.000000000000000
11
-81.9302982848285
21
-3.26490746568415
31
0.000000000000000
  0
LINE
  5
F10548
330
F10549
100
AcDbEntity
8
Geo
100
AcDbLine
10
-81.9302982848285
20
-3.26490746568415
30
0.000000000000000
11
-81.8302982848285
21
-3.32677620427459
31
0.000000000000000
  0
LINE
  5
F1054A
330
F1054B
100
AcDbEntity
8
Geo
100
AcDbLine
10
-81.8302982848285
20
-3.32677620427459
30
0.000000000000000
11
-81.7302982848285
21
-3.38332668068329
31
0.000000000000000
  0
LINE
  5
F1054C
330
F1054D
100
AcDbEntity
8
Geo
100
AcDbLine
10
-81.7302982848285
20
-3.38332668068329
30
0.000000000000000
11
-81.6302982848285
21
-3.43479077539538
31
0.000000000000000
  0
LINE
  5
F1054E
330
F1054F
100
AcDbEntity
8
Geo
100
AcDbLine
10
-81.6302982848285
20
-3.43479077539538
30
0.000000000000000
11
-81.5302982848285
21
-3.48140511525391
31
0.000000000000000
  0
LINE
  5
F10550
330
F10551
100
AcDbEntity
8
Geo
100
AcDbLine
10
-81.5302982848285
20
-3.48140511525391
30
0.000000000000000
11
-81.4302982848285
21
-3.52340963800855
31
0.000000000000000
  0
LINE
  5
F10552
330
F10553
100
AcDbEntity
8
Geo
100
AcDbLine
10
-81.4302982848285
20
-3.52340963800855
30
0.000000000000000
11
-81.3302982848285
21
-3.56104626010408
31
0.000000000000000
  0
LINE
  5
F10554
330
F10555
100
AcDbEntity
8
Geo
100
AcDbLine
10
-81.3302982848285
20
-3.56104626010408
30
0.000000000000000
11
-81.2302982848285
21
-3.59455764568141
31
0.000000000000000
  0
LINE
  5
F10556
330
F10557
100
AcDbEntity
8
Geo
100
AcDbLine
10
-81.2302982848285
20
-3.59455764568141
30
0.000000000000000
11
-81.1302982848285
21
-3.62418607420229
31
0.000000000000000
  0
LINE
  5
F10558
330
F10559
100
AcDbEntity
8
Geo
100
AcDbLine
10
-81.1302982848285
20
-3.62418607420229
30
0.000000000000000
11
-81.0302982848285
21
-3.65017240362806
31
0.000000000000000
  0
LINE
  5
F1055A
330
F1055B
100
AcDbEntity
8
Geo
100
AcDbLine
10
-81.0302982848285
20
-3.65017240362806
30
0.000000000000000
11
-80.9302982848285
21
-3.67275512567774
31
0.000000000000000
  0
LINE
  5
F1055C
330
F1055D
100
AcDbEntity
8
Geo
100
AcDbLine
10
-80.9302982848285
20
-3.67275512567774
30
0.000000000000000
11
-80.8302982848285
21
-3.69216950935661
31
0.000000000000000
  0
LINE
  5
F1055E
330
F1055F
100
AcDbEntity
8
Geo
100
AcDbLine
10
-80.8302982848285
20
-3.69216950935661
30
0.000000000000000
11
-80.7302982848285
21
-3.70864682867711
31
0.000000000000000
  0
LINE
  5
F10560
330
F10561
100
AcDbEntity
8
Geo
100
AcDbLine
10
-80.7302982848285
20
-3.70864682867711
30
0.000000000000000
11
-80.6302982848285
21
-3.72241367028540
31
0.000000000000000
  0
LINE
  5
F10562
330
F10563
100
AcDbEntity
8
Geo
100
AcDbLine
10
-80.6302982848285
20
-3.72241367028540
30
0.000000000000000
11
-80.5302982848285
21
-3.73369131655317
31
0.000000000000000
  0
LINE
  5
F10564
330
F10565
100
AcDbEntity
8
Geo
100
AcDbLine
10
-80.5302982848285
20
-3.73369131655317
30
0.000000000000000
11
-80.4302982848285
21
-3.74269519959051
31
0.000000000000000
  0
LINE
  5
F10566
330
F10567
100
AcDbEntity
8
Geo
100
AcDbLine
10
-80.4302982848285
20
-3.74269519959051
30
0.000000000000000
11
-80.3302982848285
21
-3.74963442157762
31
0.000000000000000
  0
LINE
  5
F10568
330
F10569
100
AcDbEntity
8
Geo
100
AcDbLine
10
-80.3302982848285
20
-3.74963442157762
30
0.000000000000000
11
-80.2302982848285
21
-3.75471133679529
31
0.000000000000000
  0
LINE
  5
F1056A
330
F1056B
100
AcDbEntity
8
Geo
100
AcDbLine
10
-80.2302982848285
20
-3.75471133679529
30
0.000000000000000
11
-80.1302982848285
21
-3.75812119075290
31
0.000000000000000
  0
LINE
  5
F1056C
330
F1056D
100
AcDbEntity
8
Geo
100
AcDbLine
10
-80.1302982848285
20
-3.75812119075290
30
0.000000000000000
11
-80.0302982848285
21
-3.76005181186341
31
0.000000000000000
  0
LINE
  5
F1056E
330
F1056F
100
AcDbEntity
8
Geo
100
AcDbLine
10
-80.0302982848285
20
-3.76005181186341
30
0.000000000000000
11
-79.9302982848285
21
-3.76068335119366
31
0.000000000000000
  0
LINE
  5
F10570
330
F10571
100
AcDbEntity
8
Geo
100
AcDbLine
10
-79.9302982848285
20
-3.76068335119366
30
0.000000000000000
11
-79.8302982848285
21
-3.76068406586185
31
0.000000000000000
  0
LINE
  5
F10572
330
F10573
100
AcDbEntity
8
Geo
100
AcDbLine
10
-92.1302982848285
20
4.23736975993879
30
0.000000000000000
11
-92.0302982848285
21
4.23920951780497
31
0.000000000000000
  0
LINE
  5
F10574
330
F10575
100
AcDbEntity
8
Geo
100
AcDbLine
10
-92.0302982848285
20
4.23920951780497
30
0.000000000000000
11
-91.9302982848285
21
4.23512423893927
31
0.000000000000000
  0
LINE
  5
F10576
330
F10577
100
AcDbEntity
8
Geo
100
AcDbLine
10
-91.9302982848285
20
4.23512423893927
30
0.000000000000000
11
-91.8302982848285
21
4.22511997485949
31
0.000000000000000
  0
LINE
  5
F10578
330
F10579
100
AcDbEntity
8
Geo
100
AcDbLine
10
-91.8302982848285
20
4.22511997485949
30
0.000000000000000
11
-91.7302982848285
21
4.20921154486794
31
0.000000000000000
  0
LINE
  5
F1057A
330
F1057B
100
AcDbEntity
8
Geo
100
AcDbLine
10
-91.7302982848285
20
4.20921154486794
30
0.000000000000000
11
-91.6302982848285
21
4.18742251409956
31
0.000000000000000
  0
LINE
  5
F1057C
330
F1057D
100
AcDbEntity
8
Geo
100
AcDbLine
10
-91.6302982848285
20
4.18742251409956
30
0.000000000000000
11
-91.5302982848285
21
4.15978515861494
31
0.000000000000000
  0
LINE
  5
F1057E
330
F1057F
100
AcDbEntity
8
Geo
100
AcDbLine
10
-91.5302982848285
20
4.15978515861494
30
0.000000000000000
11
-91.4302982848285
21
4.12634041758982
31
0.000000000000000
  0
LINE
  5
F10580
330
F10581
100
AcDbEntity
8
Geo
100
AcDbLine
10
-91.4302982848285
20
4.12634041758982
30
0.000000000000000
11
-91.3302982848285
21
4.08713783267198
31
0.000000000000000
  0
LINE
  5
F10582
330
F10583
100
AcDbEntity
8
Geo
100
AcDbLine
10
-91.3302982848285
20
4.08713783267198
30
0.000000000000000
11
-91.2302982848285
21
4.04223547459526
31
0.000000000000000
  0
LINE
  5
F10584
330
F10585
100
AcDbEntity
8
Geo
100
AcDbLine
10
-91.2302982848285
20
4.04223547459526
30
0.000000000000000
11
-91.1302982848285
21
3.99169985715942
31
0.000000000000000
  0
LINE
  5
F10586
330
F10587
100
AcDbEntity
8
Geo
100
AcDbLine
10
-91.1302982848285
20
3.99169985715942
30
0.000000000000000
11
-91.0302982848285
21
3.93560583870340
31
0.000000000000000
  0
LINE
  5
F10588
330
F10589
100
AcDbEntity
8
Geo
100
AcDbLine
10
-91.0302982848285
20
3.93560583870340
30
0.000000000000000
11
-90.9302982848285
21
3.87403651121773
31
0.000000000000000
  0
LINE
  5
F1058A
330
F1058B
100
AcDbEntity
8
Geo
100
AcDbLine
10
-90.9302982848285
20
3.87403651121773
30
0.000000000000000
11
-90.8302982848285
21
3.80708307726050
31
0.000000000000000
  0
LINE
  5
F1058C
330
F1058D
100
AcDbEntity
8
Geo
100
AcDbLine
10
-90.8302982848285
20
3.80708307726050
30
0.000000000000000
11
-90.7302982848285
21
3.73484471485913
31
0.000000000000000
  0
LINE
  5
F1058E
330
F1058F
100
AcDbEntity
8
Geo
100
AcDbLine
10
-90.7302982848285
20
3.73484471485913
30
0.000000000000000
11
-90.6302982848285
21
3.65742843059811
31
0.000000000000000
  0
LINE
  5
F10590
330
F10591
100
AcDbEntity
8
Geo
100
AcDbLine
10
-90.6302982848285
20
3.65742843059811
30
0.000000000000000
11
-90.5302982848285
21
3.57494890111027
31
0.000000000000000
  0
LINE
  5
F10592
330
F10593
100
AcDbEntity
8
Geo
100
AcDbLine
10
-90.5302982848285
20
3.57494890111027
30
0.000000000000000
11
-90.4302982848285
21
3.48752830320647
31
0.000000000000000
  0
LINE
  5
F10594
330
F10595
100
AcDbEntity
8
Geo
100
AcDbLine
10
-90.4302982848285
20
3.48752830320647
30
0.000000000000000
11
-90.3302982848285
21
3.39529613289527
31
0.000000000000000
  0
LINE
  5
F10596
330
F10597
100
AcDbEntity
8
Geo
100
AcDbLine
10
-90.3302982848285
20
3.39529613289527
30
0.000000000000000
11
-90.2302982848285
21
3.29838901356065
31
0.000000000000000
  0
LINE
  5
F10598
330
F10599
100
AcDbEntity
8
Geo
100
AcDbLine
10
-90.2302982848285
20
3.29838901356065
30
0.000000000000000
11
-90.1302982848285
21
3.19695049358198
31
0.000000000000000
  0
LINE
  5
F1059A
330
F1059B
100
AcDbEntity
8
Geo
100
AcDbLine
10
-90.1302982848285
20
3.19695049358198
30
0.000000000000000
11
-90.0302982848285
21
3.09113083369604
31
0.000000000000000
  0
LINE
  5
F1059C
330
F1059D
100
AcDbEntity
8
Geo
100
AcDbLine
10
-90.0302982848285
20
3.09113083369604
30
0.000000000000000
11
-89.9302982848285
21
2.98108678441599
31
0.000000000000000
  0
LINE
  5
F1059E
330
F1059F
100
AcDbEntity
8
Geo
100
AcDbLine
10
-89.9302982848285
20
2.98108678441599
30
0.000000000000000
11
-89.8302982848285
21
2.86698135383702
31
0.000000000000000
  0
LINE
  5
F105A0
330
F105A1
100
AcDbEntity
8
Geo
100
AcDbLine
10
-89.8302982848285
20
2.86698135383702
30
0.000000000000000
11
-89.7302982848285
21
2.74898356617275
31
0.000000000000000
  0
LINE
  5
F105A2
330
F105A3
100
AcDbEntity
8
Geo
100
AcDbLine
10
-89.7302982848285
20
2.74898356617275
30
0.000000000000000
11
-89.6302982848285
21
2.62726821137985
31
0.000000000000000
  0
LINE
  5
F105A4
330
F105A5
100
AcDbEntity
8
Geo
100
AcDbLine
10
-89.6302982848285
20
2.62726821137985
30
0.000000000000000
11
-89.5302982848285
21
2.50201558624195
31
0.000000000000000
  0
LINE
  5
F105A6
330
F105A7
100
AcDbEntity
8
Geo
100
AcDbLine
10
-89.5302982848285
20
2.50201558624195
30
0.000000000000000
11
-89.4302982848285
21
2.37341122729626
31
0.000000000000000
  0
LINE
  5
F105A8
330
F105A9
100
AcDbEntity
8
Geo
100
AcDbLine
10
-89.4302982848285
20
2.37341122729626
30
0.000000000000000
11
-89.3302982848285
21
2.24164563599854
31
0.000000000000000
  0
LINE
  5
F105AA
330
F105AB
100
AcDbEntity
8
Geo
100
AcDbLine
10
-89.3302982848285
20
2.24164563599854
30
0.000000000000000
11
-89.2302982848285
21
2.10691399653361
31
0.000000000000000
  0
LINE
  5
F105AC
330
F105AD
100
AcDbEntity
8
Geo
100
AcDbLine
10
-89.2302982848285
20
2.10691399653361
30
0.000000000000000
11
-89.1302982848285
21
1.96941588668924
31
0.000000000000000
  0
LINE
  5
F105AE
330
F105AF
100
AcDbEntity
8
Geo
100
AcDbLine
10
-89.1302982848285
20
1.96941588668924
30
0.000000000000000
11
-89.0302982848285
21
1.82935498222189
31
0.000000000000000
  0
LINE
  5
F105B0
330
F105B1
100
AcDbEntity
8
Geo
100
AcDbLine
10
-89.0302982848285
20
1.82935498222189
30
0.000000000000000
11
-88.9302982848285
21
1.68693875515209
31
0.000000000000000
  0
LINE
  5
F105B2
330
F105B3
100
AcDbEntity
8
Geo
100
AcDbLine
10
-88.9302982848285
20
1.68693875515209
30
0.000000000000000
11
-88.8302982848285
21
1.54237816643639
31
0.000000000000000
  0
LINE
  5
F105B4
330
F105B5
100
AcDbEntity
8
Geo
100
AcDbLine
10
-88.8302982848285
20
1.54237816643639
30
0.000000000000000
11
-88.7302982848285
21
1.39588735347128
31
0.000000000000000
  0
LINE
  5
F105B6
330
F105B7
100
AcDbEntity
8
Geo
100
AcDbLine
10
-88.7302982848285
20
1.39588735347128
30
0.000000000000000
11
-88.6302982848285
21
1.24768331289166
31
0.000000000000000
  0
LINE
  5
F105B8
330
F105B9
100
AcDbEntity
8
Geo
100
AcDbLine
10
-88.6302982848285
20
1.24768331289166
30
0.000000000000000
11
-88.5302982848285
21
1.09798557913411
31
0.000000000000000
  0
LINE
  5
F105BA
330
F105BB
100
AcDbEntity
8
Geo
100
AcDbLine
10
-88.5302982848285
20
1.09798557913411
30
0.000000000000000
11
-88.4302982848285
21
0.947015899240805
31
0.000000000000000
  0
LINE
  5
F105BC
330
F105BD
100
AcDbEntity
8
Geo
100
AcDbLine
10
-88.4302982848285
20
0.947015899240805
30
0.000000000000000
11
-88.3302982848285
21
0.794997904385948
31
0.000000000000000
  0
LINE
  5
F105BE
330
F105BF
100
AcDbEntity
8
Geo
100
AcDbLine
10
-88.3302982848285
20
0.794997904385948
30
0.000000000000000
11
-88.2302982848285
21
0.642156778611205
31
0.000000000000000
  0
LINE
  5
F105C0
330
F105C1
100
AcDbEntity
8
Geo
100
AcDbLine
10
-88.2302982848285
20
0.642156778611205
30
0.000000000000000
11
-88.1302982848285
21
0.488718925260919
31
0.000000000000000
  0
LINE
  5
F105C2
330
F105C3
100
AcDbEntity
8
Geo
100
AcDbLine
10
-88.1302982848285
20
0.488718925260919
30
0.000000000000000
11
-88.0302982848285
21
0.334911631611151
31
0.000000000000000
  0
LINE
  5
F105C4
330
F105C5
100
AcDbEntity
8
Geo
100
AcDbLine
10
-88.0302982848285
20
0.334911631611151
30
0.000000000000000
11
-87.9302982848285
21
0.180962732189353
31
0.000000000000000
  0
LINE
  5
F105C6
330
F105C7
100
AcDbEntity
8
Geo
100
AcDbLine
10
-87.9302982848285
20
0.180962732189353
30
0.000000000000000
11
-87.8302982848285
21
0.0271002712834189
31
0.000000000000000
  0
LINE
  5
F105C8
330
F105C9
100
AcDbEntity
8
Geo
100
AcDbLine
10
-87.8302982848285
20
0.0271002712834189
30
0.000000000000000
11
-87.7302982848285
21
-0.126447834860021
31
0.000000000000000
  0
LINE
  5
F105CA
330
F105CB
100
AcDbEntity
8
Geo
100
AcDbLine
10
-87.7302982848285
20
-0.126447834860021
30
0.000000000000000
11
-87.6302982848285
21
-0.279454135647598
31
0.000000000000000
  0
LINE
  5
F105CC
330
F105CD
100
AcDbEntity
8
Geo
100
AcDbLine
10
-87.6302982848285
20
-0.279454135647598
30
0.000000000000000
11
-87.5302982848285
21
-0.431691983061455
31
0.000000000000000
  0
LINE
  5
F105CE
330
F105CF
100
AcDbEntity
8
Geo
100
AcDbLine
10
-87.5302982848285
20
-0.431691983061455
30
0.000000000000000
11
-87.4302982848285
21
-0.582935867392636
31
0.000000000000000
  0
LINE
  5
F105D0
330
F105D1
100
AcDbEntity
8
Geo
100
AcDbLine
10
-87.4302982848285
20
-0.582935867392636
30
0.000000000000000
11
-87.3302982848285
21
-0.732961751288297
31
0.000000000000000
  0
LINE
  5
F105D2
330
F105D3
100
AcDbEntity
8
Geo
100
AcDbLine
10
-87.3302982848285
20
-0.732961751288297
30
0.000000000000000
11
-87.2302982848285
21
-0.881547401617927
31
0.000000000000000
  0
LINE
  5
F105D4
330
F105D5
100
AcDbEntity
8
Geo
100
AcDbLine
10
-87.2302982848285
20
-0.881547401617927
30
0.000000000000000
11
-87.1302982848285
21
-1.02847271866696
31
0.000000000000000
  0
LINE
  5
F105D6
330
F105D7
100
AcDbEntity
8
Geo
100
AcDbLine
10
-87.1302982848285
20
-1.02847271866696
30
0.000000000000000
11
-87.0302982848285
21
-1.17352006217020
31
0.000000000000000
  0
LINE
  5
F105D8
330
F105D9
100
AcDbEntity
8
Geo
100
AcDbLine
10
-87.0302982848285
20
-1.17352006217020
30
0.000000000000000
11
-86.9302982848285
21
-1.31647457370199
31
0.000000000000000
  0
LINE
  5
F105DA
330
F105DB
100
AcDbEntity
8
Geo
100
AcDbLine
10
-86.9302982848285
20
-1.31647457370199
30
0.000000000000000
11
-86.8302982848285
21
-1.45712449494575
31
0.000000000000000
  0
LINE
  5
F105DC
330
F105DD
100
AcDbEntity
8
Geo
100
AcDbLine
10
-86.8302982848285
20
-1.45712449494575
30
0.000000000000000
11
-86.7302982848285
21
-1.59526148137123
31
0.000000000000000
  0
LINE
  5
F105DE
330
F105DF
100
AcDbEntity
8
Geo
100
AcDbLine
10
-86.7302982848285
20
-1.59526148137123
30
0.000000000000000
11
-86.6302982848285
21
-1.73068091085500
31
0.000000000000000
  0
LINE
  5
F105E0
330
F105E1
100
AcDbEntity
8
Geo
100
AcDbLine
10
-86.6302982848285
20
-1.73068091085500
30
0.000000000000000
11
-86.5302982848285
21
-1.86318218678689
31
0.000000000000000
  0
LINE
  5
F105E2
330
F105E3
100
AcDbEntity
8
Geo
100
AcDbLine
10
-86.5302982848285
20
-1.86318218678689
30
0.000000000000000
11
-86.4302982848285
21
-1.99256903521350
31
0.000000000000000
  0
LINE
  5
F105E4
330
F105E5
100
AcDbEntity
8
Geo
100
AcDbLine
10
-86.4302982848285
20
-1.99256903521350
30
0.000000000000000
11
-86.3302982848285
21
-2.11864979557846
31
0.000000000000000
  0
LINE
  5
F105E6
330
F105E7
100
AcDbEntity
8
Geo
100
AcDbLine
10
-86.3302982848285
20
-2.11864979557846
30
0.000000000000000
11
-86.2302982848285
21
-2.24123770462904
31
0.000000000000000
  0
LINE
  5
F105E8
330
F105E9
100
AcDbEntity
8
Geo
100
AcDbLine
10
-86.2302982848285
20
-2.24123770462904
30
0.000000000000000
11
-86.1302982848285
21
-2.36015117306821
31
0.000000000000000
  0
LINE
  5
F105EA
330
F105EB
100
AcDbEntity
8
Geo
100
AcDbLine
10
-86.1302982848285
20
-2.36015117306821
30
0.000000000000000
11
-86.0302982848285
21
-2.47521405454266
31
0.000000000000000
  0
LINE
  5
F105EC
330
F105ED
100
AcDbEntity
8
Geo
100
AcDbLine
10
-86.0302982848285
20
-2.47521405454266
30
0.000000000000000
11
-85.9302982848285
21
-2.58625590656811
31
0.000000000000000
  0
LINE
  5
F105EE
330
F105EF
100
AcDbEntity
8
Geo
100
AcDbLine
10
-85.9302982848285
20
-2.58625590656811
30
0.000000000000000
11
-85.8302982848285
21
-2.69311224300556
31
0.000000000000000
  0
LINE
  5
F105F0
330
F105F1
100
AcDbEntity
8
Geo
100
AcDbLine
10
-85.8302982848285
20
-2.69311224300556
30
0.000000000000000
11
-85.7302982848285
21
-2.79562477771434
31
0.000000000000000
  0
LINE
  5
F105F2
330
F105F3
100
AcDbEntity
8
Geo
100
AcDbLine
10
-85.7302982848285
20
-2.79562477771434
30
0.000000000000000
11
-85.6302982848285
21
-2.89364165902117
31
0.000000000000000
  0
LINE
  5
F105F4
330
F105F5
100
AcDbEntity
8
Geo
100
AcDbLine
10
-85.6302982848285
20
-2.89364165902117
30
0.000000000000000
11
-85.5302982848285
21
-2.98701769465782
31
0.000000000000000
  0
LINE
  5
F105F6
330
F105F7
100
AcDbEntity
8
Geo
100
AcDbLine
10
-85.5302982848285
20
-2.98701769465782
30
0.000000000000000
11
-85.4302982848285
21
-3.07561456683422
31
0.000000000000000
  0
LINE
  5
F105F8
330
F105F9
100
AcDbEntity
8
Geo
100
AcDbLine
10
-85.4302982848285
20
-3.07561456683422
30
0.000000000000000
11
-85.3302982848285
21
-3.15930103712839
31
0.000000000000000
  0
LINE
  5
F105FA
330
F105FB
100
AcDbEntity
8
Geo
100
AcDbLine
10
-85.3302982848285
20
-3.15930103712839
30
0.000000000000000
11
-85.2302982848285
21
-3.23795314088975
31
0.000000000000000
  0
LINE
  5
F105FC
330
F105FD
100
AcDbEntity
8
Geo
100
AcDbLine
10
-85.2302982848285
20
-3.23795314088975
30
0.000000000000000
11
-85.1302982848285
21
-3.31145437086778
31
0.000000000000000
  0
LINE
  5
F105FE
330
F105FF
100
AcDbEntity
8
Geo
100
AcDbLine
10
-85.1302982848285
20
-3.31145437086778
30
0.000000000000000
11
-85.0302982848285
21
-3.37969584979404
31
0.000000000000000
  0
LINE
  5
F10600
330
F10601
100
AcDbEntity
8
Geo
100
AcDbLine
10
-85.0302982848285
20
-3.37969584979404
30
0.000000000000000
11
-84.9302982848285
21
-3.44257649166190
31
0.000000000000000
  0
LINE
  5
F10602
330
F10603
100
AcDbEntity
8
Geo
100
AcDbLine
10
-84.9302982848285
20
-3.44257649166190
30
0.000000000000000
11
-84.8302982848285
21
-3.50000315146513
31
0.000000000000000
  0
LINE
  5
F10604
330
F10605
100
AcDbEntity
8
Geo
100
AcDbLine
10
-84.8302982848285
20
-3.50000315146513
30
0.000000000000000
11
-84.7302982848285
21
-3.55189076317345
31
0.000000000000000
  0
LINE
  5
F10606
330
F10607
100
AcDbEntity
8
Geo
100
AcDbLine
10
-84.7302982848285
20
-3.55189076317345
30
0.000000000000000
11
-84.6302982848285
21
-3.59816246574070
31
0.000000000000000
  0
LINE
  5
F10608
330
F10609
100
AcDbEntity
8
Geo
100
AcDbLine
10
-84.6302982848285
20
-3.59816246574070
30
0.000000000000000
11
-84.5302982848285
21
-3.63874971695906
31
0.000000000000000
  0
LINE
  5
F1060A
330
F1060B
100
AcDbEntity
8
Geo
100
AcDbLine
10
-84.5302982848285
20
-3.63874971695906
30
0.000000000000000
11
-84.4302982848285
21
-3.67359239499045
31
0.000000000000000
  0
LINE
  5
F1060C
330
F1060D
100
AcDbEntity
8
Geo
100
AcDbLine
10
-84.4302982848285
20
-3.67359239499045
30
0.000000000000000
11
-84.3302982848285
21
-3.70263888742497
31
0.000000000000000
  0
LINE
  5
F1060E
330
F1060F
100
AcDbEntity
8
Geo
100
AcDbLine
10
-84.3302982848285
20
-3.70263888742497
30
0.000000000000000
11
-84.2302982848285
21
-3.72584616773430
31
0.000000000000000
  0
LINE
  5
F10610
330
F10611
100
AcDbEntity
8
Geo
100
AcDbLine
10
-84.2302982848285
20
-3.72584616773430
30
0.000000000000000
11
-84.1302982848285
21
-3.74317985900681
31
0.000000000000000
  0
LINE
  5
F10612
330
F10613
100
AcDbEntity
8
Geo
100
AcDbLine
10
-84.1302982848285
20
-3.74317985900681
30
0.000000000000000
11
-84.0302982848285
21
-3.75461428487001
31
0.000000000000000
  0
LINE
  5
F10614
330
F10615
100
AcDbEntity
8
Geo
100
AcDbLine
10
-84.0302982848285
20
-3.75461428487001
30
0.000000000000000
11
-83.9302982848285
21
-3.76013250752499
31
0.000000000000000
  0
LINE
  5
F10616
330
F10617
100
AcDbEntity
8
Geo
100
AcDbLine
10
-96.1302982848285
20
3.18722148083807
30
0.000000000000000
11
-96.0302982848285
21
3.60923639664527
31
0.000000000000000
  0
LINE
  5
F10618
330
F10619
100
AcDbEntity
8
Geo
100
AcDbLine
10
-96.1302982848285
20
-0.0561263917655145
30
0.000000000000000
11
-96.0302982848285
21
-0.186117763644353
31
0.000000000000000
  0
LINE
  5
F1061A
330
F1061B
100
AcDbEntity
8
Geo
100
AcDbLine
10
-96.0302982848285
20
3.60923639664527
30
0.000000000000000
11
-95.9302982848285
21
3.75399365322177
31
0.000000000000000
  0
LINE
  5
F1061C
330
F1061D
100
AcDbEntity
8
Geo
100
AcDbLine
10
-96.0302982848285
20
-0.186117763644353
30
0.000000000000000
11
-95.9302982848285
21
-0.328099669468776
31
0.000000000000000
  0
LINE
  5
F1061E
330
F1061F
100
AcDbEntity
8
Geo
100
AcDbLine
10
-95.9302982848285
20
3.75399365322177
30
0.000000000000000
11
-95.8302982848285
21
3.84293880072686
31
0.000000000000000
  0
LINE
  5
F10620
330
F10621
100
AcDbEntity
8
Geo
100
AcDbLine
10
-95.9302982848285
20
-0.328099669468776
30
0.000000000000000
11
-95.8302982848285
21
-0.476076832648649
31
0.000000000000000
  0
LINE
  5
F10622
330
F10623
100
AcDbEntity
8
Geo
100
AcDbLine
10
-95.8302982848285
20
3.84293880072686
30
0.000000000000000
11
-95.7302982848285
21
3.89758269719571
31
0.000000000000000
  0
LINE
  5
F10624
330
F10625
100
AcDbEntity
8
Geo
100
AcDbLine
10
-95.8302982848285
20
-0.476076832648649
30
0.000000000000000
11
-95.7302982848285
21
-0.627382655469436
31
0.000000000000000
  0
LINE
  5
F10626
330
F10627
100
AcDbEntity
8
Geo
100
AcDbLine
10
-95.7302982848285
20
3.89758269719571
30
0.000000000000000
11
-95.6302982848285
21
3.92632867667513
31
0.000000000000000
  0
LINE
  5
F10628
330
F10629
100
AcDbEntity
8
Geo
100
AcDbLine
10
-95.7302982848285
20
-0.627382655469436
30
0.000000000000000
11
-95.6302982848285
21
-0.780141028841582
31
0.000000000000000
  0
LINE
  5
F1062A
330
F1062B
100
AcDbEntity
8
Geo
100
AcDbLine
10
-95.6302982848285
20
3.92632867667513
30
0.000000000000000
11
-95.5302982848285
21
3.93351797999583
31
0.000000000000000
  0
LINE
  5
F1062C
330
F1062D
100
AcDbEntity
8
Geo
100
AcDbLine
10
-95.6302982848285
20
-0.780141028841582
30
0.000000000000000
11
-95.5302982848285
21
-0.932820853235022
31
0.000000000000000
  0
LINE
  5
F1062E
330
F1062F
100
AcDbEntity
8
Geo
100
AcDbLine
10
-95.5302982848285
20
3.93351797999583
30
0.000000000000000
11
-95.4302982848285
21
3.92175134960965
31
0.000000000000000
  0
LINE
  5
F10630
330
F10631
100
AcDbEntity
8
Geo
100
AcDbLine
10
-95.5302982848285
20
-0.932820853235022
30
0.000000000000000
11
-95.4302982848285
21
-1.08406912593462
31
0.000000000000000
  0
LINE
  5
F10632
330
F10633
100
AcDbEntity
8
Geo
100
AcDbLine
10
-95.4302982848285
20
3.92175134960965
30
0.000000000000000
11
-95.3302982848285
21
3.89273996938984
31
0.000000000000000
  0
LINE
  5
F10634
330
F10635
100
AcDbEntity
8
Geo
100
AcDbLine
10
-95.4302982848285
20
-1.08406912593462
30
0.000000000000000
11
-95.3302982848285
21
-1.23262754925816
31
0.000000000000000
  0
LINE
  5
F10636
330
F10637
100
AcDbEntity
8
Geo
100
AcDbLine
10
-95.3302982848285
20
3.89273996938984
30
0.000000000000000
11
-95.2302982848285
21
3.84768204638070
31
0.000000000000000
  0
LINE
  5
F10638
330
F10639
100
AcDbEntity
8
Geo
100
AcDbLine
10
-95.3302982848285
20
-1.23262754925816
30
0.000000000000000
11
-95.2302982848285
21
-1.37728087697642
31
0.000000000000000
  0
LINE
  5
F1063A
330
F1063B
100
AcDbEntity
8
Geo
100
AcDbLine
10
-95.2302982848285
20
3.84768204638070
30
0.000000000000000
11
-95.1302982848285
21
3.78744785813945
31
0.000000000000000
  0
LINE
  5
F1063C
330
F1063D
100
AcDbEntity
8
Geo
100
AcDbLine
10
-95.2302982848285
20
-1.37728087697642
30
0.000000000000000
11
-95.1302982848285
21
-1.51681738183823
31
0.000000000000000
  0
LINE
  5
F1063E
330
F1063F
100
AcDbEntity
8
Geo
100
AcDbLine
10
-95.1302982848285
20
3.78744785813945
30
0.000000000000000
11
-95.0302982848285
21
3.71724302242339
31
0.000000000000000
  0
LINE
  5
F10640
330
F10641
100
AcDbEntity
8
Geo
100
AcDbLine
10
-95.1302982848285
20
-1.51681738183823
30
0.000000000000000
11
-95.0302982848285
21
-1.65205064645144
31
0.000000000000000
  0
LINE
  5
F10642
330
F10643
100
AcDbEntity
8
Geo
100
AcDbLine
10
-95.0302982848285
20
3.71724302242339
30
0.000000000000000
11
-94.9302982848285
21
3.64188633820988
31
0.000000000000000
  0
LINE
  5
F10644
330
F10645
100
AcDbEntity
8
Geo
100
AcDbLine
10
-95.0302982848285
20
-1.65205064645144
30
0.000000000000000
11
-94.9302982848285
21
-1.78448223241269
31
0.000000000000000
  0
LINE
  5
F10646
330
F10647
100
AcDbEntity
8
Geo
100
AcDbLine
10
-94.9302982848285
20
3.64188633820988
30
0.000000000000000
11
-94.8302982848285
21
3.56148943124912
31
0.000000000000000
  0
LINE
  5
F10648
330
F10649
100
AcDbEntity
8
Geo
100
AcDbLine
10
-94.9302982848285
20
-1.78448223241269
30
0.000000000000000
11
-94.8302982848285
21
-1.91391596900022
31
0.000000000000000
  0
LINE
  5
F1064A
330
F1064B
100
AcDbEntity
8
Geo
100
AcDbLine
10
-94.8302982848285
20
3.56148943124912
30
0.000000000000000
11
-94.7302982848285
21
3.47617139336616
31
0.000000000000000
  0
LINE
  5
F1064C
330
F1064D
100
AcDbEntity
8
Geo
100
AcDbLine
10
-94.8302982848285
20
-1.91391596900022
30
0.000000000000000
11
-94.7302982848285
21
-2.04016012620231
31
0.000000000000000
  0
LINE
  5
F1064E
330
F1064F
100
AcDbEntity
8
Geo
100
AcDbLine
10
-94.7302982848285
20
3.47617139336616
30
0.000000000000000
11
-94.6302982848285
21
3.38605860605034
31
0.000000000000000
  0
LINE
  5
F10650
330
F10651
100
AcDbEntity
8
Geo
100
AcDbLine
10
-94.7302982848285
20
-2.04016012620231
30
0.000000000000000
11
-94.6302982848285
21
-2.16302769872672
31
0.000000000000000
  0
LINE
  5
F10652
330
F10653
100
AcDbEntity
8
Geo
100
AcDbLine
10
-94.6302982848285
20
3.38605860605034
30
0.000000000000000
11
-94.5302982848285
21
3.29128455324660
31
0.000000000000000
  0
LINE
  5
F10654
330
F10655
100
AcDbEntity
8
Geo
100
AcDbLine
10
-94.6302982848285
20
-2.16302769872672
30
0.000000000000000
11
-94.5302982848285
21
-2.28233668301130
31
0.000000000000000
  0
LINE
  5
F10656
330
F10657
100
AcDbEntity
8
Geo
100
AcDbLine
10
-94.5302982848285
20
3.29128455324660
30
0.000000000000000
11
-94.4302982848285
21
3.19198962362587
31
0.000000000000000
  0
LINE
  5
F10658
330
F10659
100
AcDbEntity
8
Geo
100
AcDbLine
10
-94.5302982848285
20
-2.28233668301130
30
0.000000000000000
11
-94.4302982848285
21
-2.39791034682569
31
0.000000000000000
  0
LINE
  5
F1065A
330
F1065B
100
AcDbEntity
8
Geo
100
AcDbLine
10
-94.4302982848285
20
3.19198962362587
30
0.000000000000000
11
-94.3302982848285
21
3.08832090262756
31
0.000000000000000
  0
LINE
  5
F1065C
330
F1065D
100
AcDbEntity
8
Geo
100
AcDbLine
10
-94.4302982848285
20
-2.39791034682569
30
0.000000000000000
11
-94.3302982848285
21
-2.50957749106445
31
0.000000000000000
  0
LINE
  5
F1065E
330
F1065F
100
AcDbEntity
8
Geo
100
AcDbLine
10
-94.3302982848285
20
3.08832090262756
30
0.000000000000000
11
-94.2302982848285
21
2.98043195458206
31
0.000000000000000
  0
LINE
  5
F10660
330
F10661
100
AcDbEntity
8
Geo
100
AcDbLine
10
-94.3302982848285
20
-2.50957749106445
30
0.000000000000000
11
-94.2302982848285
21
-2.61717270334409
31
0.000000000000000
  0
LINE
  5
F10662
330
F10663
100
AcDbEntity
8
Geo
100
AcDbLine
10
-94.2302982848285
20
2.98043195458206
30
0.000000000000000
11
-94.1302982848285
21
2.86848259523616
31
0.000000000000000
  0
LINE
  5
F10664
330
F10665
100
AcDbEntity
8
Geo
100
AcDbLine
10
-94.2302982848285
20
-2.61717270334409
30
0.000000000000000
11
-94.1302982848285
21
-2.72053660302822
31
0.000000000000000
  0
LINE
  5
F10666
330
F10667
100
AcDbEntity
8
Geo
100
AcDbLine
10
-94.1302982848285
20
2.86848259523616
30
0.000000000000000
11
-94.0302982848285
21
2.75263865501819
31
0.000000000000000
  0
LINE
  5
F10668
330
F10669
100
AcDbEntity
8
Geo
100
AcDbLine
10
-94.1302982848285
20
-2.72053660302822
30
0.000000000000000
11
-94.0302982848285
21
-2.81951607731779
31
0.000000000000000
  0
LINE
  5
F1066A
330
F1066B
100
AcDbEntity
8
Geo
100
AcDbLine
10
-94.0302982848285
20
2.75263865501819
30
0.000000000000000
11
-93.9302982848285
21
2.63307173339363
31
0.000000000000000
  0
LINE
  5
F1066C
330
F1066D
100
AcDbEntity
8
Geo
100
AcDbLine
10
-94.0302982848285
20
-2.81951607731779
30
0.000000000000000
11
-93.9302982848285
21
-2.91396450805696
31
0.000000000000000
  0
LINE
  5
F1066E
330
F1066F
100
AcDbEntity
8
Geo
100
AcDbLine
10
-93.9302982848285
20
2.63307173339363
30
0.000000000000000
11
-93.8302982848285
21
2.50995894467508
31
0.000000000000000
  0
LINE
  5
F10670
330
F10671
100
AcDbEntity
8
Geo
100
AcDbLine
10
-93.9302982848285
20
-2.91396450805696
30
0.000000000000000
11
-93.8302982848285
21
-3.00374198891830
31
0.000000000000000
  0
LINE
  5
F10672
330
F10673
100
AcDbEntity
8
Geo
100
AcDbLine
10
-93.8302982848285
20
2.50995894467508
30
0.000000000000000
11
-93.7302982848285
21
2.38348265566307
31
0.000000000000000
  0
LINE
  5
F10674
330
F10675
100
AcDbEntity
8
Geo
100
AcDbLine
10
-93.8302982848285
20
-3.00374198891830
30
0.000000000000000
11
-93.7302982848285
21
-3.08871553264585
31
0.000000000000000
  0
LINE
  5
F10676
330
F10677
100
AcDbEntity
8
Geo
100
AcDbLine
10
-93.7302982848285
20
2.38348265566307
30
0.000000000000000
11
-93.6302982848285
21
2.25383021550639
31
0.000000000000000
  0
LINE
  5
F10678
330
F10679
100
AcDbEntity
8
Geo
100
AcDbLine
10
-93.7302982848285
20
-3.08871553264585
30
0.000000000000000
11
-93.6302982848285
21
-3.16875926804898
31
0.000000000000000
  0
LINE
  5
F1067A
330
F1067B
100
AcDbEntity
8
Geo
100
AcDbLine
10
-93.6302982848285
20
2.25383021550639
30
0.000000000000000
11
-93.5302982848285
21
2.12119367818204
31
0.000000000000000
  0
LINE
  5
F1067C
330
F1067D
100
AcDbEntity
8
Geo
100
AcDbLine
10
-93.6302982848285
20
-3.16875926804898
30
0.000000000000000
11
-93.5302982848285
21
-3.24375462645515
31
0.000000000000000
  0
LINE
  5
F1067E
330
F1067F
100
AcDbEntity
8
Geo
100
AcDbLine
10
-93.5302982848285
20
2.12119367818204
30
0.000000000000000
11
-93.4302982848285
21
1.98576951800593
31
0.000000000000000
  0
LINE
  5
F10680
330
F10681
100
AcDbEntity
8
Geo
100
AcDbLine
10
-93.5302982848285
20
-3.24375462645515
30
0.000000000000000
11
-93.4302982848285
21
-3.31359051734559
31
0.000000000000000
  0
LINE
  5
F10682
330
F10683
100
AcDbEntity
8
Geo
100
AcDbLine
10
-93.4302982848285
20
1.98576951800593
30
0.000000000000000
11
-93.3302982848285
21
1.84775833859580
31
0.000000000000000
  0
LINE
  5
F10684
330
F10685
100
AcDbEntity
8
Geo
100
AcDbLine
10
-93.4302982848285
20
-3.31359051734559
30
0.000000000000000
11
-93.3302982848285
21
-3.37816349291350
31
0.000000000000000
  0
LINE
  5
F10686
330
F10687
100
AcDbEntity
8
Geo
100
AcDbLine
10
-93.3302982848285
20
1.84775833859580
30
0.000000000000000
11
-93.2302982848285
21
1.70736457571734
31
0.000000000000000
  0
LINE
  5
F10688
330
F10689
100
AcDbEntity
8
Geo
100
AcDbLine
10
-93.3302982848285
20
-3.37816349291350
30
0.000000000000000
11
-93.2302982848285
21
-3.43737790130109
31
0.000000000000000
  0
LINE
  5
F1068A
330
F1068B
100
AcDbEntity
8
Geo
100
AcDbLine
10
-93.2302982848285
20
1.70736457571734
30
0.000000000000000
11
-93.1302982848285
21
1.56479619445376
31
0.000000000000000
  0
LINE
  5
F1068C
330
F1068D
100
AcDbEntity
8
Geo
100
AcDbLine
10
-93.2302982848285
20
-3.43737790130109
30
0.000000000000000
11
-93.1302982848285
21
-3.49114602828863
31
0.000000000000000
  0
LINE
  5
F1068E
330
F1068F
100
AcDbEntity
8
Geo
100
AcDbLine
10
-93.1302982848285
20
1.56479619445376
30
0.000000000000000
11
-93.0302982848285
21
1.42026438114743
31
0.000000000000000
  0
LINE
  5
F10690
330
F10691
100
AcDbEntity
8
Geo
100
AcDbLine
10
-93.1302982848285
20
-3.49114602828863
30
0.000000000000000
11
-93.0302982848285
21
-3.53938822722534
31
0.000000000000000
  0
LINE
  5
F10692
330
F10693
100
AcDbEntity
8
Geo
100
AcDbLine
10
-93.0302982848285
20
1.42026438114743
30
0.000000000000000
11
-92.9302982848285
21
1.27398323056983
31
0.000000000000000
  0
LINE
  5
F10694
330
F10695
100
AcDbEntity
8
Geo
100
AcDbLine
10
-93.0302982848285
20
-3.53938822722534
30
0.000000000000000
11
-92.9302982848285
21
-3.58203303700989
31
0.000000000000000
  0
LINE
  5
F10696
330
F10697
100
AcDbEntity
8
Geo
100
AcDbLine
10
-92.9302982848285
20
1.27398323056983
30
0.000000000000000
11
-92.8302982848285
21
1.12616942878329
31
0.000000000000000
  0
LINE
  5
F10698
330
F10699
100
AcDbEntity
8
Geo
100
AcDbLine
10
-92.9302982848285
20
-3.58203303700989
30
0.000000000000000
11
-92.8302982848285
21
-3.61901728794559
31
0.000000000000000
  0
LINE
  5
F1069A
330
F1069B
100
AcDbEntity
8
Geo
100
AcDbLine
10
-92.8302982848285
20
1.12616942878329
30
0.000000000000000
11
-92.7302982848285
21
0.977041932164204
31
0.000000000000000
  0
LINE
  5
F1069C
330
F1069D
100
AcDbEntity
8
Geo
100
AcDbLine
10
-92.8302982848285
20
-3.61901728794559
30
0.000000000000000
11
-92.7302982848285
21
-3.65028619531364
31
0.000000000000000
  0
LINE
  5
F1069E
330
F1069F
100
AcDbEntity
8
Geo
100
AcDbLine
10
-92.7302982848285
20
0.977041932164204
30
0.000000000000000
11
-92.6302982848285
21
0.826821643063284
31
0.000000000000000
  0
LINE
  5
F106A0
330
F106A1
100
AcDbEntity
8
Geo
100
AcDbLine
10
-92.7302982848285
20
-3.65028619531364
30
0.000000000000000
11
-92.6302982848285
21
-3.67579344052557
31
0.000000000000000
  0
LINE
  5
F106A2
330
F106A3
100
AcDbEntity
8
Geo
100
AcDbLine
10
-92.6302982848285
20
0.826821643063284
30
0.000000000000000
11
-92.5302982848284
21
0.675731082583196
31
0.000000000000000
  0
LINE
  5
F106A4
330
F106A5
100
AcDbEntity
8
Geo
100
AcDbLine
10
-92.6302982848285
20
-3.67579344052557
30
0.000000000000000
11
-92.5302982848284
21
-3.69550123973500
31
0.000000000000000
  0
LINE
  5
F106A6
330
F106A7
100
AcDbEntity
8
Geo
100
AcDbLine
10
-92.5302982848284
20
0.675731082583196
30
0.000000000000000
11
-92.4302982848285
21
0.523994060958379
31
0.000000000000000
  0
LINE
  5
F106A8
330
F106A9
100
AcDbEntity
8
Geo
100
AcDbLine
10
-92.5302982848284
20
-3.69550123973500
30
0.000000000000000
11
-92.4302982848285
21
-3.70938039980670
31
0.000000000000000
  0
LINE
  5
F106AA
330
F106AB
100
AcDbEntity
8
Geo
100
AcDbLine
10
-92.4302982848285
20
0.523994060958379
30
0.000000000000000
11
-92.3302982848285
21
0.371835346025254
31
0.000000000000000
  0
LINE
  5
F106AC
330
F106AD
100
AcDbEntity
8
Geo
100
AcDbLine
10
-92.4302982848285
20
-3.70938039980670
30
0.000000000000000
11
-92.3302982848285
21
-3.71741036156041
31
0.000000000000000
  0
LINE
  5
F106AE
330
F106AF
100
AcDbEntity
8
Geo
100
AcDbLine
10
-92.3302982848285
20
0.371835346025254
30
0.000000000000000
11
-92.2302982848285
21
0.219480330273944
31
0.000000000000000
  0
LINE
  5
F106B0
330
F106B1
100
AcDbEntity
8
Geo
100
AcDbLine
10
-92.2302982848285
20
0.219480330273944
30
0.000000000000000
11
-92.1302982848285
21
0.0671546969747033
31
0.000000000000000
  0
LINE
  5
F106B2
330
F106B3
100
AcDbEntity
8
Geo
100
AcDbLine
10
-92.2302982848285
20
4.19821109850140
30
0.000000000000000
11
-92.1302982848285
21
4.19451566133496
31
0.000000000000000
  0
LINE
  5
F106B4
330
F106B5
100
AcDbEntity
8
Geo
100
AcDbLine
10
-92.1302982848285
20
0.0671546969747033
30
0.000000000000000
11
-92.0302982848285
21
-0.0849159141264053
31
0.000000000000000
  0
LINE
  5
F106B6
330
F106B7
100
AcDbEntity
8
Geo
100
AcDbLine
10
-92.1302982848285
20
4.19451566133496
30
0.000000000000000
11
-92.0302982848285
21
4.18496139238326
31
0.000000000000000
  0
LINE
  5
F106B8
330
F106B9
100
AcDbEntity
8
Geo
100
AcDbLine
10
-92.0302982848285
20
-0.0849159141264053
30
0.000000000000000
11
-91.9302982848285
21
-0.236506241047340
31
0.000000000000000
  0
LINE
  5
F106BA
330
F106BB
100
AcDbEntity
8
Geo
100
AcDbLine
10
-92.0302982848285
20
4.18496139238326
30
0.000000000000000
11
-91.9302982848285
21
4.16956244437146
31
0.000000000000000
  0
LINE
  5
F106BC
330
F106BD
100
AcDbEntity
8
Geo
100
AcDbLine
10
-91.9302982848285
20
-0.236506241047340
30
0.000000000000000
11
-91.8302982848285
21
-0.387391733250336
31
0.000000000000000
  0
LINE
  5
F106BE
330
F106BF
100
AcDbEntity
8
Geo
100
AcDbLine
10
-91.9302982848285
20
4.16956244437146
30
0.000000000000000
11
-91.8302982848285
21
4.14834162773954
31
0.000000000000000
  0
LINE
  5
F106C0
330
F106C1
100
AcDbEntity
8
Geo
100
AcDbLine
10
-91.8302982848285
20
-0.387391733250336
30
0.000000000000000
11
-91.7302982848285
21
-0.537348884268308
31
0.000000000000000
  0
LINE
  5
F106C2
330
F106C3
100
AcDbEntity
8
Geo
100
AcDbLine
10
-91.8302982848285
20
4.14834162773954
30
0.000000000000000
11
-91.7302982848285
21
4.12133037685330
31
0.000000000000000
  0
LINE
  5
F106C4
330
F106C5
100
AcDbEntity
8
Geo
100
AcDbLine
10
-91.7302982848285
20
-0.537348884268308
30
0.000000000000000
11
-91.6302982848285
21
-0.686155562784655
31
0.000000000000000
  0
LINE
  5
F106C6
330
F106C7
100
AcDbEntity
8
Geo
100
AcDbLine
10
-91.7302982848285
20
4.12133037685330
30
0.000000000000000
11
-91.6302982848285
21
4.08856870344063
31
0.000000000000000
  0
LINE
  5
F106C8
330
F106C9
100
AcDbEntity
8
Geo
100
AcDbLine
10
-91.6302982848285
20
-0.686155562784655
30
0.000000000000000
11
-91.5302982848285
21
-0.833591341676078
31
0.000000000000000
  0
LINE
  5
F106CA
330
F106CB
100
AcDbEntity
8
Geo
100
AcDbLine
10
-91.6302982848285
20
4.08856870344063
30
0.000000000000000
11
-91.5302982848285
21
4.05010513732222
31
0.000000000000000
  0
LINE
  5
F106CC
330
F106CD
100
AcDbEntity
8
Geo
100
AcDbLine
10
-91.5302982848285
20
-0.833591341676078
30
0.000000000000000
11
-91.4302982848285
21
-0.979437824530956
31
0.000000000000000
  0
LINE
  5
F106CE
330
F106CF
100
AcDbEntity
8
Geo
100
AcDbLine
10
-91.5302982848285
20
4.05010513732222
30
0.000000000000000
11
-91.4302982848285
21
4.00599665452437
31
0.000000000000000
  0
LINE
  5
F106D0
330
F106D1
100
AcDbEntity
8
Geo
100
AcDbLine
10
-91.4302982848285
20
-0.979437824530956
30
0.000000000000000
11
-91.3302982848285
21
-1.12347896915965
31
0.000000000000000
  0
LINE
  5
F106D2
330
F106D3
100
AcDbEntity
8
Geo
100
AcDbLine
10
-91.4302982848285
20
4.00599665452437
30
0.000000000000000
11
-91.3302982848285
21
3.95630859288055
31
0.000000000000000
  0
LINE
  5
F106D4
330
F106D5
100
AcDbEntity
8
Geo
100
AcDbLine
10
-91.3302982848285
20
-1.12347896915965
30
0.000000000000000
11
-91.2302982848285
21
-1.26550140761750
31
0.000000000000000
  0
LINE
  5
F106D6
330
F106D7
100
AcDbEntity
8
Geo
100
AcDbLine
10
-91.3302982848285
20
3.95630859288055
30
0.000000000000000
11
-91.2302982848285
21
3.90111455524647
31
0.000000000000000
  0
LINE
  5
F106D8
330
F106D9
100
AcDbEntity
8
Geo
100
AcDbLine
10
-91.2302982848285
20
-1.26550140761750
30
0.000000000000000
11
-91.1302982848285
21
-1.40529476226645
31
0.000000000000000
  0
LINE
  5
F106DA
330
F106DB
100
AcDbEntity
8
Geo
100
AcDbLine
10
-91.2302982848285
20
3.90111455524647
30
0.000000000000000
11
-91.1302982848285
21
3.84049630047235
31
0.000000000000000
  0
LINE
  5
F106DC
330
F106DD
100
AcDbEntity
8
Geo
100
AcDbLine
10
-91.1302982848285
20
-1.40529476226645
30
0.000000000000000
11
-91.0302982848285
21
-1.54265195740714
31
0.000000000000000
  0
LINE
  5
F106DE
330
F106DF
100
AcDbEntity
8
Geo
100
AcDbLine
10
-91.1302982848285
20
3.84049630047235
30
0.000000000000000
11
-91.0302982848285
21
3.77454362229361
31
0.000000000000000
  0
LINE
  5
F106E0
330
F106E1
100
AcDbEntity
8
Geo
100
AcDbLine
10
-91.0302982848285
20
-1.54265195740714
30
0.000000000000000
11
-90.9302982848285
21
-1.67736952601987
31
0.000000000000000
  0
LINE
  5
F106E2
330
F106E3
100
AcDbEntity
8
Geo
100
AcDbLine
10
-91.0302982848285
20
3.77454362229361
30
0.000000000000000
11
-90.9302982848285
21
3.70335421631954
31
0.000000000000000
  0
LINE
  5
F106E4
330
F106E5
100
AcDbEntity
8
Geo
100
AcDbLine
10
-90.9302982848285
20
-1.67736952601987
30
0.000000000000000
11
-90.8302982848285
21
-1.80924791115999
31
0.000000000000000
  0
LINE
  5
F106E6
330
F106E7
100
AcDbEntity
8
Geo
100
AcDbLine
10
-90.9302982848285
20
3.70335421631954
30
0.000000000000000
11
-90.8302982848285
21
3.62703353531695
31
0.000000000000000
  0
LINE
  5
F106E8
330
F106E9
100
AcDbEntity
8
Geo
100
AcDbLine
10
-90.8302982848285
20
-1.80924791115999
30
0.000000000000000
11
-90.7302982848285
21
-1.93809176156135
31
0.000000000000000
  0
LINE
  5
F106EA
330
F106EB
100
AcDbEntity
8
Geo
100
AcDbLine
10
-90.8302982848285
20
3.62703353531695
30
0.000000000000000
11
-90.7302982848285
21
3.54569463300312
31
0.000000000000000
  0
LINE
  5
F106EC
330
F106ED
100
AcDbEntity
8
Geo
100
AcDbLine
10
-90.7302982848285
20
-1.93809176156135
30
0.000000000000000
11
-90.6302982848285
21
-2.06371022100980
31
0.000000000000000
  0
LINE
  5
F106EE
330
F106EF
100
AcDbEntity
8
Geo
100
AcDbLine
10
-90.7302982848285
20
3.54569463300312
30
0.000000000000000
11
-90.6302982848285
21
3.45945799657947
31
0.000000000000000
  0
LINE
  5
F106F0
330
F106F1
100
AcDbEntity
8
Geo
100
AcDbLine
10
-90.6302982848285
20
-2.06371022100980
30
0.000000000000000
11
-90.5302982848285
21
-2.18591721105829
31
0.000000000000000
  0
LINE
  5
F106F2
330
F106F3
100
AcDbEntity
8
Geo
100
AcDbLine
10
-90.6302982848285
20
3.45945799657947
30
0.000000000000000
11
-90.5302982848285
21
3.36845136825409
31
0.000000000000000
  0
LINE
  5
F106F4
330
F106F5
100
AcDbEntity
8
Geo
100
AcDbLine
10
-90.5302982848285
20
-2.18591721105829
30
0.000000000000000
11
-90.4302982848285
21
-2.30453170666459
31
0.000000000000000
  0
LINE
  5
F106F6
330
F106F7
100
AcDbEntity
8
Geo
100
AcDbLine
10
-90.5302982848285
20
3.36845136825409
30
0.000000000000000
11
-90.4302982848285
21
3.27280955601734
31
0.000000000000000
  0
LINE
  5
F106F8
330
F106F9
100
AcDbEntity
8
Geo
100
AcDbLine
10
-90.4302982848285
20
-2.30453170666459
30
0.000000000000000
11
-90.3302982848285
21
-2.41937800434340
31
0.000000000000000
  0
LINE
  5
F106FA
330
F106FB
100
AcDbEntity
8
Geo
100
AcDbLine
10
-90.4302982848285
20
3.27280955601734
30
0.000000000000000
11
-90.3302982848285
21
3.17267423395098
31
0.000000000000000
  0
LINE
  5
F106FC
330
F106FD
100
AcDbEntity
8
Geo
100
AcDbLine
10
-90.3302982848285
20
-2.41937800434340
30
0.000000000000000
11
-90.2302982848285
21
-2.53028598243575
31
0.000000000000000
  0
LINE
  5
F106FE
330
F106FF
100
AcDbEntity
8
Geo
100
AcDbLine
10
-90.3302982848285
20
3.17267423395098
30
0.000000000000000
11
-90.2302982848285
21
3.06819373236655
31
0.000000000000000
  0
LINE
  5
F10700
330
F10701
100
AcDbEntity
8
Geo
100
AcDbLine
10
-90.2302982848285
20
-2.53028598243575
30
0.000000000000000
11
-90.1302982848285
21
-2.63709135310988
31
0.000000000000000
  0
LINE
  5
F10702
330
F10703
100
AcDbEntity
8
Geo
100
AcDbLine
10
-90.2302982848285
20
3.06819373236655
30
0.000000000000000
11
-90.1302982848285
21
2.95952281808389
31
0.000000000000000
  0
LINE
  5
F10704
330
F10705
100
AcDbEntity
8
Geo
100
AcDbLine
10
-90.1302982848285
20
-2.63709135310988
30
0.000000000000000
11
-90.0302982848285
21
-2.73963590572064
31
0.000000000000000
  0
LINE
  5
F10706
330
F10707
100
AcDbEntity
8
Geo
100
AcDbLine
10
-90.1302982848285
20
2.95952281808389
30
0.000000000000000
11
-90.0302982848285
21
2.84682246517529
31
0.000000000000000
  0
LINE
  5
F10708
330
F10709
100
AcDbEntity
8
Geo
100
AcDbLine
10
-90.0302982848285
20
-2.73963590572064
30
0.000000000000000
11
-89.9302982848285
21
-2.83776774116668
31
0.000000000000000
  0
LINE
  5
F1070A
330
F1070B
100
AcDbEntity
8
Geo
100
AcDbLine
10
-90.0302982848285
20
2.84682246517529
30
0.000000000000000
11
-89.9302982848285
21
2.73025961651475
31
0.000000000000000
  0
LINE
  5
F1070C
330
F1070D
100
AcDbEntity
8
Geo
100
AcDbLine
10
-89.9302982848285
20
-2.83776774116668
30
0.000000000000000
11
-89.8302982848285
21
-2.93134149689836
31
0.000000000000000
  0
LINE
  5
F1070E
330
F1070F
100
AcDbEntity
8
Geo
100
AcDbLine
10
-89.9302982848285
20
2.73025961651475
30
0.000000000000000
11
-89.8302982848285
21
2.61000693648585
31
0.000000000000000
  0
LINE
  5
F10710
330
F10711
100
AcDbEntity
8
Geo
100
AcDbLine
10
-89.8302982848285
20
-2.93134149689836
30
0.000000000000000
11
-89.7302982848285
21
-3.02021856224311
31
0.000000000000000
  0
LINE
  5
F10712
330
F10713
100
AcDbEntity
8
Geo
100
AcDbLine
10
-89.8302982848285
20
2.61000693648585
30
0.000000000000000
11
-89.7302982848285
21
2.48624255521414
31
0.000000000000000
  0
LINE
  5
F10714
330
F10715
100
AcDbEntity
8
Geo
100
AcDbLine
10
-89.7302982848285
20
-3.02021856224311
30
0.000000000000000
11
-89.6302982848285
21
-3.10426728372921
31
0.000000000000000
  0
LINE
  5
F10716
330
F10717
100
AcDbEntity
8
Geo
100
AcDbLine
10
-89.7302982848285
20
2.48624255521414
30
0.000000000000000
11
-89.6302982848285
21
2.35914980470327
31
0.000000000000000
  0
LINE
  5
F10718
330
F10719
100
AcDbEntity
8
Geo
100
AcDbLine
10
-89.6302982848285
20
-3.10426728372921
30
0.000000000000000
11
-89.5302982848285
21
-3.18336316010391
31
0.000000000000000
  0
LINE
  5
F1071A
330
F1071B
100
AcDbEntity
8
Geo
100
AcDbLine
10
-89.6302982848285
20
2.35914980470327
30
0.000000000000000
11
-89.5302982848285
21
2.22891694726558
31
0.000000000000000
  0
LINE
  5
F1071C
330
F1071D
100
AcDbEntity
8
Geo
100
AcDbLine
10
-89.5302982848285
20
-3.18336316010391
30
0.000000000000000
11
-89.4302982848285
21
-3.25738902675693
31
0.000000000000000
  0
LINE
  5
F1071E
330
F1071F
100
AcDbEntity
8
Geo
100
AcDbLine
10
-89.5302982848285
20
2.22891694726558
30
0.000000000000000
11
-89.4302982848285
21
2.09573689664938
31
0.000000000000000
  0
LINE
  5
F10720
330
F10721
100
AcDbEntity
8
Geo
100
AcDbLine
10
-89.4302982848285
20
-3.25738902675693
30
0.000000000000000
11
-89.3302982848285
21
-3.32623522927626
31
0.000000000000000
  0
LINE
  5
F10722
330
F10723
100
AcDbEntity
8
Geo
100
AcDbLine
10
-89.4302982848285
20
2.09573689664938
30
0.000000000000000
11
-89.3302982848285
21
1.95980693227605
31
0.000000000000000
  0
LINE
  5
F10724
330
F10725
100
AcDbEntity
8
Geo
100
AcDbLine
10
-89.3302982848285
20
-3.32623522927626
30
0.000000000000000
11
-89.2302982848285
21
-3.38979978587906
31
0.000000000000000
  0
LINE
  5
F10726
330
F10727
100
AcDbEntity
8
Geo
100
AcDbLine
10
-89.3302982848285
20
1.95980693227605
30
0.000000000000000
11
-89.2302982848285
21
1.82132840701038
31
0.000000000000000
  0
LINE
  5
F10728
330
F10729
100
AcDbEntity
8
Geo
100
AcDbLine
10
-89.2302982848285
20
-3.38979978587906
30
0.000000000000000
11
-89.1302982848285
21
-3.44798853847718
31
0.000000000000000
  0
LINE
  5
F1072A
330
F1072B
100
AcDbEntity
8
Geo
100
AcDbLine
10
-89.2302982848285
20
1.82132840701038
30
0.000000000000000
11
-89.1302982848285
21
1.68050644889681
31
0.000000000000000
  0
LINE
  5
F1072C
330
F1072D
100
AcDbEntity
8
Geo
100
AcDbLine
10
-89.1302982848285
20
-3.44798853847718
30
0.000000000000000
11
-89.0302982848285
21
-3.50071529215335
31
0.000000000000000
  0
LINE
  5
F1072E
330
F1072F
100
AcDbEntity
8
Geo
100
AcDbLine
10
-89.1302982848285
20
1.68050644889681
30
0.000000000000000
11
-89.0302982848285
21
1.53754965730355
31
0.000000000000000
  0
LINE
  5
F10730
330
F10731
100
AcDbEntity
8
Geo
100
AcDbLine
10
-89.0302982848285
20
-3.50071529215335
30
0.000000000000000
11
-88.9302982848285
21
-3.54790194284160
31
0.000000000000000
  0
LINE
  5
F10732
330
F10733
100
AcDbEntity
8
Geo
100
AcDbLine
10
-89.0302982848285
20
1.53754965730355
30
0.000000000000000
11
-88.9302982848285
21
1.39266979392464
31
0.000000000000000
  0
LINE
  5
F10734
330
F10735
100
AcDbEntity
8
Geo
100
AcDbLine
10
-88.9302982848285
20
-3.54790194284160
30
0.000000000000000
11
-88.8302982848285
21
-3.58947859302273
31
0.000000000000000
  0
LINE
  5
F10736
330
F10737
100
AcDbEntity
8
Geo
100
AcDbLine
10
-88.9302982848285
20
1.39266979392464
30
0.000000000000000
11
-88.8302982848285
21
1.24608146909766
31
0.000000000000000
  0
LINE
  5
F10738
330
F10739
100
AcDbEntity
8
Geo
100
AcDbLine
10
-88.8302982848285
20
-3.58947859302273
30
0.000000000000000
11
-88.7302982848285
21
-3.62538365526338
31
0.000000000000000
  0
LINE
  5
F1073A
330
F1073B
100
AcDbEntity
8
Geo
100
AcDbLine
10
-88.8302982848285
20
1.24608146909766
30
0.000000000000000
11
-88.7302982848285
21
1.09800182390170
31
0.000000000000000
  0
LINE
  5
F1073C
330
F1073D
100
AcDbEntity
8
Geo
100
AcDbLine
10
-88.7302982848285
20
-3.62538365526338
30
0.000000000000000
11
-88.6302982848285
21
-3.65556394344543
31
0.000000000000000
  0
LINE
  5
F1073E
330
F1073F
100
AcDbEntity
8
Geo
100
AcDbLine
10
-88.7302982848285
20
1.09800182390170
30
0.000000000000000
11
-88.6302982848285
21
0.948650208506637
31
0.000000000000000
  0
LINE
  5
F10740
330
F10741
100
AcDbEntity
8
Geo
100
AcDbLine
10
-88.6302982848285
20
-3.65556394344543
30
0.000000000000000
11
-88.5302982848285
21
-3.67997475155051
31
0.000000000000000
  0
LINE
  5
F10742
330
F10743
100
AcDbEntity
8
Geo
100
AcDbLine
10
-88.6302982848285
20
0.948650208506637
30
0.000000000000000
11
-88.5302982848285
21
0.798247857250006
31
0.000000000000000
  0
LINE
  5
F10744
330
F10745
100
AcDbEntity
8
Geo
100
AcDbLine
10
-88.5302982848285
20
-3.67997475155051
30
0.000000000000000
11
-88.4302982848285
21
-3.69857991988294
31
0.000000000000000
  0
LINE
  5
F10746
330
F10747
100
AcDbEntity
8
Geo
100
AcDbLine
10
-88.5302982848285
20
0.798247857250006
30
0.000000000000000
11
-88.4302982848285
21
0.647017560922884
31
0.000000000000000
  0
LINE
  5
F10748
330
F10749
100
AcDbEntity
8
Geo
100
AcDbLine
10
-88.4302982848285
20
-3.69857991988294
30
0.000000000000000
11
-88.3302982848285
21
-3.71135188863308
31
0.000000000000000
  0
LINE
  5
F1074A
330
F1074B
100
AcDbEntity
8
Geo
100
AcDbLine
10
-88.4302982848285
20
0.647017560922884
30
0.000000000000000
11
-88.3302982848285
21
0.495183336750232
31
0.000000000000000
  0
LINE
  5
F1074C
330
F1074D
100
AcDbEntity
8
Geo
100
AcDbLine
10
-88.3302982848285
20
-3.71135188863308
30
0.000000000000000
11
-88.2302982848285
21
-3.71827173870160
31
0.000000000000000
  0
LINE
  5
F1074E
330
F1074F
100
AcDbEntity
8
Geo
100
AcDbLine
10
-88.3302982848285
20
0.495183336750232
30
0.000000000000000
11
-88.2302982848285
21
0.342970096554462
31
0.000000000000000
  0
LINE
  5
F10750
330
F10751
100
AcDbEntity
8
Geo
100
AcDbLine
10
-88.2302982848285
20
0.342970096554462
30
0.000000000000000
11
-88.1302982848285
21
0.190603313593895
31
0.000000000000000
  0
LINE
  5
F10752
330
F10753
100
AcDbEntity
8
Geo
100
AcDbLine
10
-88.1302982848285
20
4.19796108800065
30
0.000000000000000
11
-88.0302982848285
21
4.19315463353248
31
0.000000000000000
  0
LINE
  5
F10754
330
F10755
100
AcDbEntity
8
Geo
100
AcDbLine
10
-88.1302982848285
20
0.190603313593895
30
0.000000000000000
11
-88.0302982848285
21
0.0383086885695324
31
0.000000000000000
  0
LINE
  5
F10756
330
F10757
100
AcDbEntity
8
Geo
100
AcDbLine
10
-88.0302982848285
20
4.19315463353248
30
0.000000000000000
11
-87.9302982848285
21
4.18249136336763
31
0.000000000000000
  0
LINE
  5
F10758
330
F10759
100
AcDbEntity
8
Geo
100
AcDbLine
10
-88.0302982848285
20
0.0383086885695324
30
0.000000000000000
11
-87.9302982848285
21
-0.113688184705079
31
0.000000000000000
  0
LINE
  5
F1075A
330
F1075B
100
AcDbEntity
8
Geo
100
AcDbLine
10
-87.9302982848285
20
4.18249136336763
30
0.000000000000000
11
-87.8302982848285
21
4.16598707299316
31
0.000000000000000
  0
LINE
  5
F1075C
330
F1075D
100
AcDbEntity
8
Geo
100
AcDbLine
10
-87.9302982848285
20
-0.113688184705079
30
0.000000000000000
11
-87.8302982848285
21
-0.265162153475628
31
0.000000000000000
  0
LINE
  5
F1075E
330
F1075F
100
AcDbEntity
8
Geo
100
AcDbLine
10
-87.8302982848285
20
4.16598707299316
30
0.000000000000000
11
-87.7302982848285
21
4.14366621019117
31
0.000000000000000
  0
LINE
  5
F10760
330
F10761
100
AcDbEntity
8
Geo
100
AcDbLine
10
-87.8302982848285
20
-0.265162153475628
30
0.000000000000000
11
-87.7302982848285
21
-0.415888839565519
31
0.000000000000000
  0
LINE
  5
F10762
330
F10763
100
AcDbEntity
8
Geo
100
AcDbLine
10
-87.7302982848285
20
4.14366621019117
30
0.000000000000000
11
-87.6302982848285
21
4.11556183882429
31
0.000000000000000
  0
LINE
  5
F10764
330
F10765
100
AcDbEntity
8
Geo
100
AcDbLine
10
-87.7302982848285
20
-0.415888839565519
30
0.000000000000000
11
-87.6302982848285
21
-0.565644971746936
31
0.000000000000000
  0
LINE
  5
F10766
330
F10767
100
AcDbEntity
8
Geo
100
AcDbLine
10
-87.6302982848285
20
4.11556183882429
30
0.000000000000000
11
-87.5302982848285
21
4.08171558985823
31
0.000000000000000
  0
LINE
  5
F10768
330
F10769
100
AcDbEntity
8
Geo
100
AcDbLine
10
-87.6302982848285
20
-0.565644971746936
30
0.000000000000000
11
-87.5302982848285
21
-0.714208716472201
31
0.000000000000000
  0
LINE
  5
F1076A
330
F1076B
100
AcDbEntity
8
Geo
100
AcDbLine
10
-87.5302982848285
20
4.08171558985823
30
0.000000000000000
11
-87.4302982848285
21
4.04217759969393
31
0.000000000000000
  0
LINE
  5
F1076C
330
F1076D
100
AcDbEntity
8
Geo
100
AcDbLine
10
-87.5302982848285
20
-0.714208716472201
30
0.000000000000000
11
-87.4302982848285
21
-0.861360006475494
31
0.000000000000000
  0
LINE
  5
F1076E
330
F1076F
100
AcDbEntity
8
Geo
100
AcDbLine
10
-87.4302982848285
20
4.04217759969393
30
0.000000000000000
11
-87.3302982848285
21
3.99700643590052
31
0.000000000000000
  0
LINE
  5
F10770
330
F10771
100
AcDbEntity
8
Geo
100
AcDbLine
10
-87.4302982848285
20
-0.861360006475494
30
0.000000000000000
11
-87.3302982848285
21
-1.00688086675819
31
0.000000000000000
  0
LINE
  5
F10772
330
F10773
100
AcDbEntity
8
Geo
100
AcDbLine
10
-87.3302982848285
20
3.99700643590052
30
0.000000000000000
11
-87.2302982848285
21
3.94626901045931
31
0.000000000000000
  0
LINE
  5
F10774
330
F10775
100
AcDbEntity
8
Geo
100
AcDbLine
10
-87.3302982848285
20
-1.00688086675819
30
0.000000000000000
11
-87.2302982848285
21
-1.15055573747490
31
0.000000000000000
  0
LINE
  5
F10776
330
F10777
100
AcDbEntity
8
Geo
100
AcDbLine
10
-87.2302982848285
20
3.94626901045931
30
0.000000000000000
11
-87.1302982848285
21
3.89004048064716
31
0.000000000000000
  0
LINE
  5
F10778
330
F10779
100
AcDbEntity
8
Geo
100
AcDbLine
10
-87.2302982848285
20
-1.15055573747490
30
0.000000000000000
11
-87.1302982848285
21
-1.29217179324199
31
0.000000000000000
  0
LINE
  5
F1077A
330
F1077B
100
AcDbEntity
8
Geo
100
AcDbLine
10
-87.1302982848285
20
3.89004048064716
30
0.000000000000000
11
-87.0302982848285
21
3.82840413770607
31
0.000000000000000
  0
LINE
  5
F1077C
330
F1077D
100
AcDbEntity
8
Geo
100
AcDbLine
10
-87.1302982848285
20
-1.29217179324199
30
0.000000000000000
11
-87.0302982848285
21
-1.43151925839552
31
0.000000000000000
  0
LINE
  5
F1077E
330
F1077F
100
AcDbEntity
8
Geo
100
AcDbLine
10
-87.0302982848285
20
3.82840413770607
30
0.000000000000000
11
-86.9302982848285
21
3.76145128346402
31
0.000000000000000
  0
LINE
  5
F10780
330
F10781
100
AcDbEntity
8
Geo
100
AcDbLine
10
-87.0302982848285
20
-1.43151925839552
30
0.000000000000000
11
-86.9302982848285
21
-1.56839171773162
31
0.000000000000000
  0
LINE
  5
F10782
330
F10783
100
AcDbEntity
8
Geo
100
AcDbLine
10
-86.9302982848285
20
3.76145128346402
30
0.000000000000000
11
-86.8302982848285
21
3.68928109508973
31
0.000000000000000
  0
LINE
  5
F10784
330
F10785
100
AcDbEntity
8
Geo
100
AcDbLine
10
-86.9302982848285
20
-1.56839171773162
30
0.000000000000000
11
-86.8302982848285
21
-1.70258642226903
31
0.000000000000000
  0
LINE
  5
F10786
330
F10787
100
AcDbEntity
8
Geo
100
AcDbLine
10
-86.8302982848285
20
3.68928109508973
30
0.000000000000000
11
-86.7302982848285
21
3.61200047818156
31
0.000000000000000
  0
LINE
  5
F10788
330
F10789
100
AcDbEntity
8
Geo
100
AcDbLine
10
-86.8302982848285
20
-1.70258642226903
30
0.000000000000000
11
-86.7302982848285
21
-1.83390458958094
31
0.000000000000000
  0
LINE
  5
F1078A
330
F1078B
100
AcDbEntity
8
Geo
100
AcDbLine
10
-86.7302982848285
20
3.61200047818156
30
0.000000000000000
11
-86.6302982848285
21
3.52972390840852
31
0.000000000000000
  0
LINE
  5
F1078C
330
F1078D
100
AcDbEntity
8
Geo
100
AcDbLine
10
-86.7302982848285
20
-1.83390458958094
30
0.000000000000000
11
-86.6302982848285
21
-1.96215169825107
31
0.000000000000000
  0
LINE
  5
F1078E
330
F1078F
100
AcDbEntity
8
Geo
100
AcDbLine
10
-86.6302982848285
20
3.52972390840852
30
0.000000000000000
11
-86.5302982848285
21
3.44257326193751
31
0.000000000000000
  0
LINE
  5
F10790
330
F10791
100
AcDbEntity
8
Geo
100
AcDbLine
10
-86.6302982848285
20
-1.96215169825107
30
0.000000000000000
11
-86.5302982848285
21
-2.08713777601796
31
0.000000000000000
  0
LINE
  5
F10792
330
F10793
100
AcDbEntity
8
Geo
100
AcDbLine
10
-86.5302982848285
20
3.44257326193751
30
0.000000000000000
11
-86.4302982848285
21
3.35067763489841
31
0.000000000000000
  0
LINE
  5
F10794
330
F10795
100
AcDbEntity
8
Geo
100
AcDbLine
10
-86.5302982848285
20
-2.08713777601796
30
0.000000000000000
11
-86.4302982848285
21
-2.20867768118066
31
0.000000000000000
  0
LINE
  5
F10796
330
F10797
100
AcDbEntity
8
Geo
100
AcDbLine
10
-86.4302982848285
20
3.35067763489841
30
0.000000000000000
11
-86.3302982848285
21
3.25417315215412
31
0.000000000000000
  0
LINE
  5
F10798
330
F10799
100
AcDbEntity
8
Geo
100
AcDbLine
10
-86.4302982848285
20
-2.20867768118066
30
0.000000000000000
11
-86.3302982848285
21
-2.32659137684882
31
0.000000000000000
  0
LINE
  5
F1079A
330
F1079B
100
AcDbEntity
8
Geo
100
AcDbLine
10
-86.3302982848285
20
3.25417315215412
30
0.000000000000000
11
-86.2302982848285
21
3.15320276565903
31
0.000000000000000
  0
LINE
  5
F1079C
330
F1079D
100
AcDbEntity
8
Geo
100
AcDbLine
10
-86.3302982848285
20
-2.32659137684882
30
0.000000000000000
11
-86.2302982848285
21
-2.44070419763114
31
0.000000000000000
  0
LINE
  5
F1079E
330
F1079F
100
AcDbEntity
8
Geo
100
AcDbLine
10
-86.2302982848285
20
3.15320276565903
30
0.000000000000000
11
-86.1302982848285
21
3.04791604270441
31
0.000000000000000
  0
LINE
  5
F107A0
330
F107A1
100
AcDbEntity
8
Geo
100
AcDbLine
10
-86.2302982848285
20
-2.44070419763114
30
0.000000000000000
11
-86.1302982848285
21
-2.55084710836689
31
0.000000000000000
  0
LINE
  5
F107A2
330
F107A3
100
AcDbEntity
8
Geo
100
AcDbLine
10
-86.1302982848285
20
3.04791604270441
30
0.000000000000000
11
-86.0302982848285
21
2.93846894436472
31
0.000000000000000
  0
LINE
  5
F107A4
330
F107A5
100
AcDbEntity
8
Geo
100
AcDbLine
10
-86.1302982848285
20
-2.55084710836689
30
0.000000000000000
11
-86.0302982848285
21
-2.65685695451755
31
0.000000000000000
  0
LINE
  5
F107A6
330
F107A7
100
AcDbEntity
8
Geo
100
AcDbLine
10
-86.0302982848285
20
2.93846894436472
30
0.000000000000000
11
-85.9302982848285
21
2.82502359447255
31
0.000000000000000
  0
LINE
  5
F107A8
330
F107A9
100
AcDbEntity
8
Geo
100
AcDbLine
10
-86.0302982848285
20
-2.65685695451755
30
0.000000000000000
11
-85.9302982848285
21
-2.75857670384731
31
0.000000000000000
  0
LINE
  5
F107AA
330
F107AB
100
AcDbEntity
8
Geo
100
AcDbLine
10
-85.9302982848285
20
2.82502359447255
30
0.000000000000000
11
-85.8302982848285
21
2.70774803946493
31
0.000000000000000
  0
LINE
  5
F107AC
330
F107AD
100
AcDbEntity
8
Geo
100
AcDbLine
10
-85.9302982848285
20
-2.75857670384731
30
0.000000000000000
11
-85.8302982848285
21
-2.85585567903476
31
0.000000000000000
  0
LINE
  5
F107AE
330
F107AF
100
AcDbEntity
8
Geo
100
AcDbLine
10
-85.8302982848285
20
2.70774803946493
30
0.000000000000000
11
-85.7302982848285
21
2.58681599945632
31
0.000000000000000
  0
LINE
  5
F107B0
330
F107B1
100
AcDbEntity
8
Geo
100
AcDbLine
10
-85.8302982848285
20
-2.85585567903476
30
0.000000000000000
11
-85.7302982848285
21
-2.94854978087097
31
0.000000000000000
  0
LINE
  5
F107B2
330
F107B3
100
AcDbEntity
8
Geo
100
AcDbLine
10
-85.7302982848285
20
2.58681599945632
30
0.000000000000000
11
-85.6302982848285
21
2.46240661090725
31
0.000000000000000
  0
LINE
  5
F107B4
330
F107B5
100
AcDbEntity
8
Geo
100
AcDbLine
10
-85.7302982848285
20
-2.94854978087097
30
0.000000000000000
11
-85.6302982848285
21
-3.03652170171344
31
0.000000000000000
  0
LINE
  5
F107B6
330
F107B7
100
AcDbEntity
8
Geo
100
AcDbLine
10
-85.6302982848285
20
2.46240661090725
30
0.000000000000000
11
-85.5302982848285
21
2.33470416126977
31
0.000000000000000
  0
LINE
  5
F107B8
330
F107B9
100
AcDbEntity
8
Geo
100
AcDbLine
10
-85.6302982848285
20
-3.03652170171344
30
0.000000000000000
11
-85.5302982848285
21
-3.11964112887972
31
0.000000000000000
  0
LINE
  5
F107BA
330
F107BB
100
AcDbEntity
8
Geo
100
AcDbLine
10
-85.5302982848285
20
2.33470416126977
30
0.000000000000000
11
-85.4302982848285
21
2.20389781600265
31
0.000000000000000
  0
LINE
  5
F107BC
330
F107BD
100
AcDbEntity
8
Geo
100
AcDbLine
10
-85.5302982848285
20
-3.11964112887972
30
0.000000000000000
11
-85.4302982848285
21
-3.19778493767943
31
0.000000000000000
  0
LINE
  5
F107BE
330
F107BF
100
AcDbEntity
8
Geo
100
AcDbLine
10
-85.4302982848285
20
2.20389781600265
30
0.000000000000000
11
-85.3302982848285
21
2.07018133836091
31
0.000000000000000
  0
LINE
  5
F107C0
330
F107C1
100
AcDbEntity
8
Geo
100
AcDbLine
10
-85.4302982848285
20
-3.19778493767943
30
0.000000000000000
11
-85.3302982848285
21
-3.27083737379865
31
0.000000000000000
  0
LINE
  5
F107C2
330
F107C3
100
AcDbEntity
8
Geo
100
AcDbLine
10
-85.3302982848285
20
2.07018133836091
30
0.000000000000000
11
-85.2302982848285
21
1.93375280237455
31
0.000000000000000
  0
LINE
  5
F107C4
330
F107C5
100
AcDbEntity
8
Geo
100
AcDbLine
10
-85.3302982848285
20
-3.27083737379865
30
0.000000000000000
11
-85.2302982848285
21
-3.33869022476664
31
0.000000000000000
  0
LINE
  5
F107C6
330
F107C7
100
AcDbEntity
8
Geo
100
AcDbLine
10
-85.2302982848285
20
1.93375280237455
30
0.000000000000000
11
-85.1302982848285
21
1.79481429944178
31
0.000000000000000
  0
LINE
  5
F107C8
330
F107C9
100
AcDbEntity
8
Geo
100
AcDbLine
10
-85.2302982848285
20
-3.33869022476664
30
0.000000000000000
11
-85.1302982848285
21
-3.40124298025084
31
0.000000000000000
  0
LINE
  5
F107CA
330
F107CB
100
AcDbEntity
8
Geo
100
AcDbLine
10
-85.1302982848285
20
1.79481429944178
30
0.000000000000000
11
-85.0302982848285
21
1.65357163897130
31
0.000000000000000
  0
LINE
  5
F107CC
330
F107CD
100
AcDbEntity
8
Geo
100
AcDbLine
10
-85.1302982848285
20
-3.40124298025084
30
0.000000000000000
11
-85.0302982848285
21
-3.45840298094265
31
0.000000000000000
  0
LINE
  5
F107CE
330
F107CF
100
AcDbEntity
8
Geo
100
AcDbLine
10
-85.0302982848285
20
1.65357163897130
30
0.000000000000000
11
-84.9302982848285
21
1.51023404351714
31
0.000000000000000
  0
LINE
  5
F107D0
330
F107D1
100
AcDbEntity
8
Geo
100
AcDbLine
10
-85.0302982848285
20
-3.45840298094265
30
0.000000000000000
11
-84.9302982848285
21
-3.51008555581354
31
0.000000000000000
  0
LINE
  5
F107D2
330
F107D3
100
AcDbEntity
8
Geo
100
AcDbLine
10
-84.9302982848285
20
1.51023404351714
30
0.000000000000000
11
-84.8302982848285
21
1.36501383885756
31
0.000000000000000
  0
LINE
  5
F107D4
330
F107D5
100
AcDbEntity
8
Geo
100
AcDbLine
10
-84.9302982848285
20
-3.51008555581354
30
0.000000000000000
11
-84.8302982848285
21
-3.55621414753815
31
0.000000000000000
  0
LINE
  5
F107D6
330
F107D7
100
AcDbEntity
8
Geo
100
AcDbLine
10
-84.8302982848285
20
1.36501383885756
30
0.000000000000000
11
-84.7302982848285
21
1.21812613947719
31
0.000000000000000
  0
LINE
  5
F107D8
330
F107D9
100
AcDbEntity
8
Geo
100
AcDbLine
10
-84.8302982848285
20
-3.55621414753815
30
0.000000000000000
11
-84.7302982848285
21
-3.59672042589854
31
0.000000000000000
  0
LINE
  5
F107DA
330
F107DB
100
AcDbEntity
8
Geo
100
AcDbLine
10
-84.7302982848285
20
1.21812613947719
30
0.000000000000000
11
-84.6302982848285
21
1.06978852991825
31
0.000000000000000
  0
LINE
  5
F107DC
330
F107DD
100
AcDbEntity
8
Geo
100
AcDbLine
10
-84.7302982848285
20
-3.59672042589854
30
0.000000000000000
11
-84.6302982848285
21
-3.63154438900161
31
0.000000000000000
  0
LINE
  5
F107DE
330
F107DF
100
AcDbEntity
8
Geo
100
AcDbLine
10
-84.6302982848285
20
1.06978852991825
30
0.000000000000000
11
-84.5302982848285
21
0.920220742472841
31
0.000000000000000
  0
LINE
  5
F107E0
330
F107E1
100
AcDbEntity
8
Geo
100
AcDbLine
10
-84.6302982848285
20
-3.63154438900161
30
0.000000000000000
11
-84.5302982848285
21
-3.66063445215987
31
0.000000000000000
  0
LINE
  5
F107E2
330
F107E3
100
AcDbEntity
8
Geo
100
AcDbLine
10
-84.5302982848285
20
0.920220742472841
30
0.000000000000000
11
-84.4302982848285
21
0.769644331693858
31
0.000000000000000
  0
LINE
  5
F107E4
330
F107E5
100
AcDbEntity
8
Geo
100
AcDbLine
10
-84.5302982848285
20
-3.66063445215987
30
0.000000000000000
11
-84.4302982848285
21
-3.68394752430374
31
0.000000000000000
  0
LINE
  5
F107E6
330
F107E7
100
AcDbEntity
8
Geo
100
AcDbLine
10
-84.4302982848285
20
0.769644331693858
30
0.000000000000000
11
-84.3302982848285
21
0.618282346206510
31
0.000000000000000
  0
LINE
  5
F107E8
330
F107E9
100
AcDbEntity
8
Geo
100
AcDbLine
10
-84.4302982848285
20
-3.68394752430374
30
0.000000000000000
11
-84.3302982848285
21
-3.70144907181227
31
0.000000000000000
  0
LINE
  5
F107EA
330
F107EB
100
AcDbEntity
8
Geo
100
AcDbLine
10
-84.3302982848285
20
0.618282346206510
30
0.000000000000000
11
-84.2302982848285
21
0.466358998306714
31
0.000000000000000
  0
LINE
  5
F107EC
330
F107ED
100
AcDbEntity
8
Geo
100
AcDbLine
10
-84.3302982848285
20
-3.70144907181227
30
0.000000000000000
11
-84.2302982848285
21
-3.71311316966780
31
0.000000000000000
  0
LINE
  5
F107EE
330
F107EF
100
AcDbEntity
8
Geo
100
AcDbLine
10
-84.2302982848285
20
0.466358998306714
30
0.000000000000000
11
-84.1302982848285
21
0.314099331835740
31
0.000000000000000
  0
LINE
  5
F107F0
330
F107F1
100
AcDbEntity
8
Geo
100
AcDbLine
10
-84.2302982848285
20
-3.71311316966780
30
0.000000000000000
11
-84.1302982848285
21
-3.71892253985861
31
0.000000000000000
  0
LINE
  5
F107F2
330
F107F3
100
AcDbEntity
8
Geo
100
AcDbLine
10
-84.1302982848285
20
0.314099331835740
30
0.000000000000000
11
-84.0302982848285
21
0.161728888823085
31
0.000000000000000
  0
LINE
  5
F107F4
330
F107F5
100
AcDbEntity
8
Geo
100
AcDbLine
10
-84.0302982848285
20
4.19750044524910
30
0.000000000000000
11
-83.9302982848285
21
4.19158322922183
31
0.000000000000000
  0
LINE
  5
F107F6
330
F107F7
100
AcDbEntity
8
Geo
100
AcDbLine
10
-84.0302982848285
20
0.161728888823085
30
0.000000000000000
11
-83.9302982848285
21
0.00947337539137855
31
0.000000000000000
  0
LINE
  5
F107F8
330
F107F9
100
AcDbEntity
8
Geo
100
AcDbLine
10
-83.9302982848285
20
4.19158322922183
30
0.000000000000000
11
-83.8302982848285
21
4.17981152521687
31
0.000000000000000
  0
LINE
  5
F107FA
330
F107FB
100
AcDbEntity
8
Geo
100
AcDbLine
10
-83.9302982848285
20
0.00947337539137855
30
0.000000000000000
11
-83.8302982848285
21
-0.142441672581775
31
0.000000000000000
  0
LINE
  5
F107FC
330
F107FD
100
AcDbEntity
8
Geo
100
AcDbLine
10
-83.8302982848285
20
4.17981152521687
30
0.000000000000000
11
-83.7302982848285
21
4.16220277064277
31
0.000000000000000
  0
LINE
  5
F107FE
330
F107FF
100
AcDbEntity
8
Geo
100
AcDbLine
10
-83.8302982848285
20
-0.142441672581775
30
0.000000000000000
11
-83.7302982848285
21
-0.293791223549774
31
0.000000000000000
  0
LINE
  5
F10800
330
F10801
100
AcDbEntity
8
Geo
100
AcDbLine
10
-83.7302982848285
20
4.16220277064277
30
0.000000000000000
11
-83.6302982848285
21
4.13878304932289
31
0.000000000000000
  0
LINE
  5
F10802
330
F10803
100
AcDbEntity
8
Geo
100
AcDbLine
10
-83.7302982848285
20
-0.293791223549774
30
0.000000000000000
11
-83.6302982848285
21
-0.444351083635938
31
0.000000000000000
  0
LINE
  5
F10804
330
F10805
100
AcDbEntity
8
Geo
100
AcDbLine
10
-83.6302982848285
20
4.13878304932289
30
0.000000000000000
11
-83.5302982848285
21
4.10958705285743
31
0.000000000000000
  0
LINE
  5
F10806
330
F10807
100
AcDbEntity
8
Geo
100
AcDbLine
10
-83.6302982848285
20
-0.444351083635938
30
0.000000000000000
11
-83.5302982848285
21
-0.593898228731573
31
0.000000000000000
  0
LINE
  5
F10808
330
F10809
100
AcDbEntity
8
Geo
100
AcDbLine
10
-83.5302982848285
20
4.10958705285743
30
0.000000000000000
11
-83.4302982848285
21
4.07465802923484
31
0.000000000000000
  0
LINE
  5
F1080A
330
F1080B
100
AcDbEntity
8
Geo
100
AcDbLine
10
-83.5302982848285
20
-0.593898228731573
30
0.000000000000000
11
-83.4302982848285
21
-0.742211134861277
31
0.000000000000000
  0
LINE
  5
F1080C
330
F1080D
100
AcDbEntity
8
Geo
100
AcDbLine
10
-83.4302982848285
20
4.07465802923484
30
0.000000000000000
11
-83.3302982848285
21
4.03404771876862
31
0.000000000000000
  0
LINE
  5
F1080E
330
F1080F
100
AcDbEntity
8
Geo
100
AcDbLine
10
-83.4302982848285
20
-0.742211134861277
30
0.000000000000000
11
-83.3302982848285
21
-0.889070106326090
31
0.000000000000000
  0
LINE
  5
F10810
330
F10811
100
AcDbEntity
8
Geo
100
AcDbLine
10
-83.3302982848285
20
4.03404771876862
30
0.000000000000000
11
-83.2302982848285
21
3.98781627745445
31
0.000000000000000
  0
LINE
  5
F10812
330
F10813
100
AcDbEntity
8
Geo
100
AcDbLine
10
-83.3302982848285
20
-0.889070106326090
30
0.000000000000000
11
-83.2302982848285
21
-1.03425760113842
31
0.000000000000000
  0
LINE
  5
F10814
330
F10815
100
AcDbEntity
8
Geo
100
AcDbLine
10
-83.2302982848285
20
3.98781627745445
30
0.000000000000000
11
-83.1302982848285
21
3.93603218786125
31
0.000000000000000
  0
LINE
  5
F10816
330
F10817
100
AcDbEntity
8
Geo
100
AcDbLine
10
-83.2302982848285
20
-1.03425760113842
30
0.000000000000000
11
-83.1302982848285
21
-1.17755855326669
31
0.000000000000000
  0
LINE
  5
F10818
330
F10819
100
AcDbEntity
8
Geo
100
AcDbLine
10
-96.1302982848285
20
0.239315934138148
30
0.000000000000000
11
-96.1302982848285
21
0.239315934138148
31
0.000000000000000
  0
LINE
  5
F1081A
330
F1081B
100
AcDbEntity
8
Geo
100
AcDbLine
10
-96.1302982848285
20
0.239315934138148
30
0.000000000000000
11
-96.1302982848285
21
0.239315934138148
31
0.000000000000000
  0
LINE
  5
F1081C
330
F1081D
100
AcDbEntity
8
Geo
100
AcDbLine
10
-97.1302982848285
20
0.239315934138148
30
0.000000000000000
11
-96.8302982848285
21
0.239315934138148
31
0.000000000000000
  0
LINE
  5
F1081E
330
F1081F
100
AcDbEntity
8
Geo
100
AcDbLine
10
-96.7027982848285
20
0.239315934138148
30
0.000000000000000
11
-96.6177982848285
21
0.239315934138148
31
0.000000000000000
  0
LINE
  5
F10820
330
F10821
100
AcDbEntity
8
Geo
100
AcDbLine
10
-96.4052982848285
20
0.239315934138148
30
0.000000000000000
11
-95.9802982848285
21
0.239315934138148
31
0.000000000000000
  0
LINE
  5
F10822
330
F10823
100
AcDbEntity
8
Geo
100
AcDbLine
10
-95.8527982848285
20
0.239315934138148
30
0.000000000000000
11
-95.7677982848285
21
0.239315934138148
31
0.000000000000000
  0
LINE
  5
F10824
330
F10825
100
AcDbEntity
8
Geo
100
AcDbLine
10
-95.5552982848285
20
0.239315934138148
30
0.000000000000000
11
-95.1302982848285
21
0.239315934138148
31
0.000000000000000
  0
LINE
  5
F10826
330
F10827
100
AcDbEntity
8
Geo
100
AcDbLine
10
-32.1302982848285
20
3.23931593413815
30
0.000000000000000
11
-32.1302982848285
21
0.239315934138148
31
0.000000000000000
  0
LINE
  5
F10828
330
F10829
100
AcDbEntity
8
Geo
100
AcDbLine
10
-96.0261455206520
20
0.239315934138148
30
0.000000000000000
11
-96.1296891118476
21
-2.72578456915935
31
0.000000000000000
  0
ARC
  5
F1082A
330
F1082B
100
AcDbEntity
8
Geo
100
AcDbCircle
10
-95.1302982848285
20
-2.76068406586185
30
0.000000000000000
 40
1.00000000000000
100
AcDbArc
 50
178.000000000000
 51
270.000000000000
  0
LINE
  5
F1082C
330
F1082D
100
AcDbEntity
8
Geo
100
AcDbLine
10
-95.1302982848285
20
-3.76068406586185
30
0.000000000000000
11
-78.1302982848285
21
-3.76068406586185
31
0.000000000000000
  0
LINE
  5
F1082E
330
F1082F
100
AcDbEntity
8
Geo
100
AcDbLine
10
-78.1302982848285
20
-3.76068406586185
30
0.000000000000000
11
-33.1302982848285
21
-3.76068406586185
31
0.000000000000000
  0
LINE
  5
F10830
330
F10831
100
AcDbEntity
8
Geo
100
AcDbLine
10
-33.1302982848285
20
-3.76068406586185
30
0.000000000000000
11
-32.1302982848285
21
-2.76068406586185
31
0.000000000000000
  0
LINE
  5
F10832
330
F10833
100
AcDbEntity
8
Geo
100
AcDbLine
10
-95.1302982848285
20
4.23931593413815
30
0.000000000000000
11
-95.1302982848285
21
-3.76068406586185
31
0.000000000000000
  0
LINE
  5
F10834
330
F10835
100
AcDbEntity
8
Geo
100
AcDbLine
10
-95.1302982848285
20
4.23931593413815
30
0.000000000000000
11
-95.1302982848285
21
-3.76068406586185
31
0.000000000000000
  0
LINE
  5
F10836
330
F10837
100
AcDbEntity
8
Geo
100
AcDbLine
10
-78.1302982848285
20
4.23931593413815
30
0.000000000000000
11
-78.1302982848285
21
-3.76068406586185
31
0.000000000000000
  0
LINE
  5
F10838
330
F10839
100
AcDbEntity
8
Geo
100
AcDbLine
10
-78.1302982848285
20
4.23931593413815
30
0.000000000000000
11
-78.1302982848285
21
-3.76068406586185
31
0.000000000000000
  0
LINE
  5
F1083A
330
F1083B
100
AcDbEntity
8
Geo
100
AcDbLine
10
-33.1302982848285
20
4.23931593413815
30
0.000000000000000
11
-33.1302982848285
21
-3.76068406586185
31
0.000000000000000
  0
LINE
  5
F1083C
330
F1083D
100
AcDbEntity
8
Geo
100
AcDbLine
10
-32.1302982848285
20
3.23931593413815
30
0.000000000000000
11
-32.1302982848285
21
-2.76068406586185
31
0.000000000000000
  0
LWPOLYLINE
  5
F1083E
330
F1083F
100
AcDbEntity
8
Rahmen
100
AcDbPolyline
90
   4
70
   1
43
   0.0
 10
-134.609993577736
 20
92.9575011434214
 10
134.400739006349
 20
92.9575011434214
 10
134.400739006349
 20
-102.964200625095
 10
-134.609993577736
 20
-102.964200625095
  0
TEXT
  5
F10840
330
F10841
 100
AcDbEntity
8
Text
100
AcDbText
10
-133.532514007974
20
-102.464200625095
30
0.000000000000000
40
1.00000000000000
1
ISBESketcher
100
AcDbText
  0
LWPOLYLINE
  5
F10842
330
F10843
100
AcDbEntity
8
Rahmen
100
AcDbPolyline
90
   4
70
   1
43
   0.0
 10
94.3544149968360
 20
-100.090921772395
 10
134.400739006349
 20
-100.090921772395
 10
134.400739006349
 20
-102.964200625095
 10
94.3544149968360
 20
-102.964200625095
  0
TEXT
  5
F10844
330
F10845
 100
AcDbEntity
8
Text
100
AcDbText
10
95.5000000000000
20
-101.968319713175
30
0.000000000000000
40
0.750000000000000
1
Created by:
100
AcDbText
  0
TEXT
  5
F10846
330
F10847
 100
AcDbEntity
8
Text
100
AcDbText
10
120.345040860475
20
-101.968319713175
30
0.000000000000000
40
0.750000000000000
1
nsarkol
100
AcDbText
  0
LWPOLYLINE
  5
F10848
330
F10849
100
AcDbEntity
8
Rahmen
100
AcDbPolyline
90
   4
70
   1
43
   0.0
 10
54.4876709156164
 20
-100.090921772395
 10
94.3544149968360
 20
-100.090921772395
 10
94.3544149968360
 20
-102.964200625095
 10
54.4876709156164
 20
-102.964200625095
  0
TEXT
  5
F1084A
330
F1084B
 100
AcDbEntity
8
Text
100
AcDbText
10
55.5000000000000
20
-101.968319713175
30
0.000000000000000
40
0.750000000000000
1
Created for:
100
AcDbText
  0
TEXT
  5
F1084C
330
F1084D
 100
AcDbEntity
8
Text
100
AcDbText
10
0.000000000000000
20
0.250000000000000
30
0.000000000000000
40
0.750000000000000
1

100
AcDbText
  0
LWPOLYLINE
  5
F1084E
330
F1084F
100
AcDbEntity
8
Rahmen
100
AcDbPolyline
90
   4
70
   1
43
   0.0
 10
121.111824312610
 20
-97.0380629914003
 10
134.400739006349
 20
-97.0380629914003
 10
134.400739006349
 20
-100.090921772395
 10
121.111824312610
 20
-100.090921772395
  0
TEXT
  5
F10850
330
F10851
 100
AcDbEntity
8
Text
100
AcDbText
10
122.166666666667
20
-98.9683197131751
30
0.000000000000000
40
0.750000000000000
1
Pages
100
AcDbText
  0
TEXT
  5
F10852
330
F10853
 100
AcDbEntity
8
Text
100
AcDbText
10
0.000000000000000
20
0.250000000000000
30
0.000000000000000
40
0.750000000000000
1

100
AcDbText
  0
LWPOLYLINE
  5
F10854
330
F10855
100
AcDbEntity
8
Rahmen
100
AcDbPolyline
90
   4
70
   1
43
   0.0
 10
121.111824312610
 20
-94.1647841386998
 10
134.400739006349
 20
-94.1647841386998
 10
134.400739006349
 20
-97.0380629914003
 10
121.111824312610
 20
-97.0380629914003
  0
TEXT
  5
F10856
330
F10857
 100
AcDbEntity
8
Text
100
AcDbText
10
122.166666666667
20
-95.9683197131751
30
0.000000000000000
40
0.750000000000000
1
Page
100
AcDbText
  0
TEXT
  5
F10858
330
F10859
 100
AcDbEntity
8
Text
100
AcDbText
10
0.000000000000000
20
0.250000000000000
30
0.000000000000000
40
0.750000000000000
1

100
AcDbText
  0
LWPOLYLINE
  5
F1085A
330
F1085B
100
AcDbEntity
8
Rahmen
100
AcDbPolyline
90
   4
70
   1
43
   0.0
 10
54.4876709156164
 20
-94.1647841386998
 10
121.111824312610
 20
-94.1647841386998
 10
121.111824312610
 20
-100.090921772395
 10
54.4876709156164
 20
-100.090921772395
  0
TEXT
  5
F1085C
330
F1085D
 100
AcDbEntity
8
Text
100
AcDbText
10
55.5000000000000
20
-95.9683197131751
30
0.000000000000000
40
0.750000000000000
1
Date:
100
AcDbText
  0
TEXT
  5
F1085E
330
F1085F
 100
AcDbEntity
8
Text
100
AcDbText
10
84.5111046598984
20
-98.9683197131751
30
0.000000000000000
40
0.750000000000000
1
05.07.2016
100
AcDbText
  0
LWPOLYLINE
  5
F10860
330
F10861
100
AcDbEntity
8
Rahmen
100
AcDbPolyline
90
   4
70
   1
43
   0.0
 10
54.4876709156164
 20
-88.0590665767112
 10
134.400739006349
 20
-88.0590665767112
 10
134.400739006349
 20
-94.1647841386998
 10
54.4876709156164
 20
-94.1647841386998
  0
TEXT
  5
F10862
330
F10863
 100
AcDbEntity
8
Text
100
AcDbText
10
0.000000000000000
20
0.500000000000000
30
0.000000000000000
40
1.50000000000000
1

100
AcDbText
  0
TEXT
  5
F10864
330
F10865
 100
AcDbEntity
8
Text
100
AcDbText
10
65.4978415805542
20
-92.6807856627796
30
0.000000000000000
40
2.50000000000000
1
VHVTR 5 080 064 08 03 100
100
AcDbText
  0
LWPOLYLINE
  5
F10866
330
F10867
100
AcDbEntity
8
Rahmen
100
AcDbPolyline
90
   4
70
   1
43
   0.0
 10
94.3544149968360
 20
-82.1329289430164
 10
134.400739006349
 20
-82.1329289430164
 10
134.400739006349
 20
-88.0590665767112
 10
94.3544149968360
 20
-88.0590665767112
  0
TEXT
  5
F10868
330
F10869
 100
AcDbEntity
8
Text
100
AcDbText
10
95.5000000000000
20
-83.9683197131751
30
0.000000000000000
40
0.750000000000000
1
Work piece material:
100
AcDbText
  0
TEXT
  5
F1086A
330
F1086B
 100
AcDbEntity
8
Text
100
AcDbText
10
0.000000000000000
20
0.250000000000000
30
0.000000000000000
40
0.750000000000000
1

100
AcDbText
  0
LWPOLYLINE
  5
F1086C
330
F1086D
100
AcDbEntity
8
Rahmen
100
AcDbPolyline
90
   4
70
   1
43
   0.0
 10
54.4876709156164
 20
-82.1329289430164
 10
94.3544149968360
 20
-82.1329289430164
 10
94.3544149968360
 20
-88.0590665767112
 10
54.4876709156164
 20
-88.0590665767112
  0
TEXT
  5
F1086E
330
F1086F
 100
AcDbEntity
8
Text
100
AcDbText
10
55.5000000000000
20
-83.9683197131751
30
0.000000000000000
40
0.750000000000000
1
Tool material:
100
AcDbText
  0
TEXT
  5
F10870
330
F10871
 100
AcDbEntity
8
Text
100
AcDbText
10
0.000000000000000
20
0.250000000000000
30
0.000000000000000
40
0.750000000000000
1

100
AcDbText
  0
LWPOLYLINE
  5
F10872
330
F10873
100
AcDbEntity
8
Rahmen
100
AcDbPolyline
90
   4
70
   1
43
   0.0
 10
94.3544149968360
 20
-79.0800701620221
 10
134.400739006349
 20
-79.0800701620221
 10
134.400739006349
 20
-82.1329289430164
 10
94.3544149968360
 20
-82.1329289430164
  0
TEXT
  5
F10874
330
F10875
 100
AcDbEntity
8
Text
100
AcDbText
10
0.000000000000000
20
0.500000000000000
30
0.000000000000000
40
1.50000000000000
1

100
AcDbText
  0
TEXT
  5
F10876
330
F10877
 100
AcDbEntity
8
Text
100
AcDbText
10
0.000000000000000
20
0.250000000000000
30
0.000000000000000
40
0.750000000000000
1

100
AcDbText
  0
LWPOLYLINE
  5
F10878
330
F10879
100
AcDbEntity
8
Rahmen
100
AcDbPolyline
90
   4
70
   1
43
   0.0
 10
54.4876709156164
 20
-79.0800701620221
 10
94.3544149968360
 20
-79.0800701620221
 10
94.3544149968360
 20
-82.1329289430164
 10
54.4876709156164
 20
-82.1329289430164
  0
TEXT
  5
F1087A
330
F1087B
 100
AcDbEntity
8
Text
100
AcDbText
10
55.5000000000000
20
-80.9683197131751
30
0.000000000000000
40
0.750000000000000
1
Scale:
100
AcDbText
  0
TEXT
  5
F1087C
330
F1087D
 100
AcDbEntity
8
Text
100
AcDbText
10
81.1531505377966
20
-80.9683197131751
30
0.000000000000000
40
0.750000000000000
1
3 : 1
100
AcDbText
0
VIEWPORT
5
294
102
{ACAD_XDICTIONARY
360
58A
102
}
330
25D
100
AcDbEntity
67
1
8
0
60
1
100
AcDbViewport
10
0.0
20
0.0
30
0.0
40
10.0
41
10.0
68
-1
69
1
12
0.0
22
0.0
13
0.0
23
0.0
14
1.0
24
1.0
15
0.0
25
0.0
16
0.0
26
0.0
36
1.0
17
0.0
27
0.0
37
0.0
42
0.0
43
0.0
44
0.0
45
10.0
50
0.0
51
0.0000000000007958
72
100
90
32800
1

281
0
71
0
74
0
110
0.0
120
0.0
130
0.0
111
1.0
121
0.0
131
0.0
112
0.0
122
1.0
132
0.0
79
0
146
0.0
1001
VD_INVISIBLE_NOT_FOR_READ
1000
VD_INVISIBLE_NOT_FOR_READ
0
VIEWPORT
5
295
102
{ACAD_XDICTIONARY
360
58C
102
}
330
25D
100
AcDbEntity
67
1
8
0
60
1
100
AcDbViewport
10
0.0
20
0.0
30
0.0
40
10.0
41
10.0
68
0
69
2
12
0.0
22
0.0
13
0.0
23
0.0
14
1.0
24
1.0
15
0.0
25
0.0
16
0.0
26
0.0
36
1.0
17
0.0
27
0.0
37
0.0
42
0.0
43
0.0
44
0.0
45
10.0
50
0.0
51
0.0000000000007958
72
100
90
163872
1

281
0
71
0
74
0
110
0.0
120
0.0
130
0.0
111
1.0
121
0.0
131
0.0
112
0.0
122
1.0
132
0.0
79
0
146
0.0
1001
VD_INVISIBLE_NOT_FOR_READ
1000
VD_INVISIBLE_NOT_FOR_READ
0
ENDSEC
0
SECTION
2
OBJECTS
0
DICTIONARY
5
13
330
0
100
AcDbDictionary
281
1
3
ACAD_COLOR
350
FA7
3
ACAD_GROUP
350
14
3
ACAD_LAYOUT
350
FCF
3
ACAD_MATERIAL
350
F7A
3
ACAD_MLEADERSTYLE
350
FCD
3
ACAD_MLINESTYLE
350
16
3
ACAD_PLOTSETTINGS
350
17
3
ACAD_PLOTSTYLENAME
350
18
3
ACAD_SCALELIST
350
FAB
3
ACAD_TABLESTYLE
350
FA8
3
ACAD_VISUALSTYLE
350
F93
3
ACDB_RECOMPOSE_DATA
350
107E
3
AcDbVariableDictionary
350
FF0
3
DWGPROPS
350
107F
0
DICTIONARY
5
F10014
330
F10013
100
AcDbDictionary
280
1
281
1
3
ACAD_MTEXT_2008_RT
360
F10015
0
DICTIONARY
5
F1001E
330
F1001D
100
AcDbDictionary
280
1
281
1
3
ACAD_MTEXT_2008_RT
360
F1001F
0
DICTIONARY
5
F10023
330
F10022
100
AcDbDictionary
280
1
281
1
3
ACAD_MTEXT_2008_RT
360
F10024
0
DICTIONARY
5
F10005
330
F10004
100
AcDbDictionary
280
1
281
1
3
ACAD_MTEXT_2008_RT
360
F10006
0
DICTIONARY
5
F1000F
330
F1000E
100
AcDbDictionary
280
1
281
1
3
ACAD_MTEXT_2008_RT
360
F10010
0
DICTIONARY
5
F1000A
330
F10009
100
AcDbDictionary
280
1
281
1
3
ACAD_MTEXT_2008_RT
360
F1000B
0
DICTIONARY
5
F10019
330
F10018
100
AcDbDictionary
280
1
281
1
3
ACAD_MTEXT_2008_RT
360
F1001A
0
DICTIONARY
5
FA7
102
{ACAD_REACTORS
330
13
102
}
330
13
100
AcDbDictionary
281
1
0
DICTIONARY
5
14
330
13
100
AcDbDictionary
281
1
0
DICTIONARY
5
FCF
102
{ACAD_REACTORS
330
13
102
}
330
13
100
AcDbDictionary
281
1
3
Layout1
350
FD1
3
Model
350
FD0
0
DICTIONARY
5
F7A
102
{ACAD_REACTORS
330
13
102
}
330
13
100
AcDbDictionary
281
1
3
ByBlock
350
F83
3
ByLayer
350
F7B
3
Global
350
F8B
0
DICTIONARY
5
FCD
102
{ACAD_REACTORS
330
13
102
}
330
13
100
AcDbDictionary
281
1
3
Standard
350
FCE
0
DICTIONARY
5
16
330
13
100
AcDbDictionary
281
1
3
Standard
350
FAA
0
DICTIONARY
5
17
102
{ACAD_REACTORS
330
13
102
}
330
13
100
AcDbDictionary
281
1
0
ACDBDICTIONARYWDFLT
5
18
102
{ACAD_REACTORS
330
13
102
}
330
13
100
AcDbDictionary
281
1
3
Normal
350
19
100
AcDbDictionaryWithDefault
340
19
0
DICTIONARY
5
FAB
102
{ACAD_REACTORS
330
13
102
}
330
13
100
AcDbDictionary
281
1
3
A0
350
FAC
3
A1
350
FAD
3
A2
350
FAE
3
A3
350
FAF
3
A4
350
FB0
3
A5
350
FB1
3
A6
350
FB2
3
A7
350
FB3
3
A8
350
FB4
3
A9
350
FB5
3
B0
350
FB6
3
B1
350
FB7
3
B2
350
FB8
3
B3
350
FB9
3
B4
350
FBA
3
B5
350
FBB
3
B6
350
FBC
3
B7
350
FBD
3
B8
350
FBE
3
B9
350
FBF
3
C0
350
FC0
3
C1
350
FC1
3
C2
350
FC2
3
C3
350
FC3
3
C4
350
FC4
3
C5
350
FC5
3
C6
350
FC6
3
C7
350
FC7
3
C8
350
FC8
3
C9
350
FC9
3
D0
350
FCA
3
D1
350
FCB
3
D2
350
FCC
0
DICTIONARY
5
FA8
102
{ACAD_REACTORS
330
13
102
}
330
13
100
AcDbDictionary
281
1
3
Standard
350
FA9
0
DICTIONARY
5
F93
102
{ACAD_REACTORS
330
13
102
}
330
13
100
AcDbDictionary
281
1
3
2dWireframe
350
F99
3
3D Hidden
350
F9B
3
3dWireframe
350
F9A
3
Basic
350
F98
3
Brighten
350
F9F
3
ColorChange
350
FA3
3
Conceptual
350
F9C
3
Dim
350
F9E
3
EdgeColorOff
350
FA6
3
Facepattern
350
FA2
3
Flat
350
F94
3
FlatWithEdges
350
F95
3
Gouraud
350
F96
3
GouraudWithEdges
350
F97
3
JitterOff
350
FA4
3
Linepattern
350
FA1
3
OverhangOff
350
FA5
3
Realistic
350
F9D
3
Thicken
350
FA0
0
XRECORD
5
107E
102
{ACAD_REACTORS
330
13
102
}
330
13
100
AcDbXrecord
280
1
90
1
330
FA9
330
F10013
330
F1001D
330
F10022
330
F10004
330
F1000E
330
F10009
330
F10018
0
XRECORD
5
F10015
102
{ACAD_REACTORS
330
F10014
102
}
330
F10014
100
AcDbXrecord
280
1
40
48458.0
1
46
0
XRECORD
5
F1001F
102
{ACAD_REACTORS
330
F1001E
102
}
330
F1001E
100
AcDbXrecord
280
1
40
48458.0
1
18
0
XRECORD
5
F10024
102
{ACAD_REACTORS
330
F10023
102
}
330
F10023
100
AcDbXrecord
280
1
40
48458.0
1
64
0
XRECORD
5
F10006
102
{ACAD_REACTORS
330
F10005
102
}
330
F10005
100
AcDbXrecord
280
1
40
48458.0
1
2°
0
XRECORD
5
F10010
102
{ACAD_REACTORS
330
F1000F
102
}
330
F1000F
100
AcDbXrecord
280
1
40
48458.0
1
R1
0
XRECORD
5
F1000B
102
{ACAD_REACTORS
330
F1000A
102
}
330
F1000A
100
AcDbXrecord
280
1
40
48458.0
1
8
0
LAYOUT
5
FD1
102
{ACAD_XDICTIONARY
360
10A9
102
}
102
{ACAD_REACTORS
330
FCF
102
}
330
FCF
100
AcDbPlotSettings
1

2
Microsoft XPS Document Writer
4

6

40
0.0
41
0.0
42
0.0
43
0.0
44
0.0
45
0.0
46
0.0
47
0.0
48
0.0
49
0.0
140
0.0
141
0.0
142
1.0
143
1.0
70
688
72
0
73
0
74
5
7

75
16
147
1.0
148
0.0
149
0.0
100
AcDbLayout
1
Layout1
70
1
71
1
10
0.0
20
0.0
11
12.0
21
9.0
12
0.0
22
0.0
32
0.0
14
1.000000000000000E+20
24
1.000000000000000E+20
34
1.000000000000000E+20
15
-1.000000000000000E+20
25
-1.000000000000000E+20
35
-1.000000000000000E+20
146
0.0
13
0.0
23
0.0
33
0.0
16
1.0
26
0.0
36
0.0
17
0.0
27
1.0
37
0.0
76
0
330
25D
0
LAYOUT
5
FD0
102
{ACAD_XDICTIONARY
360
10A7
102
}
102
{ACAD_REACTORS
330
FCF
102
}
330
FCF
100
AcDbPlotSettings
1

2
Microsoft XPS Document Writer
4

6

40
0.0
41
0.0
42
0.0
43
0.0
44
0.0
45
0.0
46
0.0
47
0.0
48
0.0
49
0.0
140
0.0
141
0.0
142
1.0
143
1.0
70
1712
72
0
73
0
74
0
7

75
0
147
1.0
148
0.0
149
0.0
100
AcDbLayout
1
Model
70
1
71
0
10
0.0
20
0.0
11
12.0
21
9.0
12
0.0
22
0.0
32
0.0
14
0.0
24
0.0
34
0.0
15
0.0
25
0.0
35
0.0
146
0.0
13
0.0
23
0.0
33
0.0
16
1.0
26
0.0
36
0.0
17
0.0
27
1.0
37
0.0
76
0
330
261
331
26B
0
MATERIAL
5
F83
102
{ACAD_XDICTIONARY
360
F84
102
}
102
{ACAD_REACTORS
330
F7A
102
}
330
F7A
100
AcDbMaterial
1
ByBlock
72
0
43
0.0208333333333333
43
0.0
43
0.0
43
0.0
43
0.0
43
0.0208333333333333
43
0.0
43
0.0
43
0.0
43
0.0
43
1.0
43
0.0
43
0.0
43
0.0
43
0.0
43
1.0
77
0
47
0.0208333333333333
47
0.0
47
0.0
47
0.0
47
0.0
47
0.0208333333333333
47
0.0
47
0.0
47
0.0
47
0.0
47
1.0
47
0.0
47
0.0
47
0.0
47
0.0
47
1.0
171
0
49
0.0208333333333333
49
0.0
49
0.0
49
0.0
49
0.0
49
0.0208333333333333
49
0.0
49
0.0
49
0.0
49
0.0
49
1.0
49
0.0
49
0.0
49
0.0
49
0.0
49
1.0
175
0
142
0.0208333333333333
142
0.0
142
0.0
142
0.0
142
0.0
142
0.0208333333333333
142
0.0
142
0.0
142
0.0
142
0.0
142
1.0
142
0.0
142
0.0
142
0.0
142
0.0
142
1.0
179
0
144
0.0208333333333333
144
0.0
144
0.0
144
0.0
144
0.0
144
0.0208333333333333
144
0.0
144
0.0
144
0.0
144
0.0
144
1.0
144
0.0
144
0.0
144
0.0
144
0.0
144
1.0
147
0.0208333333333333
147
0.0
147
0.0
147
0.0
147
0.0
147
0.0208333333333333
147
0.0
147
0.0
147
0.0
147
0.0
147
1.0
147
0.0
147
0.0
147
0.0
147
0.0
147
1.0
0
MATERIAL
5
F7B
102
{ACAD_XDICTIONARY
360
F7C
102
}
102
{ACAD_REACTORS
330
F7A
102
}
330
F7A
100
AcDbMaterial
1
ByLayer
72
0
43
0.0208333333333333
43
0.0
43
0.0
43
0.0
43
0.0
43
0.0208333333333333
43
0.0
43
0.0
43
0.0
43
0.0
43
1.0
43
0.0
43
0.0
43
0.0
43
0.0
43
1.0
77
0
47
0.0208333333333333
47
0.0
47
0.0
47
0.0
47
0.0
47
0.0208333333333333
47
0.0
47
0.0
47
0.0
47
0.0
47
1.0
47
0.0
47
0.0
47
0.0
47
0.0
47
1.0
171
0
49
0.0208333333333333
49
0.0
49
0.0
49
0.0
49
0.0
49
0.0208333333333333
49
0.0
49
0.0
49
0.0
49
0.0
49
1.0
49
0.0
49
0.0
49
0.0
49
0.0
49
1.0
175
0
142
0.0208333333333333
142
0.0
142
0.0
142
0.0
142
0.0
142
0.0208333333333333
142
0.0
142
0.0
142
0.0
142
0.0
142
1.0
142
0.0
142
0.0
142
0.0
142
0.0
142
1.0
179
0
144
0.0208333333333333
144
0.0
144
0.0
144
0.0
144
0.0
144
0.0208333333333333
144
0.0
144
0.0
144
0.0
144
0.0
144
1.0
144
0.0
144
0.0
144
0.0
144
0.0
144
1.0
147
0.0208333333333333
147
0.0
147
0.0
147
0.0
147
0.0
147
0.0208333333333333
147
0.0
147
0.0
147
0.0
147
0.0
147
1.0
147
0.0
147
0.0
147
0.0
147
0.0
147
1.0
0
MATERIAL
5
F8B
102
{ACAD_XDICTIONARY
360
F8C
102
}
102
{ACAD_REACTORS
330
F7A
102
}
330
F7A
100
AcDbMaterial
1
Global
72
0
43
0.0208333333333333
43
0.0
43
0.0
43
0.0
43
0.0
43
0.0208333333333333
43
0.0
43
0.0
43
0.0
43
0.0
43
1.0
43
0.0
43
0.0
43
0.0
43
0.0
43
1.0
77
0
47
0.0208333333333333
47
0.0
47
0.0
47
0.0
47
0.0
47
0.0208333333333333
47
0.0
47
0.0
47
0.0
47
0.0
47
1.0
47
0.0
47
0.0
47
0.0
47
0.0
47
1.0
171
0
49
0.0208333333333333
49
0.0
49
0.0
49
0.0
49
0.0
49
0.0208333333333333
49
0.0
49
0.0
49
0.0
49
0.0
49
1.0
49
0.0
49
0.0
49
0.0
49
0.0
49
1.0
175
0
142
0.0208333333333333
142
0.0
142
0.0
142
0.0
142
0.0
142
0.0208333333333333
142
0.0
142
0.0
142
0.0
142
0.0
142
1.0
142
0.0
142
0.0
142
0.0
142
0.0
142
1.0
179
0
144
0.0208333333333333
144
0.0
144
0.0
144
0.0
144
0.0
144
0.0208333333333333
144
0.0
144
0.0
144
0.0
144
0.0
144
1.0
144
0.0
144
0.0
144
0.0
144
0.0
144
1.0
147
0.0208333333333333
147
0.0
147
0.0
147
0.0
147
0.0
147
0.0208333333333333
147
0.0
147
0.0
147
0.0
147
0.0
147
1.0
147
0.0
147
0.0
147
0.0
147
0.0
147
1.0
0
MLEADERSTYLE
5
FCE
102
{ACAD_REACTORS
330
FCD
102
}
330
FCD
100
AcDbMLeaderStyle
170
2
171
1
172
0
90
2
40
0.0
41
0.0
173
1
91
-1056964608
340
256
92
-2
290
1
42
0.09
291
1
43
0.36
3
Standard
44
0.18
300

342
253
174
1
178
6
175
1
176
0
93
-1056964608
45
0.18
292
0
297
0
46
0.18
94
-1056964608
47
1.0
49
1.0
140
1.0
293
1
141
0.0
294
1
177
0
142
1.0
295
0
296
0
143
0.125
1001
ACAD_MLEADERVER
1070
2
0
MLINESTYLE
5
FAA
102
{ACAD_REACTORS
330
16
102
}
330
16
100
AcDbMlineStyle
2
STANDARD
70
0
3

62
256
51
90.0
52
90.0
71
2
49
0.5
62
256
6
BYLAYER
49
-0.5
62
256
6
BYLAYER
0
ACDBPLACEHOLDER
5
19
102
{ACAD_REACTORS
330
18
102
}
330
18
0
SCALE
5
FAC
102
{ACAD_REACTORS
330
FAB
102
}
330
FAB
100
AcDbScale
70
0
300
1:1
140
1.0
141
1.0
290
1
0
SCALE
5
FAD
102
{ACAD_REACTORS
330
FAB
102
}
330
FAB
100
AcDbScale
70
0
300
1:2
140
1.0
141
2.0
290
0
0
SCALE
5
FAE
102
{ACAD_REACTORS
330
FAB
102
}
330
FAB
100
AcDbScale
70
0
300
1:4
140
1.0
141
4.0
290
0
0
SCALE
5
FAF
102
{ACAD_REACTORS
330
FAB
102
}
330
FAB
100
AcDbScale
70
0
300
1:5
140
1.0
141
5.0
290
0
0
SCALE
5
FB0
102
{ACAD_REACTORS
330
FAB
102
}
330
FAB
100
AcDbScale
70
0
300
1:8
140
1.0
141
8.0
290
0
0
SCALE
5
FB1
102
{ACAD_REACTORS
330
FAB
102
}
330
FAB
100
AcDbScale
70
0
300
1:10
140
1.0
141
10.0
290
0
0
SCALE
5
FB2
102
{ACAD_REACTORS
330
FAB
102
}
330
FAB
100
AcDbScale
70
0
300
1:16
140
1.0
141
16.0
290
0
0
SCALE
5
FB3
102
{ACAD_REACTORS
330
FAB
102
}
330
FAB
100
AcDbScale
70
0
300
1:20
140
1.0
141
20.0
290
0
0
SCALE
5
FB4
102
{ACAD_REACTORS
330
FAB
102
}
330
FAB
100
AcDbScale
70
0
300
1:30
140
1.0
141
30.0
290
0
0
SCALE
5
FB5
102
{ACAD_REACTORS
330
FAB
102
}
330
FAB
100
AcDbScale
70
0
300
1:40
140
1.0
141
40.0
290
0
0
SCALE
5
FB6
102
{ACAD_REACTORS
330
FAB
102
}
330
FAB
100
AcDbScale
70
0
300
1:50
140
1.0
141
50.0
290
0
0
SCALE
5
FB7
102
{ACAD_REACTORS
330
FAB
102
}
330
FAB
100
AcDbScale
70
0
300
1:100
140
1.0
141
100.0
290
0
0
SCALE
5
FB8
102
{ACAD_REACTORS
330
FAB
102
}
330
FAB
100
AcDbScale
70
0
300
2:1
140
2.0
141
1.0
290
0
0
SCALE
5
FB9
102
{ACAD_REACTORS
330
FAB
102
}
330
FAB
100
AcDbScale
70
0
300
4:1
140
4.0
141
1.0
290
0
0
SCALE
5
FBA
102
{ACAD_REACTORS
330
FAB
102
}
330
FAB
100
AcDbScale
70
0
300
8:1
140
8.0
141
1.0
290
0
0
SCALE
5
FBB
102
{ACAD_REACTORS
330
FAB
102
}
330
FAB
100
AcDbScale
70
0
300
10:1
140
10.0
141
1.0
290
0
0
SCALE
5
FBC
102
{ACAD_REACTORS
330
FAB
102
}
330
FAB
100
AcDbScale
70
0
300
100:1
140
100.0
141
1.0
290
0
0
SCALE
5
FBD
102
{ACAD_REACTORS
330
FAB
102
}
330
FAB
100
AcDbScale
70
0
300
1/128" = 1'-0"
140
0.0078125
141
12.0
290
0
0
SCALE
5
FBE
102
{ACAD_REACTORS
330
FAB
102
}
330
FAB
100
AcDbScale
70
0
300
1/64" = 1'-0"
140
0.015625
141
12.0
290
0
0
SCALE
5
FBF
102
{ACAD_REACTORS
330
FAB
102
}
330
FAB
100
AcDbScale
70
0
300
1/32" = 1'-0"
140
0.03125
141
12.0
290
0
0
SCALE
5
FC0
102
{ACAD_REACTORS
330
FAB
102
}
330
FAB
100
AcDbScale
70
0
300
1/16" = 1'-0"
140
0.0625
141
12.0
290
0
0
SCALE
5
FC1
102
{ACAD_REACTORS
330
FAB
102
}
330
FAB
100
AcDbScale
70
0
300
3/32" = 1'-0"
140
0.09375
141
12.0
290
0
0
SCALE
5
FC2
102
{ACAD_REACTORS
330
FAB
102
}
330
FAB
100
AcDbScale
70
0
300
1/8" = 1'-0"
140
0.125
141
12.0
290
0
0
SCALE
5
FC3
102
{ACAD_REACTORS
330
FAB
102
}
330
FAB
100
AcDbScale
70
0
300
3/16" = 1'-0"
140
0.1875
141
12.0
290
0
0
SCALE
5
FC4
102
{ACAD_REACTORS
330
FAB
102
}
330
FAB
100
AcDbScale
70
0
300
1/4" = 1'-0"
140
0.25
141
12.0
290
0
0
SCALE
5
FC5
102
{ACAD_REACTORS
330
FAB
102
}
330
FAB
100
AcDbScale
70
0
300
3/8" = 1'-0"
140
0.375
141
12.0
290
0
0
SCALE
5
FC6
102
{ACAD_REACTORS
330
FAB
102
}
330
FAB
100
AcDbScale
70
0
300
1/2" = 1'-0"
140
0.5
141
12.0
290
0
0
SCALE
5
FC7
102
{ACAD_REACTORS
330
FAB
102
}
330
FAB
100
AcDbScale
70
0
300
3/4" = 1'-0"
140
0.75
141
12.0
290
0
0
SCALE
5
FC8
102
{ACAD_REACTORS
330
FAB
102
}
330
FAB
100
AcDbScale
70
0
300
1" = 1'-0"
140
1.0
141
12.0
290
0
0
SCALE
5
FC9
102
{ACAD_REACTORS
330
FAB
102
}
330
FAB
100
AcDbScale
70
0
300
1-1/2" = 1'-0"
140
1.5
141
12.0
290
0
0
SCALE
5
FCA
102
{ACAD_REACTORS
330
FAB
102
}
330
FAB
100
AcDbScale
70
0
300
3" = 1'-0"
140
3.0
141
12.0
290
0
0
SCALE
5
FCB
102
{ACAD_REACTORS
330
FAB
102
}
330
FAB
100
AcDbScale
70
0
300
6" = 1'-0"
140
6.0
141
12.0
290
0
0
SCALE
5
FCC
102
{ACAD_REACTORS
330
FAB
102
}
330
FAB
100
AcDbScale
70
0
300
1'-0" = 1'-0"
140
12.0
141
12.0
290
0
0
TABLESTYLE
5
FA9
102
{ACAD_XDICTIONARY
360
FF8
102
}
102
{ACAD_REACTORS
330
FA8
102
}
330
FA8
100
AcDbTableStyle
3
Standard
70
0
71
0
40
0.06
41
0.06
280
0
281
0
7
Standard
140
0.18
170
2
62
0
63
7
283
0
274
-2
284
1
64
0
275
-2
285
1
65
0
276
-2
286
1
66
0
277
-2
287
1
67
0
278
-2
288
1
68
0
279
-2
289
1
69
0
7
Standard
140
0.25
170
5
62
0
63
7
283
0
274
-2
284
1
64
0
275
-2
285
1
65
0
276
-2
286
1
66
0
277
-2
287
1
67
0
278
-2
288
1
68
0
279
-2
289
1
69
0
7
Standard
140
0.18
170
5
62
0
63
7
283
0
274
-2
284
1
64
0
275
-2
285
1
65
0
276
-2
286
1
66
0
277
-2
287
1
67
0
278
-2
288
1
68
0
279
-2
289
1
69
0
0
VISUALSTYLE
5
F99
102
{ACAD_XDICTIONARY
360
108A
102
}
102
{ACAD_REACTORS
330
F93
102
}
330
F93
100
AcDbVisualStyle
2

70
4
71
0
72
2
73
0
90
0
40
-0.6
41
-30.0
62
5
63
7
74
1
91
4
64
7
65
257
75
1
175
1
42
1.0
92
0
66
257
43
1.0
76
1
77
6
78
2
67
7
79
5
170
0
171
0
290
0
174
0
93
1
44
0.0
173
0
291
0
45
0.0
1001
ACAD
1000
AcDbSavedByObjectVersion
1070
0
0
VISUALSTYLE
5
F9B
102
{ACAD_XDICTIONARY
360
108E
102
}
102
{ACAD_REACTORS
330
F93
102
}
330
F93
100
AcDbVisualStyle
2

70
6
71
1
72
2
73
2
90
0
40
-0.6
41
-30.0
62
5
63
7
74
2
91
2
64
7
65
257
75
2
175
1
42
179.0
92
0
66
257
43
1.0
76
1
77
6
78
2
67
7
79
3
170
0
171
0
290
0
174
0
93
1
44
0.0
173
0
291
0
45
0.0
1001
ACAD
1000
AcDbSavedByObjectVersion
1070
0
0
VISUALSTYLE
5
F9A
102
{ACAD_XDICTIONARY
360
108C
102
}
102
{ACAD_REACTORS
330
F93
102
}
330
F93
100
AcDbVisualStyle
2

70
5
71
0
72
2
73
0
90
0
40
-0.6
41
-30.0
62
5
63
7
74
1
91
4
64
7
65
257
75
1
175
1
42
1.0
92
0
66
257
43
1.0
76
1
77
6
78
2
67
7
79
5
170
0
171
0
290
0
174
0
93
1
44
0.0
173
0
291
0
45
0.0
1001
ACAD
1000
AcDbSavedByObjectVersion
1070
0
0
VISUALSTYLE
5
F98
102
{ACAD_XDICTIONARY
360
1088
102
}
102
{ACAD_REACTORS
330
F93
102
}
330
F93
100
AcDbVisualStyle
2

70
7
71
1
72
0
73
1
90
0
40
-0.6
41
-30.0
62
5
63
7
74
0
91
4
64
7
65
257
75
1
175
1
42
1.0
92
8
66
7
43
1.0
76
1
77
6
78
2
67
7
79
5
170
0
171
0
290
0
174
0
93
1
44
0.0
173
0
291
1
45
0.0
1001
ACAD
1000
AcDbSavedByObjectVersion
1070
0
0
VISUALSTYLE
5
F9F
102
{ACAD_XDICTIONARY
360
1096
102
}
102
{ACAD_REACTORS
330
F93
102
}
330
F93
100
AcDbVisualStyle
2

70
12
71
2
72
2
73
0
90
0
40
-0.6
41
-30.0
62
5
63
7
74
1
91
4
64
7
65
257
75
1
175
1
42
1.0
92
8
66
7
43
1.0
76
1
77
6
78
2
67
7
79
5
170
0
171
0
290
0
174
0
93
1
44
50.0
173
0
291
1
45
0.0
1001
ACAD
1000
AcDbSavedByObjectVersion
1070
0
0
VISUALSTYLE
5
FA3
102
{ACAD_XDICTIONARY
360
109E
102
}
102
{ACAD_REACTORS
330
F93
102
}
330
F93
100
AcDbVisualStyle
2

70
16
71
2
72
2
73
3
90
0
40
-0.6
41
-30.0
62
5
63
8
74
1
91
4
64
7
65
257
75
1
175
1
42
1.0
92
8
66
8
43
1.0
76
1
77
6
78
2
67
7
79
5
170
0
171
0
290
0
174
0
93
1
44
0.0
173
0
291
1
45
0.0
1001
ACAD
1000
AcDbSavedByObjectVersion
1070
0
0
VISUALSTYLE
5
F9C
102
{ACAD_XDICTIONARY
360
1090
102
}
102
{ACAD_REACTORS
330
F93
102
}
330
F93
100
AcDbVisualStyle
2

70
9
71
3
72
2
73
0
90
0
40
-0.6
41
-30.0
62
5
63
7
74
2
91
2
64
7
65
257
75
1
175
1
42
179.0
92
8
66
7
43
1.0
76
1
77
6
78
2
67
7
79
3
170
0
171
0
290
0
174
0
93
1
44
0.0
173
0
291
0
45
0.0
1001
ACAD
1000
AcDbSavedByObjectVersion
1070
0
0
VISUALSTYLE
5
F9E
102
{ACAD_XDICTIONARY
360
1094
102
}
102
{ACAD_REACTORS
330
F93
102
}
330
F93
100
AcDbVisualStyle
2

70
11
71
2
72
2
73
0
90
0
40
-0.6
41
-30.0
62
5
63
7
74
1
91
4
64
7
65
257
75
1
175
1
42
1.0
92
8
66
7
43
1.0
76
1
77
6
78
2
67
7
79
5
170
0
171
0
290
0
174
0
93
1
44
-50.0
173
0
291
1
45
0.0
1001
ACAD
1000
AcDbSavedByObjectVersion
1070
0
0
VISUALSTYLE
5
FA6
102
{ACAD_XDICTIONARY
360
10A4
102
}
102
{ACAD_REACTORS
330
F93
102
}
330
F93
100
AcDbVisualStyle
2

70
22
71
2
72
2
73
0
90
0
40
-0.6
41
-30.0
62
5
63
7
74
1
91
4
64
7
65
257
75
1
175
1
42
1.0
92
8
66
7
43
1.0
76
1
77
6
78
2
67
7
79
5
170
0
171
0
290
0
174
0
93
1
44
0.0
173
0
291
1
45
0.0
1001
ACAD
1000
AcDbSavedByObjectVersion
1070
0
0
VISUALSTYLE
5
FA2
102
{ACAD_XDICTIONARY
360
109C
102
}
102
{ACAD_REACTORS
330
F93
102
}
330
F93
100
AcDbVisualStyle
2

70
15
71
2
72
2
73
0
90
0
40
-0.6
41
-30.0
62
5
63
7
74
1
91
4
64
7
65
257
75
1
175
1
42
1.0
92
8
66
7
43
1.0
76
1
77
6
78
2
67
7
79
5
170
0
171
0
290
0
174
0
93
1
44
0.0
173
0
291
1
45
0.0
1001
ACAD
1000
AcDbSavedByObjectVersion
1070
0
0
VISUALSTYLE
5
F94
102
{ACAD_XDICTIONARY
360
1080
102
}
102
{ACAD_REACTORS
330
F93
102
}
330
F93
100
AcDbVisualStyle
2

70
0
71
2
72
1
73
1
90
2
40
-0.6
41
30.0
62
5
63
7
74
0
91
4
64
7
65
257
75
1
175
1
42
1.0
92
8
66
7
43
1.0
76
1
77
6
78
2
67
7
79
5
170
0
171
0
290
0
174
0
93
13
44
0.0
173
0
291
1
45
0.0
1001
ACAD
1000
AcDbSavedByObjectVersion
1070
0
0
VISUALSTYLE
5
F95
102
{ACAD_XDICTIONARY
360
1082
102
}
102
{ACAD_REACTORS
330
F93
102
}
330
F93
100
AcDbVisualStyle
2

70
1
71
2
72
1
73
1
90
2
40
-0.6
41
30.0
62
5
63
7
74
1
91
4
64
7
65
257
75
1
175
1
42
1.0
92
0
66
257
43
1.0
76
1
77
6
78
2
67
7
79
5
170
0
171
0
290
0
174
0
93
13
44
0.0
173
0
291
1
45
0.0
1001
ACAD
1000
AcDbSavedByObjectVersion
1070
0
0
VISUALSTYLE
5
F96
102
{ACAD_XDICTIONARY
360
1084
102
}
102
{ACAD_REACTORS
330
F93
102
}
330
F93
100
AcDbVisualStyle
2

70
2
71
2
72
2
73
1
90
2
40
-0.6
41
30.0
62
5
63
7
74
0
91
4
64
7
65
257
75
1
175
1
42
1.0
92
0
66
7
43
1.0
76
1
77
6
78
2
67
7
79
5
170
0
171
0
290
0
174
0
93
13
44
0.0
173
0
291
1
45
0.0
1001
ACAD
1000
AcDbSavedByObjectVersion
1070
0
0
VISUALSTYLE
5
F97
102
{ACAD_XDICTIONARY
360
1086
102
}
102
{ACAD_REACTORS
330
F93
102
}
330
F93
100
AcDbVisualStyle
2

70
3
71
2
72
2
73
1
90
2
40
-0.6
41
30.0
62
5
63
7
74
1
91
4
64
7
65
257
75
1
175
1
42
1.0
92
0
66
257
43
1.0
76
1
77
6
78
2
67
7
79
5
170
0
171
0
290
0
174
0
93
13
44
0.0
173
0
291
1
45
0.0
1001
ACAD
1000
AcDbSavedByObjectVersion
1070
0
0
VISUALSTYLE
5
FA4
102
{ACAD_XDICTIONARY
360
10A0
102
}
102
{ACAD_REACTORS
330
F93
102
}
330
F93
100
AcDbVisualStyle
2

70
20
71
2
72
2
73
0
90
0
40
-0.6
41
-30.0
62
5
63
7
74
1
91
4
64
7
65
257
75
1
175
1
42
1.0
92
10
66
7
43
1.0
76
1
77
6
78
2
67
7
79
5
170
0
171
0
290
0
174
0
93
1
44
0.0
173
0
291
1
45
0.0
1001
ACAD
1000
AcDbSavedByObjectVersion
1070
0
0
VISUALSTYLE
5
FA1
102
{ACAD_XDICTIONARY
360
109A
102
}
102
{ACAD_REACTORS
330
F93
102
}
330
F93
100
AcDbVisualStyle
2

70
14
71
2
72
2
73
0
90
0
40
-0.6
41
-30.0
62
5
63
7
74
1
91
4
64
7
65
257
75
7
175
7
42
1.0
92
8
66
7
43
1.0
76
1
77
6
78
2
67
7
79
5
170
0
171
0
290
0
174
0
93
1
44
0.0
173
0
291
1
45
0.0
1001
ACAD
1000
AcDbSavedByObjectVersion
1070
0
0
VISUALSTYLE
5
FA5
102
{ACAD_XDICTIONARY
360
10A2
102
}
102
{ACAD_REACTORS
330
F93
102
}
330
F93
100
AcDbVisualStyle
2

70
21
71
2
72
2
73
0
90
0
40
-0.6
41
-30.0
62
5
63
7
74
1
91
4
64
7
65
257
75
1
175
1
42
1.0
92
9
66
7
43
1.0
76
1
77
6
78
2
67
7
79
5
170
0
171
0
290
0
174
0
93
1
44
0.0
173
0
291
1
45
0.0
1001
ACAD
1000
AcDbSavedByObjectVersion
1070
0
0
VISUALSTYLE
5
F9D
102
{ACAD_XDICTIONARY
360
1092
102
}
102
{ACAD_REACTORS
330
F93
102
}
330
F93
100
AcDbVisualStyle
2

70
8
71
2
72
2
73
0
90
0
40
-0.6
41
-30.0
62
5
63
7
74
1
91
0
64
7
65
257
75
1
175
1
42
1.0
92
8
66
8
43
1.0
76
1
77
6
78
2
67
7
79
5
170
0
171
0
290
0
174
0
93
13
44
0.0
173
0
291
0
45
0.0
1001
ACAD
1000
AcDbSavedByObjectVersion
1070
0
0
VISUALSTYLE
5
FA0
102
{ACAD_XDICTIONARY
360
1098
102
}
102
{ACAD_REACTORS
330
F93
102
}
330
F93
100
AcDbVisualStyle
2

70
13
71
2
72
2
73
0
90
0
40
-0.6
41
-30.0
62
5
63
7
74
1
91
4
64
7
65
257
75
1
175
1
42
1.0
92
12
66
7
43
1.0
76
1
77
6
78
2
67
7
79
5
170
0
171
0
290
0
174
0
93
1
44
0.0
173
0
291
1
45
0.0
1001
ACAD
1000
AcDbSavedByObjectVersion
1070
0
0
DICTIONARYVAR
5
FF3
102
{ACAD_REACTORS
330
FF0
102
}
330
FF0
100
DictionaryVariables
280
0
1
1:1
0
DICTIONARYVAR
5
FF2
102
{ACAD_REACTORS
330
FF0
102
}
330
FF0
100
DictionaryVariables
280
0
1
STANDARD
0
DICTIONARYVAR
5
FF1
102
{ACAD_REACTORS
330
FF0
102
}
330
FF0
100
DictionaryVariables
280
0
1
STANDARD
0
DICTIONARYVAR
5
FF6
102
{ACAD_REACTORS
330
FF0
102
}
330
FF0
100
DictionaryVariables
280
0
1
1
0
DICTIONARYVAR
5
FF5
102
{ACAD_REACTORS
330
FF0
102
}
330
FF0
100
DictionaryVariables
280
0
1
0
0
DICTIONARYVAR
5
FF4
102
{ACAD_REACTORS
330
FF0
102
}
330
FF0
100
DictionaryVariables
280
0
1
127
0
DICTIONARYVAR
5
1078
102
{ACAD_REACTORS
330
FF0
102
}
330
FF0
100
DictionaryVariables
280
0
1
2
0
DICTIONARY
5
10A9
330
FD1
100
AcDbDictionary
280
1
281
1
3
ACAD_XREC_ROUNDTRIP
360
10AA
0
DICTIONARY
5
10A7
330
FD0
100
AcDbDictionary
280
1
281
1
3
ACAD_XREC_ROUNDTRIP
360
10A8
0
DICTIONARY
5
F84
330
F83
100
AcDbDictionary
280
1
281
1
3
ACAD_XREC_ROUNDTRIP
360
FFF
3
BUMPTILE
360
F86
3
DIFFUSETILE
360
F85
3
OPACITYTILE
360
F89
3
REFLECTIONTILE
360
F88
3
REFRACTIONTILE
360
F8A
3
SPECULARTILE
360
F87
0
DICTIONARY
5
F7C
330
F7B
100
AcDbDictionary
280
1
281
1
3
ACAD_XREC_ROUNDTRIP
360
FFE
3
BUMPTILE
360
F7E
3
DIFFUSETILE
360
F7D
3
OPACITYTILE
360
F81
3
REFLECTIONTILE
360
F80
3
REFRACTIONTILE
360
F82
3
SPECULARTILE
360
F7F
0
DICTIONARY
5
F8C
330
F8B
100
AcDbDictionary
280
1
281
1
3
ACAD_XREC_ROUNDTRIP
360
1000
3
BUMPTILE
360
F8E
3
DIFFUSETILE
360
F8D
3
OPACITYTILE
360
F91
3
REFLECTIONTILE
360
F90
3
REFRACTIONTILE
360
F92
3
SPECULARTILE
360
F8F
0
DICTIONARY
5
FF8
330
FA9
100
AcDbDictionary
280
1
281
1
3
ACAD_ROUNDTRIP_2008_TABLESTYLE_CELLSTYLEMAP
360
1079
3
ACAD_XREC_ROUNDTRIP
360
10A6
0
DICTIONARY
5
108A
330
F99
100
AcDbDictionary
280
1
281
1
3
ACAD_XREC_ROUNDTRIP
360
108B
0
DICTIONARY
5
108E
330
F9B
100
AcDbDictionary
280
1
281
1
3
ACAD_XREC_ROUNDTRIP
360
108F
0
DICTIONARY
5
108C
330
F9A
100
AcDbDictionary
280
1
281
1
3
ACAD_XREC_ROUNDTRIP
360
108D
0
DICTIONARY
5
1088
330
F98
100
AcDbDictionary
280
1
281
1
3
ACAD_XREC_ROUNDTRIP
360
1089
0
DICTIONARY
5
1096
330
F9F
100
AcDbDictionary
280
1
281
1
3
ACAD_XREC_ROUNDTRIP
360
1097
0
DICTIONARY
5
109E
330
FA3
100
AcDbDictionary
280
1
281
1
3
ACAD_XREC_ROUNDTRIP
360
109F
0
DICTIONARY
5
1090
330
F9C
100
AcDbDictionary
280
1
281
1
3
ACAD_XREC_ROUNDTRIP
360
1091
0
DICTIONARY
5
1094
330
F9E
100
AcDbDictionary
280
1
281
1
3
ACAD_XREC_ROUNDTRIP
360
1095
0
DICTIONARY
5
10A4
330
FA6
100
AcDbDictionary
280
1
281
1
3
ACAD_XREC_ROUNDTRIP
360
10A5
0
DICTIONARY
5
109C
330
FA2
100
AcDbDictionary
280
1
281
1
3
ACAD_XREC_ROUNDTRIP
360
109D
0
DICTIONARY
5
1080
330
F94
100
AcDbDictionary
280
1
281
1
3
ACAD_XREC_ROUNDTRIP
360
1081
0
DICTIONARY
5
1082
330
F95
100
AcDbDictionary
280
1
281
1
3
ACAD_XREC_ROUNDTRIP
360
1083
0
DICTIONARY
5
1084
330
F96
100
AcDbDictionary
280
1
281
1
3
ACAD_XREC_ROUNDTRIP
360
1085
0
DICTIONARY
5
1086
330
F97
100
AcDbDictionary
280
1
281
1
3
ACAD_XREC_ROUNDTRIP
360
1087
0
DICTIONARY
5
10A0
330
FA4
100
AcDbDictionary
280
1
281
1
3
ACAD_XREC_ROUNDTRIP
360
10A1
0
DICTIONARY
5
109A
330
FA1
100
AcDbDictionary
280
1
281
1
3
ACAD_XREC_ROUNDTRIP
360
109B
0
DICTIONARY
5
10A2
330
FA5
100
AcDbDictionary
280
1
281
1
3
ACAD_XREC_ROUNDTRIP
360
10A3
0
DICTIONARY
5
1092
330
F9D
100
AcDbDictionary
280
1
281
1
3
ACAD_XREC_ROUNDTRIP
360
1093
0
DICTIONARY
5
1098
330
FA0
100
AcDbDictionary
280
1
281
1
3
ACAD_XREC_ROUNDTRIP
360
1099
0
XRECORD
5
10AA
102
{ACAD_REACTORS
330
10A9
102
}
330
10A9
100
AcDbXrecord
280
1
102
SHADEPLOT
70
0
102
SHADEPLOTRESLEVEL
70
2
102
SHADEPLOTCUSTOMDPI
70
300
0
XRECORD
5
10A8
102
{ACAD_REACTORS
330
10A7
102
}
330
10A7
100
AcDbXrecord
280
1
102
SHADEPLOT
70
0
102
SHADEPLOTRESLEVEL
70
2
102
SHADEPLOTCUSTOMDPI
70
300
0
XRECORD
5
FFF
102
{ACAD_REACTORS
330
F84
102
}
330
F84
100
AcDbXrecord
280
1
102
MATERIAL
148
0.0
149
0.0
149
0.0
93
0
94
127
282
0
72
0
77
0
171
0
175
0
179
0
273
0
0
XRECORD
5
F86
102
{ACAD_REACTORS
330
F84
102
}
330
F84
100
AcDbXrecord
280
1
270
1
271
1
0
XRECORD
5
F85
102
{ACAD_REACTORS
330
F84
102
}
330
F84
100
AcDbXrecord
280
1
270
1
271
1
0
XRECORD
5
F89
102
{ACAD_REACTORS
330
F84
102
}
330
F84
100
AcDbXrecord
280
1
270
1
271
1
0
XRECORD
5
F88
102
{ACAD_REACTORS
330
F84
102
}
330
F84
100
AcDbXrecord
280
1
270
1
271
1
0
XRECORD
5
F8A
102
{ACAD_REACTORS
330
F84
102
}
330
F84
100
AcDbXrecord
280
1
270
1
271
1
0
XRECORD
5
F87
102
{ACAD_REACTORS
330
F84
102
}
330
F84
100
AcDbXrecord
280
1
270
1
271
1
0
XRECORD
5
FFE
102
{ACAD_REACTORS
330
F7C
102
}
330
F7C
100
AcDbXrecord
280
1
102
MATERIAL
148
0.0
149
0.0
149
0.0
93
0
94
127
282
0
72
0
77
0
171
0
175
0
179
0
273
0
0
XRECORD
5
F7E
102
{ACAD_REACTORS
330
F7C
102
}
330
F7C
100
AcDbXrecord
280
1
270
1
271
1
0
XRECORD
5
F7D
102
{ACAD_REACTORS
330
F7C
102
}
330
F7C
100
AcDbXrecord
280
1
270
1
271
1
0
XRECORD
5
F81
102
{ACAD_REACTORS
330
F7C
102
}
330
F7C
100
AcDbXrecord
280
1
270
1
271
1
0
XRECORD
5
F80
102
{ACAD_REACTORS
330
F7C
102
}
330
F7C
100
AcDbXrecord
280
1
270
1
271
1
0
XRECORD
5
F82
102
{ACAD_REACTORS
330
F7C
102
}
330
F7C
100
AcDbXrecord
280
1
270
1
271
1
0
XRECORD
5
F7F
102
{ACAD_REACTORS
330
F7C
102
}
330
F7C
100
AcDbXrecord
280
1
270
1
271
1
0
XRECORD
5
1000
102
{ACAD_REACTORS
330
F8C
102
}
330
F8C
100
AcDbXrecord
280
1
102
MATERIAL
148
0.0
149
0.0
149
0.0
93
0
94
127
282
0
72
0
77
0
171
0
175
0
179
0
273
0
0
XRECORD
5
F8E
102
{ACAD_REACTORS
330
F8C
102
}
330
F8C
100
AcDbXrecord
280
1
270
1
271
1
0
XRECORD
5
F8D
102
{ACAD_REACTORS
330
F8C
102
}
330
F8C
100
AcDbXrecord
280
1
270
1
271
1
0
XRECORD
5
F91
102
{ACAD_REACTORS
330
F8C
102
}
330
F8C
100
AcDbXrecord
280
1
270
1
271
1
0
XRECORD
5
F90
102
{ACAD_REACTORS
330
F8C
102
}
330
F8C
100
AcDbXrecord
280
1
270
1
271
1
0
XRECORD
5
F92
102
{ACAD_REACTORS
330
F8C
102
}
330
F8C
100
AcDbXrecord
280
1
270
1
271
1
0
XRECORD
5
F8F
102
{ACAD_REACTORS
330
F8C
102
}
330
F8C
100
AcDbXrecord
280
1
270
1
271
1
0
CELLSTYLEMAP
5
1079
102
{ACAD_REACTORS
330
FF8
102
}
330
FF8
100
AcDbCellStyleMap
90
3
300
CELLSTYLE
1
TABLEFORMAT_BEGIN
90
5
170
1
91
0
92
32768
62
257
93
1
300
CONTENTFORMAT
1
CONTENTFORMAT_BEGIN
90
0
91
0
92
512
93
0
300

40
0.0
140
1.0
94
5
62
0
340
253
144
0.25
309
CONTENTFORMAT_END
171
1
301
MARGIN
1
CELLMARGIN_BEGIN
40
0.06
40
0.06
40
0.06
40
0.06
40
0.18
40
0.18
309
CELLMARGIN_END
94
6
95
1
302
GRIDFORMAT
1
GRIDFORMAT_BEGIN
90
0
91
1
62
0
92
-2
340
0
93
0
40
0.045
309
GRIDFORMAT_END
95
2
302
GRIDFORMAT
1
GRIDFORMAT_BEGIN
90
0
91
1
62
0
92
-2
340
0
93
0
40
0.045
309
GRIDFORMAT_END
95
4
302
GRIDFORMAT
1
GRIDFORMAT_BEGIN
90
0
91
1
62
0
92
-2
340
0
93
0
40
0.045
309
GRIDFORMAT_END
95
8
302
GRIDFORMAT
1
GRIDFORMAT_BEGIN
90
0
91
1
62
0
92
-2
340
0
93
0
40
0.045
309
GRIDFORMAT_END
95
16
302
GRIDFORMAT
1
GRIDFORMAT_BEGIN
90
0
91
1
62
0
92
-2
340
0
93
0
40
0.045
309
GRIDFORMAT_END
95
32
302
GRIDFORMAT
1
GRIDFORMAT_BEGIN
90
0
91
1
62
0
92
-2
340
0
93
0
40
0.045
309
GRIDFORMAT_END
309
TABLEFORMAT_END
1
CELLSTYLE_BEGIN
90
1
91
1
300
_TITLE
309
CELLSTYLE_END
300
CELLSTYLE
1
TABLEFORMAT_BEGIN
90
5
170
1
91
0
92
0
62
257
93
1
300
CONTENTFORMAT
1
CONTENTFORMAT_BEGIN
90
0
91
0
92
512
93
0
300

40
0.0
140
1.0
94
5
62
0
340
253
144
0.18
309
CONTENTFORMAT_END
171
1
301
MARGIN
1
CELLMARGIN_BEGIN
40
0.06
40
0.06
40
0.06
40
0.06
40
0.18
40
0.18
309
CELLMARGIN_END
94
6
95
1
302
GRIDFORMAT
1
GRIDFORMAT_BEGIN
90
0
91
1
62
0
92
-2
340
0
93
0
40
0.045
309
GRIDFORMAT_END
95
2
302
GRIDFORMAT
1
GRIDFORMAT_BEGIN
90
0
91
1
62
0
92
-2
340
0
93
0
40
0.045
309
GRIDFORMAT_END
95
4
302
GRIDFORMAT
1
GRIDFORMAT_BEGIN
90
0
91
1
62
0
92
-2
340
0
93
0
40
0.045
309
GRIDFORMAT_END
95
8
302
GRIDFORMAT
1
GRIDFORMAT_BEGIN
90
0
91
1
62
0
92
-2
340
0
93
0
40
0.045
309
GRIDFORMAT_END
95
16
302
GRIDFORMAT
1
GRIDFORMAT_BEGIN
90
0
91
1
62
0
92
-2
340
0
93
0
40
0.045
309
GRIDFORMAT_END
95
32
302
GRIDFORMAT
1
GRIDFORMAT_BEGIN
90
0
91
1
62
0
92
-2
340
0
93
0
40
0.045
309
GRIDFORMAT_END
309
TABLEFORMAT_END
1
CELLSTYLE_BEGIN
90
2
91
1
300
_HEADER
309
CELLSTYLE_END
300
CELLSTYLE
1
TABLEFORMAT_BEGIN
90
5
170
1
91
0
92
0
62
257
93
1
300
CONTENTFORMAT
1
CONTENTFORMAT_BEGIN
90
0
91
0
92
512
93
0
300

40
0.0
140
1.0
94
2
62
0
340
253
144
0.18
309
CONTENTFORMAT_END
171
1
301
MARGIN
1
CELLMARGIN_BEGIN
40
0.06
40
0.06
40
0.06
40
0.06
40
0.18
40
0.18
309
CELLMARGIN_END
94
6
95
1
302
GRIDFORMAT
1
GRIDFORMAT_BEGIN
90
0
91
1
62
0
92
-2
340
0
93
0
40
0.045
309
GRIDFORMAT_END
95
2
302
GRIDFORMAT
1
GRIDFORMAT_BEGIN
90
0
91
1
62
0
92
-2
340
0
93
0
40
0.045
309
GRIDFORMAT_END
95
4
302
GRIDFORMAT
1
GRIDFORMAT_BEGIN
90
0
91
1
62
0
92
-2
340
0
93
0
40
0.045
309
GRIDFORMAT_END
95
8
302
GRIDFORMAT
1
GRIDFORMAT_BEGIN
90
0
91
1
62
0
92
-2
340
0
93
0
40
0.045
309
GRIDFORMAT_END
95
16
302
GRIDFORMAT
1
GRIDFORMAT_BEGIN
90
0
91
1
62
0
92
-2
340
0
93
0
40
0.045
309
GRIDFORMAT_END
95
32
302
GRIDFORMAT
1
GRIDFORMAT_BEGIN
90
0
91
1
62
0
92
-2
340
0
93
0
40
0.045
309
GRIDFORMAT_END
309
TABLEFORMAT_END
1
CELLSTYLE_BEGIN
90
3
91
2
300
_DATA
309
CELLSTYLE_END
0
XRECORD
5
10A6
102
{ACAD_REACTORS
330
FF8
102
}
330
FF8
100
AcDbXrecord
280
1
102
ACAD_ROUNDTRIP_PRE2007_TABLESTYLE
90
512
91
0
1

92
512
93
0
2

94
512
95
0
3

0
XRECORD
5
108B
102
{ACAD_REACTORS
330
108A
102
}
330
108A
100
AcDbXrecord
280
1
102
RTVSPropertyOp0
70
1
102
RTVSPropertyOp1
70
1
102
RTVSPropertyOp2
70
1
102
RTVSPropertyOp3
70
1
102
RTVSPropertyOp4
70
1
102
RTVSPropertyOp5
70
1
102
RTVSPropertyOp6
70
1
102
RTVSPropertyOp7
70
1
102
RTVSPropertyOp8
70
1
102
RTVSPropertyOp9
70
1
102
RTVSPropertyOp10
70
1
102
RTVSPropertyOp11
70
1
102
RTVSPropertyOp12
70
1
102
RTVSPropertyOp13
70
1
102
RTVSPropertyOp14
70
1
102
RTVSPropertyOp15
70
1
102
RTVSPropertyOp16
70
1
102
RTVSPropertyOp17
70
1
102
RTVSPropertyOp18
70
1
102
RTVSPropertyOp19
70
1
102
RTVSPropertyOp20
70
1
102
RTVSPropertyOp21
70
1
102
RTVSPropertyOp22
70
1
102
RTVSPropertyOp23
70
1
102
RTVSPropertyOp24
70
1
102
RTVSPropertyOp25
70
1
102
RTVSPropertyOp26
70
1
102
RTVSPropertyOp27
70
1
0
XRECORD
5
108F
102
{ACAD_REACTORS
330
108E
102
}
330
108E
100
AcDbXrecord
280
1
102
RTVSPropertyOp0
70
1
102
RTVSPropertyOp1
70
1
102
RTVSPropertyOp2
70
1
102
RTVSPropertyOp3
70
1
102
RTVSPropertyOp4
70
1
102
RTVSPropertyOp5
70
1
102
RTVSPropertyOp6
70
1
102
RTVSPropertyOp7
70
1
102
RTVSPropertyOp8
70
1
102
RTVSPropertyOp9
70
1
102
RTVSPropertyOp10
70
1
102
RTVSPropertyOp11
70
1
102
RTVSPropertyOp12
70
1
102
RTVSPropertyOp13
70
1
102
RTVSPropertyOp14
70
1
102
RTVSPropertyOp15
70
1
102
RTVSPropertyOp16
70
1
102
RTVSPropertyOp17
70
1
102
RTVSPropertyOp18
70
1
102
RTVSPropertyOp19
70
1
102
RTVSPropertyOp20
70
1
102
RTVSPropertyOp21
70
1
102
RTVSPropertyOp22
70
1
102
RTVSPropertyOp23
70
1
102
RTVSPropertyOp24
70
1
102
RTVSPropertyOp25
70
1
102
RTVSPropertyOp26
70
1
102
RTVSPropertyOp27
70
1
0
XRECORD
5
108D
102
{ACAD_REACTORS
330
108C
102
}
330
108C
100
AcDbXrecord
280
1
102
RTVSPropertyOp0
70
1
102
RTVSPropertyOp1
70
1
102
RTVSPropertyOp2
70
1
102
RTVSPropertyOp3
70
1
102
RTVSPropertyOp4
70
1
102
RTVSPropertyOp5
70
1
102
RTVSPropertyOp6
70
1
102
RTVSPropertyOp7
70
1
102
RTVSPropertyOp8
70
1
102
RTVSPropertyOp9
70
1
102
RTVSPropertyOp10
70
1
102
RTVSPropertyOp11
70
1
102
RTVSPropertyOp12
70
1
102
RTVSPropertyOp13
70
1
102
RTVSPropertyOp14
70
1
102
RTVSPropertyOp15
70
1
102
RTVSPropertyOp16
70
1
102
RTVSPropertyOp17
70
1
102
RTVSPropertyOp18
70
1
102
RTVSPropertyOp19
70
1
102
RTVSPropertyOp20
70
1
102
RTVSPropertyOp21
70
1
102
RTVSPropertyOp22
70
1
102
RTVSPropertyOp23
70
1
102
RTVSPropertyOp24
70
1
102
RTVSPropertyOp25
70
1
102
RTVSPropertyOp26
70
1
102
RTVSPropertyOp27
70
1
0
XRECORD
5
1089
102
{ACAD_REACTORS
330
1088
102
}
330
1088
100
AcDbXrecord
280
1
102
RTVSPropertyOp0
70
1
102
RTVSPropertyOp1
70
1
102
RTVSPropertyOp2
70
1
102
RTVSPropertyOp3
70
1
102
RTVSPropertyOp4
70
1
102
RTVSPropertyOp5
70
1
102
RTVSPropertyOp6
70
1
102
RTVSPropertyOp7
70
1
102
RTVSPropertyOp8
70
1
102
RTVSPropertyOp9
70
1
102
RTVSPropertyOp10
70
1
102
RTVSPropertyOp11
70
1
102
RTVSPropertyOp12
70
1
102
RTVSPropertyOp13
70
1
102
RTVSPropertyOp14
70
1
102
RTVSPropertyOp15
70
1
102
RTVSPropertyOp16
70
1
102
RTVSPropertyOp17
70
1
102
RTVSPropertyOp18
70
1
102
RTVSPropertyOp19
70
1
102
RTVSPropertyOp20
70
1
102
RTVSPropertyOp21
70
1
102
RTVSPropertyOp22
70
1
102
RTVSPropertyOp23
70
1
102
RTVSPropertyOp24
70
1
102
RTVSPropertyOp25
70
1
102
RTVSPropertyOp26
70
1
102
RTVSPropertyOp27
70
1
0
XRECORD
5
1097
102
{ACAD_REACTORS
330
1096
102
}
330
1096
100
AcDbXrecord
280
1
102
RTVSPropertyOp0
70
1
102
RTVSPropertyOp1
70
1
102
RTVSPropertyOp2
70
1
102
RTVSPropertyOp3
70
1
102
RTVSPropertyOp4
70
1
102
RTVSPropertyOp5
70
1
102
RTVSPropertyOp6
70
1
102
RTVSPropertyOp7
70
1
102
RTVSPropertyOp8
70
1
102
RTVSPropertyOp9
70
1
102
RTVSPropertyOp10
70
1
102
RTVSPropertyOp11
70
1
102
RTVSPropertyOp12
70
1
102
RTVSPropertyOp13
70
1
102
RTVSPropertyOp14
70
1
102
RTVSPropertyOp15
70
1
102
RTVSPropertyOp16
70
1
102
RTVSPropertyOp17
70
1
102
RTVSPropertyOp18
70
1
102
RTVSPropertyOp19
70
1
102
RTVSPropertyOp20
70
1
102
RTVSPropertyOp21
70
1
102
RTVSPropertyOp22
70
1
102
RTVSPropertyOp23
70
1
102
RTVSPropertyOp24
70
1
102
RTVSPropertyOp25
70
1
102
RTVSPropertyOp26
70
1
102
RTVSPropertyOp27
70
1
0
XRECORD
5
109F
102
{ACAD_REACTORS
330
109E
102
}
330
109E
100
AcDbXrecord
280
1
102
RTVSPropertyOp0
70
1
102
RTVSPropertyOp1
70
1
102
RTVSPropertyOp2
70
1
102
RTVSPropertyOp3
70
1
102
RTVSPropertyOp4
70
1
102
RTVSPropertyOp5
70
1
102
RTVSPropertyOp6
70
1
102
RTVSPropertyOp7
70
1
102
RTVSPropertyOp8
70
1
102
RTVSPropertyOp9
70
1
102
RTVSPropertyOp10
70
1
102
RTVSPropertyOp11
70
1
102
RTVSPropertyOp12
70
1
102
RTVSPropertyOp13
70
1
102
RTVSPropertyOp14
70
1
102
RTVSPropertyOp15
70
1
102
RTVSPropertyOp16
70
1
102
RTVSPropertyOp17
70
1
102
RTVSPropertyOp18
70
1
102
RTVSPropertyOp19
70
1
102
RTVSPropertyOp20
70
1
102
RTVSPropertyOp21
70
1
102
RTVSPropertyOp22
70
1
102
RTVSPropertyOp23
70
1
102
RTVSPropertyOp24
70
1
102
RTVSPropertyOp25
70
1
102
RTVSPropertyOp26
70
1
102
RTVSPropertyOp27
70
1
0
XRECORD
5
1091
102
{ACAD_REACTORS
330
1090
102
}
330
1090
100
AcDbXrecord
280
1
102
RTVSPropertyOp0
70
1
102
RTVSPropertyOp1
70
1
102
RTVSPropertyOp2
70
1
102
RTVSPropertyOp3
70
1
102
RTVSPropertyOp4
70
1
102
RTVSPropertyOp5
70
1
102
RTVSPropertyOp6
70
1
102
RTVSPropertyOp7
70
1
102
RTVSPropertyOp8
70
1
102
RTVSPropertyOp9
70
1
102
RTVSPropertyOp10
70
1
102
RTVSPropertyOp11
70
1
102
RTVSPropertyOp12
70
1
102
RTVSPropertyOp13
70
1
102
RTVSPropertyOp14
70
1
102
RTVSPropertyOp15
70
1
102
RTVSPropertyOp16
70
1
102
RTVSPropertyOp17
70
1
102
RTVSPropertyOp18
70
1
102
RTVSPropertyOp19
70
1
102
RTVSPropertyOp20
70
1
102
RTVSPropertyOp21
70
1
102
RTVSPropertyOp22
70
1
102
RTVSPropertyOp23
70
1
102
RTVSPropertyOp24
70
1
102
RTVSPropertyOp25
70
1
102
RTVSPropertyOp26
70
1
102
RTVSPropertyOp27
70
1
0
XRECORD
5
1095
102
{ACAD_REACTORS
330
1094
102
}
330
1094
100
AcDbXrecord
280
1
102
RTVSPropertyOp0
70
1
102
RTVSPropertyOp1
70
1
102
RTVSPropertyOp2
70
1
102
RTVSPropertyOp3
70
1
102
RTVSPropertyOp4
70
1
102
RTVSPropertyOp5
70
1
102
RTVSPropertyOp6
70
1
102
RTVSPropertyOp7
70
1
102
RTVSPropertyOp8
70
1
102
RTVSPropertyOp9
70
1
102
RTVSPropertyOp10
70
1
102
RTVSPropertyOp11
70
1
102
RTVSPropertyOp12
70
1
102
RTVSPropertyOp13
70
1
102
RTVSPropertyOp14
70
1
102
RTVSPropertyOp15
70
1
102
RTVSPropertyOp16
70
1
102
RTVSPropertyOp17
70
1
102
RTVSPropertyOp18
70
1
102
RTVSPropertyOp19
70
1
102
RTVSPropertyOp20
70
1
102
RTVSPropertyOp21
70
1
102
RTVSPropertyOp22
70
1
102
RTVSPropertyOp23
70
1
102
RTVSPropertyOp24
70
1
102
RTVSPropertyOp25
70
1
102
RTVSPropertyOp26
70
1
102
RTVSPropertyOp27
70
1
0
XRECORD
5
10A5
102
{ACAD_REACTORS
330
10A4
102
}
330
10A4
100
AcDbXrecord
280
1
102
RTVSPropertyOp0
70
0
102
RTVSPropertyOp1
70
0
102
RTVSPropertyOp2
70
0
102
RTVSPropertyOp3
70
0
102
RTVSPropertyOp4
70
0
102
RTVSPropertyOp5
70
0
102
RTVSPropertyOp6
70
0
102
RTVSPropertyOp7
70
0
102
RTVSPropertyOp8
70
0
102
RTVSPropertyOp9
70
0
102
RTVSPropertyOp10
70
0
102
RTVSPropertyOp11
70
0
102
RTVSPropertyOp12
70
0
102
RTVSPropertyOp13
70
0
102
RTVSPropertyOp14
70
2
102
RTVSPropertyOp15
70
0
102
RTVSPropertyOp16
70
0
102
RTVSPropertyOp17
70
0
102
RTVSPropertyOp18
70
0
102
RTVSPropertyOp19
70
0
102
RTVSPropertyOp20
70
0
102
RTVSPropertyOp21
70
0
102
RTVSPropertyOp22
70
0
102
RTVSPropertyOp23
70
0
102
RTVSPropertyOp24
70
0
102
RTVSPropertyOp25
70
0
102
RTVSPropertyOp26
70
0
102
RTVSPropertyOp27
70
0
0
XRECORD
5
109D
102
{ACAD_REACTORS
330
109C
102
}
330
109C
100
AcDbXrecord
280
1
102
RTVSPropertyOp0
70
1
102
RTVSPropertyOp1
70
1
102
RTVSPropertyOp2
70
1
102
RTVSPropertyOp3
70
1
102
RTVSPropertyOp4
70
1
102
RTVSPropertyOp5
70
1
102
RTVSPropertyOp6
70
1
102
RTVSPropertyOp7
70
1
102
RTVSPropertyOp8
70
1
102
RTVSPropertyOp9
70
1
102
RTVSPropertyOp10
70
1
102
RTVSPropertyOp11
70
1
102
RTVSPropertyOp12
70
1
102
RTVSPropertyOp13
70
1
102
RTVSPropertyOp14
70
1
102
RTVSPropertyOp15
70
1
102
RTVSPropertyOp16
70
1
102
RTVSPropertyOp17
70
1
102
RTVSPropertyOp18
70
1
102
RTVSPropertyOp19
70
1
102
RTVSPropertyOp20
70
1
102
RTVSPropertyOp21
70
1
102
RTVSPropertyOp22
70
1
102
RTVSPropertyOp23
70
1
102
RTVSPropertyOp24
70
1
102
RTVSPropertyOp25
70
1
102
RTVSPropertyOp26
70
1
102
RTVSPropertyOp27
70
1
0
XRECORD
5
1081
102
{ACAD_REACTORS
330
1080
102
}
330
1080
100
AcDbXrecord
280
1
102
RTVSPropertyOp0
70
1
102
RTVSPropertyOp1
70
1
102
RTVSPropertyOp2
70
1
102
RTVSPropertyOp3
70
1
102
RTVSPropertyOp4
70
1
102
RTVSPropertyOp5
70
1
102
RTVSPropertyOp6
70
1
102
RTVSPropertyOp7
70
1
102
RTVSPropertyOp8
70
1
102
RTVSPropertyOp9
70
1
102
RTVSPropertyOp10
70
1
102
RTVSPropertyOp11
70
1
102
RTVSPropertyOp12
70
1
102
RTVSPropertyOp13
70
1
102
RTVSPropertyOp14
70
1
102
RTVSPropertyOp15
70
1
102
RTVSPropertyOp16
70
1
102
RTVSPropertyOp17
70
1
102
RTVSPropertyOp18
70
1
102
RTVSPropertyOp19
70
1
102
RTVSPropertyOp20
70
1
102
RTVSPropertyOp21
70
1
102
RTVSPropertyOp22
70
1
102
RTVSPropertyOp23
70
1
102
RTVSPropertyOp24
70
1
102
RTVSPropertyOp25
70
1
102
RTVSPropertyOp26
70
1
102
RTVSPropertyOp27
70
1
0
XRECORD
5
1083
102
{ACAD_REACTORS
330
1082
102
}
330
1082
100
AcDbXrecord
280
1
102
RTVSPropertyOp0
70
1
102
RTVSPropertyOp1
70
1
102
RTVSPropertyOp2
70
1
102
RTVSPropertyOp3
70
1
102
RTVSPropertyOp4
70
1
102
RTVSPropertyOp5
70
1
102
RTVSPropertyOp6
70
1
102
RTVSPropertyOp7
70
1
102
RTVSPropertyOp8
70
1
102
RTVSPropertyOp9
70
1
102
RTVSPropertyOp10
70
1
102
RTVSPropertyOp11
70
1
102
RTVSPropertyOp12
70
1
102
RTVSPropertyOp13
70
1
102
RTVSPropertyOp14
70
1
102
RTVSPropertyOp15
70
1
102
RTVSPropertyOp16
70
1
102
RTVSPropertyOp17
70
1
102
RTVSPropertyOp18
70
1
102
RTVSPropertyOp19
70
1
102
RTVSPropertyOp20
70
1
102
RTVSPropertyOp21
70
1
102
RTVSPropertyOp22
70
1
102
RTVSPropertyOp23
70
1
102
RTVSPropertyOp24
70
1
102
RTVSPropertyOp25
70
1
102
RTVSPropertyOp26
70
1
102
RTVSPropertyOp27
70
1
0
XRECORD
5
1085
102
{ACAD_REACTORS
330
1084
102
}
330
1084
100
AcDbXrecord
280
1
102
RTVSPropertyOp0
70
1
102
RTVSPropertyOp1
70
1
102
RTVSPropertyOp2
70
1
102
RTVSPropertyOp3
70
1
102
RTVSPropertyOp4
70
1
102
RTVSPropertyOp5
70
1
102
RTVSPropertyOp6
70
1
102
RTVSPropertyOp7
70
1
102
RTVSPropertyOp8
70
1
102
RTVSPropertyOp9
70
1
102
RTVSPropertyOp10
70
1
102
RTVSPropertyOp11
70
1
102
RTVSPropertyOp12
70
1
102
RTVSPropertyOp13
70
1
102
RTVSPropertyOp14
70
1
102
RTVSPropertyOp15
70
1
102
RTVSPropertyOp16
70
1
102
RTVSPropertyOp17
70
1
102
RTVSPropertyOp18
70
1
102
RTVSPropertyOp19
70
1
102
RTVSPropertyOp20
70
1
102
RTVSPropertyOp21
70
1
102
RTVSPropertyOp22
70
1
102
RTVSPropertyOp23
70
1
102
RTVSPropertyOp24
70
1
102
RTVSPropertyOp25
70
1
102
RTVSPropertyOp26
70
1
102
RTVSPropertyOp27
70
1
0
XRECORD
5
1087
102
{ACAD_REACTORS
330
1086
102
}
330
1086
100
AcDbXrecord
280
1
102
RTVSPropertyOp0
70
1
102
RTVSPropertyOp1
70
1
102
RTVSPropertyOp2
70
1
102
RTVSPropertyOp3
70
1
102
RTVSPropertyOp4
70
1
102
RTVSPropertyOp5
70
1
102
RTVSPropertyOp6
70
1
102
RTVSPropertyOp7
70
1
102
RTVSPropertyOp8
70
1
102
RTVSPropertyOp9
70
1
102
RTVSPropertyOp10
70
1
102
RTVSPropertyOp11
70
1
102
RTVSPropertyOp12
70
1
102
RTVSPropertyOp13
70
1
102
RTVSPropertyOp14
70
1
102
RTVSPropertyOp15
70
1
102
RTVSPropertyOp16
70
1
102
RTVSPropertyOp17
70
1
102
RTVSPropertyOp18
70
1
102
RTVSPropertyOp19
70
1
102
RTVSPropertyOp20
70
1
102
RTVSPropertyOp21
70
1
102
RTVSPropertyOp22
70
1
102
RTVSPropertyOp23
70
1
102
RTVSPropertyOp24
70
1
102
RTVSPropertyOp25
70
1
102
RTVSPropertyOp26
70
1
102
RTVSPropertyOp27
70
1
0
XRECORD
5
10A1
102
{ACAD_REACTORS
330
10A0
102
}
330
10A0
100
AcDbXrecord
280
1
102
RTVSPropertyOp0
70
0
102
RTVSPropertyOp1
70
0
102
RTVSPropertyOp2
70
0
102
RTVSPropertyOp3
70
0
102
RTVSPropertyOp4
70
0
102
RTVSPropertyOp5
70
0
102
RTVSPropertyOp6
70
0
102
RTVSPropertyOp7
70
0
102
RTVSPropertyOp8
70
0
102
RTVSPropertyOp9
70
0
102
RTVSPropertyOp10
70
0
102
RTVSPropertyOp11
70
0
102
RTVSPropertyOp12
70
0
102
RTVSPropertyOp13
70
0
102
RTVSPropertyOp14
70
2
102
RTVSPropertyOp15
70
0
102
RTVSPropertyOp16
70
0
102
RTVSPropertyOp17
70
0
102
RTVSPropertyOp18
70
0
102
RTVSPropertyOp19
70
0
102
RTVSPropertyOp20
70
0
102
RTVSPropertyOp21
70
0
102
RTVSPropertyOp22
70
0
102
RTVSPropertyOp23
70
0
102
RTVSPropertyOp24
70
0
102
RTVSPropertyOp25
70
0
102
RTVSPropertyOp26
70
0
102
RTVSPropertyOp27
70
0
0
XRECORD
5
109B
102
{ACAD_REACTORS
330
109A
102
}
330
109A
100
AcDbXrecord
280
1
102
RTVSPropertyOp0
70
1
102
RTVSPropertyOp1
70
1
102
RTVSPropertyOp2
70
1
102
RTVSPropertyOp3
70
1
102
RTVSPropertyOp4
70
1
102
RTVSPropertyOp5
70
1
102
RTVSPropertyOp6
70
1
102
RTVSPropertyOp7
70
1
102
RTVSPropertyOp8
70
1
102
RTVSPropertyOp9
70
1
102
RTVSPropertyOp10
70
1
102
RTVSPropertyOp11
70
1
102
RTVSPropertyOp12
70
1
102
RTVSPropertyOp13
70
1
102
RTVSPropertyOp14
70
1
102
RTVSPropertyOp15
70
1
102
RTVSPropertyOp16
70
1
102
RTVSPropertyOp17
70
1
102
RTVSPropertyOp18
70
1
102
RTVSPropertyOp19
70
1
102
RTVSPropertyOp20
70
1
102
RTVSPropertyOp21
70
1
102
RTVSPropertyOp22
70
1
102
RTVSPropertyOp23
70
1
102
RTVSPropertyOp24
70
1
102
RTVSPropertyOp25
70
1
102
RTVSPropertyOp26
70
1
102
RTVSPropertyOp27
70
1
0
XRECORD
5
10A3
102
{ACAD_REACTORS
330
10A2
102
}
330
10A2
100
AcDbXrecord
280
1
102
RTVSPropertyOp0
70
0
102
RTVSPropertyOp1
70
0
102
RTVSPropertyOp2
70
0
102
RTVSPropertyOp3
70
0
102
RTVSPropertyOp4
70
0
102
RTVSPropertyOp5
70
0
102
RTVSPropertyOp6
70
0
102
RTVSPropertyOp7
70
0
102
RTVSPropertyOp8
70
0
102
RTVSPropertyOp9
70
0
102
RTVSPropertyOp10
70
0
102
RTVSPropertyOp11
70
0
102
RTVSPropertyOp12
70
0
102
RTVSPropertyOp13
70
0
102
RTVSPropertyOp14
70
2
102
RTVSPropertyOp15
70
0
102
RTVSPropertyOp16
70
0
102
RTVSPropertyOp17
70
0
102
RTVSPropertyOp18
70
0
102
RTVSPropertyOp19
70
0
102
RTVSPropertyOp20
70
0
102
RTVSPropertyOp21
70
0
102
RTVSPropertyOp22
70
0
102
RTVSPropertyOp23
70
0
102
RTVSPropertyOp24
70
0
102
RTVSPropertyOp25
70
0
102
RTVSPropertyOp26
70
0
102
RTVSPropertyOp27
70
0
0
XRECORD
5
1093
102
{ACAD_REACTORS
330
1092
102
}
330
1092
100
AcDbXrecord
280
1
102
RTVSPropertyOp0
70
1
102
RTVSPropertyOp1
70
1
102
RTVSPropertyOp2
70
1
102
RTVSPropertyOp3
70
1
102
RTVSPropertyOp4
70
1
102
RTVSPropertyOp5
70
1
102
RTVSPropertyOp6
70
1
102
RTVSPropertyOp7
70
1
102
RTVSPropertyOp8
70
1
102
RTVSPropertyOp9
70
1
102
RTVSPropertyOp10
70
1
102
RTVSPropertyOp11
70
1
102
RTVSPropertyOp12
70
1
102
RTVSPropertyOp13
70
1
102
RTVSPropertyOp14
70
1
102
RTVSPropertyOp15
70
1
102
RTVSPropertyOp16
70
1
102
RTVSPropertyOp17
70
1
102
RTVSPropertyOp18
70
1
102
RTVSPropertyOp19
70
1
102
RTVSPropertyOp20
70
1
102
RTVSPropertyOp21
70
1
102
RTVSPropertyOp22
70
1
102
RTVSPropertyOp23
70
1
102
RTVSPropertyOp24
70
1
102
RTVSPropertyOp25
70
1
102
RTVSPropertyOp26
70
1
102
RTVSPropertyOp27
70
1
0
XRECORD
5
1099
102
{ACAD_REACTORS
330
1098
102
}
330
1098
100
AcDbXrecord
280
1
102
RTVSPropertyOp0
70
1
102
RTVSPropertyOp1
70
1
102
RTVSPropertyOp2
70
1
102
RTVSPropertyOp3
70
1
102
RTVSPropertyOp4
70
1
102
RTVSPropertyOp5
70
1
102
RTVSPropertyOp6
70
1
102
RTVSPropertyOp7
70
1
102
RTVSPropertyOp8
70
1
102
RTVSPropertyOp9
70
1
102
RTVSPropertyOp10
70
1
102
RTVSPropertyOp11
70
1
102
RTVSPropertyOp12
70
1
102
RTVSPropertyOp13
70
1
102
RTVSPropertyOp14
70
1
102
RTVSPropertyOp15
70
1
102
RTVSPropertyOp16
70
1
102
RTVSPropertyOp17
70
1
102
RTVSPropertyOp18
70
1
102
RTVSPropertyOp19
70
1
102
RTVSPropertyOp20
70
1
102
RTVSPropertyOp21
70
1
102
RTVSPropertyOp22
70
1
102
RTVSPropertyOp23
70
1
102
RTVSPropertyOp24
70
1
102
RTVSPropertyOp25
70
1
102
RTVSPropertyOp26
70
1
102
RTVSPropertyOp27
70
1
0
ENDSEC
0
EOF
