0
SECTION
2
HEADER
9
$ACADVER
1
AC1015
9
$ACADMAINTVER
70
20
9
$DWGCODEPAGE
3
ANSI_1252
9
$INSBASE
10
0.0
20
0.0
30
0.0
9
$EXTMIN
10
-150.000000000000
20
-105.000000000000
30
0.0
9
$EXTMAX
10
150.000000000000
20
105.000000000000
30
0.0
9
$LIMMIN
10
0.0
20
0.0
9
$LIMMAX
10
12.0
20
9.0
9
$ORTHOMODE
70
0
9
$REGENMODE
70
1
9
$FILLMODE
70
1
9
$QTEXTMODE
70
0
9
$MIRRTEXT
70
1
9
$LTSCALE
40
1.0
9
$ATTMODE
70
1
9
$TEXTSIZE
40
0.2
9
$TRACEWID
40
0.05
9
$TEXTSTYLE
7
Standard
9
$CLAYER
8
0
9
$CELTYPE
6
ByLayer
9
$CECOLOR
62
256
9
$CELTSCALE
40
1.0
9
$DISPSILH
70
0
9
$DIMSCALE
40
1.0
9
$DIMASZ
40
2.5
9
$DIMEXO
40
0.625
9
$DIMDLI
40
0.38
9
$DIMRND
40
0.0
9
$DIMDLE
40
0.0
9
$DIMEXE
40
1.25
9
$DIMTP
40
0.0
9
$DIMTM
40
0.000000001
9
$DIMTXT
40
2.5
9
$DIMCEN
40
0.09
9
$DIMTSZ
40
0.0
9
$DIMTOL
70
1
9
$DIMLIM
70
0
9
$DIMTIH
70
0
9
$DIMTOH
70
0
9
$DIMSE1
70
0
9
$DIMSE2
70
0
9
$DIMTAD
70
1
9
$DIMZIN
70
0
9
$DIMBLK
1
VDDIM_DEFAULT
9
$DIMASO
70
1
9
$DIMSHO
70
1
9
$DIMPOST
1

9
$DIMAPOST
1

9
$DIMALT
70
0
9
$DIMALTD
70
2
9
$DIMALTF
40
25.4
9
$DIMLFAC
40
1.00000000000000
9
$DIMTOFL
70
0
9
$DIMTVP
40
0.0
9
$DIMTIX
70
0
9
$DIMSOXD
70
0
9
$DIMSAH
70
0
9
$DIMBLK1
1

9
$DIMBLK2
1

9
$DIMSTYLE
2
BEM-ISBE
9
$DIMCLRD
70
0
9
$DIMCLRE
70
0
9
$DIMCLRT
70
0
9
$DIMTFAC
40
0.5
9
$DIMGAP
40
0.625
9
$DIMJUST
70
0
9
$DIMSD1
70
0
9
$DIMSD2
70
0
9
$DIMTOLJ
70
1
9
$DIMTZIN
70
0
9
$DIMALTZ
70
0
9
$DIMALTTZ
70
0
9
$DIMUPT
70
0
9
$DIMDEC
70
3
9
$DIMTDEC
70
3
9
$DIMALTU
70
2
9
$DIMALTTD
70
2
9
$DIMTXSTY
7
Standard
9
$DIMAUNIT
70
0
9
$DIMADEC
70
3
9
$DIMALTRND
40
0.0
9
$DIMAZIN
70
0
9
$DIMDSEP
70
46
9
$DIMATFIT
70
3
9
$DIMFRAC
70
0
9
$DIMLDRBLK
1

9
$DIMLUNIT
70
2
9
$DIMLWD
70
-2
9
$DIMLWE
70
-2
9
$DIMTMOVE
70
0
9
$LUNITS
70
2
9
$LUPREC
70
4
9
$SKETCHINC
40
0.1
9
$FILLETRAD
40
0.5
9
$AUNITS
70
0
9
$AUPREC
70
0
9
$MENU
1
.
9
$ELEVATION
40
0.0
9
$PELEVATION
40
0.0
9
$THICKNESS
40
0.0
9
$LIMCHECK
70
0
9
$CHAMFERA
40
0.5
9
$CHAMFERB
40
0.5
9
$CHAMFERC
40
1.0
9
$CHAMFERD
40
0.0
9
$SKPOLY
70
0
9
$TDCREATE
40
0.0
9
$TDUCREATE
40
0.0
9
$TDUPDATE
40
0.0
9
$TDUUPDATE
40
0.0
9
$TDINDWG
40
0.0
9
$TDUSRTIMER
40
0.0
9
$USRTIMER
70
1
9
$ANGBASE
50
0.0
9
$ANGDIR
70
0
9
$PDMODE
70
0
9
$PDSIZE
40
0.0
9
$PLINEWID
40
0.0
9
$SPLFRAME
70
0
9
$SPLINETYPE
70
6
9
$SPLINESEGS
70
8
9
$HANDSEED
5
10AB
9
$SURFTAB1
70
6
9
$SURFTAB2
70
6
9
$SURFTYPE
70
6
9
$SURFU
70
6
9
$SURFV
70
6
9
$UCSBASE
2

9
$UCSNAME
2

9
$UCSORG
10
0.0
20
0.0
30
0.0
9
$UCSXDIR
10
1.0
20
0.0
30
0.0
9
$UCSYDIR
10
0.0
20
1.0
30
0.0
9
$UCSORTHOREF
2

9
$UCSORTHOVIEW
70
0
9
$UCSORGTOP
10
0.0
20
0.0
30
0.0
9
$UCSORGBOTTOM
10
0.0
20
0.0
30
0.0
9
$UCSORGLEFT
10
0.0
20
0.0
30
0.0
9
$UCSORGRIGHT
10
0.0
20
0.0
30
0.0
9
$UCSORGFRONT
10
0.0
20
0.0
30
0.0
9
$UCSORGBACK
10
0.0
20
0.0
30
0.0
9
$PUCSBASE
2

9
$PUCSNAME
2

9
$PUCSORG
10
0.0
20
0.0
30
0.0
9
$PUCSXDIR
10
1.0
20
0.0
30
0.0
9
$PUCSYDIR
10
0.0
20
1.0
30
0.0
9
$PUCSORTHOREF
2

9
$PUCSORTHOVIEW
70
0
9
$PUCSORGTOP
10
0.0
20
0.0
30
0.0
9
$PUCSORGBOTTOM
10
0.0
20
0.0
30
0.0
9
$PUCSORGLEFT
10
0.0
20
0.0
30
0.0
9
$PUCSORGRIGHT
10
0.0
20
0.0
30
0.0
9
$PUCSORGFRONT
10
0.0
20
0.0
30
0.0
9
$PUCSORGBACK
10
0.0
20
0.0
30
0.0
9
$USERI1
70
0
9
$USERI2
70
0
9
$USERI3
70
0
9
$USERI4
70
0
9
$USERI5
70
0
9
$USERR1
40
0.0
9
$USERR2
40
0.0
9
$USERR3
40
0.0
9
$USERR4
40
0.0
9
$USERR5
40
0.0
9
$WORLDVIEW
70
1
9
$SHADEDGE
70
3
9
$SHADEDIF
70
70
9
$TILEMODE
70
1
9
$MAXACTVP
70
64
9
$PINSBASE
10
0.0
20
0.0
30
0.0
9
$PLIMCHECK
70
0
9
$PEXTMIN
10
1.000000000000000E+20
20
1.000000000000000E+20
30
1.000000000000000E+20
9
$PEXTMAX
10
-1.000000000000000E+20
20
-1.000000000000000E+20
30
-1.000000000000000E+20
9
$PLIMMIN
10
0.0
20
0.0
9
$PLIMMAX
10
12.0
20
9.0
9
$UNITMODE
70
0
9
$VISRETAIN
70
1
9
$PLINEGEN
70
0
9
$PSLTSCALE
70
1
9
$TREEDEPTH
70
3020
9
$CMLSTYLE
2
Standard
9
$CMLJUST
70
0
9
$CMLSCALE
40
1.0
9
$PROXYGRAPHICS
70
1
9
$MEASUREMENT
70
0
9
$CELWEIGHT
370
-1
9
$ENDCAPS
280
0
9
$JOINSTYLE
280
0
9
$LWDISPLAY
290
0
9
$INSUNITS
70
4
9
$HYPERLINKBASE
1

9
$STYLESHEET
1

9
$XEDIT
290
1
9
$CEPSNTYPE
380
0
9
$PSTYLEMODE
290
0
9
$FINGERPRINTGUID
2
{FAEB1C30-E019-11D5-929B-00C0DF256EC4}
9
$VERSIONGUID
2
{04C5C4E4-4947-4D90-8812-D401569E61F7}
9
$EXTNAMES
290
1
9
$PSVPSCALE
40
0.0
9
$OLESTARTUP
290
0
0
ENDSEC
0
SECTION
2
TABLES
0
TABLE
2
VPORT
5
24A
330
0
100
AcDbSymbolTable
70
1
0
VPORT
5
26B
330
24A
100
AcDbSymbolTableRecord
100
AcDbViewportTableRecord
2
*Active
70
0
10
0.0
20
0.0
11
1.0
21
1.0
12
0.000000000000000
22
0.000000000000000
13
0.0
23
0.0
14
10.0
24
10.0
15
10.0
25
10.0
16
0.0
26
0.0
36
1.0
17
0.0
27
0.0
37
0.0
40
210.000000000000
41
1.42857142857143
42
1.0
43
0.0
44
0.0
50
0.0
51
0.0000000000007958
71
0
72
100
73
1
74
3
75
0
76
0
77
0
78
1
281
0
65
1
110
0.0
120
0.0
130
0.0
111
1.0
121
0.0
131
0.0
112
0.0
122
1.0
132
0.0
79
0
146
0.0
0
ENDTAB
0
TABLE
2
LTYPE
5
247
330
0
100
AcDbSymbolTable
70
25
0
LTYPE
5
256
330
247
100
AcDbSymbolTableRecord
100
AcDbLinetypeTableRecord
2
ByBlock
70
0
3

72
65
73
0
40
0.0
0
LTYPE
5
257
330
247
100
AcDbSymbolTableRecord
100
AcDbLinetypeTableRecord
2
ByLayer
70
0
3

72
65
73
0
40
0.0
0
LTYPE
5
258
330
247
100
AcDbSymbolTableRecord
100
AcDbLinetypeTableRecord
2
Continuous
70
0
3
Solid line
72
65
73
0
40
0.0
0
LTYPE
5
273
330
247
100
AcDbSymbolTableRecord
100
AcDbLinetypeTableRecord
2
CENTER
70
0
3
Center ____ _ ____ _ ____ _ ____ _ ____ _ ____
72
65
73
4
40
2.0
49
1.25
74
0
49
-0.25
74
0
49
0.25
74
0
49
-0.25
74
0
0
LTYPE
5
274
330
247
100
AcDbSymbolTableRecord
100
AcDbLinetypeTableRecord
2
DASHDOT
70
0
3
Dashdot __ . __ . __ . __ . __ . __ . __ . __
72
65
73
4
40
1.0
49
0.5
74
0
49
-0.25
74
0
49
0.0
74
0
49
-0.25
74
0
0
LTYPE
5
275
330
247
100
AcDbSymbolTableRecord
100
AcDbLinetypeTableRecord
2
DASHED
70
0
3
Dashed __ __ __ __ __ __ __ __ __ __ __ __ __ _
72
65
73
2
40
0.75
49
0.5
74
0
49
-0.25
74
0
0
LTYPE
5
276
330
247
100
AcDbSymbolTableRecord
100
AcDbLinetypeTableRecord
2
HIDDEN
70
0
3
Hidden __ __ __ __ __ __ __ __ __ __ __ __ __ __
72
65
73
2
40
0.375
49
0.25
74
0
49
-0.125
74
0
0
LTYPE
5
277
330
247
100
AcDbSymbolTableRecord
100
AcDbLinetypeTableRecord
2
HIDDEN2
70
0
3
Hidden2 _ _ _ _ _ _ _ _ _ _ _ _ _ _ _ _ _
72
65
73
2
40
0.1875
49
0.125
74
0
49
-0.0625
74
0
0
LTYPE
5
278
330
247
100
AcDbSymbolTableRecord
100
AcDbLinetypeTableRecord
2
BORDER
70
0
3
Border __ __ . __ __ . __ __ . __ __ . __ __ .
72
65
73
6
40
1.75
49
0.5
74
0
49
-0.25
74
0
49
0.5
74
0
49
-0.25
74
0
49
0.0
74
0
49
-0.25
74
0
0
LTYPE
5
279
330
247
100
AcDbSymbolTableRecord
100
AcDbLinetypeTableRecord
2
BORDER2
70
0
3
Border2 __.__.__.__.__.__.__.__.__.__.__.
72
65
73
6
40
0.875
49
0.25
74
0
49
-0.125
74
0
49
0.25
74
0
49
-0.125
74
0
49
0.0
74
0
49
-0.125
74
0
0
LTYPE
5
27A
330
247
100
AcDbSymbolTableRecord
100
AcDbLinetypeTableRecord
2
BORDERX2
70
0
3
Borderx2  ____  ____  .  ____  ____  .  ___
72
65
73
6
40
3.5
49
1.0
74
0
49
-0.5
74
0
49
1.0
74
0
49
-0.5
74
0
49
0.0
74
0
49
-0.5
74
0
0
LTYPE
5
27B
330
247
100
AcDbSymbolTableRecord
100
AcDbLinetypeTableRecord
2
CENTER2
70
0
3
Center2  ___ _ ___ _ ___ _ ___ _ ___ _ ___
72
65
73
4
40
1.125
49
0.75
74
0
49
-0.125
74
0
49
0.125
74
0
49
-0.125
74
0
0
LTYPE
5
27C
330
247
100
AcDbSymbolTableRecord
100
AcDbLinetypeTableRecord
2
CENTERX2
70
0
3
Centerx2  ________  __  ________  __  _____
72
65
73
4
40
4.0
49
2.5
74
0
49
-0.5
74
0
49
0.5
74
0
49
-0.5
74
0
0
LTYPE
5
27D
330
247
100
AcDbSymbolTableRecord
100
AcDbLinetypeTableRecord
2
DASHDOT2
70
0
3
Dashdot2  _._._._._._._._._._._._._._._.
72
65
73
4
40
0.5
49
0.25
74
0
49
-0.125
74
0
49
0.0
74
0
49
-0.125
74
0
0
LTYPE
5
27E
330
247
100
AcDbSymbolTableRecord
100
AcDbLinetypeTableRecord
2
DASHDOTX2
70
0
3
Dashdotx2 ____  .  ____  .  ____  .  ___
72
65
73
4
40
2.0
49
1.0
74
0
49
-0.5
74
0
49
0.0
74
0
49
-0.5
74
0
0
LTYPE
5
27F
330
247
100
AcDbSymbolTableRecord
100
AcDbLinetypeTableRecord
2
DASHED2
70
0
3
Dashed2 _ _ _ _ _ _ _ _ _ _ _ _ _ _ _ _ _
72
65
73
2
40
0.375
49
0.25
74
0
49
-0.125
74
0
0
LTYPE
5
280
330
247
100
AcDbSymbolTableRecord
100
AcDbLinetypeTableRecord
2
DASHEDX2
70
0
3
Dashedx2 ____  ____  ____  ____  ____  ___
72
65
73
2
40
1.5
49
1.0
74
0
49
-0.5
74
0
0
LTYPE
5
281
330
247
100
AcDbSymbolTableRecord
100
AcDbLinetypeTableRecord
2
DIVIDE
70
0
3
Divide ____ . . ____ . . ____ . . ____ . . ____
72
65
73
6
40
1.25
49
0.5
74
0
49
-0.25
74
0
49
0.0
74
0
49
-0.25
74
0
49
0.0
74
0
49
-0.25
74
0
0
LTYPE
5
282
330
247
100
AcDbSymbolTableRecord
100
AcDbLinetypeTableRecord
2
DIVIDE2
70
0
3
Divide2 __..__..__..__..__..__..__..__.._
72
65
73
6
40
0.625
49
0.25
74
0
49
-0.125
74
0
49
0.0
74
0
49
-0.125
74
0
49
0.0
74
0
49
-0.125
74
0
0
LTYPE
5
283
330
247
100
AcDbSymbolTableRecord
100
AcDbLinetypeTableRecord
2
DIVIDEX2
70
0
3
Dividex2 ________  .  .  ________  .  .  _
72
65
73
6
40
2.5
49
1.0
74
0
49
-0.5
74
0
49
0.0
74
0
49
-0.5
74
0
49
0.0
74
0
49
-0.5
74
0
0
LTYPE
5
284
330
247
100
AcDbSymbolTableRecord
100
AcDbLinetypeTableRecord
2
DOT
70
0
3
Dot . . . . . . . . . . . . . . . . . . . . . . . .
72
65
73
2
40
0.25
49
0.0
74
0
49
-0.25
74
0
0
LTYPE
5
285
330
247
100
AcDbSymbolTableRecord
100
AcDbLinetypeTableRecord
2
DOT2
70
0
3
Dot2 ........................................
72
65
73
2
40
0.125
49
0.0
74
0
49
-0.125
74
0
0
LTYPE
5
286
330
247
100
AcDbSymbolTableRecord
100
AcDbLinetypeTableRecord
2
DOTX2
70
0
3
Dotx2 .  .  .  .  .  .  .  .  .  .  .  .  .  .
72
65
73
2
40
0.5
49
0.0
74
0
49
-0.5
74
0
0
LTYPE
5
287
330
247
100
AcDbSymbolTableRecord
100
AcDbLinetypeTableRecord
2
HIDDENX2
70
0
3
Hiddenx2 ____ ____ ____ ____ ____ ____ ____
72
65
73
2
40
0.75
49
0.5
74
0
49
-0.25
74
0
0
LTYPE
5
288
330
247
100
AcDbSymbolTableRecord
100
AcDbLinetypeTableRecord
2
PHANTOM
70
0
3
Phantom ______  __  __  ______  __  __  ______
72
65
73
6
40
2.5
49
1.25
74
0
49
-0.25
74
0
49
0.25
74
0
49
-0.25
74
0
49
0.25
74
0
49
-0.25
74
0
0
LTYPE
5
289
330
247
100
AcDbSymbolTableRecord
100
AcDbLinetypeTableRecord
2
PHANTOM2
70
0
3
Phantom2 ___ _ _ ___ _ _ ___ _ _ ___ _ _
72
65
73
6
40
1.25
49
0.625
74
0
49
-0.125
74
0
49
0.125
74
0
49
-0.125
74
0
49
0.125
74
0
49
-0.125
74
0
0
LTYPE
5
28A
330
247
100
AcDbSymbolTableRecord
100
AcDbLinetypeTableRecord
2
PHANTOMX2
70
0
3
Phantomx2 ____________    ____    ____   _
72
65
73
6
40
5.0
49
2.5
74
0
49
-0.5
74
0
49
0.5
74
0
49
-0.5
74
0
49
0.5
74
0
49
-0.5
74
0
0
ENDTAB
0
TABLE
2
LAYER
5
244
330
0
100
AcDbSymbolTable
70
6
0
LAYER
5
252
330
244
100
AcDbSymbolTableRecord
100
AcDbLayerTableRecord
2
0
70
0
62
7
6
Continuous
370
0
390
251
0
LAYER
5
23F
330
244
100
AcDbSymbolTableRecord
100
AcDbLayerTableRecord
2
Bemassung
70
0
 62
   7
6
Continuous
370
0
390
251
0
LAYER
5
240
330
244
100
AcDbSymbolTableRecord
100
AcDbLayerTableRecord
2
Rahmen
70
0
 62
   7
6
Continuous
370
0
390
251
0
LAYER
5
241
330
244
100
AcDbSymbolTableRecord
100
AcDbLayerTableRecord
2
Geo
70
0
 62
   7
6
Continuous
370
0
390
251
0
LAYER
5
33A
330
244
100
AcDbSymbolTableRecord
100
AcDbLayerTableRecord
2
Defpoints
70
0
62
7
6
Continuous
290
0
370
-3
390
251
0
LAYER
5
57E
330
244
100
AcDbSymbolTableRecord
100
AcDbLayerTableRecord
2
Text
70
0
 62
   7
6
Continuous
370
0
390
251
1001
AcAecLayerStandard
1000

1000

0
ENDTAB
0
TABLE
2
STYLE
5
245
330
0
100
AcDbSymbolTable
70
2
0
STYLE
5
253
330
245
100
AcDbSymbolTableRecord
100
AcDbTextStyleTableRecord
2
Standard
70
0
40
0.0
41
1.0
50
0.0
71
0
42
0.2
3
Arial
4

1001
ACAD
1000
Arial
1071
0
0
STYLE
5
132
330
245
100
AcDbSymbolTableRecord
100
AcDbTextStyleTableRecord
2
Beschriftung
70
0
40
0.0
41
1.0
50
0.0
71
0
42
0.2
3
Arial
4

1001
ACAD
1000
Arial
1071
0
1001
AcadAnnotative
1000
AnnotativeData
1070
1
1070
1
0
ENDTAB
0
TABLE
2
VIEW
5
248
330
0
100
AcDbSymbolTable
70
0
0
ENDTAB
0
TABLE
2
UCS
5
249
330
0
100
AcDbSymbolTable
70
0
0
ENDTAB
0
TABLE
2
APPID
5
24B
330
0
100
AcDbSymbolTable
70
13
0
APPID
5
254
330
24B
100
AcDbSymbolTableRecord
100
AcDbRegAppTableRecord
2
ACAD
70
0
0
APPID
5
26C
330
24B
100
AcDbSymbolTableRecord
100
AcDbRegAppTableRecord
2
VD_INVISIBLE_NOT_FOR_READ
70
0
0
APPID
5
26D
330
24B
100
AcDbSymbolTableRecord
100
AcDbRegAppTableRecord
2
VD_TEMPHATCH
70
0
0
APPID
5
26E
330
24B
100
AcDbSymbolTableRecord
100
AcDbRegAppTableRecord
2
VDEXTRAPARAM
70
0
0
APPID
5
26F
330
24B
100
AcDbSymbolTableRecord
100
AcDbRegAppTableRecord
2
PE_URL
70
0
0
APPID
5
270
330
24B
100
AcDbSymbolTableRecord
100
AcDbRegAppTableRecord
2
VD_UNKNOWN
70
0
0
APPID
5
28F
330
24B
100
AcDbSymbolTableRecord
100
AcDbRegAppTableRecord
2
AcadAnnotative
70
0
0
APPID
5
290
330
24B
100
AcDbSymbolTableRecord
100
AcDbRegAppTableRecord
2
ACAD_DSTYLE_DIMJAG
70
0
0
APPID
5
291
330
24B
100
AcDbSymbolTableRecord
100
AcDbRegAppTableRecord
2
ACAD_DSTYLE_DIMTALN
70
0
0
APPID
5
293
330
24B
100
AcDbSymbolTableRecord
100
AcDbRegAppTableRecord
2
ACAD_PSEXT
70
0
0
APPID
5
42A
330
24B
100
AcDbSymbolTableRecord
100
AcDbRegAppTableRecord
2
ACAD_MLEADERVER
70
0
0
APPID
5
532
330
24B
100
AcDbSymbolTableRecord
100
AcDbRegAppTableRecord
2
ACAD_EXEMPT_FROM_CAD_STANDARDS
70
0
0
APPID
5
57F
330
24B
100
AcDbSymbolTableRecord
100
AcDbRegAppTableRecord
2
AcAecLayerStandard
70
0
0
ENDTAB
0
TABLE
2
DIMSTYLE
5
24C
330
0
100
AcDbSymbolTable
70
3
100
AcDbDimStyleTable
71
2
340
27
340
269
0
DIMSTYLE
105
269
330
24C
100
AcDbSymbolTableRecord
100
AcDbDimStyleTableRecord
2
Standard
70
0
172
1
174
1
288
1
340
253
342
23C
0
DIMSTYLE
105
137
330
24C
100
AcDbSymbolTableRecord
100
AcDbDimStyleTableRecord
2
Beschriftung
70
0
41
2.5
42
0.625
44
1.25
73
0
74
0
77
1
140
2.5
147
0.625
172
1
174
1
271
2
288
1
340
253
342
23C
1001
AcadAnnotative
1000
AnnotativeData
1070
1
1070
1
1001
ACAD_DSTYLE_DIMJAG
1070
388
1040
1.5
1001
ACAD_DSTYLE_DIMTALN
1070
392
1070
0
0
DIMSTYLE
105
27
102
{ACAD_REACTORS
330
F10017
330
F1001C
330
F10026
330
F1002B
330
F10003
330
F1000D
330
F10008
330
F10012
330
F10021
102
}
330
24C
100
AcDbSymbolTableRecord
100
AcDbDimStyleTableRecord
2
BEM-ISBE
70
0
41
2.5
42
0.625
44
1.25
48
0.000000001
71
1
73
0
74
0
77
1
140
2.5
144
1.00000000000000
146
0.5
147
0.625
171
 3
172
 1
179
 3
271
 3
272
 3
274
 3
340
253
342
23C
1001
ACAD_DSTYLE_DIMJAG
1070
388
1040
1.5
1001
ACAD_DSTYLE_DIMTALN
1070
392
1070
1
0
ENDTAB
0
TABLE
2
BLOCK_RECORD
5
243
330
0
100
AcDbSymbolTable
70
5
0
BLOCK_RECORD
5
261
330
243
100
AcDbSymbolTableRecord
100
AcDbBlockTableRecord
2
*Model_Space
340
FD0
0
BLOCK_RECORD
5
25D
330
243
100
AcDbSymbolTableRecord
100
AcDbBlockTableRecord
2
*Paper_Space
340
FD1
0
BLOCK_RECORD
5
265
330
243
100
AcDbSymbolTableRecord
100
AcDbBlockTableRecord
2
*Paper_Space0
340
0
0
BLOCK_RECORD
5
23C
330
243
100
AcDbSymbolTableRecord
100
AcDbBlockTableRecord
2
VDDIM_DEFAULT
340
0
102
{BLKREFS
102
}
0
BLOCK_RECORD
5
23E
330
243
100
AcDbSymbolTableRecord
100
AcDbBlockTableRecord
2
VDDIM_NONE
340
0
0
BLOCK_RECORD
5
F10016
330
243
100
AcDbSymbolTableRecord
100
AcDbBlockTableRecord
2
*D7
340
0
0
BLOCK_RECORD
5
F1001B
330
243
100
AcDbSymbolTableRecord
100
AcDbBlockTableRecord
2
*D8
340
0
0
BLOCK_RECORD
5
F10025
330
243
100
AcDbSymbolTableRecord
100
AcDbBlockTableRecord
2
*D10
340
0
0
BLOCK_RECORD
5
F1002A
330
243
100
AcDbSymbolTableRecord
100
AcDbBlockTableRecord
2
*D11
340
0
0
BLOCK_RECORD
5
F10002
330
243
100
AcDbSymbolTableRecord
100
AcDbBlockTableRecord
2
*D3
340
0
0
BLOCK_RECORD
5
F1000C
330
243
100
AcDbSymbolTableRecord
100
AcDbBlockTableRecord
2
*D5
340
0
0
BLOCK_RECORD
5
F10007
330
243
100
AcDbSymbolTableRecord
100
AcDbBlockTableRecord
2
*D4
340
0
0
BLOCK_RECORD
5
F10011
330
243
100
AcDbSymbolTableRecord
100
AcDbBlockTableRecord
2
*D6
340
0
0
BLOCK_RECORD
5
F10020
330
243
100
AcDbSymbolTableRecord
100
AcDbBlockTableRecord
2
*D9
340
0
0
ENDTAB
0
ENDSEC
0
SECTION
2
BLOCKS
0
BLOCK
5
262
330
261
100
AcDbEntity
8
0
100
AcDbBlockBegin
2
*Model_Space
70
0
10
0.0
20
0.0
30
0.0
3
*Model_Space
1

0
ENDBLK
5
263
330
261
100
AcDbEntity
8
0
100
AcDbBlockEnd
0
BLOCK
5
25E
330
25D
100
AcDbEntity
67
1
8
0
100
AcDbBlockBegin
2
*Paper_Space
70
0
10
0.0
20
0.0
30
0.0
3
*Paper_Space
1

0
ENDBLK
5
25F
330
25D
100
AcDbEntity
67
1
8
0
100
AcDbBlockEnd
0
BLOCK
5
266
330
265
100
AcDbEntity
8
0
100
AcDbBlockBegin
2
*Paper_Space0
70
0
10
0.0
20
0.0
30
0.0
3
*Paper_Space0
1

0
VIEWPORT
5
296
102
{ACAD_XDICTIONARY
360
58E
102
}
330
265
100
AcDbEntity
8
0
60
1
100
AcDbViewport
10
0.0
20
0.0
30
0.0
40
10.0
41
10.0
69
0
12
0.0
22
0.0
13
0.0
23
0.0
14
1.0
24
1.0
15
0.0
25
0.0
16
0.0
26
0.0
36
1.0
17
0.0
27
0.0
37
0.0
42
0.0
43
0.0
44
0.0
45
10.0
50
0.0
51
0.0000000000007958
72
100
90
163872
1

281
0
71
0
74
0
110
0.0
120
0.0
130
0.0
111
1.0
121
0.0
131
0.0
112
0.0
122
1.0
132
0.0
79
0
146
0.0
1001
VD_INVISIBLE_NOT_FOR_READ
1000
VD_INVISIBLE_NOT_FOR_READ
0
VIEWPORT
5
297
102
{ACAD_XDICTIONARY
360
590
102
}
330
265
100
AcDbEntity
8
0
60
1
100
AcDbViewport
10
0.0
20
0.0
30
0.0
40
10.0
41
10.0
69
0
12
0.0
22
0.0
13
0.0
23
0.0
14
1.0
24
1.0
15
0.0
25
0.0
16
0.0
26
0.0
36
1.0
17
0.0
27
0.0
37
0.0
42
0.0
43
0.0
44
0.0
45
10.0
50
0.0
51
0.0000000000007958
72
100
90
163872
1

281
0
71
0
74
0
110
0.0
120
0.0
130
0.0
111
1.0
121
0.0
131
0.0
112
0.0
122
1.0
132
0.0
79
0
146
0.0
1001
VD_INVISIBLE_NOT_FOR_READ
1000
VD_INVISIBLE_NOT_FOR_READ
0
ENDBLK
5
267
330
265
100
AcDbEntity
8
0
100
AcDbBlockEnd
0
BLOCK
5
28B
330
23C
100
AcDbEntity
8
0
100
AcDbBlockBegin
2
VDDIM_DEFAULT
70
0
10
0.0
20
0.0
30
0.0
3
VDDIM_DEFAULT
1

0
LWPOLYLINE
5
23D
330
23C
100
AcDbEntity
8
0
6
Continuous
62
0
100
AcDbPolyline
90
4
70
0
43
0.0
10
0.0
20
0.0
10
-1.0
20
-0.1665
10
-1.0
20
0.1665
10
0.0
20
0.0
1001
VDEXTRAPARAM
1071
1
1071
0
1071
0
1040
1.0
1000

1000

1040
0.0
1040
0.0
0
HATCH
5
292
330
23C
100
AcDbEntity
8
0
6
Continuous
62
0
100
AcDbHatch
10
0.0
20
0.0
30
0.0
210
0.0
220
0.0
230
1.0
2
SOLID
70
1
71
0
91
1
92
2
72
0
73
1
93
3
10
0.0
20
0.0
10
-1.0
20
-0.1665
10
-1.0
20
0.1665
97
0
75
0
76
1
98
1
10
0.0
20
0.0
1001
VDEXTRAPARAM
1071
1
1071
0
1071
0
1040
1.0
1000

1000

1040
0.0
1040
0.0
1001
VD_TEMPHATCH
1000
VD_TEMPHATCH
0
ENDBLK
5
28C
330
23C
100
AcDbEntity
8
0
100
AcDbBlockEnd
0
BLOCK
5
28D
330
23E
100
AcDbEntity
8
0
100
AcDbBlockBegin
2
VDDIM_NONE
70
0
10
0.0
20
0.0
30
0.0
3
VDDIM_NONE
1

0
ENDBLK
5
28E
330
23E
100
AcDbEntity
8
0
100
AcDbBlockEnd
  0
BLOCK
  5
F1002F
330
F10016
100
AcDbEntity
  8
0
100
AcDbBlockBegin
  2
*D7
 70
     1
 10
0.0
 20
0.0
 30
0.0
  3
*D7
  1

  0
LINE
  5
F10030
330
F10016
100
AcDbEntity
  8
Bemassung
 62
     0
370
    -2
100
AcDbLine
10
-97.1519721577725
20
-17.2505800464037
30
0.000000000000000
11
-97.1519721577725
21
31.7494199535963
31
0.000000000000000
  0
LINE
  5
F10031
330
F10016
100
AcDbEntity
  8
Bemassung
 62
     0
370
    -2
100
AcDbLine
10
-55.1519721577725
20
9.34941995359629
30
0.000000000000000
11
-55.1519721577725
21
21.7494199535963
31
0.000000000000000
  0
LINE
  5
F10032
330
F10016
100
AcDbEntity
  8
Bemassung
 62
     0
370
    -2
100
AcDbLine
10
-97.1519721577725
20
19.7494199535963
30
0.000000000000000
11
-54.3758700696056
21
19.7494199535963
31
0.000000000000000
  0
INSERT
  5
F10033
330
F10016
100
AcDbEntity
  8
Bemassung
 62
     0
370
    -2
100
AcDbBlockReference
  2
VDDIM_DEFAULT
10
-97.1519721577725
20
19.7494199535963
30
0.000000000000000
 41
2.50000000000000
 42
2.50000000000000
 43
2.50000000000000
 50
180.000000000000
  0
INSERT
  5
F10034
330
F10016
100
AcDbEntity
  8
Bemassung
 62
     0
370
    -2
100
AcDbBlockReference
  2
VDDIM_DEFAULT
10
-55.1519721577725
20
19.7494199535963
30
0.000000000000000
 41
2.50000000000000
 42
2.50000000000000
 43
2.50000000000000
  0
MTEXT
  5
F10035
330
F10016
100
AcDbEntity
  8
Bemassung
 62
     0
100
AcDbMText
10
-76.1519721577725
20
20.4160866202630
30
0.000000000000000
 40
2.50000000000000
 41
0.0
 71
     8
 72
     1
  1
42
 11
1.00000000000000
 21
0.000000000000000
 31
0.0
 73
     1
 44
1.0
1001
ACAD
1000
MTEXTBEGIN
1070
73
1070
1
1070
44
1040
1.0
1070
74
1070
0
1000
MTEXTEND
  0
POINT
  5
F10036
330
F10016
100
AcDbEntity
  8
Bemassung
 62
     0
100
AcDbPoint
10
-97.1519721577725
20
-17.2505800464037
30
0.000000000000000
  0
POINT
  5
F10037
330
F10016
100
AcDbEntity
  8
Bemassung
 62
     0
100
AcDbPoint
10
-55.1519721577725
20
9.34941995359629
30
0.000000000000000
  0
ENDBLK
  5
F10038
330
F10016
100
AcDbEntity
  8
0
100
AcDbBlockEnd
  0
BLOCK
  5
F10039
330
F1001B
100
AcDbEntity
  8
0
100
AcDbBlockBegin
  2
*D8
 70
     1
 10
0.0
 20
0.0
 30
0.0
  3
*D8
  1

  0
LINE
  5
F1003A
330
F1001B
100
AcDbEntity
  8
Bemassung
 62
     0
370
    -2
100
AcDbLine
10
-55.1519721577725
20
9.34941995359629
30
0.000000000000000
11
-55.1519721577725
21
26.7494199535963
31
0.000000000000000
  0
LINE
  5
F1003B
330
F1001B
100
AcDbEntity
  8
Bemassung
 62
     0
370
    -2
100
AcDbLine
10
4.84802784222748
20
9.24941995359629
30
0.000000000000000
11
4.84802784222748
21
31.7494199535963
31
0.000000000000000
  0
LINE
  5
F1003C
330
F1001B
100
AcDbEntity
  8
Bemassung
 62
     0
370
    -2
100
AcDbLine
10
-55.1519721577725
20
24.7494199535963
30
0.000000000000000
11
47.6102088167054
21
24.7494199535963
31
0.000000000000000
  0
INSERT
  5
F1003D
330
F1001B
100
AcDbEntity
  8
Bemassung
 62
     0
370
    -2
100
AcDbBlockReference
  2
VDDIM_DEFAULT
10
-55.1519721577725
20
24.7494199535963
30
0.000000000000000
 41
2.50000000000000
 42
2.50000000000000
 43
2.50000000000000
 50
180.000000000000
  0
INSERT
  5
F1003E
330
F1001B
100
AcDbEntity
  8
Bemassung
 62
     0
370
    -2
100
AcDbBlockReference
  2
VDDIM_DEFAULT
10
4.84802784222748
20
24.7494199535963
30
0.000000000000000
 41
2.50000000000000
 42
2.50000000000000
 43
2.50000000000000
  0
MTEXT
  5
F1003F
330
F1001B
100
AcDbEntity
  8
Bemassung
 62
     0
100
AcDbMText
10
-25.1519721577725
20
25.4160866202630
30
0.000000000000000
 40
2.50000000000000
 41
0.0
 71
     8
 72
     1
  1
60
 11
1.00000000000000
 21
0.000000000000000
 31
0.0
 73
     1
 44
1.0
1001
ACAD
1000
MTEXTBEGIN
1070
73
1070
1
1070
44
1040
1.0
1070
74
1070
0
1000
MTEXTEND
  0
POINT
  5
F10040
330
F1001B
100
AcDbEntity
  8
Bemassung
 62
     0
100
AcDbPoint
10
-55.1519721577725
20
9.34941995359629
30
0.000000000000000
  0
POINT
  5
F10041
330
F1001B
100
AcDbEntity
  8
Bemassung
 62
     0
100
AcDbPoint
10
4.84802784222748
20
9.24941995359629
30
0.000000000000000
  0
ENDBLK
  5
F10042
330
F1001B
100
AcDbEntity
  8
0
100
AcDbBlockEnd
  0
BLOCK
  5
F10043
330
F10025
100
AcDbEntity
  8
0
100
AcDbBlockBegin
  2
*D10
 70
     1
 10
0.0
 20
0.0
 30
0.0
  3
*D10
  1

  0
LINE
  5
F10044
330
F10025
100
AcDbEntity
  8
Bemassung
 62
     0
370
    -2
100
AcDbLine
10
-74.1519721577725
20
-9.85058004640371
30
0.000000000000000
11
-74.1519721577725
21
-17.2505800464037
31
0.000000000000000
  0
LINE
  5
F10045
330
F10025
100
AcDbEntity
  8
Bemassung
 62
     0
370
    -2
100
AcDbLine
10
-97.1519721577725
20
-17.2505800464037
30
0.000000000000000
11
-97.1519721577725
21
31.7494199535963
31
0.000000000000000
  0
LINE
  5
F10046
330
F10025
100
AcDbEntity
  8
Bemassung
 62
     0
370
    -2
100
AcDbLine
10
-73.1693735498840
20
-15.2505800464037
30
0.000000000000000
11
-97.1519721577725
21
-15.2505800464037
31
0.000000000000000
  0
INSERT
  5
F10047
330
F10025
100
AcDbEntity
  8
Bemassung
 62
     0
370
    -2
100
AcDbBlockReference
  2
VDDIM_DEFAULT
10
-74.1519721577725
20
-15.2505800464037
30
0.000000000000000
 41
2.50000000000000
 42
2.50000000000000
 43
2.50000000000000
  0
INSERT
  5
F10048
330
F10025
100
AcDbEntity
  8
Bemassung
 62
     0
370
    -2
100
AcDbBlockReference
  2
VDDIM_DEFAULT
10
-97.1519721577725
20
-15.2505800464037
30
0.000000000000000
 41
2.50000000000000
 42
2.50000000000000
 43
2.50000000000000
 50
180.000000000000
  0
MTEXT
  5
F10049
330
F10025
100
AcDbEntity
  8
Bemassung
 62
     0
100
AcDbMText
10
-85.6519721577725
20
-14.5839133797370
30
0.000000000000000
 40
2.50000000000000
 41
0.0
 71
     8
 72
     1
  1
23
 11
1.00000000000000
 21
0.000000000000000
 31
0.0
 73
     1
 44
1.0
1001
ACAD
1000
MTEXTBEGIN
1070
73
1070
1
1070
44
1040
1.0
1070
74
1070
0
1000
MTEXTEND
  0
POINT
  5
F1004A
330
F10025
100
AcDbEntity
  8
Bemassung
 62
     0
100
AcDbPoint
10
-74.1519721577725
20
-9.85058004640371
30
0.000000000000000
  0
POINT
  5
F1004B
330
F10025
100
AcDbEntity
  8
Bemassung
 62
     0
100
AcDbPoint
10
-97.1519721577725
20
-17.2505800464037
30
0.000000000000000
  0
ENDBLK
  5
F1004C
330
F10025
100
AcDbEntity
  8
0
100
AcDbBlockEnd
  0
BLOCK
  5
F1004D
330
F1002A
100
AcDbEntity
  8
0
100
AcDbBlockBegin
  2
*D11
 70
     1
 10
0.0
 20
0.0
 30
0.0
  3
*D11
  1

  0
LINE
  5
F1004E
330
F1002A
100
AcDbEntity
  8
Bemassung
 62
     0
370
    -2
100
AcDbLine
10
4.84802784222748
20
9.24941995359629
30
0.000000000000000
11
4.84802784222748
21
31.7494199535963
31
0.000000000000000
  0
LINE
  5
F1004F
330
F1002A
100
AcDbEntity
  8
Bemassung
 62
     0
370
    -2
100
AcDbLine
10
-97.1519721577725
20
-17.2505800464037
30
0.000000000000000
11
-97.1519721577725
21
31.7494199535963
31
0.000000000000000
  0
LINE
  5
F10050
330
F1002A
100
AcDbEntity
  8
Bemassung
 62
     0
370
    -2
100
AcDbLine
10
6.26450116009283
20
29.7494199535963
30
0.000000000000000
11
-97.1519721577725
21
29.7494199535963
31
0.000000000000000
  0
INSERT
  5
F10051
330
F1002A
100
AcDbEntity
  8
Bemassung
 62
     0
370
    -2
100
AcDbBlockReference
  2
VDDIM_DEFAULT
10
4.84802784222748
20
29.7494199535963
30
0.000000000000000
 41
2.50000000000000
 42
2.50000000000000
 43
2.50000000000000
  0
INSERT
  5
F10052
330
F1002A
100
AcDbEntity
  8
Bemassung
 62
     0
370
    -2
100
AcDbBlockReference
  2
VDDIM_DEFAULT
10
-97.1519721577725
20
29.7494199535963
30
0.000000000000000
 41
2.50000000000000
 42
2.50000000000000
 43
2.50000000000000
 50
180.000000000000
  0
MTEXT
  5
F10053
330
F1002A
100
AcDbEntity
  8
Bemassung
 62
     0
100
AcDbMText
10
-46.1519721577725
20
30.4160866202630
30
0.000000000000000
 40
2.50000000000000
 41
0.0
 71
     8
 72
     1
  1
102
 11
1.00000000000000
 21
0.000000000000000
 31
0.0
 73
     1
 44
1.0
1001
ACAD
1000
MTEXTBEGIN
1070
73
1070
1
1070
44
1040
1.0
1070
74
1070
0
1000
MTEXTEND
  0
POINT
  5
F10054
330
F1002A
100
AcDbEntity
  8
Bemassung
 62
     0
100
AcDbPoint
10
4.84802784222748
20
9.24941995359629
30
0.000000000000000
  0
POINT
  5
F10055
330
F1002A
100
AcDbEntity
  8
Bemassung
 62
     0
100
AcDbPoint
10
-97.1519721577725
20
-17.2505800464037
30
0.000000000000000
  0
ENDBLK
  5
F10056
330
F1002A
100
AcDbEntity
  8
0
100
AcDbBlockEnd
  0
BLOCK
  5
F10057
330
F10002
100
AcDbEntity
  8
0
100
AcDbBlockBegin
  2
*D3
 70
     1
 10
0.0
 20
0.0
 30
0.0
  3
*D3
  1

 0
ARC
  5
F10058
330
F10002
100
AcDbEntity
  8
Bemassung
 62
     0
370
   -2
100
AcDbCircle
10
-97.1516675712821
20
9.23197020524504
30
0.000000000000000
 40
17.6658686564390
100
AcDbArc
 50
90.0000000000000
 51
113.501789678603
  0
LINE
  5
F10059
330
F10002
100
AcDbEntity
  8
Bemassung
 62
     0
370
    -2
100
AcDbLine
10
-97.1516675712821
20
9.23197020524504
30
0.000000000000000
11
-97.1516675712821
21
28.8978388616840
31
0.000000000000000
  0
LINE
  5
F1005A
330
F10002
100
AcDbEntity
  8
Bemassung
 62
     0
370
    -2
100
AcDbLine
10
-97.1516675712821
20
9.23197020524504
30
0.000000000000000
11
-97.8379964896093
21
28.8858589458525
31
0.000000000000000
  0
INSERT
  5
F1005B
330
F10002
100
AcDbEntity
  8
Bemassung
 62
     0
370
    -2
100
AcDbBlockReference
  2
VDDIM_DEFAULT
10
-97.1516675712821
20
26.8978388616840
30
0.000000000000000
 41
2.50000000000000
 42
2.50000000000000
 43
2.50000000000000
 50
179.837834591881
  0
INSERT
  5
F1005C
330
F10002
100
AcDbEntity
  8
Bemassung
 62
     0
370
    -2
100
AcDbBlockReference
  2
VDDIM_DEFAULT
10
-97.7681974962043
20
26.8870772918143
30
0.000000000000000
 41
2.50000000000000
 42
2.50000000000000
 43
2.50000000000000
 50
2.16216540812487
  0
MTEXT
  5
F1005D
330
F10002
100
AcDbEntity
  8
Bemassung
 62
     0
100
AcDbMText
10
-106.496763390770
20
24.2237045782634
30
0.000000000000000
 40
2.50000000000000
 41
0.0
 71
     8
 72
     1
  1
2°
 11
0.844819075554229
 21
0.535052081184345
 31
0.0
 73
     1
 44
1.0
1001
ACAD
1000
MTEXTBEGIN
1070
73
1070
1
1070
44
1040
1.0
1070
74
1070
0
1000
MTEXTEND
  0
POINT
  5
F1005E
330
F10002
100
AcDbEntity
  8
Bemassung
 62
     0
100
AcDbPoint
10
-97.1516675712821
20
9.23197020524504
30
0.000000000000000
  0
POINT
  5
F1005F
330
F10002
100
AcDbEntity
  8
Bemassung
 62
     0
100
AcDbPoint
10
-97.1516675712821
20
26.8978388616840
30
0.000000000000000
  0
POINT
  5
F10060
330
F10002
100
AcDbEntity
  8
Bemassung
 62
     0
100
AcDbPoint
10
-97.7681974962043
20
26.8870772918143
30
0.000000000000000
  0
POINT
  5
F10061
330
F10002
100
AcDbEntity
  8
Bemassung
 62
     0
100
AcDbPoint
10
-97.4599794911419
20
26.8951482643211
30
0.000000000000000
  0
ENDBLK
  5
F10062
330
F10002
100
AcDbEntity
  8
0
100
AcDbBlockEnd
  0
BLOCK
  5
F10063
330
F1000C
100
AcDbEntity
  8
0
100
AcDbBlockBegin
  2
*D5
 70
     1
 10
0.0
 20
0.0
 30
0.0
  3
*D5
  1

  0
LINE
  5
F10064
330
F1000C
100
AcDbEntity
  8
Bemassung
 62
     0
370
    -2
100
AcDbLine
10
-97.0116420579418
20
9.59674913882579
30
0.000000000000000
11
-110.504208450495
21
22.6263690474533
31
0.000000000000000
  0
INSERT
  5
F10065
330
F1000C
100
AcDbEntity
  8
Bemassung
 62
     0
370
    -2
100
AcDbBlockReference
  2
VDDIM_DEFAULT
10
-97.0116420579418
20
9.59674913882579
30
0.000000000000000
 41
2.50000000000000
 42
2.50000000000000
 43
2.50000000000000
 50
316.000000000000
  0
MTEXT
  5
F10066
330
F1000C
100
AcDbEntity
  8
Bemassung
 62
     0
100
AcDbMText
10
-104.205040061328
20
16.5433328434157
30
0.000000000000000
 40
2.50000000000000
 41
0.0
 71
     8
 72
     1
  1
R0.5
 11
0.719339800338652
 21
-0.694658370458996
 31
0.0
 73
     1
 44
1.0
1001
ACAD
1000
MTEXTBEGIN
1070
73
1070
1
1070
44
1040
1.0
1070
74
1070
0
1000
MTEXTEND
  0
POINT
  5
F10067
330
F1000C
100
AcDbEntity
  8
Bemassung
 62
     0
100
AcDbPoint
10
-97.0116420579418
20
9.59674913882579
30
0.000000000000000
  0
POINT
  5
F10068
330
F1000C
100
AcDbEntity
  8
Bemassung
 62
     0
100
AcDbPoint
10
-96.6519721577725
20
9.24941995359629
30
0.000000000000000
  0
ENDBLK
  5
F10069
330
F1000C
100
AcDbEntity
  8
0
100
AcDbBlockEnd
  0
BLOCK
  5
F1006A
330
F10007
100
AcDbEntity
  8
0
100
AcDbBlockBegin
  2
*D4
 70
     1
 10
0.0
 20
0.0
 30
0.0
  3
*D4
  1

  0
LINE
  5
F1006B
330
F10007
100
AcDbEntity
  8
Bemassung
 62
     0
370
    -2
100
AcDbLine
10
-96.6519721577725
20
-10.2505800464037
30
0.000000000000000
11
-109.151972157773
21
-10.2505800464037
31
0.000000000000000
  0
LINE
  5
F1006C
330
F10007
100
AcDbEntity
  8
Bemassung
 62
     0
370
    -2
100
AcDbLine
10
-96.6519721577725
20
9.74941995359629
30
0.000000000000000
11
-109.151972157773
21
9.74941995359629
31
0.000000000000000
  0
LINE
  5
F1006D
330
F10007
100
AcDbEntity
  8
Bemassung
 62
     0
370
    -2
100
AcDbLine
10
-107.151972157773
20
-10.2505800464037
30
0.000000000000000
11
-107.151972157773
21
9.74941995359629
31
0.000000000000000
  0
INSERT
  5
F1006E
330
F10007
100
AcDbEntity
  8
Bemassung
 62
     0
370
    -2
100
AcDbBlockReference
  2
VDDIM_DEFAULT
10
-107.151972157773
20
-10.2505800464037
30
0.000000000000000
 41
2.50000000000000
 42
2.50000000000000
 43
2.50000000000000
 50
270.000000000000
  0
INSERT
  5
F1006F
330
F10007
100
AcDbEntity
  8
Bemassung
 62
     0
370
    -2
100
AcDbBlockReference
  2
VDDIM_DEFAULT
10
-107.151972157773
20
9.74941995359629
30
0.000000000000000
 41
2.50000000000000
 42
2.50000000000000
 43
2.50000000000000
 50
90.0000000000000
  0
MTEXT
  5
F10070
330
F10007
100
AcDbEntity
  8
Bemassung
 62
     0
100
AcDbMText
10
-106.485305491106
20
-0.250580046403712
30
0.000000000000000
 40
2.50000000000000
 41
0.0
 71
     8
 72
     1
  1
20
 11
6.12323399573677e-017
 21
1.00000000000000
 31
0.0
 73
     1
 44
1.0
1001
ACAD
1000
MTEXTBEGIN
1070
73
1070
1
1070
44
1040
1.0
1070
74
1070
0
1000
MTEXTEND
  0
POINT
  5
F10071
330
F10007
100
AcDbEntity
  8
Bemassung
 62
     0
100
AcDbPoint
10
-96.6519721577725
20
-10.2505800464037
30
0.000000000000000
  0
POINT
  5
F10072
330
F10007
100
AcDbEntity
  8
Bemassung
 62
     0
100
AcDbPoint
10
-96.6519721577725
20
9.74941995359629
30
0.000000000000000
  0
ENDBLK
  5
F10073
330
F10007
100
AcDbEntity
  8
0
100
AcDbBlockEnd
  0
BLOCK
  5
F10074
330
F10011
100
AcDbEntity
  8
0
100
AcDbBlockBegin
  2
*D6
 70
     1
 10
0.0
 20
0.0
 30
0.0
  3
*D6
  1

  0
LINE
  5
F10075
330
F10011
100
AcDbEntity
  8
Bemassung
 62
     0
370
    -2
100
AcDbLine
10
-77.1519721577725
20
-9.85058004640371
30
0.000000000000000
11
-74.1519721577725
21
-9.85058004640371
31
0.000000000000000
  0
LINE
  5
F10076
330
F10011
100
AcDbEntity
  8
Bemassung
 62
     0
370
    -2
100
AcDbLine
10
-77.1519721577725
20
9.34941995359629
30
0.000000000000000
11
-74.1519721577725
21
9.34941995359629
31
0.000000000000000
  0
LINE
  5
F10077
330
F10011
100
AcDbEntity
  8
Bemassung
 62
     0
370
    -2
100
AcDbLine
10
-76.1519721577725
20
-40.8445475638051
30
0.000000000000000
11
-76.1519721577725
21
9.34941995359629
31
0.000000000000000
  0
INSERT
  5
F10078
330
F10011
100
AcDbEntity
  8
Bemassung
 62
     0
370
    -2
100
AcDbBlockReference
  2
VDDIM_DEFAULT
10
-76.1519721577725
20
-9.85058004640371
30
0.000000000000000
 41
2.50000000000000
 42
2.50000000000000
 43
2.50000000000000
 50
270.000000000000
  0
INSERT
  5
F10079
330
F10011
100
AcDbEntity
  8
Bemassung
 62
     0
370
    -2
100
AcDbBlockReference
  2
VDDIM_DEFAULT
10
-76.1519721577725
20
9.34941995359629
30
0.000000000000000
 41
2.50000000000000
 42
2.50000000000000
 43
2.50000000000000
 50
90.0000000000000
  0
MTEXT
  5
F1007A
330
F10011
100
AcDbEntity
  8
Bemassung
 62
     0
100
AcDbMText
10
-75.4853054911058
20
-18.0483698416583
30
0.000000000000000
 40
2.50000000000000
 41
0.0
 71
     8
 72
     1
  1
19.2
 11
6.12323399573677e-017
 21
1.00000000000000
 31
0.0
 73
     1
 44
1.0
1001
ACAD
1000
MTEXTBEGIN
1070
73
1070
1
1070
44
1040
1.0
1070
74
1070
0
1000
MTEXTEND
  0
POINT
  5
F1007B
330
F10011
100
AcDbEntity
  8
Bemassung
 62
     0
100
AcDbPoint
10
-77.1519721577725
20
-9.85058004640371
30
0.000000000000000
  0
POINT
  5
F1007C
330
F10011
100
AcDbEntity
  8
Bemassung
 62
     0
100
AcDbPoint
10
-77.1519721577725
20
9.34941995359629
30
0.000000000000000
  0
ENDBLK
  5
F1007D
330
F10011
100
AcDbEntity
  8
0
100
AcDbBlockEnd
  0
BLOCK
  5
F1007E
330
F10020
100
AcDbEntity
  8
0
100
AcDbBlockBegin
  2
*D9
 70
     1
 10
0.0
 20
0.0
 30
0.0
  3
*D9
  1

  0
LINE
  5
F1007F
330
F10020
100
AcDbEntity
  8
Bemassung
 62
     0
370
    -2
100
AcDbLine
10
4.34802784222748
20
-10.2505800464037
30
0.000000000000000
11
16.8480278422275
21
-10.2505800464037
31
0.000000000000000
  0
LINE
  5
F10080
330
F10020
100
AcDbEntity
  8
Bemassung
 62
     0
370
    -2
100
AcDbLine
10
4.34802784222748
20
9.74941995359629
30
0.000000000000000
11
16.8480278422275
21
9.74941995359629
31
0.000000000000000
  0
LINE
  5
F10081
330
F10020
100
AcDbEntity
  8
Bemassung
 62
     0
370
    -2
100
AcDbLine
10
14.8480278422275
20
-10.2505800464037
30
0.000000000000000
11
14.8480278422275
21
9.74941995359629
31
0.000000000000000
  0
INSERT
  5
F10082
330
F10020
100
AcDbEntity
  8
Bemassung
 62
     0
370
    -2
100
AcDbBlockReference
  2
VDDIM_DEFAULT
10
14.8480278422275
20
-10.2505800464037
30
0.000000000000000
 41
2.50000000000000
 42
2.50000000000000
 43
2.50000000000000
 50
270.000000000000
  0
INSERT
  5
F10083
330
F10020
100
AcDbEntity
  8
Bemassung
 62
     0
370
    -2
100
AcDbBlockReference
  2
VDDIM_DEFAULT
10
14.8480278422275
20
9.74941995359629
30
0.000000000000000
 41
2.50000000000000
 42
2.50000000000000
 43
2.50000000000000
 50
90.0000000000000
  0
MTEXT
  5
F10084
330
F10020
100
AcDbEntity
  8
Bemassung
 62
     0
100
AcDbMText
10
15.5146945088941
20
-0.250580046403712
30
0.000000000000000
 40
2.50000000000000
 41
0.0
 71
     8
 72
     1
  1
20h6
 11
6.12323399573677e-017
 21
1.00000000000000
 31
0.0
 73
     1
 44
1.0
  0
POINT
  5
F10085
330
F10020
100
AcDbEntity
  8
Bemassung
 62
     0
100
AcDbPoint
10
4.34802784222748
20
-10.2505800464037
30
0.000000000000000
  0
POINT
  5
F10086
330
F10020
100
AcDbEntity
  8
Bemassung
 62
     0
100
AcDbPoint
10
4.34802784222748
20
9.74941995359629
30
0.000000000000000
  0
ENDBLK
  5
F10087
330
F10020
100
AcDbEntity
  8
0
100
AcDbBlockEnd
0
ENDSEC
0
SECTION
2
ENTITIES
  0
DIMENSION
  5
F10017
330
261
100
AcDbEntity
  8
Bemassung
100
AcDbDimension
  2
*D7
10
-55.1519721577725
20
19.7494199535963
30
0.000000000000000
11
-76.1519721577725
21
20.4160866202630
31
0.000000000000000
 70
32
 1
42
 71
     8
  3
BEM-ISBE
100
AcDbAlignedDimension
13
-97.1519721577725
23
-17.2505800464037
33
0.000000000000000
14
-55.1519721577725
24
9.34941995359629
34
0.000000000000000
100
AcDbRotatedDimension
1001
ACAD
1000
DSTYLE
1002
{
1070
284
1070
8
1070
78
1070
8
1070
144
1040
1.00000000000000
1070
147
1040
0.625
1070
 72
1070
 0
1070
 71
1070
 0
1002
}
  0
DIMENSION
  5
F1001C
330
261
100
AcDbEntity
  8
Bemassung
100
AcDbDimension
  2
*D8
10
4.84802784222748
20
24.7494199535963
30
0.000000000000000
11
-25.1519721577725
21
25.4160866202630
31
0.000000000000000
 70
32
 1
60
 71
     8
  3
BEM-ISBE
100
AcDbAlignedDimension
13
-55.1519721577725
23
9.34941995359629
33
0.000000000000000
14
4.84802784222748
24
9.24941995359629
34
0.000000000000000
100
AcDbRotatedDimension
1001
ACAD
1000
DSTYLE
1002
{
1070
284
1070
8
1070
78
1070
8
1070
144
1040
1.00000000000000
1070
147
1040
0.625
1070
 72
1070
 0
1070
 71
1070
 0
1002
}
  0
DIMENSION
  5
F10026
330
261
100
AcDbEntity
  8
Bemassung
100
AcDbDimension
  2
*D10
10
-97.1519721577725
20
-15.2505800464037
30
0.000000000000000
11
-85.6519721577725
21
-14.5839133797370
31
0.000000000000000
 70
32
 1
23
 71
     8
  3
BEM-ISBE
100
AcDbAlignedDimension
13
-74.1519721577725
23
-9.85058004640371
33
0.000000000000000
14
-97.1519721577725
24
-17.2505800464037
34
0.000000000000000
100
AcDbRotatedDimension
1001
ACAD
1000
DSTYLE
1002
{
1070
284
1070
8
1070
78
1070
8
1070
144
1040
1.00000000000000
1070
147
1040
0.625
1070
 72
1070
 0
1070
 71
1070
 0
1002
}
  0
DIMENSION
  5
F1002B
330
261
100
AcDbEntity
  8
Bemassung
100
AcDbDimension
  2
*D11
10
-97.1519721577725
20
29.7494199535963
30
0.000000000000000
11
-46.1519721577725
21
30.4160866202630
31
0.000000000000000
 70
32
 1
102
 71
     8
  3
BEM-ISBE
100
AcDbAlignedDimension
13
4.84802784222748
23
9.24941995359629
33
0.000000000000000
14
-97.1519721577725
24
-17.2505800464037
34
0.000000000000000
100
AcDbRotatedDimension
1001
ACAD
1000
DSTYLE
1002
{
1070
284
1070
8
1070
78
1070
8
1070
144
1040
1.00000000000000
1070
147
1040
0.625
1070
 72
1070
 0
1070
 71
1070
 0
1002
}
  0
DIMENSION
  5
F10003
330
261
100
AcDbEntity
  8
Bemassung
100
AcDbDimension
  2
*D3
10
-97.1516675712821
20
9.23197020524504
30
0.000000000000000
11
-106.496763390770
21
24.2237045782634
31
0.000000000000000
 70
34
 1
2°
 71
     8
  3
BEM-ISBE
100
AcDb2LineAngularDimension
13
-97.1516675712821
23
9.23197020524504
33
0.000000000000000
14
-104.196422286764
24
25.4324129888622
34
0.000000000000000
15
-97.1516675712821
25
26.8978388616840
35
0.000000000000000
16
-97.4599794911419
26
26.8951482643211
36
0.000000000000000
1001
ACAD
1000
DSTYLE
1002
{
1070
284
1070
8
1070
79
1070
2
1070
147
1040
0.625
1070
 72
1070
 0
1070
 71
1070
 0
1002
}
  0
DIMENSION
  5
F1000D
330
261
100
AcDbEntity
  8
Bemassung
100
AcDbDimension
  2
*D5
10
-96.6519721577725
20
9.24941995359629
30
0.000000000000000
11
-104.205040061328
21
16.5433328434157
31
0.000000000000000
 70
164
 1
R0.5
 71
     8
  3
BEM-ISBE
100
AcDbRadialDimension
15
-97.0116420579418
25
9.59674913882579
35
0.000000000000000
40
0.0
1001
ACAD
1000
DSTYLE
1002
{
1070
284
1070
8
1070
78
1070
8
1070
144
1040
1.00000000000000
1070
147
1040
0.625
1070
 72
1070
 0
1070
 71
1070
 0
1002
}
  0
DIMENSION
  5
F10008
330
261
100
AcDbEntity
  8
Bemassung
100
AcDbDimension
  2
*D4
10
-107.151972157773
20
9.74941995359629
30
0.000000000000000
11
-106.485305491106
21
-0.250580046403712
31
0.000000000000000
 70
32
 1
20
 71
     8
  3
BEM-ISBE
100
AcDbAlignedDimension
13
-96.6519721577725
23
-10.2505800464037
33
0.000000000000000
14
-96.6519721577725
24
9.74941995359629
34
0.000000000000000
50
90.0000000000000
100
AcDbRotatedDimension
1001
ACAD
1000
DSTYLE
1002
{
1070
284
1070
8
1070
78
1070
8
1070
144
1040
1.00000000000000
1070
147
1040
0.625
1070
 72
1070
 0
1070
 71
1070
 0
1002
}
  0
DIMENSION
  5
F10012
330
261
100
AcDbEntity
  8
Bemassung
100
AcDbDimension
  2
*D6
10
-76.1519721577725
20
9.34941995359629
30
0.000000000000000
11
-75.4853054911058
21
-18.0483698416583
31
0.000000000000000
 70
32
 1
19.2
 71
     8
  3
BEM-ISBE
100
AcDbAlignedDimension
13
-77.1519721577725
23
-9.85058004640371
33
0.000000000000000
14
-77.1519721577725
24
9.34941995359629
34
0.000000000000000
50
90.0000000000000
100
AcDbRotatedDimension
1001
ACAD
1000
DSTYLE
1002
{
1070
284
1070
8
1070
78
1070
8
1070
144
1040
1.00000000000000
1070
147
1040
0.625
1070
 72
1070
 0
1070
 71
1070
 0
1002
}
  0
DIMENSION
  5
F10021
330
261
100
AcDbEntity
  8
Bemassung
100
AcDbDimension
  2
*D9
10
14.8480278422275
20
9.74941995359629
30
0.000000000000000
11
15.5146945088941
21
-0.250580046403712
31
0.000000000000000
 70
32
 1
20h6
 71
     8
  3
BEM-ISBE
100
AcDbAlignedDimension
13
4.34802784222748
23
-10.2505800464037
33
0.000000000000000
14
4.34802784222748
24
9.74941995359629
34
0.000000000000000
50
90.0000000000000
100
AcDbRotatedDimension
1001
ACAD
1000
DSTYLE
1002
{
1070
284
1070
8
1070
78
1070
8
1070
144
1040
1.00000000000000
1070
147
1040
0.625
1070
 72
1070
 0
1070
 71
1070
 0
1002
}
  0
LINE
  5
F10088
330
F10089
100
AcDbEntity
8
Geo
100
AcDbLine
10
-96.8205296197503
20
-0.250580046403712
30
0.000000000000000
11
-97.1516675712821
21
9.23197020524504
31
0.000000000000000
  0
ARC
  5
F1008A
330
F1008B
100
AcDbEntity
8
Geo
100
AcDbCircle
10
-96.6519721577725
20
9.24941995359629
30
0.000000000000000
 40
0.500000000000000
100
AcDbArc
 50
90.0000000000000
 51
182.000000000000
  0
LINE
  5
F1008C
330
F1008D
100
AcDbEntity
8
Geo
100
AcDbLine
10
-96.6519721577725
20
9.74941995359629
30
0.000000000000000
11
-74.1519721577725
21
9.74941995359629
31
0.000000000000000
  0
LINE
  5
F1008E
330
F1008F
100
AcDbEntity
8
Geo
100
AcDbLine
10
-74.1519721577725
20
9.74941995359629
30
0.000000000000000
11
-74.1519721577725
21
9.34941995359629
31
0.000000000000000
  0
LINE
  5
F10090
330
F10091
100
AcDbEntity
8
Geo
100
AcDbLine
10
-74.1519721577725
20
9.34941995359629
30
0.000000000000000
11
-55.1519721577725
21
9.34941995359629
31
0.000000000000000
  0
LINE
  5
F10092
330
F10093
100
AcDbEntity
8
Geo
100
AcDbLine
10
-55.1519721577725
20
9.34941995359629
30
0.000000000000000
11
-55.1519721577725
21
9.74941995359629
31
0.000000000000000
  0
LINE
  5
F10094
330
F10095
100
AcDbEntity
8
Geo
100
AcDbLine
10
-55.1519721577725
20
9.74941995359629
30
0.000000000000000
11
4.34802784222748
21
9.74941995359629
31
0.000000000000000
  0
LINE
  5
F10096
330
F10097
100
AcDbEntity
8
Geo
100
AcDbLine
10
4.34802784222748
20
9.74941995359629
30
0.000000000000000
11
4.84802784222748
21
9.24941995359629
31
0.000000000000000
  0
LINE
  5
F10098
330
F10099
100
AcDbEntity
8
Geo
100
AcDbLine
10
-93.9519721577725
20
9.74630598396514
30
0.000000000000000
11
-93.8519721577725
21
9.74850418529679
31
0.000000000000000
  0
LINE
  5
F1009A
330
F1009B
100
AcDbEntity
8
Geo
100
AcDbLine
10
-93.8519721577725
20
9.74850418529679
30
0.000000000000000
11
-93.7519721577725
21
9.73589075723907
31
0.000000000000000
  0
LINE
  5
F1009C
330
F1009D
100
AcDbEntity
8
Geo
100
AcDbLine
10
-93.7519721577725
20
9.73589075723907
30
0.000000000000000
11
-93.6519721577725
21
9.70848438404521
31
0.000000000000000
  0
LINE
  5
F1009E
330
F1009F
100
AcDbEntity
8
Geo
100
AcDbLine
10
-93.6519721577725
20
9.70848438404521
30
0.000000000000000
11
-93.5519721577725
21
9.66632566273723
31
0.000000000000000
  0
LINE
  5
F100A0
330
F100A1
100
AcDbEntity
8
Geo
100
AcDbLine
10
-93.5519721577725
20
9.66632566273723
30
0.000000000000000
11
-93.4519721577725
21
9.60947704296961
31
0.000000000000000
  0
LINE
  5
F100A2
330
F100A3
100
AcDbEntity
8
Geo
100
AcDbLine
10
-93.4519721577725
20
9.60947704296961
30
0.000000000000000
11
-93.3519721577725
21
9.53802273452275
31
0.000000000000000
  0
LINE
  5
F100A4
330
F100A5
100
AcDbEntity
8
Geo
100
AcDbLine
10
-93.3519721577725
20
9.53802273452275
30
0.000000000000000
11
-93.2519721577725
21
9.45206858256312
31
0.000000000000000
  0
LINE
  5
F100A6
330
F100A7
100
AcDbEntity
8
Geo
100
AcDbLine
10
-93.2519721577725
20
9.45206858256312
30
0.000000000000000
11
-93.1519721577725
21
9.35174191085495
31
0.000000000000000
  0
LINE
  5
F100A8
330
F100A9
100
AcDbEntity
8
Geo
100
AcDbLine
10
-93.1519721577725
20
9.35174191085495
30
0.000000000000000
11
-93.0519721577725
21
9.23719133315574
31
0.000000000000000
  0
LINE
  5
F100AA
330
F100AB
100
AcDbEntity
8
Geo
100
AcDbLine
10
-93.0519721577725
20
9.23719133315574
30
0.000000000000000
11
-92.9519721577725
21
9.10858653307489
31
0.000000000000000
  0
LINE
  5
F100AC
330
F100AD
100
AcDbEntity
8
Geo
100
AcDbLine
10
-92.9519721577725
20
9.10858653307489
30
0.000000000000000
11
-92.8519721577725
21
8.96611801272165
31
0.000000000000000
  0
LINE
  5
F100AE
330
F100AF
100
AcDbEntity
8
Geo
100
AcDbLine
10
-92.8519721577725
20
8.96611801272165
30
0.000000000000000
11
-92.7519721577725
21
8.80999681051454
31
0.000000000000000
  0
LINE
  5
F100B0
330
F100B1
100
AcDbEntity
8
Geo
100
AcDbLine
10
-92.7519721577725
20
8.80999681051454
30
0.000000000000000
11
-92.6519721577725
21
8.64045418857051
31
0.000000000000000
  0
LINE
  5
F100B2
330
F100B3
100
AcDbEntity
8
Geo
100
AcDbLine
10
-92.6519721577725
20
8.64045418857051
30
0.000000000000000
11
-92.5519721577725
21
8.45774129013666
31
0.000000000000000
  0
LINE
  5
F100B4
330
F100B5
100
AcDbEntity
8
Geo
100
AcDbLine
10
-92.5519721577725
20
8.45774129013666
30
0.000000000000000
11
-92.4519721577725
21
8.26212876757210
31
0.000000000000000
  0
LINE
  5
F100B6
330
F100B7
100
AcDbEntity
8
Geo
100
AcDbLine
10
-92.4519721577725
20
8.26212876757210
30
0.000000000000000
11
-92.3519721577725
21
8.05390638143099
31
0.000000000000000
  0
LINE
  5
F100B8
330
F100B9
100
AcDbEntity
8
Geo
100
AcDbLine
10
-92.3519721577725
20
8.05390638143099
30
0.000000000000000
11
-92.2519721577725
21
7.83338257124067
31
0.000000000000000
  0
LINE
  5
F100BA
330
F100BB
100
AcDbEntity
8
Geo
100
AcDbLine
10
-92.2519721577725
20
7.83338257124067
30
0.000000000000000
11
-92.1519721577725
21
7.60088399861056
31
0.000000000000000
  0
LINE
  5
F100BC
330
F100BD
100
AcDbEntity
8
Geo
100
AcDbLine
10
-92.1519721577725
20
7.60088399861056
30
0.000000000000000
11
-92.0519721577725
21
7.35675506334884
31
0.000000000000000
  0
LINE
  5
F100BE
330
F100BF
100
AcDbEntity
8
Geo
100
AcDbLine
10
-92.0519721577725
20
7.35675506334884
30
0.000000000000000
11
-91.9519721577725
21
7.10135739330350
31
0.000000000000000
  0
LINE
  5
F100C0
330
F100C1
100
AcDbEntity
8
Geo
100
AcDbLine
10
-91.9519721577725
20
7.10135739330350
30
0.000000000000000
11
-91.8519721577725
21
6.83506930868343
31
0.000000000000000
  0
LINE
  5
F100C2
330
F100C3
100
AcDbEntity
8
Geo
100
AcDbLine
10
-91.8519721577725
20
6.83506930868343
30
0.000000000000000
11
-91.7519721577725
21
6.55828526165336
31
0.000000000000000
  0
LINE
  5
F100C4
330
F100C5
100
AcDbEntity
8
Geo
100
AcDbLine
10
-91.7519721577725
20
6.55828526165336
30
0.000000000000000
11
-91.6519721577725
21
6.27141525203230
31
0.000000000000000
  0
LINE
  5
F100C6
330
F100C7
100
AcDbEntity
8
Geo
100
AcDbLine
10
-91.6519721577725
20
6.27141525203230
30
0.000000000000000
11
-91.5519721577725
21
5.97488421996148
31
0.000000000000000
  0
LINE
  5
F100C8
330
F100C9
100
AcDbEntity
8
Geo
100
AcDbLine
10
-91.5519721577725
20
5.97488421996148
30
0.000000000000000
11
-91.4519721577725
21
5.66913141644105
31
0.000000000000000
  0
LINE
  5
F100CA
330
F100CB
100
AcDbEntity
8
Geo
100
AcDbLine
10
-91.4519721577725
20
5.66913141644105
30
0.000000000000000
11
-91.3519721577725
21
5.35460975266824
31
0.000000000000000
  0
LINE
  5
F100CC
330
F100CD
100
AcDbEntity
8
Geo
100
AcDbLine
10
-91.3519721577725
20
5.35460975266824
30
0.000000000000000
11
-91.2519721577725
21
5.03178512914061
31
0.000000000000000
  0
LINE
  5
F100CE
330
F100CF
100
AcDbEntity
8
Geo
100
AcDbLine
10
-91.2519721577725
20
5.03178512914061
30
0.000000000000000
11
-91.1519721577725
21
4.70113574551831
31
0.000000000000000
  0
LINE
  5
F100D0
330
F100D1
100
AcDbEntity
8
Geo
100
AcDbLine
10
-91.1519721577725
20
4.70113574551831
30
0.000000000000000
11
-91.0519721577725
21
4.36315139226761
31
0.000000000000000
  0
LINE
  5
F100D2
330
F100D3
100
AcDbEntity
8
Geo
100
AcDbLine
10
-91.0519721577725
20
4.36315139226761
30
0.000000000000000
11
-90.9519721577725
21
4.01833272513495
31
0.000000000000000
  0
LINE
  5
F100D4
330
F100D5
100
AcDbEntity
8
Geo
100
AcDbLine
10
-90.9519721577725
20
4.01833272513495
30
0.000000000000000
11
-90.8519721577725
21
3.66719052352629
31
0.000000000000000
  0
LINE
  5
F100D6
330
F100D7
100
AcDbEntity
8
Geo
100
AcDbLine
10
-90.8519721577725
20
3.66719052352629
30
0.000000000000000
11
-90.7519721577725
21
3.31024493389033
31
0.000000000000000
  0
LINE
  5
F100D8
330
F100D9
100
AcDbEntity
8
Geo
100
AcDbLine
10
-90.7519721577725
20
3.31024493389033
30
0.000000000000000
11
-90.6519721577725
21
2.94802469922624
31
0.000000000000000
  0
LINE
  5
F100DA
330
F100DB
100
AcDbEntity
8
Geo
100
AcDbLine
10
-90.6519721577725
20
2.94802469922624
30
0.000000000000000
11
-90.5519721577725
21
2.58106637585748
31
0.000000000000000
  0
LINE
  5
F100DC
330
F100DD
100
AcDbEntity
8
Geo
100
AcDbLine
10
-90.5519721577725
20
2.58106637585748
30
0.000000000000000
11
-90.4519721577725
21
2.20991353863161
31
0.000000000000000
  0
LINE
  5
F100DE
330
F100DF
100
AcDbEntity
8
Geo
100
AcDbLine
10
-90.4519721577725
20
2.20991353863161
30
0.000000000000000
11
-90.3519721577725
21
1.83511597572367
31
0.000000000000000
  0
LINE
  5
F100E0
330
F100E1
100
AcDbEntity
8
Geo
100
AcDbLine
10
-90.3519721577725
20
1.83511597572367
30
0.000000000000000
11
-90.2519721577725
21
1.45722887423573
31
0.000000000000000
  0
LINE
  5
F100E2
330
F100E3
100
AcDbEntity
8
Geo
100
AcDbLine
10
-90.2519721577725
20
1.45722887423573
30
0.000000000000000
11
-90.1519721577725
21
1.07681199779898
31
0.000000000000000
  0
LINE
  5
F100E4
330
F100E5
100
AcDbEntity
8
Geo
100
AcDbLine
10
-90.1519721577725
20
1.07681199779898
30
0.000000000000000
11
-90.0519721577725
21
0.694428857396702
31
0.000000000000000
  0
LINE
  5
F100E6
330
F100E7
100
AcDbEntity
8
Geo
100
AcDbLine
10
-90.0519721577725
20
0.694428857396702
30
0.000000000000000
11
-89.9519721577725
21
0.310645876636201
31
0.000000000000000
  0
LINE
  5
F100E8
330
F100E9
100
AcDbEntity
8
Geo
100
AcDbLine
10
-89.9519721577725
20
0.310645876636201
30
0.000000000000000
11
-89.8519721577725
21
-0.0739684472936443
31
0.000000000000000
  0
LINE
  5
F100EA
330
F100EB
100
AcDbEntity
8
Geo
100
AcDbLine
10
-89.8519721577725
20
-0.0739684472936443
30
0.000000000000000
11
-89.7519721577725
21
-0.458844385736505
31
0.000000000000000
  0
LINE
  5
F100EC
330
F100ED
100
AcDbEntity
8
Geo
100
AcDbLine
10
-89.7519721577725
20
-0.458844385736505
30
0.000000000000000
11
-89.6519721577725
21
-0.843411822506840
31
0.000000000000000
  0
LINE
  5
F100EE
330
F100EF
100
AcDbEntity
8
Geo
100
AcDbLine
10
-89.6519721577725
20
-0.843411822506840
30
0.000000000000000
11
-89.5519721577725
21
-1.22710109840220
31
0.000000000000000
  0
LINE
  5
F100F0
330
F100F1
100
AcDbEntity
8
Geo
100
AcDbLine
10
-89.5519721577725
20
-1.22710109840220
30
0.000000000000000
11
-89.4519721577725
21
-1.60934385503860
31
0.000000000000000
  0
LINE
  5
F100F2
330
F100F3
100
AcDbEntity
8
Geo
100
AcDbLine
10
-89.4519721577725
20
-1.60934385503860
30
0.000000000000000
11
-89.3519721577725
21
-1.98957387675900
31
0.000000000000000
  0
LINE
  5
F100F4
330
F100F5
100
AcDbEntity
8
Geo
100
AcDbLine
10
-89.3519721577725
20
-1.98957387675900
30
0.000000000000000
11
-89.2519721577725
21
-2.36722792936775
31
0.000000000000000
  0
LINE
  5
F100F6
330
F100F7
100
AcDbEntity
8
Geo
100
AcDbLine
10
-89.2519721577725
20
-2.36722792936775
30
0.000000000000000
11
-89.1519721577725
21
-2.74174659444863
31
0.000000000000000
  0
LINE
  5
F100F8
330
F100F9
100
AcDbEntity
8
Geo
100
AcDbLine
10
-89.1519721577725
20
-2.74174659444863
30
0.000000000000000
11
-89.0519721577725
21
-3.11257509803054
31
0.000000000000000
  0
LINE
  5
F100FA
330
F100FB
100
AcDbEntity
8
Geo
100
AcDbLine
10
-89.0519721577725
20
-3.11257509803054
30
0.000000000000000
11
-88.9519721577725
21
-3.47916413237341
31
0.000000000000000
  0
LINE
  5
F100FC
330
F100FD
100
AcDbEntity
8
Geo
100
AcDbLine
10
-88.9519721577725
20
-3.47916413237341
30
0.000000000000000
11
-88.8519721577725
21
-3.84097066965698
31
0.000000000000000
  0
LINE
  5
F100FE
330
F100FF
100
AcDbEntity
8
Geo
100
AcDbLine
10
-88.8519721577725
20
-3.84097066965698
30
0.000000000000000
11
-88.7519721577725
21
-4.19745876636716
31
0.000000000000000
  0
LINE
  5
F10100
330
F10101
100
AcDbEntity
8
Geo
100
AcDbLine
10
-88.7519721577725
20
-4.19745876636716
30
0.000000000000000
11
-88.6519721577725
21
-4.54810035718837
31
0.000000000000000
  0
LINE
  5
F10102
330
F10103
100
AcDbEntity
8
Geo
100
AcDbLine
10
-88.6519721577725
20
-4.54810035718837
30
0.000000000000000
11
-88.5519721577725
21
-4.89237603722601
31
0.000000000000000
  0
LINE
  5
F10104
330
F10105
100
AcDbEntity
8
Geo
100
AcDbLine
10
-88.5519721577725
20
-4.89237603722601
30
0.000000000000000
11
-88.4519721577725
21
-5.22977583140010
31
0.000000000000000
  0
LINE
  5
F10106
330
F10107
100
AcDbEntity
8
Geo
100
AcDbLine
10
-88.4519721577725
20
-5.22977583140010
30
0.000000000000000
11
-88.3519721577725
21
-5.55979994987076
31
0.000000000000000
  0
LINE
  5
F10108
330
F10109
100
AcDbEntity
8
Geo
100
AcDbLine
10
-88.3519721577725
20
-5.55979994987076
30
0.000000000000000
11
-88.2519721577725
21
-5.88195952837609
31
0.000000000000000
  0
LINE
  5
F1010A
330
F1010B
100
AcDbEntity
8
Geo
100
AcDbLine
10
-88.2519721577725
20
-5.88195952837609
30
0.000000000000000
11
-88.1519721577725
21
-6.19577735238622
31
0.000000000000000
  0
LINE
  5
F1010C
330
F1010D
100
AcDbEntity
8
Geo
100
AcDbLine
10
-88.1519721577725
20
-6.19577735238622
30
0.000000000000000
11
-88.0519721577725
21
-6.50078856400042
31
0.000000000000000
  0
LINE
  5
F1010E
330
F1010F
100
AcDbEntity
8
Geo
100
AcDbLine
10
-88.0519721577725
20
-6.50078856400042
30
0.000000000000000
11
-87.9519721577725
21
-6.79654135054051
31
0.000000000000000
  0
LINE
  5
F10110
330
F10111
100
AcDbEntity
8
Geo
100
AcDbLine
10
-87.9519721577725
20
-6.79654135054051
30
0.000000000000000
11
-87.8519721577725
21
-7.08259761382035
31
0.000000000000000
  0
LINE
  5
F10112
330
F10113
100
AcDbEntity
8
Geo
100
AcDbLine
10
-87.8519721577725
20
-7.08259761382035
30
0.000000000000000
11
-87.7519721577725
21
-7.35853361910003
31
0.000000000000000
  0
LINE
  5
F10114
330
F10115
100
AcDbEntity
8
Geo
100
AcDbLine
10
-87.7519721577725
20
-7.35853361910003
30
0.000000000000000
11
-87.6519721577725
21
-7.62394062276356
31
0.000000000000000
  0
LINE
  5
F10116
330
F10117
100
AcDbEntity
8
Geo
100
AcDbLine
10
-87.6519721577725
20
-7.62394062276356
30
0.000000000000000
11
-87.5519721577725
21
-7.87842547779023
31
0.000000000000000
  0
LINE
  5
F10118
330
F10119
100
AcDbEntity
8
Geo
100
AcDbLine
10
-87.5519721577725
20
-7.87842547779023
30
0.000000000000000
11
-87.4519721577725
21
-8.12161121612272
31
0.000000000000000
  0
LINE
  5
F1011A
330
F1011B
100
AcDbEntity
8
Geo
100
AcDbLine
10
-87.4519721577725
20
-8.12161121612272
30
0.000000000000000
11
-87.3519721577725
21
-8.35313760706933
31
0.000000000000000
  0
LINE
  5
F1011C
330
F1011D
100
AcDbEntity
8
Geo
100
AcDbLine
10
-87.3519721577725
20
-8.35313760706933
30
0.000000000000000
11
-87.2519721577725
21
-8.57266169091325
31
0.000000000000000
  0
LINE
  5
F1011E
330
F1011F
100
AcDbEntity
8
Geo
100
AcDbLine
10
-87.2519721577725
20
-8.57266169091325
30
0.000000000000000
11
-87.1519721577725
21
-8.77985828693828
31
0.000000000000000
  0
LINE
  5
F10120
330
F10121
100
AcDbEntity
8
Geo
100
AcDbLine
10
-87.1519721577725
20
-8.77985828693828
30
0.000000000000000
11
-87.0519721577725
21
-8.97442047511854
31
0.000000000000000
  0
LINE
  5
F10122
330
F10123
100
AcDbEntity
8
Geo
100
AcDbLine
10
-87.0519721577725
20
-8.97442047511854
30
0.000000000000000
11
-86.9519721577725
21
-9.15606005075870
31
0.000000000000000
  0
LINE
  5
F10124
330
F10125
100
AcDbEntity
8
Geo
100
AcDbLine
10
-86.9519721577725
20
-9.15606005075870
30
0.000000000000000
11
-86.8519721577725
21
-9.32450795141120
31
0.000000000000000
  0
LINE
  5
F10126
330
F10127
100
AcDbEntity
8
Geo
100
AcDbLine
10
-86.8519721577725
20
-9.32450795141120
30
0.000000000000000
11
-86.7519721577725
21
-9.47951465543806
31
0.000000000000000
  0
LINE
  5
F10128
330
F10129
100
AcDbEntity
8
Geo
100
AcDbLine
10
-86.7519721577725
20
-9.47951465543806
30
0.000000000000000
11
-86.6519721577725
21
-9.62085055162690
31
0.000000000000000
  0
LINE
  5
F1012A
330
F1012B
100
AcDbEntity
8
Geo
100
AcDbLine
10
-86.6519721577725
20
-9.62085055162690
30
0.000000000000000
11
-86.5519721577725
21
-9.74830627931378
31
0.000000000000000
  0
LINE
  5
F1012C
330
F1012D
100
AcDbEntity
8
Geo
100
AcDbLine
10
-86.5519721577725
20
-9.74830627931378
30
0.000000000000000
11
-86.4519721577725
21
-9.86169303850877
31
0.000000000000000
  0
LINE
  5
F1012E
330
F1012F
100
AcDbEntity
8
Geo
100
AcDbLine
10
-86.4519721577725
20
-9.86169303850877
30
0.000000000000000
11
-86.3519721577725
21
-9.96084286956519
31
0.000000000000000
  0
LINE
  5
F10130
330
F10131
100
AcDbEntity
8
Geo
100
AcDbLine
10
-86.3519721577725
20
-9.96084286956519
30
0.000000000000000
11
-86.2519721577725
21
-10.0456089019779
31
0.000000000000000
  0
LINE
  5
F10132
330
F10133
100
AcDbEntity
8
Geo
100
AcDbLine
10
-86.2519721577725
20
-10.0456089019779
30
0.000000000000000
11
-86.1519721577725
21
-10.1158655719426
31
0.000000000000000
  0
LINE
  5
F10134
330
F10135
100
AcDbEntity
8
Geo
100
AcDbLine
10
-86.1519721577725
20
-10.1158655719426
30
0.000000000000000
11
-86.0519721577725
21
-10.1715088083529
31
0.000000000000000
  0
LINE
  5
F10136
330
F10137
100
AcDbEntity
8
Geo
100
AcDbLine
10
-86.0519721577725
20
-10.1715088083529
30
0.000000000000000
11
-85.9519721577725
21
-10.2124561869610
31
0.000000000000000
  0
LINE
  5
F10138
330
F10139
100
AcDbEntity
8
Geo
100
AcDbLine
10
-85.9519721577725
20
-10.2124561869610
30
0.000000000000000
11
-85.8519721577725
21
-10.2386470524729
31
0.000000000000000
  0
LINE
  5
F1013A
330
F1013B
100
AcDbEntity
8
Geo
100
AcDbLine
10
-85.8519721577725
20
-10.2386470524729
30
0.000000000000000
11
-85.7519721577725
21
-10.2500426083962
31
0.000000000000000
  0
LINE
  5
F1013C
330
F1013D
100
AcDbEntity
8
Geo
100
AcDbLine
10
-77.5519721577725
20
9.74941995359629
30
0.000000000000000
11
-77.4519721577725
21
9.74913560085109
31
0.000000000000000
  0
LINE
  5
F1013E
330
F1013F
100
AcDbEntity
8
Geo
100
AcDbLine
10
-77.4519721577725
20
9.74913560085109
30
0.000000000000000
11
-77.3519721577725
21
9.74278341247042
31
0.000000000000000
  0
LINE
  5
F10140
330
F10141
100
AcDbEntity
8
Geo
100
AcDbLine
10
-77.3519721577725
20
9.74278341247042
30
0.000000000000000
11
-77.2519721577725
21
9.72863186265653
31
0.000000000000000
  0
LINE
  5
F10142
330
F10143
100
AcDbEntity
8
Geo
100
AcDbLine
10
-77.2519721577725
20
9.72863186265653
30
0.000000000000000
11
-77.1519721577725
21
9.70739505318603
31
0.000000000000000
  0
LINE
  5
F10144
330
F10145
100
AcDbEntity
8
Geo
100
AcDbLine
10
-77.1519721577725
20
9.70739505318603
30
0.000000000000000
11
-77.0519721577725
21
9.67976953039041
31
0.000000000000000
  0
LINE
  5
F10146
330
F10147
100
AcDbEntity
8
Geo
100
AcDbLine
10
-77.0519721577725
20
9.67976953039041
30
0.000000000000000
11
-76.9519721577725
21
9.64643281165697
31
0.000000000000000
  0
LINE
  5
F10148
330
F10149
100
AcDbEntity
8
Geo
100
AcDbLine
10
-76.9519721577725
20
9.64643281165697
30
0.000000000000000
11
-76.8519721577725
21
9.60804213132830
31
0.000000000000000
  0
LINE
  5
F1014A
330
F1014B
100
AcDbEntity
8
Geo
100
AcDbLine
10
-76.8519721577725
20
9.60804213132830
30
0.000000000000000
11
-76.7519721577725
21
9.56523339074031
31
0.000000000000000
  0
LINE
  5
F1014C
330
F1014D
100
AcDbEntity
8
Geo
100
AcDbLine
10
-76.7519721577725
20
9.56523339074031
30
0.000000000000000
11
-76.6519721577725
21
9.51862029717030
31
0.000000000000000
  0
LINE
  5
F1014E
330
F1014F
100
AcDbEntity
8
Geo
100
AcDbLine
10
-76.6519721577725
20
9.51862029717030
30
0.000000000000000
11
-76.5519721577725
21
9.46879367660611
31
0.000000000000000
  0
LINE
  5
F10150
330
F10151
100
AcDbEntity
8
Geo
100
AcDbLine
10
-76.5519721577725
20
9.46879367660611
30
0.000000000000000
11
-76.4519721577725
21
9.41632094548143
31
0.000000000000000
  0
LINE
  5
F10152
330
F10153
100
AcDbEntity
8
Geo
100
AcDbLine
10
-76.4519721577725
20
9.41632094548143
30
0.000000000000000
11
-76.3519721577725
21
9.36174572683820
31
0.000000000000000
  0
LINE
  5
F10154
330
F10155
100
AcDbEntity
8
Geo
100
AcDbLine
10
-76.3519721577725
20
9.36174572683820
30
0.000000000000000
11
-76.2519721577725
21
9.30558759676251
31
0.000000000000000
  0
LINE
  5
F10156
330
F10157
100
AcDbEntity
8
Geo
100
AcDbLine
10
-76.2519721577725
20
9.30558759676251
30
0.000000000000000
11
-76.1519721577725
21
9.24834194738358
31
0.000000000000000
  0
LINE
  5
F10158
330
F10159
100
AcDbEntity
8
Geo
100
AcDbLine
10
-76.1519721577725
20
9.24834194738358
30
0.000000000000000
11
-76.0519721577725
21
9.19047995321766
31
0.000000000000000
  0
LINE
  5
F1015A
330
F1015B
100
AcDbEntity
8
Geo
100
AcDbLine
10
-76.0519721577725
20
9.19047995321766
30
0.000000000000000
11
-75.9519721577725
21
9.13244862816856
31
0.000000000000000
  0
LINE
  5
F1015C
330
F1015D
100
AcDbEntity
8
Geo
100
AcDbLine
10
-75.9519721577725
20
9.13244862816856
30
0.000000000000000
11
-75.8519721577725
21
9.07467096105738
31
0.000000000000000
  0
LINE
  5
F1015E
330
F1015F
100
AcDbEntity
8
Geo
100
AcDbLine
10
-75.8519721577725
20
9.07467096105738
30
0.000000000000000
11
-75.7519721577725
21
9.01754611813727
31
0.000000000000000
  0
LINE
  5
F10160
330
F10161
100
AcDbEntity
8
Geo
100
AcDbLine
10
-75.7519721577725
20
9.01754611813727
30
0.000000000000000
11
-75.6519721577725
21
8.96144970164764
31
0.000000000000000
  0
LINE
  5
F10162
330
F10163
100
AcDbEntity
8
Geo
100
AcDbLine
10
-75.6519721577725
20
8.96144970164764
30
0.000000000000000
11
-75.5519721577725
21
8.90673405407158
31
0.000000000000000
  0
LINE
  5
F10164
330
F10165
100
AcDbEntity
8
Geo
100
AcDbLine
10
-75.5519721577725
20
8.90673405407158
30
0.000000000000000
11
-75.4519721577725
21
8.85372859837346
31
0.000000000000000
  0
LINE
  5
F10166
330
F10167
100
AcDbEntity
8
Geo
100
AcDbLine
10
-75.4519721577725
20
8.85372859837346
30
0.000000000000000
11
-75.3519721577725
21
8.80274020510748
31
0.000000000000000
  0
LINE
  5
F10168
330
F10169
100
AcDbEntity
8
Geo
100
AcDbLine
10
-75.3519721577725
20
8.80274020510748
30
0.000000000000000
11
-75.2519721577725
21
8.75405357789826
31
0.000000000000000
  0
LINE
  5
F1016A
330
F1016B
100
AcDbEntity
8
Geo
100
AcDbLine
10
-75.2519721577725
20
8.75405357789826
30
0.000000000000000
11
-75.1519721577725
21
8.70793164939788
31
0.000000000000000
  0
LINE
  5
F1016C
330
F1016D
100
AcDbEntity
8
Geo
100
AcDbLine
10
-75.1519721577725
20
8.70793164939788
30
0.000000000000000
11
-75.0519721577725
21
8.66461598041849
31
0.000000000000000
  0
LINE
  5
F1016E
330
F1016F
100
AcDbEntity
8
Geo
100
AcDbLine
10
-75.0519721577725
20
8.66461598041849
30
0.000000000000000
11
-74.9519721577725
21
8.62432715552268
31
0.000000000000000
  0
LINE
  5
F10170
330
F10171
100
AcDbEntity
8
Geo
100
AcDbLine
10
-74.9519721577725
20
8.62432715552268
30
0.000000000000000
11
-74.8519721577725
21
8.58726516892486
31
0.000000000000000
  0
LINE
  5
F10172
330
F10173
100
AcDbEntity
8
Geo
100
AcDbLine
10
-74.8519721577725
20
8.58726516892486
30
0.000000000000000
11
-74.7519721577725
21
8.55360979511429
31
0.000000000000000
  0
LINE
  5
F10174
330
F10175
100
AcDbEntity
8
Geo
100
AcDbLine
10
-74.7519721577725
20
8.55360979511429
30
0.000000000000000
11
-74.6519721577725
21
8.52352093915415
31
0.000000000000000
  0
LINE
  5
F10176
330
F10177
100
AcDbEntity
8
Geo
100
AcDbLine
10
-74.6519721577725
20
8.52352093915415
30
0.000000000000000
11
-74.5519721577725
21
8.49713896214061
31
0.000000000000000
  0
LINE
  5
F10178
330
F10179
100
AcDbEntity
8
Geo
100
AcDbLine
10
-74.5519721577725
20
8.49713896214061
30
0.000000000000000
11
-74.4519721577724
21
8.47458497782185
31
0.000000000000000
  0
LINE
  5
F1017A
330
F1017B
100
AcDbEntity
8
Geo
100
AcDbLine
10
-74.4519721577724
20
8.47458497782185
30
0.000000000000000
11
-74.3519721577725
21
8.45596111688012
31
0.000000000000000
  0
LINE
  5
F1017C
330
F1017D
100
AcDbEntity
8
Geo
100
AcDbLine
10
-74.3519721577725
20
8.45596111688012
30
0.000000000000000
11
-74.2519721577725
21
8.44135075587040
31
0.000000000000000
  0
LINE
  5
F1017E
330
F1017F
100
AcDbEntity
8
Geo
100
AcDbLine
10
-74.2519721577725
20
8.44135075587040
30
0.000000000000000
11
-74.1519721577725
21
8.43081870828915
31
0.000000000000000
  0
LINE
  5
F10180
330
F10181
100
AcDbEntity
8
Geo
100
AcDbLine
10
-97.1519721577725
20
9.24941995359629
30
0.000000000000000
11
-97.0519721577725
21
9.54216159049763
31
0.000000000000000
  0
LINE
  5
F10182
330
F10183
100
AcDbEntity
8
Geo
100
AcDbLine
10
-97.0519721577725
20
9.54216159049763
30
0.000000000000000
11
-96.9519721577725
21
9.62010110299861
31
0.000000000000000
  0
LINE
  5
F10184
330
F10185
100
AcDbEntity
8
Geo
100
AcDbLine
10
-96.9519721577725
20
9.62010110299861
30
0.000000000000000
11
-96.8519721577725
21
9.64136287138953
31
0.000000000000000
  0
LINE
  5
F10186
330
F10187
100
AcDbEntity
8
Geo
100
AcDbLine
10
-96.8519721577725
20
9.64136287138953
30
0.000000000000000
11
-96.7519721577725
21
9.62115280109433
31
0.000000000000000
  0
LINE
  5
F10188
330
F10189
100
AcDbEntity
8
Geo
100
AcDbLine
10
-96.7519721577725
20
9.62115280109433
30
0.000000000000000
11
-96.6519721577725
21
9.56480562246247
31
0.000000000000000
  0
LINE
  5
F1018A
330
F1018B
100
AcDbEntity
8
Geo
100
AcDbLine
10
-96.6519721577725
20
9.56480562246247
30
0.000000000000000
11
-96.5519721577725
21
9.48393636712440
31
0.000000000000000
  0
LINE
  5
F1018C
330
F1018D
100
AcDbEntity
8
Geo
100
AcDbLine
10
-96.5519721577725
20
9.48393636712440
30
0.000000000000000
11
-96.4519721577725
21
9.38864738633339
31
0.000000000000000
  0
LINE
  5
F1018E
330
F1018F
100
AcDbEntity
8
Geo
100
AcDbLine
10
-96.4519721577725
20
9.38864738633339
30
0.000000000000000
11
-96.3519721577725
21
9.27907983152250
31
0.000000000000000
  0
LINE
  5
F10190
330
F10191
100
AcDbEntity
8
Geo
100
AcDbLine
10
-96.3519721577725
20
9.27907983152250
30
0.000000000000000
11
-96.2519721577725
21
9.15539600495635
31
0.000000000000000
  0
LINE
  5
F10192
330
F10193
100
AcDbEntity
8
Geo
100
AcDbLine
10
-96.2519721577725
20
9.15539600495635
30
0.000000000000000
11
-96.1519721577725
21
9.01777911931302
31
0.000000000000000
  0
LINE
  5
F10194
330
F10195
100
AcDbEntity
8
Geo
100
AcDbLine
10
-96.1519721577725
20
9.01777911931302
30
0.000000000000000
11
-96.0519721577725
21
8.86643302629140
31
0.000000000000000
  0
LINE
  5
F10196
330
F10197
100
AcDbEntity
8
Geo
100
AcDbLine
10
-96.0519721577725
20
8.86643302629140
30
0.000000000000000
11
-95.9519721577725
21
8.70158191464591
31
0.000000000000000
  0
LINE
  5
F10198
330
F10199
100
AcDbEntity
8
Geo
100
AcDbLine
10
-95.9519721577725
20
8.70158191464591
30
0.000000000000000
11
-95.8519721577725
21
8.52346997809607
31
0.000000000000000
  0
LINE
  5
F1019A
330
F1019B
100
AcDbEntity
8
Geo
100
AcDbLine
10
-95.8519721577725
20
8.52346997809607
30
0.000000000000000
11
-95.7519721577725
21
8.33236105360260
31
0.000000000000000
  0
LINE
  5
F1019C
330
F1019D
100
AcDbEntity
8
Geo
100
AcDbLine
10
-95.7519721577725
20
8.33236105360260
30
0.000000000000000
11
-95.6519721577725
21
8.12853823054622
31
0.000000000000000
  0
LINE
  5
F1019E
330
F1019F
100
AcDbEntity
8
Geo
100
AcDbLine
10
-95.6519721577725
20
8.12853823054622
30
0.000000000000000
11
-95.5519721577725
21
7.91230343138763
31
0.000000000000000
  0
LINE
  5
F101A0
330
F101A1
100
AcDbEntity
8
Geo
100
AcDbLine
10
-95.5519721577725
20
7.91230343138763
30
0.000000000000000
11
-95.4519721577725
21
7.68397696443028
31
0.000000000000000
  0
LINE
  5
F101A2
330
F101A3
100
AcDbEntity
8
Geo
100
AcDbLine
10
-95.4519721577725
20
7.68397696443028
30
0.000000000000000
11
-95.3519721577725
21
7.44389704934809
31
0.000000000000000
  0
LINE
  5
F101A4
330
F101A5
100
AcDbEntity
8
Geo
100
AcDbLine
10
-95.3519721577725
20
7.44389704934809
30
0.000000000000000
11
-95.2519721577725
21
7.19241931618113
31
0.000000000000000
  0
LINE
  5
F101A6
330
F101A7
100
AcDbEntity
8
Geo
100
AcDbLine
10
-95.2519721577725
20
7.19241931618113
30
0.000000000000000
11
-95.1519721577725
21
6.92991627854136
31
0.000000000000000
  0
LINE
  5
F101A8
330
F101A9
100
AcDbEntity
8
Geo
100
AcDbLine
10
-95.1519721577725
20
6.92991627854136
30
0.000000000000000
11
-95.0519721577725
21
6.65677678180871
31
0.000000000000000
  0
LINE
  5
F101AA
330
F101AB
100
AcDbEntity
8
Geo
100
AcDbLine
10
-95.0519721577725
20
6.65677678180871
30
0.000000000000000
11
-94.9519721577725
21
6.37340542713500
31
0.000000000000000
  0
LINE
  5
F101AC
330
F101AD
100
AcDbEntity
8
Geo
100
AcDbLine
10
-94.9519721577725
20
6.37340542713500
30
0.000000000000000
11
-94.8519721577725
21
6.08022197210878
31
0.000000000000000
  0
LINE
  5
F101AE
330
F101AF
100
AcDbEntity
8
Geo
100
AcDbLine
10
-94.8519721577725
20
6.08022197210878
30
0.000000000000000
11
-94.7519721577725
21
5.77766070896906
31
0.000000000000000
  0
LINE
  5
F101B0
330
F101B1
100
AcDbEntity
8
Geo
100
AcDbLine
10
-94.7519721577725
20
5.77766070896906
30
0.000000000000000
11
-94.6519721577725
21
5.46616982128880
31
0.000000000000000
  0
LINE
  5
F101B2
330
F101B3
100
AcDbEntity
8
Geo
100
AcDbLine
10
-94.6519721577725
20
5.46616982128880
30
0.000000000000000
11
-94.5519721577725
21
5.14621072008119
31
0.000000000000000
  0
LINE
  5
F101B4
330
F101B5
100
AcDbEntity
8
Geo
100
AcDbLine
10
-94.5519721577725
20
5.14621072008119
30
0.000000000000000
11
-94.4519721577725
21
4.81825736031222
31
0.000000000000000
  0
LINE
  5
F101B6
330
F101B7
100
AcDbEntity
8
Geo
100
AcDbLine
10
-94.4519721577725
20
4.81825736031222
30
0.000000000000000
11
-94.3519721577725
21
4.48279553883181
31
0.000000000000000
  0
LINE
  5
F101B8
330
F101B9
100
AcDbEntity
8
Geo
100
AcDbLine
10
-94.3519721577725
20
4.48279553883181
30
0.000000000000000
11
-94.2519721577725
21
4.14032217476364
31
0.000000000000000
  0
LINE
  5
F101BA
330
F101BB
100
AcDbEntity
8
Geo
100
AcDbLine
10
-94.2519721577725
20
4.14032217476364
30
0.000000000000000
11
-94.1519721577725
21
3.79134457341956
31
0.000000000000000
  0
LINE
  5
F101BC
330
F101BD
100
AcDbEntity
8
Geo
100
AcDbLine
10
-94.1519721577725
20
3.79134457341956
30
0.000000000000000
11
-94.0519721577725
21
3.43637967482892
31
0.000000000000000
  0
LINE
  5
F101BE
330
F101BF
100
AcDbEntity
8
Geo
100
AcDbLine
10
-94.0519721577725
20
3.43637967482892
30
0.000000000000000
11
-93.9519721577725
21
3.07595328799606
31
0.000000000000000
  0
LINE
  5
F101C0
330
F101C1
100
AcDbEntity
8
Geo
100
AcDbLine
10
-93.9519721577725
20
3.07595328799606
30
0.000000000000000
11
-93.8519721577725
21
2.71059931202016
31
0.000000000000000
  0
LINE
  5
F101C2
330
F101C3
100
AcDbEntity
8
Geo
100
AcDbLine
10
-93.8519721577725
20
2.71059931202016
30
0.000000000000000
11
-93.7519721577725
21
2.34085894523125
31
0.000000000000000
  0
LINE
  5
F101C4
330
F101C5
100
AcDbEntity
8
Geo
100
AcDbLine
10
-93.7519721577725
20
2.34085894523125
30
0.000000000000000
11
-93.6519721577725
21
1.96727988351392
31
0.000000000000000
  0
LINE
  5
F101C6
330
F101C7
100
AcDbEntity
8
Geo
100
AcDbLine
10
-93.6519721577725
20
1.96727988351392
30
0.000000000000000
11
-93.5519721577725
21
1.59041550900610
31
0.000000000000000
  0
LINE
  5
F101C8
330
F101C9
100
AcDbEntity
8
Geo
100
AcDbLine
10
-93.5519721577725
20
1.59041550900610
30
0.000000000000000
11
-93.4519721577725
21
1.21082407037498
31
0.000000000000000
  0
LINE
  5
F101CA
330
F101CB
100
AcDbEntity
8
Geo
100
AcDbLine
10
-93.4519721577725
20
1.21082407037498
30
0.000000000000000
11
-93.3519721577725
21
0.829067855883973
31
0.000000000000000
  0
LINE
  5
F101CC
330
F101CD
100
AcDbEntity
8
Geo
100
AcDbLine
10
-93.3519721577725
20
0.829067855883973
30
0.000000000000000
11
-93.2519721577725
21
0.445712360475915
31
0.000000000000000
  0
LINE
  5
F101CE
330
F101CF
100
AcDbEntity
8
Geo
100
AcDbLine
10
-93.2519721577725
20
0.445712360475915
30
0.000000000000000
11
-93.1519721577725
21
0.0613254481062337
31
0.000000000000000
  0
LINE
  5
F101D0
330
F101D1
100
AcDbEntity
8
Geo
100
AcDbLine
10
-93.1519721577725
20
0.0613254481062337
30
0.000000000000000
11
-93.0519721577725
21
-0.323523489433167
31
0.000000000000000
  0
LINE
  5
F101D2
330
F101D3
100
AcDbEntity
8
Geo
100
AcDbLine
10
-93.0519721577725
20
-0.323523489433167
30
0.000000000000000
11
-92.9519721577725
21
-0.708264375953146
31
0.000000000000000
  0
LINE
  5
F101D4
330
F101D5
100
AcDbEntity
8
Geo
100
AcDbLine
10
-92.9519721577725
20
-0.708264375953146
30
0.000000000000000
11
-92.8519721577725
21
-1.09232729532038
31
0.000000000000000
  0
LINE
  5
F101D6
330
F101D7
100
AcDbEntity
8
Geo
100
AcDbLine
10
-92.8519721577725
20
-1.09232729532038
30
0.000000000000000
11
-92.7519721577725
21
-1.47514333567334
31
0.000000000000000
  0
LINE
  5
F101D8
330
F101D9
100
AcDbEntity
8
Geo
100
AcDbLine
10
-92.7519721577725
20
-1.47514333567334
30
0.000000000000000
11
-92.6519721577725
21
-1.85614543215063
31
0.000000000000000
  0
LINE
  5
F101DA
330
F101DB
100
AcDbEntity
8
Geo
100
AcDbLine
10
-92.6519721577725
20
-1.85614543215063
30
0.000000000000000
11
-92.5519721577725
21
-2.23476920688334
31
0.000000000000000
  0
LINE
  5
F101DC
330
F101DD
100
AcDbEntity
8
Geo
100
AcDbLine
10
-92.5519721577725
20
-2.23476920688334
30
0.000000000000000
11
-92.4519721577725
21
-2.61045380500723
31
0.000000000000000
  0
LINE
  5
F101DE
330
F101DF
100
AcDbEntity
8
Geo
100
AcDbLine
10
-92.4519721577725
20
-2.61045380500723
30
0.000000000000000
11
-92.3519721577725
21
-2.98264272545624
31
0.000000000000000
  0
LINE
  5
F101E0
330
F101E1
100
AcDbEntity
8
Geo
100
AcDbLine
10
-92.3519721577725
20
-2.98264272545624
30
0.000000000000000
11
-92.2519721577725
21
-3.35078464530669
31
0.000000000000000
  0
LINE
  5
F101E2
330
F101E3
100
AcDbEntity
8
Geo
100
AcDbLine
10
-92.2519721577725
20
-3.35078464530669
30
0.000000000000000
11
-92.1519721577725
21
-3.71433423645123
31
0.000000000000000
  0
LINE
  5
F101E4
330
F101E5
100
AcDbEntity
8
Geo
100
AcDbLine
10
-92.1519721577725
20
-3.71433423645123
30
0.000000000000000
11
-92.0519721577725
21
-4.07275297339253
31
0.000000000000000
  0
LINE
  5
F101E6
330
F101E7
100
AcDbEntity
8
Geo
100
AcDbLine
10
-92.0519721577725
20
-4.07275297339253
30
0.000000000000000
11
-91.9519721577725
21
-4.42550993096035
31
0.000000000000000
  0
LINE
  5
F101E8
330
F101E9
100
AcDbEntity
8
Geo
100
AcDbLine
10
-91.9519721577725
20
-4.42550993096035
30
0.000000000000000
11
-91.8519721577725
21
-4.77208257077031
31
0.000000000000000
  0
LINE
  5
F101EA
330
F101EB
100
AcDbEntity
8
Geo
100
AcDbLine
10
-91.8519721577725
20
-4.77208257077031
30
0.000000000000000
11
-91.7519721577725
21
-5.11195751525916
31
0.000000000000000
  0
LINE
  5
F101EC
330
F101ED
100
AcDbEntity
8
Geo
100
AcDbLine
10
-91.7519721577725
20
-5.11195751525916
30
0.000000000000000
11
-91.6519721577725
21
-5.44463130815032
31
0.000000000000000
  0
LINE
  5
F101EE
330
F101EF
100
AcDbEntity
8
Geo
100
AcDbLine
10
-91.6519721577725
20
-5.44463130815032
30
0.000000000000000
11
-91.5519721577725
21
-5.76961116022295
31
0.000000000000000
  0
LINE
  5
F101F0
330
F101F1
100
AcDbEntity
8
Geo
100
AcDbLine
10
-91.5519721577725
20
-5.76961116022295
30
0.000000000000000
11
-91.4519721577725
21
-6.08641567927988
31
0.000000000000000
  0
LINE
  5
F101F2
330
F101F3
100
AcDbEntity
8
Geo
100
AcDbLine
10
-91.4519721577725
20
-6.08641567927988
30
0.000000000000000
11
-91.3519721577725
21
-6.39457558323322
31
0.000000000000000
  0
LINE
  5
F101F4
330
F101F5
100
AcDbEntity
8
Geo
100
AcDbLine
10
-91.3519721577725
20
-6.39457558323322
30
0.000000000000000
11
-91.2519721577725
21
-6.69363439525127
31
0.000000000000000
  0
LINE
  5
F101F6
330
F101F7
100
AcDbEntity
8
Geo
100
AcDbLine
10
-91.2519721577725
20
-6.69363439525127
30
0.000000000000000
11
-91.1519721577725
21
-6.98314911993700
31
0.000000000000000
  0
LINE
  5
F101F8
330
F101F9
100
AcDbEntity
8
Geo
100
AcDbLine
10
-91.1519721577725
20
-6.98314911993700
30
0.000000000000000
11
-91.0519721577725
21
-7.26269089953649
31
0.000000000000000
  0
LINE
  5
F101FA
330
F101FB
100
AcDbEntity
8
Geo
100
AcDbLine
10
-91.0519721577725
20
-7.26269089953649
30
0.000000000000000
11
-90.9519721577725
21
-7.53184564920533
31
0.000000000000000
  0
LINE
  5
F101FC
330
F101FD
100
AcDbEntity
8
Geo
100
AcDbLine
10
-90.9519721577725
20
-7.53184564920533
30
0.000000000000000
11
-90.8519721577725
21
-7.79021467039194
31
0.000000000000000
  0
LINE
  5
F101FE
330
F101FF
100
AcDbEntity
8
Geo
100
AcDbLine
10
-90.8519721577725
20
-7.79021467039194
30
0.000000000000000
11
-90.7519721577725
21
-8.03741524142912
31
0.000000000000000
  0
LINE
  5
F10200
330
F10201
100
AcDbEntity
8
Geo
100
AcDbLine
10
-90.7519721577725
20
-8.03741524142912
30
0.000000000000000
11
-90.6519721577725
21
-8.27308118445916
31
0.000000000000000
  0
LINE
  5
F10202
330
F10203
100
AcDbEntity
8
Geo
100
AcDbLine
10
-90.6519721577725
20
-8.27308118445916
30
0.000000000000000
11
-90.5519721577725
21
-8.49686340785257
31
0.000000000000000
  0
LINE
  5
F10204
330
F10205
100
AcDbEntity
8
Geo
100
AcDbLine
10
-90.5519721577725
20
-8.49686340785257
30
0.000000000000000
11
-90.4519721577725
21
-8.70843042331702
31
0.000000000000000
  0
LINE
  5
F10206
330
F10207
100
AcDbEntity
8
Geo
100
AcDbLine
10
-90.4519721577725
20
-8.70843042331702
30
0.000000000000000
11
-90.3519721577725
21
-8.90746883693048
31
0.000000000000000
  0
LINE
  5
F10208
330
F10209
100
AcDbEntity
8
Geo
100
AcDbLine
10
-90.3519721577725
20
-8.90746883693048
30
0.000000000000000
11
-90.2519721577725
21
-9.09368381337120
31
0.000000000000000
  0
LINE
  5
F1020A
330
F1020B
100
AcDbEntity
8
Geo
100
AcDbLine
10
-90.2519721577725
20
-9.09368381337120
30
0.000000000000000
11
-90.1519721577725
21
-9.26679951265685
31
0.000000000000000
  0
LINE
  5
F1020C
330
F1020D
100
AcDbEntity
8
Geo
100
AcDbLine
10
-90.1519721577725
20
-9.26679951265685
30
0.000000000000000
11
-90.0519721577725
21
-9.42655949874589
31
0.000000000000000
  0
LINE
  5
F1020E
330
F1020F
100
AcDbEntity
8
Geo
100
AcDbLine
10
-90.0519721577725
20
-9.42655949874589
30
0.000000000000000
11
-89.9519721577725
21
-9.57272711939595
31
0.000000000000000
  0
LINE
  5
F10210
330
F10211
100
AcDbEntity
8
Geo
100
AcDbLine
10
-89.9519721577725
20
-9.57272711939595
30
0.000000000000000
11
-89.8519721577725
21
-9.70508585671643
31
0.000000000000000
  0
LINE
  5
F10212
330
F10213
100
AcDbEntity
8
Geo
100
AcDbLine
10
-89.8519721577725
20
-9.70508585671643
30
0.000000000000000
11
-89.7519721577725
21
-9.82343964789615
31
0.000000000000000
  0
LINE
  5
F10214
330
F10215
100
AcDbEntity
8
Geo
100
AcDbLine
10
-89.7519721577725
20
-9.82343964789615
30
0.000000000000000
11
-89.6519721577725
21
-9.92761317563093
31
0.000000000000000
  0
LINE
  5
F10216
330
F10217
100
AcDbEntity
8
Geo
100
AcDbLine
10
-89.6519721577725
20
-9.92761317563093
30
0.000000000000000
11
-89.5519721577725
21
-10.0174521278209
31
0.000000000000000
  0
LINE
  5
F10218
330
F10219
100
AcDbEntity
8
Geo
100
AcDbLine
10
-89.5519721577725
20
-10.0174521278209
30
0.000000000000000
11
-89.4519721577725
21
-10.0928234261526
31
0.000000000000000
  0
LINE
  5
F1021A
330
F1021B
100
AcDbEntity
8
Geo
100
AcDbLine
10
-89.4519721577725
20
-10.0928234261526
30
0.000000000000000
11
-89.3519721577725
21
-10.1536154232281
31
0.000000000000000
  0
LINE
  5
F1021C
330
F1021D
100
AcDbEntity
8
Geo
100
AcDbLine
10
-89.3519721577725
20
-10.1536154232281
30
0.000000000000000
11
-89.2519721577725
21
-10.1997380679476
31
0.000000000000000
  0
LINE
  5
F1021E
330
F1021F
100
AcDbEntity
8
Geo
100
AcDbLine
10
-89.2519721577725
20
-10.1997380679476
30
0.000000000000000
11
-89.1519721577725
21
-10.2311230389026
31
0.000000000000000
  0
LINE
  5
F10220
330
F10221
100
AcDbEntity
8
Geo
100
AcDbLine
10
-89.1519721577725
20
-10.2311230389026
30
0.000000000000000
11
-89.0519721577725
21
-10.2477238455798
31
0.000000000000000
  0
LINE
  5
F10222
330
F10223
100
AcDbEntity
8
Geo
100
AcDbLine
10
-80.8519721577726
20
9.74898635443856
30
0.000000000000000
11
-80.7519721577726
21
9.74516358337419
31
0.000000000000000
  0
LINE
  5
F10224
330
F10225
100
AcDbEntity
8
Geo
100
AcDbLine
10
-80.7519721577726
20
9.74516358337419
30
0.000000000000000
11
-80.6519721577725
21
9.72653413134939
31
0.000000000000000
  0
LINE
  5
F10226
330
F10227
100
AcDbEntity
8
Geo
100
AcDbLine
10
-80.6519721577725
20
9.72653413134939
30
0.000000000000000
11
-80.5519721577726
21
9.69312559414520
31
0.000000000000000
  0
LINE
  5
F10228
330
F10229
100
AcDbEntity
8
Geo
100
AcDbLine
10
-80.5519721577726
20
9.69312559414520
30
0.000000000000000
11
-80.4519721577726
21
9.64498745978073
31
0.000000000000000
  0
LINE
  5
F1022A
330
F1022B
100
AcDbEntity
8
Geo
100
AcDbLine
10
-80.4519721577726
20
9.64498745978073
30
0.000000000000000
11
-80.3519721577726
21
9.58219103520661
31
0.000000000000000
  0
LINE
  5
F1022C
330
F1022D
100
AcDbEntity
8
Geo
100
AcDbLine
10
-80.3519721577726
20
9.58219103520661
30
0.000000000000000
11
-80.2519721577725
21
9.50482934067812
31
0.000000000000000
  0
LINE
  5
F1022E
330
F1022F
100
AcDbEntity
8
Geo
100
AcDbLine
10
-80.2519721577725
20
9.50482934067812
30
0.000000000000000
11
-80.1519721577725
21
9.41301697196440
31
0.000000000000000
  0
LINE
  5
F10230
330
F10231
100
AcDbEntity
8
Geo
100
AcDbLine
10
-80.1519721577725
20
9.41301697196440
30
0.000000000000000
11
-80.0519721577726
21
9.30688993059793
31
0.000000000000000
  0
LINE
  5
F10232
330
F10233
100
AcDbEntity
8
Geo
100
AcDbLine
10
-80.0519721577726
20
9.30688993059793
30
0.000000000000000
11
-79.9519721577725
21
9.18660542241560
31
0.000000000000000
  0
LINE
  5
F10234
330
F10235
100
AcDbEntity
8
Geo
100
AcDbLine
10
-79.9519721577725
20
9.18660542241560
30
0.000000000000000
11
-79.8519721577725
21
9.05234162468996
31
0.000000000000000
  0
LINE
  5
F10236
330
F10237
100
AcDbEntity
8
Geo
100
AcDbLine
10
-79.8519721577725
20
9.05234162468996
30
0.000000000000000
11
-79.7519721577725
21
8.90429742219550
31
0.000000000000000
  0
LINE
  5
F10238
330
F10239
100
AcDbEntity
8
Geo
100
AcDbLine
10
-79.7519721577725
20
8.90429742219550
30
0.000000000000000
11
-79.6519721577725
21
8.74269211260085
31
0.000000000000000
  0
LINE
  5
F1023A
330
F1023B
100
AcDbEntity
8
Geo
100
AcDbLine
10
-79.6519721577725
20
8.74269211260085
30
0.000000000000000
11
-79.5519721577725
21
8.56776508162351
31
0.000000000000000
  0
LINE
  5
F1023C
330
F1023D
100
AcDbEntity
8
Geo
100
AcDbLine
10
-79.5519721577725
20
8.56776508162351
30
0.000000000000000
11
-79.4519721577725
21
8.37977544842809
31
0.000000000000000
  0
LINE
  5
F1023E
330
F1023F
100
AcDbEntity
8
Geo
100
AcDbLine
10
-79.4519721577725
20
8.37977544842809
30
0.000000000000000
11
-79.3519721577725
21
8.17900168179346
31
0.000000000000000
  0
LINE
  5
F10240
330
F10241
100
AcDbEntity
8
Geo
100
AcDbLine
10
-79.3519721577725
20
8.17900168179346
30
0.000000000000000
11
-79.2519721577725
21
7.96574118761738
31
0.000000000000000
  0
LINE
  5
F10242
330
F10243
100
AcDbEntity
8
Geo
100
AcDbLine
10
-79.2519721577725
20
7.96574118761738
30
0.000000000000000
11
-79.1519721577725
21
7.74030986836946
31
0.000000000000000
  0
LINE
  5
F10244
330
F10245
100
AcDbEntity
8
Geo
100
AcDbLine
10
-79.1519721577725
20
7.74030986836946
30
0.000000000000000
11
-79.0519721577725
21
7.76901813610304
31
0.000000000000000
  0
LINE
  5
F10246
330
F10247
100
AcDbEntity
8
Geo
100
AcDbLine
10
-79.0519721577725
20
7.76901813610304
30
0.000000000000000
11
-78.9519721577725
21
7.79699070973174
31
0.000000000000000
  0
LINE
  5
F10248
330
F10249
100
AcDbEntity
8
Geo
100
AcDbLine
10
-78.9519721577725
20
7.79699070973174
30
0.000000000000000
11
-78.8519721577725
21
7.82423749350812
31
0.000000000000000
  0
LINE
  5
F1024A
330
F1024B
100
AcDbEntity
8
Geo
100
AcDbLine
10
-78.8519721577725
20
7.82423749350812
30
0.000000000000000
11
-78.7519721577725
21
7.85076825853065
31
0.000000000000000
  0
LINE
  5
F1024C
330
F1024D
100
AcDbEntity
8
Geo
100
AcDbLine
10
-78.7519721577725
20
7.85076825853065
30
0.000000000000000
11
-78.6519721577725
21
7.87659263849370
31
0.000000000000000
  0
LINE
  5
F1024E
330
F1024F
100
AcDbEntity
8
Geo
100
AcDbLine
10
-78.6519721577725
20
7.87659263849370
30
0.000000000000000
11
-78.5519721577725
21
7.90172012557019
31
0.000000000000000
  0
LINE
  5
F10250
330
F10251
100
AcDbEntity
8
Geo
100
AcDbLine
10
-78.5519721577725
20
7.90172012557019
30
0.000000000000000
11
-78.4519721577725
21
7.92616006642429
31
0.000000000000000
  0
LINE
  5
F10252
330
F10253
100
AcDbEntity
8
Geo
100
AcDbLine
10
-78.4519721577725
20
7.92616006642429
30
0.000000000000000
11
-78.3519721577725
21
7.94992165835167
31
0.000000000000000
  0
LINE
  5
F10254
330
F10255
100
AcDbEntity
8
Geo
100
AcDbLine
10
-78.3519721577725
20
7.94992165835167
30
0.000000000000000
11
-78.2519721577725
21
7.97301394554473
31
0.000000000000000
  0
LINE
  5
F10256
330
F10257
100
AcDbEntity
8
Geo
100
AcDbLine
10
-78.2519721577725
20
7.97301394554473
30
0.000000000000000
11
-78.1519721577725
21
7.99544581548042
31
0.000000000000000
  0
LINE
  5
F10258
330
F10259
100
AcDbEntity
8
Geo
100
AcDbLine
10
-78.1519721577725
20
7.99544581548042
30
0.000000000000000
11
-78.0519721577725
21
8.01722599542804
31
0.000000000000000
  0
LINE
  5
F1025A
330
F1025B
100
AcDbEntity
8
Geo
100
AcDbLine
10
-78.0519721577725
20
8.01722599542804
30
0.000000000000000
11
-77.9519721577725
21
8.03836304907471
31
0.000000000000000
  0
LINE
  5
F1025C
330
F1025D
100
AcDbEntity
8
Geo
100
AcDbLine
10
-77.9519721577725
20
8.03836304907471
30
0.000000000000000
11
-77.8519721577725
21
8.05886537326600
31
0.000000000000000
  0
LINE
  5
F1025E
330
F1025F
100
AcDbEntity
8
Geo
100
AcDbLine
10
-77.8519721577725
20
8.05886537326600
30
0.000000000000000
11
-77.7519721577725
21
8.07874119485944
31
0.000000000000000
  0
LINE
  5
F10260
330
F10261
100
AcDbEntity
8
Geo
100
AcDbLine
10
-77.7519721577725
20
8.07874119485944
30
0.000000000000000
11
-77.6519721577725
21
8.09799856768842
31
0.000000000000000
  0
LINE
  5
F10262
330
F10263
100
AcDbEntity
8
Geo
100
AcDbLine
10
-77.6519721577725
20
8.09799856768842
30
0.000000000000000
11
-77.5519721577725
21
8.11664536963440
31
0.000000000000000
  0
LINE
  5
F10264
330
F10265
100
AcDbEntity
8
Geo
100
AcDbLine
10
-77.5519721577725
20
8.11664536963440
30
0.000000000000000
11
-77.4519721577725
21
8.13468929980485
31
0.000000000000000
  0
LINE
  5
F10266
330
F10267
100
AcDbEntity
8
Geo
100
AcDbLine
10
-77.4519721577725
20
8.13468929980485
30
0.000000000000000
11
-77.3519721577725
21
8.15213787581502
31
0.000000000000000
  0
LINE
  5
F10268
330
F10269
100
AcDbEntity
8
Geo
100
AcDbLine
10
-77.3519721577725
20
8.15213787581502
30
0.000000000000000
11
-77.2519721577725
21
8.16899843117108
31
0.000000000000000
  0
LINE
  5
F1026A
330
F1026B
100
AcDbEntity
8
Geo
100
AcDbLine
10
-77.2519721577725
20
8.16899843117108
30
0.000000000000000
11
-77.1519721577725
21
8.18527811275266
31
0.000000000000000
  0
LINE
  5
F1026C
330
F1026D
100
AcDbEntity
8
Geo
100
AcDbLine
10
-77.1519721577725
20
8.18527811275266
30
0.000000000000000
11
-77.0519721577725
21
8.20098387839255
31
0.000000000000000
  0
LINE
  5
F1026E
330
F1026F
100
AcDbEntity
8
Geo
100
AcDbLine
10
-77.0519721577725
20
8.20098387839255
30
0.000000000000000
11
-76.9519721577725
21
8.21612249455168
31
0.000000000000000
  0
LINE
  5
F10270
330
F10271
100
AcDbEntity
8
Geo
100
AcDbLine
10
-76.9519721577725
20
8.21612249455168
30
0.000000000000000
11
-76.8519721577725
21
8.23070053408713
31
0.000000000000000
  0
LINE
  5
F10272
330
F10273
100
AcDbEntity
8
Geo
100
AcDbLine
10
-76.8519721577725
20
8.23070053408713
30
0.000000000000000
11
-76.7519721577725
21
8.24472437411146
31
0.000000000000000
  0
LINE
  5
F10274
330
F10275
100
AcDbEntity
8
Geo
100
AcDbLine
10
-76.7519721577725
20
8.24472437411146
30
0.000000000000000
11
-76.6519721577725
21
8.25820019394131
31
0.000000000000000
  0
LINE
  5
F10276
330
F10277
100
AcDbEntity
8
Geo
100
AcDbLine
10
-76.6519721577725
20
8.25820019394131
30
0.000000000000000
11
-76.5519721577725
21
8.27113397313335
31
0.000000000000000
  0
LINE
  5
F10278
330
F10279
100
AcDbEntity
8
Geo
100
AcDbLine
10
-76.5519721577725
20
8.27113397313335
30
0.000000000000000
11
-76.4519721577725
21
8.28353148960598
31
0.000000000000000
  0
LINE
  5
F1027A
330
F1027B
100
AcDbEntity
8
Geo
100
AcDbLine
10
-76.4519721577725
20
8.28353148960598
30
0.000000000000000
11
-76.3519721577725
21
8.29539831784484
31
0.000000000000000
  0
LINE
  5
F1027C
330
F1027D
100
AcDbEntity
8
Geo
100
AcDbLine
10
-76.3519721577725
20
8.29539831784484
30
0.000000000000000
11
-76.2519721577725
21
8.30673982719051
31
0.000000000000000
  0
LINE
  5
F1027E
330
F1027F
100
AcDbEntity
8
Geo
100
AcDbLine
10
-76.2519721577725
20
8.30673982719051
30
0.000000000000000
11
-76.1519721577725
21
8.31756118020675
31
0.000000000000000
  0
LINE
  5
F10280
330
F10281
100
AcDbEntity
8
Geo
100
AcDbLine
10
-76.1519721577725
20
8.31756118020675
30
0.000000000000000
11
-76.0519721577725
21
8.32786733112770
31
0.000000000000000
  0
LINE
  5
F10282
330
F10283
100
AcDbEntity
8
Geo
100
AcDbLine
10
-76.0519721577725
20
8.32786733112770
30
0.000000000000000
11
-75.9519721577725
21
8.33766302438248
31
0.000000000000000
  0
LINE
  5
F10284
330
F10285
100
AcDbEntity
8
Geo
100
AcDbLine
10
-75.9519721577725
20
8.33766302438248
30
0.000000000000000
11
-75.8519721577725
21
8.34695279319583
31
0.000000000000000
  0
LINE
  5
F10286
330
F10287
100
AcDbEntity
8
Geo
100
AcDbLine
10
-75.8519721577725
20
8.34695279319583
30
0.000000000000000
11
-75.7519721577725
21
8.35574095826315
31
0.000000000000000
  0
LINE
  5
F10288
330
F10289
100
AcDbEntity
8
Geo
100
AcDbLine
10
-75.7519721577725
20
8.35574095826315
30
0.000000000000000
11
-75.6519721577725
21
8.36403162649892
31
0.000000000000000
  0
LINE
  5
F1028A
330
F1028B
100
AcDbEntity
8
Geo
100
AcDbLine
10
-75.6519721577725
20
8.36403162649892
30
0.000000000000000
11
-75.5519721577725
21
8.37182868985688
31
0.000000000000000
  0
LINE
  5
F1028C
330
F1028D
100
AcDbEntity
8
Geo
100
AcDbLine
10
-75.5519721577725
20
8.37182868985688
30
0.000000000000000
11
-75.4519721577725
21
8.37913582422099
31
0.000000000000000
  0
LINE
  5
F1028E
330
F1028F
100
AcDbEntity
8
Geo
100
AcDbLine
10
-75.4519721577725
20
8.37913582422099
30
0.000000000000000
11
-75.3519721577725
21
8.38595648836590
31
0.000000000000000
  0
LINE
  5
F10290
330
F10291
100
AcDbEntity
8
Geo
100
AcDbLine
10
-75.3519721577725
20
8.38595648836590
30
0.000000000000000
11
-75.2519721577725
21
8.39229392298581
31
0.000000000000000
  0
LINE
  5
F10292
330
F10293
100
AcDbEntity
8
Geo
100
AcDbLine
10
-75.2519721577725
20
8.39229392298581
30
0.000000000000000
11
-75.1519721577725
21
8.39815114979075
31
0.000000000000000
  0
LINE
  5
F10294
330
F10295
100
AcDbEntity
8
Geo
100
AcDbLine
10
-75.1519721577725
20
8.39815114979075
30
0.000000000000000
11
-75.0519721577725
21
8.40353097066928
31
0.000000000000000
  0
LINE
  5
F10296
330
F10297
100
AcDbEntity
8
Geo
100
AcDbLine
10
-75.0519721577725
20
8.40353097066928
30
0.000000000000000
11
-74.9519721577725
21
8.40843596691670
31
0.000000000000000
  0
LINE
  5
F10298
330
F10299
100
AcDbEntity
8
Geo
100
AcDbLine
10
-74.9519721577725
20
8.40843596691670
30
0.000000000000000
11
-74.8519721577725
21
8.41286849852790
31
0.000000000000000
  0
LINE
  5
F1029A
330
F1029B
100
AcDbEntity
8
Geo
100
AcDbLine
10
-74.8519721577725
20
8.41286849852790
30
0.000000000000000
11
-74.7519721577725
21
8.41683070355411
31
0.000000000000000
  0
LINE
  5
F1029C
330
F1029D
100
AcDbEntity
8
Geo
100
AcDbLine
10
-74.7519721577725
20
8.41683070355411
30
0.000000000000000
11
-74.6519721577725
21
8.42032449752289
31
0.000000000000000
  0
LINE
  5
F1029E
330
F1029F
100
AcDbEntity
8
Geo
100
AcDbLine
10
-74.6519721577725
20
8.42032449752289
30
0.000000000000000
11
-74.5519721577725
21
8.42335157292055
31
0.000000000000000
  0
LINE
  5
F102A0
330
F102A1
100
AcDbEntity
8
Geo
100
AcDbLine
10
-74.5519721577725
20
8.42335157292055
30
0.000000000000000
11
-74.4519721577724
21
8.42591339873663
31
0.000000000000000
  0
LINE
  5
F102A2
330
F102A3
100
AcDbEntity
8
Geo
100
AcDbLine
10
-74.4519721577724
20
8.42591339873663
30
0.000000000000000
11
-74.3519721577725
21
8.42801122006975
31
0.000000000000000
  0
LINE
  5
F102A4
330
F102A5
100
AcDbEntity
8
Geo
100
AcDbLine
10
-74.3519721577725
20
8.42801122006975
30
0.000000000000000
11
-74.2519721577725
21
8.42964605779455
31
0.000000000000000
  0
LINE
  5
F102A6
330
F102A7
100
AcDbEntity
8
Geo
100
AcDbLine
10
-74.2519721577725
20
8.42964605779455
30
0.000000000000000
11
-74.1519721577725
21
8.43081870828915
31
0.000000000000000
  0
LINE
  5
F102A8
330
F102A9
100
AcDbEntity
8
Geo
100
AcDbLine
10
-97.1519721577725
20
8.78445685840024
30
0.000000000000000
11
-97.0519721577725
21
8.94633759568689
31
0.000000000000000
  0
LINE
  5
F102AA
330
F102AB
100
AcDbEntity
8
Geo
100
AcDbLine
10
-97.0519721577725
20
8.94633759568689
30
0.000000000000000
11
-96.9519721577725
21
8.90172552798949
31
0.000000000000000
  0
LINE
  5
F102AC
330
F102AD
100
AcDbEntity
8
Geo
100
AcDbLine
10
-96.9519721577725
20
8.90172552798949
30
0.000000000000000
11
-96.8519721577725
21
8.80267319854843
31
0.000000000000000
  0
LINE
  5
F102AE
330
F102AF
100
AcDbEntity
8
Geo
100
AcDbLine
10
-96.8519721577725
20
8.80267319854843
30
0.000000000000000
11
-96.7519721577725
21
8.66458907081652
31
0.000000000000000
  0
LINE
  5
F102B0
330
F102B1
100
AcDbEntity
8
Geo
100
AcDbLine
10
-96.7519721577725
20
8.66458907081652
30
0.000000000000000
11
-96.6519721577725
21
8.49336718794708
31
0.000000000000000
  0
LINE
  5
F102B2
330
F102B3
100
AcDbEntity
8
Geo
100
AcDbLine
10
-96.6519721577725
20
8.49336718794708
30
0.000000000000000
11
-96.5519721577725
21
8.30017765139088
31
0.000000000000000
  0
LINE
  5
F102B4
330
F102B5
100
AcDbEntity
8
Geo
100
AcDbLine
10
-96.5519721577725
20
8.30017765139088
30
0.000000000000000
11
-96.4519721577725
21
8.09432188950011
31
0.000000000000000
  0
LINE
  5
F102B6
330
F102B7
100
AcDbEntity
8
Geo
100
AcDbLine
10
-96.4519721577725
20
8.09432188950011
30
0.000000000000000
11
-96.3519721577725
21
7.87610483612494
31
0.000000000000000
  0
LINE
  5
F102B8
330
F102B9
100
AcDbEntity
8
Geo
100
AcDbLine
10
-96.3519721577725
20
7.87610483612494
30
0.000000000000000
11
-96.2519721577725
21
7.64584973587919
31
0.000000000000000
  0
LINE
  5
F102BA
330
F102BB
100
AcDbEntity
8
Geo
100
AcDbLine
10
-96.2519721577725
20
7.64584973587919
30
0.000000000000000
11
-96.1519721577725
21
7.40389766531855
31
0.000000000000000
  0
LINE
  5
F102BC
330
F102BD
100
AcDbEntity
8
Geo
100
AcDbLine
10
-96.1519721577725
20
7.40389766531855
30
0.000000000000000
11
-96.0519721577725
21
7.15060702770437
31
0.000000000000000
  0
LINE
  5
F102BE
330
F102BF
100
AcDbEntity
8
Geo
100
AcDbLine
10
-96.0519721577725
20
7.15060702770437
30
0.000000000000000
11
-95.9519721577725
21
6.88635302210141
31
0.000000000000000
  0
LINE
  5
F102C0
330
F102C1
100
AcDbEntity
8
Geo
100
AcDbLine
10
-95.9519721577725
20
6.88635302210141
30
0.000000000000000
11
-95.8519721577725
21
6.61152708759597
31
0.000000000000000
  0
LINE
  5
F102C2
330
F102C3
100
AcDbEntity
8
Geo
100
AcDbLine
10
-95.8519721577725
20
6.61152708759597
30
0.000000000000000
11
-95.7519721577725
21
6.32653632345778
31
0.000000000000000
  0
LINE
  5
F102C4
330
F102C5
100
AcDbEntity
8
Geo
100
AcDbLine
10
-95.7519721577725
20
6.32653632345778
30
0.000000000000000
11
-95.6519721577725
21
6.03180288610435
31
0.000000000000000
  0
LINE
  5
F102C6
330
F102C7
100
AcDbEntity
8
Geo
100
AcDbLine
10
-95.6519721577725
20
6.03180288610435
30
0.000000000000000
11
-95.5519721577725
21
5.72776336376132
31
0.000000000000000
  0
LINE
  5
F102C8
330
F102C9
100
AcDbEntity
8
Geo
100
AcDbLine
10
-95.5519721577725
20
5.72776336376132
30
0.000000000000000
11
-95.4519721577725
21
5.41486812974493
31
0.000000000000000
  0
LINE
  5
F102CA
330
F102CB
100
AcDbEntity
8
Geo
100
AcDbLine
10
-95.4519721577725
20
5.41486812974493
30
0.000000000000000
11
-95.3519721577725
21
5.09358067532462
31
0.000000000000000
  0
LINE
  5
F102CC
330
F102CD
100
AcDbEntity
8
Geo
100
AcDbLine
10
-95.3519721577725
20
5.09358067532462
30
0.000000000000000
11
-95.2519721577725
21
4.76437692315412
31
0.000000000000000
  0
LINE
  5
F102CE
330
F102CF
100
AcDbEntity
8
Geo
100
AcDbLine
10
-95.2519721577725
20
4.76437692315412
30
0.000000000000000
11
-95.1519721577725
21
4.42774452228785
31
0.000000000000000
  0
LINE
  5
F102D0
330
F102D1
100
AcDbEntity
8
Geo
100
AcDbLine
10
-95.1519721577725
20
4.42774452228785
30
0.000000000000000
11
-95.0519721577725
21
4.08418212582710
31
0.000000000000000
  0
LINE
  5
F102D2
330
F102D3
100
AcDbEntity
8
Geo
100
AcDbLine
10
-95.0519721577725
20
4.08418212582710
30
0.000000000000000
11
-94.9519721577725
21
3.73419865226585
31
0.000000000000000
  0
LINE
  5
F102D4
330
F102D5
100
AcDbEntity
8
Geo
100
AcDbLine
10
-94.9519721577725
20
3.73419865226585
30
0.000000000000000
11
-94.8519721577725
21
3.37831253163057
31
0.000000000000000
  0
LINE
  5
F102D6
330
F102D7
100
AcDbEntity
8
Geo
100
AcDbLine
10
-94.8519721577725
20
3.37831253163057
30
0.000000000000000
11
-94.7519721577725
21
3.01705093753050
31
0.000000000000000
  0
LINE
  5
F102D8
330
F102D9
100
AcDbEntity
8
Geo
100
AcDbLine
10
-94.7519721577725
20
3.01705093753050
30
0.000000000000000
11
-94.6519721577725
21
2.65094900625618
31
0.000000000000000
  0
LINE
  5
F102DA
330
F102DB
100
AcDbEntity
8
Geo
100
AcDbLine
10
-94.6519721577725
20
2.65094900625618
30
0.000000000000000
11
-94.5519721577725
21
2.28054904408277
31
0.000000000000000
  0
LINE
  5
F102DC
330
F102DD
100
AcDbEntity
8
Geo
100
AcDbLine
10
-94.5519721577725
20
2.28054904408277
30
0.000000000000000
11
-94.4519721577725
21
1.90639972395254
31
0.000000000000000
  0
LINE
  5
F102DE
330
F102DF
100
AcDbEntity
8
Geo
100
AcDbLine
10
-94.4519721577725
20
1.90639972395254
30
0.000000000000000
11
-94.3519721577725
21
1.52905527272646
31
0.000000000000000
  0
LINE
  5
F102E0
330
F102E1
100
AcDbEntity
8
Geo
100
AcDbLine
10
-94.3519721577725
20
1.52905527272646
30
0.000000000000000
11
-94.2519721577725
21
1.14907465020865
31
0.000000000000000
  0
LINE
  5
F102E2
330
F102E3
100
AcDbEntity
8
Geo
100
AcDbLine
10
-94.2519721577725
20
1.14907465020865
30
0.000000000000000
11
-94.1519721577725
21
0.767020721160076
31
0.000000000000000
  0
LINE
  5
F102E4
330
F102E5
100
AcDbEntity
8
Geo
100
AcDbLine
10
-94.1519721577725
20
0.767020721160076
30
0.000000000000000
11
-94.0519721577725
21
0.383459421527730
31
0.000000000000000
  0
LINE
  5
F102E6
330
F102E7
100
AcDbEntity
8
Geo
100
AcDbLine
10
-94.0519721577725
20
0.383459421527730
30
0.000000000000000
11
-93.9519721577725
21
-0.00104107987545904
31
0.000000000000000
  0
LINE
  5
F102E8
330
F102E9
100
AcDbEntity
8
Geo
100
AcDbLine
10
-93.9519721577725
20
-0.00104107987545904
30
0.000000000000000
11
-93.8519721577725
21
-0.385911222998309
31
0.000000000000000
  0
LINE
  5
F102EA
330
F102EB
100
AcDbEntity
8
Geo
100
AcDbLine
10
-93.8519721577725
20
-0.385911222998309
30
0.000000000000000
11
-93.7519721577725
21
-0.770580900239873
31
0.000000000000000
  0
LINE
  5
F102EC
330
F102ED
100
AcDbEntity
8
Geo
100
AcDbLine
10
-93.7519721577725
20
-0.770580900239873
30
0.000000000000000
11
-93.6519721577725
21
-1.15448030094904
31
0.000000000000000
  0
LINE
  5
F102EE
330
F102EF
100
AcDbEntity
8
Geo
100
AcDbLine
10
-93.6519721577725
20
-1.15448030094904
30
0.000000000000000
11
-93.5519721577725
21
-1.53704075548423
31
0.000000000000000
  0
LINE
  5
F102F0
330
F102F1
100
AcDbEntity
8
Geo
100
AcDbLine
10
-93.5519721577725
20
-1.53704075548423
30
0.000000000000000
11
-93.4519721577725
21
-1.91769557758295
31
0.000000000000000
  0
LINE
  5
F102F2
330
F102F3
100
AcDbEntity
8
Geo
100
AcDbLine
10
-93.4519721577725
20
-1.91769557758295
30
0.000000000000000
11
-93.3519721577725
21
-2.29588090379337
31
0.000000000000000
  0
LINE
  5
F102F4
330
F102F5
100
AcDbEntity
8
Geo
100
AcDbLine
10
-93.3519721577725
20
-2.29588090379337
30
0.000000000000000
11
-93.2519721577725
21
-2.67103652872440
31
0.000000000000000
  0
LINE
  5
F102F6
330
F102F7
100
AcDbEntity
8
Geo
100
AcDbLine
10
-93.2519721577725
20
-2.67103652872440
30
0.000000000000000
11
-93.1519721577725
21
-3.04260673487723
31
0.000000000000000
  0
LINE
  5
F102F8
330
F102F9
100
AcDbEntity
8
Geo
100
AcDbLine
10
-93.1519721577725
20
-3.04260673487723
30
0.000000000000000
11
-93.0519721577725
21
-3.41004111582881
31
0.000000000000000
  0
LINE
  5
F102FA
330
F102FB
100
AcDbEntity
8
Geo
100
AcDbLine
10
-93.0519721577725
20
-3.41004111582881
30
0.000000000000000
11
-92.9519721577725
21
-3.77279539154815
31
0.000000000000000
  0
LINE
  5
F102FC
330
F102FD
100
AcDbEntity
8
Geo
100
AcDbLine
10
-92.9519721577725
20
-3.77279539154815
30
0.000000000000000
11
-92.8519721577725
21
-4.13033221463754
31
0.000000000000000
  0
LINE
  5
F102FE
330
F102FF
100
AcDbEntity
8
Geo
100
AcDbLine
10
-92.8519721577725
20
-4.13033221463754
30
0.000000000000000
11
-92.7519721577725
21
-4.48212196630450
31
0.000000000000000
  0
LINE
  5
F10300
330
F10301
100
AcDbEntity
8
Geo
100
AcDbLine
10
-92.7519721577725
20
-4.48212196630450
30
0.000000000000000
11
-92.6519721577725
21
-4.82764354088536
31
0.000000000000000
  0
LINE
  5
F10302
330
F10303
100
AcDbEntity
8
Geo
100
AcDbLine
10
-92.6519721577725
20
-4.82764354088536
30
0.000000000000000
11
-92.5519721577725
21
-5.16638511775835
31
0.000000000000000
  0
LINE
  5
F10304
330
F10305
100
AcDbEntity
8
Geo
100
AcDbLine
10
-92.5519721577725
20
-5.16638511775835
30
0.000000000000000
11
-92.4519721577725
21
-5.49784491950273
31
0.000000000000000
  0
LINE
  5
F10306
330
F10307
100
AcDbEntity
8
Geo
100
AcDbLine
10
-92.4519721577725
20
-5.49784491950273
30
0.000000000000000
11
-92.3519721577725
21
-5.82153195518102
31
0.000000000000000
  0
LINE
  5
F10308
330
F10309
100
AcDbEntity
8
Geo
100
AcDbLine
10
-92.3519721577725
20
-5.82153195518102
30
0.000000000000000
11
-92.2519721577725
21
-6.13696674764316
31
0.000000000000000
  0
LINE
  5
F1030A
330
F1030B
100
AcDbEntity
8
Geo
100
AcDbLine
10
-92.2519721577725
20
-6.13696674764316
30
0.000000000000000
11
-92.1519721577725
21
-6.44368204377535
31
0.000000000000000
  0
LINE
  5
F1030C
330
F1030D
100
AcDbEntity
8
Geo
100
AcDbLine
10
-92.1519721577725
20
-6.44368204377535
30
0.000000000000000
11
-92.0519721577725
21
-6.74122350664141
31
0.000000000000000
  0
LINE
  5
F1030E
330
F1030F
100
AcDbEntity
8
Geo
100
AcDbLine
10
-92.0519721577725
20
-6.74122350664141
30
0.000000000000000
11
-91.9519721577725
21
-7.02915038849147
31
0.000000000000000
  0
LINE
  5
F10310
330
F10311
100
AcDbEntity
8
Geo
100
AcDbLine
10
-91.9519721577725
20
-7.02915038849147
30
0.000000000000000
11
-91.8519721577725
21
-7.30703618364098
31
0.000000000000000
  0
LINE
  5
F10312
330
F10313
100
AcDbEntity
8
Geo
100
AcDbLine
10
-91.8519721577725
20
-7.30703618364098
30
0.000000000000000
11
-91.7519721577725
21
-7.57446926025295
31
0.000000000000000
  0
LINE
  5
F10314
330
F10315
100
AcDbEntity
8
Geo
100
AcDbLine
10
-91.7519721577725
20
-7.57446926025295
30
0.000000000000000
11
-91.6519721577725
21
-7.83105347008768
31
0.000000000000000
  0
LINE
  5
F10316
330
F10317
100
AcDbEntity
8
Geo
100
AcDbLine
10
-91.6519721577725
20
-7.83105347008768
30
0.000000000000000
11
-91.5519721577725
21
-8.07640873531650
31
0.000000000000000
  0
LINE
  5
F10318
330
F10319
100
AcDbEntity
8
Geo
100
AcDbLine
10
-91.5519721577725
20
-8.07640873531650
30
0.000000000000000
11
-91.4519721577725
21
-8.31017161153061
31
0.000000000000000
  0
LINE
  5
F1031A
330
F1031B
100
AcDbEntity
8
Geo
100
AcDbLine
10
-91.4519721577725
20
-8.31017161153061
30
0.000000000000000
11
-91.3519721577725
21
-8.53199582611071
31
0.000000000000000
  0
LINE
  5
F1031C
330
F1031D
100
AcDbEntity
8
Geo
100
AcDbLine
10
-91.3519721577725
20
-8.53199582611071
30
0.000000000000000
11
-91.2519721577725
21
-8.74155279116017
31
0.000000000000000
  0
LINE
  5
F1031E
330
F1031F
100
AcDbEntity
8
Geo
100
AcDbLine
10
-91.2519721577725
20
-8.74155279116017
30
0.000000000000000
11
-91.1519721577725
21
-8.93853209024179
31
0.000000000000000
  0
LINE
  5
F10320
330
F10321
100
AcDbEntity
8
Geo
100
AcDbLine
10
-91.1519721577725
20
-8.93853209024179
30
0.000000000000000
11
-91.0519721577725
21
-9.12264193819730
31
0.000000000000000
  0
LINE
  5
F10322
330
F10323
100
AcDbEntity
8
Geo
100
AcDbLine
10
-91.0519721577725
20
-9.12264193819730
30
0.000000000000000
11
-90.9519721577725
21
-9.29360961336822
31
0.000000000000000
  0
LINE
  5
F10324
330
F10325
100
AcDbEntity
8
Geo
100
AcDbLine
10
-90.9519721577725
20
-9.29360961336822
30
0.000000000000000
11
-90.8519721577725
21
-9.45118186157812
31
0.000000000000000
  0
LINE
  5
F10326
330
F10327
100
AcDbEntity
8
Geo
100
AcDbLine
10
-90.8519721577725
20
-9.45118186157812
30
0.000000000000000
11
-90.7519721577725
21
-9.59512527127764
31
0.000000000000000
  0
LINE
  5
F10328
330
F10329
100
AcDbEntity
8
Geo
100
AcDbLine
10
-90.7519721577725
20
-9.59512527127764
30
0.000000000000000
11
-90.6519721577725
21
-9.72522661929675
31
0.000000000000000
  0
LINE
  5
F1032A
330
F1032B
100
AcDbEntity
8
Geo
100
AcDbLine
10
-90.6519721577725
20
-9.72522661929675
30
0.000000000000000
11
-90.5519721577725
21
-9.84129318669185
31
0.000000000000000
  0
LINE
  5
F1032C
330
F1032D
100
AcDbEntity
8
Geo
100
AcDbLine
10
-90.5519721577725
20
-9.84129318669185
30
0.000000000000000
11
-90.4519721577725
21
-9.94315304422014
31
0.000000000000000
  0
LINE
  5
F1032E
330
F1032F
100
AcDbEntity
8
Geo
100
AcDbLine
10
-90.4519721577725
20
-9.94315304422014
30
0.000000000000000
11
-90.3519721577725
21
-10.0306553070181
31
0.000000000000000
  0
LINE
  5
F10330
330
F10331
100
AcDbEntity
8
Geo
100
AcDbLine
10
-90.3519721577725
20
-10.0306553070181
30
0.000000000000000
11
-90.2519721577725
21
-10.1036703581072
31
0.000000000000000
  0
LINE
  5
F10332
330
F10333
100
AcDbEntity
8
Geo
100
AcDbLine
10
-90.2519721577725
20
-10.1036703581072
30
0.000000000000000
11
-90.1519721577725
21
-10.1620900403949
31
0.000000000000000
  0
LINE
  5
F10334
330
F10335
100
AcDbEntity
8
Geo
100
AcDbLine
10
-90.1519721577725
20
-10.1620900403949
30
0.000000000000000
11
-90.0519721577725
21
-10.2058278168883
31
0.000000000000000
  0
LINE
  5
F10336
330
F10337
100
AcDbEntity
8
Geo
100
AcDbLine
10
-90.0519721577725
20
-10.2058278168883
30
0.000000000000000
11
-89.9519721577725
21
-10.2348188988806
31
0.000000000000000
  0
LINE
  5
F10338
330
F10339
100
AcDbEntity
8
Geo
100
AcDbLine
10
-89.9519721577725
20
-10.2348188988806
30
0.000000000000000
11
-89.8519721577725
21
-10.2490203419228
31
0.000000000000000
  0
LINE
  5
F1033A
330
F1033B
100
AcDbEntity
8
Geo
100
AcDbLine
10
-81.6519721577726
20
9.74937272899234
30
0.000000000000000
11
-81.5519721577726
21
9.74314887549812
31
0.000000000000000
  0
LINE
  5
F1033C
330
F1033D
100
AcDbEntity
8
Geo
100
AcDbLine
10
-81.5519721577726
20
9.74314887549812
30
0.000000000000000
11
-81.4519721577726
21
9.72212132542740
31
0.000000000000000
  0
LINE
  5
F1033E
330
F1033F
100
AcDbEntity
8
Geo
100
AcDbLine
10
-81.4519721577726
20
9.72212132542740
30
0.000000000000000
11
-81.3519721577726
21
9.68632122686050
31
0.000000000000000
  0
LINE
  5
F10340
330
F10341
100
AcDbEntity
8
Geo
100
AcDbLine
10
-81.3519721577726
20
9.68632122686050
30
0.000000000000000
11
-81.2519721577726
21
9.63580161043298
31
0.000000000000000
  0
LINE
  5
F10342
330
F10343
100
AcDbEntity
8
Geo
100
AcDbLine
10
-81.2519721577726
20
9.63580161043298
30
0.000000000000000
11
-81.1519721577726
21
9.57063731078152
31
0.000000000000000
  0
LINE
  5
F10344
330
F10345
100
AcDbEntity
8
Geo
100
AcDbLine
10
-81.1519721577726
20
9.57063731078152
30
0.000000000000000
11
-81.0519721577726
21
9.49092485569141
31
0.000000000000000
  0
LINE
  5
F10346
330
F10347
100
AcDbEntity
8
Geo
100
AcDbLine
10
-81.0519721577726
20
9.49092485569141
30
0.000000000000000
11
-80.9519721577726
21
9.39678232311010
31
0.000000000000000
  0
LINE
  5
F10348
330
F10349
100
AcDbEntity
8
Geo
100
AcDbLine
10
-80.9519721577726
20
9.39678232311010
30
0.000000000000000
11
-80.8519721577726
21
9.28834916623851
31
0.000000000000000
  0
LINE
  5
F1034A
330
F1034B
100
AcDbEntity
8
Geo
100
AcDbLine
10
-80.8519721577726
20
9.28834916623851
30
0.000000000000000
11
-80.7519721577726
21
9.16578600695920
31
0.000000000000000
  0
LINE
  5
F1034C
330
F1034D
100
AcDbEntity
8
Geo
100
AcDbLine
10
-80.7519721577726
20
9.16578600695920
30
0.000000000000000
11
-80.6519721577725
21
9.02927439790738
31
0.000000000000000
  0
LINE
  5
F1034E
330
F1034F
100
AcDbEntity
8
Geo
100
AcDbLine
10
-80.6519721577725
20
9.02927439790738
30
0.000000000000000
11
-80.5519721577726
21
8.87901655353727
31
0.000000000000000
  0
LINE
  5
F10350
330
F10351
100
AcDbEntity
8
Geo
100
AcDbLine
10
-80.5519721577726
20
8.87901655353727
30
0.000000000000000
11
-80.4519721577726
21
8.71523505058212
31
0.000000000000000
  0
LINE
  5
F10352
330
F10353
100
AcDbEntity
8
Geo
100
AcDbLine
10
-80.4519721577726
20
8.71523505058212
30
0.000000000000000
11
-80.3519721577726
21
8.53817249835157
31
0.000000000000000
  0
LINE
  5
F10354
330
F10355
100
AcDbEntity
8
Geo
100
AcDbLine
10
-80.3519721577726
20
8.53817249835157
30
0.000000000000000
11
-80.2519721577725
21
8.34809117935486
31
0.000000000000000
  0
LINE
  5
F10356
330
F10357
100
AcDbEntity
8
Geo
100
AcDbLine
10
-80.2519721577725
20
8.34809117935486
30
0.000000000000000
11
-80.1519721577725
21
8.14527266078210
31
0.000000000000000
  0
LINE
  5
F10358
330
F10359
100
AcDbEntity
8
Geo
100
AcDbLine
10
-80.1519721577725
20
8.14527266078210
30
0.000000000000000
11
-80.0519721577726
21
7.93001737741920
31
0.000000000000000
  0
LINE
  5
F1035A
330
F1035B
100
AcDbEntity
8
Geo
100
AcDbLine
10
-80.0519721577726
20
7.93001737741920
30
0.000000000000000
11
-79.9519721577725
21
7.70264418661423
31
0.000000000000000
  0
LINE
  5
F1035C
330
F1035D
100
AcDbEntity
8
Geo
100
AcDbLine
10
-79.9519721577725
20
7.70264418661423
30
0.000000000000000
11
-79.8519721577725
21
7.46348989595449
31
0.000000000000000
  0
LINE
  5
F1035E
330
F1035F
100
AcDbEntity
8
Geo
100
AcDbLine
10
-79.8519721577725
20
7.46348989595449
30
0.000000000000000
11
-79.7519721577725
21
7.21290876435390
31
0.000000000000000
  0
LINE
  5
F10360
330
F10361
100
AcDbEntity
8
Geo
100
AcDbLine
10
-79.7519721577725
20
7.21290876435390
30
0.000000000000000
11
-79.6519721577725
21
6.95127197728977
31
0.000000000000000
  0
LINE
  5
F10362
330
F10363
100
AcDbEntity
8
Geo
100
AcDbLine
10
-79.6519721577725
20
6.95127197728977
30
0.000000000000000
11
-79.5519721577725
21
6.67896709696629
31
0.000000000000000
  0
LINE
  5
F10364
330
F10365
100
AcDbEntity
8
Geo
100
AcDbLine
10
-79.5519721577725
20
6.67896709696629
30
0.000000000000000
11
-79.4519721577725
21
6.39639748821915
31
0.000000000000000
  0
LINE
  5
F10366
330
F10367
100
AcDbEntity
8
Geo
100
AcDbLine
10
-79.4519721577725
20
6.39639748821915
30
0.000000000000000
11
-79.3519721577725
21
6.10398172101181
31
0.000000000000000
  0
LINE
  5
F10368
330
F10369
100
AcDbEntity
8
Geo
100
AcDbLine
10
-79.3519721577725
20
6.10398172101181
30
0.000000000000000
11
-79.2519721577725
21
5.80215295040839
31
0.000000000000000
  0
LINE
  5
F1036A
330
F1036B
100
AcDbEntity
8
Geo
100
AcDbLine
10
-79.2519721577725
20
5.80215295040839
30
0.000000000000000
11
-79.1519721577725
21
5.49135827494162
31
0.000000000000000
  0
LINE
  5
F1036C
330
F1036D
100
AcDbEntity
8
Geo
100
AcDbLine
10
-79.1519721577725
20
5.49135827494162
30
0.000000000000000
11
-79.0519721577725
21
5.13315800653188
31
0.000000000000000
  0
LINE
  5
F1036E
330
F1036F
100
AcDbEntity
8
Geo
100
AcDbLine
10
-79.0519721577725
20
5.13315800653188
30
0.000000000000000
11
-78.9519721577725
21
4.77218715078299
31
0.000000000000000
  0
LINE
  5
F10370
330
F10371
100
AcDbEntity
8
Geo
100
AcDbLine
10
-78.9519721577725
20
4.77218715078299
30
0.000000000000000
11
-78.8519721577725
21
4.40964291421375
31
0.000000000000000
  0
LINE
  5
F10372
330
F10373
100
AcDbEntity
8
Geo
100
AcDbLine
10
-78.8519721577725
20
4.40964291421375
30
0.000000000000000
11
-78.7519721577725
21
4.04665142606668
31
0.000000000000000
  0
LINE
  5
F10374
330
F10375
100
AcDbEntity
8
Geo
100
AcDbLine
10
-78.7519721577725
20
4.04665142606668
30
0.000000000000000
11
-78.6519721577725
21
3.68426758289676
31
0.000000000000000
  0
LINE
  5
F10376
330
F10377
100
AcDbEntity
8
Geo
100
AcDbLine
10
-78.6519721577725
20
3.68426758289676
30
0.000000000000000
11
-78.5519721577725
21
3.32347535480815
31
0.000000000000000
  0
LINE
  5
F10378
330
F10379
100
AcDbEntity
8
Geo
100
AcDbLine
10
-78.5519721577725
20
3.32347535480815
30
0.000000000000000
11
-78.4519721577725
21
2.96518850858611
31
0.000000000000000
  0
LINE
  5
F1037A
330
F1037B
100
AcDbEntity
8
Geo
100
AcDbLine
10
-78.4519721577725
20
2.96518850858611
30
0.000000000000000
11
-78.3519721577725
21
2.61025170425272
31
0.000000000000000
  0
LINE
  5
F1037C
330
F1037D
100
AcDbEntity
8
Geo
100
AcDbLine
10
-78.3519721577725
20
2.61025170425272
30
0.000000000000000
11
-78.2519721577725
21
2.25944192309979
31
0.000000000000000
  0
LINE
  5
F1037E
330
F1037F
100
AcDbEntity
8
Geo
100
AcDbLine
10
-78.2519721577725
20
2.25944192309979
30
0.000000000000000
11
-78.1519721577725
21
1.91347018697592
31
0.000000000000000
  0
LINE
  5
F10380
330
F10381
100
AcDbEntity
8
Geo
100
AcDbLine
10
-78.1519721577725
20
1.91347018697592
30
0.000000000000000
11
-78.0519721577725
21
1.57298353048829
31
0.000000000000000
  0
LINE
  5
F10382
330
F10383
100
AcDbEntity
8
Geo
100
AcDbLine
10
-78.0519721577725
20
1.57298353048829
30
0.000000000000000
11
-77.9519721577725
21
1.23856718978709
31
0.000000000000000
  0
LINE
  5
F10384
330
F10385
100
AcDbEntity
8
Geo
100
AcDbLine
10
-77.9519721577725
20
1.23856718978709
30
0.000000000000000
11
-77.8519721577725
21
0.910746973696805
31
0.000000000000000
  0
LINE
  5
F10386
330
F10387
100
AcDbEntity
8
Geo
100
AcDbLine
10
-77.8519721577725
20
0.910746973696805
30
0.000000000000000
11
-77.7519721577725
21
0.589991785115354
31
0.000000000000000
  0
LINE
  5
F10388
330
F10389
100
AcDbEntity
8
Geo
100
AcDbLine
10
-77.7519721577725
20
0.589991785115354
30
0.000000000000000
11
-77.6519721577725
21
0.276716262790035
31
0.000000000000000
  0
LINE
  5
F1038A
330
F1038B
100
AcDbEntity
8
Geo
100
AcDbLine
10
-77.6519721577725
20
0.276716262790035
30
0.000000000000000
11
-77.5519721577725
21
-0.0287164842241951
31
0.000000000000000
  0
LINE
  5
F1038C
330
F1038D
100
AcDbEntity
8
Geo
100
AcDbLine
10
-77.5519721577725
20
-0.0287164842241951
30
0.000000000000000
11
-77.4519721577725
21
-0.325992074936362
31
0.000000000000000
  0
LINE
  5
F1038E
330
F1038F
100
AcDbEntity
8
Geo
100
AcDbLine
10
-77.4519721577725
20
-0.325992074936362
30
0.000000000000000
11
-77.3519721577725
21
-0.614842010983242
31
0.000000000000000
  0
LINE
  5
F10390
330
F10391
100
AcDbEntity
8
Geo
100
AcDbLine
10
-77.3519721577725
20
-0.614842010983242
30
0.000000000000000
11
-77.2519721577725
21
-0.895040808646363
31
0.000000000000000
  0
LINE
  5
F10392
330
F10393
100
AcDbEntity
8
Geo
100
AcDbLine
10
-77.2519721577725
20
-0.895040808646363
30
0.000000000000000
11
-77.1519721577725
21
-1.16640312754477
31
0.000000000000000
  0
LINE
  5
F10394
330
F10395
100
AcDbEntity
8
Geo
100
AcDbLine
10
-77.1519721577725
20
-1.16640312754477
30
0.000000000000000
11
-77.0519721577725
21
-1.42878091326171
31
0.000000000000000
  0
LINE
  5
F10396
330
F10397
100
AcDbEntity
8
Geo
100
AcDbLine
10
-77.0519721577725
20
-1.42878091326171
30
0.000000000000000
11
-76.9519721577725
21
-1.68206056928260
31
0.000000000000000
  0
LINE
  5
F10398
330
F10399
100
AcDbEntity
8
Geo
100
AcDbLine
10
-76.9519721577725
20
-1.68206056928260
30
0.000000000000000
11
-76.8519721577725
21
-1.92616017183208
31
0.000000000000000
  0
LINE
  5
F1039A
330
F1039B
100
AcDbEntity
8
Geo
100
AcDbLine
10
-76.8519721577725
20
-1.92616017183208
30
0.000000000000000
11
-76.7519721577725
21
-2.16102673950535
31
0.000000000000000
  0
LINE
  5
F1039C
330
F1039D
100
AcDbEntity
8
Geo
100
AcDbLine
10
-76.7519721577725
20
-2.16102673950535
30
0.000000000000000
11
-76.6519721577725
21
-2.38663356799757
31
0.000000000000000
  0
LINE
  5
F1039E
330
F1039F
100
AcDbEntity
8
Geo
100
AcDbLine
10
-76.6519721577725
20
-2.38663356799757
30
0.000000000000000
11
-76.5519721577725
21
-2.60297763874780
31
0.000000000000000
  0
LINE
  5
F103A0
330
F103A1
100
AcDbEntity
8
Geo
100
AcDbLine
10
-76.5519721577725
20
-2.60297763874780
30
0.000000000000000
11
-76.4519721577725
21
-2.81007710893188
31
0.000000000000000
  0
LINE
  5
F103A2
330
F103A3
100
AcDbEntity
8
Geo
100
AcDbLine
10
-76.4519721577725
20
-2.81007710893188
30
0.000000000000000
11
-76.3519721577725
21
-3.00796888896282
31
0.000000000000000
  0
LINE
  5
F103A4
330
F103A5
100
AcDbEntity
8
Geo
100
AcDbLine
10
-76.3519721577725
20
-3.00796888896282
30
0.000000000000000
11
-76.2519721577725
21
-3.19670631248655
31
0.000000000000000
  0
LINE
  5
F103A6
330
F103A7
100
AcDbEntity
8
Geo
100
AcDbLine
10
-76.2519721577725
20
-3.19670631248655
30
0.000000000000000
11
-76.1519721577725
21
-3.37635690279386
31
0.000000000000000
  0
LINE
  5
F103A8
330
F103A9
100
AcDbEntity
8
Geo
100
AcDbLine
10
-76.1519721577725
20
-3.37635690279386
30
0.000000000000000
11
-76.0519721577725
21
-3.54700023860455
31
0.000000000000000
  0
LINE
  5
F103AA
330
F103AB
100
AcDbEntity
8
Geo
100
AcDbLine
10
-76.0519721577725
20
-3.54700023860455
30
0.000000000000000
11
-75.9519721577725
21
-3.70872592131338
31
0.000000000000000
  0
LINE
  5
F103AC
330
F103AD
100
AcDbEntity
8
Geo
100
AcDbLine
10
-75.9519721577725
20
-3.70872592131338
30
0.000000000000000
11
-75.8519721577725
21
-3.86163164501679
31
0.000000000000000
  0
LINE
  5
F103AE
330
F103AF
100
AcDbEntity
8
Geo
100
AcDbLine
10
-75.8519721577725
20
-3.86163164501679
30
0.000000000000000
11
-75.7519721577725
21
-4.00582136996085
31
0.000000000000000
  0
LINE
  5
F103B0
330
F103B1
100
AcDbEntity
8
Geo
100
AcDbLine
10
-75.7519721577725
20
-4.00582136996085
30
0.000000000000000
11
-75.6519721577725
21
-4.14140359945996
31
0.000000000000000
  0
LINE
  5
F103B2
330
F103B3
100
AcDbEntity
8
Geo
100
AcDbLine
10
-75.6519721577725
20
-4.14140359945996
30
0.000000000000000
11
-75.5519721577725
21
-4.26848975982893
31
0.000000000000000
  0
LINE
  5
F103B4
330
F103B5
100
AcDbEntity
8
Geo
100
AcDbLine
10
-75.5519721577725
20
-4.26848975982893
30
0.000000000000000
11
-75.4519721577725
21
-4.38719268244253
31
0.000000000000000
  0
LINE
  5
F103B6
330
F103B7
100
AcDbEntity
8
Geo
100
AcDbLine
10
-75.4519721577725
20
-4.38719268244253
30
0.000000000000000
11
-75.3519721577725
21
-4.49762518668390
31
0.000000000000000
  0
LINE
  5
F103B8
330
F103B9
100
AcDbEntity
8
Geo
100
AcDbLine
10
-75.3519721577725
20
-4.49762518668390
30
0.000000000000000
11
-75.2519721577725
21
-4.59989876225918
31
0.000000000000000
  0
LINE
  5
F103BA
330
F103BB
100
AcDbEntity
8
Geo
100
AcDbLine
10
-75.2519721577725
20
-4.59989876225918
30
0.000000000000000
11
-75.1519721577725
21
-4.69412234913770
31
0.000000000000000
  0
LINE
  5
F103BC
330
F103BD
100
AcDbEntity
8
Geo
100
AcDbLine
10
-75.1519721577725
20
-4.69412234913770
30
0.000000000000000
11
-75.0519721577725
21
-4.78040121321968
31
0.000000000000000
  0
LINE
  5
F103BE
330
F103BF
100
AcDbEntity
8
Geo
100
AcDbLine
10
-75.0519721577725
20
-4.78040121321968
30
0.000000000000000
11
-74.9519721577725
21
-4.85883591573164
31
0.000000000000000
  0
LINE
  5
F103C0
330
F103C1
100
AcDbEntity
8
Geo
100
AcDbLine
10
-74.9519721577725
20
-4.85883591573164
30
0.000000000000000
11
-74.8519721577725
21
-4.92952137429981
31
0.000000000000000
  0
LINE
  5
F103C2
330
F103C3
100
AcDbEntity
8
Geo
100
AcDbLine
10
-74.8519721577725
20
-4.92952137429981
30
0.000000000000000
11
-74.7519721577725
21
-4.99254601364889
31
0.000000000000000
  0
LINE
  5
F103C4
330
F103C5
100
AcDbEntity
8
Geo
100
AcDbLine
10
-74.7519721577725
20
-4.99254601364889
30
0.000000000000000
11
-74.6519721577725
21
-5.04799100391327
31
0.000000000000000
  0
LINE
  5
F103C6
330
F103C7
100
AcDbEntity
8
Geo
100
AcDbLine
10
-74.6519721577725
20
-5.04799100391327
30
0.000000000000000
11
-74.5519721577725
21
-5.09592958462618
31
0.000000000000000
  0
LINE
  5
F103C8
330
F103C9
100
AcDbEntity
8
Geo
100
AcDbLine
10
-74.5519721577725
20
-5.09592958462618
30
0.000000000000000
11
-74.4519721577724
21
-5.13642647256482
31
0.000000000000000
  0
LINE
  5
F103CA
330
F103CB
100
AcDbEntity
8
Geo
100
AcDbLine
10
-74.4519721577724
20
-5.13642647256482
30
0.000000000000000
11
-74.3519721577725
21
-5.16953735177286
31
0.000000000000000
  0
LINE
  5
F103CC
330
F103CD
100
AcDbEntity
8
Geo
100
AcDbLine
10
-74.3519721577725
20
-5.16953735177286
30
0.000000000000000
11
-74.2519721577725
21
-5.19530844425114
31
0.000000000000000
  0
LINE
  5
F103CE
330
F103CF
100
AcDbEntity
8
Geo
100
AcDbLine
10
-74.2519721577725
20
-5.19530844425114
30
0.000000000000000
11
-74.1519721577725
21
-5.21377616000003
31
0.000000000000000
  0
LINE
  5
F103D0
330
F103D1
100
AcDbEntity
8
Geo
100
AcDbLine
10
-97.1519721577725
20
-0.250580046403745
30
0.000000000000000
11
-97.0519721577725
21
-0.627689092833326
31
0.000000000000000
  0
LINE
  5
F103D2
330
F103D3
100
AcDbEntity
8
Geo
100
AcDbLine
10
-97.0519721577725
20
-0.627689092833326
30
0.000000000000000
11
-96.9519721577725
21
-1.01192993103866
31
0.000000000000000
  0
LINE
  5
F103D4
330
F103D5
100
AcDbEntity
8
Geo
100
AcDbLine
10
-96.9519721577725
20
-1.01192993103866
30
0.000000000000000
11
-96.8519721577725
21
-1.39790699698761
31
0.000000000000000
  0
LINE
  5
F103D6
330
F103D7
100
AcDbEntity
8
Geo
100
AcDbLine
10
-96.8519721577725
20
-1.39790699698761
30
0.000000000000000
11
-96.7519721577725
21
-1.78255642030912
31
0.000000000000000
  0
LINE
  5
F103D8
330
F103D9
100
AcDbEntity
8
Geo
100
AcDbLine
10
-96.7519721577725
20
-1.78255642030912
30
0.000000000000000
11
-96.6519721577725
21
-2.16322328846859
31
0.000000000000000
  0
LINE
  5
F103DA
330
F103DB
100
AcDbEntity
8
Geo
100
AcDbLine
10
-96.6519721577725
20
-2.16322328846859
30
0.000000000000000
11
-96.5519721577725
21
-2.53950778548855
31
0.000000000000000
  0
LINE
  5
F103DC
330
F103DD
100
AcDbEntity
8
Geo
100
AcDbLine
10
-96.5519721577725
20
-2.53950778548855
30
0.000000000000000
11
-96.4519721577725
21
-2.91240169707240
31
0.000000000000000
  0
LINE
  5
F103DE
330
F103DF
100
AcDbEntity
8
Geo
100
AcDbLine
10
-96.4519721577725
20
-2.91240169707240
30
0.000000000000000
11
-96.3519721577725
21
-3.28135265599413
31
0.000000000000000
  0
LINE
  5
F103E0
330
F103E1
100
AcDbEntity
8
Geo
100
AcDbLine
10
-96.3519721577725
20
-3.28135265599413
30
0.000000000000000
11
-96.2519721577725
21
-3.64581413571791
31
0.000000000000000
  0
LINE
  5
F103E2
330
F103E3
100
AcDbEntity
8
Geo
100
AcDbLine
10
-96.2519721577725
20
-3.64581413571791
30
0.000000000000000
11
-96.1519721577725
21
-4.00524625996716
31
0.000000000000000
  0
LINE
  5
F103E4
330
F103E5
100
AcDbEntity
8
Geo
100
AcDbLine
10
-96.1519721577725
20
-4.00524625996716
30
0.000000000000000
11
-96.0519721577725
21
-4.35911660244246
31
0.000000000000000
  0
LINE
  5
F103E6
330
F103E7
100
AcDbEntity
8
Geo
100
AcDbLine
10
-96.0519721577725
20
-4.35911660244246
30
0.000000000000000
11
-95.9519721577725
21
-4.70690097550390
31
0.000000000000000
  0
LINE
  5
F103E8
330
F103E9
100
AcDbEntity
8
Geo
100
AcDbLine
10
-95.9519721577725
20
-4.70690097550390
30
0.000000000000000
11
-95.8519721577725
21
-5.04808420664951
31
0.000000000000000
  0
LINE
  5
F103EA
330
F103EB
100
AcDbEntity
8
Geo
100
AcDbLine
10
-95.8519721577725
20
-5.04808420664951
30
0.000000000000000
11
-95.7519721577725
21
-5.38216090163952
31
0.000000000000000
  0
LINE
  5
F103EC
330
F103ED
100
AcDbEntity
8
Geo
100
AcDbLine
10
-95.7519721577725
20
-5.38216090163952
30
0.000000000000000
11
-95.6519721577725
21
-5.70863619313617
31
0.000000000000000
  0
LINE
  5
F103EE
330
F103EF
100
AcDbEntity
8
Geo
100
AcDbLine
10
-95.6519721577725
20
-5.70863619313617
30
0.000000000000000
11
-95.5519721577725
21
-6.02702647374998
31
0.000000000000000
  0
LINE
  5
F103F0
330
F103F1
100
AcDbEntity
8
Geo
100
AcDbLine
10
-95.5519721577725
20
-6.02702647374998
30
0.000000000000000
11
-95.4519721577725
21
-6.33686011240671
31
0.000000000000000
  0
LINE
  5
F103F2
330
F103F3
100
AcDbEntity
8
Geo
100
AcDbLine
10
-95.4519721577725
20
-6.33686011240671
30
0.000000000000000
11
-95.3519721577725
21
-6.63767815297381
31
0.000000000000000
  0
LINE
  5
F103F4
330
F103F5
100
AcDbEntity
8
Geo
100
AcDbLine
10
-95.3519721577725
20
-6.63767815297381
30
0.000000000000000
11
-95.2519721577725
21
-6.92903499411145
31
0.000000000000000
  0
LINE
  5
F103F6
330
F103F7
100
AcDbEntity
8
Geo
100
AcDbLine
10
-95.2519721577725
20
-6.92903499411145
30
0.000000000000000
11
-95.1519721577725
21
-7.21049904934122
31
0.000000000000000
  0
LINE
  5
F103F8
330
F103F9
100
AcDbEntity
8
Geo
100
AcDbLine
10
-95.1519721577725
20
-7.21049904934122
30
0.000000000000000
11
-95.0519721577725
21
-7.48165338635453
31
0.000000000000000
  0
LINE
  5
F103FA
330
F103FB
100
AcDbEntity
8
Geo
100
AcDbLine
10
-95.0519721577725
20
-7.48165338635453
30
0.000000000000000
11
-94.9519721577725
21
-7.74209634461388
31
0.000000000000000
  0
LINE
  5
F103FC
330
F103FD
100
AcDbEntity
8
Geo
100
AcDbLine
10
-94.9519721577725
20
-7.74209634461388
30
0.000000000000000
11
-94.8519721577725
21
-7.99144213033199
31
0.000000000000000
  0
LINE
  5
F103FE
330
F103FF
100
AcDbEntity
8
Geo
100
AcDbLine
10
-94.8519721577725
20
-7.99144213033199
30
0.000000000000000
11
-94.7519721577725
21
-8.22932138794769
31
0.000000000000000
  0
LINE
  5
F10400
330
F10401
100
AcDbEntity
8
Geo
100
AcDbLine
10
-94.7519721577725
20
-8.22932138794769
30
0.000000000000000
11
-94.6519721577725
21
-8.45538174725170
31
0.000000000000000
  0
LINE
  5
F10402
330
F10403
100
AcDbEntity
8
Geo
100
AcDbLine
10
-94.6519721577725
20
-8.45538174725170
30
0.000000000000000
11
-94.5519721577725
21
-8.66928834535217
31
0.000000000000000
  0
LINE
  5
F10404
330
F10405
100
AcDbEntity
8
Geo
100
AcDbLine
10
-94.5519721577725
20
-8.66928834535217
30
0.000000000000000
11
-94.4519721577725
21
-8.87072432270661
31
0.000000000000000
  0
LINE
  5
F10406
330
F10407
100
AcDbEntity
8
Geo
100
AcDbLine
10
-94.4519721577725
20
-8.87072432270661
30
0.000000000000000
11
-94.3519721577725
21
-9.05939129248548
31
0.000000000000000
  0
LINE
  5
F10408
330
F10409
100
AcDbEntity
8
Geo
100
AcDbLine
10
-94.3519721577725
20
-9.05939129248548
30
0.000000000000000
11
-94.2519721577725
21
-9.23500978257216
31
0.000000000000000
  0
LINE
  5
F1040A
330
F1040B
100
AcDbEntity
8
Geo
100
AcDbLine
10
-94.2519721577725
20
-9.23500978257216
30
0.000000000000000
11
-94.1519721577725
21
-9.39731964954465
31
0.000000000000000
  0
LINE
  5
F1040C
330
F1040D
100
AcDbEntity
8
Geo
100
AcDbLine
10
-94.1519721577725
20
-9.39731964954465
30
0.000000000000000
11
-94.0519721577725
21
-9.54608046402559
31
0.000000000000000
  0
LINE
  5
F1040E
330
F1040F
100
AcDbEntity
8
Geo
100
AcDbLine
10
-94.0519721577725
20
-9.54608046402559
30
0.000000000000000
11
-93.9519721577725
21
-9.68107186683001
31
0.000000000000000
  0
LINE
  5
F10410
330
F10411
100
AcDbEntity
8
Geo
100
AcDbLine
10
-93.9519721577725
20
-9.68107186683001
30
0.000000000000000
11
-93.8519721577725
21
-9.80209389538308
31
0.000000000000000
  0
LINE
  5
F10412
330
F10413
100
AcDbEntity
8
Geo
100
AcDbLine
10
-93.8519721577725
20
-9.80209389538308
30
0.000000000000000
11
-93.7519721577725
21
-9.90896727992433
31
0.000000000000000
  0
LINE
  5
F10414
330
F10415
100
AcDbEntity
8
Geo
100
AcDbLine
10
-93.7519721577725
20
-9.90896727992433
30
0.000000000000000
11
-93.6519721577725
21
-10.0015337090598
31
0.000000000000000
  0
LINE
  5
F10416
330
F10417
100
AcDbEntity
8
Geo
100
AcDbLine
10
-93.6519721577725
20
-10.0015337090598
30
0.000000000000000
11
-93.5519721577725
21
-10.0796560642683
31
0.000000000000000
  0
LINE
  5
F10418
330
F10419
100
AcDbEntity
8
Geo
100
AcDbLine
10
-93.5519721577725
20
-10.0796560642683
30
0.000000000000000
11
-93.4519721577725
21
-10.1432186230152
31
0.000000000000000
  0
LINE
  5
F1041A
330
F1041B
100
AcDbEntity
8
Geo
100
AcDbLine
10
-93.4519721577725
20
-10.1432186230152
30
0.000000000000000
11
-93.3519721577725
21
-10.1921272301717
31
0.000000000000000
  0
LINE
  5
F1041C
330
F1041D
100
AcDbEntity
8
Geo
100
AcDbLine
10
-93.3519721577725
20
-10.1921272301717
30
0.000000000000000
11
-93.2519721577725
21
-10.2263094374869
31
0.000000000000000
  0
LINE
  5
F1041E
330
F1041F
100
AcDbEntity
8
Geo
100
AcDbLine
10
-93.2519721577725
20
-10.2263094374869
30
0.000000000000000
11
-93.1519721577725
21
-10.2457146109053
31
0.000000000000000
  0
LINE
  5
F10420
330
F10421
100
AcDbEntity
8
Geo
100
AcDbLine
10
-84.9519721577725
20
9.74804105775412
30
0.000000000000000
11
-84.8519721577726
21
9.74702567103238
31
0.000000000000000
  0
LINE
  5
F10422
330
F10423
100
AcDbEntity
8
Geo
100
AcDbLine
10
-84.8519721577726
20
9.74702567103238
30
0.000000000000000
11
-84.7519721577725
21
9.73120084504238
31
0.000000000000000
  0
LINE
  5
F10424
330
F10425
100
AcDbEntity
8
Geo
100
AcDbLine
10
-84.7519721577725
20
9.73120084504238
30
0.000000000000000
11
-84.6519721577725
21
9.70059002107658
31
0.000000000000000
  0
LINE
  5
F10426
330
F10427
100
AcDbEntity
8
Geo
100
AcDbLine
10
-84.6519721577725
20
9.70059002107658
30
0.000000000000000
11
-84.5519721577726
21
9.65523854290539
31
0.000000000000000
  0
LINE
  5
F10428
330
F10429
100
AcDbEntity
8
Geo
100
AcDbLine
10
-84.5519721577726
20
9.65523854290539
30
0.000000000000000
11
-84.4519721577725
21
9.59521358960956
31
0.000000000000000
  0
LINE
  5
F1042A
330
F1042B
100
AcDbEntity
8
Geo
100
AcDbLine
10
-84.4519721577725
20
9.59521358960956
30
0.000000000000000
11
-84.3519721577726
21
9.52060407606786
31
0.000000000000000
  0
LINE
  5
F1042C
330
F1042D
100
AcDbEntity
8
Geo
100
AcDbLine
10
-84.3519721577726
20
9.52060407606786
30
0.000000000000000
11
-84.2519721577725
21
9.43152052124763
31
0.000000000000000
  0
LINE
  5
F1042E
330
F1042F
100
AcDbEntity
8
Geo
100
AcDbLine
10
-84.2519721577725
20
9.43152052124763
30
0.000000000000000
11
-84.1519721577725
21
9.32809488449314
31
0.000000000000000
  0
LINE
  5
F10430
330
F10431
100
AcDbEntity
8
Geo
100
AcDbLine
10
-84.1519721577725
20
9.32809488449314
30
0.000000000000000
11
-84.0519721577726
21
9.21048037005446
31
0.000000000000000
  0
LINE
  5
F10432
330
F10433
100
AcDbEntity
8
Geo
100
AcDbLine
10
-84.0519721577726
20
9.21048037005446
30
0.000000000000000
11
-83.9519721577725
21
9.07885120014616
31
0.000000000000000
  0
LINE
  5
F10434
330
F10435
100
AcDbEntity
8
Geo
100
AcDbLine
10
-83.9519721577725
20
9.07885120014616
30
0.000000000000000
11
-83.8519721577726
21
8.93340235687225
31
0.000000000000000
  0
LINE
  5
F10436
330
F10437
100
AcDbEntity
8
Geo
100
AcDbLine
10
-83.8519721577726
20
8.93340235687225
30
0.000000000000000
11
-83.7519721577726
21
8.77434929339941
31
0.000000000000000
  0
LINE
  5
F10438
330
F10439
100
AcDbEntity
8
Geo
100
AcDbLine
10
-83.7519721577726
20
8.77434929339941
30
0.000000000000000
11
-83.6519721577725
21
8.60192761480655
31
0.000000000000000
  0
LINE
  5
F1043A
330
F1043B
100
AcDbEntity
8
Geo
100
AcDbLine
10
-83.6519721577725
20
8.60192761480655
30
0.000000000000000
11
-83.5519721577726
21
8.41639272908331
31
0.000000000000000
  0
LINE
  5
F1043C
330
F1043D
100
AcDbEntity
8
Geo
100
AcDbLine
10
-83.5519721577726
20
8.41639272908331
30
0.000000000000000
11
-83.4519721577726
21
8.21801946879462
31
0.000000000000000
  0
LINE
  5
F1043E
330
F1043F
100
AcDbEntity
8
Geo
100
AcDbLine
10
-83.4519721577726
20
8.21801946879462
30
0.000000000000000
11
-83.3519721577726
21
8.00710168397154
31
0.000000000000000
  0
LINE
  5
F10440
330
F10441
100
AcDbEntity
8
Geo
100
AcDbLine
10
-83.3519721577726
20
8.00710168397154
30
0.000000000000000
11
-83.2519721577726
21
7.78395180683166
31
0.000000000000000
  0
LINE
  5
F10442
330
F10443
100
AcDbEntity
8
Geo
100
AcDbLine
10
-83.2519721577726
20
7.78395180683166
30
0.000000000000000
11
-83.1519721577725
21
7.54890038897369
31
0.000000000000000
  0
LINE
  5
F10444
330
F10445
100
AcDbEntity
8
Geo
100
AcDbLine
10
-83.1519721577725
20
7.54890038897369
30
0.000000000000000
11
-83.0519721577726
21
7.30229561173187
31
0.000000000000000
  0
LINE
  5
F10446
330
F10447
100
AcDbEntity
8
Geo
100
AcDbLine
10
-83.0519721577726
20
7.30229561173187
30
0.000000000000000
11
-82.9519721577726
21
7.04450277041539
31
0.000000000000000
  0
LINE
  5
F10448
330
F10449
100
AcDbEntity
8
Geo
100
AcDbLine
10
-82.9519721577726
20
7.04450277041539
30
0.000000000000000
11
-82.8519721577726
21
6.77590373319699
31
0.000000000000000
  0
LINE
  5
F1044A
330
F1044B
100
AcDbEntity
8
Geo
100
AcDbLine
10
-82.8519721577726
20
6.77590373319699
30
0.000000000000000
11
-82.7519721577726
21
6.49689637545222
31
0.000000000000000
  0
LINE
  5
F1044C
330
F1044D
100
AcDbEntity
8
Geo
100
AcDbLine
10
-82.7519721577726
20
6.49689637545222
30
0.000000000000000
11
-82.6519721577725
21
6.20789399038715
31
0.000000000000000
  0
LINE
  5
F1044E
330
F1044F
100
AcDbEntity
8
Geo
100
AcDbLine
10
-82.6519721577725
20
6.20789399038715
30
0.000000000000000
11
-82.5519721577726
21
5.90932467682771
31
0.000000000000000
  0
LINE
  5
F10450
330
F10451
100
AcDbEntity
8
Geo
100
AcDbLine
10
-82.5519721577726
20
5.90932467682771
30
0.000000000000000
11
-82.4519721577726
21
5.60163070507758
31
0.000000000000000
  0
LINE
  5
F10452
330
F10453
100
AcDbEntity
8
Geo
100
AcDbLine
10
-82.4519721577726
20
5.60163070507758
30
0.000000000000000
11
-82.3519721577726
21
5.28526786178373
31
0.000000000000000
  0
LINE
  5
F10454
330
F10455
100
AcDbEntity
8
Geo
100
AcDbLine
10
-82.3519721577726
20
5.28526786178373
30
0.000000000000000
11
-82.2519721577726
21
4.96070477478037
31
0.000000000000000
  0
LINE
  5
F10456
330
F10457
100
AcDbEntity
8
Geo
100
AcDbLine
10
-82.2519721577726
20
4.96070477478037
30
0.000000000000000
11
-82.1519721577726
21
4.62842221891115
31
0.000000000000000
  0
LINE
  5
F10458
330
F10459
100
AcDbEntity
8
Geo
100
AcDbLine
10
-82.1519721577726
20
4.62842221891115
30
0.000000000000000
11
-82.0519721577726
21
4.28891240385808
31
0.000000000000000
  0
LINE
  5
F1045A
330
F1045B
100
AcDbEntity
8
Geo
100
AcDbLine
10
-82.0519721577726
20
4.28891240385808
30
0.000000000000000
11
-81.9519721577726
21
3.94267824503201
31
0.000000000000000
  0
LINE
  5
F1045C
330
F1045D
100
AcDbEntity
8
Geo
100
AcDbLine
10
-81.9519721577726
20
3.94267824503201
30
0.000000000000000
11
-81.8519721577726
21
3.59023261860476
31
0.000000000000000
  0
LINE
  5
F1045E
330
F1045F
100
AcDbEntity
8
Geo
100
AcDbLine
10
-81.8519721577726
20
3.59023261860476
30
0.000000000000000
11
-81.7519721577726
21
3.23209760178638
31
0.000000000000000
  0
LINE
  5
F10460
330
F10461
100
AcDbEntity
8
Geo
100
AcDbLine
10
-81.7519721577726
20
3.23209760178638
30
0.000000000000000
11
-81.6519721577726
21
2.86880369947286
31
0.000000000000000
  0
LINE
  5
F10462
330
F10463
100
AcDbEntity
8
Geo
100
AcDbLine
10
-81.6519721577726
20
2.86880369947286
30
0.000000000000000
11
-81.5519721577726
21
2.50088905841002
31
0.000000000000000
  0
LINE
  5
F10464
330
F10465
100
AcDbEntity
8
Geo
100
AcDbLine
10
-81.5519721577726
20
2.50088905841002
30
0.000000000000000
11
-81.4519721577726
21
2.12889867003749
31
0.000000000000000
  0
LINE
  5
F10466
330
F10467
100
AcDbEntity
8
Geo
100
AcDbLine
10
-81.4519721577726
20
2.12889867003749
30
0.000000000000000
11
-81.3519721577726
21
1.75338356319363
31
0.000000000000000
  0
LINE
  5
F10468
330
F10469
100
AcDbEntity
8
Geo
100
AcDbLine
10
-81.3519721577726
20
1.75338356319363
30
0.000000000000000
11
-81.2519721577726
21
1.37489998787733
31
0.000000000000000
  0
LINE
  5
F1046A
330
F1046B
100
AcDbEntity
8
Geo
100
AcDbLine
10
-81.2519721577726
20
1.37489998787733
30
0.000000000000000
11
-81.1519721577726
21
0.994008591275632
31
0.000000000000000
  0
LINE
  5
F1046C
330
F1046D
100
AcDbEntity
8
Geo
100
AcDbLine
10
-81.1519721577726
20
0.994008591275632
30
0.000000000000000
11
-81.0519721577726
21
0.611273587277862
31
0.000000000000000
  0
LINE
  5
F1046E
330
F1046F
100
AcDbEntity
8
Geo
100
AcDbLine
10
-81.0519721577726
20
0.611273587277862
30
0.000000000000000
11
-80.9519721577726
21
0.227261920706375
31
0.000000000000000
  0
LINE
  5
F10470
330
F10471
100
AcDbEntity
8
Geo
100
AcDbLine
10
-80.9519721577726
20
0.227261920706375
30
0.000000000000000
11
-80.8519721577726
21
-0.157457572497982
31
0.000000000000000
  0
LINE
  5
F10472
330
F10473
100
AcDbEntity
8
Geo
100
AcDbLine
10
-80.8519721577726
20
-0.157457572497982
30
0.000000000000000
11
-80.7519721577726
21
-0.542315007891779
31
0.000000000000000
  0
LINE
  5
F10474
330
F10475
100
AcDbEntity
8
Geo
100
AcDbLine
10
-80.7519721577726
20
-0.542315007891779
30
0.000000000000000
11
-80.6519721577725
21
-0.926740296698013
31
0.000000000000000
  0
LINE
  5
F10476
330
F10477
100
AcDbEntity
8
Geo
100
AcDbLine
10
-80.6519721577725
20
-0.926740296698013
30
0.000000000000000
11
-80.5519721577726
21
-1.31016399027781
31
0.000000000000000
  0
LINE
  5
F10478
330
F10479
100
AcDbEntity
8
Geo
100
AcDbLine
10
-80.5519721577726
20
-1.31016399027781
30
0.000000000000000
11
-80.4519721577726
21
-1.69201812365391
31
0.000000000000000
  0
LINE
  5
F1047A
330
F1047B
100
AcDbEntity
8
Geo
100
AcDbLine
10
-80.4519721577726
20
-1.69201812365391
30
0.000000000000000
11
-80.3519721577726
21
-2.07173705683635
31
0.000000000000000
  0
LINE
  5
F1047C
330
F1047D
100
AcDbEntity
8
Geo
100
AcDbLine
10
-80.3519721577726
20
-2.07173705683635
30
0.000000000000000
11
-80.2519721577725
21
-2.44875831270420
31
0.000000000000000
  0
LINE
  5
F1047E
330
F1047F
100
AcDbEntity
8
Geo
100
AcDbLine
10
-80.2519721577725
20
-2.44875831270420
30
0.000000000000000
11
-80.1519721577725
21
-2.82252341020218
31
0.000000000000000
  0
LINE
  5
F10480
330
F10481
100
AcDbEntity
8
Geo
100
AcDbLine
10
-80.1519721577725
20
-2.82252341020218
30
0.000000000000000
11
-80.0519721577726
21
-3.19247869161779
31
0.000000000000000
  0
LINE
  5
F10482
330
F10483
100
AcDbEntity
8
Geo
100
AcDbLine
10
-80.0519721577726
20
-3.19247869161779
30
0.000000000000000
11
-79.9519721577725
21
-3.55807614271372
31
0.000000000000000
  0
LINE
  5
F10484
330
F10485
100
AcDbEntity
8
Geo
100
AcDbLine
10
-79.9519721577725
20
-3.55807614271372
30
0.000000000000000
11
-79.8519721577725
21
-3.91877420450056
31
0.000000000000000
  0
LINE
  5
F10486
330
F10487
100
AcDbEntity
8
Geo
100
AcDbLine
10
-79.8519721577725
20
-3.91877420450056
30
0.000000000000000
11
-79.7519721577725
21
-4.27403857544743
31
0.000000000000000
  0
LINE
  5
F10488
330
F10489
100
AcDbEntity
8
Geo
100
AcDbLine
10
-79.7519721577725
20
-4.27403857544743
30
0.000000000000000
11
-79.6519721577725
21
-4.62334300294202
31
0.000000000000000
  0
LINE
  5
F1048A
330
F1048B
100
AcDbEntity
8
Geo
100
AcDbLine
10
-79.6519721577725
20
-4.62334300294202
30
0.000000000000000
11
-79.5519721577725
21
-4.96617006282783
31
0.000000000000000
  0
LINE
  5
F1048C
330
F1048D
100
AcDbEntity
8
Geo
100
AcDbLine
10
-79.5519721577725
20
-4.96617006282783
30
0.000000000000000
11
-79.4519721577725
21
-5.30201192586392
31
0.000000000000000
  0
LINE
  5
F1048E
330
F1048F
100
AcDbEntity
8
Geo
100
AcDbLine
10
-79.4519721577725
20
-5.30201192586392
30
0.000000000000000
11
-79.3519721577725
21
-5.63037110997157
31
0.000000000000000
  0
LINE
  5
F10490
330
F10491
100
AcDbEntity
8
Geo
100
AcDbLine
10
-79.3519721577725
20
-5.63037110997157
30
0.000000000000000
11
-79.2519721577725
21
-5.95076121715385
31
0.000000000000000
  0
LINE
  5
F10492
330
F10493
100
AcDbEntity
8
Geo
100
AcDbLine
10
-79.2519721577725
20
-5.95076121715385
30
0.000000000000000
11
-79.1519721577725
21
-6.26270765399628
31
0.000000000000000
  0
LINE
  5
F10494
330
F10495
100
AcDbEntity
8
Geo
100
AcDbLine
10
-79.1519721577725
20
-6.26270765399628
30
0.000000000000000
11
-79.0519721577725
21
-6.22435983738486
31
0.000000000000000
  0
LINE
  5
F10496
330
F10497
100
AcDbEntity
8
Geo
100
AcDbLine
10
-79.0519721577725
20
-6.22435983738486
30
0.000000000000000
11
-78.9519721577725
21
-6.18662291392024
31
0.000000000000000
  0
LINE
  5
F10498
330
F10499
100
AcDbEntity
8
Geo
100
AcDbLine
10
-78.9519721577725
20
-6.18662291392024
30
0.000000000000000
11
-78.8519721577725
21
-6.14950551610855
31
0.000000000000000
  0
LINE
  5
F1049A
330
F1049B
100
AcDbEntity
8
Geo
100
AcDbLine
10
-78.8519721577725
20
-6.14950551610855
30
0.000000000000000
11
-78.7519721577725
21
-6.11301602832602
31
0.000000000000000
  0
LINE
  5
F1049C
330
F1049D
100
AcDbEntity
8
Geo
100
AcDbLine
10
-78.7519721577725
20
-6.11301602832602
30
0.000000000000000
11
-78.6519721577725
21
-6.07716259107410
31
0.000000000000000
  0
LINE
  5
F1049E
330
F1049F
100
AcDbEntity
8
Geo
100
AcDbLine
10
-78.6519721577725
20
-6.07716259107410
30
0.000000000000000
11
-78.5519721577725
21
-6.04195310518991
31
0.000000000000000
  0
LINE
  5
F104A0
330
F104A1
100
AcDbEntity
8
Geo
100
AcDbLine
10
-78.5519721577725
20
-6.04195310518991
30
0.000000000000000
11
-78.4519721577725
21
-6.00739523600897
31
0.000000000000000
  0
LINE
  5
F104A2
330
F104A3
100
AcDbEntity
8
Geo
100
AcDbLine
10
-78.4519721577725
20
-6.00739523600897
30
0.000000000000000
11
-78.3519721577725
21
-5.97349641747750
31
0.000000000000000
  0
LINE
  5
F104A4
330
F104A5
100
AcDbEntity
8
Geo
100
AcDbLine
10
-78.3519721577725
20
-5.97349641747750
30
0.000000000000000
11
-78.2519721577725
21
-5.94026385621158
31
0.000000000000000
  0
LINE
  5
F104A6
330
F104A7
100
AcDbEntity
8
Geo
100
AcDbLine
10
-78.2519721577725
20
-5.94026385621158
30
0.000000000000000
11
-78.1519721577725
21
-5.90770453550048
31
0.000000000000000
  0
LINE
  5
F104A8
330
F104A9
100
AcDbEntity
8
Geo
100
AcDbLine
10
-78.1519721577725
20
-5.90770453550048
30
0.000000000000000
11
-78.0519721577725
21
-5.87582521925180
31
0.000000000000000
  0
LINE
  5
F104AA
330
F104AB
100
AcDbEntity
8
Geo
100
AcDbLine
10
-78.0519721577725
20
-5.87582521925180
30
0.000000000000000
11
-77.9519721577725
21
-5.84463245587584
31
0.000000000000000
  0
LINE
  5
F104AC
330
F104AD
100
AcDbEntity
8
Geo
100
AcDbLine
10
-77.9519721577725
20
-5.84463245587584
30
0.000000000000000
11
-77.8519721577725
21
-5.81413258210698
31
0.000000000000000
  0
LINE
  5
F104AE
330
F104AF
100
AcDbEntity
8
Geo
100
AcDbLine
10
-77.8519721577725
20
-5.81413258210698
30
0.000000000000000
11
-77.7519721577725
21
-5.78433172675971
31
0.000000000000000
  0
LINE
  5
F104B0
330
F104B1
100
AcDbEntity
8
Geo
100
AcDbLine
10
-77.7519721577725
20
-5.78433172675971
30
0.000000000000000
11
-77.6519721577725
21
-5.75523581441716
31
0.000000000000000
  0
LINE
  5
F104B2
330
F104B3
100
AcDbEntity
8
Geo
100
AcDbLine
10
-77.6519721577725
20
-5.75523581441716
30
0.000000000000000
11
-77.5519721577725
21
-5.72685056905014
31
0.000000000000000
  0
LINE
  5
F104B4
330
F104B5
100
AcDbEntity
8
Geo
100
AcDbLine
10
-77.5519721577725
20
-5.72685056905014
30
0.000000000000000
11
-77.4519721577725
21
-5.69918151756449
31
0.000000000000000
  0
LINE
  5
F104B6
330
F104B7
100
AcDbEntity
8
Geo
100
AcDbLine
10
-77.4519721577725
20
-5.69918151756449
30
0.000000000000000
11
-77.3519721577725
21
-5.67223399327495
31
0.000000000000000
  0
LINE
  5
F104B8
330
F104B9
100
AcDbEntity
8
Geo
100
AcDbLine
10
-77.3519721577725
20
-5.67223399327495
30
0.000000000000000
11
-77.2519721577725
21
-5.64601313930364
31
0.000000000000000
  0
LINE
  5
F104BA
330
F104BB
100
AcDbEntity
8
Geo
100
AcDbLine
10
-77.2519721577725
20
-5.64601313930364
30
0.000000000000000
11
-77.1519721577725
21
-5.62052391190131
31
0.000000000000000
  0
LINE
  5
F104BC
330
F104BD
100
AcDbEntity
8
Geo
100
AcDbLine
10
-77.1519721577725
20
-5.62052391190131
30
0.000000000000000
11
-77.0519721577725
21
-5.59577108368972
31
0.000000000000000
  0
LINE
  5
F104BE
330
F104BF
100
AcDbEntity
8
Geo
100
AcDbLine
10
-77.0519721577725
20
-5.59577108368972
30
0.000000000000000
11
-76.9519721577725
21
-5.57175924682347
31
0.000000000000000
  0
LINE
  5
F104C0
330
F104C1
100
AcDbEntity
8
Geo
100
AcDbLine
10
-76.9519721577725
20
-5.57175924682347
30
0.000000000000000
11
-76.8519721577725
21
-5.54849281606964
31
0.000000000000000
  0
LINE
  5
F104C2
330
F104C3
100
AcDbEntity
8
Geo
100
AcDbLine
10
-76.8519721577725
20
-5.54849281606964
30
0.000000000000000
11
-76.7519721577725
21
-5.52597603180383
31
0.000000000000000
  0
LINE
  5
F104C4
330
F104C5
100
AcDbEntity
8
Geo
100
AcDbLine
10
-76.7519721577725
20
-5.52597603180383
30
0.000000000000000
11
-76.6519721577725
21
-5.50421296292105
31
0.000000000000000
  0
LINE
  5
F104C6
330
F104C7
100
AcDbEntity
8
Geo
100
AcDbLine
10
-76.6519721577725
20
-5.50421296292105
30
0.000000000000000
11
-76.5519721577725
21
-5.48320750966018
31
0.000000000000000
  0
LINE
  5
F104C8
330
F104C9
100
AcDbEntity
8
Geo
100
AcDbLine
10
-76.5519721577725
20
-5.48320750966018
30
0.000000000000000
11
-76.4519721577725
21
-5.46296340634056
31
0.000000000000000
  0
LINE
  5
F104CA
330
F104CB
100
AcDbEntity
8
Geo
100
AcDbLine
10
-76.4519721577725
20
-5.46296340634056
30
0.000000000000000
11
-76.3519721577725
21
-5.44348422400952
31
0.000000000000000
  0
LINE
  5
F104CC
330
F104CD
100
AcDbEntity
8
Geo
100
AcDbLine
10
-76.3519721577725
20
-5.44348422400952
30
0.000000000000000
11
-76.2519721577725
21
-5.42477337299962
31
0.000000000000000
  0
LINE
  5
F104CE
330
F104CF
100
AcDbEntity
8
Geo
100
AcDbLine
10
-76.2519721577725
20
-5.42477337299962
30
0.000000000000000
11
-76.1519721577725
21
-5.40683410539445
31
0.000000000000000
  0
LINE
  5
F104D0
330
F104D1
100
AcDbEntity
8
Geo
100
AcDbLine
10
-76.1519721577725
20
-5.40683410539445
30
0.000000000000000
11
-76.0519721577725
21
-5.38966951740194
31
0.000000000000000
  0
LINE
  5
F104D2
330
F104D3
100
AcDbEntity
8
Geo
100
AcDbLine
10
-76.0519721577725
20
-5.38966951740194
30
0.000000000000000
11
-75.9519721577725
21
-5.37328255163405
31
0.000000000000000
  0
LINE
  5
F104D4
330
F104D5
100
AcDbEntity
8
Geo
100
AcDbLine
10
-75.9519721577725
20
-5.37328255163405
30
0.000000000000000
11
-75.8519721577725
21
-5.35767599929199
31
0.000000000000000
  0
LINE
  5
F104D6
330
F104D7
100
AcDbEntity
8
Geo
100
AcDbLine
10
-75.8519721577725
20
-5.35767599929199
30
0.000000000000000
11
-75.7519721577725
21
-5.34285250225584
31
0.000000000000000
  0
LINE
  5
F104D8
330
F104D9
100
AcDbEntity
8
Geo
100
AcDbLine
10
-75.7519721577725
20
-5.34285250225584
30
0.000000000000000
11
-75.6519721577725
21
-5.32881455507796
31
0.000000000000000
  0
LINE
  5
F104DA
330
F104DB
100
AcDbEntity
8
Geo
100
AcDbLine
10
-75.6519721577725
20
-5.32881455507796
30
0.000000000000000
11
-75.5519721577725
21
-5.31556450687912
31
0.000000000000000
  0
LINE
  5
F104DC
330
F104DD
100
AcDbEntity
8
Geo
100
AcDbLine
10
-75.5519721577725
20
-5.31556450687912
30
0.000000000000000
11
-75.4519721577725
21
-5.30310456314664
31
0.000000000000000
  0
LINE
  5
F104DE
330
F104DF
100
AcDbEntity
8
Geo
100
AcDbLine
10
-75.4519721577725
20
-5.30310456314664
30
0.000000000000000
11
-75.3519721577725
21
-5.29143678743395
31
0.000000000000000
  0
LINE
  5
F104E0
330
F104E1
100
AcDbEntity
8
Geo
100
AcDbLine
10
-75.3519721577725
20
-5.29143678743395
30
0.000000000000000
11
-75.2519721577725
21
-5.28056310296060
31
0.000000000000000
  0
LINE
  5
F104E2
330
F104E3
100
AcDbEntity
8
Geo
100
AcDbLine
10
-75.2519721577725
20
-5.28056310296060
30
0.000000000000000
11
-75.1519721577725
21
-5.27048529411238
31
0.000000000000000
  0
LINE
  5
F104E4
330
F104E5
100
AcDbEntity
8
Geo
100
AcDbLine
10
-75.1519721577725
20
-5.27048529411238
30
0.000000000000000
11
-75.0519721577725
21
-5.26120500784077
31
0.000000000000000
  0
LINE
  5
F104E6
330
F104E7
100
AcDbEntity
8
Geo
100
AcDbLine
10
-75.0519721577725
20
-5.26120500784077
30
0.000000000000000
11
-74.9519721577725
21
-5.25272375496117
31
0.000000000000000
  0
LINE
  5
F104E8
330
F104E9
100
AcDbEntity
8
Geo
100
AcDbLine
10
-74.9519721577725
20
-5.25272375496117
30
0.000000000000000
11
-74.8519721577725
21
-5.24504291134952
31
0.000000000000000
  0
LINE
  5
F104EA
330
F104EB
100
AcDbEntity
8
Geo
100
AcDbLine
10
-74.8519721577725
20
-5.24504291134952
30
0.000000000000000
11
-74.7519721577725
21
-5.23816371903677
31
0.000000000000000
  0
LINE
  5
F104EC
330
F104ED
100
AcDbEntity
8
Geo
100
AcDbLine
10
-74.7519721577725
20
-5.23816371903677
30
0.000000000000000
11
-74.6519721577725
21
-5.23208728720075
31
0.000000000000000
  0
LINE
  5
F104EE
330
F104EF
100
AcDbEntity
8
Geo
100
AcDbLine
10
-74.6519721577725
20
-5.23208728720075
30
0.000000000000000
11
-74.5519721577725
21
-5.22681459305514
31
0.000000000000000
  0
LINE
  5
F104F0
330
F104F1
100
AcDbEntity
8
Geo
100
AcDbLine
10
-74.5519721577725
20
-5.22681459305514
30
0.000000000000000
11
-74.4519721577724
21
-5.22234648263511
31
0.000000000000000
  0
LINE
  5
F104F2
330
F104F3
100
AcDbEntity
8
Geo
100
AcDbLine
10
-74.4519721577724
20
-5.22234648263511
30
0.000000000000000
11
-74.3519721577725
21
-5.21868367147947
31
0.000000000000000
  0
LINE
  5
F104F4
330
F104F5
100
AcDbEntity
8
Geo
100
AcDbLine
10
-74.3519721577725
20
-5.21868367147947
30
0.000000000000000
11
-74.2519721577725
21
-5.21582674520886
31
0.000000000000000
  0
LINE
  5
F104F6
330
F104F7
100
AcDbEntity
8
Geo
100
AcDbLine
10
-74.2519721577725
20
-5.21582674520886
30
0.000000000000000
11
-74.1519721577725
21
-5.21377616000003
31
0.000000000000000
  0
LINE
  5
F104F8
330
F104F9
100
AcDbEntity
8
Geo
100
AcDbLine
10
-97.1519721577725
20
-3.18624149296568
30
0.000000000000000
11
-97.0519721577725
21
-3.63535564969004
31
0.000000000000000
  0
LINE
  5
F104FA
330
F104FB
100
AcDbEntity
8
Geo
100
AcDbLine
10
-97.0519721577725
20
-3.63535564969004
30
0.000000000000000
11
-96.9519721577725
21
-4.02487503658804
31
0.000000000000000
  0
LINE
  5
F104FC
330
F104FD
100
AcDbEntity
8
Geo
100
AcDbLine
10
-96.9519721577725
20
-4.02487503658804
30
0.000000000000000
11
-96.8519721577725
21
-4.39853128806253
31
0.000000000000000
  0
LINE
  5
F104FE
330
F104FF
100
AcDbEntity
8
Geo
100
AcDbLine
10
-96.8519721577725
20
-4.39853128806253
30
0.000000000000000
11
-96.7519721577725
21
-4.75810937342290
31
0.000000000000000
  0
LINE
  5
F10500
330
F10501
100
AcDbEntity
8
Geo
100
AcDbLine
10
-96.7519721577725
20
-4.75810937342290
30
0.000000000000000
11
-96.6519721577725
21
-5.10273284314131
31
0.000000000000000
  0
LINE
  5
F10502
330
F10503
100
AcDbEntity
8
Geo
100
AcDbLine
10
-96.6519721577725
20
-5.10273284314131
30
0.000000000000000
11
-96.5519721577725
21
-5.43561069179107
31
0.000000000000000
  0
LINE
  5
F10504
330
F10505
100
AcDbEntity
8
Geo
100
AcDbLine
10
-96.5519721577725
20
-5.43561069179107
30
0.000000000000000
11
-96.4519721577725
21
-5.76080796184859
31
0.000000000000000
  0
LINE
  5
F10506
330
F10507
100
AcDbEntity
8
Geo
100
AcDbLine
10
-96.4519721577725
20
-5.76080796184859
30
0.000000000000000
11
-96.3519721577725
21
-6.07784293905577
31
0.000000000000000
  0
LINE
  5
F10508
330
F10509
100
AcDbEntity
8
Geo
100
AcDbLine
10
-96.3519721577725
20
-6.07784293905577
30
0.000000000000000
11
-96.2519721577725
21
-6.38624599994739
31
0.000000000000000
  0
LINE
  5
F1050A
330
F1050B
100
AcDbEntity
8
Geo
100
AcDbLine
10
-96.2519721577725
20
-6.38624599994739
30
0.000000000000000
11
-96.1519721577725
21
-6.68556030750370
31
0.000000000000000
  0
LINE
  5
F1050C
330
F1050D
100
AcDbEntity
8
Geo
100
AcDbLine
10
-96.1519721577725
20
-6.68556030750370
30
0.000000000000000
11
-96.0519721577725
21
-6.97534248786250
31
0.000000000000000
  0
LINE
  5
F1050E
330
F1050F
100
AcDbEntity
8
Geo
100
AcDbLine
10
-96.0519721577725
20
-6.97534248786250
30
0.000000000000000
11
-95.9519721577725
21
-7.25516328708816
31
0.000000000000000
  0
LINE
  5
F10510
330
F10511
100
AcDbEntity
8
Geo
100
AcDbLine
10
-95.9519721577725
20
-7.25516328708816
30
0.000000000000000
11
-95.8519721577725
21
-7.52460820702489
31
0.000000000000000
  0
LINE
  5
F10512
330
F10513
100
AcDbEntity
8
Geo
100
AcDbLine
10
-95.8519721577725
20
-7.52460820702489
30
0.000000000000000
11
-95.7519721577725
21
-7.78327811929229
31
0.000000000000000
  0
LINE
  5
F10514
330
F10515
100
AcDbEntity
8
Geo
100
AcDbLine
10
-95.7519721577725
20
-7.78327811929229
30
0.000000000000000
11
-95.6519721577725
21
-8.03078985651364
31
0.000000000000000
  0
LINE
  5
F10516
330
F10517
100
AcDbEntity
8
Geo
100
AcDbLine
10
-95.6519721577725
20
-8.03078985651364
30
0.000000000000000
11
-95.5519721577725
21
-8.26677677990119
31
0.000000000000000
  0
LINE
  5
F10518
330
F10519
100
AcDbEntity
8
Geo
100
AcDbLine
10
-95.5519721577725
20
-8.26677677990119
30
0.000000000000000
11
-95.4519721577725
21
-8.49088932235771
31
0.000000000000000
  0
LINE
  5
F1051A
330
F1051B
100
AcDbEntity
8
Geo
100
AcDbLine
10
-95.4519721577725
20
-8.49088932235771
30
0.000000000000000
11
-95.3519721577725
21
-8.70279550628969
31
0.000000000000000
  0
LINE
  5
F1051C
330
F1051D
100
AcDbEntity
8
Geo
100
AcDbLine
10
-95.3519721577725
20
-8.70279550628969
30
0.000000000000000
11
-95.2519721577725
21
-8.90218143536534
31
0.000000000000000
  0
LINE
  5
F1051E
330
F1051F
100
AcDbEntity
8
Geo
100
AcDbLine
10
-95.2519721577725
20
-8.90218143536534
30
0.000000000000000
11
-95.1519721577725
21
-9.08875175948874
31
0.000000000000000
  0
LINE
  5
F10520
330
F10521
100
AcDbEntity
8
Geo
100
AcDbLine
10
-95.1519721577725
20
-9.08875175948874
30
0.000000000000000
11
-95.0519721577725
21
-9.26223011230154
31
0.000000000000000
  0
LINE
  5
F10522
330
F10523
100
AcDbEntity
8
Geo
100
AcDbLine
10
-95.0519721577725
20
-9.26223011230154
30
0.000000000000000
11
-94.9519721577725
21
-9.42235952056405
31
0.000000000000000
  0
LINE
  5
F10524
330
F10525
100
AcDbEntity
8
Geo
100
AcDbLine
10
-94.9519721577725
20
-9.42235952056405
30
0.000000000000000
11
-94.8519721577725
21
-9.56890278480934
31
0.000000000000000
  0
LINE
  5
F10526
330
F10527
100
AcDbEntity
8
Geo
100
AcDbLine
10
-94.8519721577725
20
-9.56890278480934
30
0.000000000000000
11
-94.7519721577725
21
-9.70164283070648
31
0.000000000000000
  0
LINE
  5
F10528
330
F10529
100
AcDbEntity
8
Geo
100
AcDbLine
10
-94.7519721577725
20
-9.70164283070648
30
0.000000000000000
11
-94.6519721577725
21
-9.82038303061244
31
0.000000000000000
  0
LINE
  5
F1052A
330
F1052B
100
AcDbEntity
8
Geo
100
AcDbLine
10
-94.6519721577725
20
-9.82038303061244
30
0.000000000000000
11
-94.5519721577725
21
-9.92494749483634
31
0.000000000000000
  0
LINE
  5
F1052C
330
F1052D
100
AcDbEntity
8
Geo
100
AcDbLine
10
-94.5519721577725
20
-9.92494749483634
30
0.000000000000000
11
-94.4519721577725
21
-10.0151813321846
31
0.000000000000000
  0
LINE
  5
F1052E
330
F1052F
100
AcDbEntity
8
Geo
100
AcDbLine
10
-94.4519721577725
20
-10.0151813321846
30
0.000000000000000
11
-94.3519721577725
21
-10.0909508794010
31
0.000000000000000
  0
LINE
  5
F10530
330
F10531
100
AcDbEntity
8
Geo
100
AcDbLine
10
-94.3519721577725
20
-10.0909508794010
30
0.000000000000000
11
-94.2519721577725
21
-10.1521438991621
31
0.000000000000000
  0
LINE
  5
F10532
330
F10533
100
AcDbEntity
8
Geo
100
AcDbLine
10
-94.2519721577725
20
-10.1521438991621
30
0.000000000000000
11
-94.1519721577725
21
-10.1986697463337
31
0.000000000000000
  0
LINE
  5
F10534
330
F10535
100
AcDbEntity
8
Geo
100
AcDbLine
10
-94.1519721577725
20
-10.1986697463337
30
0.000000000000000
11
-94.0519721577725
21
-10.2304595022441
31
0.000000000000000
  0
LINE
  5
F10536
330
F10537
100
AcDbEntity
8
Geo
100
AcDbLine
10
-94.0519721577725
20
-10.2304595022441
30
0.000000000000000
11
-93.9519721577725
21
-10.2474660767726
31
0.000000000000000
  0
LINE
  5
F10538
330
F10539
100
AcDbEntity
8
Geo
100
AcDbLine
10
-85.7519721577725
20
9.74888251558875
30
0.000000000000000
11
-85.6519721577725
21
9.74546588170255
31
0.000000000000000
  0
LINE
  5
F1053A
330
F1053B
100
AcDbEntity
8
Geo
100
AcDbLine
10
-85.6519721577725
20
9.74546588170255
30
0.000000000000000
11
-85.5519721577725
21
9.72724211906183
31
0.000000000000000
  0
LINE
  5
F1053C
330
F1053D
100
AcDbEntity
8
Geo
100
AcDbLine
10
-85.5519721577725
20
9.72724211906183
30
0.000000000000000
11
-85.4519721577725
21
9.69423822250052
31
0.000000000000000
  0
LINE
  5
F1053E
330
F1053F
100
AcDbEntity
8
Geo
100
AcDbLine
10
-85.4519721577725
20
9.69423822250052
30
0.000000000000000
11
-85.3519721577726
21
9.64650308064412
31
0.000000000000000
  0
LINE
  5
F10540
330
F10541
100
AcDbEntity
8
Geo
100
AcDbLine
10
-85.3519721577726
20
9.64650308064412
30
0.000000000000000
11
-85.2519721577725
21
9.58410740349101
31
0.000000000000000
  0
LINE
  5
F10542
330
F10543
100
AcDbEntity
8
Geo
100
AcDbLine
10
-85.2519721577725
20
9.58410740349101
30
0.000000000000000
11
-85.1519721577725
21
9.50714361766990
31
0.000000000000000
  0
LINE
  5
F10544
330
F10545
100
AcDbEntity
8
Geo
100
AcDbLine
10
-85.1519721577725
20
9.50714361766990
30
0.000000000000000
11
-85.0519721577726
21
9.41572572952832
31
0.000000000000000
  0
LINE
  5
F10546
330
F10547
100
AcDbEntity
8
Geo
100
AcDbLine
10
-85.0519721577726
20
9.41572572952832
30
0.000000000000000
11
-84.9519721577725
21
9.30998915625521
31
0.000000000000000
  0
LINE
  5
F10548
330
F10549
100
AcDbEntity
8
Geo
100
AcDbLine
10
-84.9519721577725
20
9.30998915625521
30
0.000000000000000
11
-84.8519721577726
21
9.19009052528764
31
0.000000000000000
  0
LINE
  5
F1054A
330
F1054B
100
AcDbEntity
8
Geo
100
AcDbLine
10
-84.8519721577726
20
9.19009052528764
30
0.000000000000000
11
-84.7519721577725
21
9.05620744229880
31
0.000000000000000
  0
LINE
  5
F1054C
330
F1054D
100
AcDbEntity
8
Geo
100
AcDbLine
10
-84.7519721577725
20
9.05620744229880
30
0.000000000000000
11
-84.6519721577725
21
8.90853822811095
31
0.000000000000000
  0
LINE
  5
F1054E
330
F1054F
100
AcDbEntity
8
Geo
100
AcDbLine
10
-84.6519721577725
20
8.90853822811095
30
0.000000000000000
11
-84.5519721577726
21
8.74730162492308
31
0.000000000000000
  0
LINE
  5
F10550
330
F10551
100
AcDbEntity
8
Geo
100
AcDbLine
10
-84.5519721577726
20
8.74730162492308
30
0.000000000000000
11
-84.4519721577725
21
8.57273647228841
31
0.000000000000000
  0
LINE
  5
F10552
330
F10553
100
AcDbEntity
8
Geo
100
AcDbLine
10
-84.4519721577725
20
8.57273647228841
30
0.000000000000000
11
-84.3519721577726
21
8.38510135332167
31
0.000000000000000
  0
LINE
  5
F10554
330
F10555
100
AcDbEntity
8
Geo
100
AcDbLine
10
-84.3519721577726
20
8.38510135332167
30
0.000000000000000
11
-84.2519721577725
21
8.18467421166031
31
0.000000000000000
  0
LINE
  5
F10556
330
F10557
100
AcDbEntity
8
Geo
100
AcDbLine
10
-84.2519721577725
20
8.18467421166031
30
0.000000000000000
11
-84.1519721577725
21
7.97175193974699
31
0.000000000000000
  0
LINE
  5
F10558
330
F10559
100
AcDbEntity
8
Geo
100
AcDbLine
10
-84.1519721577725
20
7.97175193974699
30
0.000000000000000
11
-84.0519721577726
21
7.74664993904320
31
0.000000000000000
  0
LINE
  5
F1055A
330
F1055B
100
AcDbEntity
8
Geo
100
AcDbLine
10
-84.0519721577726
20
7.74664993904320
30
0.000000000000000
11
-83.9519721577725
21
7.50970165282555
31
0.000000000000000
  0
LINE
  5
F1055C
330
F1055D
100
AcDbEntity
8
Geo
100
AcDbLine
10
-83.9519721577725
20
7.50970165282555
30
0.000000000000000
11
-83.8519721577726
21
7.26125807225668
31
0.000000000000000
  0
LINE
  5
F1055E
330
F1055F
100
AcDbEntity
8
Geo
100
AcDbLine
10
-83.8519721577726
20
7.26125807225668
30
0.000000000000000
11
-83.7519721577726
21
7.00168721646258
31
0.000000000000000
  0
LINE
  5
F10560
330
F10561
100
AcDbEntity
8
Geo
100
AcDbLine
10
-83.7519721577726
20
7.00168721646258
30
0.000000000000000
11
-83.6519721577725
21
6.73137358738634
31
0.000000000000000
  0
LINE
  5
F10562
330
F10563
100
AcDbEntity
8
Geo
100
AcDbLine
10
-83.6519721577725
20
6.73137358738634
30
0.000000000000000
11
-83.5519721577726
21
6.45071760022600
31
0.000000000000000
  0
LINE
  5
F10564
330
F10565
100
AcDbEntity
8
Geo
100
AcDbLine
10
-83.5519721577726
20
6.45071760022600
30
0.000000000000000
11
-83.4519721577726
21
6.16013499030005
31
0.000000000000000
  0
LINE
  5
F10566
330
F10567
100
AcDbEntity
8
Geo
100
AcDbLine
10
-83.4519721577726
20
6.16013499030005
30
0.000000000000000
11
-83.3519721577726
21
5.86005619721930
31
0.000000000000000
  0
LINE
  5
F10568
330
F10569
100
AcDbEntity
8
Geo
100
AcDbLine
10
-83.3519721577726
20
5.86005619721930
30
0.000000000000000
11
-83.2519721577726
21
5.55092572727731
31
0.000000000000000
  0
LINE
  5
F1056A
330
F1056B
100
AcDbEntity
8
Geo
100
AcDbLine
10
-83.2519721577726
20
5.55092572727731
30
0.000000000000000
11
-83.1519721577725
21
5.23320149500381
31
0.000000000000000
  0
LINE
  5
F1056C
330
F1056D
100
AcDbEntity
8
Geo
100
AcDbLine
10
-83.1519721577725
20
5.23320149500381
30
0.000000000000000
11
-83.0519721577726
21
4.90735414485658
31
0.000000000000000
  0
LINE
  5
F1056E
330
F1056F
100
AcDbEntity
8
Geo
100
AcDbLine
10
-83.0519721577726
20
4.90735414485658
30
0.000000000000000
11
-82.9519721577726
21
4.57386635405644
31
0.000000000000000
  0
LINE
  5
F10570
330
F10571
100
AcDbEntity
8
Geo
100
AcDbLine
10
-82.9519721577726
20
4.57386635405644
30
0.000000000000000
11
-82.8519721577726
21
4.23323211759823
31
0.000000000000000
  0
LINE
  5
F10572
330
F10573
100
AcDbEntity
8
Geo
100
AcDbLine
10
-82.8519721577726
20
4.23323211759823
30
0.000000000000000
11
-82.7519721577726
21
3.88595601649663
31
0.000000000000000
  0
LINE
  5
F10574
330
F10575
100
AcDbEntity
8
Geo
100
AcDbLine
10
-82.7519721577726
20
3.88595601649663
30
0.000000000000000
11
-82.6519721577725
21
3.53255247035111
31
0.000000000000000
  0
LINE
  5
F10576
330
F10577
100
AcDbEntity
8
Geo
100
AcDbLine
10
-82.6519721577725
20
3.53255247035111
30
0.000000000000000
11
-82.5519721577726
21
3.17354497533681
31
0.000000000000000
  0
LINE
  5
F10578
330
F10579
100
AcDbEntity
8
Geo
100
AcDbLine
10
-82.5519721577726
20
3.17354497533681
30
0.000000000000000
11
-82.4519721577726
21
2.80946532875046
31
0.000000000000000
  0
LINE
  5
F1057A
330
F1057B
100
AcDbEntity
8
Geo
100
AcDbLine
10
-82.4519721577726
20
2.80946532875046
30
0.000000000000000
11
-82.3519721577726
21
2.44085284125978
31
0.000000000000000
  0
LINE
  5
F1057C
330
F1057D
100
AcDbEntity
8
Geo
100
AcDbLine
10
-82.3519721577726
20
2.44085284125978
30
0.000000000000000
11
-82.2519721577726
21
2.06825353802330
31
0.000000000000000
  0
LINE
  5
F1057E
330
F1057F
100
AcDbEntity
8
Geo
100
AcDbLine
10
-82.2519721577726
20
2.06825353802330
30
0.000000000000000
11
-82.1519721577726
21
1.69221934986414
31
0.000000000000000
  0
LINE
  5
F10580
330
F10581
100
AcDbEntity
8
Geo
100
AcDbLine
10
-82.1519721577726
20
1.69221934986414
30
0.000000000000000
11
-82.0519721577726
21
1.31330729569560
31
0.000000000000000
  0
LINE
  5
F10582
330
F10583
100
AcDbEntity
8
Geo
100
AcDbLine
10
-82.0519721577726
20
1.31330729569560
30
0.000000000000000
11
-81.9519721577726
21
0.932078657409839
31
0.000000000000000
  0
LINE
  5
F10584
330
F10585
100
AcDbEntity
8
Geo
100
AcDbLine
10
-81.9519721577726
20
0.932078657409839
30
0.000000000000000
11
-81.8519721577726
21
0.549098148451799
31
0.000000000000000
  0
LINE
  5
F10586
330
F10587
100
AcDbEntity
8
Geo
100
AcDbLine
10
-81.8519721577726
20
0.549098148451799
30
0.000000000000000
11
-81.7519721577726
21
0.164933077310032
31
0.000000000000000
  0
LINE
  5
F10588
330
F10589
100
AcDbEntity
8
Geo
100
AcDbLine
10
-81.7519721577726
20
0.164933077310032
30
0.000000000000000
11
-81.6519721577726
21
-0.219847492836669
31
0.000000000000000
  0
LINE
  5
F1058A
330
F1058B
100
AcDbEntity
8
Geo
100
AcDbLine
10
-81.6519721577726
20
-0.219847492836669
30
0.000000000000000
11
-81.5519721577726
21
-0.604673587071684
31
0.000000000000000
  0
LINE
  5
F1058C
330
F1058D
100
AcDbEntity
8
Geo
100
AcDbLine
10
-81.5519721577726
20
-0.604673587071684
30
0.000000000000000
11
-81.4519721577726
21
-0.988975163043625
31
0.000000000000000
  0
LINE
  5
F1058E
330
F1058F
100
AcDbEntity
8
Geo
100
AcDbLine
10
-81.4519721577726
20
-0.988975163043625
30
0.000000000000000
11
-81.3519721577726
21
-1.37218295536927
31
0.000000000000000
  0
LINE
  5
F10590
330
F10591
100
AcDbEntity
8
Geo
100
AcDbLine
10
-81.3519721577726
20
-1.37218295536927
30
0.000000000000000
11
-81.2519721577726
21
-1.75372931888557
31
0.000000000000000
  0
LINE
  5
F10592
330
F10593
100
AcDbEntity
8
Geo
100
AcDbLine
10
-81.2519721577726
20
-1.75372931888557
30
0.000000000000000
11
-81.1519721577726
21
-2.13304906950163
31
0.000000000000000
  0
LINE
  5
F10594
330
F10595
100
AcDbEntity
8
Geo
100
AcDbLine
10
-81.1519721577726
20
-2.13304906950163
30
0.000000000000000
11
-81.0519721577726
21
-2.50958032140511
31
0.000000000000000
  0
LINE
  5
F10596
330
F10597
100
AcDbEntity
8
Geo
100
AcDbLine
10
-81.0519721577726
20
-2.50958032140511
30
0.000000000000000
11
-80.9519721577726
21
-2.88276531938288
31
0.000000000000000
  0
LINE
  5
F10598
330
F10599
100
AcDbEntity
8
Geo
100
AcDbLine
10
-80.9519721577726
20
-2.88276531938288
30
0.000000000000000
11
-80.8519721577726
21
-3.25205126502307
31
0.000000000000000
  0
LINE
  5
F1059A
330
F1059B
100
AcDbEntity
8
Geo
100
AcDbLine
10
-80.8519721577726
20
-3.25205126502307
30
0.000000000000000
11
-80.7519721577726
21
-3.61689113557448
31
0.000000000000000
  0
LINE
  5
F1059C
330
F1059D
100
AcDbEntity
8
Geo
100
AcDbLine
10
-80.7519721577726
20
-3.61689113557448
30
0.000000000000000
11
-80.6519721577725
21
-3.97674449425075
31
0.000000000000000
  0
LINE
  5
F1059E
330
F1059F
100
AcDbEntity
8
Geo
100
AcDbLine
10
-80.6519721577725
20
-3.97674449425075
30
0.000000000000000
11
-80.5519721577726
21
-4.33107829077847
31
0.000000000000000
  0
LINE
  5
F105A0
330
F105A1
100
AcDbEntity
8
Geo
100
AcDbLine
10
-80.5519721577726
20
-4.33107829077847
30
0.000000000000000
11
-80.4519721577726
21
-4.67936765100392
31
0.000000000000000
  0
LINE
  5
F105A2
330
F105A3
100
AcDbEntity
8
Geo
100
AcDbLine
10
-80.4519721577726
20
-4.67936765100392
30
0.000000000000000
11
-80.3519721577726
21
-5.02109665438833
31
0.000000000000000
  0
LINE
  5
F105A4
330
F105A5
100
AcDbEntity
8
Geo
100
AcDbLine
10
-80.3519721577726
20
-5.02109665438833
30
0.000000000000000
11
-80.2519721577725
21
-5.35575909824029
31
0.000000000000000
  0
LINE
  5
F105A6
330
F105A7
100
AcDbEntity
8
Geo
100
AcDbLine
10
-80.2519721577725
20
-5.35575909824029
30
0.000000000000000
11
-80.1519721577725
21
-5.68285924755309
31
0.000000000000000
  0
LINE
  5
F105A8
330
F105A9
100
AcDbEntity
8
Geo
100
AcDbLine
10
-80.1519721577725
20
-5.68285924755309
30
0.000000000000000
11
-80.0519721577726
21
-6.00191256933623
31
0.000000000000000
  0
LINE
  5
F105AA
330
F105AB
100
AcDbEntity
8
Geo
100
AcDbLine
10
-80.0519721577726
20
-6.00191256933623
30
0.000000000000000
11
-79.9519721577725
21
-6.31244645035354
31
0.000000000000000
  0
LINE
  5
F105AC
330
F105AD
100
AcDbEntity
8
Geo
100
AcDbLine
10
-79.9519721577725
20
-6.31244645035354
30
0.000000000000000
11
-79.8519721577725
21
-6.61400089720441
31
0.000000000000000
  0
LINE
  5
F105AE
330
F105AF
100
AcDbEntity
8
Geo
100
AcDbLine
10
-79.8519721577725
20
-6.61400089720441
30
0.000000000000000
11
-79.7519721577725
21
-6.90612921771147
31
0.000000000000000
  0
LINE
  5
F105B0
330
F105B1
100
AcDbEntity
8
Geo
100
AcDbLine
10
-79.7519721577725
20
-6.90612921771147
30
0.000000000000000
11
-79.6519721577725
21
-7.18839868260496
31
0.000000000000000
  0
LINE
  5
F105B2
330
F105B3
100
AcDbEntity
8
Geo
100
AcDbLine
10
-79.6519721577725
20
-7.18839868260496
30
0.000000000000000
11
-79.5519721577725
21
-7.46039116652412
31
0.000000000000000
  0
LINE
  5
F105B4
330
F105B5
100
AcDbEntity
8
Geo
100
AcDbLine
10
-79.5519721577725
20
-7.46039116652412
30
0.000000000000000
11
-79.4519721577725
21
-7.72170376738560
31
0.000000000000000
  0
LINE
  5
F105B6
330
F105B7
100
AcDbEntity
8
Geo
100
AcDbLine
10
-79.4519721577725
20
-7.72170376738560
30
0.000000000000000
11
-79.3519721577725
21
-7.97194940320178
31
0.000000000000000
  0
LINE
  5
F105B8
330
F105B9
100
AcDbEntity
8
Geo
100
AcDbLine
10
-79.3519721577725
20
-7.97194940320178
30
0.000000000000000
11
-79.2519721577725
21
-8.21075738546478
31
0.000000000000000
  0
LINE
  5
F105BA
330
F105BB
100
AcDbEntity
8
Geo
100
AcDbLine
10
-79.2519721577725
20
-8.21075738546478
30
0.000000000000000
11
-79.1519721577725
21
-8.43777396824685
31
0.000000000000000
  0
LINE
  5
F105BC
330
F105BD
100
AcDbEntity
8
Geo
100
AcDbLine
10
-79.1519721577725
20
-8.43777396824685
30
0.000000000000000
11
-79.0519721577725
21
-8.67764149019138
31
0.000000000000000
  0
LINE
  5
F105BE
330
F105BF
100
AcDbEntity
8
Geo
100
AcDbLine
10
-79.0519721577725
20
-8.67764149019138
30
0.000000000000000
11
-78.9519721577725
21
-8.89764947383776
31
0.000000000000000
  0
LINE
  5
F105C0
330
F105C1
100
AcDbEntity
8
Geo
100
AcDbLine
10
-78.9519721577725
20
-8.89764947383776
30
0.000000000000000
11
-78.8519721577725
21
-9.09830980930522
31
0.000000000000000
  0
LINE
  5
F105C2
330
F105C3
100
AcDbEntity
8
Geo
100
AcDbLine
10
-78.8519721577725
20
-9.09830980930522
30
0.000000000000000
11
-78.7519721577725
21
-9.28018699643257
31
0.000000000000000
  0
LINE
  5
F105C4
330
F105C5
100
AcDbEntity
8
Geo
100
AcDbLine
10
-78.7519721577725
20
-9.28018699643257
30
0.000000000000000
11
-78.6519721577725
21
-9.44389142665120
31
0.000000000000000
  0
LINE
  5
F105C6
330
F105C7
100
AcDbEntity
8
Geo
100
AcDbLine
10
-78.6519721577725
20
-9.44389142665120
30
0.000000000000000
11
-78.5519721577725
21
-9.59007296567228
31
0.000000000000000
  0
LINE
  5
F105C8
330
F105C9
100
AcDbEntity
8
Geo
100
AcDbLine
10
-78.5519721577725
20
-9.59007296567228
30
0.000000000000000
11
-78.4519721577725
21
-9.71941485332363
31
0.000000000000000
  0
LINE
  5
F105CA
330
F105CB
100
AcDbEntity
8
Geo
100
AcDbLine
10
-78.4519721577725
20
-9.71941485332363
30
0.000000000000000
11
-78.3519721577725
21
-9.83262793265619
31
0.000000000000000
  0
LINE
  5
F105CC
330
F105CD
100
AcDbEntity
8
Geo
100
AcDbLine
10
-78.3519721577725
20
-9.83262793265619
30
0.000000000000000
11
-78.2519721577725
21
-9.93044521657057
31
0.000000000000000
  0
LINE
  5
F105CE
330
F105CF
100
AcDbEntity
8
Geo
100
AcDbLine
10
-78.2519721577725
20
-9.93044521657057
30
0.000000000000000
11
-78.1519721577725
21
-10.0136167966884
31
0.000000000000000
  0
LINE
  5
F105D0
330
F105D1
100
AcDbEntity
8
Geo
100
AcDbLine
10
-78.1519721577725
20
-10.0136167966884
30
0.000000000000000
11
-78.0519721577725
21
-10.0829050960058
31
0.000000000000000
  0
LINE
  5
F105D2
330
F105D3
100
AcDbEntity
8
Geo
100
AcDbLine
10
-78.0519721577725
20
-10.0829050960058
30
0.000000000000000
11
-77.9519721577725
21
-10.1390804640072
31
0.000000000000000
  0
LINE
  5
F105D4
330
F105D5
100
AcDbEntity
8
Geo
100
AcDbLine
10
-77.9519721577725
20
-10.1390804640072
30
0.000000000000000
11
-77.8519721577725
21
-10.1829171103773
31
0.000000000000000
  0
LINE
  5
F105D6
330
F105D7
100
AcDbEntity
8
Geo
100
AcDbLine
10
-77.8519721577725
20
-10.1829171103773
30
0.000000000000000
11
-77.7519721577725
21
-10.2151893712120
31
0.000000000000000
  0
LINE
  5
F105D8
330
F105D9
100
AcDbEntity
8
Geo
100
AcDbLine
10
-77.7519721577725
20
-10.2151893712120
30
0.000000000000000
11
-77.6519721577725
21
-10.2366682996844
31
0.000000000000000
  0
LINE
  5
F105DA
330
F105DB
100
AcDbEntity
8
Geo
100
AcDbLine
10
-77.6519721577725
20
-10.2366682996844
30
0.000000000000000
11
-77.5519721577725
21
-10.2481185714496
31
0.000000000000000
  0
LINE
  5
F105DC
330
F105DD
100
AcDbEntity
8
Geo
100
AcDbLine
10
-77.5519721577725
20
-10.2481185714496
30
0.000000000000000
11
-77.4519721577725
21
-10.2505800464037
31
0.000000000000000
  0
LINE
  5
F105DE
330
F105DF
100
AcDbEntity
8
Geo
100
AcDbLine
10
-89.0519721577725
20
9.74656375277233
30
0.000000000000000
11
-88.9519721577725
21
9.74835580442009
31
0.000000000000000
  0
LINE
  5
F105E0
330
F105E1
100
AcDbEntity
8
Geo
100
AcDbLine
10
-88.9519721577725
20
9.74835580442009
30
0.000000000000000
11
-88.8519721577725
21
9.73533644647488
31
0.000000000000000
  0
LINE
  5
F105E2
330
F105E3
100
AcDbEntity
8
Geo
100
AcDbLine
10
-88.8519721577725
20
9.73533644647488
30
0.000000000000000
11
-88.7519721577725
21
9.70752496449327
31
0.000000000000000
  0
LINE
  5
F105E4
330
F105E5
100
AcDbEntity
8
Geo
100
AcDbLine
10
-88.7519721577725
20
9.70752496449327
30
0.000000000000000
11
-88.6519721577725
21
9.66496255558437
31
0.000000000000000
  0
LINE
  5
F105E6
330
F105E7
100
AcDbEntity
8
Geo
100
AcDbLine
10
-88.6519721577725
20
9.66496255558437
30
0.000000000000000
11
-88.5519721577725
21
9.60771226738455
31
0.000000000000000
  0
LINE
  5
F105E8
330
F105E9
100
AcDbEntity
8
Geo
100
AcDbLine
10
-88.5519721577725
20
9.60771226738455
30
0.000000000000000
11
-88.4519721577725
21
9.53585890466507
31
0.000000000000000
  0
LINE
  5
F105EA
330
F105EB
100
AcDbEntity
8
Geo
100
AcDbLine
10
-88.4519721577725
20
9.53585890466507
30
0.000000000000000
11
-88.3519721577725
21
9.44950890371094
31
0.000000000000000
  0
LINE
  5
F105EC
330
F105ED
100
AcDbEntity
8
Geo
100
AcDbLine
10
-88.3519721577725
20
9.44950890371094
30
0.000000000000000
11
-88.2519721577725
21
9.34879017465695
31
0.000000000000000
  0
LINE
  5
F105EE
330
F105EF
100
AcDbEntity
8
Geo
100
AcDbLine
10
-88.2519721577725
20
9.34879017465695
30
0.000000000000000
11
-88.1519721577725
21
9.23385191201459
31
0.000000000000000
  0
LINE
  5
F105F0
330
F105F1
100
AcDbEntity
8
Geo
100
AcDbLine
10
-88.1519721577725
20
9.23385191201459
30
0.000000000000000
11
-88.0519721577725
21
9.10486437367043
31
0.000000000000000
  0
LINE
  5
F105F2
330
F105F3
100
AcDbEntity
8
Geo
100
AcDbLine
10
-88.0519721577725
20
9.10486437367043
30
0.000000000000000
11
-87.9519721577725
21
8.96201862868336
31
0.000000000000000
  0
LINE
  5
F105F4
330
F105F5
100
AcDbEntity
8
Geo
100
AcDbLine
10
-87.9519721577725
20
8.96201862868336
30
0.000000000000000
11
-87.8519721577725
21
8.80552627425422
31
0.000000000000000
  0
LINE
  5
F105F6
330
F105F7
100
AcDbEntity
8
Geo
100
AcDbLine
10
-87.8519721577725
20
8.80552627425422
30
0.000000000000000
11
-87.7519721577725
21
8.63561912228723
31
0.000000000000000
  0
LINE
  5
F105F8
330
F105F9
100
AcDbEntity
8
Geo
100
AcDbLine
10
-87.7519721577725
20
8.63561912228723
30
0.000000000000000
11
-87.6519721577725
21
8.45254885600730
31
0.000000000000000
  0
LINE
  5
F105FA
330
F105FB
100
AcDbEntity
8
Geo
100
AcDbLine
10
-87.6519721577725
20
8.45254885600730
30
0.000000000000000
11
-87.5519721577725
21
8.25658665714201
31
0.000000000000000
  0
LINE
  5
F105FC
330
F105FD
100
AcDbEntity
8
Geo
100
AcDbLine
10
-87.5519721577725
20
8.25658665714201
30
0.000000000000000
11
-87.4519721577725
21
8.04802280422055
31
0.000000000000000
  0
LINE
  5
F105FE
330
F105FF
100
AcDbEntity
8
Geo
100
AcDbLine
10
-87.4519721577725
20
8.04802280422055
30
0.000000000000000
11
-87.3519721577725
21
7.82716624258451
31
0.000000000000000
  0
LINE
  5
F10600
330
F10601
100
AcDbEntity
8
Geo
100
AcDbLine
10
-87.3519721577725
20
7.82716624258451
30
0.000000000000000
11
-87.2519721577725
21
7.59434412674756
31
0.000000000000000
  0
LINE
  5
F10602
330
F10603
100
AcDbEntity
8
Geo
100
AcDbLine
10
-87.2519721577725
20
7.59434412674756
30
0.000000000000000
11
-87.1519721577725
21
7.34990133578200
31
0.000000000000000
  0
LINE
  5
F10604
330
F10605
100
AcDbEntity
8
Geo
100
AcDbLine
10
-87.1519721577725
20
7.34990133578200
30
0.000000000000000
11
-87.0519721577725
21
7.09419996244979
31
0.000000000000000
  0
LINE
  5
F10606
330
F10607
100
AcDbEntity
8
Geo
100
AcDbLine
10
-87.0519721577725
20
7.09419996244979
30
0.000000000000000
11
-86.9519721577725
21
6.82761877683511
31
0.000000000000000
  0
LINE
  5
F10608
330
F10609
100
AcDbEntity
8
Geo
100
AcDbLine
10
-86.9519721577725
20
6.82761877683511
30
0.000000000000000
11
-86.8519721577725
21
6.55055266527275
31
0.000000000000000
  0
LINE
  5
F1060A
330
F1060B
100
AcDbEntity
8
Geo
100
AcDbLine
10
-86.8519721577725
20
6.55055266527275
30
0.000000000000000
11
-86.7519721577725
21
6.26341204540353
31
0.000000000000000
  0
LINE
  5
F1060C
330
F1060D
100
AcDbEntity
8
Geo
100
AcDbLine
10
-86.7519721577725
20
6.26341204540353
30
0.000000000000000
11
-86.6519721577725
21
5.96662225822326
31
0.000000000000000
  0
LINE
  5
F1060E
330
F1060F
100
AcDbEntity
8
Geo
100
AcDbLine
10
-86.6519721577725
20
5.96662225822326
30
0.000000000000000
11
-86.5519721577725
21
5.66062293802567
31
0.000000000000000
  0
LINE
  5
F10610
330
F10611
100
AcDbEntity
8
Geo
100
AcDbLine
10
-86.5519721577725
20
5.66062293802567
30
0.000000000000000
11
-86.4519721577725
21
5.34586736117279
31
0.000000000000000
  0
LINE
  5
F10612
330
F10613
100
AcDbEntity
8
Geo
100
AcDbLine
10
-86.4519721577725
20
5.34586736117279
30
0.000000000000000
11
-86.3519721577725
21
5.02282177465730
31
0.000000000000000
  0
LINE
  5
F10614
330
F10615
100
AcDbEntity
8
Geo
100
AcDbLine
10
-86.3519721577725
20
5.02282177465730
30
0.000000000000000
11
-86.2519721577725
21
4.69196470545152
31
0.000000000000000
  0
LINE
  5
F10616
330
F10617
100
AcDbEntity
8
Geo
100
AcDbLine
10
-86.2519721577725
20
4.69196470545152
30
0.000000000000000
11
-86.1519721577725
21
4.35378625166606
31
0.000000000000000
  0
LINE
  5
F10618
330
F10619
100
AcDbEntity
8
Geo
100
AcDbLine
10
-86.1519721577725
20
4.35378625166606
30
0.000000000000000
11
-86.0519721577725
21
4.00878735656823
31
0.000000000000000
  0
LINE
  5
F1061A
330
F1061B
100
AcDbEntity
8
Geo
100
AcDbLine
10
-86.0519721577725
20
4.00878735656823
30
0.000000000000000
11
-85.9519721577725
21
3.65747906653542
31
0.000000000000000
  0
LINE
  5
F1061C
330
F1061D
100
AcDbEntity
8
Geo
100
AcDbLine
10
-85.9519721577725
20
3.65747906653542
30
0.000000000000000
11
-85.8519721577725
21
3.30038177404285
31
0.000000000000000
  0
LINE
  5
F1061E
330
F1061F
100
AcDbEntity
8
Geo
100
AcDbLine
10
-85.8519721577725
20
3.30038177404285
30
0.000000000000000
11
-85.7519721577725
21
2.93802444680695
31
0.000000000000000
  0
LINE
  5
F10620
330
F10621
100
AcDbEntity
8
Geo
100
AcDbLine
10
-85.7519721577725
20
2.93802444680695
30
0.000000000000000
11
-85.6519721577725
21
2.57094384422621
31
0.000000000000000
  0
LINE
  5
F10622
330
F10623
100
AcDbEntity
8
Geo
100
AcDbLine
10
-85.6519721577725
20
2.57094384422621
30
0.000000000000000
11
-85.5519721577725
21
2.19968372228021
31
0.000000000000000
  0
LINE
  5
F10624
330
F10625
100
AcDbEntity
8
Geo
100
AcDbLine
10
-85.5519721577725
20
2.19968372228021
30
0.000000000000000
11
-85.4519721577725
21
1.82479402806470
31
0.000000000000000
  0
LINE
  5
F10626
330
F10627
100
AcDbEntity
8
Geo
100
AcDbLine
10
-85.4519721577725
20
1.82479402806470
30
0.000000000000000
11
-85.3519721577726
21
1.44683008515571
31
0.000000000000000
  0
LINE
  5
F10628
330
F10629
100
AcDbEntity
8
Geo
100
AcDbLine
10
-85.3519721577726
20
1.44683008515571
30
0.000000000000000
11
-85.2519721577725
21
1.06635177100952
31
0.000000000000000
  0
LINE
  5
F1062A
330
F1062B
100
AcDbEntity
8
Geo
100
AcDbLine
10
-85.2519721577725
20
1.06635177100952
30
0.000000000000000
11
-85.1519721577725
21
0.683922687617023
31
0.000000000000000
  0
LINE
  5
F1062C
330
F1062D
100
AcDbEntity
8
Geo
100
AcDbLine
10
-85.1519721577725
20
0.683922687617023
30
0.000000000000000
11
-85.0519721577726
21
0.300109326640803
31
0.000000000000000
  0
LINE
  5
F1062E
330
F1062F
100
AcDbEntity
8
Geo
100
AcDbLine
10
-85.0519721577726
20
0.300109326640803
30
0.000000000000000
11
-84.9519721577725
21
-0.0845197697280982
31
0.000000000000000
  0
LINE
  5
F10630
330
F10631
100
AcDbEntity
8
Geo
100
AcDbLine
10
-84.9519721577725
20
-0.0845197697280982
30
0.000000000000000
11
-84.8519721577726
21
-0.469394850950962
31
0.000000000000000
  0
LINE
  5
F10632
330
F10633
100
AcDbEntity
8
Geo
100
AcDbLine
10
-84.8519721577726
20
-0.469394850950962
30
0.000000000000000
11
-84.7519721577725
21
-0.853945802112028
31
0.000000000000000
  0
LINE
  5
F10634
330
F10635
100
AcDbEntity
8
Geo
100
AcDbLine
10
-84.7519721577725
20
-0.853945802112028
30
0.000000000000000
11
-84.6519721577725
21
-1.23760298842897
31
0.000000000000000
  0
LINE
  5
F10636
330
F10637
100
AcDbEntity
8
Geo
100
AcDbLine
10
-84.6519721577725
20
-1.23760298842897
30
0.000000000000000
11
-84.5519721577726
21
-1.61979809905204
31
0.000000000000000
  0
LINE
  5
F10638
330
F10639
100
AcDbEntity
8
Geo
100
AcDbLine
10
-84.5519721577726
20
-1.61979809905204
30
0.000000000000000
11
-84.4519721577725
21
-1.99996498890218
31
0.000000000000000
  0
LINE
  5
F1063A
330
F1063B
100
AcDbEntity
8
Geo
100
AcDbLine
10
-84.4519721577725
20
-1.99996498890218
30
0.000000000000000
11
-84.3519721577726
21
-2.37754051730089
31
0.000000000000000
  0
LINE
  5
F1063C
330
F1063D
100
AcDbEntity
8
Geo
100
AcDbLine
10
-84.3519721577726
20
-2.37754051730089
30
0.000000000000000
11
-84.2519721577725
21
-2.75196538214975
31
0.000000000000000
  0
LINE
  5
F1063E
330
F1063F
100
AcDbEntity
8
Geo
100
AcDbLine
10
-84.2519721577725
20
-2.75196538214975
30
0.000000000000000
11
-84.1519721577725
21
-3.12268494842380
31
0.000000000000000
  0
LINE
  5
F10640
330
F10641
100
AcDbEntity
8
Geo
100
AcDbLine
10
-84.1519721577725
20
-3.12268494842380
30
0.000000000000000
11
-84.0519721577726
21
-3.48915006975167
31
0.000000000000000
  0
LINE
  5
F10642
330
F10643
100
AcDbEntity
8
Geo
100
AcDbLine
10
-84.0519721577726
20
-3.48915006975167
30
0.000000000000000
11
-83.9519721577725
21
-3.85081790186526
31
0.000000000000000
  0
LINE
  5
F10644
330
F10645
100
AcDbEntity
8
Geo
100
AcDbLine
10
-83.9519721577725
20
-3.85081790186526
30
0.000000000000000
11
-83.8519721577726
21
-4.20715270671426
31
0.000000000000000
  0
LINE
  5
F10646
330
F10647
100
AcDbEntity
8
Geo
100
AcDbLine
10
-83.8519721577726
20
-4.20715270671426
30
0.000000000000000
11
-83.7519721577726
21
-4.55762664605413
31
0.000000000000000
  0
LINE
  5
F10648
330
F10649
100
AcDbEntity
8
Geo
100
AcDbLine
10
-83.7519721577726
20
-4.55762664605413
30
0.000000000000000
11
-83.6519721577725
21
-4.90172056333212
31
0.000000000000000
  0
LINE
  5
F1064A
330
F1064B
100
AcDbEntity
8
Geo
100
AcDbLine
10
-83.6519721577725
20
-4.90172056333212
30
0.000000000000000
11
-83.5519721577726
21
-5.23892475271322
31
0.000000000000000
  0
LINE
  5
F1064C
330
F1064D
100
AcDbEntity
8
Geo
100
AcDbLine
10
-83.5519721577726
20
-5.23892475271322
30
0.000000000000000
11
-83.4519721577726
21
-5.56873971410662
31
0.000000000000000
  0
LINE
  5
F1064E
330
F1064F
100
AcDbEntity
8
Geo
100
AcDbLine
10
-83.4519721577726
20
-5.56873971410662
30
0.000000000000000
11
-83.3519721577726
21
-5.89067689307453
31
0.000000000000000
  0
LINE
  5
F10650
330
F10651
100
AcDbEntity
8
Geo
100
AcDbLine
10
-83.3519721577726
20
-5.89067689307453
30
0.000000000000000
11
-83.2519721577726
21
-6.20425940452718
31
0.000000000000000
  0
LINE
  5
F10652
330
F10653
100
AcDbEntity
8
Geo
100
AcDbLine
10
-83.2519721577726
20
-6.20425940452718
30
0.000000000000000
11
-83.1519721577725
21
-6.50902273913201
31
0.000000000000000
  0
LINE
  5
F10654
330
F10655
100
AcDbEntity
8
Geo
100
AcDbLine
10
-83.1519721577725
20
-6.50902273913201
30
0.000000000000000
11
-83.0519721577726
21
-6.80451545139072
31
0.000000000000000
  0
LINE
  5
F10656
330
F10657
100
AcDbEntity
8
Geo
100
AcDbLine
10
-83.0519721577726
20
-6.80451545139072
30
0.000000000000000
11
-82.9519721577726
21
-7.09029982836481
31
0.000000000000000
  0
LINE
  5
F10658
330
F10659
100
AcDbEntity
8
Geo
100
AcDbLine
10
-82.9519721577726
20
-7.09029982836481
30
0.000000000000000
11
-82.8519721577726
21
-7.36595253805919
31
0.000000000000000
  0
LINE
  5
F1065A
330
F1065B
100
AcDbEntity
8
Geo
100
AcDbLine
10
-82.8519721577726
20
-7.36595253805919
30
0.000000000000000
11
-82.7519721577726
21
-7.63106525650321
31
0.000000000000000
  0
LINE
  5
F1065C
330
F1065D
100
AcDbEntity
8
Geo
100
AcDbLine
10
-82.7519721577726
20
-7.63106525650321
30
0.000000000000000
11
-82.6519721577725
21
-7.88524527260045
31
0.000000000000000
  0
LINE
  5
F1065E
330
F1065F
100
AcDbEntity
8
Geo
100
AcDbLine
10
-82.6519721577725
20
-7.88524527260045
30
0.000000000000000
11
-82.5519721577726
21
-8.12811606985105
31
0.000000000000000
  0
LINE
  5
F10660
330
F10661
100
AcDbEntity
8
Geo
100
AcDbLine
10
-82.5519721577726
20
-8.12811606985105
30
0.000000000000000
11
-82.4519721577726
21
-8.35931788408512
31
0.000000000000000
  0
LINE
  5
F10662
330
F10663
100
AcDbEntity
8
Geo
100
AcDbLine
10
-82.4519721577726
20
-8.35931788408512
30
0.000000000000000
11
-82.3519721577726
21
-8.57850823638086
31
0.000000000000000
  0
LINE
  5
F10664
330
F10665
100
AcDbEntity
8
Geo
100
AcDbLine
10
-82.3519721577726
20
-8.57850823638086
30
0.000000000000000
11
-82.2519721577726
21
-8.78536244037813
31
0.000000000000000
  0
LINE
  5
F10666
330
F10667
100
AcDbEntity
8
Geo
100
AcDbLine
10
-82.2519721577726
20
-8.78536244037813
30
0.000000000000000
11
-82.1519721577726
21
-8.97957408323590
31
0.000000000000000
  0
LINE
  5
F10668
330
F10669
100
AcDbEntity
8
Geo
100
AcDbLine
10
-82.1519721577726
20
-8.97957408323590
30
0.000000000000000
11
-82.0519721577726
21
-9.16085547952112
31
0.000000000000000
  0
LINE
  5
F1066A
330
F1066B
100
AcDbEntity
8
Geo
100
AcDbLine
10
-82.0519721577726
20
-9.16085547952112
30
0.000000000000000
11
-81.9519721577726
21
-9.32893809735682
31
0.000000000000000
  0
LINE
  5
F1066C
330
F1066D
100
AcDbEntity
8
Geo
100
AcDbLine
10
-81.9519721577726
20
-9.32893809735682
30
0.000000000000000
11
-81.8519721577726
21
-9.48357295619792
31
0.000000000000000
  0
LINE
  5
F1066E
330
F1066F
100
AcDbEntity
8
Geo
100
AcDbLine
10
-81.8519721577726
20
-9.48357295619792
30
0.000000000000000
11
-81.7519721577726
21
-9.62453099564580
31
0.000000000000000
  0
LINE
  5
F10670
330
F10671
100
AcDbEntity
8
Geo
100
AcDbLine
10
-81.7519721577726
20
-9.62453099564580
30
0.000000000000000
11
-81.6519721577726
21
-9.75160341475518
31
0.000000000000000
  0
LINE
  5
F10672
330
F10673
100
AcDbEntity
8
Geo
100
AcDbLine
10
-81.6519721577726
20
-9.75160341475518
30
0.000000000000000
11
-81.5519721577726
21
-9.86460198133059
31
0.000000000000000
  0
LINE
  5
F10674
330
F10675
100
AcDbEntity
8
Geo
100
AcDbLine
10
-81.5519721577726
20
-9.86460198133059
30
0.000000000000000
11
-81.4519721577726
21
-9.96335931075452
31
0.000000000000000
  0
LINE
  5
F10676
330
F10677
100
AcDbEntity
8
Geo
100
AcDbLine
10
-81.4519721577726
20
-9.96335931075452
30
0.000000000000000
11
-81.3519721577726
21
-10.0477291139340
31
0.000000000000000
  0
LINE
  5
F10678
330
F10679
100
AcDbEntity
8
Geo
100
AcDbLine
10
-81.3519721577726
20
-10.0477291139340
30
0.000000000000000
11
-81.2519721577726
21
-10.1175864139984
31
0.000000000000000
  0
LINE
  5
F1067A
330
F1067B
100
AcDbEntity
8
Geo
100
AcDbLine
10
-81.2519721577726
20
-10.1175864139984
30
0.000000000000000
11
-81.1519721577726
21
-10.1728277314275
31
0.000000000000000
  0
LINE
  5
F1067C
330
F1067D
100
AcDbEntity
8
Geo
100
AcDbLine
10
-81.1519721577726
20
-10.1728277314275
30
0.000000000000000
11
-81.0519721577726
21
-10.2133712373356
31
0.000000000000000
  0
LINE
  5
F1067E
330
F1067F
100
AcDbEntity
8
Geo
100
AcDbLine
10
-81.0519721577726
20
-10.2133712373356
30
0.000000000000000
11
-80.9519721577726
21
-10.2391568746845
31
0.000000000000000
  0
LINE
  5
F10680
330
F10681
100
AcDbEntity
8
Geo
100
AcDbLine
10
-80.9519721577726
20
-10.2391568746845
30
0.000000000000000
11
-80.8519721577726
21
-10.2501464472460
31
0.000000000000000
  0
LINE
  5
F10682
330
F10683
100
AcDbEntity
8
Geo
100
AcDbLine
10
-89.8519721577725
20
9.74786024911537
30
0.000000000000000
11
-89.7519721577725
21
9.74725101663002
31
0.000000000000000
  0
LINE
  5
F10684
330
F10685
100
AcDbEntity
8
Geo
100
AcDbLine
10
-89.7519721577725
20
9.74725101663002
30
0.000000000000000
11
-89.6519721577725
21
9.73183201107230
31
0.000000000000000
  0
LINE
  5
F10686
330
F10687
100
AcDbEntity
8
Geo
100
AcDbLine
10
-89.6519721577725
20
9.73183201107230
30
0.000000000000000
11
-89.5519721577725
21
9.70162607259341
31
0.000000000000000
  0
LINE
  5
F10688
330
F10689
100
AcDbEntity
8
Geo
100
AcDbLine
10
-89.5519721577725
20
9.70162607259341
30
0.000000000000000
11
-89.4519721577725
21
9.65667794520749
31
0.000000000000000
  0
LINE
  5
F1068A
330
F1068B
100
AcDbEntity
8
Geo
100
AcDbLine
10
-89.4519721577725
20
9.65667794520749
30
0.000000000000000
11
-89.3519721577725
21
9.59705421051232
31
0.000000000000000
  0
LINE
  5
F1068C
330
F1068D
100
AcDbEntity
8
Geo
100
AcDbLine
10
-89.3519721577725
20
9.59705421051232
30
0.000000000000000
11
-89.2519721577725
21
9.52284318906214
31
0.000000000000000
  0
LINE
  5
F1068E
330
F1068F
100
AcDbEntity
8
Geo
100
AcDbLine
10
-89.2519721577725
20
9.52284318906214
30
0.000000000000000
11
-89.1519721577725
21
9.43415480953850
31
0.000000000000000
  0
LINE
  5
F10690
330
F10691
100
AcDbEntity
8
Geo
100
AcDbLine
10
-89.1519721577725
20
9.43415480953850
30
0.000000000000000
11
-89.0519721577725
21
9.33112044591307
31
0.000000000000000
  0
LINE
  5
F10692
330
F10693
100
AcDbEntity
8
Geo
100
AcDbLine
10
-89.0519721577725
20
9.33112044591307
30
0.000000000000000
11
-88.9519721577725
21
9.21389272284356
31
0.000000000000000
  0
LINE
  5
F10694
330
F10695
100
AcDbEntity
8
Geo
100
AcDbLine
10
-88.9519721577725
20
9.21389272284356
30
0.000000000000000
11
-88.8519721577725
21
9.08264528959107
31
0.000000000000000
  0
LINE
  5
F10696
330
F10697
100
AcDbEntity
8
Geo
100
AcDbLine
10
-88.8519721577725
20
9.08264528959107
30
0.000000000000000
11
-88.7519721577725
21
8.93757256279362
31
0.000000000000000
  0
LINE
  5
F10698
330
F10699
100
AcDbEntity
8
Geo
100
AcDbLine
10
-88.7519721577725
20
8.93757256279362
30
0.000000000000000
11
-88.6519721577725
21
8.77888943847707
31
0.000000000000000
  0
LINE
  5
F1069A
330
F1069B
100
AcDbEntity
8
Geo
100
AcDbLine
10
-88.6519721577725
20
8.77888943847707
30
0.000000000000000
11
-88.5519721577725
21
8.60683097373000
31
0.000000000000000
  0
LINE
  5
F1069C
330
F1069D
100
AcDbEntity
8
Geo
100
AcDbLine
10
-88.5519721577725
20
8.60683097373000
30
0.000000000000000
11
-88.4519721577725
21
8.42165203851388
31
0.000000000000000
  0
LINE
  5
F1069E
330
F1069F
100
AcDbEntity
8
Geo
100
AcDbLine
10
-88.4519721577725
20
8.42165203851388
30
0.000000000000000
11
-88.3519721577725
21
8.22362693812466
31
0.000000000000000
  0
LINE
  5
F106A0
330
F106A1
100
AcDbEntity
8
Geo
100
AcDbLine
10
-88.3519721577725
20
8.22362693812466
30
0.000000000000000
11
-88.2519721577725
21
8.01304900686462
31
0.000000000000000
  0
LINE
  5
F106A2
330
F106A3
100
AcDbEntity
8
Geo
100
AcDbLine
10
-88.2519721577725
20
8.01304900686462
30
0.000000000000000
11
-88.1519721577725
21
7.79023017352676
31
0.000000000000000
  0
LINE
  5
F106A4
330
F106A5
100
AcDbEntity
8
Geo
100
AcDbLine
10
-88.1519721577725
20
7.79023017352676
30
0.000000000000000
11
-88.0519721577725
21
7.55550049933508
31
0.000000000000000
  0
LINE
  5
F106A6
330
F106A7
100
AcDbEntity
8
Geo
100
AcDbLine
10
-88.0519721577725
20
7.55550049933508
30
0.000000000000000
11
-87.9519721577725
21
7.30920768902535
31
0.000000000000000
  0
LINE
  5
F106A8
330
F106A9
100
AcDbEntity
8
Geo
100
AcDbLine
10
-87.9519721577725
20
7.30920768902535
30
0.000000000000000
11
-87.8519721577725
21
7.05171657579060
31
0.000000000000000
  0
LINE
  5
F106AA
330
F106AB
100
AcDbEntity
8
Geo
100
AcDbLine
10
-87.8519721577725
20
7.05171657579060
30
0.000000000000000
11
-87.7519721577725
21
6.78340858085421
31
0.000000000000000
  0
LINE
  5
F106AC
330
F106AD
100
AcDbEntity
8
Geo
100
AcDbLine
10
-87.7519721577725
20
6.78340858085421
30
0.000000000000000
11
-87.6519721577725
21
6.50468114847117
31
0.000000000000000
  0
LINE
  5
F106AE
330
F106AF
100
AcDbEntity
8
Geo
100
AcDbLine
10
-87.6519721577725
20
6.50468114847117
30
0.000000000000000
11
-87.5519721577725
21
6.21594715719451
31
0.000000000000000
  0
LINE
  5
F106B0
330
F106B1
100
AcDbEntity
8
Geo
100
AcDbLine
10
-87.5519721577725
20
6.21594715719451
30
0.000000000000000
11
-87.4519721577725
21
5.91763430827884
31
0.000000000000000
  0
LINE
  5
F106B2
330
F106B3
100
AcDbEntity
8
Geo
100
AcDbLine
10
-87.4519721577725
20
5.91763430827884
30
0.000000000000000
11
-87.3519721577725
21
5.61018449212712
31
0.000000000000000
  0
LINE
  5
F106B4
330
F106B5
100
AcDbEntity
8
Geo
100
AcDbLine
10
-87.3519721577725
20
5.61018449212712
30
0.000000000000000
11
-87.2519721577725
21
5.29405313371897
31
0.000000000000000
  0
LINE
  5
F106B6
330
F106B7
100
AcDbEntity
8
Geo
100
AcDbLine
10
-87.2519721577725
20
5.29405313371897
30
0.000000000000000
11
-87.1519721577725
21
4.96970851799037
31
0.000000000000000
  0
LINE
  5
F106B8
330
F106B9
100
AcDbEntity
8
Geo
100
AcDbLine
10
-87.1519721577725
20
4.96970851799037
30
0.000000000000000
11
-87.0519721577725
21
4.63763109616375
31
0.000000000000000
  0
LINE
  5
F106BA
330
F106BB
100
AcDbEntity
8
Geo
100
AcDbLine
10
-87.0519721577725
20
4.63763109616375
30
0.000000000000000
11
-86.9519721577725
21
4.29831277405639
31
0.000000000000000
  0
LINE
  5
F106BC
330
F106BD
100
AcDbEntity
8
Geo
100
AcDbLine
10
-86.9519721577725
20
4.29831277405639
30
0.000000000000000
11
-86.8519721577725
21
3.95225618342090
31
0.000000000000000
  0
LINE
  5
F106BE
330
F106BF
100
AcDbEntity
8
Geo
100
AcDbLine
10
-86.8519721577725
20
3.95225618342090
30
0.000000000000000
11
-86.7519721577725
21
3.59997393739759
31
0.000000000000000
  0
LINE
  5
F106C0
330
F106C1
100
AcDbEntity
8
Geo
100
AcDbLine
10
-86.7519721577725
20
3.59997393739759
30
0.000000000000000
11
-86.6519721577725
21
3.24198787118134
31
0.000000000000000
  0
LINE
  5
F106C2
330
F106C3
100
AcDbEntity
8
Geo
100
AcDbLine
10
-86.6519721577725
20
3.24198787118134
30
0.000000000000000
11
-86.5519721577725
21
2.87882826902782
31
0.000000000000000
  0
LINE
  5
F106C4
330
F106C5
100
AcDbEntity
8
Geo
100
AcDbLine
10
-86.5519721577725
20
2.87882826902782
30
0.000000000000000
11
-86.4519721577725
21
2.51103307874422
31
0.000000000000000
  0
LINE
  5
F106C6
330
F106C7
100
AcDbEntity
8
Geo
100
AcDbLine
10
-86.4519721577725
20
2.51103307874422
30
0.000000000000000
11
-86.3519721577725
21
2.13914711482789
31
0.000000000000000
  0
LINE
  5
F106C8
330
F106C9
100
AcDbEntity
8
Geo
100
AcDbLine
10
-86.3519721577725
20
2.13914711482789
30
0.000000000000000
11
-86.2519721577725
21
1.76372125143340
31
0.000000000000000
  0
LINE
  5
F106CA
330
F106CB
100
AcDbEntity
8
Geo
100
AcDbLine
10
-86.2519721577725
20
1.76372125143340
30
0.000000000000000
11
-86.1519721577725
21
1.38531160636344
31
0.000000000000000
  0
LINE
  5
F106CC
330
F106CD
100
AcDbEntity
8
Geo
100
AcDbLine
10
-86.1519721577725
20
1.38531160636344
30
0.000000000000000
11
-86.0519721577725
21
1.00447871729228
31
0.000000000000000
  0
LINE
  5
F106CE
330
F106CF
100
AcDbEntity
8
Geo
100
AcDbLine
10
-86.0519721577725
20
1.00447871729228
30
0.000000000000000
11
-85.9519721577725
21
0.621786711442131
31
0.000000000000000
  0
LINE
  5
F106D0
330
F106D1
100
AcDbEntity
8
Geo
100
AcDbLine
10
-85.9519721577725
20
0.621786711442131
30
0.000000000000000
11
-85.8519721577725
21
0.237802469942255
31
0.000000000000000
  0
LINE
  5
F106D2
330
F106D3
100
AcDbEntity
8
Geo
100
AcDbLine
10
-85.8519721577725
20
0.237802469942255
30
0.000000000000000
11
-85.7519721577725
21
-0.146905211891238
31
0.000000000000000
  0
LINE
  5
F106D4
330
F106D5
100
AcDbEntity
8
Geo
100
AcDbLine
10
-85.7519721577725
20
-0.146905211891238
30
0.000000000000000
11
-85.6519721577725
21
-0.531766467111067
31
0.000000000000000
  0
LINE
  5
F106D6
330
F106D7
100
AcDbEntity
8
Geo
100
AcDbLine
10
-85.6519721577725
20
-0.531766467111067
30
0.000000000000000
11
-85.5519721577725
21
-0.916211201281934
31
0.000000000000000
  0
LINE
  5
F106D8
330
F106D9
100
AcDbEntity
8
Geo
100
AcDbLine
10
-85.5519721577725
20
-0.916211201281934
30
0.000000000000000
11
-85.4519721577725
21
-1.29966993696058
31
0.000000000000000
  0
LINE
  5
F106DA
330
F106DB
100
AcDbEntity
8
Geo
100
AcDbLine
10
-85.4519721577725
20
-1.29966993696058
30
0.000000000000000
11
-85.3519721577726
21
-1.68157465726192
31
0.000000000000000
  0
LINE
  5
F106DC
330
F106DD
100
AcDbEntity
8
Geo
100
AcDbLine
10
-85.3519721577726
20
-1.68157465726192
30
0.000000000000000
11
-85.2519721577725
21
-2.06135964726164
31
0.000000000000000
  0
LINE
  5
F106DE
330
F106DF
100
AcDbEntity
8
Geo
100
AcDbLine
10
-85.2519721577725
20
-2.06135964726164
30
0.000000000000000
11
-85.1519721577725
21
-2.43846233198899
31
0.000000000000000
  0
LINE
  5
F106E0
330
F106E1
100
AcDbEntity
8
Geo
100
AcDbLine
10
-85.1519721577725
20
-2.43846233198899
30
0.000000000000000
11
-85.0519721577726
21
-2.81232410976820
31
0.000000000000000
  0
LINE
  5
F106E2
330
F106E3
100
AcDbEntity
8
Geo
100
AcDbLine
10
-85.0519721577726
20
-2.81232410976820
30
0.000000000000000
11
-84.9519721577725
21
-3.18239117967439
31
0.000000000000000
  0
LINE
  5
F106E4
330
F106E5
100
AcDbEntity
8
Geo
100
AcDbLine
10
-84.9519721577725
20
-3.18239117967439
30
0.000000000000000
11
-84.8519721577726
21
-3.54811536187815
31
0.000000000000000
  0
LINE
  5
F106E6
330
F106E7
100
AcDbEntity
8
Geo
100
AcDbLine
10
-84.8519721577726
20
-3.54811536187815
30
0.000000000000000
11
-84.7519721577725
21
-3.90895490966345
31
0.000000000000000
  0
LINE
  5
F106E8
330
F106E9
100
AcDbEntity
8
Geo
100
AcDbLine
10
-84.7519721577725
20
-3.90895490966345
30
0.000000000000000
11
-84.6519721577725
21
-4.26437531191638
31
0.000000000000000
  0
LINE
  5
F106EA
330
F106EB
100
AcDbEntity
8
Geo
100
AcDbLine
10
-84.6519721577725
20
-4.26437531191638
30
0.000000000000000
11
-84.5519721577726
21
-4.61385008489568
31
0.000000000000000
  0
LINE
  5
F106EC
330
F106ED
100
AcDbEntity
8
Geo
100
AcDbLine
10
-84.5519721577726
20
-4.61385008489568
30
0.000000000000000
11
-84.4519721577725
21
-4.95686155211234
31
0.000000000000000
  0
LINE
  5
F106EE
330
F106EF
100
AcDbEntity
8
Geo
100
AcDbLine
10
-84.4519721577725
20
-4.95686155211234
30
0.000000000000000
11
-84.3519721577726
21
-5.29290161116309
31
0.000000000000000
  0
LINE
  5
F106F0
330
F106F1
100
AcDbEntity
8
Geo
100
AcDbLine
10
-84.3519721577726
20
-5.29290161116309
30
0.000000000000000
11
-84.2519721577725
21
-5.62147248638174
31
0.000000000000000
  0
LINE
  5
F106F2
330
F106F3
100
AcDbEntity
8
Geo
100
AcDbLine
10
-84.2519721577725
20
-5.62147248638174
30
0.000000000000000
11
-84.1519721577725
21
-5.94208746619361
31
0.000000000000000
  0
LINE
  5
F106F4
330
F106F5
100
AcDbEntity
8
Geo
100
AcDbLine
10
-84.1519721577725
20
-5.94208746619361
30
0.000000000000000
11
-84.0519721577726
21
-6.25427162408066
31
0.000000000000000
  0
LINE
  5
F106F6
330
F106F7
100
AcDbEntity
8
Geo
100
AcDbLine
10
-84.0519721577726
20
-6.25427162408066
30
0.000000000000000
11
-83.9519721577725
21
-6.55756252208951
31
0.000000000000000
  0
LINE
  5
F106F8
330
F106F9
100
AcDbEntity
8
Geo
100
AcDbLine
10
-83.9519721577725
20
-6.55756252208951
30
0.000000000000000
11
-83.8519721577726
21
-6.85151089584011
31
0.000000000000000
  0
LINE
  5
F106FA
330
F106FB
100
AcDbEntity
8
Geo
100
AcDbLine
10
-83.8519721577726
20
-6.85151089584011
30
0.000000000000000
11
-83.7519721577726
21
-7.13568132002041
31
0.000000000000000
  0
LINE
  5
F106FC
330
F106FD
100
AcDbEntity
8
Geo
100
AcDbLine
10
-83.7519721577726
20
-7.13568132002041
30
0.000000000000000
11
-83.6519721577725
21
-7.40965285338132
31
0.000000000000000
  0
LINE
  5
F106FE
330
F106FF
100
AcDbEntity
8
Geo
100
AcDbLine
10
-83.6519721577725
20
-7.40965285338132
30
0.000000000000000
11
-83.5519721577726
21
-7.67301966227634
31
0.000000000000000
  0
LINE
  5
F10700
330
F10701
100
AcDbEntity
8
Geo
100
AcDbLine
10
-83.5519721577726
20
-7.67301966227634
30
0.000000000000000
11
-83.4519721577726
21
-7.92539162182240
31
0.000000000000000
  0
LINE
  5
F10702
330
F10703
100
AcDbEntity
8
Geo
100
AcDbLine
10
-83.4519721577726
20
-7.92539162182240
30
0.000000000000000
11
-83.3519721577726
21
-8.16639489379126
31
0.000000000000000
  0
LINE
  5
F10704
330
F10705
100
AcDbEntity
8
Geo
100
AcDbLine
10
-83.3519721577726
20
-8.16639489379126
30
0.000000000000000
11
-83.2519721577726
21
-8.39567248037560
31
0.000000000000000
  0
LINE
  5
F10706
330
F10707
100
AcDbEntity
8
Geo
100
AcDbLine
10
-83.2519721577726
20
-8.39567248037560
30
0.000000000000000
11
-83.1519721577725
21
-8.61288475300933
31
0.000000000000000
  0
LINE
  5
F10708
330
F10709
100
AcDbEntity
8
Geo
100
AcDbLine
10
-83.1519721577725
20
-8.61288475300933
30
0.000000000000000
11
-83.0519721577726
21
-8.81770995545893
31
0.000000000000000
  0
LINE
  5
F1070A
330
F1070B
100
AcDbEntity
8
Geo
100
AcDbLine
10
-83.0519721577726
20
-8.81770995545893
30
0.000000000000000
11
-82.9519721577726
21
-9.00984468044048
31
0.000000000000000
  0
LINE
  5
F1070C
330
F1070D
100
AcDbEntity
8
Geo
100
AcDbLine
10
-82.9519721577726
20
-9.00984468044048
30
0.000000000000000
11
-82.8519721577726
21
-9.18900431905650
31
0.000000000000000
  0
LINE
  5
F1070E
330
F1070F
100
AcDbEntity
8
Geo
100
AcDbLine
10
-82.8519721577726
20
-9.18900431905650
30
0.000000000000000
11
-82.7519721577726
21
-9.35492348238663
31
0.000000000000000
  0
LINE
  5
F10710
330
F10711
100
AcDbEntity
8
Geo
100
AcDbLine
10
-82.7519721577726
20
-9.35492348238663
30
0.000000000000000
11
-82.6519721577725
21
-9.50735639460791
31
0.000000000000000
  0
LINE
  5
F10712
330
F10713
100
AcDbEntity
8
Geo
100
AcDbLine
10
-82.6519721577725
20
-9.50735639460791
30
0.000000000000000
11
-82.5519721577726
21
-9.64607725706216
31
0.000000000000000
  0
LINE
  5
F10714
330
F10715
100
AcDbEntity
8
Geo
100
AcDbLine
10
-82.5519721577726
20
-9.64607725706216
30
0.000000000000000
11
-82.4519721577726
21
-9.77088058273122
31
0.000000000000000
  0
LINE
  5
F10716
330
F10717
100
AcDbEntity
8
Geo
100
AcDbLine
10
-82.4519721577726
20
-9.77088058273122
30
0.000000000000000
11
-82.3519721577726
21
-9.88158150062453
31
0.000000000000000
  0
LINE
  5
F10718
330
F10719
100
AcDbEntity
8
Geo
100
AcDbLine
10
-82.3519721577726
20
-9.88158150062453
30
0.000000000000000
11
-82.2519721577726
21
-9.97801602962835
31
0.000000000000000
  0
LINE
  5
F1071A
330
F1071B
100
AcDbEntity
8
Geo
100
AcDbLine
10
-82.2519721577726
20
-9.97801602962835
30
0.000000000000000
11
-82.1519721577726
21
-10.0600413214107
31
0.000000000000000
  0
LINE
  5
F1071C
330
F1071D
100
AcDbEntity
8
Geo
100
AcDbLine
10
-82.1519721577726
20
-10.0600413214107
30
0.000000000000000
11
-82.0519721577726
21
-10.1275358720223
31
0.000000000000000
  0
LINE
  5
F1071E
330
F1071F
100
AcDbEntity
8
Geo
100
AcDbLine
10
-82.0519721577726
20
-10.1275358720223
30
0.000000000000000
11
-81.9519721577726
21
-10.1803997018806
31
0.000000000000000
  0
LINE
  5
F10720
330
F10721
100
AcDbEntity
8
Geo
100
AcDbLine
10
-81.9519721577726
20
-10.1803997018806
30
0.000000000000000
11
-81.8519721577726
21
-10.2185545038686
31
0.000000000000000
  0
LINE
  5
F10722
330
F10723
100
AcDbEntity
8
Geo
100
AcDbLine
10
-81.8519721577726
20
-10.2185545038686
30
0.000000000000000
11
-81.7519721577726
21
-10.2419437593321
31
0.000000000000000
  0
LINE
  5
F10724
330
F10725
100
AcDbEntity
8
Geo
100
AcDbLine
10
-81.7519721577726
20
-10.2419437593321
30
0.000000000000000
11
-81.6519721577726
21
-10.2505328217998
31
0.000000000000000
  0
LINE
  5
F10726
330
F10727
100
AcDbEntity
8
Geo
100
AcDbLine
10
-93.1519721577725
20
9.74455451809788
30
0.000000000000000
11
-93.0519721577725
21
9.74915391276335
31
0.000000000000000
  0
LINE
  5
F10728
330
F10729
100
AcDbEntity
8
Geo
100
AcDbLine
10
-93.0519721577725
20
9.74915391276335
30
0.000000000000000
11
-92.9519721577725
21
9.73894071559908
31
0.000000000000000
  0
LINE
  5
F1072A
330
F1072B
100
AcDbEntity
8
Geo
100
AcDbLine
10
-92.9519721577725
20
9.73894071559908
30
0.000000000000000
11
-92.8519721577725
21
9.71393005539965
31
0.000000000000000
  0
LINE
  5
F1072C
330
F1072D
100
AcDbEntity
8
Geo
100
AcDbLine
10
-92.8519721577725
20
9.71393005539965
30
0.000000000000000
11
-92.7519721577725
21
9.67415898042078
31
0.000000000000000
  0
LINE
  5
F1072E
330
F1072F
100
AcDbEntity
8
Geo
100
AcDbLine
10
-92.7519721577725
20
9.67415898042078
30
0.000000000000000
11
-92.6519721577725
21
9.61968640349982
31
0.000000000000000
  0
LINE
  5
F10730
330
F10731
100
AcDbEntity
8
Geo
100
AcDbLine
10
-92.6519721577725
20
9.61968640349982
30
0.000000000000000
11
-92.5519721577725
21
9.55059301478826
31
0.000000000000000
  0
LINE
  5
F10732
330
F10733
100
AcDbEntity
8
Geo
100
AcDbLine
10
-92.5519721577725
20
9.55059301478826
30
0.000000000000000
11
-92.4519721577725
21
9.46698116222546
31
0.000000000000000
  0
LINE
  5
F10734
330
F10735
100
AcDbEntity
8
Geo
100
AcDbLine
10
-92.4519721577725
20
9.46698116222546
30
0.000000000000000
11
-92.3519721577725
21
9.36897469993088
31
0.000000000000000
  0
LINE
  5
F10736
330
F10737
100
AcDbEntity
8
Geo
100
AcDbLine
10
-92.3519721577725
20
9.36897469993088
30
0.000000000000000
11
-92.2519721577725
21
9.25671880473907
31
0.000000000000000
  0
LINE
  5
F10738
330
F10739
100
AcDbEntity
8
Geo
100
AcDbLine
10
-92.2519721577725
20
9.25671880473907
30
0.000000000000000
11
-92.1519721577725
21
9.13037976114947
31
0.000000000000000
  0
LINE
  5
F1073A
330
F1073B
100
AcDbEntity
8
Geo
100
AcDbLine
10
-92.1519721577725
20
9.13037976114947
30
0.000000000000000
11
-92.0519721577725
21
8.99014471500942
31
0.000000000000000
  0
LINE
  5
F1073C
330
F1073D
100
AcDbEntity
8
Geo
100
AcDbLine
10
-92.0519721577725
20
8.99014471500942
30
0.000000000000000
11
-91.9519721577725
21
8.83622139629525
31
0.000000000000000
  0
LINE
  5
F1073E
330
F1073F
100
AcDbEntity
8
Geo
100
AcDbLine
10
-91.9519721577725
20
8.83622139629525
30
0.000000000000000
11
-91.8519721577725
21
8.66883781140217
31
0.000000000000000
  0
LINE
  5
F10740
330
F10741
100
AcDbEntity
8
Geo
100
AcDbLine
10
-91.8519721577725
20
8.66883781140217
30
0.000000000000000
11
-91.7519721577725
21
8.48824190539876
31
0.000000000000000
  0
LINE
  5
F10742
330
F10743
100
AcDbEntity
8
Geo
100
AcDbLine
10
-91.7519721577725
20
8.48824190539876
30
0.000000000000000
11
-91.6519721577725
21
8.29470119474619
31
0.000000000000000
  0
LINE
  5
F10744
330
F10745
100
AcDbEntity
8
Geo
100
AcDbLine
10
-91.6519721577725
20
8.29470119474619
30
0.000000000000000
11
-91.5519721577725
21
8.08850237102659
31
0.000000000000000
  0
LINE
  5
F10746
330
F10747
100
AcDbEntity
8
Geo
100
AcDbLine
10
-91.5519721577725
20
8.08850237102659
30
0.000000000000000
11
-91.4519721577725
21
7.86995087626710
31
0.000000000000000
  0
LINE
  5
F10748
330
F10749
100
AcDbEntity
8
Geo
100
AcDbLine
10
-91.4519721577725
20
7.86995087626710
30
0.000000000000000
11
-91.3519721577725
21
7.63937045048910
31
0.000000000000000
  0
LINE
  5
F1074A
330
F1074B
100
AcDbEntity
8
Geo
100
AcDbLine
10
-91.3519721577725
20
7.63937045048910
30
0.000000000000000
11
-91.2519721577725
21
7.39710265215254
31
0.000000000000000
  0
LINE
  5
F1074C
330
F1074D
100
AcDbEntity
8
Geo
100
AcDbLine
10
-91.2519721577725
20
7.39710265215254
30
0.000000000000000
11
-91.1519721577725
21
7.14350635220587
31
0.000000000000000
  0
LINE
  5
F1074E
330
F1074F
100
AcDbEntity
8
Geo
100
AcDbLine
10
-91.1519721577725
20
7.14350635220587
30
0.000000000000000
11
-91.0519721577725
21
6.87895720249103
31
0.000000000000000
  0
LINE
  5
F10750
330
F10751
100
AcDbEntity
8
Geo
100
AcDbLine
10
-91.0519721577725
20
6.87895720249103
30
0.000000000000000
11
-90.9519721577725
21
6.60384707929089
31
0.000000000000000
  0
LINE
  5
F10752
330
F10753
100
AcDbEntity
8
Geo
100
AcDbLine
10
-90.9519721577725
20
6.60384707929089
30
0.000000000000000
11
-90.8519721577725
21
6.31858350284347
31
0.000000000000000
  0
LINE
  5
F10754
330
F10755
100
AcDbEntity
8
Geo
100
AcDbLine
10
-90.8519721577725
20
6.31858350284347
30
0.000000000000000
11
-90.7519721577725
21
6.02358903368280
31
0.000000000000000
  0
LINE
  5
F10756
330
F10757
100
AcDbEntity
8
Geo
100
AcDbLine
10
-90.7519721577725
20
6.02358903368280
30
0.000000000000000
11
-90.6519721577725
21
5.71930064670055
31
0.000000000000000
  0
LINE
  5
F10758
330
F10759
100
AcDbEntity
8
Geo
100
AcDbLine
10
-90.6519721577725
20
5.71930064670055
30
0.000000000000000
11
-90.5519721577725
21
5.40616908385580
31
0.000000000000000
  0
LINE
  5
F1075A
330
F1075B
100
AcDbEntity
8
Geo
100
AcDbLine
10
-90.5519721577725
20
5.40616908385580
30
0.000000000000000
11
-90.4519721577725
21
5.08465818649156
31
0.000000000000000
  0
LINE
  5
F1075C
330
F1075D
100
AcDbEntity
8
Geo
100
AcDbLine
10
-90.4519721577725
20
5.08465818649156
30
0.000000000000000
11
-90.3519721577725
21
4.75524420824727
31
0.000000000000000
  0
LINE
  5
F1075E
330
F1075F
100
AcDbEntity
8
Geo
100
AcDbLine
10
-90.3519721577725
20
4.75524420824727
30
0.000000000000000
11
-90.2519721577725
21
4.41841510958494
31
0.000000000000000
  0
LINE
  5
F10760
330
F10761
100
AcDbEntity
8
Geo
100
AcDbLine
10
-90.2519721577725
20
4.41841510958494
30
0.000000000000000
11
-90.1519721577725
21
4.07466983497402
31
0.000000000000000
  0
LINE
  5
F10762
330
F10763
100
AcDbEntity
8
Geo
100
AcDbLine
10
-90.1519721577725
20
4.07466983497402
30
0.000000000000000
11
-90.0519721577725
21
3.72451757380565
31
0.000000000000000
  0
LINE
  5
F10764
330
F10765
100
AcDbEntity
8
Geo
100
AcDbLine
10
-90.0519721577725
20
3.72451757380565
30
0.000000000000000
11
-89.9519721577725
21
3.36847700613113
31
0.000000000000000
  0
LINE
  5
F10766
330
F10767
100
AcDbEntity
8
Geo
100
AcDbLine
10
-89.9519721577725
20
3.36847700613113
30
0.000000000000000
11
-89.8519721577725
21
3.00707553434190
31
0.000000000000000
  0
LINE
  5
F10768
330
F10769
100
AcDbEntity
8
Geo
100
AcDbLine
10
-89.8519721577725
20
3.00707553434190
30
0.000000000000000
11
-89.7519721577725
21
2.64084850192911
31
0.000000000000000
  0
LINE
  5
F1076A
330
F1076B
100
AcDbEntity
8
Geo
100
AcDbLine
10
-89.7519721577725
20
2.64084850192911
30
0.000000000000000
11
-89.6519721577725
21
2.27033840048006
31
0.000000000000000
  0
LINE
  5
F1076C
330
F1076D
100
AcDbEntity
8
Geo
100
AcDbLine
10
-89.6519721577725
20
2.27033840048006
30
0.000000000000000
11
-89.5519721577725
21
1.89609406608619
31
0.000000000000000
  0
LINE
  5
F1076E
330
F1076F
100
AcDbEntity
8
Geo
100
AcDbLine
10
-89.5519721577725
20
1.89609406608619
30
0.000000000000000
11
-89.4519721577725
21
1.51866986635293
31
0.000000000000000
  0
LINE
  5
F10770
330
F10771
100
AcDbEntity
8
Geo
100
AcDbLine
10
-89.4519721577725
20
1.51866986635293
30
0.000000000000000
11
-89.3519721577725
21
1.13862487921579
31
0.000000000000000
  0
LINE
  5
F10772
330
F10773
100
AcDbEntity
8
Geo
100
AcDbLine
10
-89.3519721577725
20
1.13862487921579
30
0.000000000000000
11
-89.2519721577725
21
0.756522064778930
31
0.000000000000000
  0
LINE
  5
F10774
330
F10775
100
AcDbEntity
8
Geo
100
AcDbLine
10
-89.2519721577725
20
0.756522064778930
30
0.000000000000000
11
-89.1519721577725
21
0.372927431403216
31
0.000000000000000
  0
LINE
  5
F10776
330
F10777
100
AcDbEntity
8
Geo
100
AcDbLine
10
-89.1519721577725
20
0.372927431403216
30
0.000000000000000
11
-89.0519721577725
21
-0.0115908027212036
31
0.000000000000000
  0
LINE
  5
F10778
330
F10779
100
AcDbEntity
8
Geo
100
AcDbLine
10
-89.0519721577725
20
-0.0115908027212036
30
0.000000000000000
11
-88.9519721577725
21
-0.396463051275698
31
0.000000000000000
  0
LINE
  5
F1077A
330
F1077B
100
AcDbEntity
8
Geo
100
AcDbLine
10
-88.9519721577725
20
-0.396463051275698
30
0.000000000000000
11
-88.8519721577725
21
-0.781119203540534
31
0.000000000000000
  0
LINE
  5
F1077C
330
F1077D
100
AcDbEntity
8
Geo
100
AcDbLine
10
-88.8519721577725
20
-0.781119203540534
30
0.000000000000000
11
-88.7519721577725
21
-1.16498946889913
31
0.000000000000000
  0
LINE
  5
F1077E
330
F1077F
100
AcDbEntity
8
Geo
100
AcDbLine
10
-88.7519721577725
20
-1.16498946889913
30
0.000000000000000
11
-88.6519721577725
21
-1.54750522086808
31
0.000000000000000
  0
LINE
  5
F10780
330
F10781
100
AcDbEntity
8
Geo
100
AcDbLine
10
-88.6519721577725
20
-1.54750522086808
30
0.000000000000000
11
-88.5519721577725
21
-1.92809983940272
31
0.000000000000000
  0
LINE
  5
F10782
330
F10783
100
AcDbEntity
8
Geo
100
AcDbLine
10
-88.5519721577725
20
-1.92809983940272
30
0.000000000000000
11
-88.4519721577725
21
-2.30620955023067
31
0.000000000000000
  0
LINE
  5
F10784
330
F10785
100
AcDbEntity
8
Geo
100
AcDbLine
10
-88.4519721577725
20
-2.30620955023067
30
0.000000000000000
11
-88.3519721577725
21
-2.68127425996982
31
0.000000000000000
  0
LINE
  5
F10786
330
F10787
100
AcDbEntity
8
Geo
100
AcDbLine
10
-88.3519721577725
20
-2.68127425996982
30
0.000000000000000
11
-88.2519721577725
21
-3.05273838579390
31
0.000000000000000
  0
LINE
  5
F10788
330
F10789
100
AcDbEntity
8
Geo
100
AcDbLine
10
-88.2519721577725
20
-3.05273838579390
30
0.000000000000000
11
-88.1519721577725
21
-3.42005167841649
31
0.000000000000000
  0
LINE
  5
F1078A
330
F1078B
100
AcDbEntity
8
Geo
100
AcDbLine
10
-88.1519721577725
20
-3.42005167841649
30
0.000000000000000
11
-88.0519721577725
21
-3.78267003717458
31
0.000000000000000
  0
LINE
  5
F1078C
330
F1078D
100
AcDbEntity
8
Geo
100
AcDbLine
10
-88.0519721577725
20
-3.78267003717458
30
0.000000000000000
11
-87.9519721577725
21
-4.14005631600405
31
0.000000000000000
  0
LINE
  5
F1078E
330
F1078F
100
AcDbEntity
8
Geo
100
AcDbLine
10
-87.9519721577725
20
-4.14005631600405
30
0.000000000000000
11
-87.8519721577725
21
-4.49168111911345
31
0.000000000000000
  0
LINE
  5
F10790
330
F10791
100
AcDbEntity
8
Geo
100
AcDbLine
10
-87.8519721577725
20
-4.49168111911345
30
0.000000000000000
11
-87.7519721577725
21
-4.83702358517715
31
0.000000000000000
  0
LINE
  5
F10792
330
F10793
100
AcDbEntity
8
Geo
100
AcDbLine
10
-87.7519721577725
20
-4.83702358517715
30
0.000000000000000
11
-87.6519721577725
21
-5.17557215888658
31
0.000000000000000
  0
LINE
  5
F10794
330
F10795
100
AcDbEntity
8
Geo
100
AcDbLine
10
-87.6519721577725
20
-5.17557215888658
30
0.000000000000000
11
-87.5519721577725
21
-5.50682534871632
31
0.000000000000000
  0
LINE
  5
F10796
330
F10797
100
AcDbEntity
8
Geo
100
AcDbLine
10
-87.5519721577725
20
-5.50682534871632
30
0.000000000000000
11
-87.4519721577725
21
-5.83029246978283
31
0.000000000000000
  0
LINE
  5
F10798
330
F10799
100
AcDbEntity
8
Geo
100
AcDbLine
10
-87.4519721577725
20
-5.83029246978283
30
0.000000000000000
11
-87.3519721577725
21
-6.14549437069524
31
0.000000000000000
  0
LINE
  5
F1079A
330
F1079B
100
AcDbEntity
8
Geo
100
AcDbLine
10
-87.3519721577725
20
-6.14549437069524
30
0.000000000000000
11
-87.2519721577725
21
-6.45196414332169
31
0.000000000000000
  0
LINE
  5
F1079C
330
F1079D
100
AcDbEntity
8
Geo
100
AcDbLine
10
-87.2519721577725
20
-6.45196414332169
30
0.000000000000000
11
-87.1519721577725
21
-6.74924781441961
31
0.000000000000000
  0
LINE
  5
F1079E
330
F1079F
100
AcDbEntity
8
Geo
100
AcDbLine
10
-87.1519721577725
20
-6.74924781441961
30
0.000000000000000
11
-87.0519721577725
21
-7.03690501810573
31
0.000000000000000
  0
LINE
  5
F107A0
330
F107A1
100
AcDbEntity
8
Geo
100
AcDbLine
10
-87.0519721577725
20
-7.03690501810573
30
0.000000000000000
11
-86.9519721577725
21
-7.31450964816936
31
0.000000000000000
  0
LINE
  5
F107A2
330
F107A3
100
AcDbEntity
8
Geo
100
AcDbLine
10
-86.9519721577725
20
-7.31450964816936
30
0.000000000000000
11
-86.8519721577725
21
-7.58165048926298
31
0.000000000000000
  0
LINE
  5
F107A4
330
F107A5
100
AcDbEntity
8
Geo
100
AcDbLine
10
-86.8519721577725
20
-7.58165048926298
30
0.000000000000000
11
-86.7519721577725
21
-7.83793182603493
31
0.000000000000000
  0
LINE
  5
F107A6
330
F107A7
100
AcDbEntity
8
Geo
100
AcDbLine
10
-86.7519721577725
20
-7.83793182603493
30
0.000000000000000
11
-86.6519721577725
21
-8.08297402930201
31
0.000000000000000
  0
LINE
  5
F107A8
330
F107A9
100
AcDbEntity
8
Geo
100
AcDbLine
10
-86.6519721577725
20
-8.08297402930201
30
0.000000000000000
11
-86.5519721577725
21
-8.31641411839363
31
0.000000000000000
  0
LINE
  5
F107AA
330
F107AB
100
AcDbEntity
8
Geo
100
AcDbLine
10
-86.5519721577725
20
-8.31641411839363
30
0.000000000000000
11
-86.4519721577725
21
-8.53790629883462
31
0.000000000000000
  0
LINE
  5
F107AC
330
F107AD
100
AcDbEntity
8
Geo
100
AcDbLine
10
-86.4519721577725
20
-8.53790629883462
30
0.000000000000000
11
-86.3519721577725
21
-8.74712247457005
31
0.000000000000000
  0
LINE
  5
F107AE
330
F107AF
100
AcDbEntity
8
Geo
100
AcDbLine
10
-86.3519721577725
20
-8.74712247457005
30
0.000000000000000
11
-86.2519721577725
21
-8.94375273397346
31
0.000000000000000
  0
LINE
  5
F107B0
330
F107B1
100
AcDbEntity
8
Geo
100
AcDbLine
10
-86.2519721577725
20
-8.94375273397346
30
0.000000000000000
11
-86.1519721577725
21
-9.12750580891854
31
0.000000000000000
  0
LINE
  5
F107B2
330
F107B3
100
AcDbEntity
8
Geo
100
AcDbLine
10
-86.1519721577725
20
-9.12750580891854
30
0.000000000000000
11
-86.0519721577725
21
-9.29810950623419
31
0.000000000000000
  0
LINE
  5
F107B4
330
F107B5
100
AcDbEntity
8
Geo
100
AcDbLine
10
-86.0519721577725
20
-9.29810950623419
30
0.000000000000000
11
-85.9519721577725
21
-9.45531111090384
31
0.000000000000000
  0
LINE
  5
F107B6
330
F107B7
100
AcDbEntity
8
Geo
100
AcDbLine
10
-85.9519721577725
20
-9.45531111090384
30
0.000000000000000
11
-85.8519721577725
21
-9.59887776041192
31
0.000000000000000
  0
LINE
  5
F107B8
330
F107B9
100
AcDbEntity
8
Geo
100
AcDbLine
10
-85.8519721577725
20
-9.59887776041192
30
0.000000000000000
11
-85.7519721577725
21
-9.72859678968270
31
0.000000000000000
  0
LINE
  5
F107BA
330
F107BB
100
AcDbEntity
8
Geo
100
AcDbLine
10
-85.7519721577725
20
-9.72859678968270
30
0.000000000000000
11
-85.6519721577725
21
-9.84427604610084
31
0.000000000000000
  0
LINE
  5
F107BC
330
F107BD
100
AcDbEntity
8
Geo
100
AcDbLine
10
-85.6519721577725
20
-9.84427604610084
30
0.000000000000000
11
-85.5519721577725
21
-9.94574417414673
31
0.000000000000000
  0
LINE
  5
F107BE
330
F107BF
100
AcDbEntity
8
Geo
100
AcDbLine
10
-85.5519721577725
20
-9.94574417414673
30
0.000000000000000
11
-85.4519721577725
21
-10.0328508692252
31
0.000000000000000
  0
LINE
  5
F107C0
330
F107C1
100
AcDbEntity
8
Geo
100
AcDbLine
10
-85.4519721577725
20
-10.0328508692252
30
0.000000000000000
11
-85.3519721577726
21
-10.1054671003115
31
0.000000000000000
  0
LINE
  5
F107C2
330
F107C3
100
AcDbEntity
8
Geo
100
AcDbLine
10
-85.3519721577726
20
-10.1054671003115
30
0.000000000000000
11
-85.2519721577725
21
-10.1634853010848
31
0.000000000000000
  0
LINE
  5
F107C4
330
F107C5
100
AcDbEntity
8
Geo
100
AcDbLine
10
-85.2519721577725
20
-10.1634853010848
30
0.000000000000000
11
-85.1519721577725
21
-10.2068195292661
31
0.000000000000000
  0
LINE
  5
F107C6
330
F107C7
100
AcDbEntity
8
Geo
100
AcDbLine
10
-85.1519721577725
20
-10.2068195292661
30
0.000000000000000
11
-85.0519721577726
21
-10.2354055939241
31
0.000000000000000
  0
LINE
  5
F107C8
330
F107C9
100
AcDbEntity
8
Geo
100
AcDbLine
10
-85.0519721577726
20
-10.2354055939241
30
0.000000000000000
11
-84.9519721577725
21
-10.2492011505615
31
0.000000000000000
  0
LINE
  5
F107CA
330
F107CB
100
AcDbEntity
8
Geo
100
AcDbLine
10
-97.1519721577725
20
9.23205513582960
30
0.000000000000000
11
-97.0519721577725
21
9.52102004302553
31
0.000000000000000
  0
LINE
  5
F107CC
330
F107CD
100
AcDbEntity
8
Geo
100
AcDbLine
10
-97.1519721577725
20
-0.349060821704932
30
0.000000000000000
11
-97.0519721577725
21
-0.725428721288139
31
0.000000000000000
  0
LINE
  5
F107CE
330
F107CF
100
AcDbEntity
8
Geo
100
AcDbLine
10
-97.0519721577725
20
9.52102004302553
30
0.000000000000000
11
-96.9519721577725
21
9.59521414276559
31
0.000000000000000
  0
LINE
  5
F107D0
330
F107D1
100
AcDbEntity
8
Geo
100
AcDbLine
10
-97.0519721577725
20
-0.725428721288139
30
0.000000000000000
11
-96.9519721577725
21
-1.10878363107310
31
0.000000000000000
  0
LINE
  5
F107D2
330
F107D3
100
AcDbEntity
8
Geo
100
AcDbLine
10
-96.9519721577725
20
9.59521414276559
30
0.000000000000000
11
-96.8519721577725
21
9.61276736341474
31
0.000000000000000
  0
LINE
  5
F107D4
330
F107D5
100
AcDbEntity
8
Geo
100
AcDbLine
10
-96.9519721577725
20
-1.10878363107310
30
0.000000000000000
11
-96.8519721577725
21
-1.49373129935222
31
0.000000000000000
  0
LINE
  5
F107D6
330
F107D7
100
AcDbEntity
8
Geo
100
AcDbLine
10
-96.8519721577725
20
9.61276736341474
30
0.000000000000000
11
-96.7519721577725
21
9.58889110386345
31
0.000000000000000
  0
LINE
  5
F107D8
330
F107D9
100
AcDbEntity
8
Geo
100
AcDbLine
10
-96.8519721577725
20
-1.49373129935222
30
0.000000000000000
11
-96.7519721577725
21
-1.87720938059977
31
0.000000000000000
  0
LINE
  5
F107DA
330
F107DB
100
AcDbEntity
8
Geo
100
AcDbLine
10
-96.7519721577725
20
9.58889110386345
30
0.000000000000000
11
-96.6519721577725
21
9.52892552518219
31
0.000000000000000
  0
LINE
  5
F107DC
330
F107DD
100
AcDbEntity
8
Geo
100
AcDbLine
10
-96.7519721577725
20
-1.87720938059977
30
0.000000000000000
11
-96.6519721577725
21
-2.25656469738852
31
0.000000000000000
  0
LINE
  5
F107DE
330
F107DF
100
AcDbEntity
8
Geo
100
AcDbLine
10
-96.6519721577725
20
9.52892552518219
30
0.000000000000000
11
-96.5519721577725
21
9.44449101893226
31
0.000000000000000
  0
LINE
  5
F107E0
330
F107E1
100
AcDbEntity
8
Geo
100
AcDbLine
10
-96.6519721577725
20
-2.25656469738852
30
0.000000000000000
11
-96.5519721577725
21
-2.63139937654019
31
0.000000000000000
  0
LINE
  5
F107E2
330
F107E3
100
AcDbEntity
8
Geo
100
AcDbLine
10
-96.5519721577725
20
9.44449101893226
30
0.000000000000000
11
-96.4519721577725
21
9.34569521756813
31
0.000000000000000
  0
LINE
  5
F107E4
330
F107E5
100
AcDbEntity
8
Geo
100
AcDbLine
10
-96.5519721577725
20
-2.63139937654019
30
0.000000000000000
11
-96.4519721577725
21
-3.00270735137135
31
0.000000000000000
  0
LINE
  5
F107E6
330
F107E7
100
AcDbEntity
8
Geo
100
AcDbLine
10
-96.4519721577725
20
9.34569521756813
30
0.000000000000000
11
-96.3519721577725
21
9.23268446717121
31
0.000000000000000
  0
LINE
  5
F107E8
330
F107E9
100
AcDbEntity
8
Geo
100
AcDbLine
10
-96.4519721577725
20
-3.00270735137135
30
0.000000000000000
11
-96.3519721577725
21
-3.36993860390186
31
0.000000000000000
  0
LINE
  5
F107EA
330
F107EB
100
AcDbEntity
8
Geo
100
AcDbLine
10
-96.3519721577725
20
9.23268446717121
30
0.000000000000000
11
-96.2519721577725
21
9.10562617040690
31
0.000000000000000
  0
LINE
  5
F107EC
330
F107ED
100
AcDbEntity
8
Geo
100
AcDbLine
10
-96.3519721577725
20
-3.36993860390186
30
0.000000000000000
11
-96.2519721577725
21
-3.73254915499455
31
0.000000000000000
  0
LINE
  5
F107EE
330
F107EF
100
AcDbEntity
8
Geo
100
AcDbLine
10
-96.2519721577725
20
9.10562617040690
30
0.000000000000000
11
-96.1519721577725
21
8.96470853855123
31
0.000000000000000
  0
LINE
  5
F107F0
330
F107F1
100
AcDbEntity
8
Geo
100
AcDbLine
10
-96.2519721577725
20
-3.73254915499455
30
0.000000000000000
11
-96.1519721577725
21
-4.09000187015082
31
0.000000000000000
  0
LINE
  5
F107F2
330
F107F3
100
AcDbEntity
8
Geo
100
AcDbLine
10
-96.1519721577725
20
8.96470853855123
30
0.000000000000000
11
-96.0519721577725
21
8.81014031269380
31
0.000000000000000
  0
LINE
  5
F107F4
330
F107F5
100
AcDbEntity
8
Geo
100
AcDbLine
10
-96.1519721577725
20
-4.09000187015082
30
0.000000000000000
11
-96.0519721577725
21
-4.44176725516716
31
0.000000000000000
  0
LINE
  5
F107F6
330
F107F7
100
AcDbEntity
8
Geo
100
AcDbLine
10
-96.0519721577725
20
8.81014031269380
30
0.000000000000000
11
-95.9519721577725
21
8.64215045452988
31
0.000000000000000
  0
LINE
  5
F107F8
330
F107F9
100
AcDbEntity
8
Geo
100
AcDbLine
10
-96.0519721577725
20
-4.44176725516716
30
0.000000000000000
11
-95.9519721577725
21
-4.78732424047416
31
0.000000000000000
  0
LINE
  5
F107FA
330
F107FB
100
AcDbEntity
8
Geo
100
AcDbLine
10
-95.9519721577725
20
8.64215045452988
30
0.000000000000000
11
-95.8519721577725
21
8.46098780719975
31
0.000000000000000
  0
LINE
  5
F107FC
330
F107FD
100
AcDbEntity
8
Geo
100
AcDbLine
10
-95.9519721577725
20
-4.78732424047416
30
0.000000000000000
11
-95.8519721577725
21
-5.12616095299619
31
0.000000000000000
  0
LINE
  5
F107FE
330
F107FF
100
AcDbEntity
8
Geo
100
AcDbLine
10
-95.8519721577725
20
8.46098780719975
30
0.000000000000000
11
-95.7519721577725
21
8.26692072667776
31
0.000000000000000
  0
LINE
  5
F10800
330
F10801
100
AcDbEntity
8
Geo
100
AcDbLine
10
-95.8519721577725
20
-5.12616095299619
30
0.000000000000000
11
-95.7519721577725
21
-5.45777547438823
31
0.000000000000000
  0
LINE
  5
F10802
330
F10803
100
AcDbEntity
8
Geo
100
AcDbLine
10
-95.7519721577725
20
8.26692072667776
30
0.000000000000000
11
-95.6519721577725
21
8.06023668425696
31
0.000000000000000
  0
LINE
  5
F10804
330
F10805
100
AcDbEntity
8
Geo
100
AcDbLine
10
-95.7519721577725
20
-5.45777547438823
30
0.000000000000000
11
-95.6519721577725
21
-5.78167658452680
31
0.000000000000000
  0
LINE
  5
F10806
330
F10807
100
AcDbEntity
8
Geo
100
AcDbLine
10
-95.6519721577725
20
8.06023668425696
30
0.000000000000000
11
-95.5519721577725
21
7.84124184071827
31
0.000000000000000
  0
LINE
  5
F10808
330
F10809
100
AcDbEntity
8
Geo
100
AcDbLine
10
-95.6519721577725
20
-5.78167658452680
30
0.000000000000000
11
-95.5519721577725
21
-6.09738448915363
31
0.000000000000000
  0
LINE
  5
F1080A
330
F1080B
100
AcDbEntity
8
Geo
100
AcDbLine
10
-95.5519721577725
20
7.84124184071827
30
0.000000000000000
11
-95.4519721577725
21
7.61026059281499
31
0.000000000000000
  0
LINE
  5
F1080C
330
F1080D
100
AcDbEntity
8
Geo
100
AcDbLine
10
-95.5519721577725
20
-6.09738448915363
30
0.000000000000000
11
-95.4519721577725
21
-6.40443153059426
31
0.000000000000000
  0
LINE
  5
F1080E
330
F1080F
100
AcDbEntity
8
Geo
100
AcDbLine
10
-95.4519721577725
20
7.61026059281499
30
0.000000000000000
11
-95.3519721577725
21
7.36763509274432
31
0.000000000000000
  0
LINE
  5
F10810
330
F10811
100
AcDbEntity
8
Geo
100
AcDbLine
10
-95.4519721577725
20
-6.40443153059426
30
0.000000000000000
11
-95.3519721577725
21
-6.70236288049866
31
0.000000000000000
  0
LINE
  5
F10812
330
F10813
100
AcDbEntity
8
Geo
100
AcDbLine
10
-95.3519721577725
20
7.36763509274432
30
0.000000000000000
11
-95.2519721577725
21
7.11372474131779
31
0.000000000000000
  0
LINE
  5
F10814
330
F10815
100
AcDbEntity
8
Geo
100
AcDbLine
10
-95.3519721577725
20
-6.70236288049866
30
0.000000000000000
11
-95.2519721577725
21
-6.99073721357783
31
0.000000000000000
  0
LINE
  5
F10816
330
F10817
100
AcDbEntity
8
Geo
100
AcDbLine
10
-95.2519721577725
20
7.11372474131779
30
0.000000000000000
11
-95.1519721577725
21
6.84890565558136
31
0.000000000000000
  0
LINE
  5
F10818
330
F10819
100
AcDbEntity
8
Geo
100
AcDbLine
10
-95.2519721577725
20
-6.99073721357783
30
0.000000000000000
11
-95.1519721577725
21
-7.26912736133834
31
0.000000000000000
  0
LINE
  5
F1081A
330
F1081B
100
AcDbEntity
8
Geo
100
AcDbLine
10
-95.1519721577725
20
6.84890565558136
30
0.000000000000000
11
-95.0519721577725
21
6.57357011167374
31
0.000000000000000
  0
LINE
  5
F1081C
330
F1081D
100
AcDbEntity
8
Geo
100
AcDbLine
10
-95.1519721577725
20
-7.26912736133834
30
0.000000000000000
11
-95.0519721577725
21
-7.53712094484640
31
0.000000000000000
  0
LINE
  5
F1081E
330
F1081F
100
AcDbEntity
8
Geo
100
AcDbLine
10
-95.0519721577725
20
6.57357011167374
30
0.000000000000000
11
-94.9519721577725
21
6.28812596374833
31
0.000000000000000
  0
LINE
  5
F10820
330
F10821
100
AcDbEntity
8
Geo
100
AcDbLine
10
-95.0519721577725
20
-7.53712094484640
30
0.000000000000000
11
-94.9519721577725
21
-7.79432098558423
31
0.000000000000000
  0
LINE
  5
F10822
330
F10823
100
AcDbEntity
8
Geo
100
AcDbLine
10
-94.9519721577725
20
6.28812596374833
30
0.000000000000000
11
-94.8519721577725
21
5.99299603981942
31
0.000000000000000
  0
LINE
  5
F10824
330
F10825
100
AcDbEntity
8
Geo
100
AcDbLine
10
-94.9519721577725
20
-7.79432098558423
30
0.000000000000000
11
-94.8519721577725
21
-8.04034649349371
31
0.000000000000000
  0
LINE
  5
F10826
330
F10827
100
AcDbEntity
8
Geo
100
AcDbLine
10
-94.8519721577725
20
5.99299603981942
30
0.000000000000000
11
-94.7519721577725
21
5.68861751542767
31
0.000000000000000
  0
LINE
  5
F10828
330
F10829
100
AcDbEntity
8
Geo
100
AcDbLine
10
-94.8519721577725
20
-8.04034649349371
30
0.000000000000000
11
-94.7519721577725
21
-8.27483303133650
31
0.000000000000000
  0
LINE
  5
F1082A
330
F1082B
100
AcDbEntity
8
Geo
100
AcDbLine
10
-94.7519721577725
20
5.68861751542767
30
0.000000000000000
11
-94.6519721577725
21
5.37544126605255
31
0.000000000000000
  0
LINE
  5
F1082C
330
F1082D
100
AcDbEntity
8
Geo
100
AcDbLine
10
-94.7519721577725
20
-8.27483303133650
30
0.000000000000000
11
-94.6519721577725
21
-8.49743325453434
31
0.000000000000000
  0
LINE
  5
F1082E
330
F1082F
100
AcDbEntity
8
Geo
100
AcDbLine
10
-94.6519721577725
20
5.37544126605255
30
0.000000000000000
11
-94.5519721577725
21
5.05393119923117
31
0.000000000000000
  0
LINE
  5
F10830
330
F10831
100
AcDbEntity
8
Geo
100
AcDbLine
10
-94.6519721577725
20
-8.49743325453434
30
0.000000000000000
11
-94.5519721577725
21
-8.70781742569014
31
0.000000000000000
  0
LINE
  5
F10832
330
F10833
100
AcDbEntity
8
Geo
100
AcDbLine
10
-94.5519721577725
20
5.05393119923117
30
0.000000000000000
11
-94.4519721577725
21
4.72456356737269
31
0.000000000000000
  0
LINE
  5
F10834
330
F10835
100
AcDbEntity
8
Geo
100
AcDbLine
10
-94.5519721577725
20
-8.70781742569014
30
0.000000000000000
11
-94.4519721577725
21
-8.90567390302747
31
0.000000000000000
  0
LINE
  5
F10836
330
F10837
100
AcDbEntity
8
Geo
100
AcDbLine
10
-94.4519721577725
20
4.72456356737269
30
0.000000000000000
11
-94.3519721577725
21
4.38782626228629
31
0.000000000000000
  0
LINE
  5
F10838
330
F10839
100
AcDbEntity
8
Geo
100
AcDbLine
10
-94.4519721577725
20
-8.90567390302747
30
0.000000000000000
11
-94.3519721577725
21
-9.09070960202513
31
0.000000000000000
  0
LINE
  5
F1083A
330
F1083B
100
AcDbEntity
8
Geo
100
AcDbLine
10
-94.3519721577725
20
4.38782626228629
30
0.000000000000000
11
-94.2519721577725
21
4.04421809246772
31
0.000000000000000
  0
LINE
  5
F1083C
330
F1083D
100
AcDbEntity
8
Geo
100
AcDbLine
10
-94.3519721577725
20
-9.09070960202513
30
0.000000000000000
11
-94.2519721577725
21
-9.26265042956278
31
0.000000000000000
  0
LINE
  5
F1083E
330
F1083F
100
AcDbEntity
8
Geo
100
AcDbLine
10
-94.2519721577725
20
4.04421809246772
30
0.000000000000000
11
-94.1519721577725
21
3.69424804421499
31
0.000000000000000
  0
LINE
  5
F10840
330
F10841
100
AcDbEntity
8
Geo
100
AcDbLine
10
-94.2519721577725
20
-9.26265042956278
30
0.000000000000000
11
-94.1519721577725
21
-9.42124168993478
31
0.000000000000000
  0
LINE
  5
F10842
330
F10843
100
AcDbEntity
8
Geo
100
AcDbLine
10
-94.1519721577725
20
3.69424804421499
30
0.000000000000000
11
-94.0519721577725
21
3.33843452766766
31
0.000000000000000
  0
LINE
  5
F10844
330
F10845
100
AcDbEntity
8
Geo
100
AcDbLine
10
-94.1519721577725
20
-9.42124168993478
30
0.000000000000000
11
-94.0519721577725
21
-9.56624846213050
31
0.000000000000000
  0
LINE
  5
F10846
330
F10847
100
AcDbEntity
8
Geo
100
AcDbLine
10
-94.0519721577725
20
3.33843452766766
30
0.000000000000000
11
-93.9519721577725
21
2.97730460888665
31
0.000000000000000
  0
LINE
  5
F10848
330
F10849
100
AcDbEntity
8
Geo
100
AcDbLine
10
-94.0519721577725
20
-9.56624846213050
30
0.000000000000000
11
-93.9519721577725
21
-9.69745594782252
31
0.000000000000000
  0
LINE
  5
F1084A
330
F1084B
100
AcDbEntity
8
Geo
100
AcDbLine
10
-93.9519721577725
20
2.97730460888665
30
0.000000000000000
11
-93.8519721577725
21
2.61139322911202
31
0.000000000000000
  0
LINE
  5
F1084C
330
F1084D
100
AcDbEntity
8
Geo
100
AcDbLine
10
-93.9519721577725
20
-9.69745594782252
30
0.000000000000000
11
-93.8519721577725
21
-9.81466978954707
31
0.000000000000000
  0
LINE
  5
F1084E
330
F1084F
100
AcDbEntity
8
Geo
100
AcDbLine
10
-93.8519721577725
20
2.61139322911202
30
0.000000000000000
11
-93.7519721577725
21
2.24124241235528
31
0.000000000000000
  0
LINE
  5
F10850
330
F10851
100
AcDbEntity
8
Geo
100
AcDbLine
10
-93.8519721577725
20
-9.81466978954707
30
0.000000000000000
11
-93.7519721577725
21
-9.91771635860551
31
0.000000000000000
  0
LINE
  5
F10852
330
F10853
100
AcDbEntity
8
Geo
100
AcDbLine
10
-93.7519721577725
20
2.24124241235528
30
0.000000000000000
11
-93.6519721577725
21
1.86740046249995
31
0.000000000000000
  0
LINE
  5
F10854
330
F10855
100
AcDbEntity
8
Geo
100
AcDbLine
10
-93.7519721577725
20
-9.91771635860551
30
0.000000000000000
11
-93.6519721577725
21
-10.0064430122602
31
0.000000000000000
  0
LINE
  5
F10856
330
F10857
100
AcDbEntity
8
Geo
100
AcDbLine
10
-93.6519721577725
20
1.86740046249995
30
0.000000000000000
11
-93.5519721577725
21
1.49042115109981
31
0.000000000000000
  0
LINE
  5
F10858
330
F10859
100
AcDbEntity
8
Geo
100
AcDbLine
10
-93.6519721577725
20
-10.0064430122602
30
0.000000000000000
11
-93.5519721577725
21
-10.0807183198441
31
0.000000000000000
  0
LINE
  5
F1085A
330
F1085B
100
AcDbEntity
8
Geo
100
AcDbLine
10
-93.5519721577725
20
1.49042115109981
30
0.000000000000000
11
-93.4519721577725
21
1.11086289707790
31
0.000000000000000
  0
LINE
  5
F1085C
330
F1085D
100
AcDbEntity
8
Geo
100
AcDbLine
10
-93.5519721577725
20
-10.0807183198441
30
0.000000000000000
11
-93.4519721577725
21
-10.1404322574486
31
0.000000000000000
  0
LINE
  5
F1085E
330
F1085F
100
AcDbEntity
8
Geo
100
AcDbLine
10
-93.4519721577725
20
1.11086289707790
30
0.000000000000000
11
-93.3519721577725
21
0.729287939541317
31
0.000000000000000
  0
LINE
  5
F10860
330
F10861
100
AcDbEntity
8
Geo
100
AcDbLine
10
-93.4519721577725
20
-10.1404322574486
30
0.000000000000000
11
-93.3519721577725
21
-10.1854963709022
31
0.000000000000000
  0
LINE
  5
F10862
330
F10863
100
AcDbEntity
8
Geo
100
AcDbLine
10
-93.3519721577725
20
0.729287939541317
30
0.000000000000000
11
-93.2519721577725
21
0.346261504937230
31
0.000000000000000
  0
LINE
  5
F10864
330
F10865
100
AcDbEntity
8
Geo
100
AcDbLine
10
-93.3519721577725
20
-10.1854963709022
30
0.000000000000000
11
-93.2519721577725
21
-10.2158439067969
31
0.000000000000000
  0
LINE
  5
F10866
330
F10867
100
AcDbEntity
8
Geo
100
AcDbLine
10
-93.2519721577725
20
0.346261504937230
30
0.000000000000000
11
-93.1519721577725
21
-0.0376490302162406
31
0.000000000000000
  0
LINE
  5
F10868
330
F10869
100
AcDbEntity
8
Geo
100
AcDbLine
10
-93.2519721577725
20
-10.2158439067969
30
0.000000000000000
11
-93.1519721577725
21
-10.2314299113707
31
0.000000000000000
  0
LINE
  5
F1086A
330
F1086B
100
AcDbEntity
8
Geo
100
AcDbLine
10
-93.1519721577725
20
-0.0376490302162406
30
0.000000000000000
11
-93.0519721577725
21
-0.421874979784091
31
0.000000000000000
  0
LINE
  5
F1086C
330
F1086D
100
AcDbEntity
8
Geo
100
AcDbLine
10
-93.0519721577725
20
-0.421874979784091
30
0.000000000000000
11
-92.9519721577725
21
-0.805847190408384
31
0.000000000000000
  0
LINE
  5
F1086E
330
F1086F
100
AcDbEntity
8
Geo
100
AcDbLine
10
-93.0519721577725
20
9.73107120428945
30
0.000000000000000
11
-92.9519721577725
21
9.71708678407648
31
0.000000000000000
  0
LINE
  5
F10870
330
F10871
100
AcDbEntity
8
Geo
100
AcDbLine
10
-92.9519721577725
20
-0.805847190408384
30
0.000000000000000
11
-92.8519721577725
21
-1.18899688459432
31
0.000000000000000
  0
LINE
  5
F10872
330
F10873
100
AcDbEntity
8
Geo
100
AcDbLine
10
-92.9519721577725
20
9.71708678407648
30
0.000000000000000
11
-92.8519721577725
21
9.68833727302633
31
0.000000000000000
  0
LINE
  5
F10874
330
F10875
100
AcDbEntity
8
Geo
100
AcDbLine
10
-92.8519721577725
20
-1.18899688459432
30
0.000000000000000
11
-92.7519721577725
21
-1.57075650323954
31
0.000000000000000
  0
LINE
  5
F10876
330
F10877
100
AcDbEntity
8
Geo
100
AcDbLine
10
-92.8519721577725
20
9.68833727302633
30
0.000000000000000
11
-92.7519721577725
21
9.64486525774923
31
0.000000000000000
  0
LINE
  5
F10878
330
F10879
100
AcDbEntity
8
Geo
100
AcDbLine
10
-92.7519721577725
20
-1.57075650323954
30
0.000000000000000
11
-92.6519721577725
21
-1.95056054635864
31
0.000000000000000
  0
LINE
  5
F1087A
330
F1087B
100
AcDbEntity
8
Geo
100
AcDbLine
10
-92.7519721577725
20
9.64486525774923
30
0.000000000000000
11
-92.6519721577725
21
9.58673513328018
31
0.000000000000000
  0
LINE
  5
F1087C
330
F1087D
100
AcDbEntity
8
Geo
100
AcDbLine
10
-92.6519721577725
20
-1.95056054635864
30
0.000000000000000
11
-92.5519721577725
21
-2.32784641075746
31
0.000000000000000
  0
LINE
  5
F1087E
330
F1087F
100
AcDbEntity
8
Geo
100
AcDbLine
10
-92.6519721577725
20
9.58673513328018
30
0.000000000000000
11
-92.5519721577725
21
9.51403300769068
31
0.000000000000000
  0
LINE
  5
F10880
330
F10881
100
AcDbEntity
8
Geo
100
AcDbLine
10
-92.5519721577725
20
-2.32784641075746
30
0.000000000000000
11
-92.4519721577725
21
-2.70205522341647
31
0.000000000000000
  0
LINE
  5
F10882
330
F10883
100
AcDbEntity
8
Geo
100
AcDbLine
10
-92.5519721577725
20
9.51403300769068
30
0.000000000000000
11
-92.4519721577725
21
9.42686657453698
31
0.000000000000000
  0
LINE
  5
F10884
330
F10885
100
AcDbEntity
8
Geo
100
AcDbLine
10
-92.4519721577725
20
-2.70205522341647
30
0.000000000000000
11
-92.3519721577725
21
-3.07263266934850
31
0.000000000000000
  0
LINE
  5
F10886
330
F10887
100
AcDbEntity
8
Geo
100
AcDbLine
10
-92.4519721577725
20
9.42686657453698
30
0.000000000000000
11
-92.3519721577725
21
9.32536495333373
31
0.000000000000000
  0
LINE
  5
F10888
330
F10889
100
AcDbEntity
8
Geo
100
AcDbLine
10
-92.3519721577725
20
-3.07263266934850
30
0.000000000000000
11
-92.2519721577725
21
-3.43902981270485
31
0.000000000000000
  0
LINE
  5
F1088A
330
F1088B
100
AcDbEntity
8
Geo
100
AcDbLine
10
-92.3519721577725
20
9.32536495333373
30
0.000000000000000
11
-92.2519721577725
21
9.20967849828947
31
0.000000000000000
  0
LINE
  5
F1088C
330
F1088D
100
AcDbEntity
8
Geo
100
AcDbLine
10
-92.2519721577725
20
-3.43902981270485
30
0.000000000000000
11
-92.1519721577725
21
-3.80070390991310
31
0.000000000000000
  0
LINE
  5
F1088E
330
F1088F
100
AcDbEntity
8
Geo
100
AcDbLine
10
-92.2519721577725
20
9.20967849828947
30
0.000000000000000
11
-92.1519721577725
21
9.07997857558711
31
0.000000000000000
  0
LINE
  5
F10890
330
F10891
100
AcDbEntity
8
Geo
100
AcDbLine
10
-92.1519721577725
20
-3.80070390991310
30
0.000000000000000
11
-92.0519721577725
21
-4.15711921364245
31
0.000000000000000
  0
LINE
  5
F10892
330
F10893
100
AcDbEntity
8
Geo
100
AcDbLine
10
-92.1519721577725
20
9.07997857558711
30
0.000000000000000
11
-92.0519721577725
21
8.93645730953949
31
0.000000000000000
  0
LINE
  5
F10894
330
F10895
100
AcDbEntity
8
Geo
100
AcDbLine
10
-92.0519721577725
20
-4.15711921364245
30
0.000000000000000
11
-91.9519721577725
21
-4.50774776640547
31
0.000000000000000
  0
LINE
  5
F10896
330
F10897
100
AcDbEntity
8
Geo
100
AcDbLine
10
-92.0519721577725
20
8.93645730953949
30
0.000000000000000
11
-91.9519721577725
21
8.77932729799585
31
0.000000000000000
  0
LINE
  5
F10898
330
F10899
100
AcDbEntity
8
Geo
100
AcDbLine
10
-91.9519721577725
20
-4.50774776640547
30
0.000000000000000
11
-91.8519721577725
21
-4.85207018262081
31
0.000000000000000
  0
LINE
  5
F1089A
330
F1089B
100
AcDbEntity
8
Geo
100
AcDbLine
10
-91.9519721577725
20
8.77932729799585
30
0.000000000000000
11
-91.8519721577725
21
8.60882129742099
31
0.000000000000000
  0
LINE
  5
F1089C
330
F1089D
100
AcDbEntity
8
Geo
100
AcDbLine
10
-91.8519721577725
20
-4.85207018262081
30
0.000000000000000
11
-91.7519721577725
21
-5.18957641797826
31
0.000000000000000
  0
LINE
  5
F1089E
330
F1089F
100
AcDbEntity
8
Geo
100
AcDbLine
10
-91.8519721577725
20
8.60882129742099
30
0.000000000000000
11
-91.7519721577725
21
8.42519187811342
31
0.000000000000000
  0
LINE
  5
F108A0
330
F108A1
100
AcDbEntity
8
Geo
100
AcDbLine
10
-91.7519721577725
20
-5.18957641797826
30
0.000000000000000
11
-91.6519721577725
21
-5.51976652496676
31
0.000000000000000
  0
LINE
  5
F108A2
330
F108A3
100
AcDbEntity
8
Geo
100
AcDbLine
10
-91.7519721577725
20
8.42519187811342
30
0.000000000000000
11
-91.6519721577725
21
8.22871105007332
31
0.000000000000000
  0
LINE
  5
F108A4
330
F108A5
100
AcDbEntity
8
Geo
100
AcDbLine
10
-91.6519721577725
20
-5.51976652496676
30
0.000000000000000
11
-91.5519721577725
21
-5.84215139344586
31
0.000000000000000
  0
LINE
  5
F108A6
330
F108A7
100
AcDbEntity
8
Geo
100
AcDbLine
10
-91.6519721577725
20
8.22871105007332
30
0.000000000000000
11
-91.5519721577725
21
8.01966986007453
31
0.000000000000000
  0
LINE
  5
F108A8
330
F108A9
100
AcDbEntity
8
Geo
100
AcDbLine
10
-91.5519721577725
20
-5.84215139344586
30
0.000000000000000
11
-91.4519721577725
21
-6.15625347516397
31
0.000000000000000
  0
LINE
  5
F108AA
330
F108AB
100
AcDbEntity
8
Geo
100
AcDbLine
10
-91.5519721577725
20
8.01966986007453
30
0.000000000000000
11
-91.4519721577725
21
7.79837796053739
31
0.000000000000000
  0
LINE
  5
F108AC
330
F108AD
100
AcDbEntity
8
Geo
100
AcDbLine
10
-91.4519721577725
20
-6.15625347516397
30
0.000000000000000
11
-91.3519721577725
21
-6.46160749114980
31
0.000000000000000
  0
LINE
  5
F108AE
330
F108AF
100
AcDbEntity
8
Geo
100
AcDbLine
10
-91.4519721577725
20
7.79837796053739
30
0.000000000000000
11
-91.3519721577725
21
7.56516315084100
31
0.000000000000000
  0
LINE
  5
F108B0
330
F108B1
100
AcDbEntity
8
Geo
100
AcDbLine
10
-91.3519721577725
20
-6.46160749114980
30
0.000000000000000
11
-91.2519721577725
21
-6.75776112092956
31
0.000000000000000
  0
LINE
  5
F108B2
330
F108B3
100
AcDbEntity
8
Geo
100
AcDbLine
10
-91.3519721577725
20
7.56516315084100
30
0.000000000000000
11
-91.2519721577725
21
7.32037089175451
31
0.000000000000000
  0
LINE
  5
F108B4
330
F108B5
100
AcDbEntity
8
Geo
100
AcDbLine
10
-91.2519721577725
20
-6.75776112092956
30
0.000000000000000
11
-91.1519721577725
21
-7.04427567254857
31
0.000000000000000
  0
LINE
  5
F108B6
330
F108B7
100
AcDbEntity
8
Geo
100
AcDbLine
10
-91.2519721577725
20
7.32037089175451
30
0.000000000000000
11
-91.1519721577725
21
7.06436379370651
31
0.000000000000000
  0
LINE
  5
F108B8
330
F108B9
100
AcDbEntity
8
Geo
100
AcDbLine
10
-91.1519721577725
20
-7.04427567254857
30
0.000000000000000
11
-91.0519721577725
21
-7.32072673240504
31
0.000000000000000
  0
LINE
  5
F108BA
330
F108BB
100
AcDbEntity
8
Geo
100
AcDbLine
10
-91.1519721577725
20
7.06436379370651
30
0.000000000000000
11
-91.0519721577725
21
6.79752107965078
31
0.000000000000000
  0
LINE
  5
F108BC
330
F108BD
100
AcDbEntity
8
Geo
100
AcDbLine
10
-91.0519721577725
20
-7.32072673240504
30
0.000000000000000
11
-90.9519721577725
21
-7.58670479393339
31
0.000000000000000
  0
LINE
  5
F108BE
330
F108BF
100
AcDbEntity
8
Geo
100
AcDbLine
10
-91.0519721577725
20
6.79752107965078
30
0.000000000000000
11
-90.9519721577725
21
6.52023802332381
31
0.000000000000000
  0
LINE
  5
F108C0
330
F108C1
100
AcDbEntity
8
Geo
100
AcDbLine
10
-90.9519721577725
20
-7.58670479393339
30
0.000000000000000
11
-90.8519721577725
21
-7.84181586420568
31
0.000000000000000
  0
LINE
  5
F108C2
330
F108C3
100
AcDbEntity
8
Geo
100
AcDbLine
10
-90.9519721577725
20
6.52023802332381
30
0.000000000000000
11
-90.8519721577725
21
6.23292536372642
31
0.000000000000000
  0
LINE
  5
F108C4
330
F108C5
100
AcDbEntity
8
Geo
100
AcDbLine
10
-90.8519721577725
20
-7.84181586420568
30
0.000000000000000
11
-90.7519721577725
21
-8.08568204755282
31
0.000000000000000
  0
LINE
  5
F108C6
330
F108C7
100
AcDbEntity
8
Geo
100
AcDbLine
10
-90.8519721577725
20
6.23292536372642
30
0.000000000000000
11
-90.7519721577725
21
5.93600869669659
31
0.000000000000000
  0
LINE
  5
F108C8
330
F108C9
100
AcDbEntity
8
Geo
100
AcDbLine
10
-90.7519721577725
20
-8.08568204755282
30
0.000000000000000
11
-90.6519721577725
21
-8.31794210534089
31
0.000000000000000
  0
LINE
  5
F108CA
330
F108CB
100
AcDbEntity
8
Geo
100
AcDbLine
10
-90.7519721577725
20
5.93600869669659
30
0.000000000000000
11
-90.6519721577725
21
5.62992784447502
31
0.000000000000000
  0
LINE
  5
F108CC
330
F108CD
100
AcDbEntity
8
Geo
100
AcDbLine
10
-90.6519721577725
20
-8.31794210534089
30
0.000000000000000
11
-90.5519721577725
21
-8.53825199107341
31
0.000000000000000
  0
LINE
  5
F108CE
330
F108CF
100
AcDbEntity
8
Geo
100
AcDbLine
10
-90.6519721577725
20
5.62992784447502
30
0.000000000000000
11
-90.5519721577725
21
5.31513620419701
31
0.000000000000000
  0
LINE
  5
F108D0
330
F108D1
100
AcDbEntity
8
Geo
100
AcDbLine
10
-90.5519721577725
20
-8.53825199107341
30
0.000000000000000
11
-90.4519721577725
21
-8.74628536002694
31
0.000000000000000
  0
LINE
  5
F108D2
330
F108D3
100
AcDbEntity
8
Geo
100
AcDbLine
10
-90.5519721577725
20
5.31513620419701
30
0.000000000000000
11
-90.4519721577725
21
4.99210007627593
31
0.000000000000000
  0
LINE
  5
F108D4
330
F108D5
100
AcDbEntity
8
Geo
100
AcDbLine
10
-90.4519721577725
20
-8.74628536002694
30
0.000000000000000
11
-90.3519721577725
21
-8.94173405266505
31
0.000000000000000
  0
LINE
  5
F108D6
330
F108D7
100
AcDbEntity
8
Geo
100
AcDbLine
10
-90.4519721577725
20
4.99210007627593
30
0.000000000000000
11
-90.3519721577725
21
4.66129797367310
31
0.000000000000000
  0
LINE
  5
F108D8
330
F108D9
100
AcDbEntity
8
Geo
100
AcDbLine
10
-90.3519721577725
20
-8.94173405266505
30
0.000000000000000
11
-90.2519721577725
21
-9.12430855111460
31
0.000000000000000
  0
LINE
  5
F108DA
330
F108DB
100
AcDbEntity
8
Geo
100
AcDbLine
10
-90.3519721577725
20
4.66129797367310
30
0.000000000000000
11
-90.2519721577725
21
4.32321991307720
31
0.000000000000000
  0
LINE
  5
F108DC
330
F108DD
100
AcDbEntity
8
Geo
100
AcDbLine
10
-90.2519721577725
20
-9.12430855111460
30
0.000000000000000
11
-90.1519721577725
21
-9.29373840802820
31
0.000000000000000
  0
LINE
  5
F108DE
330
F108DF
100
AcDbEntity
8
Geo
100
AcDbLine
10
-90.2519721577725
20
4.32321991307720
30
0.000000000000000
11
-90.1519721577725
21
3.97836668904321
31
0.000000000000000
  0
LINE
  5
F108E0
330
F108E1
100
AcDbEntity
8
Geo
100
AcDbLine
10
-90.1519721577725
20
-9.29373840802820
30
0.000000000000000
11
-90.0519721577725
21
-9.44977264719743
31
0.000000000000000
  0
LINE
  5
F108E2
330
F108E3
100
AcDbEntity
8
Geo
100
AcDbLine
10
-90.1519721577725
20
3.97836668904321
30
0.000000000000000
11
-90.0519721577725
21
3.62724913216620
31
0.000000000000000
  0
LINE
  5
F108E4
330
F108E5
100
AcDbEntity
8
Geo
100
AcDbLine
10
-90.0519721577725
20
-9.44977264719743
30
0.000000000000000
11
-89.9519721577725
21
-9.59218013532357
31
0.000000000000000
  0
LINE
  5
F108E6
330
F108E7
100
AcDbEntity
8
Geo
100
AcDbLine
10
-90.0519721577725
20
3.62724913216620
30
0.000000000000000
11
-89.9519721577725
21
3.27038735238865
31
0.000000000000000
  0
LINE
  5
F108E8
330
F108E9
100
AcDbEntity
8
Geo
100
AcDbLine
10
-89.9519721577725
20
-9.59218013532357
30
0.000000000000000
11
-89.8519721577725
21
-9.72074992439503
31
0.000000000000000
  0
LINE
  5
F108EA
330
F108EB
100
AcDbEntity
8
Geo
100
AcDbLine
10
-89.9519721577725
20
3.27038735238865
30
0.000000000000000
11
-89.8519721577725
21
2.90830996856232
31
0.000000000000000
  0
LINE
  5
F108EC
330
F108ED
100
AcDbEntity
8
Geo
100
AcDbLine
10
-89.8519721577725
20
-9.72074992439503
30
0.000000000000000
11
-89.7519721577725
21
-9.83529156416434
31
0.000000000000000
  0
LINE
  5
F108EE
330
F108EF
100
AcDbEntity
8
Geo
100
AcDbLine
10
-89.8519721577725
20
2.90830996856232
30
0.000000000000000
11
-89.7519721577725
21
2.54155332540591
31
0.000000000000000
  0
LINE
  5
F108F0
330
F108F1
100
AcDbEntity
8
Geo
100
AcDbLine
10
-89.7519721577725
20
-9.83529156416434
30
0.000000000000000
11
-89.6519721577725
21
-9.93563538426183
31
0.000000000000000
  0
LINE
  5
F108F2
330
F108F3
100
AcDbEntity
8
Geo
100
AcDbLine
10
-89.7519721577725
20
2.54155332540591
30
0.000000000000000
11
-89.6519721577725
21
2.17066069901838
31
0.000000000000000
  0
LINE
  5
F108F4
330
F108F5
100
AcDbEntity
8
Geo
100
AcDbLine
10
-89.6519721577725
20
-9.93563538426183
30
0.000000000000000
11
-89.5519721577725
21
-10.0216327455281
31
0.000000000000000
  0
LINE
  5
F108F6
330
F108F7
100
AcDbEntity
8
Geo
100
AcDbLine
10
-89.6519721577725
20
2.17066069901838
30
0.000000000000000
11
-89.5519721577725
21
1.79618149212482
31
0.000000000000000
  0
LINE
  5
F108F8
330
F108F9
100
AcDbEntity
8
Geo
100
AcDbLine
10
-89.5519721577725
20
-10.0216327455281
30
0.000000000000000
11
-89.4519721577725
21
-10.0931562601931
31
0.000000000000000
  0
LINE
  5
F108FA
330
F108FB
100
AcDbEntity
8
Geo
100
AcDbLine
10
-89.5519721577725
20
1.79618149212482
30
0.000000000000000
11
-89.4519721577725
21
1.41867042024696
31
0.000000000000000
  0
LINE
  5
F108FC
330
F108FD
100
AcDbEntity
8
Geo
100
AcDbLine
10
-89.4519721577725
20
-10.0931562601931
30
0.000000000000000
11
-89.3519721577725
21
-10.1500999805752
31
0.000000000000000
  0
LINE
  5
F108FE
330
F108FF
100
AcDbEntity
8
Geo
100
AcDbLine
10
-89.4519721577725
20
1.41867042024696
30
0.000000000000000
11
-89.3519721577725
21
1.03868669000388
31
0.000000000000000
  0
LINE
  5
F10900
330
F10901
100
AcDbEntity
8
Geo
100
AcDbLine
10
-89.3519721577725
20
-10.1500999805752
30
0.000000000000000
11
-89.2519721577725
21
-10.1923795560217
31
0.000000000000000
  0
LINE
  5
F10902
330
F10903
100
AcDbEntity
8
Geo
100
AcDbLine
10
-89.3519721577725
20
1.03868669000388
30
0.000000000000000
11
-89.2519721577725
21
0.656793170760016
31
0.000000000000000
  0
LINE
  5
F10904
330
F10905
100
AcDbEntity
8
Geo
100
AcDbLine
10
-89.2519721577725
20
-10.1923795560217
30
0.000000000000000
11
-89.1519721577725
21
-10.2199323578569
31
0.000000000000000
  0
LINE
  5
F10906
330
F10907
100
AcDbEntity
8
Geo
100
AcDbLine
10
-89.2519721577725
20
0.656793170760016
30
0.000000000000000
11
-89.1519721577725
21
0.273555560847542
31
0.000000000000000
  0
LINE
  5
F10908
330
F10909
100
AcDbEntity
8
Geo
100
AcDbLine
10
-89.1519721577725
20
-10.2199323578569
30
0.000000000000000
11
-89.0519721577725
21
-10.2327175721544
31
0.000000000000000
  0
LINE
  5
F1090A
330
F1090B
100
AcDbEntity
8
Geo
100
AcDbLine
10
-89.1519721577725
20
0.273555560847542
30
0.000000000000000
11
-89.0519721577725
21
-0.110458450401743
31
0.000000000000000
  0
LINE
  5
F1090C
330
F1090D
100
AcDbEntity
8
Geo
100
AcDbLine
10
-89.0519721577725
20
-0.110458450401743
30
0.000000000000000
11
-88.9519721577725
21
-0.494680023573843
31
0.000000000000000
  0
LINE
  5
F1090E
330
F1090F
100
AcDbEntity
8
Geo
100
AcDbLine
10
-88.9519721577725
20
9.72955616738675
30
0.000000000000000
11
-88.8519721577725
21
9.71277129370940
31
0.000000000000000
  0
LINE
  5
F10910
330
F10911
100
AcDbEntity
8
Geo
100
AcDbLine
10
-88.9519721577725
20
-0.494680023573843
30
0.000000000000000
11
-88.8519721577725
21
-0.878540011793550
31
0.000000000000000
  0
LINE
  5
F10912
330
F10913
100
AcDbEntity
8
Geo
100
AcDbLine
10
-88.8519721577725
20
9.71277129370940
30
0.000000000000000
11
-88.7519721577725
21
9.68122772172469
31
0.000000000000000
  0
LINE
  5
F10914
330
F10915
100
AcDbEntity
8
Geo
100
AcDbLine
10
-88.8519721577725
20
-0.878540011793550
30
0.000000000000000
11
-88.7519721577725
21
-1.26146980380097
31
0.000000000000000
  0
LINE
  5
F10916
330
F10917
100
AcDbEntity
8
Geo
100
AcDbLine
10
-88.7519721577725
20
9.68122772172469
30
0.000000000000000
11
-88.6519721577725
21
9.63497217688134
31
0.000000000000000
  0
LINE
  5
F10918
330
F10919
100
AcDbEntity
8
Geo
100
AcDbLine
10
-88.7519721577725
20
-1.26146980380097
30
0.000000000000000
11
-88.6519721577725
21
-1.64290216623452
31
0.000000000000000
  0
LINE
  5
F1091A
330
F1091B
100
AcDbEntity
8
Geo
100
AcDbLine
10
-88.6519721577725
20
9.63497217688134
30
0.000000000000000
11
-88.5519721577725
21
9.57407317745281
31
0.000000000000000
  0
LINE
  5
F1091C
330
F1091D
100
AcDbEntity
8
Geo
100
AcDbLine
10
-88.6519721577725
20
-1.64290216623452
30
0.000000000000000
11
-88.5519721577725
21
-2.02227208387297
31
0.000000000000000
  0
LINE
  5
F1091E
330
F1091F
100
AcDbEntity
8
Geo
100
AcDbLine
10
-88.5519721577725
20
9.57407317745281
30
0.000000000000000
11
-88.4519721577725
21
9.49862093304116
31
0.000000000000000
  0
LINE
  5
F10920
330
F10921
100
AcDbEntity
8
Geo
100
AcDbLine
10
-88.5519721577725
20
-2.02227208387297
30
0.000000000000000
11
-88.4519721577725
21
-2.39901759659162
31
0.000000000000000
  0
LINE
  5
F10922
330
F10923
100
AcDbEntity
8
Geo
100
AcDbLine
10
-88.4519721577725
20
9.49862093304116
30
0.000000000000000
11
-88.3519721577725
21
9.40872721094978
31
0.000000000000000
  0
LINE
  5
F10924
330
F10925
100
AcDbEntity
8
Geo
100
AcDbLine
10
-88.4519721577725
20
-2.39901759659162
30
0.000000000000000
11
-88.3519721577725
21
-2.77258063179312
31
0.000000000000000
  0
LINE
  5
F10926
330
F10927
100
AcDbEntity
8
Geo
100
AcDbLine
10
-88.3519721577725
20
9.40872721094978
30
0.000000000000000
11
-88.2519721577725
21
9.30452517062258
31
0.000000000000000
  0
LINE
  5
F10928
330
F10929
100
AcDbEntity
8
Geo
100
AcDbLine
10
-88.3519721577725
20
-2.77258063179312
30
0.000000000000000
11
-88.2519721577725
21
-3.14240783107956
31
0.000000000000000
  0
LINE
  5
F1092A
330
F1092B
100
AcDbEntity
8
Geo
100
AcDbLine
10
-88.2519721577725
20
9.30452517062258
30
0.000000000000000
11
-88.1519721577725
21
9.18616916639515
31
0.000000000000000
  0
LINE
  5
F1092C
330
F1092D
100
AcDbEntity
8
Geo
100
AcDbLine
10
-88.2519721577725
20
-3.14240783107956
30
0.000000000000000
11
-88.1519721577725
21
-3.50795136994150
31
0.000000000000000
  0
LINE
  5
F1092E
330
F1092F
100
AcDbEntity
8
Geo
100
AcDbLine
10
-88.1519721577725
20
9.18616916639515
30
0.000000000000000
11
-88.0519721577725
21
9.05383451884985
31
0.000000000000000
  0
LINE
  5
F10930
330
F10931
100
AcDbEntity
8
Geo
100
AcDbLine
10
-88.1519721577725
20
-3.50795136994150
30
0.000000000000000
11
-88.0519721577725
21
-3.86866976924969
31
0.000000000000000
  0
LINE
  5
F10932
330
F10933
100
AcDbEntity
8
Geo
100
AcDbLine
10
-88.0519721577725
20
9.05383451884985
30
0.000000000000000
11
-87.9519721577725
21
8.90771725511370
31
0.000000000000000
  0
LINE
  5
F10934
330
F10935
100
AcDbEntity
8
Geo
100
AcDbLine
10
-88.0519721577725
20
-3.86866976924969
30
0.000000000000000
11
-87.9519721577725
21
-4.22402869734726
31
0.000000000000000
  0
LINE
  5
F10936
330
F10937
100
AcDbEntity
8
Geo
100
AcDbLine
10
-87.9519721577725
20
8.90771725511370
30
0.000000000000000
11
-87.8519721577725
21
8.74803381848369
31
0.000000000000000
  0
LINE
  5
F10938
330
F10939
100
AcDbEntity
8
Geo
100
AcDbLine
10
-87.9519721577725
20
-4.22402869734726
30
0.000000000000000
11
-87.8519721577725
21
-4.57350176155454
31
0.000000000000000
  0
LINE
  5
F1093A
330
F1093B
100
AcDbEntity
8
Geo
100
AcDbLine
10
-87.8519721577725
20
8.74803381848369
30
0.000000000000000
11
-87.7519721577725
21
8.57502074780958
31
0.000000000000000
  0
LINE
  5
F1093C
330
F1093D
100
AcDbEntity
8
Geo
100
AcDbLine
10
-87.8519721577725
20
-4.57350176155454
30
0.000000000000000
11
-87.7519721577725
21
-4.91657128791372
31
0.000000000000000
  0
LINE
  5
F1093E
330
F1093F
100
AcDbEntity
8
Geo
100
AcDbLine
10
-87.7519721577725
20
8.57502074780958
30
0.000000000000000
11
-87.6519721577725
21
8.38893432710928
31
0.000000000000000
  0
LINE
  5
F10940
330
F10941
100
AcDbEntity
8
Geo
100
AcDbLine
10
-87.7519721577725
20
-4.91657128791372
30
0.000000000000000
11
-87.6519721577725
21
-5.25272908801860
31
0.000000000000000
  0
LINE
  5
F10942
330
F10943
100
AcDbEntity
8
Geo
100
AcDbLine
10
-87.6519721577725
20
8.38893432710928
30
0.000000000000000
11
-87.5519721577725
21
8.19005020593570
31
0.000000000000000
  0
LINE
  5
F10944
330
F10945
100
AcDbEntity
8
Geo
100
AcDbLine
10
-87.6519721577725
20
-5.25272908801860
30
0.000000000000000
11
-87.5519721577725
21
-5.58147721179334
31
0.000000000000000
  0
LINE
  5
F10946
330
F10947
100
AcDbEntity
8
Geo
100
AcDbLine
10
-87.5519721577725
20
8.19005020593570
30
0.000000000000000
11
-87.4519721577725
21
7.97866299105740
31
0.000000000000000
  0
LINE
  5
F10948
330
F10949
100
AcDbEntity
8
Geo
100
AcDbLine
10
-87.5519721577725
20
-5.58147721179334
30
0.000000000000000
11
-87.4519721577725
21
-5.90232868510522
31
0.000000000000000
  0
LINE
  5
F1094A
330
F1094B
100
AcDbEntity
8
Geo
100
AcDbLine
10
-87.4519721577725
20
7.97866299105740
30
0.000000000000000
11
-87.3519721577725
21
7.75508581005806
31
0.000000000000000
  0
LINE
  5
F1094C
330
F1094D
100
AcDbEntity
8
Geo
100
AcDbLine
10
-87.4519721577725
20
-5.90232868510522
30
0.000000000000000
11
-87.3519721577725
21
-6.21480823111870
31
0.000000000000000
  0
LINE
  5
F1094E
330
F1094F
100
AcDbEntity
8
Geo
100
AcDbLine
10
-87.3519721577725
20
7.75508581005806
30
0.000000000000000
11
-87.2519721577725
21
7.51964984750102
31
0.000000000000000
  0
LINE
  5
F10950
330
F10951
100
AcDbEntity
8
Geo
100
AcDbLine
10
-87.3519721577725
20
-6.21480823111870
30
0.000000000000000
11
-87.2519721577725
21
-6.51845297432239
31
0.000000000000000
  0
LINE
  5
F10952
330
F10953
100
AcDbEntity
8
Geo
100
AcDbLine
10
-87.2519721577725
20
7.51964984750102
30
0.000000000000000
11
-87.1519721577725
21
7.27270385434599
31
0.000000000000000
  0
LINE
  5
F10954
330
F10955
100
AcDbEntity
8
Geo
100
AcDbLine
10
-87.2519721577725
20
-6.51845297432239
30
0.000000000000000
11
-87.1519721577725
21
-6.81281312618584
31
0.000000000000000
  0
LINE
  5
F10956
330
F10957
100
AcDbEntity
8
Geo
100
AcDbLine
10
-87.1519721577725
20
7.27270385434599
30
0.000000000000000
11
-87.0519721577725
21
7.01461363134484
31
0.000000000000000
  0
LINE
  5
F10958
330
F10959
100
AcDbEntity
8
Geo
100
AcDbLine
10
-87.1519721577725
20
-6.81281312618584
30
0.000000000000000
11
-87.0519721577725
21
-7.09745265143069
31
0.000000000000000
  0
LINE
  5
F1095A
330
F1095B
100
AcDbEntity
8
Geo
100
AcDbLine
10
-87.0519721577725
20
7.01461363134484
30
0.000000000000000
11
-86.9519721577725
21
6.74576148718140
31
0.000000000000000
  0
LINE
  5
F1095C
330
F1095D
100
AcDbEntity
8
Geo
100
AcDbLine
10
-87.0519721577725
20
-7.09745265143069
30
0.000000000000000
11
-86.9519721577725
21
-7.37194991392909
31
0.000000000000000
  0
LINE
  5
F1095E
330
F1095F
100
AcDbEntity
8
Geo
100
AcDbLine
10
-86.9519721577725
20
6.74576148718140
30
0.000000000000000
11
-86.8519721577725
21
6.46654567215815
31
0.000000000000000
  0
LINE
  5
F10960
330
F10961
100
AcDbEntity
8
Geo
100
AcDbLine
10
-86.9519721577725
20
-7.37194991392909
30
0.000000000000000
11
-86.8519721577725
21
-7.63589830127272
31
0.000000000000000
  0
LINE
  5
F10962
330
F10963
100
AcDbEntity
8
Geo
100
AcDbLine
10
-86.8519721577725
20
6.46654567215815
30
0.000000000000000
11
-86.7519721577725
21
6.17737978826862
31
0.000000000000000
  0
LINE
  5
F10964
330
F10965
100
AcDbEntity
8
Geo
100
AcDbLine
10
-86.8519721577725
20
-7.63589830127272
30
0.000000000000000
11
-86.7519721577725
21
-7.88890682708714
31
0.000000000000000
  0
LINE
  5
F10966
330
F10967
100
AcDbEntity
8
Geo
100
AcDbLine
10
-86.7519721577725
20
6.17737978826862
30
0.000000000000000
11
-86.6519721577725
21
5.87869217652937
31
0.000000000000000
  0
LINE
  5
F10968
330
F10969
100
AcDbEntity
8
Geo
100
AcDbLine
10
-86.7519721577725
20
-7.88890682708714
30
0.000000000000000
11
-86.6519721577725
21
-8.13060071019943
31
0.000000000000000
  0
LINE
  5
F1096A
330
F1096B
100
AcDbEntity
8
Geo
100
AcDbLine
10
-86.6519721577725
20
5.87869217652937
30
0.000000000000000
11
-86.5519721577725
21
5.57092528247896
31
0.000000000000000
  0
LINE
  5
F1096C
330
F1096D
100
AcDbEntity
8
Geo
100
AcDbLine
10
-86.6519721577725
20
-8.13060071019943
30
0.000000000000000
11
-86.5519721577725
21
-8.36062192980094
31
0.000000000000000
  0
LINE
  5
F1096E
330
F1096F
100
AcDbEntity
8
Geo
100
AcDbLine
10
-86.5519721577725
20
5.57092528247896
30
0.000000000000000
11
-86.4519721577725
21
5.25453500078409
31
0.000000000000000
  0
LINE
  5
F10970
330
F10971
100
AcDbEntity
8
Geo
100
AcDbLine
10
-86.5519721577725
20
-8.36062192980094
30
0.000000000000000
11
-86.4519721577725
21
-8.57862975578303
31
0.000000000000000
  0
LINE
  5
F10972
330
F10973
100
AcDbEntity
8
Geo
100
AcDbLine
10
-86.4519721577725
20
5.25453500078409
30
0.000000000000000
11
-86.3519721577725
21
4.92998999992342
31
0.000000000000000
  0
LINE
  5
F10974
330
F10975
100
AcDbEntity
8
Geo
100
AcDbLine
10
-86.4519721577725
20
-8.57862975578303
30
0.000000000000000
11
-86.3519721577725
21
-8.78430125346014
31
0.000000000000000
  0
LINE
  5
F10976
330
F10977
100
AcDbEntity
8
Geo
100
AcDbLine
10
-86.3519721577725
20
4.92998999992342
30
0.000000000000000
11
-86.2519721577725
21
4.59777102794962
31
0.000000000000000
  0
LINE
  5
F10978
330
F10979
100
AcDbEntity
8
Geo
100
AcDbLine
10
-86.3519721577725
20
-8.78430125346014
30
0.000000000000000
11
-86.2519721577725
21
-8.97733176193242
31
0.000000000000000
  0
LINE
  5
F1097A
330
F1097B
100
AcDbEntity
8
Geo
100
AcDbLine
10
-86.2519721577725
20
4.59777102794962
30
0.000000000000000
11
-86.1519721577725
21
4.25837020035797
31
0.000000000000000
  0
LINE
  5
F1097C
330
F1097D
100
AcDbEntity
8
Geo
100
AcDbLine
10
-86.2519721577725
20
-8.97733176193242
30
0.000000000000000
11
-86.1519721577725
21
-9.15743534537956
31
0.000000000000000
  0
LINE
  5
F1097E
330
F1097F
100
AcDbEntity
8
Geo
100
AcDbLine
10
-86.1519721577725
20
4.25837020035797
30
0.000000000000000
11
-86.0519721577725
21
3.91229027111635
31
0.000000000000000
  0
LINE
  5
F10980
330
F10981
100
AcDbEntity
8
Geo
100
AcDbLine
10
-86.1519721577725
20
-9.15743534537956
30
0.000000000000000
11
-86.0519721577725
21
-9.32434521661705
31
0.000000000000000
  0
LINE
  5
F10982
330
F10983
100
AcDbEntity
8
Geo
100
AcDbLine
10
-86.0519721577725
20
3.91229027111635
30
0.000000000000000
11
-85.9519721577725
21
3.56004388793653
31
0.000000000000000
  0
LINE
  5
F10984
330
F10985
100
AcDbEntity
8
Geo
100
AcDbLine
10
-86.0519721577725
20
-9.32434521661705
30
0.000000000000000
11
-85.9519721577725
21
-9.47781413228772
31
0.000000000000000
  0
LINE
  5
F10986
330
F10987
100
AcDbEntity
8
Geo
100
AcDbLine
10
-85.9519721577725
20
3.56004388793653
30
0.000000000000000
11
-85.8519721577725
21
3.20215283288978
31
0.000000000000000
  0
LINE
  5
F10988
330
F10989
100
AcDbEntity
8
Geo
100
AcDbLine
10
-85.9519721577725
20
-9.47781413228772
30
0.000000000000000
11
-85.8519721577725
21
-9.61761475910293
31
0.000000000000000
  0
LINE
  5
F1098A
330
F1098B
100
AcDbEntity
8
Geo
100
AcDbLine
10
-85.8519721577725
20
3.20215283288978
30
0.000000000000000
11
-85.7519721577725
21
2.83914724949187
31
0.000000000000000
  0
LINE
  5
F1098C
330
F1098D
100
AcDbEntity
8
Geo
100
AcDbLine
10
-85.8519721577725
20
-9.61761475910293
30
0.000000000000000
11
-85.7519721577725
21
-9.74354001059107
31
0.000000000000000
  0
LINE
  5
F1098E
330
F1098F
100
AcDbEntity
8
Geo
100
AcDbLine
10
-85.7519721577725
20
2.83914724949187
30
0.000000000000000
11
-85.6519721577725
21
2.47156485740225
31
0.000000000000000
  0
LINE
  5
F10990
330
F10991
100
AcDbEntity
8
Geo
100
AcDbLine
10
-85.7519721577725
20
-9.74354001059107
30
0.000000000000000
11
-85.6519721577725
21
-9.85540335385448
31
0.000000000000000
  0
LINE
  5
F10992
330
F10993
100
AcDbEntity
8
Geo
100
AcDbLine
10
-85.6519721577725
20
2.47156485740225
30
0.000000000000000
11
-85.5519721577725
21
2.09995015590058
31
0.000000000000000
  0
LINE
  5
F10994
330
F10995
100
AcDbEntity
8
Geo
100
AcDbLine
10
-85.6519721577725
20
-9.85540335385448
30
0.000000000000000
11
-85.5519721577725
21
-9.95303908588033
31
0.000000000000000
  0
LINE
  5
F10996
330
F10997
100
AcDbEntity
8
Geo
100
AcDbLine
10
-85.5519721577725
20
2.09995015590058
30
0.000000000000000
11
-85.4519721577725
21
1.72485361732081
31
0.000000000000000
  0
LINE
  5
F10998
330
F10999
100
AcDbEntity
8
Geo
100
AcDbLine
10
-85.5519721577725
20
-9.95303908588033
30
0.000000000000000
11
-85.4519721577725
21
-10.0363025789963
31
0.000000000000000
  0
LINE
  5
F1099A
330
F1099B
100
AcDbEntity
8
Geo
100
AcDbLine
10
-85.4519721577725
20
1.72485361732081
30
0.000000000000000
11
-85.3519721577726
21
1.34683087163723
31
0.000000000000000
  0
LINE
  5
F1099C
330
F1099D
100
AcDbEntity
8
Geo
100
AcDbLine
10
-85.4519721577725
20
-10.0363025789963
30
0.000000000000000
11
-85.3519721577726
21
-10.1050704951073
31
0.000000000000000
  0
LINE
  5
F1099E
330
F1099F
100
AcDbEntity
8
Geo
100
AcDbLine
10
-85.3519721577726
20
1.34683087163723
30
0.000000000000000
11
-85.2519721577725
21
0.966441883410607
31
0.000000000000000
  0
LINE
  5
F109A0
330
F109A1
100
AcDbEntity
8
Geo
100
AcDbLine
10
-85.3519721577726
20
-10.1050704951073
30
0.000000000000000
11
-85.2519721577725
21
-10.1592409683960
31
0.000000000000000
  0
LINE
  5
F109A2
330
F109A3
100
AcDbEntity
8
Geo
100
AcDbLine
10
-85.2519721577725
20
0.966441883410607
30
0.000000000000000
11
-85.1519721577725
21
0.584250122313448
31
0.000000000000000
  0
LINE
  5
F109A4
330
F109A5
100
AcDbEntity
8
Geo
100
AcDbLine
10
-85.2519721577725
20
-10.1592409683960
30
0.000000000000000
11
-85.1519721577725
21
-10.1987337562167
31
0.000000000000000
  0
LINE
  5
F109A6
330
F109A7
100
AcDbEntity
8
Geo
100
AcDbLine
10
-85.1519721577725
20
0.584250122313448
30
0.000000000000000
11
-85.0519721577726
21
0.200821728463172
31
0.000000000000000
  0
LINE
  5
F109A8
330
F109A9
100
AcDbEntity
8
Geo
100
AcDbLine
10
-85.1519721577725
20
-10.1987337562167
30
0.000000000000000
11
-85.0519721577726
21
-10.2234903579584
31
0.000000000000000
  0
LINE
  5
F109AA
330
F109AB
100
AcDbEntity
8
Geo
100
AcDbLine
10
-85.0519721577726
20
0.200821728463172
30
0.000000000000000
11
-84.9519721577725
21
-0.183275326200444
31
0.000000000000000
  0
LINE
  5
F109AC
330
F109AD
100
AcDbEntity
8
Geo
100
AcDbLine
10
-85.0519721577726
20
-10.2234903579584
30
0.000000000000000
11
-84.9519721577725
21
-10.2334741017017
31
0.000000000000000
  0
LINE
  5
F109AE
330
F109AF
100
AcDbEntity
8
Geo
100
AcDbLine
10
-84.9519721577725
20
-0.183275326200444
30
0.000000000000000
11
-84.8519721577726
21
-0.567472079251303
31
0.000000000000000
  0
LINE
  5
F109B0
330
F109B1
100
AcDbEntity
8
Geo
100
AcDbLine
10
-84.8519721577726
20
9.72751010573381
30
0.000000000000000
11
-84.7519721577725
21
9.70792567168445
31
0.000000000000000
  0
LINE
  5
F109B2
330
F109B3
100
AcDbEntity
8
Geo
100
AcDbLine
10
-84.8519721577726
20
-0.567472079251303
30
0.000000000000000
11
-84.7519721577725
21
-0.951199420580227
31
0.000000000000000
  0
LINE
  5
F109B4
330
F109B5
100
AcDbEntity
8
Geo
100
AcDbLine
10
-84.7519721577725
20
9.70792567168445
30
0.000000000000000
11
-84.6519721577725
21
9.67358971714079
31
0.000000000000000
  0
LINE
  5
F109B6
330
F109B7
100
AcDbEntity
8
Geo
100
AcDbLine
10
-84.7519721577725
20
-0.951199420580227
30
0.000000000000000
11
-84.6519721577725
21
-1.33388893541696
31
0.000000000000000
  0
LINE
  5
F109B8
330
F109B9
100
AcDbEntity
8
Geo
100
AcDbLine
10
-84.6519721577725
20
9.67358971714079
30
0.000000000000000
11
-84.5519721577726
21
9.62455310390394
31
0.000000000000000
  0
LINE
  5
F109BA
330
F109BB
100
AcDbEntity
8
Geo
100
AcDbLine
10
-84.6519721577725
20
-1.33388893541696
30
0.000000000000000
11
-84.5519721577726
21
-1.71497374632217
31
0.000000000000000
  0
LINE
  5
F109BC
330
F109BD
100
AcDbEntity
8
Geo
100
AcDbLine
10
-84.5519721577726
20
9.62455310390394
30
0.000000000000000
11
-84.4519721577725
21
9.56088846984002
31
0.000000000000000
  0
LINE
  5
F109BE
330
F109BF
100
AcDbEntity
8
Geo
100
AcDbLine
10
-84.5519721577726
20
-1.71497374632217
30
0.000000000000000
11
-84.4519721577725
21
-2.09388935290219
31
0.000000000000000
  0
LINE
  5
F109C0
330
F109C1
100
AcDbEntity
8
Geo
100
AcDbLine
10
-84.4519721577725
20
9.56088846984002
30
0.000000000000000
11
-84.3519721577726
21
9.48269012128181
31
0.000000000000000
  0
LINE
  5
F109C2
330
F109C3
100
AcDbEntity
8
Geo
100
AcDbLine
10
-84.4519721577725
20
-2.09388935290219
30
0.000000000000000
11
-84.3519721577726
21
-2.47007446800268
31
0.000000000000000
  0
LINE
  5
F109C4
330
F109C5
100
AcDbEntity
8
Geo
100
AcDbLine
10
-84.3519721577726
20
9.48269012128181
30
0.000000000000000
11
-84.2519721577725
21
9.39007389333288
31
0.000000000000000
  0
LINE
  5
F109C6
330
F109C7
100
AcDbEntity
8
Geo
100
AcDbLine
10
-84.3519721577726
20
-2.47007446800268
30
0.000000000000000
11
-84.2519721577725
21
-2.84297184914246
31
0.000000000000000
  0
LINE
  5
F109C8
330
F109C9
100
AcDbEntity
8
Geo
100
AcDbLine
10
-84.2519721577725
20
9.39007389333288
30
0.000000000000000
11
-84.1519721577725
21
9.28317697828126
31
0.000000000000000
  0
LINE
  5
F109CA
330
F109CB
100
AcDbEntity
8
Geo
100
AcDbLine
10
-84.2519721577725
20
-2.84297184914246
30
0.000000000000000
11
-84.1519721577725
21
-3.21202912395607
31
0.000000000000000
  0
LINE
  5
F109CC
330
F109CD
100
AcDbEntity
8
Geo
100
AcDbLine
10
-84.1519721577725
20
9.28317697828126
30
0.000000000000000
11
-84.0519721577726
21
9.16215772237665
31
0.000000000000000
  0
LINE
  5
F109CE
330
F109CF
100
AcDbEntity
8
Geo
100
AcDbLine
10
-84.1519721577725
20
-3.21202912395607
30
0.000000000000000
11
-84.0519721577726
21
-3.57669960842211
31
0.000000000000000
  0
LINE
  5
F109D0
330
F109D1
100
AcDbEntity
8
Geo
100
AcDbLine
10
-84.0519721577726
20
9.16215772237665
30
0.000000000000000
11
-83.9519721577725
21
9.02719539127237
31
0.000000000000000
  0
LINE
  5
F109D2
330
F109D3
100
AcDbEntity
8
Geo
100
AcDbLine
10
-84.0519721577726
20
-3.57669960842211
30
0.000000000000000
11
-83.9519721577725
21
-3.93644311666555
31
0.000000000000000
  0
LINE
  5
F109D4
330
F109D5
100
AcDbEntity
8
Geo
100
AcDbLine
10
-83.9519721577725
20
9.02719539127237
30
0.000000000000000
11
-83.8519721577726
21
8.87848990447941
31
0.000000000000000
  0
LINE
  5
F109D6
330
F109D7
100
AcDbEntity
8
Geo
100
AcDbLine
10
-83.9519721577725
20
-3.93644311666555
30
0.000000000000000
11
-83.8519721577726
21
-4.29072676113432
31
0.000000000000000
  0
LINE
  5
F109D8
330
F109D9
100
AcDbEntity
8
Geo
100
AcDbLine
10
-83.8519721577726
20
8.87848990447941
30
0.000000000000000
11
-83.7519721577726
21
8.71626153922591
31
0.000000000000000
  0
LINE
  5
F109DA
330
F109DB
100
AcDbEntity
8
Geo
100
AcDbLine
10
-83.8519721577726
20
-4.29072676113432
30
0.000000000000000
11
-83.7519721577726
21
-4.63902574196484
31
0.000000000000000
  0
LINE
  5
F109DC
330
F109DD
100
AcDbEntity
8
Geo
100
AcDbLine
10
-83.7519721577726
20
8.71626153922591
30
0.000000000000000
11
-83.6519721577725
21
8.54075060416082
31
0.000000000000000
  0
LINE
  5
F109DE
330
F109DF
100
AcDbEntity
8
Geo
100
AcDbLine
10
-83.7519721577726
20
-4.63902574196484
30
0.000000000000000
11
-83.6519721577725
21
-4.98082412436736
31
0.000000000000000
  0
LINE
  5
F109E0
330
F109E1
100
AcDbEntity
8
Geo
100
AcDbLine
10
-83.6519721577725
20
8.54075060416082
30
0.000000000000000
11
-83.5519721577726
21
8.35221708338508
31
0.000000000000000
  0
LINE
  5
F109E2
330
F109E3
100
AcDbEntity
8
Geo
100
AcDbLine
10
-83.6519721577725
20
-4.98082412436736
30
0.000000000000000
11
-83.5519721577726
21
-5.31561560287944
31
0.000000000000000
  0
LINE
  5
F109E4
330
F109E5
100
AcDbEntity
8
Geo
100
AcDbLine
10
-83.5519721577726
20
8.35221708338508
30
0.000000000000000
11
-83.4519721577726
21
8.15094025133746
31
0.000000000000000
  0
LINE
  5
F109E6
330
F109E7
100
AcDbEntity
8
Geo
100
AcDbLine
10
-83.5519721577726
20
-5.31561560287944
30
0.000000000000000
11
-83.4519721577726
21
-5.64290425135548
31
0.000000000000000
  0
LINE
  5
F109E8
330
F109E9
100
AcDbEntity
8
Geo
100
AcDbLine
10
-83.4519721577726
20
8.15094025133746
30
0.000000000000000
11
-83.3519721577726
21
7.93721825910579
31
0.000000000000000
  0
LINE
  5
F109EA
330
F109EB
100
AcDbEntity
8
Geo
100
AcDbLine
10
-83.4519721577726
20
-5.64290425135548
30
0.000000000000000
11
-83.3519721577726
21
-5.96220525758146
31
0.000000000000000
  0
LINE
  5
F109EC
330
F109ED
100
AcDbEntity
8
Geo
100
AcDbLine
10
-83.3519721577726
20
7.93721825910579
30
0.000000000000000
11
-83.2519721577726
21
7.71136769277616
31
0.000000000000000
  0
LINE
  5
F109EE
330
F109EF
100
AcDbEntity
8
Geo
100
AcDbLine
10
-83.3519721577726
20
-5.96220525758146
30
0.000000000000000
11
-83.2519721577726
21
-6.27304564142658
31
0.000000000000000
  0
LINE
  5
F109F0
330
F109F1
100
AcDbEntity
8
Geo
100
AcDbLine
10
-83.2519721577726
20
7.71136769277616
30
0.000000000000000
11
-83.1519721577725
21
7.47372310447436
31
0.000000000000000
  0
LINE
  5
F109F2
330
F109F3
100
AcDbEntity
8
Geo
100
AcDbLine
10
-83.2519721577726
20
-6.27304564142658
30
0.000000000000000
11
-83.1519721577725
21
-6.57496495546804
31
0.000000000000000
  0
LINE
  5
F109F4
330
F109F5
100
AcDbEntity
8
Geo
100
AcDbLine
10
-83.1519721577725
20
7.47372310447436
30
0.000000000000000
11
-83.0519721577726
21
7.22463651679435
31
0.000000000000000
  0
LINE
  5
F109F6
330
F109F7
100
AcDbEntity
8
Geo
100
AcDbLine
10
-83.1519721577725
20
-6.57496495546804
30
0.000000000000000
11
-83.0519721577726
21
-6.86751596705120
31
0.000000000000000
  0
LINE
  5
F109F8
330
F109F9
100
AcDbEntity
8
Geo
100
AcDbLine
10
-83.0519721577726
20
7.22463651679435
30
0.000000000000000
11
-82.9519721577726
21
6.96447690134762
31
0.000000000000000
  0
LINE
  5
F109FA
330
F109FB
100
AcDbEntity
8
Geo
100
AcDbLine
10
-83.0519721577726
20
-6.86751596705120
30
0.000000000000000
11
-82.9519721577726
21
-7.15026532077462
31
0.000000000000000
  0
LINE
  5
F109FC
330
F109FD
100
AcDbEntity
8
Geo
100
AcDbLine
10
-82.9519721577726
20
6.96447690134762
30
0.000000000000000
11
-82.8519721577726
21
6.69362963220613
31
0.000000000000000
  0
LINE
  5
F109FE
330
F109FF
100
AcDbEntity
8
Geo
100
AcDbLine
10
-82.9519721577726
20
-7.15026532077462
30
0.000000000000000
11
-82.8519721577726
21
-7.42279418041887
31
0.000000000000000
  0
LINE
  5
F10A00
330
F10A01
100
AcDbEntity
8
Geo
100
AcDbLine
10
-82.8519721577726
20
6.69362963220613
30
0.000000000000000
11
-82.7519721577726
21
6.41249591504819
31
0.000000000000000
  0
LINE
  5
F10A02
330
F10A03
100
AcDbEntity
8
Geo
100
AcDbLine
10
-82.8519721577726
20
-7.42279418041887
30
0.000000000000000
11
-82.7519721577726
21
-7.68469884936801
31
0.000000000000000
  0
LINE
  5
F10A04
330
F10A05
100
AcDbEntity
8
Geo
100
AcDbLine
10
-82.7519721577726
20
6.41249591504819
30
0.000000000000000
11
-82.6519721577725
21
6.12149219285305
31
0.000000000000000
  0
LINE
  5
F10A06
330
F10A07
100
AcDbEntity
8
Geo
100
AcDbLine
10
-82.7519721577726
20
-7.68469884936801
30
0.000000000000000
11
-82.6519721577725
21
-7.93559136860479
31
0.000000000000000
  0
LINE
  5
F10A08
330
F10A09
100
AcDbEntity
8
Geo
100
AcDbLine
10
-82.6519721577725
20
6.12149219285305
30
0.000000000000000
11
-82.5519721577726
21
5.82104952902456
31
0.000000000000000
  0
LINE
  5
F10A0A
330
F10A0B
100
AcDbEntity
8
Geo
100
AcDbLine
10
-82.6519721577725
20
-7.93559136860479
30
0.000000000000000
11
-82.5519721577726
21
-8.17510009139383
31
0.000000000000000
  0
LINE
  5
F10A0C
330
F10A0D
100
AcDbEntity
8
Geo
100
AcDbLine
10
-82.5519721577726
20
5.82104952902456
30
0.000000000000000
11
-82.4519721577726
21
5.51161296885748
31
0.000000000000000
  0
LINE
  5
F10A0E
330
F10A0F
100
AcDbEntity
8
Geo
100
AcDbLine
10
-82.5519721577726
20
-8.17510009139383
30
0.000000000000000
11
-82.4519721577726
21
-8.40287023380140
31
0.000000000000000
  0
LINE
  5
F10A10
330
F10A11
100
AcDbEntity
8
Geo
100
AcDbLine
10
-82.4519721577726
20
5.51161296885748
30
0.000000000000000
11
-82.3519721577726
21
5.19364088029257
31
0.000000000000000
  0
LINE
  5
F10A12
330
F10A13
100
AcDbEntity
8
Geo
100
AcDbLine
10
-82.4519721577726
20
-8.40287023380140
30
0.000000000000000
11
-82.3519721577726
21
-8.61856440023635
31
0.000000000000000
  0
LINE
  5
F10A14
330
F10A15
100
AcDbEntity
8
Geo
100
AcDbLine
10
-82.3519721577726
20
5.19364088029257
30
0.000000000000000
11
-82.2519721577726
21
4.86760427493677
31
0.000000000000000
  0
LINE
  5
F10A16
330
F10A17
100
AcDbEntity
8
Geo
100
AcDbLine
10
-82.3519721577726
20
-8.61856440023635
30
0.000000000000000
11
-82.2519721577726
21
-8.82186308323372
31
0.000000000000000
  0
LINE
  5
F10A18
330
F10A19
100
AcDbEntity
8
Geo
100
AcDbLine
10
-82.2519721577726
20
4.86760427493677
30
0.000000000000000
11
-82.1519721577726
21
4.53398611035441
31
0.000000000000000
  0
LINE
  5
F10A1A
330
F10A1B
100
AcDbEntity
8
Geo
100
AcDbLine
10
-82.2519721577726
20
-8.82186308323372
30
0.000000000000000
11
-82.1519721577726
21
-9.01246513674075
31
0.000000000000000
  0
LINE
  5
F10A1C
330
F10A1D
100
AcDbEntity
8
Geo
100
AcDbLine
10
-82.1519721577726
20
4.53398611035441
30
0.000000000000000
11
-82.0519721577726
21
4.19328057466279
31
0.000000000000000
  0
LINE
  5
F10A1E
330
F10A1F
100
AcDbEntity
8
Geo
100
AcDbLine
10
-82.1519721577726
20
-9.01246513674075
30
0.000000000000000
11
-82.0519721577726
21
-9.19008822220399
31
0.000000000000000
  0
LINE
  5
F10A20
330
F10A21
100
AcDbEntity
8
Geo
100
AcDbLine
10
-82.0519721577726
20
4.19328057466279
30
0.000000000000000
11
-81.9519721577726
21
3.84599235449207
31
0.000000000000000
  0
LINE
  5
F10A22
330
F10A23
100
AcDbEntity
8
Geo
100
AcDbLine
10
-82.0519721577726
20
-9.19008822220399
30
0.000000000000000
11
-81.9519721577726
21
-9.35446922679715
31
0.000000000000000
  0
LINE
  5
F10A24
330
F10A25
100
AcDbEntity
8
Geo
100
AcDbLine
10
-81.9519721577726
20
3.84599235449207
30
0.000000000000000
11
-81.8519721577726
21
3.49263588739365
31
0.000000000000000
  0
LINE
  5
F10A26
330
F10A27
100
AcDbEntity
8
Geo
100
AcDbLine
10
-81.9519721577726
20
-9.35446922679715
30
0.000000000000000
11
-81.8519721577726
21
-9.50536465316962
31
0.000000000000000
  0
LINE
  5
F10A28
330
F10A29
100
AcDbEntity
8
Geo
100
AcDbLine
10
-81.8519721577726
20
3.49263588739365
30
0.000000000000000
11
-81.7519721577726
21
3.13373459980458
31
0.000000000000000
  0
LINE
  5
F10A2A
330
F10A2B
100
AcDbEntity
8
Geo
100
AcDbLine
10
-81.8519721577726
20
-9.50536465316962
30
0.000000000000000
11
-81.7519721577726
21
-9.64255098013886
31
0.000000000000000
  0
LINE
  5
F10A2C
330
F10A2D
100
AcDbEntity
8
Geo
100
AcDbLine
10
-81.7519721577726
20
3.13373459980458
30
0.000000000000000
11
-81.6519721577726
21
2.76982013169668
31
0.000000000000000
  0
LINE
  5
F10A2E
330
F10A2F
100
AcDbEntity
8
Geo
100
AcDbLine
10
-81.7519721577726
20
-9.64255098013886
30
0.000000000000000
11
-81.6519721577726
21
-9.76582499379193
31
0.000000000000000
  0
LINE
  5
F10A30
330
F10A31
100
AcDbEntity
8
Geo
100
AcDbLine
10
-81.6519721577726
20
2.76982013169668
30
0.000000000000000
11
-81.5519721577726
21
2.40143154905899
31
0.000000000000000
  0
LINE
  5
F10A32
330
F10A33
100
AcDbEntity
8
Geo
100
AcDbLine
10
-81.6519721577726
20
-9.76582499379193
30
0.000000000000000
11
-81.5519721577726
21
-9.87500408850604
31
0.000000000000000
  0
LINE
  5
F10A34
330
F10A35
100
AcDbEntity
8
Geo
100
AcDbLine
10
-81.5519721577726
20
2.40143154905899
30
0.000000000000000
11
-81.4519721577726
21
2.02911454538012
31
0.000000000000000
  0
LINE
  5
F10A36
330
F10A37
100
AcDbEntity
8
Geo
100
AcDbLine
10
-81.5519721577726
20
-9.87500408850604
30
0.000000000000000
11
-81.4519721577726
21
-9.96992653744196
31
0.000000000000000
  0
LINE
  5
F10A38
330
F10A39
100
AcDbEntity
8
Geo
100
AcDbLine
10
-81.4519721577726
20
2.02911454538012
30
0.000000000000000
11
-81.3519721577726
21
1.65342063331325
31
0.000000000000000
  0
LINE
  5
F10A3A
330
F10A3B
100
AcDbEntity
8
Geo
100
AcDbLine
10
-81.4519721577726
20
-9.96992653744196
30
0.000000000000000
11
-81.3519721577726
21
-10.0504517321098
31
0.000000000000000
  0
LINE
  5
F10A3C
330
F10A3D
100
AcDbEntity
8
Geo
100
AcDbLine
10
-81.3519721577726
20
1.65342063331325
30
0.000000000000000
11
-81.2519721577726
21
1.27490632772118
31
0.000000000000000
  0
LINE
  5
F10A3E
330
F10A3F
100
AcDbEntity
8
Geo
100
AcDbLine
10
-81.3519721577726
20
-10.0504517321098
30
0.000000000000000
11
-81.2519721577726
21
-10.1164603906520
31
0.000000000000000
  0
LINE
  5
F10A40
330
F10A41
100
AcDbEntity
8
Geo
100
AcDbLine
10
-81.2519721577726
20
1.27490632772118
30
0.000000000000000
11
-81.1519721577726
21
0.894132321311663
31
0.000000000000000
  0
LINE
  5
F10A42
330
F10A43
100
AcDbEntity
8
Geo
100
AcDbLine
10
-81.2519721577726
20
-10.1164603906520
30
0.000000000000000
11
-81.1519721577726
21
-10.1678547345358
31
0.000000000000000
  0
LINE
  5
F10A44
330
F10A45
100
AcDbEntity
8
Geo
100
AcDbLine
10
-81.1519721577726
20
0.894132321311663
30
0.000000000000000
11
-81.0519721577726
21
0.511662654084103
31
0.000000000000000
  0
LINE
  5
F10A46
330
F10A47
100
AcDbEntity
8
Geo
100
AcDbLine
10
-81.1519721577726
20
-10.1678547345358
30
0.000000000000000
11
-81.0519721577726
21
-10.2045586333919
31
0.000000000000000
  0
LINE
  5
F10A48
330
F10A49
100
AcDbEntity
8
Geo
100
AcDbLine
10
-81.0519721577726
20
0.511662654084103
30
0.000000000000000
11
-80.9519721577726
21
0.128063877817870
31
0.000000000000000
  0
LINE
  5
F10A4A
330
F10A4B
100
AcDbEntity
8
Geo
100
AcDbLine
10
-81.0519721577726
20
-10.2045586333919
30
0.000000000000000
11
-80.9519721577726
21
-10.2265177177866
31
0.000000000000000
  0
LINE
  5
F10A4C
330
F10A4D
100
AcDbEntity
8
Geo
100
AcDbLine
10
-80.9519721577726
20
0.128063877817870
30
0.000000000000000
11
-80.8519721577726
21
-0.256095783160016
31
0.000000000000000
  0
LINE
  5
F10A4E
330
F10A4F
100
AcDbEntity
8
Geo
100
AcDbLine
10
-80.8519721577726
20
9.73253936695172
30
0.000000000000000
11
-80.7519721577726
21
9.72493312819785
31
0.000000000000000
  0
LINE
  5
F10A50
330
F10A51
100
AcDbEntity
8
Geo
100
AcDbLine
10
-80.8519721577726
20
-0.256095783160016
30
0.000000000000000
11
-80.7519721577726
21
-0.640247273684814
31
0.000000000000000
  0
LINE
  5
F10A52
330
F10A53
100
AcDbEntity
8
Geo
100
AcDbLine
10
-80.7519721577726
20
9.72493312819785
30
0.000000000000000
11
-80.6519721577725
21
9.70255017582829
31
0.000000000000000
  0
LINE
  5
F10A54
330
F10A55
100
AcDbEntity
8
Geo
100
AcDbLine
10
-80.7519721577726
20
-0.640247273684814
30
0.000000000000000
11
-80.6519721577725
21
-1.02382155069466
31
0.000000000000000
  0
LINE
  5
F10A56
330
F10A57
100
AcDbEntity
8
Geo
100
AcDbLine
10
-80.6519721577725
20
9.70255017582829
30
0.000000000000000
11
-80.5519721577726
21
9.66542366567888
31
0.000000000000000
  0
LINE
  5
F10A58
330
F10A59
100
AcDbEntity
8
Geo
100
AcDbLine
10
-80.6519721577725
20
-1.02382155069466
30
0.000000000000000
11
-80.5519721577726
21
-1.40625042615326
31
0.000000000000000
  0
LINE
  5
F10A5A
330
F10A5B
100
AcDbEntity
8
Geo
100
AcDbLine
10
-80.5519721577726
20
9.66542366567888
30
0.000000000000000
11
-80.4519721577726
21
9.61360859319681
31
0.000000000000000
  0
LINE
  5
F10A5C
330
F10A5D
100
AcDbEntity
8
Geo
100
AcDbLine
10
-80.5519721577726
20
-1.40625042615326
30
0.000000000000000
11
-80.4519721577726
21
-1.78696740870603
31
0.000000000000000
  0
LINE
  5
F10A5E
330
F10A5F
100
AcDbEntity
8
Geo
100
AcDbLine
10
-80.4519721577726
20
9.61360859319681
30
0.000000000000000
11
-80.3519721577726
21
9.54718171197597
31
0.000000000000000
  0
LINE
  5
F10A60
330
F10A61
100
AcDbEntity
8
Geo
100
AcDbLine
10
-80.4519721577726
20
-1.78696740870603
30
0.000000000000000
11
-80.3519721577726
21
-2.16540854282292
31
0.000000000000000
  0
LINE
  5
F10A62
330
F10A63
100
AcDbEntity
8
Geo
100
AcDbLine
10
-80.3519721577726
20
9.54718171197597
30
0.000000000000000
11
-80.2519721577725
21
9.46624142006195
31
0.000000000000000
  0
LINE
  5
F10A64
330
F10A65
100
AcDbEntity
8
Geo
100
AcDbLine
10
-80.3519721577726
20
-2.16540854282292
30
0.000000000000000
11
-80.2519721577725
21
-2.54101324418496
31
0.000000000000000
  0
LINE
  5
F10A66
330
F10A67
100
AcDbEntity
8
Geo
100
AcDbLine
10
-80.2519721577725
20
9.46624142006195
30
0.000000000000000
11
-80.1519721577725
21
9.37090761419516
31
0.000000000000000
  0
LINE
  5
F10A68
330
F10A69
100
AcDbEntity
8
Geo
100
AcDbLine
10
-80.2519721577725
20
-2.54101324418496
30
0.000000000000000
11
-80.1519721577725
21
-2.91322513007706
31
0.000000000000000
  0
LINE
  5
F10A6A
330
F10A6B
100
AcDbEntity
8
Geo
100
AcDbLine
10
-80.1519721577725
20
9.37090761419516
30
0.000000000000000
11
-80.0519721577726
21
9.26132151220797
31
0.000000000000000
  0
LINE
  5
F10A6C
330
F10A6D
100
AcDbEntity
8
Geo
100
AcDbLine
10
-80.1519721577725
20
-2.91322513007706
30
0.000000000000000
11
-80.0519721577726
21
-3.28149284355689
31
0.000000000000000
  0
LINE
  5
F10A6E
330
F10A6F
100
AcDbEntity
8
Geo
100
AcDbLine
10
-80.0519721577726
20
9.26132151220797
30
0.000000000000000
11
-79.9519721577725
21
9.13764544383891
31
0.000000000000000
  0
LINE
  5
F10A70
330
F10A71
100
AcDbEntity
8
Geo
100
AcDbLine
10
-80.0519721577726
20
-3.28149284355689
30
0.000000000000000
11
-79.9519721577725
21
-3.64527087017915
31
0.000000000000000
  0
LINE
  5
F10A72
330
F10A73
100
AcDbEntity
8
Geo
100
AcDbLine
10
-79.9519721577725
20
9.13764544383891
30
0.000000000000000
11
-79.8519721577725
21
9.00006261027385
31
0.000000000000000
  0
LINE
  5
F10A74
330
F10A75
100
AcDbEntity
8
Geo
100
AcDbLine
10
-79.9519721577725
20
-3.64527087017915
30
0.000000000000000
11
-79.8519721577725
21
-4.00402034606533
31
0.000000000000000
  0
LINE
  5
F10A76
330
F10A77
100
AcDbEntity
8
Geo
100
AcDbLine
10
-79.8519721577725
20
9.00006261027385
30
0.000000000000000
11
-79.7519721577725
21
8.84877681277039
31
0.000000000000000
  0
LINE
  5
F10A78
330
F10A79
100
AcDbEntity
8
Geo
100
AcDbLine
10
-79.8519721577725
20
-4.00402034606533
30
0.000000000000000
11
-79.7519721577725
21
-4.35720985612209
31
0.000000000000000
  0
LINE
  5
F10A7A
330
F10A7B
100
AcDbEntity
8
Geo
100
AcDbLine
10
-79.7519721577725
20
8.84877681277039
30
0.000000000000000
11
-79.6519721577725
21
8.68401215076728
31
0.000000000000000
  0
LINE
  5
F10A7C
330
F10A7D
100
AcDbEntity
8
Geo
100
AcDbLine
10
-79.7519721577725
20
-4.35720985612209
30
0.000000000000000
11
-79.6519721577725
21
-4.70431622122567
31
0.000000000000000
  0
LINE
  5
F10A7E
330
F10A7F
100
AcDbEntity
8
Geo
100
AcDbLine
10
-79.6519721577725
20
8.68401215076728
30
0.000000000000000
11
-79.5519721577725
21
8.50601268992630
31
0.000000000000000
  0
LINE
  5
F10A80
330
F10A81
100
AcDbEntity
8
Geo
100
AcDbLine
10
-79.6519721577725
20
-4.70431622122567
30
0.000000000000000
11
-79.5519721577725
21
-5.04482527320625
31
0.000000000000000
  0
LINE
  5
F10A82
330
F10A83
100
AcDbEntity
8
Geo
100
AcDbLine
10
-79.5519721577725
20
8.50601268992630
30
0.000000000000000
11
-79.4519721577725
21
8.31504210059808
31
0.000000000000000
  0
LINE
  5
F10A84
330
F10A85
100
AcDbEntity
8
Geo
100
AcDbLine
10
-79.5519721577725
20
-5.04482527320625
30
0.000000000000000
11
-79.4519721577725
21
-5.37823261648478
31
0.000000000000000
  0
LINE
  5
F10A86
330
F10A87
100
AcDbEntity
8
Geo
100
AcDbLine
10
-79.4519721577725
20
8.31504210059808
30
0.000000000000000
11
-79.3519721577725
21
8.11138326724763
31
0.000000000000000
  0
LINE
  5
F10A88
330
F10A89
100
AcDbEntity
8
Geo
100
AcDbLine
10
-79.4519721577725
20
-5.37823261648478
30
0.000000000000000
11
-79.3519721577725
21
-5.70404437523319
31
0.000000000000000
  0
LINE
  5
F10A8A
330
F10A8B
100
AcDbEntity
8
Geo
100
AcDbLine
10
-79.3519721577725
20
8.11138326724763
30
0.000000000000000
11
-79.2519721577725
21
7.89533786941795
31
0.000000000000000
  0
LINE
  5
F10A8C
330
F10A8D
100
AcDbEntity
8
Geo
100
AcDbLine
10
-79.3519721577725
20
-5.70404437523319
30
0.000000000000000
11
-79.2519721577725
21
-6.02177792495216
31
0.000000000000000
  0
LINE
  5
F10A8E
330
F10A8F
100
AcDbEntity
8
Geo
100
AcDbLine
10
-79.2519721577725
20
7.89533786941795
30
0.000000000000000
11
-79.1519721577725
21
7.66722593485256
31
0.000000000000000
  0
LINE
  5
F10A90
330
F10A91
100
AcDbEntity
8
Geo
100
AcDbLine
10
-79.2519721577725
20
-6.02177792495216
30
0.000000000000000
11
-79.1519721577725
21
-6.33096260738200
31
0.000000000000000
  0
LINE
  5
F10A92
330
F10A93
100
AcDbEntity
8
Geo
100
AcDbLine
10
-97.1519721577725
20
-0.250580046403712
30
0.000000000000000
11
-97.1519721577725
21
-0.250580046403712
31
0.000000000000000
  0
LINE
  5
F10A94
330
F10A95
100
AcDbEntity
8
Geo
100
AcDbLine
10
-97.1519721577725
20
-0.250580046403712
30
0.000000000000000
11
-97.1519721577725
21
-0.250580046403712
31
0.000000000000000
  0
LINE
  5
F10A96
330
F10A97
100
AcDbEntity
8
Geo
100
AcDbLine
10
-98.1519721577725
20
-0.250580046403712
30
0.000000000000000
11
-97.8519721577725
21
-0.250580046403712
31
0.000000000000000
  0
LINE
  5
F10A98
330
F10A99
100
AcDbEntity
8
Geo
100
AcDbLine
10
-97.7244721577725
20
-0.250580046403712
30
0.000000000000000
11
-97.6394721577725
21
-0.250580046403712
31
0.000000000000000
  0
LINE
  5
F10A9A
330
F10A9B
100
AcDbEntity
8
Geo
100
AcDbLine
10
-97.4269721577725
20
-0.250580046403712
30
0.000000000000000
11
-97.0019721577725
21
-0.250580046403712
31
0.000000000000000
  0
LINE
  5
F10A9C
330
F10A9D
100
AcDbEntity
8
Geo
100
AcDbLine
10
-96.8744721577725
20
-0.250580046403712
30
0.000000000000000
11
-96.7894721577725
21
-0.250580046403712
31
0.000000000000000
  0
LINE
  5
F10A9E
330
F10A9F
100
AcDbEntity
8
Geo
100
AcDbLine
10
-96.5769721577725
20
-0.250580046403712
30
0.000000000000000
11
-96.1519721577725
21
-0.250580046403712
31
0.000000000000000
  0
LINE
  5
F10AA0
330
F10AA1
100
AcDbEntity
8
Geo
100
AcDbLine
10
4.84802784222748
20
9.24941995359629
30
0.000000000000000
11
4.84802784222748
21
-0.250580046403712
31
0.000000000000000
  0
LINE
  5
F10AA2
330
F10AA3
100
AcDbEntity
8
Geo
100
AcDbLine
10
-96.8205296197503
20
-0.250580046403712
30
0.000000000000000
11
-97.1516675712821
21
-9.73313029805246
31
0.000000000000000
  0
ARC
  5
F10AA4
330
F10AA5
100
AcDbEntity
8
Geo
100
AcDbCircle
10
-96.6519721577725
20
-9.75058004640371
30
0.000000000000000
 40
0.500000000000000
100
AcDbArc
 50
178.000000000000
 51
270.000000000000
  0
LINE
  5
F10AA6
330
F10AA7
100
AcDbEntity
8
Geo
100
AcDbLine
10
-96.6519721577725
20
-10.2505800464037
30
0.000000000000000
11
-74.1519721577725
21
-10.2505800464037
31
0.000000000000000
  0
LINE
  5
F10AA8
330
F10AA9
100
AcDbEntity
8
Geo
100
AcDbLine
10
-74.1519721577725
20
-10.2505800464037
30
0.000000000000000
11
-74.1519721577725
21
-9.85058004640371
31
0.000000000000000
  0
LINE
  5
F10AAA
330
F10AAB
100
AcDbEntity
8
Geo
100
AcDbLine
10
-74.1519721577725
20
-9.85058004640371
30
0.000000000000000
11
-55.1519721577725
21
-9.85058004640371
31
0.000000000000000
  0
LINE
  5
F10AAC
330
F10AAD
100
AcDbEntity
8
Geo
100
AcDbLine
10
-55.1519721577725
20
-9.85058004640371
30
0.000000000000000
11
-55.1519721577725
21
-10.2505800464037
31
0.000000000000000
  0
LINE
  5
F10AAE
330
F10AAF
100
AcDbEntity
8
Geo
100
AcDbLine
10
-55.1519721577725
20
-10.2505800464037
30
0.000000000000000
11
4.34802784222748
21
-10.2505800464037
31
0.000000000000000
  0
LINE
  5
F10AB0
330
F10AB1
100
AcDbEntity
8
Geo
100
AcDbLine
10
4.34802784222748
20
-10.2505800464037
30
0.000000000000000
11
4.84802784222748
21
-9.75058004640371
31
0.000000000000000
  0
LINE
  5
F10AB2
330
F10AB3
100
AcDbEntity
8
Geo
100
AcDbLine
10
-96.6519721577725
20
9.74941995359629
30
0.000000000000000
11
-96.6519721577725
21
-10.2505800464037
31
0.000000000000000
  0
LINE
  5
F10AB4
330
F10AB5
100
AcDbEntity
8
Geo
100
AcDbLine
10
-96.6519721577725
20
9.74941995359629
30
0.000000000000000
11
-96.6519721577725
21
-10.2505800464037
31
0.000000000000000
  0
LINE
  5
F10AB6
330
F10AB7
100
AcDbEntity
8
Geo
100
AcDbLine
10
-74.1519721577725
20
9.74941995359629
30
0.000000000000000
11
-74.1519721577725
21
-10.2505800464037
31
0.000000000000000
  0
LINE
  5
F10AB8
330
F10AB9
100
AcDbEntity
8
Geo
100
AcDbLine
10
-74.1519721577725
20
9.34941995359629
30
0.000000000000000
11
-74.1519721577725
21
-9.85058004640371
31
0.000000000000000
  0
LINE
  5
F10ABA
330
F10ABB
100
AcDbEntity
8
Geo
100
AcDbLine
10
-55.1519721577725
20
9.34941995359629
30
0.000000000000000
11
-55.1519721577725
21
-9.85058004640371
31
0.000000000000000
  0
LINE
  5
F10ABC
330
F10ABD
100
AcDbEntity
8
Geo
100
AcDbLine
10
-55.1519721577725
20
9.34941995359629
30
0.000000000000000
11
-55.1519721577725
21
-9.85058004640371
31
0.000000000000000
  0
LINE
  5
F10ABE
330
F10ABF
100
AcDbEntity
8
Geo
100
AcDbLine
10
4.34802784222748
20
9.74941995359629
30
0.000000000000000
11
4.34802784222748
21
-10.2505800464037
31
0.000000000000000
  0
LINE
  5
F10AC0
330
F10AC1
100
AcDbEntity
8
Geo
100
AcDbLine
10
4.84802784222748
20
9.24941995359629
30
0.000000000000000
11
4.84802784222748
21
-9.75058004640371
31
0.000000000000000
  0
LWPOLYLINE
  5
F10AC2
330
F10AC3
100
AcDbEntity
8
Rahmen
100
AcDbPolyline
90
   4
70
   1
43
   0.0
 10
-125.540603248260
 20
102.988399071926
 10
134.310904872390
 20
102.988399071926
 10
134.310904872390
 20
-102.988399071926
 10
-125.540603248260
 20
-102.988399071926
  0
TEXT
  5
F10AC4
330
F10AC5
 100
AcDbEntity
8
Text
100
AcDbText
10
-124.538283062645
20
-102.488399071926
30
0.000000000000000
40
1.00000000000000
1
ISBESketcher
100
AcDbText
  0
LWPOLYLINE
  5
F10AC6
330
F10AC7
100
AcDbEntity
8
Rahmen
100
AcDbPolyline
90
   4
70
   1
43
   0.0
 10
94.4686774941996
 20
-100.232018561485
 10
134.310904872390
 20
-100.232018561485
 10
134.310904872390
 20
-102.988399071926
 10
94.4686774941996
 20
-102.988399071926
  0
TEXT
  5
F10AC8
330
F10AC9
 100
AcDbEntity
8
Text
100
AcDbText
10
95.5000000000000
20
-102.001740139211
30
0.000000000000000
40
0.750000000000000
1
Created by:
100
AcDbText
  0
TEXT
  5
F10ACA
330
F10ACB
 100
AcDbEntity
8
Text
100
AcDbText
10
120.119489559165
20
-102.001740139211
30
0.000000000000000
40
0.750000000000000
1
nsarkol
100
AcDbText
  0
LWPOLYLINE
  5
F10ACC
330
F10ACD
100
AcDbEntity
8
Rahmen
100
AcDbPolyline
90
   4
70
   1
43
   0.0
 10
54.3758700696056
 20
-100.232018561485
 10
94.4686774941996
 20
-100.232018561485
 10
94.4686774941996
 20
-102.988399071926
 10
54.3758700696056
 20
-102.988399071926
  0
TEXT
  5
F10ACE
330
F10ACF
 100
AcDbEntity
8
Text
100
AcDbText
10
55.5000000000000
20
-102.001740139211
30
0.000000000000000
40
0.750000000000000
1
Created for:
100
AcDbText
  0
TEXT
  5
F10AD0
330
F10AD1
 100
AcDbEntity
8
Text
100
AcDbText
10
0.000000000000000
20
0.250000000000000
30
0.000000000000000
40
0.750000000000000
1

100
AcDbText
  0
LWPOLYLINE
  5
F10AD2
330
F10AD3
100
AcDbEntity
8
Rahmen
100
AcDbPolyline
90
   4
70
   1
43
   0.0
 10
121.030162412993
 20
-97.2250580046404
 10
134.310904872390
 20
-97.2250580046404
 10
134.310904872390
 20
-100.232018561485
 10
121.030162412993
 20
-100.232018561485
  0
TEXT
  5
F10AD4
330
F10AD5
 100
AcDbEntity
8
Text
100
AcDbText
10
122.166666666667
20
-99.0017401392111
30
0.000000000000000
40
0.750000000000000
1
Pages
100
AcDbText
  0
TEXT
  5
F10AD6
330
F10AD7
 100
AcDbEntity
8
Text
100
AcDbText
10
0.000000000000000
20
0.250000000000000
30
0.000000000000000
40
0.750000000000000
1

100
AcDbText
  0
LWPOLYLINE
  5
F10AD8
330
F10AD9
100
AcDbEntity
8
Rahmen
100
AcDbPolyline
90
   4
70
   1
43
   0.0
 10
121.030162412993
 20
-94.2180974477958
 10
134.310904872390
 20
-94.2180974477958
 10
134.310904872390
 20
-97.2250580046404
 10
121.030162412993
 20
-97.2250580046404
  0
TEXT
  5
F10ADA
330
F10ADB
 100
AcDbEntity
8
Text
100
AcDbText
10
122.166666666667
20
-96.0017401392111
30
0.000000000000000
40
0.750000000000000
1
Page
100
AcDbText
  0
TEXT
  5
F10ADC
330
F10ADD
 100
AcDbEntity
8
Text
100
AcDbText
10
0.000000000000000
20
0.250000000000000
30
0.000000000000000
40
0.750000000000000
1

100
AcDbText
  0
LWPOLYLINE
  5
F10ADE
330
F10ADF
100
AcDbEntity
8
Rahmen
100
AcDbPolyline
90
   4
70
   1
43
   0.0
 10
54.3758700696056
 20
-94.2180974477958
 10
121.030162412993
 20
-94.2180974477958
 10
121.030162412993
 20
-100.232018561485
 10
54.3758700696056
 20
-100.232018561485
  0
TEXT
  5
F10AE0
330
F10AE1
 100
AcDbEntity
8
Text
100
AcDbText
10
55.5000000000000
20
-96.0017401392111
30
0.000000000000000
40
0.750000000000000
1
Date:
100
AcDbText
  0
TEXT
  5
F10AE2
330
F10AE3
 100
AcDbEntity
8
Text
100
AcDbText
10
84.4505027068832
20
-99.0017401392111
30
0.000000000000000
40
0.750000000000000
1
05.07.2016
100
AcDbText
  0
LWPOLYLINE
  5
F10AE4
330
F10AE5
100
AcDbEntity
8
Rahmen
100
AcDbPolyline
90
   4
70
   1
43
   0.0
 10
54.3758700696056
 20
-88.2041763341067
 10
134.310904872390
 20
-88.2041763341067
 10
134.310904872390
 20
-94.2180974477958
 10
54.3758700696056
 20
-94.2180974477958
  0
TEXT
  5
F10AE6
330
F10AE7
 100
AcDbEntity
8
Text
100
AcDbText
10
0.000000000000000
20
0.500000000000000
30
0.000000000000000
40
1.50000000000000
1

100
AcDbText
  0
TEXT
  5
F10AE8
330
F10AE9
 100
AcDbEntity
8
Text
100
AcDbText
10
67.3120649651972
20
-92.5471771075019
30
0.000000000000000
40
2.50000000000000
1
VHRS 5 200 102 20 03 050 S
100
AcDbText
  0
LWPOLYLINE
  5
F10AEA
330
F10AEB
100
AcDbEntity
8
Rahmen
100
AcDbPolyline
90
   4
70
   1
43
   0.0
 10
94.4686774941996
 20
-82.1902552204177
 10
134.310904872390
 20
-82.1902552204177
 10
134.310904872390
 20
-88.2041763341067
 10
94.4686774941996
 20
-88.2041763341067
  0
TEXT
  5
F10AEC
330
F10AED
 100
AcDbEntity
8
Text
100
AcDbText
10
95.5000000000000
20
-84.0017401392111
30
0.000000000000000
40
0.750000000000000
1
Work piece material:
100
AcDbText
  0
TEXT
  5
F10AEE
330
F10AEF
 100
AcDbEntity
8
Text
100
AcDbText
10
0.000000000000000
20
0.250000000000000
30
0.000000000000000
40
0.750000000000000
1

100
AcDbText
  0
LWPOLYLINE
  5
F10AF0
330
F10AF1
100
AcDbEntity
8
Rahmen
100
AcDbPolyline
90
   4
70
   1
43
   0.0
 10
54.3758700696056
 20
-82.1902552204177
 10
94.4686774941996
 20
-82.1902552204177
 10
94.4686774941996
 20
-88.2041763341067
 10
54.3758700696056
 20
-88.2041763341067
  0
TEXT
  5
F10AF2
330
F10AF3
 100
AcDbEntity
8
Text
100
AcDbText
10
55.5000000000000
20
-84.0017401392111
30
0.000000000000000
40
0.750000000000000
1
Tool material:
100
AcDbText
  0
TEXT
  5
F10AF4
330
F10AF5
 100
AcDbEntity
8
Text
100
AcDbText
10
0.000000000000000
20
0.250000000000000
30
0.000000000000000
40
0.750000000000000
1

100
AcDbText
  0
LWPOLYLINE
  5
F10AF6
330
F10AF7
100
AcDbEntity
8
Rahmen
100
AcDbPolyline
90
   4
70
   1
43
   0.0
 10
94.4686774941996
 20
-79.1832946635731
 10
134.310904872390
 20
-79.1832946635731
 10
134.310904872390
 20
-82.1902552204177
 10
94.4686774941996
 20
-82.1902552204177
  0
TEXT
  5
F10AF8
330
F10AF9
 100
AcDbEntity
8
Text
100
AcDbText
10
0.000000000000000
20
0.500000000000000
30
0.000000000000000
40
1.50000000000000
1

100
AcDbText
  0
TEXT
  5
F10AFA
330
F10AFB
 100
AcDbEntity
8
Text
100
AcDbText
10
0.000000000000000
20
0.250000000000000
30
0.000000000000000
40
0.750000000000000
1

100
AcDbText
  0
LWPOLYLINE
  5
F10AFC
330
F10AFD
100
AcDbEntity
8
Rahmen
100
AcDbPolyline
90
   4
70
   1
43
   0.0
 10
54.3758700696056
 20
-79.1832946635731
 10
94.4686774941996
 20
-79.1832946635731
 10
94.4686774941996
 20
-82.1902552204177
 10
54.3758700696056
 20
-82.1902552204177
  0
TEXT
  5
F10AFE
330
F10AFF
 100
AcDbEntity
8
Text
100
AcDbText
10
55.5000000000000
20
-81.0017401392111
30
0.000000000000000
40
0.750000000000000
1
Scale:
100
AcDbText
  0
TEXT
  5
F10B00
330
F10B01
 100
AcDbEntity
8
Text
100
AcDbText
10
81.2470997679814
20
-81.0017401392111
30
0.000000000000000
40
0.750000000000000
1
2 : 1
100
AcDbText
0
VIEWPORT
5
294
102
{ACAD_XDICTIONARY
360
58A
102
}
330
25D
100
AcDbEntity
67
1
8
0
60
1
100
AcDbViewport
10
0.0
20
0.0
30
0.0
40
10.0
41
10.0
68
-1
69
1
12
0.0
22
0.0
13
0.0
23
0.0
14
1.0
24
1.0
15
0.0
25
0.0
16
0.0
26
0.0
36
1.0
17
0.0
27
0.0
37
0.0
42
0.0
43
0.0
44
0.0
45
10.0
50
0.0
51
0.0000000000007958
72
100
90
32800
1

281
0
71
0
74
0
110
0.0
120
0.0
130
0.0
111
1.0
121
0.0
131
0.0
112
0.0
122
1.0
132
0.0
79
0
146
0.0
1001
VD_INVISIBLE_NOT_FOR_READ
1000
VD_INVISIBLE_NOT_FOR_READ
0
VIEWPORT
5
295
102
{ACAD_XDICTIONARY
360
58C
102
}
330
25D
100
AcDbEntity
67
1
8
0
60
1
100
AcDbViewport
10
0.0
20
0.0
30
0.0
40
10.0
41
10.0
68
0
69
2
12
0.0
22
0.0
13
0.0
23
0.0
14
1.0
24
1.0
15
0.0
25
0.0
16
0.0
26
0.0
36
1.0
17
0.0
27
0.0
37
0.0
42
0.0
43
0.0
44
0.0
45
10.0
50
0.0
51
0.0000000000007958
72
100
90
163872
1

281
0
71
0
74
0
110
0.0
120
0.0
130
0.0
111
1.0
121
0.0
131
0.0
112
0.0
122
1.0
132
0.0
79
0
146
0.0
1001
VD_INVISIBLE_NOT_FOR_READ
1000
VD_INVISIBLE_NOT_FOR_READ
0
ENDSEC
0
SECTION
2
OBJECTS
0
DICTIONARY
5
13
330
0
100
AcDbDictionary
281
1
3
ACAD_COLOR
350
FA7
3
ACAD_GROUP
350
14
3
ACAD_LAYOUT
350
FCF
3
ACAD_MATERIAL
350
F7A
3
ACAD_MLEADERSTYLE
350
FCD
3
ACAD_MLINESTYLE
350
16
3
ACAD_PLOTSETTINGS
350
17
3
ACAD_PLOTSTYLENAME
350
18
3
ACAD_SCALELIST
350
FAB
3
ACAD_TABLESTYLE
350
FA8
3
ACAD_VISUALSTYLE
350
F93
3
ACDB_RECOMPOSE_DATA
350
107E
3
AcDbVariableDictionary
350
FF0
3
DWGPROPS
350
107F
0
DICTIONARY
5
F10019
330
F10018
100
AcDbDictionary
280
1
281
1
3
ACAD_MTEXT_2008_RT
360
F1001A
0
DICTIONARY
5
F1001E
330
F1001D
100
AcDbDictionary
280
1
281
1
3
ACAD_MTEXT_2008_RT
360
F1001F
0
DICTIONARY
5
F10028
330
F10027
100
AcDbDictionary
280
1
281
1
3
ACAD_MTEXT_2008_RT
360
F10029
0
DICTIONARY
5
F1002D
330
F1002C
100
AcDbDictionary
280
1
281
1
3
ACAD_MTEXT_2008_RT
360
F1002E
0
DICTIONARY
5
F10005
330
F10004
100
AcDbDictionary
280
1
281
1
3
ACAD_MTEXT_2008_RT
360
F10006
0
DICTIONARY
5
F1000F
330
F1000E
100
AcDbDictionary
280
1
281
1
3
ACAD_MTEXT_2008_RT
360
F10010
0
DICTIONARY
5
F1000A
330
F10009
100
AcDbDictionary
280
1
281
1
3
ACAD_MTEXT_2008_RT
360
F1000B
0
DICTIONARY
5
F10014
330
F10013
100
AcDbDictionary
280
1
281
1
3
ACAD_MTEXT_2008_RT
360
F10015
0
DICTIONARY
5
F10023
330
F10022
100
AcDbDictionary
280
1
281
1
3
ACAD_MTEXT_2008_RT
360
F10024
0
DICTIONARY
5
FA7
102
{ACAD_REACTORS
330
13
102
}
330
13
100
AcDbDictionary
281
1
0
DICTIONARY
5
14
330
13
100
AcDbDictionary
281
1
0
DICTIONARY
5
FCF
102
{ACAD_REACTORS
330
13
102
}
330
13
100
AcDbDictionary
281
1
3
Layout1
350
FD1
3
Model
350
FD0
0
DICTIONARY
5
F7A
102
{ACAD_REACTORS
330
13
102
}
330
13
100
AcDbDictionary
281
1
3
ByBlock
350
F83
3
ByLayer
350
F7B
3
Global
350
F8B
0
DICTIONARY
5
FCD
102
{ACAD_REACTORS
330
13
102
}
330
13
100
AcDbDictionary
281
1
3
Standard
350
FCE
0
DICTIONARY
5
16
330
13
100
AcDbDictionary
281
1
3
Standard
350
FAA
0
DICTIONARY
5
17
102
{ACAD_REACTORS
330
13
102
}
330
13
100
AcDbDictionary
281
1
0
ACDBDICTIONARYWDFLT
5
18
102
{ACAD_REACTORS
330
13
102
}
330
13
100
AcDbDictionary
281
1
3
Normal
350
19
100
AcDbDictionaryWithDefault
340
19
0
DICTIONARY
5
FAB
102
{ACAD_REACTORS
330
13
102
}
330
13
100
AcDbDictionary
281
1
3
A0
350
FAC
3
A1
350
FAD
3
A2
350
FAE
3
A3
350
FAF
3
A4
350
FB0
3
A5
350
FB1
3
A6
350
FB2
3
A7
350
FB3
3
A8
350
FB4
3
A9
350
FB5
3
B0
350
FB6
3
B1
350
FB7
3
B2
350
FB8
3
B3
350
FB9
3
B4
350
FBA
3
B5
350
FBB
3
B6
350
FBC
3
B7
350
FBD
3
B8
350
FBE
3
B9
350
FBF
3
C0
350
FC0
3
C1
350
FC1
3
C2
350
FC2
3
C3
350
FC3
3
C4
350
FC4
3
C5
350
FC5
3
C6
350
FC6
3
C7
350
FC7
3
C8
350
FC8
3
C9
350
FC9
3
D0
350
FCA
3
D1
350
FCB
3
D2
350
FCC
0
DICTIONARY
5
FA8
102
{ACAD_REACTORS
330
13
102
}
330
13
100
AcDbDictionary
281
1
3
Standard
350
FA9
0
DICTIONARY
5
F93
102
{ACAD_REACTORS
330
13
102
}
330
13
100
AcDbDictionary
281
1
3
2dWireframe
350
F99
3
3D Hidden
350
F9B
3
3dWireframe
350
F9A
3
Basic
350
F98
3
Brighten
350
F9F
3
ColorChange
350
FA3
3
Conceptual
350
F9C
3
Dim
350
F9E
3
EdgeColorOff
350
FA6
3
Facepattern
350
FA2
3
Flat
350
F94
3
FlatWithEdges
350
F95
3
Gouraud
350
F96
3
GouraudWithEdges
350
F97
3
JitterOff
350
FA4
3
Linepattern
350
FA1
3
OverhangOff
350
FA5
3
Realistic
350
F9D
3
Thicken
350
FA0
0
XRECORD
5
107E
102
{ACAD_REACTORS
330
13
102
}
330
13
100
AcDbXrecord
280
1
90
1
330
FA9
330
F10018
330
F1001D
330
F10027
330
F1002C
330
F10004
330
F1000E
330
F10009
330
F10013
330
F10022
0
XRECORD
5
F1001A
102
{ACAD_REACTORS
330
F10019
102
}
330
F10019
100
AcDbXrecord
280
1
40
48458.0
1
42
0
XRECORD
5
F1001F
102
{ACAD_REACTORS
330
F1001E
102
}
330
F1001E
100
AcDbXrecord
280
1
40
48458.0
1
60
0
XRECORD
5
F10029
102
{ACAD_REACTORS
330
F10028
102
}
330
F10028
100
AcDbXrecord
280
1
40
48458.0
1
23
0
XRECORD
5
F1002E
102
{ACAD_REACTORS
330
F1002D
102
}
330
F1002D
100
AcDbXrecord
280
1
40
48458.0
1
102
0
XRECORD
5
F10006
102
{ACAD_REACTORS
330
F10005
102
}
330
F10005
100
AcDbXrecord
280
1
40
48458.0
1
2°
0
XRECORD
5
F10010
102
{ACAD_REACTORS
330
F1000F
102
}
330
F1000F
100
AcDbXrecord
280
1
40
48458.0
1
R0.5
0
XRECORD
5
F1000B
102
{ACAD_REACTORS
330
F1000A
102
}
330
F1000A
100
AcDbXrecord
280
1
40
48458.0
1
20
0
XRECORD
5
F10015
102
{ACAD_REACTORS
330
F10014
102
}
330
F10014
100
AcDbXrecord
280
1
40
48458.0
1
19.2
0
LAYOUT
5
FD1
102
{ACAD_XDICTIONARY
360
10A9
102
}
102
{ACAD_REACTORS
330
FCF
102
}
330
FCF
100
AcDbPlotSettings
1

2
Microsoft XPS Document Writer
4

6

40
0.0
41
0.0
42
0.0
43
0.0
44
0.0
45
0.0
46
0.0
47
0.0
48
0.0
49
0.0
140
0.0
141
0.0
142
1.0
143
1.0
70
688
72
0
73
0
74
5
7

75
16
147
1.0
148
0.0
149
0.0
100
AcDbLayout
1
Layout1
70
1
71
1
10
0.0
20
0.0
11
12.0
21
9.0
12
0.0
22
0.0
32
0.0
14
1.000000000000000E+20
24
1.000000000000000E+20
34
1.000000000000000E+20
15
-1.000000000000000E+20
25
-1.000000000000000E+20
35
-1.000000000000000E+20
146
0.0
13
0.0
23
0.0
33
0.0
16
1.0
26
0.0
36
0.0
17
0.0
27
1.0
37
0.0
76
0
330
25D
0
LAYOUT
5
FD0
102
{ACAD_XDICTIONARY
360
10A7
102
}
102
{ACAD_REACTORS
330
FCF
102
}
330
FCF
100
AcDbPlotSettings
1

2
Microsoft XPS Document Writer
4

6

40
0.0
41
0.0
42
0.0
43
0.0
44
0.0
45
0.0
46
0.0
47
0.0
48
0.0
49
0.0
140
0.0
141
0.0
142
1.0
143
1.0
70
1712
72
0
73
0
74
0
7

75
0
147
1.0
148
0.0
149
0.0
100
AcDbLayout
1
Model
70
1
71
0
10
0.0
20
0.0
11
12.0
21
9.0
12
0.0
22
0.0
32
0.0
14
0.0
24
0.0
34
0.0
15
0.0
25
0.0
35
0.0
146
0.0
13
0.0
23
0.0
33
0.0
16
1.0
26
0.0
36
0.0
17
0.0
27
1.0
37
0.0
76
0
330
261
331
26B
0
MATERIAL
5
F83
102
{ACAD_XDICTIONARY
360
F84
102
}
102
{ACAD_REACTORS
330
F7A
102
}
330
F7A
100
AcDbMaterial
1
ByBlock
72
0
43
0.0208333333333333
43
0.0
43
0.0
43
0.0
43
0.0
43
0.0208333333333333
43
0.0
43
0.0
43
0.0
43
0.0
43
1.0
43
0.0
43
0.0
43
0.0
43
0.0
43
1.0
77
0
47
0.0208333333333333
47
0.0
47
0.0
47
0.0
47
0.0
47
0.0208333333333333
47
0.0
47
0.0
47
0.0
47
0.0
47
1.0
47
0.0
47
0.0
47
0.0
47
0.0
47
1.0
171
0
49
0.0208333333333333
49
0.0
49
0.0
49
0.0
49
0.0
49
0.0208333333333333
49
0.0
49
0.0
49
0.0
49
0.0
49
1.0
49
0.0
49
0.0
49
0.0
49
0.0
49
1.0
175
0
142
0.0208333333333333
142
0.0
142
0.0
142
0.0
142
0.0
142
0.0208333333333333
142
0.0
142
0.0
142
0.0
142
0.0
142
1.0
142
0.0
142
0.0
142
0.0
142
0.0
142
1.0
179
0
144
0.0208333333333333
144
0.0
144
0.0
144
0.0
144
0.0
144
0.0208333333333333
144
0.0
144
0.0
144
0.0
144
0.0
144
1.0
144
0.0
144
0.0
144
0.0
144
0.0
144
1.0
147
0.0208333333333333
147
0.0
147
0.0
147
0.0
147
0.0
147
0.0208333333333333
147
0.0
147
0.0
147
0.0
147
0.0
147
1.0
147
0.0
147
0.0
147
0.0
147
0.0
147
1.0
0
MATERIAL
5
F7B
102
{ACAD_XDICTIONARY
360
F7C
102
}
102
{ACAD_REACTORS
330
F7A
102
}
330
F7A
100
AcDbMaterial
1
ByLayer
72
0
43
0.0208333333333333
43
0.0
43
0.0
43
0.0
43
0.0
43
0.0208333333333333
43
0.0
43
0.0
43
0.0
43
0.0
43
1.0
43
0.0
43
0.0
43
0.0
43
0.0
43
1.0
77
0
47
0.0208333333333333
47
0.0
47
0.0
47
0.0
47
0.0
47
0.0208333333333333
47
0.0
47
0.0
47
0.0
47
0.0
47
1.0
47
0.0
47
0.0
47
0.0
47
0.0
47
1.0
171
0
49
0.0208333333333333
49
0.0
49
0.0
49
0.0
49
0.0
49
0.0208333333333333
49
0.0
49
0.0
49
0.0
49
0.0
49
1.0
49
0.0
49
0.0
49
0.0
49
0.0
49
1.0
175
0
142
0.0208333333333333
142
0.0
142
0.0
142
0.0
142
0.0
142
0.0208333333333333
142
0.0
142
0.0
142
0.0
142
0.0
142
1.0
142
0.0
142
0.0
142
0.0
142
0.0
142
1.0
179
0
144
0.0208333333333333
144
0.0
144
0.0
144
0.0
144
0.0
144
0.0208333333333333
144
0.0
144
0.0
144
0.0
144
0.0
144
1.0
144
0.0
144
0.0
144
0.0
144
0.0
144
1.0
147
0.0208333333333333
147
0.0
147
0.0
147
0.0
147
0.0
147
0.0208333333333333
147
0.0
147
0.0
147
0.0
147
0.0
147
1.0
147
0.0
147
0.0
147
0.0
147
0.0
147
1.0
0
MATERIAL
5
F8B
102
{ACAD_XDICTIONARY
360
F8C
102
}
102
{ACAD_REACTORS
330
F7A
102
}
330
F7A
100
AcDbMaterial
1
Global
72
0
43
0.0208333333333333
43
0.0
43
0.0
43
0.0
43
0.0
43
0.0208333333333333
43
0.0
43
0.0
43
0.0
43
0.0
43
1.0
43
0.0
43
0.0
43
0.0
43
0.0
43
1.0
77
0
47
0.0208333333333333
47
0.0
47
0.0
47
0.0
47
0.0
47
0.0208333333333333
47
0.0
47
0.0
47
0.0
47
0.0
47
1.0
47
0.0
47
0.0
47
0.0
47
0.0
47
1.0
171
0
49
0.0208333333333333
49
0.0
49
0.0
49
0.0
49
0.0
49
0.0208333333333333
49
0.0
49
0.0
49
0.0
49
0.0
49
1.0
49
0.0
49
0.0
49
0.0
49
0.0
49
1.0
175
0
142
0.0208333333333333
142
0.0
142
0.0
142
0.0
142
0.0
142
0.0208333333333333
142
0.0
142
0.0
142
0.0
142
0.0
142
1.0
142
0.0
142
0.0
142
0.0
142
0.0
142
1.0
179
0
144
0.0208333333333333
144
0.0
144
0.0
144
0.0
144
0.0
144
0.0208333333333333
144
0.0
144
0.0
144
0.0
144
0.0
144
1.0
144
0.0
144
0.0
144
0.0
144
0.0
144
1.0
147
0.0208333333333333
147
0.0
147
0.0
147
0.0
147
0.0
147
0.0208333333333333
147
0.0
147
0.0
147
0.0
147
0.0
147
1.0
147
0.0
147
0.0
147
0.0
147
0.0
147
1.0
0
MLEADERSTYLE
5
FCE
102
{ACAD_REACTORS
330
FCD
102
}
330
FCD
100
AcDbMLeaderStyle
170
2
171
1
172
0
90
2
40
0.0
41
0.0
173
1
91
-1056964608
340
256
92
-2
290
1
42
0.09
291
1
43
0.36
3
Standard
44
0.18
300

342
253
174
1
178
6
175
1
176
0
93
-1056964608
45
0.18
292
0
297
0
46
0.18
94
-1056964608
47
1.0
49
1.0
140
1.0
293
1
141
0.0
294
1
177
0
142
1.0
295
0
296
0
143
0.125
1001
ACAD_MLEADERVER
1070
2
0
MLINESTYLE
5
FAA
102
{ACAD_REACTORS
330
16
102
}
330
16
100
AcDbMlineStyle
2
STANDARD
70
0
3

62
256
51
90.0
52
90.0
71
2
49
0.5
62
256
6
BYLAYER
49
-0.5
62
256
6
BYLAYER
0
ACDBPLACEHOLDER
5
19
102
{ACAD_REACTORS
330
18
102
}
330
18
0
SCALE
5
FAC
102
{ACAD_REACTORS
330
FAB
102
}
330
FAB
100
AcDbScale
70
0
300
1:1
140
1.0
141
1.0
290
1
0
SCALE
5
FAD
102
{ACAD_REACTORS
330
FAB
102
}
330
FAB
100
AcDbScale
70
0
300
1:2
140
1.0
141
2.0
290
0
0
SCALE
5
FAE
102
{ACAD_REACTORS
330
FAB
102
}
330
FAB
100
AcDbScale
70
0
300
1:4
140
1.0
141
4.0
290
0
0
SCALE
5
FAF
102
{ACAD_REACTORS
330
FAB
102
}
330
FAB
100
AcDbScale
70
0
300
1:5
140
1.0
141
5.0
290
0
0
SCALE
5
FB0
102
{ACAD_REACTORS
330
FAB
102
}
330
FAB
100
AcDbScale
70
0
300
1:8
140
1.0
141
8.0
290
0
0
SCALE
5
FB1
102
{ACAD_REACTORS
330
FAB
102
}
330
FAB
100
AcDbScale
70
0
300
1:10
140
1.0
141
10.0
290
0
0
SCALE
5
FB2
102
{ACAD_REACTORS
330
FAB
102
}
330
FAB
100
AcDbScale
70
0
300
1:16
140
1.0
141
16.0
290
0
0
SCALE
5
FB3
102
{ACAD_REACTORS
330
FAB
102
}
330
FAB
100
AcDbScale
70
0
300
1:20
140
1.0
141
20.0
290
0
0
SCALE
5
FB4
102
{ACAD_REACTORS
330
FAB
102
}
330
FAB
100
AcDbScale
70
0
300
1:30
140
1.0
141
30.0
290
0
0
SCALE
5
FB5
102
{ACAD_REACTORS
330
FAB
102
}
330
FAB
100
AcDbScale
70
0
300
1:40
140
1.0
141
40.0
290
0
0
SCALE
5
FB6
102
{ACAD_REACTORS
330
FAB
102
}
330
FAB
100
AcDbScale
70
0
300
1:50
140
1.0
141
50.0
290
0
0
SCALE
5
FB7
102
{ACAD_REACTORS
330
FAB
102
}
330
FAB
100
AcDbScale
70
0
300
1:100
140
1.0
141
100.0
290
0
0
SCALE
5
FB8
102
{ACAD_REACTORS
330
FAB
102
}
330
FAB
100
AcDbScale
70
0
300
2:1
140
2.0
141
1.0
290
0
0
SCALE
5
FB9
102
{ACAD_REACTORS
330
FAB
102
}
330
FAB
100
AcDbScale
70
0
300
4:1
140
4.0
141
1.0
290
0
0
SCALE
5
FBA
102
{ACAD_REACTORS
330
FAB
102
}
330
FAB
100
AcDbScale
70
0
300
8:1
140
8.0
141
1.0
290
0
0
SCALE
5
FBB
102
{ACAD_REACTORS
330
FAB
102
}
330
FAB
100
AcDbScale
70
0
300
10:1
140
10.0
141
1.0
290
0
0
SCALE
5
FBC
102
{ACAD_REACTORS
330
FAB
102
}
330
FAB
100
AcDbScale
70
0
300
100:1
140
100.0
141
1.0
290
0
0
SCALE
5
FBD
102
{ACAD_REACTORS
330
FAB
102
}
330
FAB
100
AcDbScale
70
0
300
1/128" = 1'-0"
140
0.0078125
141
12.0
290
0
0
SCALE
5
FBE
102
{ACAD_REACTORS
330
FAB
102
}
330
FAB
100
AcDbScale
70
0
300
1/64" = 1'-0"
140
0.015625
141
12.0
290
0
0
SCALE
5
FBF
102
{ACAD_REACTORS
330
FAB
102
}
330
FAB
100
AcDbScale
70
0
300
1/32" = 1'-0"
140
0.03125
141
12.0
290
0
0
SCALE
5
FC0
102
{ACAD_REACTORS
330
FAB
102
}
330
FAB
100
AcDbScale
70
0
300
1/16" = 1'-0"
140
0.0625
141
12.0
290
0
0
SCALE
5
FC1
102
{ACAD_REACTORS
330
FAB
102
}
330
FAB
100
AcDbScale
70
0
300
3/32" = 1'-0"
140
0.09375
141
12.0
290
0
0
SCALE
5
FC2
102
{ACAD_REACTORS
330
FAB
102
}
330
FAB
100
AcDbScale
70
0
300
1/8" = 1'-0"
140
0.125
141
12.0
290
0
0
SCALE
5
FC3
102
{ACAD_REACTORS
330
FAB
102
}
330
FAB
100
AcDbScale
70
0
300
3/16" = 1'-0"
140
0.1875
141
12.0
290
0
0
SCALE
5
FC4
102
{ACAD_REACTORS
330
FAB
102
}
330
FAB
100
AcDbScale
70
0
300
1/4" = 1'-0"
140
0.25
141
12.0
290
0
0
SCALE
5
FC5
102
{ACAD_REACTORS
330
FAB
102
}
330
FAB
100
AcDbScale
70
0
300
3/8" = 1'-0"
140
0.375
141
12.0
290
0
0
SCALE
5
FC6
102
{ACAD_REACTORS
330
FAB
102
}
330
FAB
100
AcDbScale
70
0
300
1/2" = 1'-0"
140
0.5
141
12.0
290
0
0
SCALE
5
FC7
102
{ACAD_REACTORS
330
FAB
102
}
330
FAB
100
AcDbScale
70
0
300
3/4" = 1'-0"
140
0.75
141
12.0
290
0
0
SCALE
5
FC8
102
{ACAD_REACTORS
330
FAB
102
}
330
FAB
100
AcDbScale
70
0
300
1" = 1'-0"
140
1.0
141
12.0
290
0
0
SCALE
5
FC9
102
{ACAD_REACTORS
330
FAB
102
}
330
FAB
100
AcDbScale
70
0
300
1-1/2" = 1'-0"
140
1.5
141
12.0
290
0
0
SCALE
5
FCA
102
{ACAD_REACTORS
330
FAB
102
}
330
FAB
100
AcDbScale
70
0
300
3" = 1'-0"
140
3.0
141
12.0
290
0
0
SCALE
5
FCB
102
{ACAD_REACTORS
330
FAB
102
}
330
FAB
100
AcDbScale
70
0
300
6" = 1'-0"
140
6.0
141
12.0
290
0
0
SCALE
5
FCC
102
{ACAD_REACTORS
330
FAB
102
}
330
FAB
100
AcDbScale
70
0
300
1'-0" = 1'-0"
140
12.0
141
12.0
290
0
0
TABLESTYLE
5
FA9
102
{ACAD_XDICTIONARY
360
FF8
102
}
102
{ACAD_REACTORS
330
FA8
102
}
330
FA8
100
AcDbTableStyle
3
Standard
70
0
71
0
40
0.06
41
0.06
280
0
281
0
7
Standard
140
0.18
170
2
62
0
63
7
283
0
274
-2
284
1
64
0
275
-2
285
1
65
0
276
-2
286
1
66
0
277
-2
287
1
67
0
278
-2
288
1
68
0
279
-2
289
1
69
0
7
Standard
140
0.25
170
5
62
0
63
7
283
0
274
-2
284
1
64
0
275
-2
285
1
65
0
276
-2
286
1
66
0
277
-2
287
1
67
0
278
-2
288
1
68
0
279
-2
289
1
69
0
7
Standard
140
0.18
170
5
62
0
63
7
283
0
274
-2
284
1
64
0
275
-2
285
1
65
0
276
-2
286
1
66
0
277
-2
287
1
67
0
278
-2
288
1
68
0
279
-2
289
1
69
0
0
VISUALSTYLE
5
F99
102
{ACAD_XDICTIONARY
360
108A
102
}
102
{ACAD_REACTORS
330
F93
102
}
330
F93
100
AcDbVisualStyle
2

70
4
71
0
72
2
73
0
90
0
40
-0.6
41
-30.0
62
5
63
7
74
1
91
4
64
7
65
257
75
1
175
1
42
1.0
92
0
66
257
43
1.0
76
1
77
6
78
2
67
7
79
5
170
0
171
0
290
0
174
0
93
1
44
0.0
173
0
291
0
45
0.0
1001
ACAD
1000
AcDbSavedByObjectVersion
1070
0
0
VISUALSTYLE
5
F9B
102
{ACAD_XDICTIONARY
360
108E
102
}
102
{ACAD_REACTORS
330
F93
102
}
330
F93
100
AcDbVisualStyle
2

70
6
71
1
72
2
73
2
90
0
40
-0.6
41
-30.0
62
5
63
7
74
2
91
2
64
7
65
257
75
2
175
1
42
179.0
92
0
66
257
43
1.0
76
1
77
6
78
2
67
7
79
3
170
0
171
0
290
0
174
0
93
1
44
0.0
173
0
291
0
45
0.0
1001
ACAD
1000
AcDbSavedByObjectVersion
1070
0
0
VISUALSTYLE
5
F9A
102
{ACAD_XDICTIONARY
360
108C
102
}
102
{ACAD_REACTORS
330
F93
102
}
330
F93
100
AcDbVisualStyle
2

70
5
71
0
72
2
73
0
90
0
40
-0.6
41
-30.0
62
5
63
7
74
1
91
4
64
7
65
257
75
1
175
1
42
1.0
92
0
66
257
43
1.0
76
1
77
6
78
2
67
7
79
5
170
0
171
0
290
0
174
0
93
1
44
0.0
173
0
291
0
45
0.0
1001
ACAD
1000
AcDbSavedByObjectVersion
1070
0
0
VISUALSTYLE
5
F98
102
{ACAD_XDICTIONARY
360
1088
102
}
102
{ACAD_REACTORS
330
F93
102
}
330
F93
100
AcDbVisualStyle
2

70
7
71
1
72
0
73
1
90
0
40
-0.6
41
-30.0
62
5
63
7
74
0
91
4
64
7
65
257
75
1
175
1
42
1.0
92
8
66
7
43
1.0
76
1
77
6
78
2
67
7
79
5
170
0
171
0
290
0
174
0
93
1
44
0.0
173
0
291
1
45
0.0
1001
ACAD
1000
AcDbSavedByObjectVersion
1070
0
0
VISUALSTYLE
5
F9F
102
{ACAD_XDICTIONARY
360
1096
102
}
102
{ACAD_REACTORS
330
F93
102
}
330
F93
100
AcDbVisualStyle
2

70
12
71
2
72
2
73
0
90
0
40
-0.6
41
-30.0
62
5
63
7
74
1
91
4
64
7
65
257
75
1
175
1
42
1.0
92
8
66
7
43
1.0
76
1
77
6
78
2
67
7
79
5
170
0
171
0
290
0
174
0
93
1
44
50.0
173
0
291
1
45
0.0
1001
ACAD
1000
AcDbSavedByObjectVersion
1070
0
0
VISUALSTYLE
5
FA3
102
{ACAD_XDICTIONARY
360
109E
102
}
102
{ACAD_REACTORS
330
F93
102
}
330
F93
100
AcDbVisualStyle
2

70
16
71
2
72
2
73
3
90
0
40
-0.6
41
-30.0
62
5
63
8
74
1
91
4
64
7
65
257
75
1
175
1
42
1.0
92
8
66
8
43
1.0
76
1
77
6
78
2
67
7
79
5
170
0
171
0
290
0
174
0
93
1
44
0.0
173
0
291
1
45
0.0
1001
ACAD
1000
AcDbSavedByObjectVersion
1070
0
0
VISUALSTYLE
5
F9C
102
{ACAD_XDICTIONARY
360
1090
102
}
102
{ACAD_REACTORS
330
F93
102
}
330
F93
100
AcDbVisualStyle
2

70
9
71
3
72
2
73
0
90
0
40
-0.6
41
-30.0
62
5
63
7
74
2
91
2
64
7
65
257
75
1
175
1
42
179.0
92
8
66
7
43
1.0
76
1
77
6
78
2
67
7
79
3
170
0
171
0
290
0
174
0
93
1
44
0.0
173
0
291
0
45
0.0
1001
ACAD
1000
AcDbSavedByObjectVersion
1070
0
0
VISUALSTYLE
5
F9E
102
{ACAD_XDICTIONARY
360
1094
102
}
102
{ACAD_REACTORS
330
F93
102
}
330
F93
100
AcDbVisualStyle
2

70
11
71
2
72
2
73
0
90
0
40
-0.6
41
-30.0
62
5
63
7
74
1
91
4
64
7
65
257
75
1
175
1
42
1.0
92
8
66
7
43
1.0
76
1
77
6
78
2
67
7
79
5
170
0
171
0
290
0
174
0
93
1
44
-50.0
173
0
291
1
45
0.0
1001
ACAD
1000
AcDbSavedByObjectVersion
1070
0
0
VISUALSTYLE
5
FA6
102
{ACAD_XDICTIONARY
360
10A4
102
}
102
{ACAD_REACTORS
330
F93
102
}
330
F93
100
AcDbVisualStyle
2

70
22
71
2
72
2
73
0
90
0
40
-0.6
41
-30.0
62
5
63
7
74
1
91
4
64
7
65
257
75
1
175
1
42
1.0
92
8
66
7
43
1.0
76
1
77
6
78
2
67
7
79
5
170
0
171
0
290
0
174
0
93
1
44
0.0
173
0
291
1
45
0.0
1001
ACAD
1000
AcDbSavedByObjectVersion
1070
0
0
VISUALSTYLE
5
FA2
102
{ACAD_XDICTIONARY
360
109C
102
}
102
{ACAD_REACTORS
330
F93
102
}
330
F93
100
AcDbVisualStyle
2

70
15
71
2
72
2
73
0
90
0
40
-0.6
41
-30.0
62
5
63
7
74
1
91
4
64
7
65
257
75
1
175
1
42
1.0
92
8
66
7
43
1.0
76
1
77
6
78
2
67
7
79
5
170
0
171
0
290
0
174
0
93
1
44
0.0
173
0
291
1
45
0.0
1001
ACAD
1000
AcDbSavedByObjectVersion
1070
0
0
VISUALSTYLE
5
F94
102
{ACAD_XDICTIONARY
360
1080
102
}
102
{ACAD_REACTORS
330
F93
102
}
330
F93
100
AcDbVisualStyle
2

70
0
71
2
72
1
73
1
90
2
40
-0.6
41
30.0
62
5
63
7
74
0
91
4
64
7
65
257
75
1
175
1
42
1.0
92
8
66
7
43
1.0
76
1
77
6
78
2
67
7
79
5
170
0
171
0
290
0
174
0
93
13
44
0.0
173
0
291
1
45
0.0
1001
ACAD
1000
AcDbSavedByObjectVersion
1070
0
0
VISUALSTYLE
5
F95
102
{ACAD_XDICTIONARY
360
1082
102
}
102
{ACAD_REACTORS
330
F93
102
}
330
F93
100
AcDbVisualStyle
2

70
1
71
2
72
1
73
1
90
2
40
-0.6
41
30.0
62
5
63
7
74
1
91
4
64
7
65
257
75
1
175
1
42
1.0
92
0
66
257
43
1.0
76
1
77
6
78
2
67
7
79
5
170
0
171
0
290
0
174
0
93
13
44
0.0
173
0
291
1
45
0.0
1001
ACAD
1000
AcDbSavedByObjectVersion
1070
0
0
VISUALSTYLE
5
F96
102
{ACAD_XDICTIONARY
360
1084
102
}
102
{ACAD_REACTORS
330
F93
102
}
330
F93
100
AcDbVisualStyle
2

70
2
71
2
72
2
73
1
90
2
40
-0.6
41
30.0
62
5
63
7
74
0
91
4
64
7
65
257
75
1
175
1
42
1.0
92
0
66
7
43
1.0
76
1
77
6
78
2
67
7
79
5
170
0
171
0
290
0
174
0
93
13
44
0.0
173
0
291
1
45
0.0
1001
ACAD
1000
AcDbSavedByObjectVersion
1070
0
0
VISUALSTYLE
5
F97
102
{ACAD_XDICTIONARY
360
1086
102
}
102
{ACAD_REACTORS
330
F93
102
}
330
F93
100
AcDbVisualStyle
2

70
3
71
2
72
2
73
1
90
2
40
-0.6
41
30.0
62
5
63
7
74
1
91
4
64
7
65
257
75
1
175
1
42
1.0
92
0
66
257
43
1.0
76
1
77
6
78
2
67
7
79
5
170
0
171
0
290
0
174
0
93
13
44
0.0
173
0
291
1
45
0.0
1001
ACAD
1000
AcDbSavedByObjectVersion
1070
0
0
VISUALSTYLE
5
FA4
102
{ACAD_XDICTIONARY
360
10A0
102
}
102
{ACAD_REACTORS
330
F93
102
}
330
F93
100
AcDbVisualStyle
2

70
20
71
2
72
2
73
0
90
0
40
-0.6
41
-30.0
62
5
63
7
74
1
91
4
64
7
65
257
75
1
175
1
42
1.0
92
10
66
7
43
1.0
76
1
77
6
78
2
67
7
79
5
170
0
171
0
290
0
174
0
93
1
44
0.0
173
0
291
1
45
0.0
1001
ACAD
1000
AcDbSavedByObjectVersion
1070
0
0
VISUALSTYLE
5
FA1
102
{ACAD_XDICTIONARY
360
109A
102
}
102
{ACAD_REACTORS
330
F93
102
}
330
F93
100
AcDbVisualStyle
2

70
14
71
2
72
2
73
0
90
0
40
-0.6
41
-30.0
62
5
63
7
74
1
91
4
64
7
65
257
75
7
175
7
42
1.0
92
8
66
7
43
1.0
76
1
77
6
78
2
67
7
79
5
170
0
171
0
290
0
174
0
93
1
44
0.0
173
0
291
1
45
0.0
1001
ACAD
1000
AcDbSavedByObjectVersion
1070
0
0
VISUALSTYLE
5
FA5
102
{ACAD_XDICTIONARY
360
10A2
102
}
102
{ACAD_REACTORS
330
F93
102
}
330
F93
100
AcDbVisualStyle
2

70
21
71
2
72
2
73
0
90
0
40
-0.6
41
-30.0
62
5
63
7
74
1
91
4
64
7
65
257
75
1
175
1
42
1.0
92
9
66
7
43
1.0
76
1
77
6
78
2
67
7
79
5
170
0
171
0
290
0
174
0
93
1
44
0.0
173
0
291
1
45
0.0
1001
ACAD
1000
AcDbSavedByObjectVersion
1070
0
0
VISUALSTYLE
5
F9D
102
{ACAD_XDICTIONARY
360
1092
102
}
102
{ACAD_REACTORS
330
F93
102
}
330
F93
100
AcDbVisualStyle
2

70
8
71
2
72
2
73
0
90
0
40
-0.6
41
-30.0
62
5
63
7
74
1
91
0
64
7
65
257
75
1
175
1
42
1.0
92
8
66
8
43
1.0
76
1
77
6
78
2
67
7
79
5
170
0
171
0
290
0
174
0
93
13
44
0.0
173
0
291
0
45
0.0
1001
ACAD
1000
AcDbSavedByObjectVersion
1070
0
0
VISUALSTYLE
5
FA0
102
{ACAD_XDICTIONARY
360
1098
102
}
102
{ACAD_REACTORS
330
F93
102
}
330
F93
100
AcDbVisualStyle
2

70
13
71
2
72
2
73
0
90
0
40
-0.6
41
-30.0
62
5
63
7
74
1
91
4
64
7
65
257
75
1
175
1
42
1.0
92
12
66
7
43
1.0
76
1
77
6
78
2
67
7
79
5
170
0
171
0
290
0
174
0
93
1
44
0.0
173
0
291
1
45
0.0
1001
ACAD
1000
AcDbSavedByObjectVersion
1070
0
0
DICTIONARYVAR
5
FF3
102
{ACAD_REACTORS
330
FF0
102
}
330
FF0
100
DictionaryVariables
280
0
1
1:1
0
DICTIONARYVAR
5
FF2
102
{ACAD_REACTORS
330
FF0
102
}
330
FF0
100
DictionaryVariables
280
0
1
STANDARD
0
DICTIONARYVAR
5
FF1
102
{ACAD_REACTORS
330
FF0
102
}
330
FF0
100
DictionaryVariables
280
0
1
STANDARD
0
DICTIONARYVAR
5
FF6
102
{ACAD_REACTORS
330
FF0
102
}
330
FF0
100
DictionaryVariables
280
0
1
1
0
DICTIONARYVAR
5
FF5
102
{ACAD_REACTORS
330
FF0
102
}
330
FF0
100
DictionaryVariables
280
0
1
0
0
DICTIONARYVAR
5
FF4
102
{ACAD_REACTORS
330
FF0
102
}
330
FF0
100
DictionaryVariables
280
0
1
127
0
DICTIONARYVAR
5
1078
102
{ACAD_REACTORS
330
FF0
102
}
330
FF0
100
DictionaryVariables
280
0
1
2
0
DICTIONARY
5
10A9
330
FD1
100
AcDbDictionary
280
1
281
1
3
ACAD_XREC_ROUNDTRIP
360
10AA
0
DICTIONARY
5
10A7
330
FD0
100
AcDbDictionary
280
1
281
1
3
ACAD_XREC_ROUNDTRIP
360
10A8
0
DICTIONARY
5
F84
330
F83
100
AcDbDictionary
280
1
281
1
3
ACAD_XREC_ROUNDTRIP
360
FFF
3
BUMPTILE
360
F86
3
DIFFUSETILE
360
F85
3
OPACITYTILE
360
F89
3
REFLECTIONTILE
360
F88
3
REFRACTIONTILE
360
F8A
3
SPECULARTILE
360
F87
0
DICTIONARY
5
F7C
330
F7B
100
AcDbDictionary
280
1
281
1
3
ACAD_XREC_ROUNDTRIP
360
FFE
3
BUMPTILE
360
F7E
3
DIFFUSETILE
360
F7D
3
OPACITYTILE
360
F81
3
REFLECTIONTILE
360
F80
3
REFRACTIONTILE
360
F82
3
SPECULARTILE
360
F7F
0
DICTIONARY
5
F8C
330
F8B
100
AcDbDictionary
280
1
281
1
3
ACAD_XREC_ROUNDTRIP
360
1000
3
BUMPTILE
360
F8E
3
DIFFUSETILE
360
F8D
3
OPACITYTILE
360
F91
3
REFLECTIONTILE
360
F90
3
REFRACTIONTILE
360
F92
3
SPECULARTILE
360
F8F
0
DICTIONARY
5
FF8
330
FA9
100
AcDbDictionary
280
1
281
1
3
ACAD_ROUNDTRIP_2008_TABLESTYLE_CELLSTYLEMAP
360
1079
3
ACAD_XREC_ROUNDTRIP
360
10A6
0
DICTIONARY
5
108A
330
F99
100
AcDbDictionary
280
1
281
1
3
ACAD_XREC_ROUNDTRIP
360
108B
0
DICTIONARY
5
108E
330
F9B
100
AcDbDictionary
280
1
281
1
3
ACAD_XREC_ROUNDTRIP
360
108F
0
DICTIONARY
5
108C
330
F9A
100
AcDbDictionary
280
1
281
1
3
ACAD_XREC_ROUNDTRIP
360
108D
0
DICTIONARY
5
1088
330
F98
100
AcDbDictionary
280
1
281
1
3
ACAD_XREC_ROUNDTRIP
360
1089
0
DICTIONARY
5
1096
330
F9F
100
AcDbDictionary
280
1
281
1
3
ACAD_XREC_ROUNDTRIP
360
1097
0
DICTIONARY
5
109E
330
FA3
100
AcDbDictionary
280
1
281
1
3
ACAD_XREC_ROUNDTRIP
360
109F
0
DICTIONARY
5
1090
330
F9C
100
AcDbDictionary
280
1
281
1
3
ACAD_XREC_ROUNDTRIP
360
1091
0
DICTIONARY
5
1094
330
F9E
100
AcDbDictionary
280
1
281
1
3
ACAD_XREC_ROUNDTRIP
360
1095
0
DICTIONARY
5
10A4
330
FA6
100
AcDbDictionary
280
1
281
1
3
ACAD_XREC_ROUNDTRIP
360
10A5
0
DICTIONARY
5
109C
330
FA2
100
AcDbDictionary
280
1
281
1
3
ACAD_XREC_ROUNDTRIP
360
109D
0
DICTIONARY
5
1080
330
F94
100
AcDbDictionary
280
1
281
1
3
ACAD_XREC_ROUNDTRIP
360
1081
0
DICTIONARY
5
1082
330
F95
100
AcDbDictionary
280
1
281
1
3
ACAD_XREC_ROUNDTRIP
360
1083
0
DICTIONARY
5
1084
330
F96
100
AcDbDictionary
280
1
281
1
3
ACAD_XREC_ROUNDTRIP
360
1085
0
DICTIONARY
5
1086
330
F97
100
AcDbDictionary
280
1
281
1
3
ACAD_XREC_ROUNDTRIP
360
1087
0
DICTIONARY
5
10A0
330
FA4
100
AcDbDictionary
280
1
281
1
3
ACAD_XREC_ROUNDTRIP
360
10A1
0
DICTIONARY
5
109A
330
FA1
100
AcDbDictionary
280
1
281
1
3
ACAD_XREC_ROUNDTRIP
360
109B
0
DICTIONARY
5
10A2
330
FA5
100
AcDbDictionary
280
1
281
1
3
ACAD_XREC_ROUNDTRIP
360
10A3
0
DICTIONARY
5
1092
330
F9D
100
AcDbDictionary
280
1
281
1
3
ACAD_XREC_ROUNDTRIP
360
1093
0
DICTIONARY
5
1098
330
FA0
100
AcDbDictionary
280
1
281
1
3
ACAD_XREC_ROUNDTRIP
360
1099
0
XRECORD
5
10AA
102
{ACAD_REACTORS
330
10A9
102
}
330
10A9
100
AcDbXrecord
280
1
102
SHADEPLOT
70
0
102
SHADEPLOTRESLEVEL
70
2
102
SHADEPLOTCUSTOMDPI
70
300
0
XRECORD
5
10A8
102
{ACAD_REACTORS
330
10A7
102
}
330
10A7
100
AcDbXrecord
280
1
102
SHADEPLOT
70
0
102
SHADEPLOTRESLEVEL
70
2
102
SHADEPLOTCUSTOMDPI
70
300
0
XRECORD
5
FFF
102
{ACAD_REACTORS
330
F84
102
}
330
F84
100
AcDbXrecord
280
1
102
MATERIAL
148
0.0
149
0.0
149
0.0
93
0
94
127
282
0
72
0
77
0
171
0
175
0
179
0
273
0
0
XRECORD
5
F86
102
{ACAD_REACTORS
330
F84
102
}
330
F84
100
AcDbXrecord
280
1
270
1
271
1
0
XRECORD
5
F85
102
{ACAD_REACTORS
330
F84
102
}
330
F84
100
AcDbXrecord
280
1
270
1
271
1
0
XRECORD
5
F89
102
{ACAD_REACTORS
330
F84
102
}
330
F84
100
AcDbXrecord
280
1
270
1
271
1
0
XRECORD
5
F88
102
{ACAD_REACTORS
330
F84
102
}
330
F84
100
AcDbXrecord
280
1
270
1
271
1
0
XRECORD
5
F8A
102
{ACAD_REACTORS
330
F84
102
}
330
F84
100
AcDbXrecord
280
1
270
1
271
1
0
XRECORD
5
F87
102
{ACAD_REACTORS
330
F84
102
}
330
F84
100
AcDbXrecord
280
1
270
1
271
1
0
XRECORD
5
FFE
102
{ACAD_REACTORS
330
F7C
102
}
330
F7C
100
AcDbXrecord
280
1
102
MATERIAL
148
0.0
149
0.0
149
0.0
93
0
94
127
282
0
72
0
77
0
171
0
175
0
179
0
273
0
0
XRECORD
5
F7E
102
{ACAD_REACTORS
330
F7C
102
}
330
F7C
100
AcDbXrecord
280
1
270
1
271
1
0
XRECORD
5
F7D
102
{ACAD_REACTORS
330
F7C
102
}
330
F7C
100
AcDbXrecord
280
1
270
1
271
1
0
XRECORD
5
F81
102
{ACAD_REACTORS
330
F7C
102
}
330
F7C
100
AcDbXrecord
280
1
270
1
271
1
0
XRECORD
5
F80
102
{ACAD_REACTORS
330
F7C
102
}
330
F7C
100
AcDbXrecord
280
1
270
1
271
1
0
XRECORD
5
F82
102
{ACAD_REACTORS
330
F7C
102
}
330
F7C
100
AcDbXrecord
280
1
270
1
271
1
0
XRECORD
5
F7F
102
{ACAD_REACTORS
330
F7C
102
}
330
F7C
100
AcDbXrecord
280
1
270
1
271
1
0
XRECORD
5
1000
102
{ACAD_REACTORS
330
F8C
102
}
330
F8C
100
AcDbXrecord
280
1
102
MATERIAL
148
0.0
149
0.0
149
0.0
93
0
94
127
282
0
72
0
77
0
171
0
175
0
179
0
273
0
0
XRECORD
5
F8E
102
{ACAD_REACTORS
330
F8C
102
}
330
F8C
100
AcDbXrecord
280
1
270
1
271
1
0
XRECORD
5
F8D
102
{ACAD_REACTORS
330
F8C
102
}
330
F8C
100
AcDbXrecord
280
1
270
1
271
1
0
XRECORD
5
F91
102
{ACAD_REACTORS
330
F8C
102
}
330
F8C
100
AcDbXrecord
280
1
270
1
271
1
0
XRECORD
5
F90
102
{ACAD_REACTORS
330
F8C
102
}
330
F8C
100
AcDbXrecord
280
1
270
1
271
1
0
XRECORD
5
F92
102
{ACAD_REACTORS
330
F8C
102
}
330
F8C
100
AcDbXrecord
280
1
270
1
271
1
0
XRECORD
5
F8F
102
{ACAD_REACTORS
330
F8C
102
}
330
F8C
100
AcDbXrecord
280
1
270
1
271
1
0
CELLSTYLEMAP
5
1079
102
{ACAD_REACTORS
330
FF8
102
}
330
FF8
100
AcDbCellStyleMap
90
3
300
CELLSTYLE
1
TABLEFORMAT_BEGIN
90
5
170
1
91
0
92
32768
62
257
93
1
300
CONTENTFORMAT
1
CONTENTFORMAT_BEGIN
90
0
91
0
92
512
93
0
300

40
0.0
140
1.0
94
5
62
0
340
253
144
0.25
309
CONTENTFORMAT_END
171
1
301
MARGIN
1
CELLMARGIN_BEGIN
40
0.06
40
0.06
40
0.06
40
0.06
40
0.18
40
0.18
309
CELLMARGIN_END
94
6
95
1
302
GRIDFORMAT
1
GRIDFORMAT_BEGIN
90
0
91
1
62
0
92
-2
340
0
93
0
40
0.045
309
GRIDFORMAT_END
95
2
302
GRIDFORMAT
1
GRIDFORMAT_BEGIN
90
0
91
1
62
0
92
-2
340
0
93
0
40
0.045
309
GRIDFORMAT_END
95
4
302
GRIDFORMAT
1
GRIDFORMAT_BEGIN
90
0
91
1
62
0
92
-2
340
0
93
0
40
0.045
309
GRIDFORMAT_END
95
8
302
GRIDFORMAT
1
GRIDFORMAT_BEGIN
90
0
91
1
62
0
92
-2
340
0
93
0
40
0.045
309
GRIDFORMAT_END
95
16
302
GRIDFORMAT
1
GRIDFORMAT_BEGIN
90
0
91
1
62
0
92
-2
340
0
93
0
40
0.045
309
GRIDFORMAT_END
95
32
302
GRIDFORMAT
1
GRIDFORMAT_BEGIN
90
0
91
1
62
0
92
-2
340
0
93
0
40
0.045
309
GRIDFORMAT_END
309
TABLEFORMAT_END
1
CELLSTYLE_BEGIN
90
1
91
1
300
_TITLE
309
CELLSTYLE_END
300
CELLSTYLE
1
TABLEFORMAT_BEGIN
90
5
170
1
91
0
92
0
62
257
93
1
300
CONTENTFORMAT
1
CONTENTFORMAT_BEGIN
90
0
91
0
92
512
93
0
300

40
0.0
140
1.0
94
5
62
0
340
253
144
0.18
309
CONTENTFORMAT_END
171
1
301
MARGIN
1
CELLMARGIN_BEGIN
40
0.06
40
0.06
40
0.06
40
0.06
40
0.18
40
0.18
309
CELLMARGIN_END
94
6
95
1
302
GRIDFORMAT
1
GRIDFORMAT_BEGIN
90
0
91
1
62
0
92
-2
340
0
93
0
40
0.045
309
GRIDFORMAT_END
95
2
302
GRIDFORMAT
1
GRIDFORMAT_BEGIN
90
0
91
1
62
0
92
-2
340
0
93
0
40
0.045
309
GRIDFORMAT_END
95
4
302
GRIDFORMAT
1
GRIDFORMAT_BEGIN
90
0
91
1
62
0
92
-2
340
0
93
0
40
0.045
309
GRIDFORMAT_END
95
8
302
GRIDFORMAT
1
GRIDFORMAT_BEGIN
90
0
91
1
62
0
92
-2
340
0
93
0
40
0.045
309
GRIDFORMAT_END
95
16
302
GRIDFORMAT
1
GRIDFORMAT_BEGIN
90
0
91
1
62
0
92
-2
340
0
93
0
40
0.045
309
GRIDFORMAT_END
95
32
302
GRIDFORMAT
1
GRIDFORMAT_BEGIN
90
0
91
1
62
0
92
-2
340
0
93
0
40
0.045
309
GRIDFORMAT_END
309
TABLEFORMAT_END
1
CELLSTYLE_BEGIN
90
2
91
1
300
_HEADER
309
CELLSTYLE_END
300
CELLSTYLE
1
TABLEFORMAT_BEGIN
90
5
170
1
91
0
92
0
62
257
93
1
300
CONTENTFORMAT
1
CONTENTFORMAT_BEGIN
90
0
91
0
92
512
93
0
300

40
0.0
140
1.0
94
2
62
0
340
253
144
0.18
309
CONTENTFORMAT_END
171
1
301
MARGIN
1
CELLMARGIN_BEGIN
40
0.06
40
0.06
40
0.06
40
0.06
40
0.18
40
0.18
309
CELLMARGIN_END
94
6
95
1
302
GRIDFORMAT
1
GRIDFORMAT_BEGIN
90
0
91
1
62
0
92
-2
340
0
93
0
40
0.045
309
GRIDFORMAT_END
95
2
302
GRIDFORMAT
1
GRIDFORMAT_BEGIN
90
0
91
1
62
0
92
-2
340
0
93
0
40
0.045
309
GRIDFORMAT_END
95
4
302
GRIDFORMAT
1
GRIDFORMAT_BEGIN
90
0
91
1
62
0
92
-2
340
0
93
0
40
0.045
309
GRIDFORMAT_END
95
8
302
GRIDFORMAT
1
GRIDFORMAT_BEGIN
90
0
91
1
62
0
92
-2
340
0
93
0
40
0.045
309
GRIDFORMAT_END
95
16
302
GRIDFORMAT
1
GRIDFORMAT_BEGIN
90
0
91
1
62
0
92
-2
340
0
93
0
40
0.045
309
GRIDFORMAT_END
95
32
302
GRIDFORMAT
1
GRIDFORMAT_BEGIN
90
0
91
1
62
0
92
-2
340
0
93
0
40
0.045
309
GRIDFORMAT_END
309
TABLEFORMAT_END
1
CELLSTYLE_BEGIN
90
3
91
2
300
_DATA
309
CELLSTYLE_END
0
XRECORD
5
10A6
102
{ACAD_REACTORS
330
FF8
102
}
330
FF8
100
AcDbXrecord
280
1
102
ACAD_ROUNDTRIP_PRE2007_TABLESTYLE
90
512
91
0
1

92
512
93
0
2

94
512
95
0
3

0
XRECORD
5
108B
102
{ACAD_REACTORS
330
108A
102
}
330
108A
100
AcDbXrecord
280
1
102
RTVSPropertyOp0
70
1
102
RTVSPropertyOp1
70
1
102
RTVSPropertyOp2
70
1
102
RTVSPropertyOp3
70
1
102
RTVSPropertyOp4
70
1
102
RTVSPropertyOp5
70
1
102
RTVSPropertyOp6
70
1
102
RTVSPropertyOp7
70
1
102
RTVSPropertyOp8
70
1
102
RTVSPropertyOp9
70
1
102
RTVSPropertyOp10
70
1
102
RTVSPropertyOp11
70
1
102
RTVSPropertyOp12
70
1
102
RTVSPropertyOp13
70
1
102
RTVSPropertyOp14
70
1
102
RTVSPropertyOp15
70
1
102
RTVSPropertyOp16
70
1
102
RTVSPropertyOp17
70
1
102
RTVSPropertyOp18
70
1
102
RTVSPropertyOp19
70
1
102
RTVSPropertyOp20
70
1
102
RTVSPropertyOp21
70
1
102
RTVSPropertyOp22
70
1
102
RTVSPropertyOp23
70
1
102
RTVSPropertyOp24
70
1
102
RTVSPropertyOp25
70
1
102
RTVSPropertyOp26
70
1
102
RTVSPropertyOp27
70
1
0
XRECORD
5
108F
102
{ACAD_REACTORS
330
108E
102
}
330
108E
100
AcDbXrecord
280
1
102
RTVSPropertyOp0
70
1
102
RTVSPropertyOp1
70
1
102
RTVSPropertyOp2
70
1
102
RTVSPropertyOp3
70
1
102
RTVSPropertyOp4
70
1
102
RTVSPropertyOp5
70
1
102
RTVSPropertyOp6
70
1
102
RTVSPropertyOp7
70
1
102
RTVSPropertyOp8
70
1
102
RTVSPropertyOp9
70
1
102
RTVSPropertyOp10
70
1
102
RTVSPropertyOp11
70
1
102
RTVSPropertyOp12
70
1
102
RTVSPropertyOp13
70
1
102
RTVSPropertyOp14
70
1
102
RTVSPropertyOp15
70
1
102
RTVSPropertyOp16
70
1
102
RTVSPropertyOp17
70
1
102
RTVSPropertyOp18
70
1
102
RTVSPropertyOp19
70
1
102
RTVSPropertyOp20
70
1
102
RTVSPropertyOp21
70
1
102
RTVSPropertyOp22
70
1
102
RTVSPropertyOp23
70
1
102
RTVSPropertyOp24
70
1
102
RTVSPropertyOp25
70
1
102
RTVSPropertyOp26
70
1
102
RTVSPropertyOp27
70
1
0
XRECORD
5
108D
102
{ACAD_REACTORS
330
108C
102
}
330
108C
100
AcDbXrecord
280
1
102
RTVSPropertyOp0
70
1
102
RTVSPropertyOp1
70
1
102
RTVSPropertyOp2
70
1
102
RTVSPropertyOp3
70
1
102
RTVSPropertyOp4
70
1
102
RTVSPropertyOp5
70
1
102
RTVSPropertyOp6
70
1
102
RTVSPropertyOp7
70
1
102
RTVSPropertyOp8
70
1
102
RTVSPropertyOp9
70
1
102
RTVSPropertyOp10
70
1
102
RTVSPropertyOp11
70
1
102
RTVSPropertyOp12
70
1
102
RTVSPropertyOp13
70
1
102
RTVSPropertyOp14
70
1
102
RTVSPropertyOp15
70
1
102
RTVSPropertyOp16
70
1
102
RTVSPropertyOp17
70
1
102
RTVSPropertyOp18
70
1
102
RTVSPropertyOp19
70
1
102
RTVSPropertyOp20
70
1
102
RTVSPropertyOp21
70
1
102
RTVSPropertyOp22
70
1
102
RTVSPropertyOp23
70
1
102
RTVSPropertyOp24
70
1
102
RTVSPropertyOp25
70
1
102
RTVSPropertyOp26
70
1
102
RTVSPropertyOp27
70
1
0
XRECORD
5
1089
102
{ACAD_REACTORS
330
1088
102
}
330
1088
100
AcDbXrecord
280
1
102
RTVSPropertyOp0
70
1
102
RTVSPropertyOp1
70
1
102
RTVSPropertyOp2
70
1
102
RTVSPropertyOp3
70
1
102
RTVSPropertyOp4
70
1
102
RTVSPropertyOp5
70
1
102
RTVSPropertyOp6
70
1
102
RTVSPropertyOp7
70
1
102
RTVSPropertyOp8
70
1
102
RTVSPropertyOp9
70
1
102
RTVSPropertyOp10
70
1
102
RTVSPropertyOp11
70
1
102
RTVSPropertyOp12
70
1
102
RTVSPropertyOp13
70
1
102
RTVSPropertyOp14
70
1
102
RTVSPropertyOp15
70
1
102
RTVSPropertyOp16
70
1
102
RTVSPropertyOp17
70
1
102
RTVSPropertyOp18
70
1
102
RTVSPropertyOp19
70
1
102
RTVSPropertyOp20
70
1
102
RTVSPropertyOp21
70
1
102
RTVSPropertyOp22
70
1
102
RTVSPropertyOp23
70
1
102
RTVSPropertyOp24
70
1
102
RTVSPropertyOp25
70
1
102
RTVSPropertyOp26
70
1
102
RTVSPropertyOp27
70
1
0
XRECORD
5
1097
102
{ACAD_REACTORS
330
1096
102
}
330
1096
100
AcDbXrecord
280
1
102
RTVSPropertyOp0
70
1
102
RTVSPropertyOp1
70
1
102
RTVSPropertyOp2
70
1
102
RTVSPropertyOp3
70
1
102
RTVSPropertyOp4
70
1
102
RTVSPropertyOp5
70
1
102
RTVSPropertyOp6
70
1
102
RTVSPropertyOp7
70
1
102
RTVSPropertyOp8
70
1
102
RTVSPropertyOp9
70
1
102
RTVSPropertyOp10
70
1
102
RTVSPropertyOp11
70
1
102
RTVSPropertyOp12
70
1
102
RTVSPropertyOp13
70
1
102
RTVSPropertyOp14
70
1
102
RTVSPropertyOp15
70
1
102
RTVSPropertyOp16
70
1
102
RTVSPropertyOp17
70
1
102
RTVSPropertyOp18
70
1
102
RTVSPropertyOp19
70
1
102
RTVSPropertyOp20
70
1
102
RTVSPropertyOp21
70
1
102
RTVSPropertyOp22
70
1
102
RTVSPropertyOp23
70
1
102
RTVSPropertyOp24
70
1
102
RTVSPropertyOp25
70
1
102
RTVSPropertyOp26
70
1
102
RTVSPropertyOp27
70
1
0
XRECORD
5
109F
102
{ACAD_REACTORS
330
109E
102
}
330
109E
100
AcDbXrecord
280
1
102
RTVSPropertyOp0
70
1
102
RTVSPropertyOp1
70
1
102
RTVSPropertyOp2
70
1
102
RTVSPropertyOp3
70
1
102
RTVSPropertyOp4
70
1
102
RTVSPropertyOp5
70
1
102
RTVSPropertyOp6
70
1
102
RTVSPropertyOp7
70
1
102
RTVSPropertyOp8
70
1
102
RTVSPropertyOp9
70
1
102
RTVSPropertyOp10
70
1
102
RTVSPropertyOp11
70
1
102
RTVSPropertyOp12
70
1
102
RTVSPropertyOp13
70
1
102
RTVSPropertyOp14
70
1
102
RTVSPropertyOp15
70
1
102
RTVSPropertyOp16
70
1
102
RTVSPropertyOp17
70
1
102
RTVSPropertyOp18
70
1
102
RTVSPropertyOp19
70
1
102
RTVSPropertyOp20
70
1
102
RTVSPropertyOp21
70
1
102
RTVSPropertyOp22
70
1
102
RTVSPropertyOp23
70
1
102
RTVSPropertyOp24
70
1
102
RTVSPropertyOp25
70
1
102
RTVSPropertyOp26
70
1
102
RTVSPropertyOp27
70
1
0
XRECORD
5
1091
102
{ACAD_REACTORS
330
1090
102
}
330
1090
100
AcDbXrecord
280
1
102
RTVSPropertyOp0
70
1
102
RTVSPropertyOp1
70
1
102
RTVSPropertyOp2
70
1
102
RTVSPropertyOp3
70
1
102
RTVSPropertyOp4
70
1
102
RTVSPropertyOp5
70
1
102
RTVSPropertyOp6
70
1
102
RTVSPropertyOp7
70
1
102
RTVSPropertyOp8
70
1
102
RTVSPropertyOp9
70
1
102
RTVSPropertyOp10
70
1
102
RTVSPropertyOp11
70
1
102
RTVSPropertyOp12
70
1
102
RTVSPropertyOp13
70
1
102
RTVSPropertyOp14
70
1
102
RTVSPropertyOp15
70
1
102
RTVSPropertyOp16
70
1
102
RTVSPropertyOp17
70
1
102
RTVSPropertyOp18
70
1
102
RTVSPropertyOp19
70
1
102
RTVSPropertyOp20
70
1
102
RTVSPropertyOp21
70
1
102
RTVSPropertyOp22
70
1
102
RTVSPropertyOp23
70
1
102
RTVSPropertyOp24
70
1
102
RTVSPropertyOp25
70
1
102
RTVSPropertyOp26
70
1
102
RTVSPropertyOp27
70
1
0
XRECORD
5
1095
102
{ACAD_REACTORS
330
1094
102
}
330
1094
100
AcDbXrecord
280
1
102
RTVSPropertyOp0
70
1
102
RTVSPropertyOp1
70
1
102
RTVSPropertyOp2
70
1
102
RTVSPropertyOp3
70
1
102
RTVSPropertyOp4
70
1
102
RTVSPropertyOp5
70
1
102
RTVSPropertyOp6
70
1
102
RTVSPropertyOp7
70
1
102
RTVSPropertyOp8
70
1
102
RTVSPropertyOp9
70
1
102
RTVSPropertyOp10
70
1
102
RTVSPropertyOp11
70
1
102
RTVSPropertyOp12
70
1
102
RTVSPropertyOp13
70
1
102
RTVSPropertyOp14
70
1
102
RTVSPropertyOp15
70
1
102
RTVSPropertyOp16
70
1
102
RTVSPropertyOp17
70
1
102
RTVSPropertyOp18
70
1
102
RTVSPropertyOp19
70
1
102
RTVSPropertyOp20
70
1
102
RTVSPropertyOp21
70
1
102
RTVSPropertyOp22
70
1
102
RTVSPropertyOp23
70
1
102
RTVSPropertyOp24
70
1
102
RTVSPropertyOp25
70
1
102
RTVSPropertyOp26
70
1
102
RTVSPropertyOp27
70
1
0
XRECORD
5
10A5
102
{ACAD_REACTORS
330
10A4
102
}
330
10A4
100
AcDbXrecord
280
1
102
RTVSPropertyOp0
70
0
102
RTVSPropertyOp1
70
0
102
RTVSPropertyOp2
70
0
102
RTVSPropertyOp3
70
0
102
RTVSPropertyOp4
70
0
102
RTVSPropertyOp5
70
0
102
RTVSPropertyOp6
70
0
102
RTVSPropertyOp7
70
0
102
RTVSPropertyOp8
70
0
102
RTVSPropertyOp9
70
0
102
RTVSPropertyOp10
70
0
102
RTVSPropertyOp11
70
0
102
RTVSPropertyOp12
70
0
102
RTVSPropertyOp13
70
0
102
RTVSPropertyOp14
70
2
102
RTVSPropertyOp15
70
0
102
RTVSPropertyOp16
70
0
102
RTVSPropertyOp17
70
0
102
RTVSPropertyOp18
70
0
102
RTVSPropertyOp19
70
0
102
RTVSPropertyOp20
70
0
102
RTVSPropertyOp21
70
0
102
RTVSPropertyOp22
70
0
102
RTVSPropertyOp23
70
0
102
RTVSPropertyOp24
70
0
102
RTVSPropertyOp25
70
0
102
RTVSPropertyOp26
70
0
102
RTVSPropertyOp27
70
0
0
XRECORD
5
109D
102
{ACAD_REACTORS
330
109C
102
}
330
109C
100
AcDbXrecord
280
1
102
RTVSPropertyOp0
70
1
102
RTVSPropertyOp1
70
1
102
RTVSPropertyOp2
70
1
102
RTVSPropertyOp3
70
1
102
RTVSPropertyOp4
70
1
102
RTVSPropertyOp5
70
1
102
RTVSPropertyOp6
70
1
102
RTVSPropertyOp7
70
1
102
RTVSPropertyOp8
70
1
102
RTVSPropertyOp9
70
1
102
RTVSPropertyOp10
70
1
102
RTVSPropertyOp11
70
1
102
RTVSPropertyOp12
70
1
102
RTVSPropertyOp13
70
1
102
RTVSPropertyOp14
70
1
102
RTVSPropertyOp15
70
1
102
RTVSPropertyOp16
70
1
102
RTVSPropertyOp17
70
1
102
RTVSPropertyOp18
70
1
102
RTVSPropertyOp19
70
1
102
RTVSPropertyOp20
70
1
102
RTVSPropertyOp21
70
1
102
RTVSPropertyOp22
70
1
102
RTVSPropertyOp23
70
1
102
RTVSPropertyOp24
70
1
102
RTVSPropertyOp25
70
1
102
RTVSPropertyOp26
70
1
102
RTVSPropertyOp27
70
1
0
XRECORD
5
1081
102
{ACAD_REACTORS
330
1080
102
}
330
1080
100
AcDbXrecord
280
1
102
RTVSPropertyOp0
70
1
102
RTVSPropertyOp1
70
1
102
RTVSPropertyOp2
70
1
102
RTVSPropertyOp3
70
1
102
RTVSPropertyOp4
70
1
102
RTVSPropertyOp5
70
1
102
RTVSPropertyOp6
70
1
102
RTVSPropertyOp7
70
1
102
RTVSPropertyOp8
70
1
102
RTVSPropertyOp9
70
1
102
RTVSPropertyOp10
70
1
102
RTVSPropertyOp11
70
1
102
RTVSPropertyOp12
70
1
102
RTVSPropertyOp13
70
1
102
RTVSPropertyOp14
70
1
102
RTVSPropertyOp15
70
1
102
RTVSPropertyOp16
70
1
102
RTVSPropertyOp17
70
1
102
RTVSPropertyOp18
70
1
102
RTVSPropertyOp19
70
1
102
RTVSPropertyOp20
70
1
102
RTVSPropertyOp21
70
1
102
RTVSPropertyOp22
70
1
102
RTVSPropertyOp23
70
1
102
RTVSPropertyOp24
70
1
102
RTVSPropertyOp25
70
1
102
RTVSPropertyOp26
70
1
102
RTVSPropertyOp27
70
1
0
XRECORD
5
1083
102
{ACAD_REACTORS
330
1082
102
}
330
1082
100
AcDbXrecord
280
1
102
RTVSPropertyOp0
70
1
102
RTVSPropertyOp1
70
1
102
RTVSPropertyOp2
70
1
102
RTVSPropertyOp3
70
1
102
RTVSPropertyOp4
70
1
102
RTVSPropertyOp5
70
1
102
RTVSPropertyOp6
70
1
102
RTVSPropertyOp7
70
1
102
RTVSPropertyOp8
70
1
102
RTVSPropertyOp9
70
1
102
RTVSPropertyOp10
70
1
102
RTVSPropertyOp11
70
1
102
RTVSPropertyOp12
70
1
102
RTVSPropertyOp13
70
1
102
RTVSPropertyOp14
70
1
102
RTVSPropertyOp15
70
1
102
RTVSPropertyOp16
70
1
102
RTVSPropertyOp17
70
1
102
RTVSPropertyOp18
70
1
102
RTVSPropertyOp19
70
1
102
RTVSPropertyOp20
70
1
102
RTVSPropertyOp21
70
1
102
RTVSPropertyOp22
70
1
102
RTVSPropertyOp23
70
1
102
RTVSPropertyOp24
70
1
102
RTVSPropertyOp25
70
1
102
RTVSPropertyOp26
70
1
102
RTVSPropertyOp27
70
1
0
XRECORD
5
1085
102
{ACAD_REACTORS
330
1084
102
}
330
1084
100
AcDbXrecord
280
1
102
RTVSPropertyOp0
70
1
102
RTVSPropertyOp1
70
1
102
RTVSPropertyOp2
70
1
102
RTVSPropertyOp3
70
1
102
RTVSPropertyOp4
70
1
102
RTVSPropertyOp5
70
1
102
RTVSPropertyOp6
70
1
102
RTVSPropertyOp7
70
1
102
RTVSPropertyOp8
70
1
102
RTVSPropertyOp9
70
1
102
RTVSPropertyOp10
70
1
102
RTVSPropertyOp11
70
1
102
RTVSPropertyOp12
70
1
102
RTVSPropertyOp13
70
1
102
RTVSPropertyOp14
70
1
102
RTVSPropertyOp15
70
1
102
RTVSPropertyOp16
70
1
102
RTVSPropertyOp17
70
1
102
RTVSPropertyOp18
70
1
102
RTVSPropertyOp19
70
1
102
RTVSPropertyOp20
70
1
102
RTVSPropertyOp21
70
1
102
RTVSPropertyOp22
70
1
102
RTVSPropertyOp23
70
1
102
RTVSPropertyOp24
70
1
102
RTVSPropertyOp25
70
1
102
RTVSPropertyOp26
70
1
102
RTVSPropertyOp27
70
1
0
XRECORD
5
1087
102
{ACAD_REACTORS
330
1086
102
}
330
1086
100
AcDbXrecord
280
1
102
RTVSPropertyOp0
70
1
102
RTVSPropertyOp1
70
1
102
RTVSPropertyOp2
70
1
102
RTVSPropertyOp3
70
1
102
RTVSPropertyOp4
70
1
102
RTVSPropertyOp5
70
1
102
RTVSPropertyOp6
70
1
102
RTVSPropertyOp7
70
1
102
RTVSPropertyOp8
70
1
102
RTVSPropertyOp9
70
1
102
RTVSPropertyOp10
70
1
102
RTVSPropertyOp11
70
1
102
RTVSPropertyOp12
70
1
102
RTVSPropertyOp13
70
1
102
RTVSPropertyOp14
70
1
102
RTVSPropertyOp15
70
1
102
RTVSPropertyOp16
70
1
102
RTVSPropertyOp17
70
1
102
RTVSPropertyOp18
70
1
102
RTVSPropertyOp19
70
1
102
RTVSPropertyOp20
70
1
102
RTVSPropertyOp21
70
1
102
RTVSPropertyOp22
70
1
102
RTVSPropertyOp23
70
1
102
RTVSPropertyOp24
70
1
102
RTVSPropertyOp25
70
1
102
RTVSPropertyOp26
70
1
102
RTVSPropertyOp27
70
1
0
XRECORD
5
10A1
102
{ACAD_REACTORS
330
10A0
102
}
330
10A0
100
AcDbXrecord
280
1
102
RTVSPropertyOp0
70
0
102
RTVSPropertyOp1
70
0
102
RTVSPropertyOp2
70
0
102
RTVSPropertyOp3
70
0
102
RTVSPropertyOp4
70
0
102
RTVSPropertyOp5
70
0
102
RTVSPropertyOp6
70
0
102
RTVSPropertyOp7
70
0
102
RTVSPropertyOp8
70
0
102
RTVSPropertyOp9
70
0
102
RTVSPropertyOp10
70
0
102
RTVSPropertyOp11
70
0
102
RTVSPropertyOp12
70
0
102
RTVSPropertyOp13
70
0
102
RTVSPropertyOp14
70
2
102
RTVSPropertyOp15
70
0
102
RTVSPropertyOp16
70
0
102
RTVSPropertyOp17
70
0
102
RTVSPropertyOp18
70
0
102
RTVSPropertyOp19
70
0
102
RTVSPropertyOp20
70
0
102
RTVSPropertyOp21
70
0
102
RTVSPropertyOp22
70
0
102
RTVSPropertyOp23
70
0
102
RTVSPropertyOp24
70
0
102
RTVSPropertyOp25
70
0
102
RTVSPropertyOp26
70
0
102
RTVSPropertyOp27
70
0
0
XRECORD
5
109B
102
{ACAD_REACTORS
330
109A
102
}
330
109A
100
AcDbXrecord
280
1
102
RTVSPropertyOp0
70
1
102
RTVSPropertyOp1
70
1
102
RTVSPropertyOp2
70
1
102
RTVSPropertyOp3
70
1
102
RTVSPropertyOp4
70
1
102
RTVSPropertyOp5
70
1
102
RTVSPropertyOp6
70
1
102
RTVSPropertyOp7
70
1
102
RTVSPropertyOp8
70
1
102
RTVSPropertyOp9
70
1
102
RTVSPropertyOp10
70
1
102
RTVSPropertyOp11
70
1
102
RTVSPropertyOp12
70
1
102
RTVSPropertyOp13
70
1
102
RTVSPropertyOp14
70
1
102
RTVSPropertyOp15
70
1
102
RTVSPropertyOp16
70
1
102
RTVSPropertyOp17
70
1
102
RTVSPropertyOp18
70
1
102
RTVSPropertyOp19
70
1
102
RTVSPropertyOp20
70
1
102
RTVSPropertyOp21
70
1
102
RTVSPropertyOp22
70
1
102
RTVSPropertyOp23
70
1
102
RTVSPropertyOp24
70
1
102
RTVSPropertyOp25
70
1
102
RTVSPropertyOp26
70
1
102
RTVSPropertyOp27
70
1
0
XRECORD
5
10A3
102
{ACAD_REACTORS
330
10A2
102
}
330
10A2
100
AcDbXrecord
280
1
102
RTVSPropertyOp0
70
0
102
RTVSPropertyOp1
70
0
102
RTVSPropertyOp2
70
0
102
RTVSPropertyOp3
70
0
102
RTVSPropertyOp4
70
0
102
RTVSPropertyOp5
70
0
102
RTVSPropertyOp6
70
0
102
RTVSPropertyOp7
70
0
102
RTVSPropertyOp8
70
0
102
RTVSPropertyOp9
70
0
102
RTVSPropertyOp10
70
0
102
RTVSPropertyOp11
70
0
102
RTVSPropertyOp12
70
0
102
RTVSPropertyOp13
70
0
102
RTVSPropertyOp14
70
2
102
RTVSPropertyOp15
70
0
102
RTVSPropertyOp16
70
0
102
RTVSPropertyOp17
70
0
102
RTVSPropertyOp18
70
0
102
RTVSPropertyOp19
70
0
102
RTVSPropertyOp20
70
0
102
RTVSPropertyOp21
70
0
102
RTVSPropertyOp22
70
0
102
RTVSPropertyOp23
70
0
102
RTVSPropertyOp24
70
0
102
RTVSPropertyOp25
70
0
102
RTVSPropertyOp26
70
0
102
RTVSPropertyOp27
70
0
0
XRECORD
5
1093
102
{ACAD_REACTORS
330
1092
102
}
330
1092
100
AcDbXrecord
280
1
102
RTVSPropertyOp0
70
1
102
RTVSPropertyOp1
70
1
102
RTVSPropertyOp2
70
1
102
RTVSPropertyOp3
70
1
102
RTVSPropertyOp4
70
1
102
RTVSPropertyOp5
70
1
102
RTVSPropertyOp6
70
1
102
RTVSPropertyOp7
70
1
102
RTVSPropertyOp8
70
1
102
RTVSPropertyOp9
70
1
102
RTVSPropertyOp10
70
1
102
RTVSPropertyOp11
70
1
102
RTVSPropertyOp12
70
1
102
RTVSPropertyOp13
70
1
102
RTVSPropertyOp14
70
1
102
RTVSPropertyOp15
70
1
102
RTVSPropertyOp16
70
1
102
RTVSPropertyOp17
70
1
102
RTVSPropertyOp18
70
1
102
RTVSPropertyOp19
70
1
102
RTVSPropertyOp20
70
1
102
RTVSPropertyOp21
70
1
102
RTVSPropertyOp22
70
1
102
RTVSPropertyOp23
70
1
102
RTVSPropertyOp24
70
1
102
RTVSPropertyOp25
70
1
102
RTVSPropertyOp26
70
1
102
RTVSPropertyOp27
70
1
0
XRECORD
5
1099
102
{ACAD_REACTORS
330
1098
102
}
330
1098
100
AcDbXrecord
280
1
102
RTVSPropertyOp0
70
1
102
RTVSPropertyOp1
70
1
102
RTVSPropertyOp2
70
1
102
RTVSPropertyOp3
70
1
102
RTVSPropertyOp4
70
1
102
RTVSPropertyOp5
70
1
102
RTVSPropertyOp6
70
1
102
RTVSPropertyOp7
70
1
102
RTVSPropertyOp8
70
1
102
RTVSPropertyOp9
70
1
102
RTVSPropertyOp10
70
1
102
RTVSPropertyOp11
70
1
102
RTVSPropertyOp12
70
1
102
RTVSPropertyOp13
70
1
102
RTVSPropertyOp14
70
1
102
RTVSPropertyOp15
70
1
102
RTVSPropertyOp16
70
1
102
RTVSPropertyOp17
70
1
102
RTVSPropertyOp18
70
1
102
RTVSPropertyOp19
70
1
102
RTVSPropertyOp20
70
1
102
RTVSPropertyOp21
70
1
102
RTVSPropertyOp22
70
1
102
RTVSPropertyOp23
70
1
102
RTVSPropertyOp24
70
1
102
RTVSPropertyOp25
70
1
102
RTVSPropertyOp26
70
1
102
RTVSPropertyOp27
70
1
0
ENDSEC
0
EOF
