0
SECTION
2
HEADER
9
$ACADVER
1
AC1015
9
$ACADMAINTVER
70
20
9
$DWGCODEPAGE
3
ANSI_1252
9
$INSBASE
10
0.0
20
0.0
30
0.0
9
$EXTMIN
10
-150.000000000000
20
-105.000000000000
30
0.0
9
$EXTMAX
10
150.000000000000
20
105.000000000000
30
0.0
9
$LIMMIN
10
0.0
20
0.0
9
$LIMMAX
10
12.0
20
9.0
9
$ORTHOMODE
70
0
9
$REGENMODE
70
1
9
$FILLMODE
70
1
9
$QTEXTMODE
70
0
9
$MIRRTEXT
70
1
9
$LTSCALE
40
1.0
9
$ATTMODE
70
1
9
$TEXTSIZE
40
0.2
9
$TRACEWID
40
0.05
9
$TEXTSTYLE
7
Standard
9
$CLAYER
8
0
9
$CELTYPE
6
ByLayer
9
$CECOLOR
62
256
9
$CELTSCALE
40
1.0
9
$DISPSILH
70
0
9
$DIMSCALE
40
1.0
9
$DIMASZ
40
2.5
9
$DIMEXO
40
0.625
9
$DIMDLI
40
0.38
9
$DIMRND
40
0.0
9
$DIMDLE
40
0.0
9
$DIMEXE
40
1.25
9
$DIMTP
40
0.0
9
$DIMTM
40
0.000000001
9
$DIMTXT
40
2.5
9
$DIMCEN
40
0.09
9
$DIMTSZ
40
0.0
9
$DIMTOL
70
1
9
$DIMLIM
70
0
9
$DIMTIH
70
0
9
$DIMTOH
70
0
9
$DIMSE1
70
0
9
$DIMSE2
70
0
9
$DIMTAD
70
1
9
$DIMZIN
70
0
9
$DIMBLK
1
VDDIM_DEFAULT
9
$DIMASO
70
1
9
$DIMSHO
70
1
9
$DIMPOST
1

9
$DIMAPOST
1

9
$DIMALT
70
0
9
$DIMALTD
70
2
9
$DIMALTF
40
25.4
9
$DIMLFAC
40
1.00000000000000
9
$DIMTOFL
70
0
9
$DIMTVP
40
0.0
9
$DIMTIX
70
0
9
$DIMSOXD
70
0
9
$DIMSAH
70
0
9
$DIMBLK1
1

9
$DIMBLK2
1

9
$DIMSTYLE
2
BEM-ISBE
9
$DIMCLRD
70
0
9
$DIMCLRE
70
0
9
$DIMCLRT
70
0
9
$DIMTFAC
40
0.5
9
$DIMGAP
40
0.625
9
$DIMJUST
70
0
9
$DIMSD1
70
0
9
$DIMSD2
70
0
9
$DIMTOLJ
70
1
9
$DIMTZIN
70
0
9
$DIMALTZ
70
0
9
$DIMALTTZ
70
0
9
$DIMUPT
70
0
9
$DIMDEC
70
3
9
$DIMTDEC
70
3
9
$DIMALTU
70
2
9
$DIMALTTD
70
2
9
$DIMTXSTY
7
Standard
9
$DIMAUNIT
70
0
9
$DIMADEC
70
3
9
$DIMALTRND
40
0.0
9
$DIMAZIN
70
0
9
$DIMDSEP
70
46
9
$DIMATFIT
70
3
9
$DIMFRAC
70
0
9
$DIMLDRBLK
1

9
$DIMLUNIT
70
2
9
$DIMLWD
70
-2
9
$DIMLWE
70
-2
9
$DIMTMOVE
70
0
9
$LUNITS
70
2
9
$LUPREC
70
4
9
$SKETCHINC
40
0.1
9
$FILLETRAD
40
0.5
9
$AUNITS
70
0
9
$AUPREC
70
0
9
$MENU
1
.
9
$ELEVATION
40
0.0
9
$PELEVATION
40
0.0
9
$THICKNESS
40
0.0
9
$LIMCHECK
70
0
9
$CHAMFERA
40
0.5
9
$CHAMFERB
40
0.5
9
$CHAMFERC
40
1.0
9
$CHAMFERD
40
0.0
9
$SKPOLY
70
0
9
$TDCREATE
40
0.0
9
$TDUCREATE
40
0.0
9
$TDUPDATE
40
0.0
9
$TDUUPDATE
40
0.0
9
$TDINDWG
40
0.0
9
$TDUSRTIMER
40
0.0
9
$USRTIMER
70
1
9
$ANGBASE
50
0.0
9
$ANGDIR
70
0
9
$PDMODE
70
0
9
$PDSIZE
40
0.0
9
$PLINEWID
40
0.0
9
$SPLFRAME
70
0
9
$SPLINETYPE
70
6
9
$SPLINESEGS
70
8
9
$HANDSEED
5
10AB
9
$SURFTAB1
70
6
9
$SURFTAB2
70
6
9
$SURFTYPE
70
6
9
$SURFU
70
6
9
$SURFV
70
6
9
$UCSBASE
2

9
$UCSNAME
2

9
$UCSORG
10
0.0
20
0.0
30
0.0
9
$UCSXDIR
10
1.0
20
0.0
30
0.0
9
$UCSYDIR
10
0.0
20
1.0
30
0.0
9
$UCSORTHOREF
2

9
$UCSORTHOVIEW
70
0
9
$UCSORGTOP
10
0.0
20
0.0
30
0.0
9
$UCSORGBOTTOM
10
0.0
20
0.0
30
0.0
9
$UCSORGLEFT
10
0.0
20
0.0
30
0.0
9
$UCSORGRIGHT
10
0.0
20
0.0
30
0.0
9
$UCSORGFRONT
10
0.0
20
0.0
30
0.0
9
$UCSORGBACK
10
0.0
20
0.0
30
0.0
9
$PUCSBASE
2

9
$PUCSNAME
2

9
$PUCSORG
10
0.0
20
0.0
30
0.0
9
$PUCSXDIR
10
1.0
20
0.0
30
0.0
9
$PUCSYDIR
10
0.0
20
1.0
30
0.0
9
$PUCSORTHOREF
2

9
$PUCSORTHOVIEW
70
0
9
$PUCSORGTOP
10
0.0
20
0.0
30
0.0
9
$PUCSORGBOTTOM
10
0.0
20
0.0
30
0.0
9
$PUCSORGLEFT
10
0.0
20
0.0
30
0.0
9
$PUCSORGRIGHT
10
0.0
20
0.0
30
0.0
9
$PUCSORGFRONT
10
0.0
20
0.0
30
0.0
9
$PUCSORGBACK
10
0.0
20
0.0
30
0.0
9
$USERI1
70
0
9
$USERI2
70
0
9
$USERI3
70
0
9
$USERI4
70
0
9
$USERI5
70
0
9
$USERR1
40
0.0
9
$USERR2
40
0.0
9
$USERR3
40
0.0
9
$USERR4
40
0.0
9
$USERR5
40
0.0
9
$WORLDVIEW
70
1
9
$SHADEDGE
70
3
9
$SHADEDIF
70
70
9
$TILEMODE
70
1
9
$MAXACTVP
70
64
9
$PINSBASE
10
0.0
20
0.0
30
0.0
9
$PLIMCHECK
70
0
9
$PEXTMIN
10
1.000000000000000E+20
20
1.000000000000000E+20
30
1.000000000000000E+20
9
$PEXTMAX
10
-1.000000000000000E+20
20
-1.000000000000000E+20
30
-1.000000000000000E+20
9
$PLIMMIN
10
0.0
20
0.0
9
$PLIMMAX
10
12.0
20
9.0
9
$UNITMODE
70
0
9
$VISRETAIN
70
1
9
$PLINEGEN
70
0
9
$PSLTSCALE
70
1
9
$TREEDEPTH
70
3020
9
$CMLSTYLE
2
Standard
9
$CMLJUST
70
0
9
$CMLSCALE
40
1.0
9
$PROXYGRAPHICS
70
1
9
$MEASUREMENT
70
0
9
$CELWEIGHT
370
-1
9
$ENDCAPS
280
0
9
$JOINSTYLE
280
0
9
$LWDISPLAY
290
0
9
$INSUNITS
70
4
9
$HYPERLINKBASE
1

9
$STYLESHEET
1

9
$XEDIT
290
1
9
$CEPSNTYPE
380
0
9
$PSTYLEMODE
290
0
9
$FINGERPRINTGUID
2
{FAEB1C30-E019-11D5-929B-00C0DF256EC4}
9
$VERSIONGUID
2
{04C5C4E4-4947-4D90-8812-D401569E61F7}
9
$EXTNAMES
290
1
9
$PSVPSCALE
40
0.0
9
$OLESTARTUP
290
0
0
ENDSEC
0
SECTION
2
TABLES
0
TABLE
2
VPORT
5
24A
330
0
100
AcDbSymbolTable
70
1
0
VPORT
5
26B
330
24A
100
AcDbSymbolTableRecord
100
AcDbViewportTableRecord
2
*Active
70
0
10
0.0
20
0.0
11
1.0
21
1.0
12
0.000000000000000
22
0.000000000000000
13
0.0
23
0.0
14
10.0
24
10.0
15
10.0
25
10.0
16
0.0
26
0.0
36
1.0
17
0.0
27
0.0
37
0.0
40
210.000000000000
41
1.42857142857143
42
1.0
43
0.0
44
0.0
50
0.0
51
0.0000000000007958
71
0
72
100
73
1
74
3
75
0
76
0
77
0
78
1
281
0
65
1
110
0.0
120
0.0
130
0.0
111
1.0
121
0.0
131
0.0
112
0.0
122
1.0
132
0.0
79
0
146
0.0
0
ENDTAB
0
TABLE
2
LTYPE
5
247
330
0
100
AcDbSymbolTable
70
25
0
LTYPE
5
256
330
247
100
AcDbSymbolTableRecord
100
AcDbLinetypeTableRecord
2
ByBlock
70
0
3

72
65
73
0
40
0.0
0
LTYPE
5
257
330
247
100
AcDbSymbolTableRecord
100
AcDbLinetypeTableRecord
2
ByLayer
70
0
3

72
65
73
0
40
0.0
0
LTYPE
5
258
330
247
100
AcDbSymbolTableRecord
100
AcDbLinetypeTableRecord
2
Continuous
70
0
3
Solid line
72
65
73
0
40
0.0
0
LTYPE
5
273
330
247
100
AcDbSymbolTableRecord
100
AcDbLinetypeTableRecord
2
CENTER
70
0
3
Center ____ _ ____ _ ____ _ ____ _ ____ _ ____
72
65
73
4
40
2.0
49
1.25
74
0
49
-0.25
74
0
49
0.25
74
0
49
-0.25
74
0
0
LTYPE
5
274
330
247
100
AcDbSymbolTableRecord
100
AcDbLinetypeTableRecord
2
DASHDOT
70
0
3
Dashdot __ . __ . __ . __ . __ . __ . __ . __
72
65
73
4
40
1.0
49
0.5
74
0
49
-0.25
74
0
49
0.0
74
0
49
-0.25
74
0
0
LTYPE
5
275
330
247
100
AcDbSymbolTableRecord
100
AcDbLinetypeTableRecord
2
DASHED
70
0
3
Dashed __ __ __ __ __ __ __ __ __ __ __ __ __ _
72
65
73
2
40
0.75
49
0.5
74
0
49
-0.25
74
0
0
LTYPE
5
276
330
247
100
AcDbSymbolTableRecord
100
AcDbLinetypeTableRecord
2
HIDDEN
70
0
3
Hidden __ __ __ __ __ __ __ __ __ __ __ __ __ __
72
65
73
2
40
0.375
49
0.25
74
0
49
-0.125
74
0
0
LTYPE
5
277
330
247
100
AcDbSymbolTableRecord
100
AcDbLinetypeTableRecord
2
HIDDEN2
70
0
3
Hidden2 _ _ _ _ _ _ _ _ _ _ _ _ _ _ _ _ _
72
65
73
2
40
0.1875
49
0.125
74
0
49
-0.0625
74
0
0
LTYPE
5
278
330
247
100
AcDbSymbolTableRecord
100
AcDbLinetypeTableRecord
2
BORDER
70
0
3
Border __ __ . __ __ . __ __ . __ __ . __ __ .
72
65
73
6
40
1.75
49
0.5
74
0
49
-0.25
74
0
49
0.5
74
0
49
-0.25
74
0
49
0.0
74
0
49
-0.25
74
0
0
LTYPE
5
279
330
247
100
AcDbSymbolTableRecord
100
AcDbLinetypeTableRecord
2
BORDER2
70
0
3
Border2 __.__.__.__.__.__.__.__.__.__.__.
72
65
73
6
40
0.875
49
0.25
74
0
49
-0.125
74
0
49
0.25
74
0
49
-0.125
74
0
49
0.0
74
0
49
-0.125
74
0
0
LTYPE
5
27A
330
247
100
AcDbSymbolTableRecord
100
AcDbLinetypeTableRecord
2
BORDERX2
70
0
3
Borderx2  ____  ____  .  ____  ____  .  ___
72
65
73
6
40
3.5
49
1.0
74
0
49
-0.5
74
0
49
1.0
74
0
49
-0.5
74
0
49
0.0
74
0
49
-0.5
74
0
0
LTYPE
5
27B
330
247
100
AcDbSymbolTableRecord
100
AcDbLinetypeTableRecord
2
CENTER2
70
0
3
Center2  ___ _ ___ _ ___ _ ___ _ ___ _ ___
72
65
73
4
40
1.125
49
0.75
74
0
49
-0.125
74
0
49
0.125
74
0
49
-0.125
74
0
0
LTYPE
5
27C
330
247
100
AcDbSymbolTableRecord
100
AcDbLinetypeTableRecord
2
CENTERX2
70
0
3
Centerx2  ________  __  ________  __  _____
72
65
73
4
40
4.0
49
2.5
74
0
49
-0.5
74
0
49
0.5
74
0
49
-0.5
74
0
0
LTYPE
5
27D
330
247
100
AcDbSymbolTableRecord
100
AcDbLinetypeTableRecord
2
DASHDOT2
70
0
3
Dashdot2  _._._._._._._._._._._._._._._.
72
65
73
4
40
0.5
49
0.25
74
0
49
-0.125
74
0
49
0.0
74
0
49
-0.125
74
0
0
LTYPE
5
27E
330
247
100
AcDbSymbolTableRecord
100
AcDbLinetypeTableRecord
2
DASHDOTX2
70
0
3
Dashdotx2 ____  .  ____  .  ____  .  ___
72
65
73
4
40
2.0
49
1.0
74
0
49
-0.5
74
0
49
0.0
74
0
49
-0.5
74
0
0
LTYPE
5
27F
330
247
100
AcDbSymbolTableRecord
100
AcDbLinetypeTableRecord
2
DASHED2
70
0
3
Dashed2 _ _ _ _ _ _ _ _ _ _ _ _ _ _ _ _ _
72
65
73
2
40
0.375
49
0.25
74
0
49
-0.125
74
0
0
LTYPE
5
280
330
247
100
AcDbSymbolTableRecord
100
AcDbLinetypeTableRecord
2
DASHEDX2
70
0
3
Dashedx2 ____  ____  ____  ____  ____  ___
72
65
73
2
40
1.5
49
1.0
74
0
49
-0.5
74
0
0
LTYPE
5
281
330
247
100
AcDbSymbolTableRecord
100
AcDbLinetypeTableRecord
2
DIVIDE
70
0
3
Divide ____ . . ____ . . ____ . . ____ . . ____
72
65
73
6
40
1.25
49
0.5
74
0
49
-0.25
74
0
49
0.0
74
0
49
-0.25
74
0
49
0.0
74
0
49
-0.25
74
0
0
LTYPE
5
282
330
247
100
AcDbSymbolTableRecord
100
AcDbLinetypeTableRecord
2
DIVIDE2
70
0
3
Divide2 __..__..__..__..__..__..__..__.._
72
65
73
6
40
0.625
49
0.25
74
0
49
-0.125
74
0
49
0.0
74
0
49
-0.125
74
0
49
0.0
74
0
49
-0.125
74
0
0
LTYPE
5
283
330
247
100
AcDbSymbolTableRecord
100
AcDbLinetypeTableRecord
2
DIVIDEX2
70
0
3
Dividex2 ________  .  .  ________  .  .  _
72
65
73
6
40
2.5
49
1.0
74
0
49
-0.5
74
0
49
0.0
74
0
49
-0.5
74
0
49
0.0
74
0
49
-0.5
74
0
0
LTYPE
5
284
330
247
100
AcDbSymbolTableRecord
100
AcDbLinetypeTableRecord
2
DOT
70
0
3
Dot . . . . . . . . . . . . . . . . . . . . . . . .
72
65
73
2
40
0.25
49
0.0
74
0
49
-0.25
74
0
0
LTYPE
5
285
330
247
100
AcDbSymbolTableRecord
100
AcDbLinetypeTableRecord
2
DOT2
70
0
3
Dot2 ........................................
72
65
73
2
40
0.125
49
0.0
74
0
49
-0.125
74
0
0
LTYPE
5
286
330
247
100
AcDbSymbolTableRecord
100
AcDbLinetypeTableRecord
2
DOTX2
70
0
3
Dotx2 .  .  .  .  .  .  .  .  .  .  .  .  .  .
72
65
73
2
40
0.5
49
0.0
74
0
49
-0.5
74
0
0
LTYPE
5
287
330
247
100
AcDbSymbolTableRecord
100
AcDbLinetypeTableRecord
2
HIDDENX2
70
0
3
Hiddenx2 ____ ____ ____ ____ ____ ____ ____
72
65
73
2
40
0.75
49
0.5
74
0
49
-0.25
74
0
0
LTYPE
5
288
330
247
100
AcDbSymbolTableRecord
100
AcDbLinetypeTableRecord
2
PHANTOM
70
0
3
Phantom ______  __  __  ______  __  __  ______
72
65
73
6
40
2.5
49
1.25
74
0
49
-0.25
74
0
49
0.25
74
0
49
-0.25
74
0
49
0.25
74
0
49
-0.25
74
0
0
LTYPE
5
289
330
247
100
AcDbSymbolTableRecord
100
AcDbLinetypeTableRecord
2
PHANTOM2
70
0
3
Phantom2 ___ _ _ ___ _ _ ___ _ _ ___ _ _
72
65
73
6
40
1.25
49
0.625
74
0
49
-0.125
74
0
49
0.125
74
0
49
-0.125
74
0
49
0.125
74
0
49
-0.125
74
0
0
LTYPE
5
28A
330
247
100
AcDbSymbolTableRecord
100
AcDbLinetypeTableRecord
2
PHANTOMX2
70
0
3
Phantomx2 ____________    ____    ____   _
72
65
73
6
40
5.0
49
2.5
74
0
49
-0.5
74
0
49
0.5
74
0
49
-0.5
74
0
49
0.5
74
0
49
-0.5
74
0
0
ENDTAB
0
TABLE
2
LAYER
5
244
330
0
100
AcDbSymbolTable
70
6
0
LAYER
5
252
330
244
100
AcDbSymbolTableRecord
100
AcDbLayerTableRecord
2
0
70
0
62
7
6
Continuous
370
0
390
251
0
LAYER
5
23F
330
244
100
AcDbSymbolTableRecord
100
AcDbLayerTableRecord
2
Bemassung
70
0
 62
   7
6
Continuous
370
0
390
251
0
LAYER
5
240
330
244
100
AcDbSymbolTableRecord
100
AcDbLayerTableRecord
2
Rahmen
70
0
 62
   7
6
Continuous
370
0
390
251
0
LAYER
5
241
330
244
100
AcDbSymbolTableRecord
100
AcDbLayerTableRecord
2
Geo
70
0
 62
   7
6
Continuous
370
0
390
251
0
LAYER
5
33A
330
244
100
AcDbSymbolTableRecord
100
AcDbLayerTableRecord
2
Defpoints
70
0
62
7
6
Continuous
290
0
370
-3
390
251
0
LAYER
5
57E
330
244
100
AcDbSymbolTableRecord
100
AcDbLayerTableRecord
2
Text
70
0
 62
   7
6
Continuous
370
0
390
251
1001
AcAecLayerStandard
1000

1000

0
ENDTAB
0
TABLE
2
STYLE
5
245
330
0
100
AcDbSymbolTable
70
2
0
STYLE
5
253
330
245
100
AcDbSymbolTableRecord
100
AcDbTextStyleTableRecord
2
Standard
70
0
40
0.0
41
1.0
50
0.0
71
0
42
0.2
3
Arial
4

1001
ACAD
1000
Arial
1071
0
0
STYLE
5
132
330
245
100
AcDbSymbolTableRecord
100
AcDbTextStyleTableRecord
2
Beschriftung
70
0
40
0.0
41
1.0
50
0.0
71
0
42
0.2
3
Arial
4

1001
ACAD
1000
Arial
1071
0
1001
AcadAnnotative
1000
AnnotativeData
1070
1
1070
1
0
ENDTAB
0
TABLE
2
VIEW
5
248
330
0
100
AcDbSymbolTable
70
0
0
ENDTAB
0
TABLE
2
UCS
5
249
330
0
100
AcDbSymbolTable
70
0
0
ENDTAB
0
TABLE
2
APPID
5
24B
330
0
100
AcDbSymbolTable
70
13
0
APPID
5
254
330
24B
100
AcDbSymbolTableRecord
100
AcDbRegAppTableRecord
2
ACAD
70
0
0
APPID
5
26C
330
24B
100
AcDbSymbolTableRecord
100
AcDbRegAppTableRecord
2
VD_INVISIBLE_NOT_FOR_READ
70
0
0
APPID
5
26D
330
24B
100
AcDbSymbolTableRecord
100
AcDbRegAppTableRecord
2
VD_TEMPHATCH
70
0
0
APPID
5
26E
330
24B
100
AcDbSymbolTableRecord
100
AcDbRegAppTableRecord
2
VDEXTRAPARAM
70
0
0
APPID
5
26F
330
24B
100
AcDbSymbolTableRecord
100
AcDbRegAppTableRecord
2
PE_URL
70
0
0
APPID
5
270
330
24B
100
AcDbSymbolTableRecord
100
AcDbRegAppTableRecord
2
VD_UNKNOWN
70
0
0
APPID
5
28F
330
24B
100
AcDbSymbolTableRecord
100
AcDbRegAppTableRecord
2
AcadAnnotative
70
0
0
APPID
5
290
330
24B
100
AcDbSymbolTableRecord
100
AcDbRegAppTableRecord
2
ACAD_DSTYLE_DIMJAG
70
0
0
APPID
5
291
330
24B
100
AcDbSymbolTableRecord
100
AcDbRegAppTableRecord
2
ACAD_DSTYLE_DIMTALN
70
0
0
APPID
5
293
330
24B
100
AcDbSymbolTableRecord
100
AcDbRegAppTableRecord
2
ACAD_PSEXT
70
0
0
APPID
5
42A
330
24B
100
AcDbSymbolTableRecord
100
AcDbRegAppTableRecord
2
ACAD_MLEADERVER
70
0
0
APPID
5
532
330
24B
100
AcDbSymbolTableRecord
100
AcDbRegAppTableRecord
2
ACAD_EXEMPT_FROM_CAD_STANDARDS
70
0
0
APPID
5
57F
330
24B
100
AcDbSymbolTableRecord
100
AcDbRegAppTableRecord
2
AcAecLayerStandard
70
0
0
ENDTAB
0
TABLE
2
DIMSTYLE
5
24C
330
0
100
AcDbSymbolTable
70
3
100
AcDbDimStyleTable
71
2
340
27
340
269
0
DIMSTYLE
105
269
330
24C
100
AcDbSymbolTableRecord
100
AcDbDimStyleTableRecord
2
Standard
70
0
172
1
174
1
288
1
340
253
342
23C
0
DIMSTYLE
105
137
330
24C
100
AcDbSymbolTableRecord
100
AcDbDimStyleTableRecord
2
Beschriftung
70
0
41
2.5
42
0.625
44
1.25
73
0
74
0
77
1
140
2.5
147
0.625
172
1
174
1
271
2
288
1
340
253
342
23C
1001
AcadAnnotative
1000
AnnotativeData
1070
1
1070
1
1001
ACAD_DSTYLE_DIMJAG
1070
388
1040
1.5
1001
ACAD_DSTYLE_DIMTALN
1070
392
1070
0
0
DIMSTYLE
105
27
102
{ACAD_REACTORS
330
F10008
330
F10012
330
F1001C
330
F10021
330
F10026
330
F10003
330
F1000D
330
F10017
102
}
330
24C
100
AcDbSymbolTableRecord
100
AcDbDimStyleTableRecord
2
BEM-ISBE
70
0
41
2.5
42
0.625
44
1.25
48
0.000000001
71
1
73
0
74
0
77
1
140
2.5
144
1.00000000000000
146
0.5
147
0.625
171
 3
172
 1
179
 3
271
 3
272
 3
274
 3
340
253
342
23C
1001
ACAD_DSTYLE_DIMJAG
1070
388
1040
1.5
1001
ACAD_DSTYLE_DIMTALN
1070
392
1070
1
0
ENDTAB
0
TABLE
2
BLOCK_RECORD
5
243
330
0
100
AcDbSymbolTable
70
5
0
BLOCK_RECORD
5
261
330
243
100
AcDbSymbolTableRecord
100
AcDbBlockTableRecord
2
*Model_Space
340
FD0
0
BLOCK_RECORD
5
25D
330
243
100
AcDbSymbolTableRecord
100
AcDbBlockTableRecord
2
*Paper_Space
340
FD1
0
BLOCK_RECORD
5
265
330
243
100
AcDbSymbolTableRecord
100
AcDbBlockTableRecord
2
*Paper_Space0
340
0
0
BLOCK_RECORD
5
23C
330
243
100
AcDbSymbolTableRecord
100
AcDbBlockTableRecord
2
VDDIM_DEFAULT
340
0
102
{BLKREFS
102
}
0
BLOCK_RECORD
5
23E
330
243
100
AcDbSymbolTableRecord
100
AcDbBlockTableRecord
2
VDDIM_NONE
340
0
0
BLOCK_RECORD
5
F10007
330
243
100
AcDbSymbolTableRecord
100
AcDbBlockTableRecord
2
*D4
340
0
0
BLOCK_RECORD
5
F10011
330
243
100
AcDbSymbolTableRecord
100
AcDbBlockTableRecord
2
*D6
340
0
0
BLOCK_RECORD
5
F1001B
330
243
100
AcDbSymbolTableRecord
100
AcDbBlockTableRecord
2
*D8
340
0
0
BLOCK_RECORD
5
F10020
330
243
100
AcDbSymbolTableRecord
100
AcDbBlockTableRecord
2
*D9
340
0
0
BLOCK_RECORD
5
F10025
330
243
100
AcDbSymbolTableRecord
100
AcDbBlockTableRecord
2
*D10
340
0
0
BLOCK_RECORD
5
F10002
330
243
100
AcDbSymbolTableRecord
100
AcDbBlockTableRecord
2
*D3
340
0
0
BLOCK_RECORD
5
F1000C
330
243
100
AcDbSymbolTableRecord
100
AcDbBlockTableRecord
2
*D5
340
0
0
BLOCK_RECORD
5
F10016
330
243
100
AcDbSymbolTableRecord
100
AcDbBlockTableRecord
2
*D7
340
0
0
ENDTAB
0
ENDSEC
0
SECTION
2
BLOCKS
0
BLOCK
5
262
330
261
100
AcDbEntity
8
0
100
AcDbBlockBegin
2
*Model_Space
70
0
10
0.0
20
0.0
30
0.0
3
*Model_Space
1

0
ENDBLK
5
263
330
261
100
AcDbEntity
8
0
100
AcDbBlockEnd
0
BLOCK
5
25E
330
25D
100
AcDbEntity
67
1
8
0
100
AcDbBlockBegin
2
*Paper_Space
70
0
10
0.0
20
0.0
30
0.0
3
*Paper_Space
1

0
ENDBLK
5
25F
330
25D
100
AcDbEntity
67
1
8
0
100
AcDbBlockEnd
0
BLOCK
5
266
330
265
100
AcDbEntity
8
0
100
AcDbBlockBegin
2
*Paper_Space0
70
0
10
0.0
20
0.0
30
0.0
3
*Paper_Space0
1

0
VIEWPORT
5
296
102
{ACAD_XDICTIONARY
360
58E
102
}
330
265
100
AcDbEntity
8
0
60
1
100
AcDbViewport
10
0.0
20
0.0
30
0.0
40
10.0
41
10.0
69
0
12
0.0
22
0.0
13
0.0
23
0.0
14
1.0
24
1.0
15
0.0
25
0.0
16
0.0
26
0.0
36
1.0
17
0.0
27
0.0
37
0.0
42
0.0
43
0.0
44
0.0
45
10.0
50
0.0
51
0.0000000000007958
72
100
90
163872
1

281
0
71
0
74
0
110
0.0
120
0.0
130
0.0
111
1.0
121
0.0
131
0.0
112
0.0
122
1.0
132
0.0
79
0
146
0.0
1001
VD_INVISIBLE_NOT_FOR_READ
1000
VD_INVISIBLE_NOT_FOR_READ
0
VIEWPORT
5
297
102
{ACAD_XDICTIONARY
360
590
102
}
330
265
100
AcDbEntity
8
0
60
1
100
AcDbViewport
10
0.0
20
0.0
30
0.0
40
10.0
41
10.0
69
0
12
0.0
22
0.0
13
0.0
23
0.0
14
1.0
24
1.0
15
0.0
25
0.0
16
0.0
26
0.0
36
1.0
17
0.0
27
0.0
37
0.0
42
0.0
43
0.0
44
0.0
45
10.0
50
0.0
51
0.0000000000007958
72
100
90
163872
1

281
0
71
0
74
0
110
0.0
120
0.0
130
0.0
111
1.0
121
0.0
131
0.0
112
0.0
122
1.0
132
0.0
79
0
146
0.0
1001
VD_INVISIBLE_NOT_FOR_READ
1000
VD_INVISIBLE_NOT_FOR_READ
0
ENDBLK
5
267
330
265
100
AcDbEntity
8
0
100
AcDbBlockEnd
0
BLOCK
5
28B
330
23C
100
AcDbEntity
8
0
100
AcDbBlockBegin
2
VDDIM_DEFAULT
70
0
10
0.0
20
0.0
30
0.0
3
VDDIM_DEFAULT
1

0
LWPOLYLINE
5
23D
330
23C
100
AcDbEntity
8
0
6
Continuous
62
0
100
AcDbPolyline
90
4
70
0
43
0.0
10
0.0
20
0.0
10
-1.0
20
-0.1665
10
-1.0
20
0.1665
10
0.0
20
0.0
1001
VDEXTRAPARAM
1071
1
1071
0
1071
0
1040
1.0
1000

1000

1040
0.0
1040
0.0
0
HATCH
5
292
330
23C
100
AcDbEntity
8
0
6
Continuous
62
0
100
AcDbHatch
10
0.0
20
0.0
30
0.0
210
0.0
220
0.0
230
1.0
2
SOLID
70
1
71
0
91
1
92
2
72
0
73
1
93
3
10
0.0
20
0.0
10
-1.0
20
-0.1665
10
-1.0
20
0.1665
97
0
75
0
76
1
98
1
10
0.0
20
0.0
1001
VDEXTRAPARAM
1071
1
1071
0
1071
0
1040
1.0
1000

1000

1040
0.0
1040
0.0
1001
VD_TEMPHATCH
1000
VD_TEMPHATCH
0
ENDBLK
5
28C
330
23C
100
AcDbEntity
8
0
100
AcDbBlockEnd
0
BLOCK
5
28D
330
23E
100
AcDbEntity
8
0
100
AcDbBlockBegin
2
VDDIM_NONE
70
0
10
0.0
20
0.0
30
0.0
3
VDDIM_NONE
1

0
ENDBLK
5
28E
330
23E
100
AcDbEntity
8
0
100
AcDbBlockEnd
  0
BLOCK
  5
F1002A
330
F10007
100
AcDbEntity
  8
0
100
AcDbBlockBegin
  2
*D4
 70
     1
 10
0.0
 20
0.0
 30
0.0
  3
*D4
  1

  0
LINE
  5
F1002B
330
F10007
100
AcDbEntity
  8
Bemassung
 62
     0
370
    -2
100
AcDbLine
10
-65.5610291009239
20
-22.9650953427507
30
0.000000000000000
11
-65.5610291009239
21
24.0349046572493
31
0.000000000000000
  0
LINE
  5
F1002C
330
F10007
100
AcDbEntity
  8
Bemassung
 62
     0
370
    -2
100
AcDbLine
10
-65.0610291009239
20
2.03490465724934
30
0.000000000000000
11
-65.0610291009239
21
9.03490465724934
31
0.000000000000000
  0
LINE
  5
F1002D
330
F10007
100
AcDbEntity
  8
Bemassung
 62
     0
370
    -2
100
AcDbLine
10
-77.7934328218987
20
7.03490465724934
30
0.000000000000000
11
-64.6049522947376
21
7.03490465724934
31
0.000000000000000
  0
INSERT
  5
F1002E
330
F10007
100
AcDbEntity
  8
Bemassung
 62
     0
370
    -2
100
AcDbBlockReference
  2
VDDIM_DEFAULT
10
-65.5610291009239
20
7.03490465724934
30
0.000000000000000
 41
2.50000000000000
 42
2.50000000000000
 43
2.50000000000000
  0
INSERT
  5
F1002F
330
F10007
100
AcDbEntity
  8
Bemassung
 62
     0
370
    -2
100
AcDbBlockReference
  2
VDDIM_DEFAULT
10
-65.0610291009239
20
7.03490465724934
30
0.000000000000000
 41
2.50000000000000
 42
2.50000000000000
 43
2.50000000000000
 50
180.000000000000
  0
MTEXT
  5
F10030
330
F10007
100
AcDbEntity
  8
Bemassung
 62
     0
100
AcDbMText
10
-65.0610291009239
20
7.70157132391601
30
0.000000000000000
 40
2.50000000000000
 41
0.0
 71
     8
 72
     1
  1
0.5 x 45°
 11
1.00000000000000
 21
0.000000000000000
 31
0.0
 73
     1
 44
1.0
1001
ACAD
1000
MTEXTBEGIN
1070
73
1070
1
1070
44
1040
1.0
1070
74
1070
0
1000
MTEXTEND
  0
POINT
  5
F10031
330
F10007
100
AcDbEntity
  8
Bemassung
 62
     0
100
AcDbPoint
10
-65.5610291009239
20
-22.9650953427507
30
0.000000000000000
  0
POINT
  5
F10032
330
F10007
100
AcDbEntity
  8
Bemassung
 62
     0
100
AcDbPoint
10
-65.0610291009239
20
2.03490465724934
30
0.000000000000000
  0
ENDBLK
  5
F10033
330
F10007
100
AcDbEntity
  8
0
100
AcDbBlockEnd
  0
BLOCK
  5
F10034
330
F10011
100
AcDbEntity
  8
0
100
AcDbBlockBegin
  2
*D6
 70
     1
 10
0.0
 20
0.0
 30
0.0
  3
*D6
  1

  0
LINE
  5
F10035
330
F10011
100
AcDbEntity
  8
Bemassung
 62
     0
370
    -2
100
AcDbLine
10
-45.5610291009239
20
2.03490465724934
30
0.000000000000000
11
-45.5610291009239
21
19.0349046572493
31
0.000000000000000
  0
LINE
  5
F10036
330
F10011
100
AcDbEntity
  8
Bemassung
 62
     0
370
    -2
100
AcDbLine
10
-1.56102910092389
20
1.53490465724934
30
0.000000000000000
11
-1.56102910092389
21
24.0349046572493
31
0.000000000000000
  0
LINE
  5
F10037
330
F10011
100
AcDbEntity
  8
Bemassung
 62
     0
370
    -2
100
AcDbLine
10
-45.5610291009239
20
17.0349046572493
30
0.000000000000000
11
20.0789753007177
21
17.0349046572493
31
0.000000000000000
  0
INSERT
  5
F10038
330
F10011
100
AcDbEntity
  8
Bemassung
 62
     0
370
    -2
100
AcDbBlockReference
  2
VDDIM_DEFAULT
10
-45.5610291009239
20
17.0349046572493
30
0.000000000000000
 41
2.50000000000000
 42
2.50000000000000
 43
2.50000000000000
 50
180.000000000000
  0
INSERT
  5
F10039
330
F10011
100
AcDbEntity
  8
Bemassung
 62
     0
370
    -2
100
AcDbBlockReference
  2
VDDIM_DEFAULT
10
-1.56102910092389
20
17.0349046572493
30
0.000000000000000
 41
2.50000000000000
 42
2.50000000000000
 43
2.50000000000000
  0
MTEXT
  5
F1003A
330
F10011
100
AcDbEntity
  8
Bemassung
 62
     0
100
AcDbMText
10
-23.5610291009239
20
17.7015713239160
30
0.000000000000000
 40
2.50000000000000
 41
0.0
 71
     8
 72
     1
  1
44
 11
1.00000000000000
 21
0.000000000000000
 31
0.0
 73
     1
 44
1.0
1001
ACAD
1000
MTEXTBEGIN
1070
73
1070
1
1070
44
1040
1.0
1070
74
1070
0
1000
MTEXTEND
  0
POINT
  5
F1003B
330
F10011
100
AcDbEntity
  8
Bemassung
 62
     0
100
AcDbPoint
10
-45.5610291009239
20
2.03490465724934
30
0.000000000000000
  0
POINT
  5
F1003C
330
F10011
100
AcDbEntity
  8
Bemassung
 62
     0
100
AcDbPoint
10
-1.56102910092389
20
1.53490465724934
30
0.000000000000000
  0
ENDBLK
  5
F1003D
330
F10011
100
AcDbEntity
  8
0
100
AcDbBlockEnd
  0
BLOCK
  5
F1003E
330
F1001B
100
AcDbEntity
  8
0
100
AcDbBlockBegin
  2
*D8
 70
     1
 10
0.0
 20
0.0
 30
0.0
  3
*D8
  1

  0
LINE
  5
F1003F
330
F1001B
100
AcDbEntity
  8
Bemassung
 62
     0
370
    -2
100
AcDbLine
10
-45.5610291009239
20
-5.96509534275066
30
0.000000000000000
11
-45.5610291009239
21
-17.9650953427507
31
0.000000000000000
  0
LINE
  5
F10040
330
F1001B
100
AcDbEntity
  8
Bemassung
 62
     0
370
    -2
100
AcDbLine
10
-65.5610291009239
20
-22.9650953427507
30
0.000000000000000
11
-65.5610291009239
21
24.0349046572493
31
0.000000000000000
  0
LINE
  5
F10041
330
F1001B
100
AcDbEntity
  8
Bemassung
 62
     0
370
    -2
100
AcDbLine
10
-43.7810356729043
20
-15.9650953427507
30
0.000000000000000
11
-65.5610291009239
21
-15.9650953427507
31
0.000000000000000
  0
INSERT
  5
F10042
330
F1001B
100
AcDbEntity
  8
Bemassung
 62
     0
370
    -2
100
AcDbBlockReference
  2
VDDIM_DEFAULT
10
-45.5610291009239
20
-15.9650953427507
30
0.000000000000000
 41
2.50000000000000
 42
2.50000000000000
 43
2.50000000000000
  0
INSERT
  5
F10043
330
F1001B
100
AcDbEntity
  8
Bemassung
 62
     0
370
    -2
100
AcDbBlockReference
  2
VDDIM_DEFAULT
10
-65.5610291009239
20
-15.9650953427507
30
0.000000000000000
 41
2.50000000000000
 42
2.50000000000000
 43
2.50000000000000
 50
180.000000000000
  0
MTEXT
  5
F10044
330
F1001B
100
AcDbEntity
  8
Bemassung
 62
     0
100
AcDbMText
10
-55.5610291009239
20
-15.2984286760840
30
0.000000000000000
 40
2.50000000000000
 41
0.0
 71
     8
 72
     1
  1
20
 11
1.00000000000000
 21
0.000000000000000
 31
0.0
 73
     1
 44
1.0
1001
ACAD
1000
MTEXTBEGIN
1070
73
1070
1
1070
44
1040
1.0
1070
74
1070
0
1000
MTEXTEND
  0
POINT
  5
F10045
330
F1001B
100
AcDbEntity
  8
Bemassung
 62
     0
100
AcDbPoint
10
-45.5610291009239
20
-5.96509534275066
30
0.000000000000000
  0
POINT
  5
F10046
330
F1001B
100
AcDbEntity
  8
Bemassung
 62
     0
100
AcDbPoint
10
-65.5610291009239
20
-22.9650953427507
30
0.000000000000000
  0
ENDBLK
  5
F10047
330
F1001B
100
AcDbEntity
  8
0
100
AcDbBlockEnd
  0
BLOCK
  5
F10048
330
F10020
100
AcDbEntity
  8
0
100
AcDbBlockBegin
  2
*D9
 70
     1
 10
0.0
 20
0.0
 30
0.0
  3
*D9
  1

  0
LINE
  5
F10049
330
F10020
100
AcDbEntity
  8
Bemassung
 62
     0
370
    -2
100
AcDbLine
10
-44.5610291009239
20
-5.96509534275066
30
0.000000000000000
11
-44.5610291009239
21
-22.9650953427507
31
0.000000000000000
  0
LINE
  5
F1004A
330
F10020
100
AcDbEntity
  8
Bemassung
 62
     0
370
    -2
100
AcDbLine
10
-65.5610291009239
20
-22.9650953427507
30
0.000000000000000
11
-65.5610291009239
21
24.0349046572493
31
0.000000000000000
  0
LINE
  5
F1004B
330
F10020
100
AcDbEntity
  8
Bemassung
 62
     0
370
    -2
100
AcDbLine
10
-42.8555282674895
20
-20.9650953427507
30
0.000000000000000
11
-65.5610291009239
21
-20.9650953427507
31
0.000000000000000
  0
INSERT
  5
F1004C
330
F10020
100
AcDbEntity
  8
Bemassung
 62
     0
370
    -2
100
AcDbBlockReference
  2
VDDIM_DEFAULT
10
-44.5610291009239
20
-20.9650953427507
30
0.000000000000000
 41
2.50000000000000
 42
2.50000000000000
 43
2.50000000000000
  0
INSERT
  5
F1004D
330
F10020
100
AcDbEntity
  8
Bemassung
 62
     0
370
    -2
100
AcDbBlockReference
  2
VDDIM_DEFAULT
10
-65.5610291009239
20
-20.9650953427507
30
0.000000000000000
 41
2.50000000000000
 42
2.50000000000000
 43
2.50000000000000
 50
180.000000000000
  0
MTEXT
  5
F1004E
330
F10020
100
AcDbEntity
  8
Bemassung
 62
     0
100
AcDbMText
10
-55.0610291009239
20
-20.2984286760840
30
0.000000000000000
 40
2.50000000000000
 41
0.0
 71
     8
 72
     1
  1
21
 11
1.00000000000000
 21
0.000000000000000
 31
0.0
 73
     1
 44
1.0
1001
ACAD
1000
MTEXTBEGIN
1070
73
1070
1
1070
44
1040
1.0
1070
74
1070
0
1000
MTEXTEND
  0
POINT
  5
F1004F
330
F10020
100
AcDbEntity
  8
Bemassung
 62
     0
100
AcDbPoint
10
-44.5610291009239
20
-5.96509534275066
30
0.000000000000000
  0
POINT
  5
F10050
330
F10020
100
AcDbEntity
  8
Bemassung
 62
     0
100
AcDbPoint
10
-65.5610291009239
20
-22.9650953427507
30
0.000000000000000
  0
ENDBLK
  5
F10051
330
F10020
100
AcDbEntity
  8
0
100
AcDbBlockEnd
  0
BLOCK
  5
F10052
330
F10025
100
AcDbEntity
  8
0
100
AcDbBlockBegin
  2
*D10
 70
     1
 10
0.0
 20
0.0
 30
0.0
  3
*D10
  1

  0
LINE
  5
F10053
330
F10025
100
AcDbEntity
  8
Bemassung
 62
     0
370
    -2
100
AcDbLine
10
-1.56102910092389
20
1.53490465724934
30
0.000000000000000
11
-1.56102910092389
21
24.0349046572493
31
0.000000000000000
  0
LINE
  5
F10054
330
F10025
100
AcDbEntity
  8
Bemassung
 62
     0
370
    -2
100
AcDbLine
10
-65.5610291009239
20
-22.9650953427507
30
0.000000000000000
11
-65.5610291009239
21
24.0349046572493
31
0.000000000000000
  0
LINE
  5
F10055
330
F10025
100
AcDbEntity
  8
Bemassung
 62
     0
370
    -2
100
AcDbLine
10
0.180566084299244
20
22.0349046572493
30
0.000000000000000
11
-65.5610291009239
21
22.0349046572493
31
0.000000000000000
  0
INSERT
  5
F10056
330
F10025
100
AcDbEntity
  8
Bemassung
 62
     0
370
    -2
100
AcDbBlockReference
  2
VDDIM_DEFAULT
10
-1.56102910092389
20
22.0349046572493
30
0.000000000000000
 41
2.50000000000000
 42
2.50000000000000
 43
2.50000000000000
  0
INSERT
  5
F10057
330
F10025
100
AcDbEntity
  8
Bemassung
 62
     0
370
    -2
100
AcDbBlockReference
  2
VDDIM_DEFAULT
10
-65.5610291009239
20
22.0349046572493
30
0.000000000000000
 41
2.50000000000000
 42
2.50000000000000
 43
2.50000000000000
 50
180.000000000000
  0
MTEXT
  5
F10058
330
F10025
100
AcDbEntity
  8
Bemassung
 62
     0
100
AcDbMText
10
-33.5610291009239
20
22.7015713239160
30
0.000000000000000
 40
2.50000000000000
 41
0.0
 71
     8
 72
     1
  1
64
 11
1.00000000000000
 21
0.000000000000000
 31
0.0
 73
     1
 44
1.0
1001
ACAD
1000
MTEXTBEGIN
1070
73
1070
1
1070
44
1040
1.0
1070
74
1070
0
1000
MTEXTEND
  0
POINT
  5
F10059
330
F10025
100
AcDbEntity
  8
Bemassung
 62
     0
100
AcDbPoint
10
-1.56102910092389
20
1.53490465724934
30
0.000000000000000
  0
POINT
  5
F1005A
330
F10025
100
AcDbEntity
  8
Bemassung
 62
     0
100
AcDbPoint
10
-65.5610291009239
20
-22.9650953427507
30
0.000000000000000
  0
ENDBLK
  5
F1005B
330
F10025
100
AcDbEntity
  8
0
100
AcDbBlockEnd
  0
BLOCK
  5
F1005C
330
F10002
100
AcDbEntity
  8
0
100
AcDbBlockBegin
  2
*D3
 70
     1
 10
0.0
 20
0.0
 30
0.0
  3
*D3
  1

 0
ARC
  5
F1005D
330
F10002
100
AcDbEntity
  8
Bemassung
 62
     0
370
   -2
100
AcDbCircle
10
-65.5610291009239
20
1.53490465724934
30
0.000000000000000
 40
15.0566551361940
100
AcDbArc
 50
90.0000000000000
 51
111.972813954126
  0
LINE
  5
F1005E
330
F10002
100
AcDbEntity
  8
Bemassung
 62
     0
370
    -2
100
AcDbLine
10
-65.5610291009239
20
1.53490465724934
30
0.000000000000000
11
-65.5610291009239
21
18.5915597934433
31
0.000000000000000
  0
LINE
  5
F1005F
330
F10002
100
AcDbEntity
  8
Bemassung
 62
     0
370
    -2
100
AcDbLine
10
-65.5610291009239
20
1.53490465724934
30
0.000000000000000
11
-66.1562977806052
21
18.5811693399897
31
0.000000000000000
  0
INSERT
  5
F10060
330
F10002
100
AcDbEntity
  8
Bemassung
 62
     0
370
    -2
100
AcDbBlockReference
  2
VDDIM_DEFAULT
10
-65.5610291009239
20
16.5915597934433
30
0.000000000000000
 41
2.50000000000000
 42
2.50000000000000
 43
2.50000000000000
 50
179.809732359873
  0
INSERT
  5
F10061
330
F10002
100
AcDbEntity
  8
Bemassung
 62
     0
370
    -2
100
AcDbBlockReference
  2
VDDIM_DEFAULT
10
-66.0864987872002
20
16.5823876859515
30
0.000000000000000
 41
2.50000000000000
 42
2.50000000000000
 43
2.50000000000000
 50
2.19026764012912
  0
MTEXT
  5
F10062
330
F10002
100
AcDbEntity
  8
Bemassung
 62
     0
100
AcDbMText
10
-70.7536964273082
20
15.6678119989033
30
0.000000000000000
 40
2.50000000000000
 41
0.0
 71
     8
 72
     1
  1
2°
 11
0.940690666396463
 21
0.339265486241347
 31
0.0
 73
     1
 44
1.0
1001
ACAD
1000
MTEXTBEGIN
1070
73
1070
1
1070
44
1040
1.0
1070
74
1070
0
1000
MTEXTEND
  0
POINT
  5
F10063
330
F10002
100
AcDbEntity
  8
Bemassung
 62
     0
100
AcDbPoint
10
-65.5610291009239
20
1.53490465724934
30
0.000000000000000
  0
POINT
  5
F10064
330
F10002
100
AcDbEntity
  8
Bemassung
 62
     0
100
AcDbPoint
10
-65.5610291009239
20
16.5915597934433
30
0.000000000000000
  0
POINT
  5
F10065
330
F10002
100
AcDbEntity
  8
Bemassung
 62
     0
100
AcDbPoint
10
-66.0864987872002
20
16.5823876859515
30
0.000000000000000
  0
POINT
  5
F10066
330
F10002
100
AcDbEntity
  8
Bemassung
 62
     0
100
AcDbPoint
10
-65.8238039659468
20
16.5892665919375
30
0.000000000000000
  0
ENDBLK
  5
F10067
330
F10002
100
AcDbEntity
  8
0
100
AcDbBlockEnd
  0
BLOCK
  5
F10068
330
F1000C
100
AcDbEntity
  8
0
100
AcDbBlockBegin
  2
*D5
 70
     1
 10
0.0
 20
0.0
 30
0.0
  3
*D5
  1

  0
LINE
  5
F10069
330
F1000C
100
AcDbEntity
  8
Bemassung
 62
     0
370
    -2
100
AcDbLine
10
-65.0610291009239
20
-5.96509534275066
30
0.000000000000000
11
-77.5610291009239
21
-5.96509534275066
31
0.000000000000000
  0
LINE
  5
F1006A
330
F1000C
100
AcDbEntity
  8
Bemassung
 62
     0
370
    -2
100
AcDbLine
10
-65.0610291009239
20
2.03490465724934
30
0.000000000000000
11
-77.5610291009239
21
2.03490465724934
31
0.000000000000000
  0
LINE
  5
F1006B
330
F1000C
100
AcDbEntity
  8
Bemassung
 62
     0
370
    -2
100
AcDbLine
10
-75.5610291009239
20
-5.96509534275066
30
0.000000000000000
11
-75.5610291009239
21
2.03490465724934
31
0.000000000000000
  0
INSERT
  5
F1006C
330
F1000C
100
AcDbEntity
  8
Bemassung
 62
     0
370
    -2
100
AcDbBlockReference
  2
VDDIM_DEFAULT
10
-75.5610291009239
20
-5.96509534275066
30
0.000000000000000
 41
2.50000000000000
 42
2.50000000000000
 43
2.50000000000000
 50
270.000000000000
  0
INSERT
  5
F1006D
330
F1000C
100
AcDbEntity
  8
Bemassung
 62
     0
370
    -2
100
AcDbBlockReference
  2
VDDIM_DEFAULT
10
-75.5610291009239
20
2.03490465724934
30
0.000000000000000
 41
2.50000000000000
 42
2.50000000000000
 43
2.50000000000000
 50
90.0000000000000
  0
MTEXT
  5
F1006E
330
F1000C
100
AcDbEntity
  8
Bemassung
 62
     0
100
AcDbMText
10
-74.8943624342572
20
-1.96509534275066
30
0.000000000000000
 40
2.50000000000000
 41
0.0
 71
     8
 72
     1
  1
8
 11
6.12323399573677e-017
 21
1.00000000000000
 31
0.0
 73
     1
 44
1.0
1001
ACAD
1000
MTEXTBEGIN
1070
73
1070
1
1070
44
1040
1.0
1070
74
1070
0
1000
MTEXTEND
  0
POINT
  5
F1006F
330
F1000C
100
AcDbEntity
  8
Bemassung
 62
     0
100
AcDbPoint
10
-65.0610291009239
20
-5.96509534275066
30
0.000000000000000
  0
POINT
  5
F10070
330
F1000C
100
AcDbEntity
  8
Bemassung
 62
     0
100
AcDbPoint
10
-65.0610291009239
20
2.03490465724934
30
0.000000000000000
  0
ENDBLK
  5
F10071
330
F1000C
100
AcDbEntity
  8
0
100
AcDbBlockEnd
  0
BLOCK
  5
F10072
330
F10016
100
AcDbEntity
  8
0
100
AcDbBlockBegin
  2
*D7
 70
     1
 10
0.0
 20
0.0
 30
0.0
  3
*D7
  1

  0
LINE
  5
F10073
330
F10016
100
AcDbEntity
  8
Bemassung
 62
     0
370
    -2
100
AcDbLine
10
-2.06102910092389
20
-5.96509534275066
30
0.000000000000000
11
10.4389708990761
21
-5.96509534275066
31
0.000000000000000
  0
LINE
  5
F10074
330
F10016
100
AcDbEntity
  8
Bemassung
 62
     0
370
    -2
100
AcDbLine
10
-2.06102910092389
20
2.03490465724934
30
0.000000000000000
11
10.4389708990761
21
2.03490465724934
31
0.000000000000000
  0
LINE
  5
F10075
330
F10016
100
AcDbEntity
  8
Bemassung
 62
     0
370
    -2
100
AcDbLine
10
8.43897089907611
20
-8.06603642875297
30
0.000000000000000
11
8.43897089907611
21
2.03490465724934
31
0.000000000000000
  0
INSERT
  5
F10076
330
F10016
100
AcDbEntity
  8
Bemassung
 62
     0
370
    -2
100
AcDbBlockReference
  2
VDDIM_DEFAULT
10
8.43897089907611
20
-5.96509534275066
30
0.000000000000000
 41
2.50000000000000
 42
2.50000000000000
 43
2.50000000000000
 50
270.000000000000
  0
INSERT
  5
F10077
330
F10016
100
AcDbEntity
  8
Bemassung
 62
     0
370
    -2
100
AcDbBlockReference
  2
VDDIM_DEFAULT
10
8.43897089907611
20
2.03490465724934
30
0.000000000000000
 41
2.50000000000000
 42
2.50000000000000
 43
2.50000000000000
 50
90.0000000000000
  0
MTEXT
  5
F10078
330
F10016
100
AcDbEntity
  8
Bemassung
 62
     0
100
AcDbMText
10
9.10563756574278
20
-3.21353470580977
30
0.000000000000000
 40
2.50000000000000
 41
0.0
 71
     8
 72
     1
  1
8h5
 11
6.12323399573677e-017
 21
1.00000000000000
 31
0.0
 73
     1
 44
1.0
  0
POINT
  5
F10079
330
F10016
100
AcDbEntity
  8
Bemassung
 62
     0
100
AcDbPoint
10
-2.06102910092389
20
-5.96509534275066
30
0.000000000000000
  0
POINT
  5
F1007A
330
F10016
100
AcDbEntity
  8
Bemassung
 62
     0
100
AcDbPoint
10
-2.06102910092389
20
2.03490465724934
30
0.000000000000000
  0
ENDBLK
  5
F1007B
330
F10016
100
AcDbEntity
  8
0
100
AcDbBlockEnd
0
ENDSEC
0
SECTION
2
ENTITIES
  0
DIMENSION
  5
F10008
330
261
100
AcDbEntity
  8
Bemassung
100
AcDbDimension
  2
*D4
10
-65.0610291009239
20
7.03490465724934
30
0.000000000000000
11
-65.0610291009239
21
7.70157132391601
31
0.000000000000000
 70
32
 1
0.5 x 45°
 71
     8
  3
BEM-ISBE
100
AcDbAlignedDimension
13
-65.5610291009239
23
-22.9650953427507
33
0.000000000000000
14
-65.0610291009239
24
2.03490465724934
34
0.000000000000000
100
AcDbRotatedDimension
1001
ACAD
1000
DSTYLE
1002
{
1070
284
1070
8
1070
78
1070
8
1070
144
1040
1.00000000000000
1070
147
1040
0.625
1070
 72
1070
 0
1070
 71
1070
 0
1002
}
  0
DIMENSION
  5
F10012
330
261
100
AcDbEntity
  8
Bemassung
100
AcDbDimension
  2
*D6
10
-1.56102910092389
20
17.0349046572493
30
0.000000000000000
11
-23.5610291009239
21
17.7015713239160
31
0.000000000000000
 70
32
 1
44
 71
     8
  3
BEM-ISBE
100
AcDbAlignedDimension
13
-45.5610291009239
23
2.03490465724934
33
0.000000000000000
14
-1.56102910092389
24
1.53490465724934
34
0.000000000000000
100
AcDbRotatedDimension
1001
ACAD
1000
DSTYLE
1002
{
1070
284
1070
8
1070
78
1070
8
1070
144
1040
1.00000000000000
1070
147
1040
0.625
1070
 72
1070
 0
1070
 71
1070
 0
1002
}
  0
DIMENSION
  5
F1001C
330
261
100
AcDbEntity
  8
Bemassung
100
AcDbDimension
  2
*D8
10
-65.5610291009239
20
-15.9650953427507
30
0.000000000000000
11
-55.5610291009239
21
-15.2984286760840
31
0.000000000000000
 70
32
 1
20
 71
     8
  3
BEM-ISBE
100
AcDbAlignedDimension
13
-45.5610291009239
23
-5.96509534275066
33
0.000000000000000
14
-65.5610291009239
24
-22.9650953427507
34
0.000000000000000
100
AcDbRotatedDimension
1001
ACAD
1000
DSTYLE
1002
{
1070
284
1070
8
1070
78
1070
8
1070
144
1040
1.00000000000000
1070
147
1040
0.625
1070
 72
1070
 0
1070
 71
1070
 0
1002
}
  0
DIMENSION
  5
F10021
330
261
100
AcDbEntity
  8
Bemassung
100
AcDbDimension
  2
*D9
10
-65.5610291009239
20
-20.9650953427507
30
0.000000000000000
11
-55.0610291009239
21
-20.2984286760840
31
0.000000000000000
 70
32
 1
21
 71
     8
  3
BEM-ISBE
100
AcDbAlignedDimension
13
-44.5610291009239
23
-5.96509534275066
33
0.000000000000000
14
-65.5610291009239
24
-22.9650953427507
34
0.000000000000000
100
AcDbRotatedDimension
1001
ACAD
1000
DSTYLE
1002
{
1070
284
1070
8
1070
78
1070
8
1070
144
1040
1.00000000000000
1070
147
1040
0.625
1070
 72
1070
 0
1070
 71
1070
 0
1002
}
  0
DIMENSION
  5
F10026
330
261
100
AcDbEntity
  8
Bemassung
100
AcDbDimension
  2
*D10
10
-65.5610291009239
20
22.0349046572493
30
0.000000000000000
11
-33.5610291009239
21
22.7015713239160
31
0.000000000000000
 70
32
 1
64
 71
     8
  3
BEM-ISBE
100
AcDbAlignedDimension
13
-1.56102910092389
23
1.53490465724934
33
0.000000000000000
14
-65.5610291009239
24
-22.9650953427507
34
0.000000000000000
100
AcDbRotatedDimension
1001
ACAD
1000
DSTYLE
1002
{
1070
284
1070
8
1070
78
1070
8
1070
144
1040
1.00000000000000
1070
147
1040
0.625
1070
 72
1070
 0
1070
 71
1070
 0
1002
}
  0
DIMENSION
  5
F10003
330
261
100
AcDbEntity
  8
Bemassung
100
AcDbDimension
  2
*D3
10
-65.5610291009239
20
1.53490465724934
30
0.000000000000000
11
-70.7536964273082
21
15.6678119989033
31
0.000000000000000
 70
34
 1
2°
 71
     8
  3
BEM-ISBE
100
AcDb2LineAngularDimension
13
-65.5610291009239
23
1.53490465724934
33
0.000000000000000
14
-71.1947267939062
24
15.4978668857438
34
0.000000000000000
15
-65.5610291009239
25
16.5915597934433
35
0.000000000000000
16
-65.8238039659468
26
16.5892665919375
36
0.000000000000000
1001
ACAD
1000
DSTYLE
1002
{
1070
284
1070
8
1070
79
1070
2
1070
147
1040
0.625
1070
 72
1070
 0
1070
 71
1070
 0
1002
}
  0
DIMENSION
  5
F1000D
330
261
100
AcDbEntity
  8
Bemassung
100
AcDbDimension
  2
*D5
10
-75.5610291009239
20
2.03490465724934
30
0.000000000000000
11
-74.8943624342572
21
-1.96509534275066
31
0.000000000000000
 70
32
 1
8
 71
     8
  3
BEM-ISBE
100
AcDbAlignedDimension
13
-65.0610291009239
23
-5.96509534275066
33
0.000000000000000
14
-65.0610291009239
24
2.03490465724934
34
0.000000000000000
50
90.0000000000000
100
AcDbRotatedDimension
1001
ACAD
1000
DSTYLE
1002
{
1070
284
1070
8
1070
78
1070
8
1070
144
1040
1.00000000000000
1070
147
1040
0.625
1070
 72
1070
 0
1070
 71
1070
 0
1002
}
  0
DIMENSION
  5
F10017
330
261
100
AcDbEntity
  8
Bemassung
100
AcDbDimension
  2
*D7
10
8.43897089907611
20
2.03490465724934
30
0.000000000000000
11
9.10563756574278
21
-3.21353470580977
31
0.000000000000000
 70
32
 1
8h5
 71
     8
  3
BEM-ISBE
100
AcDbAlignedDimension
13
-2.06102910092389
23
-5.96509534275066
33
0.000000000000000
14
-2.06102910092389
24
2.03490465724934
34
0.000000000000000
50
90.0000000000000
100
AcDbRotatedDimension
1001
ACAD
1000
DSTYLE
1002
{
1070
284
1070
8
1070
78
1070
8
1070
144
1040
1.00000000000000
1070
147
1040
0.625
1070
 72
1070
 0
1070
 71
1070
 0
1002
}
  0
LINE
  5
F1007C
330
F1007D
100
AcDbEntity
8
Geo
100
AcDbLine
10
-65.4388064077028
20
-1.96509534275066
30
0.000000000000000
11
-65.5610291009239
21
1.53490465724934
31
0.000000000000000
  0
LINE
  5
F1007E
330
F1007F
100
AcDbEntity
8
Geo
100
AcDbLine
10
-65.5610291009239
20
1.53490465724934
30
0.000000000000000
11
-65.0610291009239
21
2.03490465724934
31
0.000000000000000
  0
LINE
  5
F10080
330
F10081
100
AcDbEntity
8
Geo
100
AcDbLine
10
-65.0610291009239
20
2.03490465724934
30
0.000000000000000
11
-45.5610291009239
21
2.03490465724934
31
0.000000000000000
  0
LINE
  5
F10082
330
F10083
100
AcDbEntity
8
Geo
100
AcDbLine
10
-45.5610291009239
20
2.03490465724934
30
0.000000000000000
11
-2.06102910092389
21
2.03490465724934
31
0.000000000000000
  0
LINE
  5
F10084
330
F10085
100
AcDbEntity
8
Geo
100
AcDbLine
10
-2.06102910092389
20
2.03490465724934
30
0.000000000000000
11
-1.56102910092389
21
1.53490465724934
31
0.000000000000000
  0
LINE
  5
F10086
330
F10087
100
AcDbEntity
8
Geo
100
AcDbLine
10
-62.3610291009239
20
2.03365906939688
30
0.000000000000000
11
-62.2610291009239
21
2.03453834992954
31
0.000000000000000
  0
LINE
  5
F10088
330
F10089
100
AcDbEntity
8
Geo
100
AcDbLine
10
-62.2610291009239
20
2.03453834992954
30
0.000000000000000
11
-62.1610291009239
21
2.02949297870645
31
0.000000000000000
  0
LINE
  5
F1008A
330
F1008B
100
AcDbEntity
8
Geo
100
AcDbLine
10
-62.1610291009239
20
2.02949297870645
30
0.000000000000000
11
-62.0610291009239
21
2.01853042942891
31
0.000000000000000
  0
LINE
  5
F1008C
330
F1008D
100
AcDbEntity
8
Geo
100
AcDbLine
10
-62.0610291009239
20
2.01853042942891
30
0.000000000000000
11
-61.9610291009239
21
2.00166694090572
31
0.000000000000000
  0
LINE
  5
F1008E
330
F1008F
100
AcDbEntity
8
Geo
100
AcDbLine
10
-61.9610291009239
20
2.00166694090572
30
0.000000000000000
11
-61.8610291009239
21
1.97892749299867
31
0.000000000000000
  0
LINE
  5
F10090
330
F10091
100
AcDbEntity
8
Geo
100
AcDbLine
10
-61.8610291009239
20
1.97892749299867
30
0.000000000000000
11
-61.7610291009239
21
1.95034576961993
31
0.000000000000000
  0
LINE
  5
F10092
330
F10093
100
AcDbEntity
8
Geo
100
AcDbLine
10
-61.7610291009239
20
1.95034576961993
30
0.000000000000000
11
-61.6610291009239
21
1.91596410883607
31
0.000000000000000
  0
LINE
  5
F10094
330
F10095
100
AcDbEntity
8
Geo
100
AcDbLine
10
-61.6610291009239
20
1.91596410883607
30
0.000000000000000
11
-61.5610291009239
21
1.87583344015281
31
0.000000000000000
  0
LINE
  5
F10096
330
F10097
100
AcDbEntity
8
Geo
100
AcDbLine
10
-61.5610291009239
20
1.87583344015281
30
0.000000000000000
11
-61.4610291009239
21
1.83001320907312
31
0.000000000000000
  0
LINE
  5
F10098
330
F10099
100
AcDbEntity
8
Geo
100
AcDbLine
10
-61.4610291009239
20
1.83001320907312
30
0.000000000000000
11
-61.3610291009239
21
1.77857128904078
31
0.000000000000000
  0
LINE
  5
F1009A
330
F1009B
100
AcDbEntity
8
Geo
100
AcDbLine
10
-61.3610291009239
20
1.77857128904078
30
0.000000000000000
11
-61.2610291009239
21
1.72158388089949
31
0.000000000000000
  0
LINE
  5
F1009C
330
F1009D
100
AcDbEntity
8
Geo
100
AcDbLine
10
-61.2610291009239
20
1.72158388089949
30
0.000000000000000
11
-61.1610291009239
21
1.65913540001664
31
0.000000000000000
  0
LINE
  5
F1009E
330
F1009F
100
AcDbEntity
8
Geo
100
AcDbLine
10
-61.1610291009239
20
1.65913540001664
30
0.000000000000000
11
-61.0610291009239
21
1.59131835123903
31
0.000000000000000
  0
LINE
  5
F100A0
330
F100A1
100
AcDbEntity
8
Geo
100
AcDbLine
10
-61.0610291009239
20
1.59131835123903
30
0.000000000000000
11
-60.9610291009239
21
1.51823319186549
31
0.000000000000000
  0
LINE
  5
F100A2
330
F100A3
100
AcDbEntity
8
Geo
100
AcDbLine
10
-60.9610291009239
20
1.51823319186549
30
0.000000000000000
11
-60.8610291009239
21
1.43998818283967
31
0.000000000000000
  0
LINE
  5
F100A4
330
F100A5
100
AcDbEntity
8
Geo
100
AcDbLine
10
-60.8610291009239
20
1.43998818283967
30
0.000000000000000
11
-60.7610291009239
21
1.35669922838323
31
0.000000000000000
  0
LINE
  5
F100A6
330
F100A7
100
AcDbEntity
8
Geo
100
AcDbLine
10
-60.7610291009239
20
1.35669922838323
30
0.000000000000000
11
-60.6610291009239
21
1.26848970430709
31
0.000000000000000
  0
LINE
  5
F100A8
330
F100A9
100
AcDbEntity
8
Geo
100
AcDbLine
10
-60.6610291009239
20
1.26848970430709
30
0.000000000000000
11
-60.5610291009239
21
1.17549027525505
31
0.000000000000000
  0
LINE
  5
F100AA
330
F100AB
100
AcDbEntity
8
Geo
100
AcDbLine
10
-60.5610291009239
20
1.17549027525505
30
0.000000000000000
11
-60.4610291009239
21
1.07783870115036
31
0.000000000000000
  0
LINE
  5
F100AC
330
F100AD
100
AcDbEntity
8
Geo
100
AcDbLine
10
-60.4610291009239
20
1.07783870115036
30
0.000000000000000
11
-60.3610291009239
21
0.975679633132225
31
0.000000000000000
  0
LINE
  5
F100AE
330
F100AF
100
AcDbEntity
8
Geo
100
AcDbLine
10
-60.3610291009239
20
0.975679633132225
30
0.000000000000000
11
-60.2610291009239
21
0.869164399284200
31
0.000000000000000
  0
LINE
  5
F100B0
330
F100B1
100
AcDbEntity
8
Geo
100
AcDbLine
10
-60.2610291009239
20
0.869164399284200
30
0.000000000000000
11
-60.1610291009239
21
0.758450780472169
31
0.000000000000000
  0
LINE
  5
F100B2
330
F100B3
100
AcDbEntity
8
Geo
100
AcDbLine
10
-60.1610291009239
20
0.758450780472169
30
0.000000000000000
11
-60.0610291009239
21
0.643702776623747
31
0.000000000000000
  0
LINE
  5
F100B4
330
F100B5
100
AcDbEntity
8
Geo
100
AcDbLine
10
-60.0610291009239
20
0.643702776623747
30
0.000000000000000
11
-59.9610291009239
21
0.525090363795418
31
0.000000000000000
  0
LINE
  5
F100B6
330
F100B7
100
AcDbEntity
8
Geo
100
AcDbLine
10
-59.9610291009239
20
0.525090363795418
30
0.000000000000000
11
-59.8610291009239
21
0.402789242387246
31
0.000000000000000
  0
LINE
  5
F100B8
330
F100B9
100
AcDbEntity
8
Geo
100
AcDbLine
10
-59.8610291009239
20
0.402789242387246
30
0.000000000000000
11
-59.7610291009239
21
0.276980576878122
31
0.000000000000000
  0
LINE
  5
F100BA
330
F100BB
100
AcDbEntity
8
Geo
100
AcDbLine
10
-59.7610291009239
20
0.276980576878122
30
0.000000000000000
11
-59.6610291009239
21
0.147850727467070
31
0.000000000000000
  0
LINE
  5
F100BC
330
F100BD
100
AcDbEntity
8
Geo
100
AcDbLine
10
-59.6610291009239
20
0.147850727467070
30
0.000000000000000
11
-59.5610291009239
21
0.0155909740181521
31
0.000000000000000
  0
LINE
  5
F100BE
330
F100BF
100
AcDbEntity
8
Geo
100
AcDbLine
10
-59.5610291009239
20
0.0155909740181521
30
0.000000000000000
11
-59.4610291009239
21
-0.119602767282127
31
0.000000000000000
  0
LINE
  5
F100C0
330
F100C1
100
AcDbEntity
8
Geo
100
AcDbLine
10
-59.4610291009239
20
-0.119602767282127
30
0.000000000000000
11
-59.3610291009239
21
-0.257530234135194
31
0.000000000000000
  0
LINE
  5
F100C2
330
F100C3
100
AcDbEntity
8
Geo
100
AcDbLine
10
-59.3610291009239
20
-0.257530234135194
30
0.000000000000000
11
-59.2610291009239
21
-0.397987114778656
31
0.000000000000000
  0
LINE
  5
F100C4
330
F100C5
100
AcDbEntity
8
Geo
100
AcDbLine
10
-59.2610291009239
20
-0.397987114778656
30
0.000000000000000
11
-59.1610291009239
21
-0.540765350633043
31
0.000000000000000
  0
LINE
  5
F100C6
330
F100C7
100
AcDbEntity
8
Geo
100
AcDbLine
10
-59.1610291009239
20
-0.540765350633043
30
0.000000000000000
11
-59.0610291009239
21
-0.685653444498677
31
0.000000000000000
  0
LINE
  5
F100C8
330
F100C9
100
AcDbEntity
8
Geo
100
AcDbLine
10
-59.0610291009239
20
-0.685653444498677
30
0.000000000000000
11
-58.9610291009239
21
-0.832436773846182
31
0.000000000000000
  0
LINE
  5
F100CA
330
F100CB
100
AcDbEntity
8
Geo
100
AcDbLine
10
-58.9610291009239
20
-0.832436773846182
30
0.000000000000000
11
-58.8610291009239
21
-0.980897908736530
31
0.000000000000000
  0
LINE
  5
F100CC
330
F100CD
100
AcDbEntity
8
Geo
100
AcDbLine
10
-58.8610291009239
20
-0.980897908736530
30
0.000000000000000
11
-58.7610291009239
21
-1.13081693389970
31
0.000000000000000
  0
LINE
  5
F100CE
330
F100CF
100
AcDbEntity
8
Geo
100
AcDbLine
10
-58.7610291009239
20
-1.13081693389970
30
0.000000000000000
11
-58.6610291009239
21
-1.28197177449488
31
0.000000000000000
  0
LINE
  5
F100D0
330
F100D1
100
AcDbEntity
8
Geo
100
AcDbLine
10
-58.6610291009239
20
-1.28197177449488
30
0.000000000000000
11
-58.5610291009239
21
-1.43413852506958
31
0.000000000000000
  0
LINE
  5
F100D2
330
F100D3
100
AcDbEntity
8
Geo
100
AcDbLine
10
-58.5610291009239
20
-1.43413852506958
30
0.000000000000000
11
-58.4610291009239
21
-1.58709178123049
31
0.000000000000000
  0
LINE
  5
F100D4
330
F100D5
100
AcDbEntity
8
Geo
100
AcDbLine
10
-58.4610291009239
20
-1.58709178123049
30
0.000000000000000
11
-58.3610291009239
21
-1.74060497353469
31
0.000000000000000
  0
LINE
  5
F100D6
330
F100D7
100
AcDbEntity
8
Geo
100
AcDbLine
10
-58.3610291009239
20
-1.74060497353469
30
0.000000000000000
11
-58.2610291009239
21
-1.89445070310663
31
0.000000000000000
  0
LINE
  5
F100D8
330
F100D9
100
AcDbEntity
8
Geo
100
AcDbLine
10
-58.2610291009239
20
-1.89445070310663
30
0.000000000000000
11
-58.1610291009239
21
-2.04840107848378
31
0.000000000000000
  0
LINE
  5
F100DA
330
F100DB
100
AcDbEntity
8
Geo
100
AcDbLine
10
-58.1610291009239
20
-2.04840107848378
30
0.000000000000000
11
-58.0610291009239
21
-2.20222805319191
31
0.000000000000000
  0
LINE
  5
F100DC
330
F100DD
100
AcDbEntity
8
Geo
100
AcDbLine
10
-58.0610291009239
20
-2.20222805319191
30
0.000000000000000
11
-57.9610291009239
21
-2.35570376355005
31
0.000000000000000
  0
LINE
  5
F100DE
330
F100DF
100
AcDbEntity
8
Geo
100
AcDbLine
10
-57.9610291009239
20
-2.35570376355005
30
0.000000000000000
11
-57.8610291009239
21
-2.50860086620461
31
0.000000000000000
  0
LINE
  5
F100E0
330
F100E1
100
AcDbEntity
8
Geo
100
AcDbLine
10
-57.8610291009239
20
-2.50860086620461
30
0.000000000000000
11
-57.7610291009239
21
-2.66069287489277
31
0.000000000000000
  0
LINE
  5
F100E2
330
F100E3
100
AcDbEntity
8
Geo
100
AcDbLine
10
-57.7610291009239
20
-2.66069287489277
30
0.000000000000000
11
-57.6610291009239
21
-2.81175449593627
31
0.000000000000000
  0
LINE
  5
F100E4
330
F100E5
100
AcDbEntity
8
Geo
100
AcDbLine
10
-57.6610291009239
20
-2.81175449593627
30
0.000000000000000
11
-57.5610291009239
21
-2.96156196196863
31
0.000000000000000
  0
LINE
  5
F100E6
330
F100E7
100
AcDbEntity
8
Geo
100
AcDbLine
10
-57.5610291009239
20
-2.96156196196863
30
0.000000000000000
11
-57.4610291009239
21
-3.10989336340139
31
0.000000000000000
  0
LINE
  5
F100E8
330
F100E9
100
AcDbEntity
8
Geo
100
AcDbLine
10
-57.4610291009239
20
-3.10989336340139
30
0.000000000000000
11
-57.3610291009239
21
-3.25652897713854
31
0.000000000000000
  0
LINE
  5
F100EA
330
F100EB
100
AcDbEntity
8
Geo
100
AcDbLine
10
-57.3610291009239
20
-3.25652897713854
30
0.000000000000000
11
-57.2610291009239
21
-3.40125159205197
31
0.000000000000000
  0
LINE
  5
F100EC
330
F100ED
100
AcDbEntity
8
Geo
100
AcDbLine
10
-57.2610291009239
20
-3.40125159205197
30
0.000000000000000
11
-57.1610291009239
21
-3.54384683073604
31
0.000000000000000
  0
LINE
  5
F100EE
330
F100EF
100
AcDbEntity
8
Geo
100
AcDbLine
10
-57.1610291009239
20
-3.54384683073604
30
0.000000000000000
11
-57.0610291009239
21
-3.68410346706452
31
0.000000000000000
  0
LINE
  5
F100F0
330
F100F1
100
AcDbEntity
8
Geo
100
AcDbLine
10
-57.0610291009239
20
-3.68410346706452
30
0.000000000000000
11
-56.9610291009239
21
-3.82181373907958
31
0.000000000000000
  0
LINE
  5
F100F2
330
F100F3
100
AcDbEntity
8
Geo
100
AcDbLine
10
-56.9610291009239
20
-3.82181373907958
30
0.000000000000000
11
-56.8610291009239
21
-3.95677365674921
31
0.000000000000000
  0
LINE
  5
F100F4
330
F100F5
100
AcDbEntity
8
Geo
100
AcDbLine
10
-56.8610291009239
20
-3.95677365674921
30
0.000000000000000
11
-56.7610291009239
21
-4.08878330413748
31
0.000000000000000
  0
LINE
  5
F100F6
330
F100F7
100
AcDbEntity
8
Geo
100
AcDbLine
10
-56.7610291009239
20
-4.08878330413748
30
0.000000000000000
11
-56.6610291009239
21
-4.21764713553961
31
0.000000000000000
  0
LINE
  5
F100F8
330
F100F9
100
AcDbEntity
8
Geo
100
AcDbLine
10
-56.6610291009239
20
-4.21764713553961
30
0.000000000000000
11
-56.5610291009239
21
-4.34317426514366
31
0.000000000000000
  0
LINE
  5
F100FA
330
F100FB
100
AcDbEntity
8
Geo
100
AcDbLine
10
-56.5610291009239
20
-4.34317426514366
30
0.000000000000000
11
-56.4610291009239
21
-4.46517874978934
31
0.000000000000000
  0
LINE
  5
F100FC
330
F100FD
100
AcDbEntity
8
Geo
100
AcDbLine
10
-56.4610291009239
20
-4.46517874978934
30
0.000000000000000
11
-56.3610291009239
21
-4.58347986440538
31
0.000000000000000
  0
LINE
  5
F100FE
330
F100FF
100
AcDbEntity
8
Geo
100
AcDbLine
10
-56.3610291009239
20
-4.58347986440538
30
0.000000000000000
11
-56.2610291009239
21
-4.69790236971731
31
0.000000000000000
  0
LINE
  5
F10100
330
F10101
100
AcDbEntity
8
Geo
100
AcDbLine
10
-56.2610291009239
20
-4.69790236971731
30
0.000000000000000
11
-56.1610291009239
21
-4.80827677182918
31
0.000000000000000
  0
LINE
  5
F10102
330
F10103
100
AcDbEntity
8
Geo
100
AcDbLine
10
-56.1610291009239
20
-4.80827677182918
30
0.000000000000000
11
-56.0610291009239
21
-4.91443957329460
31
0.000000000000000
  0
LINE
  5
F10104
330
F10105
100
AcDbEntity
8
Geo
100
AcDbLine
10
-56.0610291009239
20
-4.91443957329460
30
0.000000000000000
11
-55.9610291009239
21
-5.01623351530526
31
0.000000000000000
  0
LINE
  5
F10106
330
F10107
100
AcDbEntity
8
Geo
100
AcDbLine
10
-55.9610291009239
20
-5.01623351530526
30
0.000000000000000
11
-55.8610291009239
21
-5.11350781063826
31
0.000000000000000
  0
LINE
  5
F10108
330
F10109
100
AcDbEntity
8
Geo
100
AcDbLine
10
-55.8610291009239
20
-5.11350781063826
30
0.000000000000000
11
-55.7610291009239
21
-5.20611836701690
31
0.000000000000000
  0
LINE
  5
F1010A
330
F1010B
100
AcDbEntity
8
Geo
100
AcDbLine
10
-55.7610291009239
20
-5.20611836701690
30
0.000000000000000
11
-55.6610291009239
21
-5.29392800055447
31
0.000000000000000
  0
LINE
  5
F1010C
330
F1010D
100
AcDbEntity
8
Geo
100
AcDbLine
10
-55.6610291009239
20
-5.29392800055447
30
0.000000000000000
11
-55.5610291009239
21
-5.37680663896449
31
0.000000000000000
  0
LINE
  5
F1010E
330
F1010F
100
AcDbEntity
8
Geo
100
AcDbLine
10
-55.5610291009239
20
-5.37680663896449
30
0.000000000000000
11
-55.4610291009239
21
-5.45463151423659
31
0.000000000000000
  0
LINE
  5
F10110
330
F10111
100
AcDbEntity
8
Geo
100
AcDbLine
10
-55.4610291009239
20
-5.45463151423659
30
0.000000000000000
11
-55.3610291009239
21
-5.52728734449265
31
0.000000000000000
  0
LINE
  5
F10112
330
F10113
100
AcDbEntity
8
Geo
100
AcDbLine
10
-55.3610291009239
20
-5.52728734449265
30
0.000000000000000
11
-55.2610291009239
21
-5.59466650475365
31
0.000000000000000
  0
LINE
  5
F10114
330
F10115
100
AcDbEntity
8
Geo
100
AcDbLine
10
-55.2610291009239
20
-5.59466650475365
30
0.000000000000000
11
-55.1610291009239
21
-5.65666918636440
31
0.000000000000000
  0
LINE
  5
F10116
330
F10117
100
AcDbEntity
8
Geo
100
AcDbLine
10
-55.1610291009239
20
-5.65666918636440
30
0.000000000000000
11
-55.0610291009239
21
-5.71320354483993
31
0.000000000000000
  0
LINE
  5
F10118
330
F10119
100
AcDbEntity
8
Geo
100
AcDbLine
10
-55.0610291009239
20
-5.71320354483993
30
0.000000000000000
11
-54.9610291009239
21
-5.76418583591468
31
0.000000000000000
  0
LINE
  5
F1011A
330
F1011B
100
AcDbEntity
8
Geo
100
AcDbLine
10
-54.9610291009239
20
-5.76418583591468
30
0.000000000000000
11
-54.8610291009239
21
-5.80954053959268
31
0.000000000000000
  0
LINE
  5
F1011C
330
F1011D
100
AcDbEntity
8
Geo
100
AcDbLine
10
-54.8610291009239
20
-5.80954053959268
30
0.000000000000000
11
-54.7610291009239
21
-5.84920047201525
31
0.000000000000000
  0
LINE
  5
F1011E
330
F1011F
100
AcDbEntity
8
Geo
100
AcDbLine
10
-54.7610291009239
20
-5.84920047201525
30
0.000000000000000
11
-54.6610291009239
21
-5.88310688498035
31
0.000000000000000
  0
LINE
  5
F10120
330
F10121
100
AcDbEntity
8
Geo
100
AcDbLine
10
-54.6610291009239
20
-5.88310688498035
30
0.000000000000000
11
-54.5610291009239
21
-5.91120955296621
31
0.000000000000000
  0
LINE
  5
F10122
330
F10123
100
AcDbEntity
8
Geo
100
AcDbLine
10
-54.5610291009239
20
-5.91120955296621
30
0.000000000000000
11
-54.4610291009239
21
-5.93346684753032
31
0.000000000000000
  0
LINE
  5
F10124
330
F10125
100
AcDbEntity
8
Geo
100
AcDbLine
10
-54.4610291009239
20
-5.93346684753032
30
0.000000000000000
11
-54.3610291009239
21
-5.94984579897359
31
0.000000000000000
  0
LINE
  5
F10126
330
F10127
100
AcDbEntity
8
Geo
100
AcDbLine
10
-54.3610291009239
20
-5.94984579897359
30
0.000000000000000
11
-54.2610291009239
21
-5.96032214517833
31
0.000000000000000
  0
LINE
  5
F10128
330
F10129
100
AcDbEntity
8
Geo
100
AcDbLine
10
-54.2610291009239
20
-5.96032214517833
30
0.000000000000000
11
-54.1610291009239
21
-5.96488036754764
31
0.000000000000000
  0
LINE
  5
F1012A
330
F1012B
100
AcDbEntity
8
Geo
100
AcDbLine
10
-46.0610291009239
20
2.03255617630642
30
0.000000000000000
11
-45.9610291009239
21
2.03486902110795
31
0.000000000000000
  0
LINE
  5
F1012C
330
F1012D
100
AcDbEntity
8
Geo
100
AcDbLine
10
-45.9610291009239
20
2.03486902110795
30
0.000000000000000
11
-45.8610291009239
21
2.03125672433098
31
0.000000000000000
  0
LINE
  5
F1012E
330
F1012F
100
AcDbEntity
8
Geo
100
AcDbLine
10
-45.8610291009239
20
2.03125672433098
30
0.000000000000000
11
-45.7610291009239
21
2.02172463686565
31
0.000000000000000
  0
LINE
  5
F10130
330
F10131
100
AcDbEntity
8
Geo
100
AcDbLine
10
-45.7610291009239
20
2.02172463686565
30
0.000000000000000
11
-45.6610291009239
21
2.00628687857968
31
0.000000000000000
  0
LINE
  5
F10132
330
F10133
100
AcDbEntity
8
Geo
100
AcDbLine
10
-45.6610291009239
20
2.00628687857968
30
0.000000000000000
11
-45.5610291009239
21
1.98496631740270
31
0.000000000000000
  0
LINE
  5
F10134
330
F10135
100
AcDbEntity
8
Geo
100
AcDbLine
10
-45.5610291009239
20
1.98496631740270
30
0.000000000000000
11
-45.4610291009239
21
1.94813467413868
31
0.000000000000000
  0
LINE
  5
F10136
330
F10137
100
AcDbEntity
8
Geo
100
AcDbLine
10
-45.4610291009239
20
1.94813467413868
30
0.000000000000000
11
-45.3610291009239
21
1.88669456459579
31
0.000000000000000
  0
LINE
  5
F10138
330
F10139
100
AcDbEntity
8
Geo
100
AcDbLine
10
-45.3610291009239
20
1.88669456459579
30
0.000000000000000
11
-45.2610291009239
21
1.79049320081740
31
0.000000000000000
  0
LINE
  5
F1013A
330
F1013B
100
AcDbEntity
8
Geo
100
AcDbLine
10
-45.2610291009239
20
1.79049320081740
30
0.000000000000000
11
-45.1610291009239
21
1.64773408435974
31
0.000000000000000
  0
LINE
  5
F1013C
330
F1013D
100
AcDbEntity
8
Geo
100
AcDbLine
10
-45.1610291009239
20
1.64773408435974
30
0.000000000000000
11
-45.0610291009239
21
1.44552005696943
31
0.000000000000000
  0
LINE
  5
F1013E
330
F1013F
100
AcDbEntity
8
Geo
100
AcDbLine
10
-45.0610291009239
20
1.44552005696943
30
0.000000000000000
11
-44.9610291009239
21
1.17067197509718
31
0.000000000000000
  0
LINE
  5
F10140
330
F10141
100
AcDbEntity
8
Geo
100
AcDbLine
10
-44.9610291009239
20
1.17067197509718
30
0.000000000000000
11
-44.8610291009239
21
0.810883466724612
31
0.000000000000000
  0
LINE
  5
F10142
330
F10143
100
AcDbEntity
8
Geo
100
AcDbLine
10
-44.8610291009239
20
0.810883466724612
30
0.000000000000000
11
-44.7610291009239
21
0.356252070915215
31
0.000000000000000
  0
LINE
  5
F10144
330
F10145
100
AcDbEntity
8
Geo
100
AcDbLine
10
-44.7610291009239
20
0.356252070915215
30
0.000000000000000
11
-44.6610291009239
21
-0.198812240425168
31
0.000000000000000
  0
LINE
  5
F10146
330
F10147
100
AcDbEntity
8
Geo
100
AcDbLine
10
-44.6610291009239
20
-0.198812240425168
30
0.000000000000000
11
-44.5610291009239
21
-0.853362986465434
31
0.000000000000000
  0
LINE
  5
F10148
330
F10149
100
AcDbEntity
8
Geo
100
AcDbLine
10
-65.5610291009239
20
1.53490465724934
30
0.000000000000000
11
-65.4610291009239
21
1.63223831978453
31
0.000000000000000
  0
LINE
  5
F1014A
330
F1014B
100
AcDbEntity
8
Geo
100
AcDbLine
10
-65.4610291009239
20
1.63223831978453
30
0.000000000000000
11
-65.3610291009239
21
1.72394710702597
31
0.000000000000000
  0
LINE
  5
F1014C
330
F1014D
100
AcDbEntity
8
Geo
100
AcDbLine
10
-65.3610291009239
20
1.72394710702597
30
0.000000000000000
11
-65.2610291009239
21
1.80959945955685
31
0.000000000000000
  0
LINE
  5
F1014E
330
F1014F
100
AcDbEntity
8
Geo
100
AcDbLine
10
-65.2610291009239
20
1.80959945955685
30
0.000000000000000
11
-65.1610291009239
21
1.88877366607189
31
0.000000000000000
  0
LINE
  5
F10150
330
F10151
100
AcDbEntity
8
Geo
100
AcDbLine
10
-65.1610291009239
20
1.88877366607189
30
0.000000000000000
11
-65.0610291009239
21
1.96105892479582
31
0.000000000000000
  0
LINE
  5
F10152
330
F10153
100
AcDbEntity
8
Geo
100
AcDbLine
10
-65.0610291009239
20
1.96105892479582
30
0.000000000000000
11
-64.9610291009239
21
1.92871122266059
31
0.000000000000000
  0
LINE
  5
F10154
330
F10155
100
AcDbEntity
8
Geo
100
AcDbLine
10
-64.9610291009239
20
1.92871122266059
30
0.000000000000000
11
-64.8610291009239
21
1.89059563034418
31
0.000000000000000
  0
LINE
  5
F10156
330
F10157
100
AcDbEntity
8
Geo
100
AcDbLine
10
-64.8610291009239
20
1.89059563034418
30
0.000000000000000
11
-64.7610291009239
21
1.84676860841983
31
0.000000000000000
  0
LINE
  5
F10158
330
F10159
100
AcDbEntity
8
Geo
100
AcDbLine
10
-64.7610291009239
20
1.84676860841983
30
0.000000000000000
11
-64.6610291009239
21
1.79729507779337
31
0.000000000000000
  0
LINE
  5
F1015A
330
F1015B
100
AcDbEntity
8
Geo
100
AcDbLine
10
-64.6610291009239
20
1.79729507779337
30
0.000000000000000
11
-64.5610291009239
21
1.74224832353604
31
0.000000000000000
  0
LINE
  5
F1015C
330
F1015D
100
AcDbEntity
8
Geo
100
AcDbLine
10
-64.5610291009239
20
1.74224832353604
30
0.000000000000000
11
-64.4610291009239
21
1.68170988632739
31
0.000000000000000
  0
LINE
  5
F1015E
330
F1015F
100
AcDbEntity
8
Geo
100
AcDbLine
10
-64.4610291009239
20
1.68170988632739
30
0.000000000000000
11
-64.3610291009239
21
1.61576944166919
31
0.000000000000000
  0
LINE
  5
F10160
330
F10161
100
AcDbEntity
8
Geo
100
AcDbLine
10
-64.3610291009239
20
1.61576944166919
30
0.000000000000000
11
-64.2610291009239
21
1.54452466704925
31
0.000000000000000
  0
LINE
  5
F10162
330
F10163
100
AcDbEntity
8
Geo
100
AcDbLine
10
-64.2610291009239
20
1.54452466704925
30
0.000000000000000
11
-64.1610291009239
21
1.46808109725187
31
0.000000000000000
  0
LINE
  5
F10164
330
F10165
100
AcDbEntity
8
Geo
100
AcDbLine
10
-64.1610291009239
20
1.46808109725187
30
0.000000000000000
11
-64.0610291009239
21
1.38655196802931
31
0.000000000000000
  0
LINE
  5
F10166
330
F10167
100
AcDbEntity
8
Geo
100
AcDbLine
10
-64.0610291009239
20
1.38655196802931
30
0.000000000000000
11
-63.9610291009239
21
1.30005804836588
31
0.000000000000000
  0
LINE
  5
F10168
330
F10169
100
AcDbEntity
8
Geo
100
AcDbLine
10
-63.9610291009239
20
1.30005804836588
30
0.000000000000000
11
-63.8610291009239
21
1.20872746158294
31
0.000000000000000
  0
LINE
  5
F1016A
330
F1016B
100
AcDbEntity
8
Geo
100
AcDbLine
10
-63.8610291009239
20
1.20872746158294
30
0.000000000000000
11
-63.7610291009239
21
1.11269549555006
31
0.000000000000000
  0
LINE
  5
F1016C
330
F1016D
100
AcDbEntity
8
Geo
100
AcDbLine
10
-63.7610291009239
20
1.11269549555006
30
0.000000000000000
11
-63.6610291009239
21
1.01210440228328
31
0.000000000000000
  0
LINE
  5
F1016E
330
F1016F
100
AcDbEntity
8
Geo
100
AcDbLine
10
-63.6610291009239
20
1.01210440228328
30
0.000000000000000
11
-63.5610291009239
21
0.907103187227372
31
0.000000000000000
  0
LINE
  5
F10170
330
F10171
100
AcDbEntity
8
Geo
100
AcDbLine
10
-63.5610291009239
20
0.907103187227372
30
0.000000000000000
11
-63.4610291009239
21
0.797847388534313
31
0.000000000000000
  0
LINE
  5
F10172
330
F10173
100
AcDbEntity
8
Geo
100
AcDbLine
10
-63.4610291009239
20
0.797847388534313
30
0.000000000000000
11
-63.3610291009239
21
0.684498846664826
31
0.000000000000000
  0
LINE
  5
F10174
330
F10175
100
AcDbEntity
8
Geo
100
AcDbLine
10
-63.3610291009239
20
0.684498846664826
30
0.000000000000000
11
-63.2610291009239
21
0.567225464654339
31
0.000000000000000
  0
LINE
  5
F10176
330
F10177
100
AcDbEntity
8
Geo
100
AcDbLine
10
-63.2610291009239
20
0.567225464654339
30
0.000000000000000
11
-63.1610291009239
21
0.446200959398452
31
0.000000000000000
  0
LINE
  5
F10178
330
F10179
100
AcDbEntity
8
Geo
100
AcDbLine
10
-63.1610291009239
20
0.446200959398452
30
0.000000000000000
11
-63.0610291009239
21
0.321604604326347
31
0.000000000000000
  0
LINE
  5
F1017A
330
F1017B
100
AcDbEntity
8
Geo
100
AcDbLine
10
-63.0610291009239
20
0.321604604326347
30
0.000000000000000
11
-62.9610291009239
21
0.193620963843304
31
0.000000000000000
  0
LINE
  5
F1017C
330
F1017D
100
AcDbEntity
8
Geo
100
AcDbLine
10
-62.9610291009239
20
0.193620963843304
30
0.000000000000000
11
-62.8610291009239
21
0.0624396199357147
31
0.000000000000000
  0
LINE
  5
F1017E
330
F1017F
100
AcDbEntity
8
Geo
100
AcDbLine
10
-62.8610291009239
20
0.0624396199357147
30
0.000000000000000
11
-62.7610291009239
21
-0.0717451086564500
31
0.000000000000000
  0
LINE
  5
F10180
330
F10181
100
AcDbEntity
8
Geo
100
AcDbLine
10
-62.7610291009239
20
-0.0717451086564500
30
0.000000000000000
11
-62.6610291009239
21
-0.208734454283718
31
0.000000000000000
  0
LINE
  5
F10182
330
F10183
100
AcDbEntity
8
Geo
100
AcDbLine
10
-62.6610291009239
20
-0.208734454283718
30
0.000000000000000
11
-62.5610291009239
21
-0.348325494821351
31
0.000000000000000
  0
LINE
  5
F10184
330
F10185
100
AcDbEntity
8
Geo
100
AcDbLine
10
-62.5610291009239
20
-0.348325494821351
30
0.000000000000000
11
-62.4610291009239
21
-0.490311454257607
31
0.000000000000000
  0
LINE
  5
F10186
330
F10187
100
AcDbEntity
8
Geo
100
AcDbLine
10
-62.4610291009239
20
-0.490311454257607
30
0.000000000000000
11
-62.3610291009239
21
-0.634482008990750
31
0.000000000000000
  0
LINE
  5
F10188
330
F10189
100
AcDbEntity
8
Geo
100
AcDbLine
10
-62.3610291009239
20
-0.634482008990750
30
0.000000000000000
11
-62.2610291009239
21
-0.780623599381110
31
0.000000000000000
  0
LINE
  5
F1018A
330
F1018B
100
AcDbEntity
8
Geo
100
AcDbLine
10
-62.2610291009239
20
-0.780623599381110
30
0.000000000000000
11
-62.1610291009239
21
-0.928519746096671
31
0.000000000000000
  0
LINE
  5
F1018C
330
F1018D
100
AcDbEntity
8
Geo
100
AcDbLine
10
-62.1610291009239
20
-0.928519746096671
30
0.000000000000000
11
-62.0610291009239
21
-1.07795137078361
31
0.000000000000000
  0
LINE
  5
F1018E
330
F1018F
100
AcDbEntity
8
Geo
100
AcDbLine
10
-62.0610291009239
20
-1.07795137078361
30
0.000000000000000
11
-61.9610291009239
21
-1.22869712058673
31
0.000000000000000
  0
LINE
  5
F10190
330
F10191
100
AcDbEntity
8
Geo
100
AcDbLine
10
-61.9610291009239
20
-1.22869712058673
30
0.000000000000000
11
-61.8610291009239
21
-1.38053369603918
31
0.000000000000000
  0
LINE
  5
F10192
330
F10193
100
AcDbEntity
8
Geo
100
AcDbLine
10
-61.8610291009239
20
-1.38053369603918
30
0.000000000000000
11
-61.7610291009239
21
-1.53323618183558
31
0.000000000000000
  0
LINE
  5
F10194
330
F10195
100
AcDbEntity
8
Geo
100
AcDbLine
10
-61.7610291009239
20
-1.53323618183558
30
0.000000000000000
11
-61.6610291009239
21
-1.68657837999881
31
0.000000000000000
  0
LINE
  5
F10196
330
F10197
100
AcDbEntity
8
Geo
100
AcDbLine
10
-61.6610291009239
20
-1.68657837999881
30
0.000000000000000
11
-61.5610291009239
21
-1.84033314494668
31
0.000000000000000
  0
LINE
  5
F10198
330
F10199
100
AcDbEntity
8
Geo
100
AcDbLine
10
-61.5610291009239
20
-1.84033314494668
30
0.000000000000000
11
-61.4610291009239
21
-1.99427271996244
31
0.000000000000000
  0
LINE
  5
F1019A
330
F1019B
100
AcDbEntity
8
Geo
100
AcDbLine
10
-61.4610291009239
20
-1.99427271996244
30
0.000000000000000
11
-61.3610291009239
21
-2.14816907457043
31
0.000000000000000
  0
LINE
  5
F1019C
330
F1019D
100
AcDbEntity
8
Geo
100
AcDbLine
10
-61.3610291009239
20
-2.14816907457043
30
0.000000000000000
11
-61.2610291009239
21
-2.30179424231733
31
0.000000000000000
  0
LINE
  5
F1019E
330
F1019F
100
AcDbEntity
8
Geo
100
AcDbLine
10
-61.2610291009239
20
-2.30179424231733
30
0.000000000000000
11
-61.1610291009239
21
-2.45492065845851
31
0.000000000000000
  0
LINE
  5
F101A0
330
F101A1
100
AcDbEntity
8
Geo
100
AcDbLine
10
-61.1610291009239
20
-2.45492065845851
30
0.000000000000000
11
-61.0610291009239
21
-2.60732149704942
31
0.000000000000000
  0
LINE
  5
F101A2
330
F101A3
100
AcDbEntity
8
Geo
100
AcDbLine
10
-61.0610291009239
20
-2.60732149704942
30
0.000000000000000
11
-60.9610291009239
21
-2.75877100694251
31
0.000000000000000
  0
LINE
  5
F101A4
330
F101A5
100
AcDbEntity
8
Geo
100
AcDbLine
10
-60.9610291009239
20
-2.75877100694251
30
0.000000000000000
11
-60.8610291009239
21
-2.90904484619207
31
0.000000000000000
  0
LINE
  5
F101A6
330
F101A7
100
AcDbEntity
8
Geo
100
AcDbLine
10
-60.8610291009239
20
-2.90904484619207
30
0.000000000000000
11
-60.7610291009239
21
-3.05792041437167
31
0.000000000000000
  0
LINE
  5
F101A8
330
F101A9
100
AcDbEntity
8
Geo
100
AcDbLine
10
-60.7610291009239
20
-3.05792041437167
30
0.000000000000000
11
-60.6610291009239
21
-3.20517718231185
31
0.000000000000000
  0
LINE
  5
F101AA
330
F101AB
100
AcDbEntity
8
Geo
100
AcDbLine
10
-60.6610291009239
20
-3.20517718231185
30
0.000000000000000
11
-60.5610291009239
21
-3.35059701876967
31
0.000000000000000
  0
LINE
  5
F101AC
330
F101AD
100
AcDbEntity
8
Geo
100
AcDbLine
10
-60.5610291009239
20
-3.35059701876967
30
0.000000000000000
11
-60.4610291009239
21
-3.49396451354618
31
0.000000000000000
  0
LINE
  5
F101AE
330
F101AF
100
AcDbEntity
8
Geo
100
AcDbLine
10
-60.4610291009239
20
-3.49396451354618
30
0.000000000000000
11
-60.3610291009239
21
-3.63506729657331
31
0.000000000000000
  0
LINE
  5
F101B0
330
F101B1
100
AcDbEntity
8
Geo
100
AcDbLine
10
-60.3610291009239
20
-3.63506729657331
30
0.000000000000000
11
-60.2610291009239
21
-3.77369635249730
31
0.000000000000000
  0
LINE
  5
F101B2
330
F101B3
100
AcDbEntity
8
Geo
100
AcDbLine
10
-60.2610291009239
20
-3.77369635249730
30
0.000000000000000
11
-60.1610291009239
21
-3.90964633029284
31
0.000000000000000
  0
LINE
  5
F101B4
330
F101B5
100
AcDbEntity
8
Geo
100
AcDbLine
10
-60.1610291009239
20
-3.90964633029284
30
0.000000000000000
11
-60.0610291009239
21
-4.04271584744930
31
0.000000000000000
  0
LINE
  5
F101B6
330
F101B7
100
AcDbEntity
8
Geo
100
AcDbLine
10
-60.0610291009239
20
-4.04271584744930
30
0.000000000000000
11
-59.9610291009239
21
-4.17270778827835
31
0.000000000000000
  0
LINE
  5
F101B8
330
F101B9
100
AcDbEntity
8
Geo
100
AcDbLine
10
-59.9610291009239
20
-4.17270778827835
30
0.000000000000000
11
-59.8610291009239
21
-4.29942959590112
31
0.000000000000000
  0
LINE
  5
F101BA
330
F101BB
100
AcDbEntity
8
Geo
100
AcDbLine
10
-59.8610291009239
20
-4.29942959590112
30
0.000000000000000
11
-59.7610291009239
21
-4.42269355748246
31
0.000000000000000
  0
LINE
  5
F101BC
330
F101BD
100
AcDbEntity
8
Geo
100
AcDbLine
10
-59.7610291009239
20
-4.42269355748246
30
0.000000000000000
11
-59.6610291009239
21
-4.54231708228968
31
0.000000000000000
  0
LINE
  5
F101BE
330
F101BF
100
AcDbEntity
8
Geo
100
AcDbLine
10
-59.6610291009239
20
-4.54231708228968
30
0.000000000000000
11
-59.5610291009239
21
-4.65812297216397
31
0.000000000000000
  0
LINE
  5
F101C0
330
F101C1
100
AcDbEntity
8
Geo
100
AcDbLine
10
-59.5610291009239
20
-4.65812297216397
30
0.000000000000000
11
-59.4610291009239
21
-4.76993968400377
31
0.000000000000000
  0
LINE
  5
F101C2
330
F101C3
100
AcDbEntity
8
Geo
100
AcDbLine
10
-59.4610291009239
20
-4.76993968400377
30
0.000000000000000
11
-59.3610291009239
21
-4.87760158387131
31
0.000000000000000
  0
LINE
  5
F101C4
330
F101C5
100
AcDbEntity
8
Geo
100
AcDbLine
10
-59.3610291009239
20
-4.87760158387131
30
0.000000000000000
11
-59.2610291009239
21
-4.98094919234595
31
0.000000000000000
  0
LINE
  5
F101C6
330
F101C7
100
AcDbEntity
8
Geo
100
AcDbLine
10
-59.2610291009239
20
-4.98094919234595
30
0.000000000000000
11
-59.1610291009239
21
-5.07982942076082
31
0.000000000000000
  0
LINE
  5
F101C8
330
F101C9
100
AcDbEntity
8
Geo
100
AcDbLine
10
-59.1610291009239
20
-5.07982942076082
30
0.000000000000000
11
-59.0610291009239
21
-5.17409579797284
31
0.000000000000000
  0
LINE
  5
F101CA
330
F101CB
100
AcDbEntity
8
Geo
100
AcDbLine
10
-59.0610291009239
20
-5.17409579797284
30
0.000000000000000
11
-58.9610291009239
21
-5.26360868733020
31
0.000000000000000
  0
LINE
  5
F101CC
330
F101CD
100
AcDbEntity
8
Geo
100
AcDbLine
10
-58.9610291009239
20
-5.26360868733020
30
0.000000000000000
11
-58.8610291009239
21
-5.34823549351598
31
0.000000000000000
  0
LINE
  5
F101CE
330
F101CF
100
AcDbEntity
8
Geo
100
AcDbLine
10
-58.8610291009239
20
-5.34823549351598
30
0.000000000000000
11
-58.7610291009239
21
-5.42785085896136
31
0.000000000000000
  0
LINE
  5
F101D0
330
F101D1
100
AcDbEntity
8
Geo
100
AcDbLine
10
-58.7610291009239
20
-5.42785085896136
30
0.000000000000000
11
-58.6610291009239
21
-5.50233684953765
31
0.000000000000000
  0
LINE
  5
F101D2
330
F101D3
100
AcDbEntity
8
Geo
100
AcDbLine
10
-58.6610291009239
20
-5.50233684953765
30
0.000000000000000
11
-58.5610291009239
21
-5.57158312925191
31
0.000000000000000
  0
LINE
  5
F101D4
330
F101D5
100
AcDbEntity
8
Geo
100
AcDbLine
10
-58.5610291009239
20
-5.57158312925191
30
0.000000000000000
11
-58.4610291009239
21
-5.63548712368753
31
0.000000000000000
  0
LINE
  5
F101D6
330
F101D7
100
AcDbEntity
8
Geo
100
AcDbLine
10
-58.4610291009239
20
-5.63548712368753
30
0.000000000000000
11
-58.3610291009239
21
-5.69395417194755
31
0.000000000000000
  0
LINE
  5
F101D8
330
F101D9
100
AcDbEntity
8
Geo
100
AcDbLine
10
-58.3610291009239
20
-5.69395417194755
30
0.000000000000000
11
-58.2610291009239
21
-5.74689766687575
31
0.000000000000000
  0
LINE
  5
F101DA
330
F101DB
100
AcDbEntity
8
Geo
100
AcDbLine
10
-58.2610291009239
20
-5.74689766687575
30
0.000000000000000
11
-58.1610291009239
21
-5.79423918334763
31
0.000000000000000
  0
LINE
  5
F101DC
330
F101DD
100
AcDbEntity
8
Geo
100
AcDbLine
10
-58.1610291009239
20
-5.79423918334763
30
0.000000000000000
11
-58.0610291009239
21
-5.83590859444155
31
0.000000000000000
  0
LINE
  5
F101DE
330
F101DF
100
AcDbEntity
8
Geo
100
AcDbLine
10
-58.0610291009239
20
-5.83590859444155
30
0.000000000000000
11
-57.9610291009239
21
-5.87184417531752
31
0.000000000000000
  0
LINE
  5
F101E0
330
F101E1
100
AcDbEntity
8
Geo
100
AcDbLine
10
-57.9610291009239
20
-5.87184417531752
30
0.000000000000000
11
-57.8610291009239
21
-5.90199269465021
31
0.000000000000000
  0
LINE
  5
F101E2
330
F101E3
100
AcDbEntity
8
Geo
100
AcDbLine
10
-57.8610291009239
20
-5.90199269465021
30
0.000000000000000
11
-57.7610291009239
21
-5.92630949348040
31
0.000000000000000
  0
LINE
  5
F101E4
330
F101E5
100
AcDbEntity
8
Geo
100
AcDbLine
10
-57.7610291009239
20
-5.92630949348040
30
0.000000000000000
11
-57.6610291009239
21
-5.94475855136822
31
0.000000000000000
  0
LINE
  5
F101E6
330
F101E7
100
AcDbEntity
8
Geo
100
AcDbLine
10
-57.6610291009239
20
-5.94475855136822
30
0.000000000000000
11
-57.5610291009239
21
-5.95731253975022
31
0.000000000000000
  0
LINE
  5
F101E8
330
F101E9
100
AcDbEntity
8
Geo
100
AcDbLine
10
-57.5610291009239
20
-5.95731253975022
30
0.000000000000000
11
-57.4610291009239
21
-5.96395286242108
31
0.000000000000000
  0
LINE
  5
F101EA
330
F101EB
100
AcDbEntity
8
Geo
100
AcDbLine
10
-49.2610291009239
20
2.03473121758625
30
0.000000000000000
11
-49.1610291009239
21
2.03320210916050
31
0.000000000000000
  0
LINE
  5
F101EC
330
F101ED
100
AcDbEntity
8
Geo
100
AcDbLine
10
-49.1610291009239
20
2.03320210916050
30
0.000000000000000
11
-49.0610291009239
21
2.02575032835058
31
0.000000000000000
  0
LINE
  5
F101EE
330
F101EF
100
AcDbEntity
8
Geo
100
AcDbLine
10
-49.0610291009239
20
2.02575032835058
30
0.000000000000000
11
-48.9610291009239
21
2.01238691346891
31
0.000000000000000
  0
LINE
  5
F101F0
330
F101F1
100
AcDbEntity
8
Geo
100
AcDbLine
10
-48.9610291009239
20
2.01238691346891
30
0.000000000000000
11
-48.8610291009239
21
1.99313165972312
31
0.000000000000000
  0
LINE
  5
F101F2
330
F101F3
100
AcDbEntity
8
Geo
100
AcDbLine
10
-48.8610291009239
20
1.99313165972312
30
0.000000000000000
11
-48.7610291009239
21
1.96801308989347
31
0.000000000000000
  0
LINE
  5
F101F4
330
F101F5
100
AcDbEntity
8
Geo
100
AcDbLine
10
-48.7610291009239
20
1.96801308989347
30
0.000000000000000
11
-48.6610291009239
21
1.93706841208207
31
0.000000000000000
  0
LINE
  5
F101F6
330
F101F7
100
AcDbEntity
8
Geo
100
AcDbLine
10
-48.6610291009239
20
1.93706841208207
30
0.000000000000000
11
-48.5610291009239
21
1.90034346459659
31
0.000000000000000
  0
LINE
  5
F101F8
330
F101F9
100
AcDbEntity
8
Geo
100
AcDbLine
10
-48.5610291009239
20
1.90034346459659
30
0.000000000000000
11
-48.4610291009239
21
1.85789264805000
31
0.000000000000000
  0
LINE
  5
F101FA
330
F101FB
100
AcDbEntity
8
Geo
100
AcDbLine
10
-48.4610291009239
20
1.85789264805000
30
0.000000000000000
11
-48.3610291009239
21
1.80977884477707
31
0.000000000000000
  0
LINE
  5
F101FC
330
F101FD
100
AcDbEntity
8
Geo
100
AcDbLine
10
-48.3610291009239
20
1.80977884477707
30
0.000000000000000
11
-48.2610291009239
21
1.75607332568681
31
0.000000000000000
  0
LINE
  5
F101FE
330
F101FF
100
AcDbEntity
8
Geo
100
AcDbLine
10
-48.2610291009239
20
1.75607332568681
30
0.000000000000000
11
-48.1610291009239
21
1.69685564468903
31
0.000000000000000
  0
LINE
  5
F10200
330
F10201
100
AcDbEntity
8
Geo
100
AcDbLine
10
-48.1610291009239
20
1.69685564468903
30
0.000000000000000
11
-48.0610291009239
21
1.63221352085117
31
0.000000000000000
  0
LINE
  5
F10202
330
F10203
100
AcDbEntity
8
Geo
100
AcDbLine
10
-48.0610291009239
20
1.63221352085117
30
0.000000000000000
11
-47.9610291009239
21
1.56224270846023
31
0.000000000000000
  0
LINE
  5
F10204
330
F10205
100
AcDbEntity
8
Geo
100
AcDbLine
10
-47.9610291009239
20
1.56224270846023
30
0.000000000000000
11
-47.8610291009239
21
1.48704685518206
31
0.000000000000000
  0
LINE
  5
F10206
330
F10207
100
AcDbEntity
8
Geo
100
AcDbLine
10
-47.8610291009239
20
1.48704685518206
30
0.000000000000000
11
-47.7610291009239
21
1.40673734852821
31
0.000000000000000
  0
LINE
  5
F10208
330
F10209
100
AcDbEntity
8
Geo
100
AcDbLine
10
-47.7610291009239
20
1.40673734852821
30
0.000000000000000
11
-47.6610291009239
21
1.32143315085778
31
0.000000000000000
  0
LINE
  5
F1020A
330
F1020B
100
AcDbEntity
8
Geo
100
AcDbLine
10
-47.6610291009239
20
1.32143315085778
30
0.000000000000000
11
-47.5610291009239
21
1.23126062315862
31
0.000000000000000
  0
LINE
  5
F1020C
330
F1020D
100
AcDbEntity
8
Geo
100
AcDbLine
10
-47.5610291009239
20
1.23126062315862
30
0.000000000000000
11
-47.4610291009239
21
1.13635333786903
31
0.000000000000000
  0
LINE
  5
F1020E
330
F1020F
100
AcDbEntity
8
Geo
100
AcDbLine
10
-47.4610291009239
20
1.13635333786903
30
0.000000000000000
11
-47.3610291009239
21
1.03685188101702
31
0.000000000000000
  0
LINE
  5
F10210
330
F10211
100
AcDbEntity
8
Geo
100
AcDbLine
10
-47.3610291009239
20
1.03685188101702
30
0.000000000000000
11
-47.2610291009239
21
0.932903643970490
31
0.000000000000000
  0
LINE
  5
F10212
330
F10213
100
AcDbEntity
8
Geo
100
AcDbLine
10
-47.2610291009239
20
0.932903643970490
30
0.000000000000000
11
-47.1610291009239
21
0.824662605106577
31
0.000000000000000
  0
LINE
  5
F10214
330
F10215
100
AcDbEntity
8
Geo
100
AcDbLine
10
-47.1610291009239
20
0.824662605106577
30
0.000000000000000
11
-47.0610291009239
21
0.712289101723694
31
0.000000000000000
  0
LINE
  5
F10216
330
F10217
100
AcDbEntity
8
Geo
100
AcDbLine
10
-47.0610291009239
20
0.712289101723694
30
0.000000000000000
11
-46.9610291009239
21
0.595949592534132
31
0.000000000000000
  0
LINE
  5
F10218
330
F10219
100
AcDbEntity
8
Geo
100
AcDbLine
10
-46.9610291009239
20
0.595949592534132
30
0.000000000000000
11
-46.8610291009239
21
0.475816411088998
31
0.000000000000000
  0
LINE
  5
F1021A
330
F1021B
100
AcDbEntity
8
Geo
100
AcDbLine
10
-46.8610291009239
20
0.475816411088998
30
0.000000000000000
11
-46.7610291009239
21
0.352067510500767
31
0.000000000000000
  0
LINE
  5
F1021C
330
F1021D
100
AcDbEntity
8
Geo
100
AcDbLine
10
-46.7610291009239
20
0.352067510500767
30
0.000000000000000
11
-46.6610291009239
21
0.224886199841588
31
0.000000000000000
  0
LINE
  5
F1021E
330
F1021F
100
AcDbEntity
8
Geo
100
AcDbLine
10
-46.6610291009239
20
0.224886199841588
30
0.000000000000000
11
-46.5610291009239
21
0.0944608726078138
31
0.000000000000000
  0
LINE
  5
F10220
330
F10221
100
AcDbEntity
8
Geo
100
AcDbLine
10
-46.5610291009239
20
0.0944608726078138
30
0.000000000000000
11
-46.4610291009239
21
-0.0390152723470201
31
0.000000000000000
  0
LINE
  5
F10222
330
F10223
100
AcDbEntity
8
Geo
100
AcDbLine
10
-46.4610291009239
20
-0.0390152723470201
30
0.000000000000000
11
-46.3610291009239
21
-0.175344516997381
31
0.000000000000000
  0
LINE
  5
F10224
330
F10225
100
AcDbEntity
8
Geo
100
AcDbLine
10
-46.3610291009239
20
-0.175344516997381
30
0.000000000000000
11
-46.2610291009239
21
-0.314324917025186
31
0.000000000000000
  0
LINE
  5
F10226
330
F10227
100
AcDbEntity
8
Geo
100
AcDbLine
10
-46.2610291009239
20
-0.314324917025186
30
0.000000000000000
11
-46.1610291009239
21
-0.455750600959615
31
0.000000000000000
  0
LINE
  5
F10228
330
F10229
100
AcDbEntity
8
Geo
100
AcDbLine
10
-46.1610291009239
20
-0.455750600959615
30
0.000000000000000
11
-46.0610291009239
21
-0.599412075134245
31
0.000000000000000
  0
LINE
  5
F1022A
330
F1022B
100
AcDbEntity
8
Geo
100
AcDbLine
10
-46.0610291009239
20
-0.599412075134245
30
0.000000000000000
11
-45.9610291009239
21
-0.745096534009719
31
0.000000000000000
  0
LINE
  5
F1022C
330
F1022D
100
AcDbEntity
8
Geo
100
AcDbLine
10
-45.9610291009239
20
-0.745096534009719
30
0.000000000000000
11
-45.8610291009239
21
-0.892588175402292
31
0.000000000000000
  0
LINE
  5
F1022E
330
F1022F
100
AcDbEntity
8
Geo
100
AcDbLine
10
-45.8610291009239
20
-0.892588175402292
30
0.000000000000000
11
-45.7610291009239
21
-1.04166852015130
31
0.000000000000000
  0
LINE
  5
F10230
330
F10231
100
AcDbEntity
8
Geo
100
AcDbLine
10
-45.7610291009239
20
-1.04166852015130
30
0.000000000000000
11
-45.6610291009239
21
-1.19211673575204
31
0.000000000000000
  0
LINE
  5
F10232
330
F10233
100
AcDbEntity
8
Geo
100
AcDbLine
10
-45.6610291009239
20
-1.19211673575204
30
0.000000000000000
11
-45.5610291009239
21
-1.34370996347461
31
0.000000000000000
  0
LINE
  5
F10234
330
F10235
100
AcDbEntity
8
Geo
100
AcDbLine
10
-45.5610291009239
20
-1.34370996347461
30
0.000000000000000
11
-45.4610291009239
21
-1.32155324307915
31
0.000000000000000
  0
LINE
  5
F10236
330
F10237
100
AcDbEntity
8
Geo
100
AcDbLine
10
-45.4610291009239
20
-1.32155324307915
30
0.000000000000000
11
-45.3610291009239
21
-1.29332014548811
31
0.000000000000000
  0
LINE
  5
F10238
330
F10239
100
AcDbEntity
8
Geo
100
AcDbLine
10
-45.3610291009239
20
-1.29332014548811
30
0.000000000000000
11
-45.2610291009239
21
-1.25903404241743
31
0.000000000000000
  0
LINE
  5
F1023A
330
F1023B
100
AcDbEntity
8
Geo
100
AcDbLine
10
-45.2610291009239
20
-1.25903404241743
30
0.000000000000000
11
-45.1610291009239
21
-1.21872545406779
31
0.000000000000000
  0
LINE
  5
F1023C
330
F1023D
100
AcDbEntity
8
Geo
100
AcDbLine
10
-45.1610291009239
20
-1.21872545406779
30
0.000000000000000
11
-45.0610291009239
21
-1.17243327042165
31
0.000000000000000
  0
LINE
  5
F1023E
330
F1023F
100
AcDbEntity
8
Geo
100
AcDbLine
10
-45.0610291009239
20
-1.17243327042165
30
0.000000000000000
11
-44.9610291009239
21
-1.12020618293521
31
0.000000000000000
  0
LINE
  5
F10240
330
F10241
100
AcDbEntity
8
Geo
100
AcDbLine
10
-44.9610291009239
20
-1.12020618293521
30
0.000000000000000
11
-44.8610291009239
21
-1.06210432262013
31
0.000000000000000
  0
LINE
  5
F10242
330
F10243
100
AcDbEntity
8
Geo
100
AcDbLine
10
-44.8610291009239
20
-1.06210432262013
30
0.000000000000000
11
-44.7610291009239
21
-0.998201099316812
31
0.000000000000000
  0
LINE
  5
F10244
330
F10245
100
AcDbEntity
8
Geo
100
AcDbLine
10
-44.7610291009239
20
-0.998201099316812
30
0.000000000000000
11
-44.6610291009239
21
-0.928585235526693
31
0.000000000000000
  0
LINE
  5
F10246
330
F10247
100
AcDbEntity
8
Geo
100
AcDbLine
10
-44.6610291009239
20
-0.928585235526693
30
0.000000000000000
11
-44.5610291009239
21
-0.853362986465434
31
0.000000000000000
  0
LINE
  5
F10248
330
F10249
100
AcDbEntity
8
Geo
100
AcDbLine
10
-65.5610291009239
20
1.36360246428238
30
0.000000000000000
11
-65.4610291009239
21
1.41336419924181
31
0.000000000000000
  0
LINE
  5
F1024A
330
F1024B
100
AcDbEntity
8
Geo
100
AcDbLine
10
-65.4610291009239
20
1.41336419924181
30
0.000000000000000
11
-65.3610291009239
21
1.45546330626499
31
0.000000000000000
  0
LINE
  5
F1024C
330
F1024D
100
AcDbEntity
8
Geo
100
AcDbLine
10
-65.3610291009239
20
1.45546330626499
30
0.000000000000000
11
-65.2610291009239
21
1.48956146751306
31
0.000000000000000
  0
LINE
  5
F1024E
330
F1024F
100
AcDbEntity
8
Geo
100
AcDbLine
10
-65.2610291009239
20
1.48956146751306
30
0.000000000000000
11
-65.1610291009239
21
1.51533656318112
31
0.000000000000000
  0
LINE
  5
F10250
330
F10251
100
AcDbEntity
8
Geo
100
AcDbLine
10
-65.1610291009239
20
1.51533656318112
30
0.000000000000000
11
-65.0610291009239
21
1.53248355098966
31
0.000000000000000
  0
LINE
  5
F10252
330
F10253
100
AcDbEntity
8
Geo
100
AcDbLine
10
-65.0610291009239
20
1.53248355098966
30
0.000000000000000
11
-64.9610291009239
21
1.45520773636718
31
0.000000000000000
  0
LINE
  5
F10254
330
F10255
100
AcDbEntity
8
Geo
100
AcDbLine
10
-64.9610291009239
20
1.45520773636718
30
0.000000000000000
11
-64.8610291009239
21
1.37286543161087
31
0.000000000000000
  0
LINE
  5
F10256
330
F10257
100
AcDbEntity
8
Geo
100
AcDbLine
10
-64.8610291009239
20
1.37286543161087
30
0.000000000000000
11
-64.7610291009239
21
1.28557861026080
31
0.000000000000000
  0
LINE
  5
F10258
330
F10259
100
AcDbEntity
8
Geo
100
AcDbLine
10
-64.7610291009239
20
1.28557861026080
30
0.000000000000000
11
-64.6610291009239
21
1.19347657016250
31
0.000000000000000
  0
LINE
  5
F1025A
330
F1025B
100
AcDbEntity
8
Geo
100
AcDbLine
10
-64.6610291009239
20
1.19347657016250
30
0.000000000000000
11
-64.5610291009239
21
1.09669574193825
31
0.000000000000000
  0
LINE
  5
F1025C
330
F1025D
100
AcDbEntity
8
Geo
100
AcDbLine
10
-64.5610291009239
20
1.09669574193825
30
0.000000000000000
11
-64.4610291009239
21
0.995379486892575
31
0.000000000000000
  0
LINE
  5
F1025E
330
F1025F
100
AcDbEntity
8
Geo
100
AcDbLine
10
-64.4610291009239
20
0.995379486892575
30
0.000000000000000
11
-64.3610291009239
21
0.889677884651390
31
0.000000000000000
  0
LINE
  5
F10260
330
F10261
100
AcDbEntity
8
Geo
100
AcDbLine
10
-64.3610291009239
20
0.889677884651390
30
0.000000000000000
11
-64.2610291009239
21
0.779747510849216
31
0.000000000000000
  0
LINE
  5
F10262
330
F10263
100
AcDbEntity
8
Geo
100
AcDbLine
10
-64.2610291009239
20
0.779747510849216
30
0.000000000000000
11
-64.1610291009239
21
0.665751205193938
31
0.000000000000000
  0
LINE
  5
F10264
330
F10265
100
AcDbEntity
8
Geo
100
AcDbLine
10
-64.1610291009239
20
0.665751205193938
30
0.000000000000000
11
-64.0610291009239
21
0.547857830252566
31
0.000000000000000
  0
LINE
  5
F10266
330
F10267
100
AcDbEntity
8
Geo
100
AcDbLine
10
-64.0610291009239
20
0.547857830252566
30
0.000000000000000
11
-63.9610291009239
21
0.426242021315356
31
0.000000000000000
  0
LINE
  5
F10268
330
F10269
100
AcDbEntity
8
Geo
100
AcDbLine
10
-63.9610291009239
20
0.426242021315356
30
0.000000000000000
11
-63.8610291009239
21
0.301083927708798
31
0.000000000000000
  0
LINE
  5
F1026A
330
F1026B
100
AcDbEntity
8
Geo
100
AcDbLine
10
-63.8610291009239
20
0.301083927708798
30
0.000000000000000
11
-63.7610291009239
21
0.172568945940674
31
0.000000000000000
  0
LINE
  5
F1026C
330
F1026D
100
AcDbEntity
8
Geo
100
AcDbLine
10
-63.7610291009239
20
0.172568945940674
30
0.000000000000000
11
-63.6610291009239
21
0.0408874450724745
31
0.000000000000000
  0
LINE
  5
F1026E
330
F1026F
100
AcDbEntity
8
Geo
100
AcDbLine
10
-63.6610291009239
20
0.0408874450724745
30
0.000000000000000
11
-63.5610291009239
21
-0.0937655152740327
31
0.000000000000000
  0
LINE
  5
F10270
330
F10271
100
AcDbEntity
8
Geo
100
AcDbLine
10
-63.5610291009239
20
-0.0937655152740327
30
0.000000000000000
11
-63.4610291009239
21
-0.231190473858333
31
0.000000000000000
  0
LINE
  5
F10272
330
F10273
100
AcDbEntity
8
Geo
100
AcDbLine
10
-63.4610291009239
20
-0.231190473858333
30
0.000000000000000
11
-63.3610291009239
21
-0.371183863282832
31
0.000000000000000
  0
LINE
  5
F10274
330
F10275
100
AcDbEntity
8
Geo
100
AcDbLine
10
-63.3610291009239
20
-0.371183863282832
30
0.000000000000000
11
-63.2610291009239
21
-0.513538311536946
31
0.000000000000000
  0
LINE
  5
F10276
330
F10277
100
AcDbEntity
8
Geo
100
AcDbLine
10
-63.2610291009239
20
-0.513538311536946
30
0.000000000000000
11
-63.1610291009239
21
-0.658042949176973
31
0.000000000000000
  0
LINE
  5
F10278
330
F10279
100
AcDbEntity
8
Geo
100
AcDbLine
10
-63.1610291009239
20
-0.658042949176973
30
0.000000000000000
11
-63.0610291009239
21
-0.804483721686702
31
0.000000000000000
  0
LINE
  5
F1027A
330
F1027B
100
AcDbEntity
8
Geo
100
AcDbLine
10
-63.0610291009239
20
-0.804483721686702
30
0.000000000000000
11
-62.9610291009239
21
-0.952643706556067
31
0.000000000000000
  0
LINE
  5
F1027C
330
F1027D
100
AcDbEntity
8
Geo
100
AcDbLine
10
-62.9610291009239
20
-0.952643706556067
30
0.000000000000000
11
-62.8610291009239
21
-1.10230343460816
31
0.000000000000000
  0
LINE
  5
F1027E
330
F1027F
100
AcDbEntity
8
Geo
100
AcDbLine
10
-62.8610291009239
20
-1.10230343460816
30
0.000000000000000
11
-62.7610291009239
21
-1.25324121509859
31
0.000000000000000
  0
LINE
  5
F10280
330
F10281
100
AcDbEntity
8
Geo
100
AcDbLine
10
-62.7610291009239
20
-1.25324121509859
30
0.000000000000000
11
-62.6610291009239
21
-1.40523346410571
31
0.000000000000000
  0
LINE
  5
F10282
330
F10283
100
AcDbEntity
8
Geo
100
AcDbLine
10
-62.6610291009239
20
-1.40523346410571
30
0.000000000000000
11
-62.5610291009239
21
-1.55805503572514
31
0.000000000000000
  0
LINE
  5
F10284
330
F10285
100
AcDbEntity
8
Geo
100
AcDbLine
10
-62.5610291009239
20
-1.55805503572514
30
0.000000000000000
11
-62.4610291009239
21
-1.71147955557808
31
0.000000000000000
  0
LINE
  5
F10286
330
F10287
100
AcDbEntity
8
Geo
100
AcDbLine
10
-62.4610291009239
20
-1.71147955557808
30
0.000000000000000
11
-62.3610291009239
21
-1.86527975613936
31
0.000000000000000
  0
LINE
  5
F10288
330
F10289
100
AcDbEntity
8
Geo
100
AcDbLine
10
-62.3610291009239
20
-1.86527975613936
30
0.000000000000000
11
-62.2610291009239
21
-2.01922781338850
31
0.000000000000000
  0
LINE
  5
F1028A
330
F1028B
100
AcDbEntity
8
Geo
100
AcDbLine
10
-62.2610291009239
20
-2.01922781338850
30
0.000000000000000
11
-62.1610291009239
21
-2.17309568428512
31
0.000000000000000
  0
LINE
  5
F1028C
330
F1028D
100
AcDbEntity
8
Geo
100
AcDbLine
10
-62.1610291009239
20
-2.17309568428512
30
0.000000000000000
11
-62.0610291009239
21
-2.32665544456879
31
0.000000000000000
  0
LINE
  5
F1028E
330
F1028F
100
AcDbEntity
8
Geo
100
AcDbLine
10
-62.0610291009239
20
-2.32665544456879
30
0.000000000000000
11
-61.9610291009239
21
-2.47967962638286
31
0.000000000000000
  0
LINE
  5
F10290
330
F10291
100
AcDbEntity
8
Geo
100
AcDbLine
10
-61.9610291009239
20
-2.47967962638286
30
0.000000000000000
11
-61.8610291009239
21
-2.63194155522235
31
0.000000000000000
  0
LINE
  5
F10292
330
F10293
100
AcDbEntity
8
Geo
100
AcDbLine
10
-61.8610291009239
20
-2.63194155522235
30
0.000000000000000
11
-61.7610291009239
21
-2.78321568570652
31
0.000000000000000
  0
LINE
  5
F10294
330
F10295
100
AcDbEntity
8
Geo
100
AcDbLine
10
-61.7610291009239
20
-2.78321568570652
30
0.000000000000000
11
-61.6610291009239
21
-2.93327793567893
31
0.000000000000000
  0
LINE
  5
F10296
330
F10297
100
AcDbEntity
8
Geo
100
AcDbLine
10
-61.6610291009239
20
-2.93327793567893
30
0.000000000000000
11
-61.5610291009239
21
-3.08190601814007
31
0.000000000000000
  0
LINE
  5
F10298
330
F10299
100
AcDbEntity
8
Geo
100
AcDbLine
10
-61.5610291009239
20
-3.08190601814007
30
0.000000000000000
11
-61.4610291009239
21
-3.22887977052070
31
0.000000000000000
  0
LINE
  5
F1029A
330
F1029B
100
AcDbEntity
8
Geo
100
AcDbLine
10
-61.4610291009239
20
-3.22887977052070
30
0.000000000000000
11
-61.3610291009239
21
-3.37398148080843
31
0.000000000000000
  0
LINE
  5
F1029C
330
F1029D
100
AcDbEntity
8
Geo
100
AcDbLine
10
-61.3610291009239
20
-3.37398148080843
30
0.000000000000000
11
-61.2610291009239
21
-3.51699621004419
31
0.000000000000000
  0
LINE
  5
F1029E
330
F1029F
100
AcDbEntity
8
Geo
100
AcDbLine
10
-61.2610291009239
20
-3.51699621004419
30
0.000000000000000
11
-61.1610291009239
21
-3.65771211071097
31
0.000000000000000
  0
LINE
  5
F102A0
330
F102A1
100
AcDbEntity
8
Geo
100
AcDbLine
10
-61.1610291009239
20
-3.65771211071097
30
0.000000000000000
11
-61.0610291009239
21
-3.79592074054332
31
0.000000000000000
  0
LINE
  5
F102A2
330
F102A3
100
AcDbEntity
8
Geo
100
AcDbLine
10
-61.0610291009239
20
-3.79592074054332
30
0.000000000000000
11
-60.9610291009239
21
-3.93141737129251
31
0.000000000000000
  0
LINE
  5
F102A4
330
F102A5
100
AcDbEntity
8
Geo
100
AcDbLine
10
-60.9610291009239
20
-3.93141737129251
30
0.000000000000000
11
-60.8610291009239
21
-4.06400129199026
31
0.000000000000000
  0
LINE
  5
F102A6
330
F102A7
100
AcDbEntity
8
Geo
100
AcDbLine
10
-60.8610291009239
20
-4.06400129199026
30
0.000000000000000
11
-60.7610291009239
21
-4.19347610626158
31
0.000000000000000
  0
LINE
  5
F102A8
330
F102A9
100
AcDbEntity
8
Geo
100
AcDbLine
10
-60.7610291009239
20
-4.19347610626158
30
0.000000000000000
11
-60.6610291009239
21
-4.31965002324644
31
0.000000000000000
  0
LINE
  5
F102AA
330
F102AB
100
AcDbEntity
8
Geo
100
AcDbLine
10
-60.6610291009239
20
-4.31965002324644
30
0.000000000000000
11
-60.5610291009239
21
-4.44233614169931
31
0.000000000000000
  0
LINE
  5
F102AC
330
F102AD
100
AcDbEntity
8
Geo
100
AcDbLine
10
-60.5610291009239
20
-4.44233614169931
30
0.000000000000000
11
-60.4610291009239
21
-4.56135272684574
31
0.000000000000000
  0
LINE
  5
F102AE
330
F102AF
100
AcDbEntity
8
Geo
100
AcDbLine
10
-60.4610291009239
20
-4.56135272684574
30
0.000000000000000
11
-60.3610291009239
21
-4.67652347958576
31
0.000000000000000
  0
LINE
  5
F102B0
330
F102B1
100
AcDbEntity
8
Geo
100
AcDbLine
10
-60.3610291009239
20
-4.67652347958576
30
0.000000000000000
11
-60.2610291009239
21
-4.78767779764557
31
0.000000000000000
  0
LINE
  5
F102B2
330
F102B3
100
AcDbEntity
8
Geo
100
AcDbLine
10
-60.2610291009239
20
-4.78767779764557
30
0.000000000000000
11
-60.1610291009239
21
-4.89465102829035
31
0.000000000000000
  0
LINE
  5
F102B4
330
F102B5
100
AcDbEntity
8
Geo
100
AcDbLine
10
-60.1610291009239
20
-4.89465102829035
30
0.000000000000000
11
-60.0610291009239
21
-4.99728471222424
31
0.000000000000000
  0
LINE
  5
F102B6
330
F102B7
100
AcDbEntity
8
Geo
100
AcDbLine
10
-60.0610291009239
20
-4.99728471222424
30
0.000000000000000
11
-59.9610291009239
21
-5.09542681831577
31
0.000000000000000
  0
LINE
  5
F102B8
330
F102B9
100
AcDbEntity
8
Geo
100
AcDbLine
10
-59.9610291009239
20
-5.09542681831577
30
0.000000000000000
11
-59.8610291009239
21
-5.18893196880142
31
0.000000000000000
  0
LINE
  5
F102BA
330
F102BB
100
AcDbEntity
8
Geo
100
AcDbLine
10
-59.8610291009239
20
-5.18893196880142
30
0.000000000000000
11
-59.7610291009239
21
-5.27766165463346
31
0.000000000000000
  0
LINE
  5
F102BC
330
F102BD
100
AcDbEntity
8
Geo
100
AcDbLine
10
-59.7610291009239
20
-5.27766165463346
30
0.000000000000000
11
-59.6610291009239
21
-5.36148444065324
31
0.000000000000000
  0
LINE
  5
F102BE
330
F102BF
100
AcDbEntity
8
Geo
100
AcDbLine
10
-59.6610291009239
20
-5.36148444065324
30
0.000000000000000
11
-59.5610291009239
21
-5.44027616028589
31
0.000000000000000
  0
LINE
  5
F102C0
330
F102C1
100
AcDbEntity
8
Geo
100
AcDbLine
10
-59.5610291009239
20
-5.44027616028589
30
0.000000000000000
11
-59.4610291009239
21
-5.51392009946809
31
0.000000000000000
  0
LINE
  5
F102C2
330
F102C3
100
AcDbEntity
8
Geo
100
AcDbLine
10
-59.4610291009239
20
-5.51392009946809
30
0.000000000000000
11
-59.3610291009239
21
-5.58230716953646
31
0.000000000000000
  0
LINE
  5
F102C4
330
F102C5
100
AcDbEntity
8
Geo
100
AcDbLine
10
-59.3610291009239
20
-5.58230716953646
30
0.000000000000000
11
-59.2610291009239
21
-5.64533606882042
31
0.000000000000000
  0
LINE
  5
F102C6
330
F102C7
100
AcDbEntity
8
Geo
100
AcDbLine
10
-59.2610291009239
20
-5.64533606882042
30
0.000000000000000
11
-59.1610291009239
21
-5.70291343270023
31
0.000000000000000
  0
LINE
  5
F102C8
330
F102C9
100
AcDbEntity
8
Geo
100
AcDbLine
10
-59.1610291009239
20
-5.70291343270023
30
0.000000000000000
11
-59.0610291009239
21
-5.75495397190787
31
0.000000000000000
  0
LINE
  5
F102CA
330
F102CB
100
AcDbEntity
8
Geo
100
AcDbLine
10
-59.0610291009239
20
-5.75495397190787
30
0.000000000000000
11
-58.9610291009239
21
-5.80138059886591
31
0.000000000000000
  0
LINE
  5
F102CC
330
F102CD
100
AcDbEntity
8
Geo
100
AcDbLine
10
-58.9610291009239
20
-5.80138059886591
30
0.000000000000000
11
-58.8610291009239
21
-5.84212454187723
31
0.000000000000000
  0
LINE
  5
F102CE
330
F102CF
100
AcDbEntity
8
Geo
100
AcDbLine
10
-58.8610291009239
20
-5.84212454187723
30
0.000000000000000
11
-58.7610291009239
21
-5.87712544699642
31
0.000000000000000
  0
LINE
  5
F102D0
330
F102D1
100
AcDbEntity
8
Geo
100
AcDbLine
10
-58.7610291009239
20
-5.87712544699642
30
0.000000000000000
11
-58.6610291009239
21
-5.90633146743204
31
0.000000000000000
  0
LINE
  5
F102D2
330
F102D3
100
AcDbEntity
8
Geo
100
AcDbLine
10
-58.6610291009239
20
-5.90633146743204
30
0.000000000000000
11
-58.5610291009239
21
-5.92969934034714
31
0.000000000000000
  0
LINE
  5
F102D4
330
F102D5
100
AcDbEntity
8
Geo
100
AcDbLine
10
-58.5610291009239
20
-5.92969934034714
30
0.000000000000000
11
-58.4610291009239
21
-5.94719445094449
31
0.000000000000000
  0
LINE
  5
F102D6
330
F102D7
100
AcDbEntity
8
Geo
100
AcDbLine
10
-58.4610291009239
20
-5.94719445094449
30
0.000000000000000
11
-58.3610291009239
21
-5.95879088374139
31
0.000000000000000
  0
LINE
  5
F102D8
330
F102D9
100
AcDbEntity
8
Geo
100
AcDbLine
10
-58.3610291009239
20
-5.95879088374139
30
0.000000000000000
11
-58.2610291009239
21
-5.96447146095829
31
0.000000000000000
  0
LINE
  5
F102DA
330
F102DB
100
AcDbEntity
8
Geo
100
AcDbLine
10
-50.0610291009239
20
2.03488576740776
30
0.000000000000000
11
-49.9610291009239
21
2.03239622601008
31
0.000000000000000
  0
LINE
  5
F102DC
330
F102DD
100
AcDbEntity
8
Geo
100
AcDbLine
10
-49.9610291009239
20
2.03239622601008
30
0.000000000000000
11
-49.8610291009239
21
2.02398520598179
31
0.000000000000000
  0
LINE
  5
F102DE
330
F102DF
100
AcDbEntity
8
Geo
100
AcDbLine
10
-49.8610291009239
20
2.02398520598179
30
0.000000000000000
11
-49.7610291009239
21
2.00966516655503
31
0.000000000000000
  0
LINE
  5
F102E0
330
F102E1
100
AcDbEntity
8
Geo
100
AcDbLine
10
-49.7610291009239
20
2.00966516655503
30
0.000000000000000
11
-49.6610291009239
21
1.98945731998402
31
0.000000000000000
  0
LINE
  5
F102E2
330
F102E3
100
AcDbEntity
8
Geo
100
AcDbLine
10
-49.6610291009239
20
1.98945731998402
30
0.000000000000000
11
-49.5610291009239
21
1.96339160012344
31
0.000000000000000
  0
LINE
  5
F102E4
330
F102E5
100
AcDbEntity
8
Geo
100
AcDbLine
10
-49.5610291009239
20
1.96339160012344
30
0.000000000000000
11
-49.4610291009239
21
1.93150661808739
31
0.000000000000000
  0
LINE
  5
F102E6
330
F102E7
100
AcDbEntity
8
Geo
100
AcDbLine
10
-49.4610291009239
20
1.93150661808739
30
0.000000000000000
11
-49.3610291009239
21
1.89384960505487
31
0.000000000000000
  0
LINE
  5
F102E8
330
F102E9
100
AcDbEntity
8
Geo
100
AcDbLine
10
-49.3610291009239
20
1.89384960505487
30
0.000000000000000
11
-49.2610291009239
21
1.85047634230623
31
0.000000000000000
  0
LINE
  5
F102EA
330
F102EB
100
AcDbEntity
8
Geo
100
AcDbLine
10
-49.2610291009239
20
1.85047634230623
30
0.000000000000000
11
-49.1610291009239
21
1.80145107859451
31
0.000000000000000
  0
LINE
  5
F102EC
330
F102ED
100
AcDbEntity
8
Geo
100
AcDbLine
10
-49.1610291009239
20
1.80145107859451
30
0.000000000000000
11
-49.0610291009239
21
1.74684643497378
31
0.000000000000000
  0
LINE
  5
F102EE
330
F102EF
100
AcDbEntity
8
Geo
100
AcDbLine
10
-49.0610291009239
20
1.74684643497378
30
0.000000000000000
11
-48.9610291009239
21
1.68674329722574
31
0.000000000000000
  0
LINE
  5
F102F0
330
F102F1
100
AcDbEntity
8
Geo
100
AcDbLine
10
-48.9610291009239
20
1.68674329722574
30
0.000000000000000
11
-48.8610291009239
21
1.62123069604367
31
0.000000000000000
  0
LINE
  5
F102F2
330
F102F3
100
AcDbEntity
8
Geo
100
AcDbLine
10
-48.8610291009239
20
1.62123069604367
30
0.000000000000000
11
-48.7610291009239
21
1.55040567515145
31
0.000000000000000
  0
LINE
  5
F102F4
330
F102F5
100
AcDbEntity
8
Geo
100
AcDbLine
10
-48.7610291009239
20
1.55040567515145
30
0.000000000000000
11
-48.6610291009239
21
1.47437314755277
31
0.000000000000000
  0
LINE
  5
F102F6
330
F102F7
100
AcDbEntity
8
Geo
100
AcDbLine
10
-48.6610291009239
20
1.47437314755277
30
0.000000000000000
11
-48.5610291009239
21
1.39324574012367
31
0.000000000000000
  0
LINE
  5
F102F8
330
F102F9
100
AcDbEntity
8
Geo
100
AcDbLine
10
-48.5610291009239
20
1.39324574012367
30
0.000000000000000
11
-48.4610291009239
21
1.30714362677851
31
0.000000000000000
  0
LINE
  5
F102FA
330
F102FB
100
AcDbEntity
8
Geo
100
AcDbLine
10
-48.4610291009239
20
1.30714362677851
30
0.000000000000000
11
-48.3610291009239
21
1.21619435045652
31
0.000000000000000
  0
LINE
  5
F102FC
330
F102FD
100
AcDbEntity
8
Geo
100
AcDbLine
10
-48.3610291009239
20
1.21619435045652
30
0.000000000000000
11
-48.2610291009239
21
1.12053263419262
31
0.000000000000000
  0
LINE
  5
F102FE
330
F102FF
100
AcDbEntity
8
Geo
100
AcDbLine
10
-48.2610291009239
20
1.12053263419262
30
0.000000000000000
11
-48.1610291009239
21
1.02030018155239
31
0.000000000000000
  0
LINE
  5
F10300
330
F10301
100
AcDbEntity
8
Geo
100
AcDbLine
10
-48.1610291009239
20
1.02030018155239
30
0.000000000000000
11
-48.0610291009239
21
0.915645466726736
31
0.000000000000000
  0
LINE
  5
F10302
330
F10303
100
AcDbEntity
8
Geo
100
AcDbLine
10
-48.0610291009239
20
0.915645466726736
30
0.000000000000000
11
-47.9610291009239
21
0.806723514597345
31
0.000000000000000
  0
LINE
  5
F10304
330
F10305
100
AcDbEntity
8
Geo
100
AcDbLine
10
-47.9610291009239
20
0.806723514597345
30
0.000000000000000
11
-47.8610291009239
21
0.693695671098489
31
0.000000000000000
  0
LINE
  5
F10306
330
F10307
100
AcDbEntity
8
Geo
100
AcDbLine
10
-47.8610291009239
20
0.693695671098489
30
0.000000000000000
11
-47.7610291009239
21
0.576729364215553
31
0.000000000000000
  0
LINE
  5
F10308
330
F10309
100
AcDbEntity
8
Geo
100
AcDbLine
10
-47.7610291009239
20
0.576729364215553
30
0.000000000000000
11
-47.6610291009239
21
0.455997855974182
31
0.000000000000000
  0
LINE
  5
F1030A
330
F1030B
100
AcDbEntity
8
Geo
100
AcDbLine
10
-47.6610291009239
20
0.455997855974182
30
0.000000000000000
11
-47.5610291009239
21
0.331679985787493
31
0.000000000000000
  0
LINE
  5
F1030C
330
F1030D
100
AcDbEntity
8
Geo
100
AcDbLine
10
-47.5610291009239
20
0.331679985787493
30
0.000000000000000
11
-47.4610291009239
21
0.203959905541498
31
0.000000000000000
  0
LINE
  5
F1030E
330
F1030F
100
AcDbEntity
8
Geo
100
AcDbLine
10
-47.4610291009239
20
0.203959905541498
30
0.000000000000000
11
-47.3610291009239
21
0.0730268068111828
31
0.000000000000000
  0
LINE
  5
F10310
330
F10311
100
AcDbEntity
8
Geo
100
AcDbLine
10
-47.3610291009239
20
0.0730268068111828
30
0.000000000000000
11
-47.2610291009239
21
-0.0609253593887167
31
0.000000000000000
  0
LINE
  5
F10312
330
F10313
100
AcDbEntity
8
Geo
100
AcDbLine
10
-47.2610291009239
20
-0.0609253593887167
30
0.000000000000000
11
-47.1610291009239
21
-0.197698169903067
31
0.000000000000000
  0
LINE
  5
F10314
330
F10315
100
AcDbEntity
8
Geo
100
AcDbLine
10
-47.1610291009239
20
-0.197698169903067
30
0.000000000000000
11
-47.0610291009239
21
-0.337089023360296
31
0.000000000000000
  0
LINE
  5
F10316
330
F10317
100
AcDbEntity
8
Geo
100
AcDbLine
10
-47.0610291009239
20
-0.337089023360296
30
0.000000000000000
11
-46.9610291009239
21
-0.478891440285497
31
0.000000000000000
  0
LINE
  5
F10318
330
F10319
100
AcDbEntity
8
Geo
100
AcDbLine
10
-46.9610291009239
20
-0.478891440285497
30
0.000000000000000
11
-46.8610291009239
21
-0.622895368958198
31
0.000000000000000
  0
LINE
  5
F1031A
330
F1031B
100
AcDbEntity
8
Geo
100
AcDbLine
10
-46.8610291009239
20
-0.622895368958198
30
0.000000000000000
11
-46.7610291009239
21
-0.768887496561676
31
0.000000000000000
  0
LINE
  5
F1031C
330
F1031D
100
AcDbEntity
8
Geo
100
AcDbLine
10
-46.7610291009239
20
-0.768887496561676
30
0.000000000000000
11
-46.6610291009239
21
-0.916651565162933
31
0.000000000000000
  0
LINE
  5
F1031E
330
F1031F
100
AcDbEntity
8
Geo
100
AcDbLine
10
-46.6610291009239
20
-0.916651565162933
30
0.000000000000000
11
-46.5610291009239
21
-1.06596869205527
31
0.000000000000000
  0
LINE
  5
F10320
330
F10321
100
AcDbEntity
8
Geo
100
AcDbLine
10
-46.5610291009239
20
-1.06596869205527
30
0.000000000000000
11
-46.4610291009239
21
-1.21661769398891
31
0.000000000000000
  0
LINE
  5
F10322
330
F10323
100
AcDbEntity
8
Geo
100
AcDbLine
10
-46.4610291009239
20
-1.21661769398891
30
0.000000000000000
11
-46.3610291009239
21
-1.36837541480948
31
0.000000000000000
  0
LINE
  5
F10324
330
F10325
100
AcDbEntity
8
Geo
100
AcDbLine
10
-46.3610291009239
20
-1.36837541480948
30
0.000000000000000
11
-46.2610291009239
21
-1.52101705601888
31
0.000000000000000
  0
LINE
  5
F10326
330
F10327
100
AcDbEntity
8
Geo
100
AcDbLine
10
-46.2610291009239
20
-1.52101705601888
30
0.000000000000000
11
-46.1610291009239
21
-1.67431650976895
31
0.000000000000000
  0
LINE
  5
F10328
330
F10329
100
AcDbEntity
8
Geo
100
AcDbLine
10
-46.1610291009239
20
-1.67431650976895
30
0.000000000000000
11
-46.0610291009239
21
-1.82804669379478
31
0.000000000000000
  0
LINE
  5
F1032A
330
F1032B
100
AcDbEntity
8
Geo
100
AcDbLine
10
-46.0610291009239
20
-1.82804669379478
30
0.000000000000000
11
-45.9610291009239
21
-1.98197988779128
31
0.000000000000000
  0
LINE
  5
F1032C
330
F1032D
100
AcDbEntity
8
Geo
100
AcDbLine
10
-45.9610291009239
20
-1.98197988779128
30
0.000000000000000
11
-45.8610291009239
21
-2.13588807073499
31
0.000000000000000
  0
LINE
  5
F1032E
330
F1032F
100
AcDbEntity
8
Geo
100
AcDbLine
10
-45.8610291009239
20
-2.13588807073499
30
0.000000000000000
11
-45.7610291009239
21
-2.28954325865129
31
0.000000000000000
  0
LINE
  5
F10330
330
F10331
100
AcDbEntity
8
Geo
100
AcDbLine
10
-45.7610291009239
20
-2.28954325865129
30
0.000000000000000
11
-45.6610291009239
21
-2.44271784232673
31
0.000000000000000
  0
LINE
  5
F10332
330
F10333
100
AcDbEntity
8
Geo
100
AcDbLine
10
-45.6610291009239
20
-2.44271784232673
30
0.000000000000000
11
-45.5610291009239
21
-2.59518492446622
31
0.000000000000000
  0
LINE
  5
F10334
330
F10335
100
AcDbEntity
8
Geo
100
AcDbLine
10
-45.5610291009239
20
-2.59518492446622
30
0.000000000000000
11
-45.4610291009239
21
-2.79372724831323
31
0.000000000000000
  0
LINE
  5
F10336
330
F10337
100
AcDbEntity
8
Geo
100
AcDbLine
10
-45.4610291009239
20
-2.79372724831323
30
0.000000000000000
11
-45.3610291009239
21
-3.04385134373700
31
0.000000000000000
  0
LINE
  5
F10338
330
F10339
100
AcDbEntity
8
Geo
100
AcDbLine
10
-45.3610291009239
20
-3.04385134373700
30
0.000000000000000
11
-45.2610291009239
21
-3.34188679079949
31
0.000000000000000
  0
LINE
  5
F1033A
330
F1033B
100
AcDbEntity
8
Geo
100
AcDbLine
10
-45.2610291009239
20
-3.34188679079949
30
0.000000000000000
11
-45.1610291009239
21
-3.68191319290401
31
0.000000000000000
  0
LINE
  5
F1033C
330
F1033D
100
AcDbEntity
8
Geo
100
AcDbLine
10
-45.1610291009239
20
-3.68191319290401
30
0.000000000000000
11
-45.0610291009239
21
-4.05500026766763
31
0.000000000000000
  0
LINE
  5
F1033E
330
F1033F
100
AcDbEntity
8
Geo
100
AcDbLine
10
-45.0610291009239
20
-4.05500026766763
30
0.000000000000000
11
-44.9610291009239
21
-4.44843247820316
31
0.000000000000000
  0
LINE
  5
F10340
330
F10341
100
AcDbEntity
8
Geo
100
AcDbLine
10
-44.9610291009239
20
-4.44843247820316
30
0.000000000000000
11
-44.8610291009239
21
-4.84501576688468
31
0.000000000000000
  0
LINE
  5
F10342
330
F10343
100
AcDbEntity
8
Geo
100
AcDbLine
10
-44.8610291009239
20
-4.84501576688468
30
0.000000000000000
11
-44.7610291009239
21
-5.22260147245584
31
0.000000000000000
  0
LINE
  5
F10344
330
F10345
100
AcDbEntity
8
Geo
100
AcDbLine
10
-44.7610291009239
20
-5.22260147245584
30
0.000000000000000
11
-44.6610291009239
21
-5.55400102588577
31
0.000000000000000
  0
LINE
  5
F10346
330
F10347
100
AcDbEntity
8
Geo
100
AcDbLine
10
-44.6610291009239
20
-5.55400102588577
30
0.000000000000000
11
-44.5610291009239
21
-5.80749708749164
31
0.000000000000000
  0
LINE
  5
F10348
330
F10349
100
AcDbEntity
8
Geo
100
AcDbLine
10
-65.5610291009239
20
-1.96509534275067
30
0.000000000000000
11
-65.4610291009239
21
-2.10362519654113
31
0.000000000000000
  0
LINE
  5
F1034A
330
F1034B
100
AcDbEntity
8
Geo
100
AcDbLine
10
-65.4610291009239
20
-2.10362519654113
30
0.000000000000000
11
-65.3610291009239
21
-2.24964024912938
31
0.000000000000000
  0
LINE
  5
F1034C
330
F1034D
100
AcDbEntity
8
Geo
100
AcDbLine
10
-65.3610291009239
20
-2.24964024912938
30
0.000000000000000
11
-65.2610291009239
21
-2.40290711672746
31
0.000000000000000
  0
LINE
  5
F1034E
330
F1034F
100
AcDbEntity
8
Geo
100
AcDbLine
10
-65.2610291009239
20
-2.40290711672746
30
0.000000000000000
11
-65.1610291009239
21
-2.56317030697933
31
0.000000000000000
  0
LINE
  5
F10350
330
F10351
100
AcDbEntity
8
Geo
100
AcDbLine
10
-65.1610291009239
20
-2.56317030697933
30
0.000000000000000
11
-65.0610291009239
21
-2.73015263957661
31
0.000000000000000
  0
LINE
  5
F10352
330
F10353
100
AcDbEntity
8
Geo
100
AcDbLine
10
-65.0610291009239
20
-2.73015263957661
30
0.000000000000000
11
-64.9610291009239
21
-2.88066643838459
31
0.000000000000000
  0
LINE
  5
F10354
330
F10355
100
AcDbEntity
8
Geo
100
AcDbLine
10
-64.9610291009239
20
-2.88066643838459
30
0.000000000000000
11
-64.8610291009239
21
-3.02982400301813
31
0.000000000000000
  0
LINE
  5
F10356
330
F10357
100
AcDbEntity
8
Geo
100
AcDbLine
10
-64.8610291009239
20
-3.02982400301813
30
0.000000000000000
11
-64.7610291009239
21
-3.17740438658682
31
0.000000000000000
  0
LINE
  5
F10358
330
F10359
100
AcDbEntity
8
Geo
100
AcDbLine
10
-64.7610291009239
20
-3.17740438658682
30
0.000000000000000
11
-64.6610291009239
21
-3.32318897847634
31
0.000000000000000
  0
LINE
  5
F1035A
330
F1035B
100
AcDbEntity
8
Geo
100
AcDbLine
10
-64.6610291009239
20
-3.32318897847634
30
0.000000000000000
11
-64.5610291009239
21
-3.46696182817604
31
0.000000000000000
  0
LINE
  5
F1035C
330
F1035D
100
AcDbEntity
8
Geo
100
AcDbLine
10
-64.5610291009239
20
-3.46696182817604
30
0.000000000000000
11
-64.4610291009239
21
-3.60850996516616
31
0.000000000000000
  0
LINE
  5
F1035E
330
F1035F
100
AcDbEntity
8
Geo
100
AcDbLine
10
-64.4610291009239
20
-3.60850996516616
30
0.000000000000000
11
-64.3610291009239
21
-3.74762371439073
31
0.000000000000000
  0
LINE
  5
F10360
330
F10361
100
AcDbEntity
8
Geo
100
AcDbLine
10
-64.3610291009239
20
-3.74762371439073
30
0.000000000000000
11
-64.2610291009239
21
-3.88409700684898
31
0.000000000000000
  0
LINE
  5
F10362
330
F10363
100
AcDbEntity
8
Geo
100
AcDbLine
10
-64.2610291009239
20
-3.88409700684898
30
0.000000000000000
11
-64.1610291009239
21
-4.01772768484498
31
0.000000000000000
  0
LINE
  5
F10364
330
F10365
100
AcDbEntity
8
Geo
100
AcDbLine
10
-64.1610291009239
20
-4.01772768484498
30
0.000000000000000
11
-64.0610291009239
21
-4.14831780144364
31
0.000000000000000
  0
LINE
  5
F10366
330
F10367
100
AcDbEntity
8
Geo
100
AcDbLine
10
-64.0610291009239
20
-4.14831780144364
30
0.000000000000000
11
-63.9610291009239
21
-4.27567391368916
31
0.000000000000000
  0
LINE
  5
F10368
330
F10369
100
AcDbEntity
8
Geo
100
AcDbLine
10
-63.9610291009239
20
-4.27567391368916
30
0.000000000000000
11
-63.8610291009239
21
-4.39960736915186
31
0.000000000000000
  0
LINE
  5
F1036A
330
F1036B
100
AcDbEntity
8
Geo
100
AcDbLine
10
-63.8610291009239
20
-4.39960736915186
30
0.000000000000000
11
-63.7610291009239
21
-4.51993458537870
31
0.000000000000000
  0
LINE
  5
F1036C
330
F1036D
100
AcDbEntity
8
Geo
100
AcDbLine
10
-63.7610291009239
20
-4.51993458537870
30
0.000000000000000
11
-63.6610291009239
21
-4.63647732183375
31
0.000000000000000
  0
LINE
  5
F1036E
330
F1036F
100
AcDbEntity
8
Geo
100
AcDbLine
10
-63.6610291009239
20
-4.63647732183375
30
0.000000000000000
11
-63.5610291009239
21
-4.74906294392566
31
0.000000000000000
  0
LINE
  5
F10370
330
F10371
100
AcDbEntity
8
Geo
100
AcDbLine
10
-63.5610291009239
20
-4.74906294392566
30
0.000000000000000
11
-63.4610291009239
21
-4.85752467873099
31
0.000000000000000
  0
LINE
  5
F10372
330
F10373
100
AcDbEntity
8
Geo
100
AcDbLine
10
-63.4610291009239
20
-4.85752467873099
30
0.000000000000000
11
-63.3610291009239
21
-4.96170186203472
31
0.000000000000000
  0
LINE
  5
F10374
330
F10375
100
AcDbEntity
8
Geo
100
AcDbLine
10
-63.3610291009239
20
-4.96170186203472
30
0.000000000000000
11
-63.2610291009239
21
-5.06144017632197
31
0.000000000000000
  0
LINE
  5
F10376
330
F10377
100
AcDbEntity
8
Geo
100
AcDbLine
10
-63.2610291009239
20
-5.06144017632197
30
0.000000000000000
11
-63.1610291009239
21
-5.15659187936825
31
0.000000000000000
  0
LINE
  5
F10378
330
F10379
100
AcDbEntity
8
Geo
100
AcDbLine
10
-63.1610291009239
20
-5.15659187936825
30
0.000000000000000
11
-63.0610291009239
21
-5.24701602308985
31
0.000000000000000
  0
LINE
  5
F1037A
330
F1037B
100
AcDbEntity
8
Geo
100
AcDbLine
10
-63.0610291009239
20
-5.24701602308985
30
0.000000000000000
11
-62.9610291009239
21
-5.33257866233004
31
0.000000000000000
  0
LINE
  5
F1037C
330
F1037D
100
AcDbEntity
8
Geo
100
AcDbLine
10
-62.9610291009239
20
-5.33257866233004
30
0.000000000000000
11
-62.8610291009239
21
-5.41315305327182
31
0.000000000000000
  0
LINE
  5
F1037E
330
F1037F
100
AcDbEntity
8
Geo
100
AcDbLine
10
-62.8610291009239
20
-5.41315305327182
30
0.000000000000000
11
-62.7610291009239
21
-5.48861984118336
31
0.000000000000000
  0
LINE
  5
F10380
330
F10381
100
AcDbEntity
8
Geo
100
AcDbLine
10
-62.7610291009239
20
-5.48861984118336
30
0.000000000000000
11
-62.6610291009239
21
-5.55886723721804
31
0.000000000000000
  0
LINE
  5
F10382
330
F10383
100
AcDbEntity
8
Geo
100
AcDbLine
10
-62.6610291009239
20
-5.55886723721804
30
0.000000000000000
11
-62.5610291009239
21
-5.62379118400703
31
0.000000000000000
  0
LINE
  5
F10384
330
F10385
100
AcDbEntity
8
Geo
100
AcDbLine
10
-62.5610291009239
20
-5.62379118400703
30
0.000000000000000
11
-62.4610291009239
21
-5.68329550979941
31
0.000000000000000
  0
LINE
  5
F10386
330
F10387
100
AcDbEntity
8
Geo
100
AcDbLine
10
-62.4610291009239
20
-5.68329550979941
30
0.000000000000000
11
-62.3610291009239
21
-5.73729207092118
31
0.000000000000000
  0
LINE
  5
F10388
330
F10389
100
AcDbEntity
8
Geo
100
AcDbLine
10
-62.3610291009239
20
-5.73729207092118
30
0.000000000000000
11
-62.2610291009239
21
-5.78570088234240
31
0.000000000000000
  0
LINE
  5
F1038A
330
F1038B
100
AcDbEntity
8
Geo
100
AcDbLine
10
-62.2610291009239
20
-5.78570088234240
30
0.000000000000000
11
-62.1610291009239
21
-5.82845023615891
31
0.000000000000000
  0
LINE
  5
F1038C
330
F1038D
100
AcDbEntity
8
Geo
100
AcDbLine
10
-62.1610291009239
20
-5.82845023615891
30
0.000000000000000
11
-62.0610291009239
21
-5.86547680781309
31
0.000000000000000
  0
LINE
  5
F1038E
330
F1038F
100
AcDbEntity
8
Geo
100
AcDbLine
10
-62.0610291009239
20
-5.86547680781309
30
0.000000000000000
11
-61.9610291009239
21
-5.89672574989651
31
0.000000000000000
  0
LINE
  5
F10390
330
F10391
100
AcDbEntity
8
Geo
100
AcDbLine
10
-61.9610291009239
20
-5.89672574989651
30
0.000000000000000
11
-61.8610291009239
21
-5.92215077339527
31
0.000000000000000
  0
LINE
  5
F10392
330
F10393
100
AcDbEntity
8
Geo
100
AcDbLine
10
-61.8610291009239
20
-5.92215077339527
30
0.000000000000000
11
-61.7610291009239
21
-5.94171421625787
31
0.000000000000000
  0
LINE
  5
F10394
330
F10395
100
AcDbEntity
8
Geo
100
AcDbLine
10
-61.7610291009239
20
-5.94171421625787
30
0.000000000000000
11
-61.6610291009239
21
-5.95538709918395
31
0.000000000000000
  0
LINE
  5
F10396
330
F10397
100
AcDbEntity
8
Geo
100
AcDbLine
10
-61.6610291009239
20
-5.95538709918395
30
0.000000000000000
11
-61.5610291009239
21
-5.96314916855130
31
0.000000000000000
  0
LINE
  5
F10398
330
F10399
100
AcDbEntity
8
Geo
100
AcDbLine
10
-53.3610291009239
20
2.03435309891248
30
0.000000000000000
11
-53.2610291009239
21
2.03394694422378
31
0.000000000000000
  0
LINE
  5
F1039A
330
F1039B
100
AcDbEntity
8
Geo
100
AcDbLine
10
-53.2610291009239
20
2.03394694422378
30
0.000000000000000
11
-53.1610291009239
21
2.02761701382778
31
0.000000000000000
  0
LINE
  5
F1039C
330
F1039D
100
AcDbEntity
8
Geo
100
AcDbLine
10
-53.1610291009239
20
2.02761701382778
30
0.000000000000000
11
-53.0610291009239
21
2.01537268424146
31
0.000000000000000
  0
LINE
  5
F1039E
330
F1039F
100
AcDbEntity
8
Geo
100
AcDbLine
10
-53.0610291009239
20
2.01537268424146
30
0.000000000000000
11
-52.9610291009239
21
1.99723209297298
31
0.000000000000000
  0
LINE
  5
F103A0
330
F103A1
100
AcDbEntity
8
Geo
100
AcDbLine
10
-52.9610291009239
20
1.99723209297298
30
0.000000000000000
11
-52.8610291009239
21
1.97322211165465
31
0.000000000000000
  0
LINE
  5
F103A2
330
F103A3
100
AcDbEntity
8
Geo
100
AcDbLine
10
-52.8610291009239
20
1.97322211165465
30
0.000000000000000
11
-52.7610291009239
21
1.94337830623797
31
0.000000000000000
  0
LINE
  5
F103A4
330
F103A5
100
AcDbEntity
8
Geo
100
AcDbLine
10
-52.7610291009239
20
1.94337830623797
30
0.000000000000000
11
-52.6610291009239
21
1.90774488430988
31
0.000000000000000
  0
LINE
  5
F103A6
330
F103A7
100
AcDbEntity
8
Geo
100
AcDbLine
10
-52.6610291009239
20
1.90774488430988
30
0.000000000000000
11
-52.5610291009239
21
1.86637462960808
31
0.000000000000000
  0
LINE
  5
F103A8
330
F103A9
100
AcDbEntity
8
Geo
100
AcDbLine
10
-52.5610291009239
20
1.86637462960808
30
0.000000000000000
11
-52.4610291009239
21
1.81932882383261
31
0.000000000000000
  0
LINE
  5
F103AA
330
F103AB
100
AcDbEntity
8
Geo
100
AcDbLine
10
-52.4610291009239
20
1.81932882383261
30
0.000000000000000
11
-52.3610291009239
21
1.76667715586929
31
0.000000000000000
  0
LINE
  5
F103AC
330
F103AD
100
AcDbEntity
8
Geo
100
AcDbLine
10
-52.3610291009239
20
1.76667715586929
30
0.000000000000000
11
-52.2610291009239
21
1.70849761855973
31
0.000000000000000
  0
LINE
  5
F103AE
330
F103AF
100
AcDbEntity
8
Geo
100
AcDbLine
10
-52.2610291009239
20
1.70849761855973
30
0.000000000000000
11
-52.1610291009239
21
1.64487639317059
31
0.000000000000000
  0
LINE
  5
F103B0
330
F103B1
100
AcDbEntity
8
Geo
100
AcDbLine
10
-52.1610291009239
20
1.64487639317059
30
0.000000000000000
11
-52.0610291009239
21
1.57590772173345
31
0.000000000000000
  0
LINE
  5
F103B2
330
F103B3
100
AcDbEntity
8
Geo
100
AcDbLine
10
-52.0610291009239
20
1.57590772173345
30
0.000000000000000
11
-51.9610291009239
21
1.50169376744415
31
0.000000000000000
  0
LINE
  5
F103B4
330
F103B5
100
AcDbEntity
8
Geo
100
AcDbLine
10
-51.9610291009239
20
1.50169376744415
30
0.000000000000000
11
-51.8610291009239
21
1.42234446332867
31
0.000000000000000
  0
LINE
  5
F103B6
330
F103B7
100
AcDbEntity
8
Geo
100
AcDbLine
10
-51.8610291009239
20
1.42234446332867
30
0.000000000000000
11
-51.7610291009239
21
1.33797734939944
31
0.000000000000000
  0
LINE
  5
F103B8
330
F103B9
100
AcDbEntity
8
Geo
100
AcDbLine
10
-51.7610291009239
20
1.33797734939944
30
0.000000000000000
11
-51.6610291009239
21
1.24871739854349
31
0.000000000000000
  0
LINE
  5
F103BA
330
F103BB
100
AcDbEntity
8
Geo
100
AcDbLine
10
-51.6610291009239
20
1.24871739854349
30
0.000000000000000
11
-51.5610291009239
21
1.15469683140031
31
0.000000000000000
  0
LINE
  5
F103BC
330
F103BD
100
AcDbEntity
8
Geo
100
AcDbLine
10
-51.5610291009239
20
1.15469683140031
30
0.000000000000000
11
-51.4610291009239
21
1.05605492050358
31
0.000000000000000
  0
LINE
  5
F103BE
330
F103BF
100
AcDbEntity
8
Geo
100
AcDbLine
10
-51.4610291009239
20
1.05605492050358
30
0.000000000000000
11
-51.3610291009239
21
0.952937783976981
31
0.000000000000000
  0
LINE
  5
F103C0
330
F103C1
100
AcDbEntity
8
Geo
100
AcDbLine
10
-51.3610291009239
20
0.952937783976981
30
0.000000000000000
11
-51.2610291009239
21
0.845498169089623
31
0.000000000000000
  0
LINE
  5
F103C2
330
F103C3
100
AcDbEntity
8
Geo
100
AcDbLine
10
-51.2610291009239
20
0.845498169089623
30
0.000000000000000
11
-51.1610291009239
21
0.733895225991716
31
0.000000000000000
  0
LINE
  5
F103C4
330
F103C5
100
AcDbEntity
8
Geo
100
AcDbLine
10
-51.1610291009239
20
0.733895225991716
30
0.000000000000000
11
-51.0610291009239
21
0.618294271965685
31
0.000000000000000
  0
LINE
  5
F103C6
330
F103C7
100
AcDbEntity
8
Geo
100
AcDbLine
10
-51.0610291009239
20
0.618294271965685
30
0.000000000000000
11
-50.9610291009239
21
0.498866546541911
31
0.000000000000000
  0
LINE
  5
F103C8
330
F103C9
100
AcDbEntity
8
Geo
100
AcDbLine
10
-50.9610291009239
20
0.498866546541911
30
0.000000000000000
11
-50.8610291009239
21
0.375788957841858
31
0.000000000000000
  0
LINE
  5
F103CA
330
F103CB
100
AcDbEntity
8
Geo
100
AcDbLine
10
-50.8610291009239
20
0.375788957841858
30
0.000000000000000
11
-50.7610291009239
21
0.249243820524320
31
0.000000000000000
  0
LINE
  5
F103CC
330
F103CD
100
AcDbEntity
8
Geo
100
AcDbLine
10
-50.7610291009239
20
0.249243820524320
30
0.000000000000000
11
-50.6610291009239
21
0.119418585722977
31
0.000000000000000
  0
LINE
  5
F103CE
330
F103CF
100
AcDbEntity
8
Geo
100
AcDbLine
10
-50.6610291009239
20
0.119418585722977
30
0.000000000000000
11
-50.5610291009239
21
-0.0134944366247121
31
0.000000000000000
  0
LINE
  5
F103D0
330
F103D1
100
AcDbEntity
8
Geo
100
AcDbLine
10
-50.5610291009239
20
-0.0134944366247121
30
0.000000000000000
11
-50.4610291009239
21
-0.149298362645943
31
0.000000000000000
  0
LINE
  5
F103D2
330
F103D3
100
AcDbEntity
8
Geo
100
AcDbLine
10
-50.4610291009239
20
-0.149298362645943
30
0.000000000000000
11
-50.3610291009239
21
-0.287792026176370
31
0.000000000000000
  0
LINE
  5
F103D4
330
F103D5
100
AcDbEntity
8
Geo
100
AcDbLine
10
-50.3610291009239
20
-0.287792026176370
30
0.000000000000000
11
-50.2610291009239
21
-0.428770276747269
31
0.000000000000000
  0
LINE
  5
F103D6
330
F103D7
100
AcDbEntity
8
Geo
100
AcDbLine
10
-50.2610291009239
20
-0.428770276747269
30
0.000000000000000
11
-50.1610291009239
21
-0.572024283474622
31
0.000000000000000
  0
LINE
  5
F103D8
330
F103D9
100
AcDbEntity
8
Geo
100
AcDbLine
10
-50.1610291009239
20
-0.572024283474622
30
0.000000000000000
11
-50.0610291009239
21
-0.717341844400030
31
0.000000000000000
  0
LINE
  5
F103DA
330
F103DB
100
AcDbEntity
8
Geo
100
AcDbLine
10
-50.0610291009239
20
-0.717341844400030
30
0.000000000000000
11
-49.9610291009239
21
-0.864507700825165
31
0.000000000000000
  0
LINE
  5
F103DC
330
F103DD
100
AcDbEntity
8
Geo
100
AcDbLine
10
-49.9610291009239
20
-0.864507700825165
30
0.000000000000000
11
-49.8610291009239
21
-1.01330385617418
31
0.000000000000000
  0
LINE
  5
F103DE
330
F103DF
100
AcDbEntity
8
Geo
100
AcDbLine
10
-49.8610291009239
20
-1.01330385617418
30
0.000000000000000
11
-49.7610291009239
21
-1.16350989891172
31
0.000000000000000
  0
LINE
  5
F103E0
330
F103E1
100
AcDbEntity
8
Geo
100
AcDbLine
10
-49.7610291009239
20
-1.16350989891172
30
0.000000000000000
11
-49.6610291009239
21
-1.31490332903824
31
0.000000000000000
  0
LINE
  5
F103E2
330
F103E3
100
AcDbEntity
8
Geo
100
AcDbLine
10
-49.6610291009239
20
-1.31490332903824
30
0.000000000000000
11
-49.5610291009239
21
-1.46725988767892
31
0.000000000000000
  0
LINE
  5
F103E4
330
F103E5
100
AcDbEntity
8
Geo
100
AcDbLine
10
-49.5610291009239
20
-1.46725988767892
30
0.000000000000000
11
-49.4610291009239
21
-1.62035388927803
31
0.000000000000000
  0
LINE
  5
F103E6
330
F103E7
100
AcDbEntity
8
Geo
100
AcDbLine
10
-49.4610291009239
20
-1.62035388927803
30
0.000000000000000
11
-49.3610291009239
21
-1.77395855590662
31
0.000000000000000
  0
LINE
  5
F103E8
330
F103E9
100
AcDbEntity
8
Geo
100
AcDbLine
10
-49.3610291009239
20
-1.77395855590662
30
0.000000000000000
11
-49.2610291009239
21
-1.92784635318837
31
0.000000000000000
  0
LINE
  5
F103EA
330
F103EB
100
AcDbEntity
8
Geo
100
AcDbLine
10
-49.2610291009239
20
-1.92784635318837
30
0.000000000000000
11
-49.1610291009239
21
-2.08178932734588
31
0.000000000000000
  0
LINE
  5
F103EC
330
F103ED
100
AcDbEntity
8
Geo
100
AcDbLine
10
-49.1610291009239
20
-2.08178932734588
30
0.000000000000000
11
-49.0610291009239
21
-2.23555944286838
31
0.000000000000000
  0
LINE
  5
F103EE
330
F103EF
100
AcDbEntity
8
Geo
100
AcDbLine
10
-49.0610291009239
20
-2.23555944286838
30
0.000000000000000
11
-48.9610291009239
21
-2.38892892030030
31
0.000000000000000
  0
LINE
  5
F103F0
330
F103F1
100
AcDbEntity
8
Geo
100
AcDbLine
10
-48.9610291009239
20
-2.38892892030030
30
0.000000000000000
11
-48.8610291009239
21
-2.54167057365074
31
0.000000000000000
  0
LINE
  5
F103F2
330
F103F3
100
AcDbEntity
8
Geo
100
AcDbLine
10
-48.8610291009239
20
-2.54167057365074
30
0.000000000000000
11
-48.7610291009239
21
-2.69355814692371
31
0.000000000000000
  0
LINE
  5
F103F4
330
F103F5
100
AcDbEntity
8
Geo
100
AcDbLine
10
-48.7610291009239
20
-2.69355814692371
30
0.000000000000000
11
-48.6610291009239
21
-2.84436664927085
31
0.000000000000000
  0
LINE
  5
F103F6
330
F103F7
100
AcDbEntity
8
Geo
100
AcDbLine
10
-48.6610291009239
20
-2.84436664927085
30
0.000000000000000
11
-48.5610291009239
21
-2.99387268827004
31
0.000000000000000
  0
LINE
  5
F103F8
330
F103F9
100
AcDbEntity
8
Geo
100
AcDbLine
10
-48.5610291009239
20
-2.99387268827004
30
0.000000000000000
11
-48.4610291009239
21
-3.14185480083629
31
0.000000000000000
  0
LINE
  5
F103FA
330
F103FB
100
AcDbEntity
8
Geo
100
AcDbLine
10
-48.4610291009239
20
-3.14185480083629
30
0.000000000000000
11
-48.3610291009239
21
-3.28809378127466
31
0.000000000000000
  0
LINE
  5
F103FC
330
F103FD
100
AcDbEntity
8
Geo
100
AcDbLine
10
-48.3610291009239
20
-3.28809378127466
30
0.000000000000000
11
-48.2610291009239
21
-3.43237300598940
31
0.000000000000000
  0
LINE
  5
F103FE
330
F103FF
100
AcDbEntity
8
Geo
100
AcDbLine
10
-48.2610291009239
20
-3.43237300598940
30
0.000000000000000
11
-48.1610291009239
21
-3.57447875436815
31
0.000000000000000
  0
LINE
  5
F10400
330
F10401
100
AcDbEntity
8
Geo
100
AcDbLine
10
-48.1610291009239
20
-3.57447875436815
30
0.000000000000000
11
-48.0610291009239
21
-3.71420052536598
31
0.000000000000000
  0
LINE
  5
F10402
330
F10403
100
AcDbEntity
8
Geo
100
AcDbLine
10
-48.0610291009239
20
-3.71420052536598
30
0.000000000000000
11
-47.9610291009239
21
-3.85133134932030
31
0.000000000000000
  0
LINE
  5
F10404
330
F10405
100
AcDbEntity
8
Geo
100
AcDbLine
10
-47.9610291009239
20
-3.85133134932030
30
0.000000000000000
11
-47.8610291009239
21
-3.98566809453474
31
0.000000000000000
  0
LINE
  5
F10406
330
F10407
100
AcDbEntity
8
Geo
100
AcDbLine
10
-47.8610291009239
20
-3.98566809453474
30
0.000000000000000
11
-47.7610291009239
21
-4.11701176817780
31
0.000000000000000
  0
LINE
  5
F10408
330
F10409
100
AcDbEntity
8
Geo
100
AcDbLine
10
-47.7610291009239
20
-4.11701176817780
30
0.000000000000000
11
-47.6610291009239
21
-4.24516781105071
31
0.000000000000000
  0
LINE
  5
F1040A
330
F1040B
100
AcDbEntity
8
Geo
100
AcDbLine
10
-47.6610291009239
20
-4.24516781105071
30
0.000000000000000
11
-47.5610291009239
21
-4.36994638578767
31
0.000000000000000
  0
LINE
  5
F1040C
330
F1040D
100
AcDbEntity
8
Geo
100
AcDbLine
10
-47.5610291009239
20
-4.36994638578767
30
0.000000000000000
11
-47.4610291009239
21
-4.49116265806165
31
0.000000000000000
  0
LINE
  5
F1040E
330
F1040F
100
AcDbEntity
8
Geo
100
AcDbLine
10
-47.4610291009239
20
-4.49116265806165
30
0.000000000000000
11
-47.3610291009239
21
-4.60863707037926
31
0.000000000000000
  0
LINE
  5
F10410
330
F10411
100
AcDbEntity
8
Geo
100
AcDbLine
10
-47.3610291009239
20
-4.60863707037926
30
0.000000000000000
11
-47.2610291009239
21
-4.72219560805898
31
0.000000000000000
  0
LINE
  5
F10412
330
F10413
100
AcDbEntity
8
Geo
100
AcDbLine
10
-47.2610291009239
20
-4.72219560805898
30
0.000000000000000
11
-47.1610291009239
21
-4.83167005699891
31
0.000000000000000
  0
LINE
  5
F10414
330
F10415
100
AcDbEntity
8
Geo
100
AcDbLine
10
-47.1610291009239
20
-4.83167005699891
30
0.000000000000000
11
-47.0610291009239
21
-4.93689825285200
31
0.000000000000000
  0
LINE
  5
F10416
330
F10417
100
AcDbEntity
8
Geo
100
AcDbLine
10
-47.0610291009239
20
-4.93689825285200
30
0.000000000000000
11
-46.9610291009239
21
-5.03772432123996
31
0.000000000000000
  0
LINE
  5
F10418
330
F10419
100
AcDbEntity
8
Geo
100
AcDbLine
10
-46.9610291009239
20
-5.03772432123996
30
0.000000000000000
11
-46.8610291009239
21
-5.13399890864967
31
0.000000000000000
  0
LINE
  5
F1041A
330
F1041B
100
AcDbEntity
8
Geo
100
AcDbLine
10
-46.8610291009239
20
-5.13399890864967
30
0.000000000000000
11
-46.7610291009239
21
-5.22557940367041
31
0.000000000000000
  0
LINE
  5
F1041C
330
F1041D
100
AcDbEntity
8
Geo
100
AcDbLine
10
-46.7610291009239
20
-5.22557940367041
30
0.000000000000000
11
-46.6610291009239
21
-5.31233014824389
31
0.000000000000000
  0
LINE
  5
F1041E
330
F1041F
100
AcDbEntity
8
Geo
100
AcDbLine
10
-46.6610291009239
20
-5.31233014824389
30
0.000000000000000
11
-46.5610291009239
21
-5.39412263861436
31
0.000000000000000
  0
LINE
  5
F10420
330
F10421
100
AcDbEntity
8
Geo
100
AcDbLine
10
-46.5610291009239
20
-5.39412263861436
30
0.000000000000000
11
-46.4610291009239
21
-5.47083571568103
31
0.000000000000000
  0
LINE
  5
F10422
330
F10423
100
AcDbEntity
8
Geo
100
AcDbLine
10
-46.4610291009239
20
-5.47083571568103
30
0.000000000000000
11
-46.3610291009239
21
-5.54235574447088
31
0.000000000000000
  0
LINE
  5
F10424
330
F10425
100
AcDbEntity
8
Geo
100
AcDbLine
10
-46.3610291009239
20
-5.54235574447088
30
0.000000000000000
11
-46.2610291009239
21
-5.60857678246600
31
0.000000000000000
  0
LINE
  5
F10426
330
F10427
100
AcDbEntity
8
Geo
100
AcDbLine
10
-46.2610291009239
20
-5.60857678246600
30
0.000000000000000
11
-46.1610291009239
21
-5.66940073653608
31
0.000000000000000
  0
LINE
  5
F10428
330
F10429
100
AcDbEntity
8
Geo
100
AcDbLine
10
-46.1610291009239
20
-5.66940073653608
30
0.000000000000000
11
-46.0610291009239
21
-5.72473750824362
31
0.000000000000000
  0
LINE
  5
F1042A
330
F1042B
100
AcDbEntity
8
Geo
100
AcDbLine
10
-46.0610291009239
20
-5.72473750824362
30
0.000000000000000
11
-45.9610291009239
21
-5.77450512730662
31
0.000000000000000
  0
LINE
  5
F1042C
330
F1042D
100
AcDbEntity
8
Geo
100
AcDbLine
10
-45.9610291009239
20
-5.77450512730662
30
0.000000000000000
11
-45.8610291009239
21
-5.81862987302107
31
0.000000000000000
  0
LINE
  5
F1042E
330
F1042F
100
AcDbEntity
8
Geo
100
AcDbLine
10
-45.8610291009239
20
-5.81862987302107
30
0.000000000000000
11
-45.7610291009239
21
-5.85704638346328
31
0.000000000000000
  0
LINE
  5
F10430
330
F10431
100
AcDbEntity
8
Geo
100
AcDbLine
10
-45.7610291009239
20
-5.85704638346328
30
0.000000000000000
11
-45.6610291009239
21
-5.88969775231045
31
0.000000000000000
  0
LINE
  5
F10432
330
F10433
100
AcDbEntity
8
Geo
100
AcDbLine
10
-45.6610291009239
20
-5.88969775231045
30
0.000000000000000
11
-45.5610291009239
21
-5.91653561313587
31
0.000000000000000
  0
LINE
  5
F10434
330
F10435
100
AcDbEntity
8
Geo
100
AcDbLine
10
-45.5610291009239
20
-5.91653561313587
30
0.000000000000000
11
-45.4610291009239
21
-5.91298763686791
31
0.000000000000000
  0
LINE
  5
F10436
330
F10437
100
AcDbEntity
8
Geo
100
AcDbLine
10
-45.4610291009239
20
-5.91298763686791
30
0.000000000000000
11
-45.3610291009239
21
-5.90828162852805
31
0.000000000000000
  0
LINE
  5
F10438
330
F10439
100
AcDbEntity
8
Geo
100
AcDbLine
10
-45.3610291009239
20
-5.90828162852805
30
0.000000000000000
11
-45.2610291009239
21
-5.90228691037494
31
0.000000000000000
  0
LINE
  5
F1043A
330
F1043B
100
AcDbEntity
8
Geo
100
AcDbLine
10
-45.2610291009239
20
-5.90228691037494
30
0.000000000000000
11
-45.1610291009239
21
-5.89484495172927
31
0.000000000000000
  0
LINE
  5
F1043C
330
F1043D
100
AcDbEntity
8
Geo
100
AcDbLine
10
-45.1610291009239
20
-5.89484495172927
30
0.000000000000000
11
-45.0610291009239
21
-5.88576962647930
31
0.000000000000000
  0
LINE
  5
F1043E
330
F1043F
100
AcDbEntity
8
Geo
100
AcDbLine
10
-45.0610291009239
20
-5.88576962647930
30
0.000000000000000
11
-44.9610291009239
21
-5.87484754815017
31
0.000000000000000
  0
LINE
  5
F10440
330
F10441
100
AcDbEntity
8
Geo
100
AcDbLine
10
-44.9610291009239
20
-5.87484754815017
30
0.000000000000000
11
-44.8610291009239
21
-5.86183849794624
31
0.000000000000000
  0
LINE
  5
F10442
330
F10443
100
AcDbEntity
8
Geo
100
AcDbLine
10
-44.8610291009239
20
-5.86183849794624
30
0.000000000000000
11
-44.7610291009239
21
-5.84647596335649
31
0.000000000000000
  0
LINE
  5
F10444
330
F10445
100
AcDbEntity
8
Geo
100
AcDbLine
10
-44.7610291009239
20
-5.84647596335649
30
0.000000000000000
11
-44.6610291009239
21
-5.82846780701327
31
0.000000000000000
  0
LINE
  5
F10446
330
F10447
100
AcDbEntity
8
Geo
100
AcDbLine
10
-44.6610291009239
20
-5.82846780701327
30
0.000000000000000
11
-44.5610291009239
21
-5.80749708749164
31
0.000000000000000
  0
LINE
  5
F10448
330
F10449
100
AcDbEntity
8
Geo
100
AcDbLine
10
-65.5610291009239
20
-3.04665482306296
30
0.000000000000000
11
-65.4610291009239
21
-3.20848229905992
31
0.000000000000000
  0
LINE
  5
F1044A
330
F1044B
100
AcDbEntity
8
Geo
100
AcDbLine
10
-65.4610291009239
20
-3.20848229905992
30
0.000000000000000
11
-65.3610291009239
21
-3.37569044009228
31
0.000000000000000
  0
LINE
  5
F1044C
330
F1044D
100
AcDbEntity
8
Geo
100
AcDbLine
10
-65.3610291009239
20
-3.37569044009228
30
0.000000000000000
11
-65.2610291009239
21
-3.54792392579382
31
0.000000000000000
  0
LINE
  5
F1044E
330
F1044F
100
AcDbEntity
8
Geo
100
AcDbLine
10
-65.2610291009239
20
-3.54792392579382
30
0.000000000000000
11
-65.1610291009239
21
-3.72480945253441
31
0.000000000000000
  0
LINE
  5
F10450
330
F10451
100
AcDbEntity
8
Geo
100
AcDbLine
10
-65.1610291009239
20
-3.72480945253441
30
0.000000000000000
11
-65.0610291009239
21
-3.90595646144570
31
0.000000000000000
  0
LINE
  5
F10452
330
F10453
100
AcDbEntity
8
Geo
100
AcDbLine
10
-65.0610291009239
20
-3.90595646144570
30
0.000000000000000
11
-64.9610291009239
21
-4.03910760090560
31
0.000000000000000
  0
LINE
  5
F10454
330
F10455
100
AcDbEntity
8
Geo
100
AcDbLine
10
-64.9610291009239
20
-4.03910760090560
30
0.000000000000000
11
-64.8610291009239
21
-4.16918650892861
31
0.000000000000000
  0
LINE
  5
F10456
330
F10457
100
AcDbEntity
8
Geo
100
AcDbLine
10
-64.8610291009239
20
-4.16918650892861
30
0.000000000000000
11
-64.7610291009239
21
-4.29600049981148
31
0.000000000000000
  0
LINE
  5
F10458
330
F10459
100
AcDbEntity
8
Geo
100
AcDbLine
10
-64.7610291009239
20
-4.29600049981148
30
0.000000000000000
11
-64.6610291009239
21
-4.41936172416813
31
0.000000000000000
  0
LINE
  5
F1045A
330
F1045B
100
AcDbEntity
8
Geo
100
AcDbLine
10
-64.6610291009239
20
-4.41936172416813
30
0.000000000000000
11
-64.5610291009239
21
-4.53908744719065
31
0.000000000000000
  0
LINE
  5
F1045C
330
F1045D
100
AcDbEntity
8
Geo
100
AcDbLine
10
-64.5610291009239
20
-4.53908744719065
30
0.000000000000000
11
-64.4610291009239
21
-4.65500031933417
31
0.000000000000000
  0
LINE
  5
F1045E
330
F1045F
100
AcDbEntity
8
Geo
100
AcDbLine
10
-64.4610291009239
20
-4.65500031933417
30
0.000000000000000
11
-64.3610291009239
21
-4.76692863902444
31
0.000000000000000
  0
LINE
  5
F10460
330
F10461
100
AcDbEntity
8
Geo
100
AcDbLine
10
-64.3610291009239
20
-4.76692863902444
30
0.000000000000000
11
-64.2610291009239
21
-4.87470660699913
31
0.000000000000000
  0
LINE
  5
F10462
330
F10463
100
AcDbEntity
8
Geo
100
AcDbLine
10
-64.2610291009239
20
-4.87470660699913
30
0.000000000000000
11
-64.1610291009239
21
-4.97817457190609
31
0.000000000000000
  0
LINE
  5
F10464
330
F10465
100
AcDbEntity
8
Geo
100
AcDbLine
10
-64.1610291009239
20
-4.97817457190609
30
0.000000000000000
11
-64.0610291009239
21
-5.07717926679463
31
0.000000000000000
  0
LINE
  5
F10466
330
F10467
100
AcDbEntity
8
Geo
100
AcDbLine
10
-64.0610291009239
20
-5.07717926679463
30
0.000000000000000
11
-63.9610291009239
21
-5.17157403614965
31
0.000000000000000
  0
LINE
  5
F10468
330
F10469
100
AcDbEntity
8
Geo
100
AcDbLine
10
-63.9610291009239
20
-5.17157403614965
30
0.000000000000000
11
-63.8610291009239
21
-5.26121905313225
31
0.000000000000000
  0
LINE
  5
F1046A
330
F1046B
100
AcDbEntity
8
Geo
100
AcDbLine
10
-63.8610291009239
20
-5.26121905313225
30
0.000000000000000
11
-63.7610291009239
21
-5.34598152670505
31
0.000000000000000
  0
LINE
  5
F1046C
330
F1046D
100
AcDbEntity
8
Geo
100
AcDbLine
10
-63.7610291009239
20
-5.34598152670505
30
0.000000000000000
11
-63.6610291009239
21
-5.42573589833531
31
0.000000000000000
  0
LINE
  5
F1046E
330
F1046F
100
AcDbEntity
8
Geo
100
AcDbLine
10
-63.6610291009239
20
-5.42573589833531
30
0.000000000000000
11
-63.5610291009239
21
-5.50036402798467
31
0.000000000000000
  0
LINE
  5
F10470
330
F10471
100
AcDbEntity
8
Geo
100
AcDbLine
10
-63.5610291009239
20
-5.50036402798467
30
0.000000000000000
11
-63.4610291009239
21
-5.56975536910979
31
0.000000000000000
  0
LINE
  5
F10472
330
F10473
100
AcDbEntity
8
Geo
100
AcDbLine
10
-63.4610291009239
20
-5.56975536910979
30
0.000000000000000
11
-63.3610291009239
21
-5.63380713241479
31
0.000000000000000
  0
LINE
  5
F10474
330
F10475
100
AcDbEntity
8
Geo
100
AcDbLine
10
-63.3610291009239
20
-5.63380713241479
30
0.000000000000000
11
-63.2610291009239
21
-5.69242443811291
31
0.000000000000000
  0
LINE
  5
F10476
330
F10477
100
AcDbEntity
8
Geo
100
AcDbLine
10
-63.2610291009239
20
-5.69242443811291
30
0.000000000000000
11
-63.1610291009239
21
-5.74552045647176
31
0.000000000000000
  0
LINE
  5
F10478
330
F10479
100
AcDbEntity
8
Geo
100
AcDbLine
10
-63.1610291009239
20
-5.74552045647176
30
0.000000000000000
11
-63.0610291009239
21
-5.79301653643415
31
0.000000000000000
  0
LINE
  5
F1047A
330
F1047B
100
AcDbEntity
8
Geo
100
AcDbLine
10
-63.0610291009239
20
-5.79301653643415
30
0.000000000000000
11
-62.9610291009239
21
-5.83484232212371
31
0.000000000000000
  0
LINE
  5
F1047C
330
F1047D
100
AcDbEntity
8
Geo
100
AcDbLine
10
-62.9610291009239
20
-5.83484232212371
30
0.000000000000000
11
-62.8610291009239
21
-5.87093585706301
31
0.000000000000000
  0
LINE
  5
F1047E
330
F1047F
100
AcDbEntity
8
Geo
100
AcDbLine
10
-62.8610291009239
20
-5.87093585706301
30
0.000000000000000
11
-62.7610291009239
21
-5.90124367594958
31
0.000000000000000
  0
LINE
  5
F10480
330
F10481
100
AcDbEntity
8
Geo
100
AcDbLine
10
-62.7610291009239
20
-5.90124367594958
30
0.000000000000000
11
-62.6610291009239
21
-5.92572088385400
31
0.000000000000000
  0
LINE
  5
F10482
330
F10483
100
AcDbEntity
8
Geo
100
AcDbLine
10
-62.6610291009239
20
-5.92572088385400
30
0.000000000000000
11
-62.5610291009239
21
-5.94433122272266
31
0.000000000000000
  0
LINE
  5
F10484
330
F10485
100
AcDbEntity
8
Geo
100
AcDbLine
10
-62.5610291009239
20
-5.94433122272266
30
0.000000000000000
11
-62.4610291009239
21
-5.95704712508681
31
0.000000000000000
  0
LINE
  5
F10486
330
F10487
100
AcDbEntity
8
Geo
100
AcDbLine
10
-62.4610291009239
20
-5.95704712508681
30
0.000000000000000
11
-62.3610291009239
21
-5.96384975489820
31
0.000000000000000
  0
LINE
  5
F10488
330
F10489
100
AcDbEntity
8
Geo
100
AcDbLine
10
-54.1610291009239
20
2.03468968204633
30
0.000000000000000
11
-54.0610291009239
21
2.03332302849185
31
0.000000000000000
  0
LINE
  5
F1048A
330
F1048B
100
AcDbEntity
8
Geo
100
AcDbLine
10
-54.0610291009239
20
2.03332302849185
30
0.000000000000000
11
-53.9610291009239
21
2.02603352343556
31
0.000000000000000
  0
LINE
  5
F1048C
330
F1048D
100
AcDbEntity
8
Geo
100
AcDbLine
10
-53.9610291009239
20
2.02603352343556
30
0.000000000000000
11
-53.8610291009239
21
2.01283196481104
31
0.000000000000000
  0
LINE
  5
F1048E
330
F1048F
100
AcDbEntity
8
Geo
100
AcDbLine
10
-53.8610291009239
20
2.01283196481104
30
0.000000000000000
11
-53.7610291009239
21
1.99373790806847
31
0.000000000000000
  0
LINE
  5
F10490
330
F10491
100
AcDbEntity
8
Geo
100
AcDbLine
10
-53.7610291009239
20
1.99373790806847
30
0.000000000000000
11
-53.6610291009239
21
1.96877963720723
31
0.000000000000000
  0
LINE
  5
F10492
330
F10493
100
AcDbEntity
8
Geo
100
AcDbLine
10
-53.6610291009239
20
1.96877963720723
30
0.000000000000000
11
-53.5610291009239
21
1.93799412287879
31
0.000000000000000
  0
LINE
  5
F10494
330
F10495
100
AcDbEntity
8
Geo
100
AcDbLine
10
-53.5610291009239
20
1.93799412287879
30
0.000000000000000
11
-53.4610291009239
21
1.90142696762215
31
0.000000000000000
  0
LINE
  5
F10496
330
F10497
100
AcDbEntity
8
Geo
100
AcDbLine
10
-53.4610291009239
20
1.90142696762215
30
0.000000000000000
11
-53.3610291009239
21
1.85913233831291
31
0.000000000000000
  0
LINE
  5
F10498
330
F10499
100
AcDbEntity
8
Geo
100
AcDbLine
10
-53.3610291009239
20
1.85913233831291
30
0.000000000000000
11
-53.2610291009239
21
1.81117288592588
31
0.000000000000000
  0
LINE
  5
F1049A
330
F1049B
100
AcDbEntity
8
Geo
100
AcDbLine
10
-53.2610291009239
20
1.81117288592588
30
0.000000000000000
11
-53.1610291009239
21
1.75761965273035
31
0.000000000000000
  0
LINE
  5
F1049C
330
F1049D
100
AcDbEntity
8
Geo
100
AcDbLine
10
-53.1610291009239
20
1.75761965273035
30
0.000000000000000
11
-53.0610291009239
21
1.69855196705520
31
0.000000000000000
  0
LINE
  5
F1049E
330
F1049F
100
AcDbEntity
8
Geo
100
AcDbLine
10
-53.0610291009239
20
1.69855196705520
30
0.000000000000000
11
-52.9610291009239
21
1.63405732578006
31
0.000000000000000
  0
LINE
  5
F104A0
330
F104A1
100
AcDbEntity
8
Geo
100
AcDbLine
10
-52.9610291009239
20
1.63405732578006
30
0.000000000000000
11
-52.8610291009239
21
1.56423126472619
31
0.000000000000000
  0
LINE
  5
F104A2
330
F104A3
100
AcDbEntity
8
Geo
100
AcDbLine
10
-52.8610291009239
20
1.56423126472619
30
0.000000000000000
11
-52.7610291009239
21
1.48917721713949
31
0.000000000000000
  0
LINE
  5
F104A4
330
F104A5
100
AcDbEntity
8
Geo
100
AcDbLine
10
-52.7610291009239
20
1.48917721713949
30
0.000000000000000
11
-52.6610291009239
21
1.40900636047495
31
0.000000000000000
  0
LINE
  5
F104A6
330
F104A7
100
AcDbEntity
8
Geo
100
AcDbLine
10
-52.6610291009239
20
1.40900636047495
30
0.000000000000000
11
-52.5610291009239
21
1.32383745170962
31
0.000000000000000
  0
LINE
  5
F104A8
330
F104A9
100
AcDbEntity
8
Geo
100
AcDbLine
10
-52.5610291009239
20
1.32383745170962
30
0.000000000000000
11
-52.4610291009239
21
1.23379665142811
31
0.000000000000000
  0
LINE
  5
F104AA
330
F104AB
100
AcDbEntity
8
Geo
100
AcDbLine
10
-52.4610291009239
20
1.23379665142811
30
0.000000000000000
11
-52.3610291009239
21
1.13901733694105
31
0.000000000000000
  0
LINE
  5
F104AC
330
F104AD
100
AcDbEntity
8
Geo
100
AcDbLine
10
-52.3610291009239
20
1.13901733694105
30
0.000000000000000
11
-52.2610291009239
21
1.03963990471350
31
0.000000000000000
  0
LINE
  5
F104AE
330
F104AF
100
AcDbEntity
8
Geo
100
AcDbLine
10
-52.2610291009239
20
1.03963990471350
30
0.000000000000000
11
-52.1610291009239
21
0.935811562395858
31
0.000000000000000
  0
LINE
  5
F104B0
330
F104B1
100
AcDbEntity
8
Geo
100
AcDbLine
10
-52.1610291009239
20
0.935811562395858
30
0.000000000000000
11
-52.0610291009239
21
0.827686110765363
31
0.000000000000000
  0
LINE
  5
F104B2
330
F104B3
100
AcDbEntity
8
Geo
100
AcDbLine
10
-52.0610291009239
20
0.827686110765363
30
0.000000000000000
11
-51.9610291009239
21
0.715423715901226
31
0.000000000000000
  0
LINE
  5
F104B4
330
F104B5
100
AcDbEntity
8
Geo
100
AcDbLine
10
-51.9610291009239
20
0.715423715901226
30
0.000000000000000
11
-51.8610291009239
21
0.599190671930846
31
0.000000000000000
  0
LINE
  5
F104B6
330
F104B7
100
AcDbEntity
8
Geo
100
AcDbLine
10
-51.8610291009239
20
0.599190671930846
30
0.000000000000000
11
-51.7610291009239
21
0.479159154698548
31
0.000000000000000
  0
LINE
  5
F104B8
330
F104B9
100
AcDbEntity
8
Geo
100
AcDbLine
10
-51.7610291009239
20
0.479159154698548
30
0.000000000000000
11
-51.6610291009239
21
0.355506966721752
31
0.000000000000000
  0
LINE
  5
F104BA
330
F104BB
100
AcDbEntity
8
Geo
100
AcDbLine
10
-51.6610291009239
20
0.355506966721752
30
0.000000000000000
11
-51.5610291009239
21
0.228417273812352
31
0.000000000000000
  0
LINE
  5
F104BC
330
F104BD
100
AcDbEntity
8
Geo
100
AcDbLine
10
-51.5610291009239
20
0.228417273812352
30
0.000000000000000
11
-51.4610291009239
21
0.0980783337534579
31
0.000000000000000
  0
LINE
  5
F104BE
330
F104BF
100
AcDbEntity
8
Geo
100
AcDbLine
10
-51.4610291009239
20
0.0980783337534579
30
0.000000000000000
11
-51.3610291009239
21
-0.0353167825665959
31
0.000000000000000
  0
LINE
  5
F104C0
330
F104C1
100
AcDbEntity
8
Geo
100
AcDbLine
10
-51.3610291009239
20
-0.0353167825665959
30
0.000000000000000
11
-51.2610291009239
21
-0.171570477149882
31
0.000000000000000
  0
LINE
  5
F104C2
330
F104C3
100
AcDbEntity
8
Geo
100
AcDbLine
10
-51.2610291009239
20
-0.171570477149882
30
0.000000000000000
11
-51.1610291009239
21
-0.310480917590520
31
0.000000000000000
  0
LINE
  5
F104C4
330
F104C5
100
AcDbEntity
8
Geo
100
AcDbLine
10
-51.1610291009239
20
-0.310480917590520
30
0.000000000000000
11
-51.0610291009239
21
-0.451842336048731
31
0.000000000000000
  0
LINE
  5
F104C6
330
F104C7
100
AcDbEntity
8
Geo
100
AcDbLine
10
-51.0610291009239
20
-0.451842336048731
30
0.000000000000000
11
-50.9610291009239
21
-0.595445334054450
31
0.000000000000000
  0
LINE
  5
F104C8
330
F104C9
100
AcDbEntity
8
Geo
100
AcDbLine
10
-50.9610291009239
20
-0.595445334054450
30
0.000000000000000
11
-50.8610291009239
21
-0.741077192688988
31
0.000000000000000
  0
LINE
  5
F104CA
330
F104CB
100
AcDbEntity
8
Geo
100
AcDbLine
10
-50.8610291009239
20
-0.741077192688988
30
0.000000000000000
11
-50.7610291009239
21
-0.888522187685263
31
0.000000000000000
  0
LINE
  5
F104CC
330
F104CD
100
AcDbEntity
8
Geo
100
AcDbLine
10
-50.7610291009239
20
-0.888522187685263
30
0.000000000000000
11
-50.6610291009239
21
-1.03756190897985
31
0.000000000000000
  0
LINE
  5
F104CE
330
F104CF
100
AcDbEntity
8
Geo
100
AcDbLine
10
-50.6610291009239
20
-1.03756190897985
30
0.000000000000000
11
-50.5610291009239
21
-1.18797558424352
31
0.000000000000000
  0
LINE
  5
F104D0
330
F104D1
100
AcDbEntity
8
Geo
100
AcDbLine
10
-50.5610291009239
20
-1.18797558424352
30
0.000000000000000
11
-50.4610291009239
21
-1.33954040591093
31
0.000000000000000
  0
LINE
  5
F104D2
330
F104D3
100
AcDbEntity
8
Geo
100
AcDbLine
10
-50.4610291009239
20
-1.33954040591093
30
0.000000000000000
11
-50.3610291009239
21
-1.49203186122524
31
0.000000000000000
  0
LINE
  5
F104D4
330
F104D5
100
AcDbEntity
8
Geo
100
AcDbLine
10
-50.3610291009239
20
-1.49203186122524
30
0.000000000000000
11
-50.2610291009239
21
-1.64522406480845
31
0.000000000000000
  0
LINE
  5
F104D6
330
F104D7
100
AcDbEntity
8
Geo
100
AcDbLine
10
-50.2610291009239
20
-1.64522406480845
30
0.000000000000000
11
-50.1610291009239
21
-1.79889009326516
31
0.000000000000000
  0
LINE
  5
F104D8
330
F104D9
100
AcDbEntity
8
Geo
100
AcDbLine
10
-50.1610291009239
20
-1.79889009326516
30
0.000000000000000
11
-50.0610291009239
21
-1.95280232132384
31
0.000000000000000
  0
LINE
  5
F104DA
330
F104DB
100
AcDbEntity
8
Geo
100
AcDbLine
10
-50.0610291009239
20
-1.95280232132384
30
0.000000000000000
11
-49.9610291009239
21
-2.10673275901785
31
0.000000000000000
  0
LINE
  5
F104DC
330
F104DD
100
AcDbEntity
8
Geo
100
AcDbLine
10
-49.9610291009239
20
-2.10673275901785
30
0.000000000000000
11
-49.8610291009239
21
-2.26045338940662
31
0.000000000000000
  0
LINE
  5
F104DE
330
F104DF
100
AcDbEntity
8
Geo
100
AcDbLine
10
-49.8610291009239
20
-2.26045338940662
30
0.000000000000000
11
-49.7610291009239
21
-2.41373650633688
31
0.000000000000000
  0
LINE
  5
F104E0
330
F104E1
100
AcDbEntity
8
Geo
100
AcDbLine
10
-49.7610291009239
20
-2.41373650633688
30
0.000000000000000
11
-49.6610291009239
21
-2.56635505174340
31
0.000000000000000
  0
LINE
  5
F104E2
330
F104E3
100
AcDbEntity
8
Geo
100
AcDbLine
10
-49.6610291009239
20
-2.56635505174340
30
0.000000000000000
11
-49.5610291009239
21
-2.71808295198982
31
0.000000000000000
  0
LINE
  5
F104E4
330
F104E5
100
AcDbEntity
8
Geo
100
AcDbLine
10
-49.5610291009239
20
-2.71808295198982
30
0.000000000000000
11
-49.4610291009239
21
-2.86869545275122
31
0.000000000000000
  0
LINE
  5
F104E6
330
F104E7
100
AcDbEntity
8
Geo
100
AcDbLine
10
-49.4610291009239
20
-2.86869545275122
30
0.000000000000000
11
-49.3610291009239
21
-3.01796945194233
31
0.000000000000000
  0
LINE
  5
F104E8
330
F104E9
100
AcDbEntity
8
Geo
100
AcDbLine
10
-49.3610291009239
20
-3.01796945194233
30
0.000000000000000
11
-49.2610291009239
21
-3.16568383019840
31
0.000000000000000
  0
LINE
  5
F104EA
330
F104EB
100
AcDbEntity
8
Geo
100
AcDbLine
10
-49.2610291009239
20
-3.16568383019840
30
0.000000000000000
11
-49.1610291009239
21
-3.31161977841897
31
0.000000000000000
  0
LINE
  5
F104EC
330
F104ED
100
AcDbEntity
8
Geo
100
AcDbLine
10
-49.1610291009239
20
-3.31161977841897
30
0.000000000000000
11
-49.0610291009239
21
-3.45556112188947
31
0.000000000000000
  0
LINE
  5
F104EE
330
F104EF
100
AcDbEntity
8
Geo
100
AcDbLine
10
-49.0610291009239
20
-3.45556112188947
30
0.000000000000000
11
-48.9610291009239
21
-3.59729464050056
31
0.000000000000000
  0
LINE
  5
F104F0
330
F104F1
100
AcDbEntity
8
Geo
100
AcDbLine
10
-48.9610291009239
20
-3.59729464050056
30
0.000000000000000
11
-48.8610291009239
21
-3.73661038459074
31
0.000000000000000
  0
LINE
  5
F104F2
330
F104F3
100
AcDbEntity
8
Geo
100
AcDbLine
10
-48.8610291009239
20
-3.73661038459074
30
0.000000000000000
11
-48.7610291009239
21
-3.87330198594450
31
0.000000000000000
  0
LINE
  5
F104F4
330
F104F5
100
AcDbEntity
8
Geo
100
AcDbLine
10
-48.7610291009239
20
-3.87330198594450
30
0.000000000000000
11
-48.6610291009239
21
-4.00716696348529
31
0.000000000000000
  0
LINE
  5
F104F6
330
F104F7
100
AcDbEntity
8
Geo
100
AcDbLine
10
-48.6610291009239
20
-4.00716696348529
30
0.000000000000000
11
-48.5610291009239
21
-4.13800702321041
31
0.000000000000000
  0
LINE
  5
F104F8
330
F104F9
100
AcDbEntity
8
Geo
100
AcDbLine
10
-48.5610291009239
20
-4.13800702321041
30
0.000000000000000
11
-48.4610291009239
21
-4.26562835192366
31
0.000000000000000
  0
LINE
  5
F104FA
330
F104FB
100
AcDbEntity
8
Geo
100
AcDbLine
10
-48.4610291009239
20
-4.26562835192366
30
0.000000000000000
11
-48.3610291009239
21
-4.38984190433059
31
0.000000000000000
  0
LINE
  5
F104FC
330
F104FD
100
AcDbEntity
8
Geo
100
AcDbLine
10
-48.3610291009239
20
-4.38984190433059
30
0.000000000000000
11
-48.2610291009239
21
-4.51046368307094
31
0.000000000000000
  0
LINE
  5
F104FE
330
F104FF
100
AcDbEntity
8
Geo
100
AcDbLine
10
-48.2610291009239
20
-4.51046368307094
30
0.000000000000000
11
-48.1610291009239
21
-4.62731501127376
31
0.000000000000000
  0
LINE
  5
F10500
330
F10501
100
AcDbEntity
8
Geo
100
AcDbLine
10
-48.1610291009239
20
-4.62731501127376
30
0.000000000000000
11
-48.0610291009239
21
-4.74022279723116
31
0.000000000000000
  0
LINE
  5
F10502
330
F10503
100
AcDbEntity
8
Geo
100
AcDbLine
10
-48.0610291009239
20
-4.74022279723116
30
0.000000000000000
11
-47.9610291009239
21
-4.84901979079882
31
0.000000000000000
  0
LINE
  5
F10504
330
F10505
100
AcDbEntity
8
Geo
100
AcDbLine
10
-47.9610291009239
20
-4.84901979079882
30
0.000000000000000
11
-47.8610291009239
21
-4.95354483114341
31
0.000000000000000
  0
LINE
  5
F10506
330
F10507
100
AcDbEntity
8
Geo
100
AcDbLine
10
-47.8610291009239
20
-4.95354483114341
30
0.000000000000000
11
-47.7610291009239
21
-5.05364308546988
31
0.000000000000000
  0
LINE
  5
F10508
330
F10509
100
AcDbEntity
8
Geo
100
AcDbLine
10
-47.7610291009239
20
-5.05364308546988
30
0.000000000000000
11
-47.6610291009239
21
-5.14916627837509
31
0.000000000000000
  0
LINE
  5
F1050A
330
F1050B
100
AcDbEntity
8
Geo
100
AcDbLine
10
-47.6610291009239
20
-5.14916627837509
30
0.000000000000000
11
-47.5610291009239
21
-5.23997291148790
31
0.000000000000000
  0
LINE
  5
F1050C
330
F1050D
100
AcDbEntity
8
Geo
100
AcDbLine
10
-47.5610291009239
20
-5.23997291148790
30
0.000000000000000
11
-47.4610291009239
21
-5.32592847307060
31
0.000000000000000
  0
LINE
  5
F1050E
330
F1050F
100
AcDbEntity
8
Geo
100
AcDbLine
10
-47.4610291009239
20
-5.32592847307060
30
0.000000000000000
11
-47.3610291009239
21
-5.40690563727087
31
0.000000000000000
  0
LINE
  5
F10510
330
F10511
100
AcDbEntity
8
Geo
100
AcDbLine
10
-47.3610291009239
20
-5.40690563727087
30
0.000000000000000
11
-47.2610291009239
21
-5.48278445272944
31
0.000000000000000
  0
LINE
  5
F10512
330
F10513
100
AcDbEntity
8
Geo
100
AcDbLine
10
-47.2610291009239
20
-5.48278445272944
30
0.000000000000000
11
-47.1610291009239
21
-5.55345252026383
31
0.000000000000000
  0
LINE
  5
F10514
330
F10515
100
AcDbEntity
8
Geo
100
AcDbLine
10
-47.1610291009239
20
-5.55345252026383
30
0.000000000000000
11
-47.0610291009239
21
-5.61880515936513
31
0.000000000000000
  0
LINE
  5
F10516
330
F10517
100
AcDbEntity
8
Geo
100
AcDbLine
10
-47.0610291009239
20
-5.61880515936513
30
0.000000000000000
11
-46.9610291009239
21
-5.67874556326110
31
0.000000000000000
  0
LINE
  5
F10518
330
F10519
100
AcDbEntity
8
Geo
100
AcDbLine
10
-46.9610291009239
20
-5.67874556326110
30
0.000000000000000
11
-46.8610291009239
21
-5.73318494231586
31
0.000000000000000
  0
LINE
  5
F1051A
330
F1051B
100
AcDbEntity
8
Geo
100
AcDbLine
10
-46.8610291009239
20
-5.73318494231586
30
0.000000000000000
11
-46.7610291009239
21
-5.78204265555390
31
0.000000000000000
  0
LINE
  5
F1051C
330
F1051D
100
AcDbEntity
8
Geo
100
AcDbLine
10
-46.7610291009239
20
-5.78204265555390
30
0.000000000000000
11
-46.6610291009239
21
-5.82524633011340
31
0.000000000000000
  0
LINE
  5
F1051E
330
F1051F
100
AcDbEntity
8
Geo
100
AcDbLine
10
-46.6610291009239
20
-5.82524633011340
30
0.000000000000000
11
-46.5610291009239
21
-5.86273196845209
31
0.000000000000000
  0
LINE
  5
F10520
330
F10521
100
AcDbEntity
8
Geo
100
AcDbLine
10
-46.5610291009239
20
-5.86273196845209
30
0.000000000000000
11
-46.4610291009239
21
-5.89444404314670
31
0.000000000000000
  0
LINE
  5
F10522
330
F10523
100
AcDbEntity
8
Geo
100
AcDbLine
10
-46.4610291009239
20
-5.89444404314670
30
0.000000000000000
11
-46.3610291009239
21
-5.92033557914564
31
0.000000000000000
  0
LINE
  5
F10524
330
F10525
100
AcDbEntity
8
Geo
100
AcDbLine
10
-46.3610291009239
20
-5.92033557914564
30
0.000000000000000
11
-46.2610291009239
21
-5.94036822335311
31
0.000000000000000
  0
LINE
  5
F10526
330
F10527
100
AcDbEntity
8
Geo
100
AcDbLine
10
-46.2610291009239
20
-5.94036822335311
30
0.000000000000000
11
-46.1610291009239
21
-5.95451230144146
31
0.000000000000000
  0
LINE
  5
F10528
330
F10529
100
AcDbEntity
8
Geo
100
AcDbLine
10
-46.1610291009239
20
-5.95451230144146
30
0.000000000000000
11
-46.0610291009239
21
-5.96274686180774
31
0.000000000000000
  0
LINE
  5
F1052A
330
F1052B
100
AcDbEntity
8
Geo
100
AcDbLine
10
-57.4610291009239
20
2.03376217691976
30
0.000000000000000
11
-57.3610291009239
21
2.03447899757886
31
0.000000000000000
  0
LINE
  5
F1052C
330
F1052D
100
AcDbEntity
8
Geo
100
AcDbLine
10
-57.3610291009239
20
2.03447899757886
30
0.000000000000000
11
-57.2610291009239
21
2.02927125440078
31
0.000000000000000
  0
LINE
  5
F1052E
330
F1052F
100
AcDbEntity
8
Geo
100
AcDbLine
10
-57.2610291009239
20
2.02927125440078
30
0.000000000000000
11
-57.1610291009239
21
2.01814666160814
31
0.000000000000000
  0
LINE
  5
F10530
330
F10531
100
AcDbEntity
8
Geo
100
AcDbLine
10
-57.1610291009239
20
2.01814666160814
30
0.000000000000000
11
-57.0610291009239
21
2.00112169804458
31
0.000000000000000
  0
LINE
  5
F10532
330
F10533
100
AcDbEntity
8
Geo
100
AcDbLine
10
-57.0610291009239
20
2.00112169804458
30
0.000000000000000
11
-56.9610291009239
21
1.97822158276465
31
0.000000000000000
  0
LINE
  5
F10534
330
F10535
100
AcDbEntity
8
Geo
100
AcDbLine
10
-56.9610291009239
20
1.97822158276465
30
0.000000000000000
11
-56.8610291009239
21
1.94948023767686
31
0.000000000000000
  0
LINE
  5
F10536
330
F10537
100
AcDbEntity
8
Geo
100
AcDbLine
10
-56.8610291009239
20
1.94948023767686
30
0.000000000000000
11
-56.7610291009239
21
1.91494023729520
31
0.000000000000000
  0
LINE
  5
F10538
330
F10539
100
AcDbEntity
8
Geo
100
AcDbLine
10
-56.7610291009239
20
1.91494023729520
30
0.000000000000000
11
-56.6610291009239
21
1.87465274567361
31
0.000000000000000
  0
LINE
  5
F1053A
330
F1053B
100
AcDbEntity
8
Geo
100
AcDbLine
10
-56.6610291009239
20
1.87465274567361
30
0.000000000000000
11
-56.5610291009239
21
1.82867744061666
31
0.000000000000000
  0
LINE
  5
F1053C
330
F1053D
100
AcDbEntity
8
Geo
100
AcDbLine
10
-56.5610291009239
20
1.82867744061666
30
0.000000000000000
11
-56.4610291009239
21
1.77708242527900
31
0.000000000000000
  0
LINE
  5
F1053E
330
F1053F
100
AcDbEntity
8
Geo
100
AcDbLine
10
-56.4610291009239
20
1.77708242527900
30
0.000000000000000
11
-56.3610291009239
21
1.71994412728417
31
0.000000000000000
  0
LINE
  5
F10540
330
F10541
100
AcDbEntity
8
Geo
100
AcDbLine
10
-56.3610291009239
20
1.71994412728417
30
0.000000000000000
11
-56.2610291009239
21
1.65734718551252
31
0.000000000000000
  0
LINE
  5
F10542
330
F10543
100
AcDbEntity
8
Geo
100
AcDbLine
10
-56.2610291009239
20
1.65734718551252
30
0.000000000000000
11
-56.1610291009239
21
1.58938432472572
31
0.000000000000000
  0
LINE
  5
F10544
330
F10545
100
AcDbEntity
8
Geo
100
AcDbLine
10
-56.1610291009239
20
1.58938432472572
30
0.000000000000000
11
-56.0610291009239
21
1.51615621821375
31
0.000000000000000
  0
LINE
  5
F10546
330
F10547
100
AcDbEntity
8
Geo
100
AcDbLine
10
-56.0610291009239
20
1.51615621821375
30
0.000000000000000
11
-55.9610291009239
21
1.43777133866763
31
0.000000000000000
  0
LINE
  5
F10548
330
F10549
100
AcDbEntity
8
Geo
100
AcDbLine
10
-55.9610291009239
20
1.43777133866763
30
0.000000000000000
11
-55.8610291009239
21
1.35434579749905
31
0.000000000000000
  0
LINE
  5
F1054A
330
F1054B
100
AcDbEntity
8
Geo
100
AcDbLine
10
-55.8610291009239
20
1.35434579749905
30
0.000000000000000
11
-55.7610291009239
21
1.26600317284463
31
0.000000000000000
  0
LINE
  5
F1054C
330
F1054D
100
AcDbEntity
8
Geo
100
AcDbLine
10
-55.7610291009239
20
1.26600317284463
30
0.000000000000000
11
-55.6610291009239
21
1.17287432650985
31
0.000000000000000
  0
LINE
  5
F1054E
330
F1054F
100
AcDbEntity
8
Geo
100
AcDbLine
10
-55.6610291009239
20
1.17287432650985
30
0.000000000000000
11
-55.5610291009239
21
1.07509721012363
31
0.000000000000000
  0
LINE
  5
F10550
330
F10551
100
AcDbEntity
8
Geo
100
AcDbLine
10
-55.5610291009239
20
1.07509721012363
30
0.000000000000000
11
-55.4610291009239
21
0.972816660790741
31
0.000000000000000
  0
LINE
  5
F10552
330
F10553
100
AcDbEntity
8
Geo
100
AcDbLine
10
-55.4610291009239
20
0.972816660790741
30
0.000000000000000
11
-55.3610291009239
21
0.866184186544869
31
0.000000000000000
  0
LINE
  5
F10554
330
F10555
100
AcDbEntity
8
Geo
100
AcDbLine
10
-55.3610291009239
20
0.866184186544869
30
0.000000000000000
11
-55.2610291009239
21
0.755357741919925
31
0.000000000000000
  0
LINE
  5
F10556
330
F10557
100
AcDbEntity
8
Geo
100
AcDbLine
10
-55.2610291009239
20
0.755357741919925
30
0.000000000000000
11
-55.1610291009239
21
0.640501493972240
31
0.000000000000000
  0
LINE
  5
F10558
330
F10559
100
AcDbEntity
8
Geo
100
AcDbLine
10
-55.1610291009239
20
0.640501493972240
30
0.000000000000000
11
-55.0610291009239
21
0.521785579100131
31
0.000000000000000
  0
LINE
  5
F1055A
330
F1055B
100
AcDbEntity
8
Geo
100
AcDbLine
10
-55.0610291009239
20
0.521785579100131
30
0.000000000000000
11
-54.9610291009239
21
0.399385851021095
31
0.000000000000000
  0
LINE
  5
F1055C
330
F1055D
100
AcDbEntity
8
Geo
100
AcDbLine
10
-54.9610291009239
20
0.399385851021095
30
0.000000000000000
11
-54.8610291009239
21
0.273483620279943
31
0.000000000000000
  0
LINE
  5
F1055E
330
F1055F
100
AcDbEntity
8
Geo
100
AcDbLine
10
-54.8610291009239
20
0.273483620279943
30
0.000000000000000
11
-54.7610291009239
21
0.144265385673747
31
0.000000000000000
  0
LINE
  5
F10560
330
F10561
100
AcDbEntity
8
Geo
100
AcDbLine
10
-54.7610291009239
20
0.144265385673747
30
0.000000000000000
11
-54.6610291009239
21
0.0119225579914337
31
0.000000000000000
  0
LINE
  5
F10562
330
F10563
100
AcDbEntity
8
Geo
100
AcDbLine
10
-54.6610291009239
20
0.0119225579914337
30
0.000000000000000
11
-54.5610291009239
21
-0.123348823522748
31
0.000000000000000
  0
LINE
  5
F10564
330
F10565
100
AcDbEntity
8
Geo
100
AcDbLine
10
-54.5610291009239
20
-0.123348823522748
30
0.000000000000000
11
-54.4610291009239
21
-0.261348381561881
31
0.000000000000000
  0
LINE
  5
F10566
330
F10567
100
AcDbEntity
8
Geo
100
AcDbLine
10
-54.4610291009239
20
-0.261348381561881
30
0.000000000000000
11
-54.3610291009239
21
-0.401871697575007
31
0.000000000000000
  0
LINE
  5
F10568
330
F10569
100
AcDbEntity
8
Geo
100
AcDbLine
10
-54.3610291009239
20
-0.401871697575007
30
0.000000000000000
11
-54.2610291009239
21
-0.544710614572032
31
0.000000000000000
  0
LINE
  5
F1056A
330
F1056B
100
AcDbEntity
8
Geo
100
AcDbLine
10
-54.2610291009239
20
-0.544710614572032
30
0.000000000000000
11
-54.1610291009239
21
-0.689653545466392
31
0.000000000000000
  0
LINE
  5
F1056C
330
F1056D
100
AcDbEntity
8
Geo
100
AcDbLine
10
-54.1610291009239
20
-0.689653545466392
30
0.000000000000000
11
-54.0610291009239
21
-0.836485786498689
31
0.000000000000000
  0
LINE
  5
F1056E
330
F1056F
100
AcDbEntity
8
Geo
100
AcDbLine
10
-54.0610291009239
20
-0.836485786498689
30
0.000000000000000
11
-53.9610291009239
21
-0.984989835277088
31
0.000000000000000
  0
LINE
  5
F10570
330
F10571
100
AcDbEntity
8
Geo
100
AcDbLine
10
-53.9610291009239
20
-0.984989835277088
30
0.000000000000000
11
-53.8610291009239
21
-1.13494571296329
31
0.000000000000000
  0
LINE
  5
F10572
330
F10573
100
AcDbEntity
8
Geo
100
AcDbLine
10
-53.8610291009239
20
-1.13494571296329
30
0.000000000000000
11
-53.7610291009239
21
-1.28613129012689
31
0.000000000000000
  0
LINE
  5
F10574
330
F10575
100
AcDbEntity
8
Geo
100
AcDbLine
10
-53.7610291009239
20
-1.28613129012689
30
0.000000000000000
11
-53.6610291009239
21
-1.43832261578536
31
0.000000000000000
  0
LINE
  5
F10576
330
F10577
100
AcDbEntity
8
Geo
100
AcDbLine
10
-53.6610291009239
20
-1.43832261578536
30
0.000000000000000
11
-53.5610291009239
21
-1.59129424914236
31
0.000000000000000
  0
LINE
  5
F10578
330
F10579
100
AcDbEntity
8
Geo
100
AcDbLine
10
-53.5610291009239
20
-1.59129424914236
30
0.000000000000000
11
-53.4610291009239
21
-1.74481959353285
31
0.000000000000000
  0
LINE
  5
F1057A
330
F1057B
100
AcDbEntity
8
Geo
100
AcDbLine
10
-53.4610291009239
20
-1.74481959353285
30
0.000000000000000
11
-53.3610291009239
21
-1.89867123208041
31
0.000000000000000
  0
LINE
  5
F1057C
330
F1057D
100
AcDbEntity
8
Geo
100
AcDbLine
10
-53.3610291009239
20
-1.89867123208041
30
0.000000000000000
11
-53.2610291009239
21
-2.05262126456956
31
0.000000000000000
  0
LINE
  5
F1057E
330
F1057F
100
AcDbEntity
8
Geo
100
AcDbLine
10
-53.2610291009239
20
-2.05262126456956
30
0.000000000000000
11
-53.1610291009239
21
-2.20644164503398
31
0.000000000000000
  0
LINE
  5
F10580
330
F10581
100
AcDbEntity
8
Geo
100
AcDbLine
10
-53.1610291009239
20
-2.20644164503398
30
0.000000000000000
11
-53.0610291009239
21
-2.35990451956076
31
0.000000000000000
  0
LINE
  5
F10582
330
F10583
100
AcDbEntity
8
Geo
100
AcDbLine
10
-53.0610291009239
20
-2.35990451956076
30
0.000000000000000
11
-52.9610291009239
21
-2.51278256380999
31
0.000000000000000
  0
LINE
  5
F10584
330
F10585
100
AcDbEntity
8
Geo
100
AcDbLine
10
-52.9610291009239
20
-2.51278256380999
30
0.000000000000000
11
-52.8610291009239
21
-2.66484931975004
31
0.000000000000000
  0
LINE
  5
F10586
330
F10587
100
AcDbEntity
8
Geo
100
AcDbLine
10
-52.8610291009239
20
-2.66484931975004
30
0.000000000000000
11
-52.7610291009239
21
-2.81587953110953
31
0.000000000000000
  0
LINE
  5
F10588
330
F10589
100
AcDbEntity
8
Geo
100
AcDbLine
10
-52.7610291009239
20
-2.81587953110953
30
0.000000000000000
11
-52.6610291009239
21
-2.96564947704907
31
0.000000000000000
  0
LINE
  5
F1058A
330
F1058B
100
AcDbEntity
8
Geo
100
AcDbLine
10
-52.6610291009239
20
-2.96564947704907
30
0.000000000000000
11
-52.5610291009239
21
-3.11393730355869
31
0.000000000000000
  0
LINE
  5
F1058C
330
F1058D
100
AcDbEntity
8
Geo
100
AcDbLine
10
-52.5610291009239
20
-3.11393730355869
30
0.000000000000000
11
-52.4610291009239
21
-3.26052335208984
31
0.000000000000000
  0
LINE
  5
F1058E
330
F1058F
100
AcDbEntity
8
Geo
100
AcDbLine
10
-52.4610291009239
20
-3.26052335208984
30
0.000000000000000
11
-52.3610291009239
21
-3.40519048493528
31
0.000000000000000
  0
LINE
  5
F10590
330
F10591
100
AcDbEntity
8
Geo
100
AcDbLine
10
-52.3610291009239
20
-3.40519048493528
30
0.000000000000000
11
-52.2610291009239
21
-3.54772440687488
31
0.000000000000000
  0
LINE
  5
F10592
330
F10593
100
AcDbEntity
8
Geo
100
AcDbLine
10
-52.2610291009239
20
-3.54772440687488
30
0.000000000000000
11
-52.1610291009239
21
-3.68791398261082
31
0.000000000000000
  0
LINE
  5
F10594
330
F10595
100
AcDbEntity
8
Geo
100
AcDbLine
10
-52.1610291009239
20
-3.68791398261082
30
0.000000000000000
11
-52.0610291009239
21
-3.82555154952202
31
0.000000000000000
  0
LINE
  5
F10596
330
F10597
100
AcDbEntity
8
Geo
100
AcDbLine
10
-52.0610291009239
20
-3.82555154952202
30
0.000000000000000
11
-51.9610291009239
21
-3.96043322527446
31
0.000000000000000
  0
LINE
  5
F10598
330
F10599
100
AcDbEntity
8
Geo
100
AcDbLine
10
-51.9610291009239
20
-3.96043322527446
30
0.000000000000000
11
-51.8610291009239
21
-4.09235920983182
31
0.000000000000000
  0
LINE
  5
F1059A
330
F1059B
100
AcDbEntity
8
Geo
100
AcDbLine
10
-51.8610291009239
20
-4.09235920983182
30
0.000000000000000
11
-51.7610291009239
21
-4.22113408141898
31
0.000000000000000
  0
LINE
  5
F1059C
330
F1059D
100
AcDbEntity
8
Geo
100
AcDbLine
10
-51.7610291009239
20
-4.22113408141898
30
0.000000000000000
11
-51.6610291009239
21
-4.34656708600004
31
0.000000000000000
  0
LINE
  5
F1059E
330
F1059F
100
AcDbEntity
8
Geo
100
AcDbLine
10
-51.6610291009239
20
-4.34656708600004
30
0.000000000000000
11
-51.5610291009239
21
-4.46847241984198
31
0.000000000000000
  0
LINE
  5
F105A0
330
F105A1
100
AcDbEntity
8
Geo
100
AcDbLine
10
-51.5610291009239
20
-4.46847241984198
30
0.000000000000000
11
-51.4610291009239
21
-4.58666950474546
31
0.000000000000000
  0
LINE
  5
F105A2
330
F105A3
100
AcDbEntity
8
Geo
100
AcDbLine
10
-51.4610291009239
20
-4.58666950474546
30
0.000000000000000
11
-51.3610291009239
21
-4.70098325553510
31
0.000000000000000
  0
LINE
  5
F105A4
330
F105A5
100
AcDbEntity
8
Geo
100
AcDbLine
10
-51.3610291009239
20
-4.70098325553510
30
0.000000000000000
11
-51.2610291009239
21
-4.81124433941285
31
0.000000000000000
  0
LINE
  5
F105A6
330
F105A7
100
AcDbEntity
8
Geo
100
AcDbLine
10
-51.2610291009239
20
-4.81124433941285
30
0.000000000000000
11
-51.1610291009239
21
-4.91728942679046
31
0.000000000000000
  0
LINE
  5
F105A8
330
F105A9
100
AcDbEntity
8
Geo
100
AcDbLine
10
-51.1610291009239
20
-4.91728942679046
30
0.000000000000000
11
-51.0610291009239
21
-5.01896143322935
31
0.000000000000000
  0
LINE
  5
F105AA
330
F105AB
100
AcDbEntity
8
Geo
100
AcDbLine
10
-51.0610291009239
20
-5.01896143322935
30
0.000000000000000
11
-50.9610291009239
21
-5.11610975212959
31
0.000000000000000
  0
LINE
  5
F105AC
330
F105AD
100
AcDbEntity
8
Geo
100
AcDbLine
10
-50.9610291009239
20
-5.11610975212959
30
0.000000000000000
11
-50.8610291009239
21
-5.20859047782322
31
0.000000000000000
  0
LINE
  5
F105AE
330
F105AF
100
AcDbEntity
8
Geo
100
AcDbLine
10
-50.8610291009239
20
-5.20859047782322
30
0.000000000000000
11
-50.7610291009239
21
-5.29626661874152
31
0.000000000000000
  0
LINE
  5
F105B0
330
F105B1
100
AcDbEntity
8
Geo
100
AcDbLine
10
-50.7610291009239
20
-5.29626661874152
30
0.000000000000000
11
-50.6610291009239
21
-5.37900830034043
31
0.000000000000000
  0
LINE
  5
F105B2
330
F105B3
100
AcDbEntity
8
Geo
100
AcDbLine
10
-50.6610291009239
20
-5.37900830034043
30
0.000000000000000
11
-50.5610291009239
21
-5.45669295748353
31
0.000000000000000
  0
LINE
  5
F105B4
330
F105B5
100
AcDbEntity
8
Geo
100
AcDbLine
10
-50.5610291009239
20
-5.45669295748353
30
0.000000000000000
11
-50.4610291009239
21
-5.52920551599762
31
0.000000000000000
  0
LINE
  5
F105B6
330
F105B7
100
AcDbEntity
8
Geo
100
AcDbLine
10
-50.4610291009239
20
-5.52920551599762
30
0.000000000000000
11
-50.3610291009239
21
-5.59643856313190
31
0.000000000000000
  0
LINE
  5
F105B8
330
F105B9
100
AcDbEntity
8
Geo
100
AcDbLine
10
-50.3610291009239
20
-5.59643856313190
30
0.000000000000000
11
-50.2610291009239
21
-5.65829250666834
31
0.000000000000000
  0
LINE
  5
F105BA
330
F105BB
100
AcDbEntity
8
Geo
100
AcDbLine
10
-50.2610291009239
20
-5.65829250666834
30
0.000000000000000
11
-50.1610291009239
21
-5.71467572244750
31
0.000000000000000
  0
LINE
  5
F105BC
330
F105BD
100
AcDbEntity
8
Geo
100
AcDbLine
10
-50.1610291009239
20
-5.71467572244750
30
0.000000000000000
11
-50.0610291009239
21
-5.76550469009125
31
0.000000000000000
  0
LINE
  5
F105BE
330
F105BF
100
AcDbEntity
8
Geo
100
AcDbLine
10
-50.0610291009239
20
-5.76550469009125
30
0.000000000000000
11
-49.9610291009239
21
-5.81070411672141
31
0.000000000000000
  0
LINE
  5
F105C0
330
F105C1
100
AcDbEntity
8
Geo
100
AcDbLine
10
-49.9610291009239
20
-5.81070411672141
30
0.000000000000000
11
-49.8610291009239
21
-5.85020704849098
31
0.000000000000000
  0
LINE
  5
F105C2
330
F105C3
100
AcDbEntity
8
Geo
100
AcDbLine
10
-49.8610291009239
20
-5.85020704849098
30
0.000000000000000
11
-49.7610291009239
21
-5.88395496976277
31
0.000000000000000
  0
LINE
  5
F105C4
330
F105C5
100
AcDbEntity
8
Geo
100
AcDbLine
10
-49.7610291009239
20
-5.88395496976277
30
0.000000000000000
11
-49.6610291009239
21
-5.91189788978852
31
0.000000000000000
  0
LINE
  5
F105C6
330
F105C7
100
AcDbEntity
8
Geo
100
AcDbLine
10
-49.6610291009239
20
-5.91189788978852
30
0.000000000000000
11
-49.5610291009239
21
-5.93399441676016
31
0.000000000000000
  0
LINE
  5
F105C8
330
F105C9
100
AcDbEntity
8
Geo
100
AcDbLine
10
-49.5610291009239
20
-5.93399441676016
30
0.000000000000000
11
-49.4610291009239
21
-5.95021181912341
31
0.000000000000000
  0
LINE
  5
F105CA
330
F105CB
100
AcDbEntity
8
Geo
100
AcDbLine
10
-49.4610291009239
20
-5.95021181912341
30
0.000000000000000
11
-49.3610291009239
21
-5.96052607406298
31
0.000000000000000
  0
LINE
  5
F105CC
330
F105CD
100
AcDbEntity
8
Geo
100
AcDbLine
10
-49.3610291009239
20
-5.96052607406298
30
0.000000000000000
11
-49.2610291009239
21
-5.96492190308757
31
0.000000000000000
  0
LINE
  5
F105CE
330
F105CF
100
AcDbEntity
8
Geo
100
AcDbLine
10
-58.2610291009239
20
2.03428077545698
30
0.000000000000000
11
-58.1610291009239
21
2.03403708246284
31
0.000000000000000
  0
LINE
  5
F105D0
330
F105D1
100
AcDbEntity
8
Geo
100
AcDbLine
10
-58.1610291009239
20
2.03403708246284
30
0.000000000000000
11
-58.0610291009239
21
2.02786948023975
31
0.000000000000000
  0
LINE
  5
F105D2
330
F105D3
100
AcDbEntity
8
Geo
100
AcDbLine
10
-58.0610291009239
20
2.02786948023975
30
0.000000000000000
11
-57.9610291009239
21
2.01578710484819
31
0.000000000000000
  0
LINE
  5
F105D4
330
F105D5
100
AcDbEntity
8
Geo
100
AcDbLine
10
-57.9610291009239
20
2.01578710484819
30
0.000000000000000
11
-57.8610291009239
21
1.99780785389382
31
0.000000000000000
  0
LINE
  5
F105D6
330
F105D7
100
AcDbEntity
8
Geo
100
AcDbLine
10
-57.8610291009239
20
1.99780785389382
30
0.000000000000000
11
-57.7610291009239
21
1.97395836001576
31
0.000000000000000
  0
LINE
  5
F105D8
330
F105D9
100
AcDbEntity
8
Geo
100
AcDbLine
10
-57.7610291009239
20
1.97395836001576
30
0.000000000000000
11
-57.6610291009239
21
1.94427395143568
31
0.000000000000000
  0
LINE
  5
F105DA
330
F105DB
100
AcDbEntity
8
Geo
100
AcDbLine
10
-57.6610291009239
20
1.94427395143568
30
0.000000000000000
11
-57.5610291009239
21
1.90879859962623
31
0.000000000000000
  0
LINE
  5
F105DC
330
F105DD
100
AcDbEntity
8
Geo
100
AcDbLine
10
-57.5610291009239
20
1.90879859962623
30
0.000000000000000
11
-57.4610291009239
21
1.86758485417605
31
0.000000000000000
  0
LINE
  5
F105DE
330
F105DF
100
AcDbEntity
8
Geo
100
AcDbLine
10
-57.4610291009239
20
1.86758485417605
30
0.000000000000000
11
-57.3610291009239
21
1.82069376494825
31
0.000000000000000
  0
LINE
  5
F105E0
330
F105E1
100
AcDbEntity
8
Geo
100
AcDbLine
10
-57.3610291009239
20
1.82069376494825
30
0.000000000000000
11
-57.2610291009239
21
1.76819479164726
31
0.000000000000000
  0
LINE
  5
F105E2
330
F105E3
100
AcDbEntity
8
Geo
100
AcDbLine
10
-57.2610291009239
20
1.76819479164726
30
0.000000000000000
11
-57.1610291009239
21
1.71016570092827
31
0.000000000000000
  0
LINE
  5
F105E4
330
F105E5
100
AcDbEntity
8
Geo
100
AcDbLine
10
-57.1610291009239
20
1.71016570092827
30
0.000000000000000
11
-57.0610291009239
21
1.64669245120166
31
0.000000000000000
  0
LINE
  5
F105E6
330
F105E7
100
AcDbEntity
8
Geo
100
AcDbLine
10
-57.0610291009239
20
1.64669245120166
30
0.000000000000000
11
-56.9610291009239
21
1.57786906530283
31
0.000000000000000
  0
LINE
  5
F105E8
330
F105E9
100
AcDbEntity
8
Geo
100
AcDbLine
10
-56.9610291009239
20
1.57786906530283
30
0.000000000000000
11
-56.8610291009239
21
1.50379749121638
31
0.000000000000000
  0
LINE
  5
F105EA
330
F105EB
100
AcDbEntity
8
Geo
100
AcDbLine
10
-56.8610291009239
20
1.50379749121638
30
0.000000000000000
11
-56.7610291009239
21
1.42458745106069
31
0.000000000000000
  0
LINE
  5
F105EC
330
F105ED
100
AcDbEntity
8
Geo
100
AcDbLine
10
-56.7610291009239
20
1.42458745106069
30
0.000000000000000
11
-56.6610291009239
21
1.34035627855668
31
0.000000000000000
  0
LINE
  5
F105EE
330
F105EF
100
AcDbEntity
8
Geo
100
AcDbLine
10
-56.6610291009239
20
1.34035627855668
30
0.000000000000000
11
-56.5610291009239
21
1.25122874522153
31
0.000000000000000
  0
LINE
  5
F105F0
330
F105F1
100
AcDbEntity
8
Geo
100
AcDbLine
10
-56.5610291009239
20
1.25122874522153
30
0.000000000000000
11
-56.4610291009239
21
1.15733687554486
31
0.000000000000000
  0
LINE
  5
F105F2
330
F105F3
100
AcDbEntity
8
Geo
100
AcDbLine
10
-56.4610291009239
20
1.15733687554486
30
0.000000000000000
11
-56.3610291009239
21
1.05881975142097
31
0.000000000000000
  0
LINE
  5
F105F4
330
F105F5
100
AcDbEntity
8
Geo
100
AcDbLine
10
-56.3610291009239
20
1.05881975142097
30
0.000000000000000
11
-56.2610291009239
21
0.955823306127068
31
0.000000000000000
  0
LINE
  5
F105F6
330
F105F7
100
AcDbEntity
8
Geo
100
AcDbLine
10
-56.2610291009239
20
0.955823306127068
30
0.000000000000000
11
-56.1610291009239
21
0.848500108152510
31
0.000000000000000
  0
LINE
  5
F105F8
330
F105F9
100
AcDbEntity
8
Geo
100
AcDbLine
10
-56.1610291009239
20
0.848500108152510
30
0.000000000000000
11
-56.0610291009239
21
0.737009135199295
31
0.000000000000000
  0
LINE
  5
F105FA
330
F105FB
100
AcDbEntity
8
Geo
100
AcDbLine
10
-56.0610291009239
20
0.737009135199295
30
0.000000000000000
11
-55.9610291009239
21
0.621515538688632
31
0.000000000000000
  0
LINE
  5
F105FC
330
F105FD
100
AcDbEntity
8
Geo
100
AcDbLine
10
-55.9610291009239
20
0.621515538688632
30
0.000000000000000
11
-55.8610291009239
21
0.502190399122364
31
0.000000000000000
  0
LINE
  5
F105FE
330
F105FF
100
AcDbEntity
8
Geo
100
AcDbLine
10
-55.8610291009239
20
0.502190399122364
30
0.000000000000000
11
-55.7610291009239
21
0.379210472661673
31
0.000000000000000
  0
LINE
  5
F10600
330
F10601
100
AcDbEntity
8
Geo
100
AcDbLine
10
-55.7610291009239
20
0.379210472661673
30
0.000000000000000
11
-55.6610291009239
21
0.252757929298415
31
0.000000000000000
  0
LINE
  5
F10602
330
F10603
100
AcDbEntity
8
Geo
100
AcDbLine
10
-55.6610291009239
20
0.252757929298415
30
0.000000000000000
11
-55.5610291009239
21
0.123020083006973
31
0.000000000000000
  0
LINE
  5
F10604
330
F10605
100
AcDbEntity
8
Geo
100
AcDbLine
10
-55.5610291009239
20
0.123020083006973
30
0.000000000000000
11
-55.4610291009239
21
-0.00981088572367184
31
0.000000000000000
  0
LINE
  5
F10606
330
F10607
100
AcDbEntity
8
Geo
100
AcDbLine
10
-55.4610291009239
20
-0.00981088572367184
30
0.000000000000000
11
-55.3610291009239
21
-0.145538214566617
31
0.000000000000000
  0
LINE
  5
F10608
330
F10609
100
AcDbEntity
8
Geo
100
AcDbLine
10
-55.3610291009239
20
-0.145538214566617
30
0.000000000000000
11
-55.2610291009239
21
-0.283960850820813
31
0.000000000000000
  0
LINE
  5
F1060A
330
F1060B
100
AcDbEntity
8
Geo
100
AcDbLine
10
-55.2610291009239
20
-0.283960850820813
30
0.000000000000000
11
-55.1610291009239
21
-0.424873749230136
31
0.000000000000000
  0
LINE
  5
F1060C
330
F1060D
100
AcDbEntity
8
Geo
100
AcDbLine
10
-55.1610291009239
20
-0.424873749230136
30
0.000000000000000
11
-55.0610291009239
21
-0.568068175716638
31
0.000000000000000
  0
LINE
  5
F1060E
330
F1060F
100
AcDbEntity
8
Geo
100
AcDbLine
10
-55.0610291009239
20
-0.568068175716638
30
0.000000000000000
11
-54.9610291009239
21
-0.713332016578047
31
0.000000000000000
  0
LINE
  5
F10610
330
F10611
100
AcDbEntity
8
Geo
100
AcDbLine
10
-54.9610291009239
20
-0.713332016578047
30
0.000000000000000
11
-54.8610291009239
21
-0.860450092691487
31
0.000000000000000
  0
LINE
  5
F10612
330
F10613
100
AcDbEntity
8
Geo
100
AcDbLine
10
-54.8610291009239
20
-0.860450092691487
30
0.000000000000000
11
-54.7610291009239
21
-1.00920447825802
31
0.000000000000000
  0
LINE
  5
F10614
330
F10615
100
AcDbEntity
8
Geo
100
AcDbLine
10
-54.7610291009239
20
-1.00920447825802
30
0.000000000000000
11
-54.6610291009239
21
-1.15937482361581
31
0.000000000000000
  0
LINE
  5
F10616
330
F10617
100
AcDbEntity
8
Geo
100
AcDbLine
10
-54.6610291009239
20
-1.15937482361581
30
0.000000000000000
11
-54.5610291009239
21
-1.31073868164380
31
0.000000000000000
  0
LINE
  5
F10618
330
F10619
100
AcDbEntity
8
Geo
100
AcDbLine
10
-54.5610291009239
20
-1.31073868164380
30
0.000000000000000
11
-54.4610291009239
21
-1.46307183727226
31
0.000000000000000
  0
LINE
  5
F1061A
330
F1061B
100
AcDbEntity
8
Geo
100
AcDbLine
10
-54.4610291009239
20
-1.46307183727226
30
0.000000000000000
11
-54.3610291009239
21
-1.61614863961232
31
0.000000000000000
  0
LINE
  5
F1061C
330
F1061D
100
AcDbEntity
8
Geo
100
AcDbLine
10
-54.3610291009239
20
-1.61614863961232
30
0.000000000000000
11
-54.2610291009239
21
-1.76974233621227
31
0.000000000000000
  0
LINE
  5
F1061E
330
F1061F
100
AcDbEntity
8
Geo
100
AcDbLine
10
-54.2610291009239
20
-1.76974233621227
30
0.000000000000000
11
-54.1610291009239
21
-1.92362540894567
31
0.000000000000000
  0
LINE
  5
F10620
330
F10621
100
AcDbEntity
8
Geo
100
AcDbLine
10
-54.1610291009239
20
-1.92362540894567
30
0.000000000000000
11
-54.0610291009239
21
-2.07756991103360
31
0.000000000000000
  0
LINE
  5
F10622
330
F10623
100
AcDbEntity
8
Geo
100
AcDbLine
10
-54.0610291009239
20
-2.07756991103360
30
0.000000000000000
11
-53.9610291009239
21
-2.23134780470195
31
0.000000000000000
  0
LINE
  5
F10624
330
F10625
100
AcDbEntity
8
Geo
100
AcDbLine
10
-53.9610291009239
20
-2.23134780470195
30
0.000000000000000
11
-53.8610291009239
21
-2.38473129897340
31
0.000000000000000
  0
LINE
  5
F10626
330
F10627
100
AcDbEntity
8
Geo
100
AcDbLine
10
-53.8610291009239
20
-2.38473129897340
30
0.000000000000000
11
-53.7610291009239
21
-2.53749318709394
31
0.000000000000000
  0
LINE
  5
F10628
330
F10629
100
AcDbEntity
8
Geo
100
AcDbLine
10
-53.7610291009239
20
-2.53749318709394
30
0.000000000000000
11
-53.6610291009239
21
-2.68940718309383
31
0.000000000000000
  0
LINE
  5
F1062A
330
F1062B
100
AcDbEntity
8
Geo
100
AcDbLine
10
-53.6610291009239
20
-2.68940718309383
30
0.000000000000000
11
-53.5610291009239
21
-2.84024825698477
31
0.000000000000000
  0
LINE
  5
F1062C
330
F1062D
100
AcDbEntity
8
Geo
100
AcDbLine
10
-53.5610291009239
20
-2.84024825698477
30
0.000000000000000
11
-53.4610291009239
21
-2.98979296809645
31
0.000000000000000
  0
LINE
  5
F1062E
330
F1062F
100
AcDbEntity
8
Geo
100
AcDbLine
10
-53.4610291009239
20
-2.98979296809645
30
0.000000000000000
11
-53.3610291009239
21
-3.13781979605893
31
0.000000000000000
  0
LINE
  5
F10630
330
F10631
100
AcDbEntity
8
Geo
100
AcDbLine
10
-53.3610291009239
20
-3.13781979605893
30
0.000000000000000
11
-53.2610291009239
21
-3.28410946894043
31
0.000000000000000
  0
LINE
  5
F10632
330
F10633
100
AcDbEntity
8
Geo
100
AcDbLine
10
-53.2610291009239
20
-3.28410946894043
30
0.000000000000000
11
-53.1610291009239
21
-3.42844528805455
31
0.000000000000000
  0
LINE
  5
F10634
330
F10635
100
AcDbEntity
8
Geo
100
AcDbLine
10
-53.1610291009239
20
-3.42844528805455
30
0.000000000000000
11
-53.0610291009239
21
-3.57061344895572
31
0.000000000000000
  0
LINE
  5
F10636
330
F10637
100
AcDbEntity
8
Geo
100
AcDbLine
10
-53.0610291009239
20
-3.57061344895572
30
0.000000000000000
11
-52.9610291009239
21
-3.71040335814744
31
0.000000000000000
  0
LINE
  5
F10638
330
F10639
100
AcDbEntity
8
Geo
100
AcDbLine
10
-52.9610291009239
20
-3.71040335814744
30
0.000000000000000
11
-52.8610291009239
21
-3.84760794503411
31
0.000000000000000
  0
LINE
  5
F1063A
330
F1063B
100
AcDbEntity
8
Geo
100
AcDbLine
10
-52.8610291009239
20
-3.84760794503411
30
0.000000000000000
11
-52.7610291009239
21
-3.98202396865441
31
0.000000000000000
  0
LINE
  5
F1063C
330
F1063D
100
AcDbEntity
8
Geo
100
AcDbLine
10
-52.7610291009239
20
-3.98202396865441
30
0.000000000000000
11
-52.6610291009239
21
-4.11345231874187
31
0.000000000000000
  0
LINE
  5
F1063E
330
F1063F
100
AcDbEntity
8
Geo
100
AcDbLine
10
-52.6610291009239
20
-4.11345231874187
30
0.000000000000000
11
-52.5610291009239
21
-4.24169831066662
31
0.000000000000000
  0
LINE
  5
F10640
330
F10641
100
AcDbEntity
8
Geo
100
AcDbLine
10
-52.5610291009239
20
-4.24169831066662
30
0.000000000000000
11
-52.4610291009239
21
-4.36657197382144
31
0.000000000000000
  0
LINE
  5
F10642
330
F10643
100
AcDbEntity
8
Geo
100
AcDbLine
10
-52.4610291009239
20
-4.36657197382144
30
0.000000000000000
11
-52.3610291009239
21
-4.48788833302498
31
0.000000000000000
  0
LINE
  5
F10644
330
F10645
100
AcDbEntity
8
Geo
100
AcDbLine
10
-52.3610291009239
20
-4.48788833302498
30
0.000000000000000
11
-52.2610291009239
21
-4.60546768252522
31
0.000000000000000
  0
LINE
  5
F10646
330
F10647
100
AcDbEntity
8
Geo
100
AcDbLine
10
-52.2610291009239
20
-4.60546768252522
30
0.000000000000000
11
-52.1610291009239
21
-4.71913585219734
31
0.000000000000000
  0
LINE
  5
F10648
330
F10649
100
AcDbEntity
8
Geo
100
AcDbLine
10
-52.1610291009239
20
-4.71913585219734
30
0.000000000000000
11
-52.0610291009239
21
-4.82872446554170
31
0.000000000000000
  0
LINE
  5
F1064A
330
F1064B
100
AcDbEntity
8
Geo
100
AcDbLine
10
-52.0610291009239
20
-4.82872446554170
30
0.000000000000000
11
-51.9610291009239
21
-4.93407118909971
31
0.000000000000000
  0
LINE
  5
F1064C
330
F1064D
100
AcDbEntity
8
Geo
100
AcDbLine
10
-51.9610291009239
20
-4.93407118909971
30
0.000000000000000
11
-51.8610291009239
21
-5.03501997291813
31
0.000000000000000
  0
LINE
  5
F1064E
330
F1064F
100
AcDbEntity
8
Geo
100
AcDbLine
10
-51.8610291009239
20
-5.03501997291813
30
0.000000000000000
11
-51.7610291009239
21
-5.13142128170568
31
0.000000000000000
  0
LINE
  5
F10650
330
F10651
100
AcDbEntity
8
Geo
100
AcDbLine
10
-51.7610291009239
20
-5.13142128170568
30
0.000000000000000
11
-51.6610291009239
21
-5.22313231633941
31
0.000000000000000
  0
LINE
  5
F10652
330
F10653
100
AcDbEntity
8
Geo
100
AcDbLine
10
-51.6610291009239
20
-5.22313231633941
30
0.000000000000000
11
-51.5610291009239
21
-5.31001722539290
31
0.000000000000000
  0
LINE
  5
F10654
330
F10655
100
AcDbEntity
8
Geo
100
AcDbLine
10
-51.5610291009239
20
-5.31001722539290
30
0.000000000000000
11
-51.4610291009239
21
-5.39194730637274
31
0.000000000000000
  0
LINE
  5
F10656
330
F10657
100
AcDbEntity
8
Geo
100
AcDbLine
10
-51.4610291009239
20
-5.39194730637274
30
0.000000000000000
11
-51.3610291009239
21
-5.46880119636537
31
0.000000000000000
  0
LINE
  5
F10658
330
F10659
100
AcDbEntity
8
Geo
100
AcDbLine
10
-51.3610291009239
20
-5.46880119636537
30
0.000000000000000
11
-51.2610291009239
21
-5.54046505181177
31
0.000000000000000
  0
LINE
  5
F1065A
330
F1065B
100
AcDbEntity
8
Geo
100
AcDbLine
10
-51.2610291009239
20
-5.54046505181177
30
0.000000000000000
11
-51.1610291009239
21
-5.60683271714382
31
0.000000000000000
  0
LINE
  5
F1065C
330
F1065D
100
AcDbEntity
8
Geo
100
AcDbLine
10
-51.1610291009239
20
-5.60683271714382
30
0.000000000000000
11
-51.0610291009239
21
-5.66780588203234
31
0.000000000000000
  0
LINE
  5
F1065E
330
F1065F
100
AcDbEntity
8
Geo
100
AcDbLine
10
-51.0610291009239
20
-5.66780588203234
30
0.000000000000000
11
-50.9610291009239
21
-5.72329422701404
31
0.000000000000000
  0
LINE
  5
F10660
330
F10661
100
AcDbEntity
8
Geo
100
AcDbLine
10
-50.9610291009239
20
-5.72329422701404
30
0.000000000000000
11
-50.8610291009239
21
-5.77321555728166
31
0.000000000000000
  0
LINE
  5
F10662
330
F10663
100
AcDbEntity
8
Geo
100
AcDbLine
10
-50.8610291009239
20
-5.77321555728166
30
0.000000000000000
11
-50.7610291009239
21
-5.81749592443899
31
0.000000000000000
  0
LINE
  5
F10664
330
F10665
100
AcDbEntity
8
Geo
100
AcDbLine
10
-50.7610291009239
20
-5.81749592443899
30
0.000000000000000
11
-50.6610291009239
21
-5.85606973604051
31
0.000000000000000
  0
LINE
  5
F10666
330
F10667
100
AcDbEntity
8
Geo
100
AcDbLine
10
-50.6610291009239
20
-5.85606973604051
30
0.000000000000000
11
-50.5610291009239
21
-5.88887985275345
31
0.000000000000000
  0
LINE
  5
F10668
330
F10669
100
AcDbEntity
8
Geo
100
AcDbLine
10
-50.5610291009239
20
-5.88887985275345
30
0.000000000000000
11
-50.4610291009239
21
-5.91587767299811
31
0.000000000000000
  0
LINE
  5
F1066A
330
F1066B
100
AcDbEntity
8
Geo
100
AcDbLine
10
-50.4610291009239
20
-5.91587767299811
30
0.000000000000000
11
-50.3610291009239
21
-5.93702320494139
31
0.000000000000000
  0
LINE
  5
F1066C
330
F1066D
100
AcDbEntity
8
Geo
100
AcDbLine
10
-50.3610291009239
20
-5.93702320494139
30
0.000000000000000
11
-50.2610291009239
21
-5.95228512573662
31
0.000000000000000
  0
LINE
  5
F1066E
330
F1066F
100
AcDbEntity
8
Geo
100
AcDbLine
10
-50.2610291009239
20
-5.95228512573662
30
0.000000000000000
11
-50.1610291009239
21
-5.96164082792200
31
0.000000000000000
  0
LINE
  5
F10670
330
F10671
100
AcDbEntity
8
Geo
100
AcDbLine
10
-50.1610291009239
20
-5.96164082792200
30
0.000000000000000
11
-50.0610291009239
21
-5.96507645290908
31
0.000000000000000
  0
LINE
  5
F10672
330
F10673
100
AcDbEntity
8
Geo
100
AcDbLine
10
-61.5610291009239
20
2.03295848304998
30
0.000000000000000
11
-61.4610291009239
21
2.03479824091617
31
0.000000000000000
  0
LINE
  5
F10674
330
F10675
100
AcDbEntity
8
Geo
100
AcDbLine
10
-61.4610291009239
20
2.03479824091617
30
0.000000000000000
11
-61.3610291009239
21
2.03071296205046
31
0.000000000000000
  0
LINE
  5
F10676
330
F10677
100
AcDbEntity
8
Geo
100
AcDbLine
10
-61.3610291009239
20
2.03071296205046
30
0.000000000000000
11
-61.2610291009239
21
2.02070869797069
31
0.000000000000000
  0
LINE
  5
F10678
330
F10679
100
AcDbEntity
8
Geo
100
AcDbLine
10
-61.2610291009239
20
2.02070869797069
30
0.000000000000000
11
-61.1610291009239
21
2.00480026797914
31
0.000000000000000
  0
LINE
  5
F1067A
330
F1067B
100
AcDbEntity
8
Geo
100
AcDbLine
10
-61.1610291009239
20
2.00480026797914
30
0.000000000000000
11
-61.0610291009239
21
1.98301123721076
31
0.000000000000000
  0
LINE
  5
F1067C
330
F1067D
100
AcDbEntity
8
Geo
100
AcDbLine
10
-61.0610291009239
20
1.98301123721076
30
0.000000000000000
11
-60.9610291009239
21
1.95537388172613
31
0.000000000000000
  0
LINE
  5
F1067E
330
F1067F
100
AcDbEntity
8
Geo
100
AcDbLine
10
-60.9610291009239
20
1.95537388172613
30
0.000000000000000
11
-60.8610291009239
21
1.92192914070101
31
0.000000000000000
  0
LINE
  5
F10680
330
F10681
100
AcDbEntity
8
Geo
100
AcDbLine
10
-60.8610291009239
20
1.92192914070101
30
0.000000000000000
11
-60.7610291009239
21
1.88272655578318
31
0.000000000000000
  0
LINE
  5
F10682
330
F10683
100
AcDbEntity
8
Geo
100
AcDbLine
10
-60.7610291009239
20
1.88272655578318
30
0.000000000000000
11
-60.6610291009239
21
1.83782419770645
31
0.000000000000000
  0
LINE
  5
F10684
330
F10685
100
AcDbEntity
8
Geo
100
AcDbLine
10
-60.6610291009239
20
1.83782419770645
30
0.000000000000000
11
-60.5610291009239
21
1.78728858027062
31
0.000000000000000
  0
LINE
  5
F10686
330
F10687
100
AcDbEntity
8
Geo
100
AcDbLine
10
-60.5610291009239
20
1.78728858027062
30
0.000000000000000
11
-60.4610291009239
21
1.73119456181459
31
0.000000000000000
  0
LINE
  5
F10688
330
F10689
100
AcDbEntity
8
Geo
100
AcDbLine
10
-60.4610291009239
20
1.73119456181459
30
0.000000000000000
11
-60.3610291009239
21
1.66962523432893
31
0.000000000000000
  0
LINE
  5
F1068A
330
F1068B
100
AcDbEntity
8
Geo
100
AcDbLine
10
-60.3610291009239
20
1.66962523432893
30
0.000000000000000
11
-60.2610291009239
21
1.60267180037170
31
0.000000000000000
  0
LINE
  5
F1068C
330
F1068D
100
AcDbEntity
8
Geo
100
AcDbLine
10
-60.2610291009239
20
1.60267180037170
30
0.000000000000000
11
-60.1610291009239
21
1.53043343797033
31
0.000000000000000
  0
LINE
  5
F1068E
330
F1068F
100
AcDbEntity
8
Geo
100
AcDbLine
10
-60.1610291009239
20
1.53043343797033
30
0.000000000000000
11
-60.0610291009239
21
1.45301715370930
31
0.000000000000000
  0
LINE
  5
F10690
330
F10691
100
AcDbEntity
8
Geo
100
AcDbLine
10
-60.0610291009239
20
1.45301715370930
30
0.000000000000000
11
-59.9610291009239
21
1.37053762422146
31
0.000000000000000
  0
LINE
  5
F10692
330
F10693
100
AcDbEntity
8
Geo
100
AcDbLine
10
-59.9610291009239
20
1.37053762422146
30
0.000000000000000
11
-59.8610291009239
21
1.28311702631767
31
0.000000000000000
  0
LINE
  5
F10694
330
F10695
100
AcDbEntity
8
Geo
100
AcDbLine
10
-59.8610291009239
20
1.28311702631767
30
0.000000000000000
11
-59.7610291009239
21
1.19088485600647
31
0.000000000000000
  0
LINE
  5
F10696
330
F10697
100
AcDbEntity
8
Geo
100
AcDbLine
10
-59.7610291009239
20
1.19088485600647
30
0.000000000000000
11
-59.6610291009239
21
1.09397773667184
31
0.000000000000000
  0
LINE
  5
F10698
330
F10699
100
AcDbEntity
8
Geo
100
AcDbLine
10
-59.6610291009239
20
1.09397773667184
30
0.000000000000000
11
-59.5610291009239
21
0.992539216693174
31
0.000000000000000
  0
LINE
  5
F1069A
330
F1069B
100
AcDbEntity
8
Geo
100
AcDbLine
10
-59.5610291009239
20
0.992539216693174
30
0.000000000000000
11
-59.4610291009239
21
0.886719556807238
31
0.000000000000000
  0
LINE
  5
F1069C
330
F1069D
100
AcDbEntity
8
Geo
100
AcDbLine
10
-59.4610291009239
20
0.886719556807238
30
0.000000000000000
11
-59.3610291009239
21
0.776675507527181
31
0.000000000000000
  0
LINE
  5
F1069E
330
F1069F
100
AcDbEntity
8
Geo
100
AcDbLine
10
-59.3610291009239
20
0.776675507527181
30
0.000000000000000
11
-59.2610291009239
21
0.662570076948215
31
0.000000000000000
  0
LINE
  5
F106A0
330
F106A1
100
AcDbEntity
8
Geo
100
AcDbLine
10
-59.2610291009239
20
0.662570076948215
30
0.000000000000000
11
-59.1610291009239
21
0.544572289283946
31
0.000000000000000
  0
LINE
  5
F106A2
330
F106A3
100
AcDbEntity
8
Geo
100
AcDbLine
10
-59.1610291009239
20
0.544572289283946
30
0.000000000000000
11
-59.0610291009239
21
0.422856934491048
31
0.000000000000000
  0
LINE
  5
F106A4
330
F106A5
100
AcDbEntity
8
Geo
100
AcDbLine
10
-59.0610291009239
20
0.422856934491048
30
0.000000000000000
11
-58.9610291009239
21
0.297604309353147
31
0.000000000000000
  0
LINE
  5
F106A6
330
F106A7
100
AcDbEntity
8
Geo
100
AcDbLine
10
-58.9610291009239
20
0.297604309353147
30
0.000000000000000
11
-58.8610291009239
21
0.168999950407451
31
0.000000000000000
  0
LINE
  5
F106A8
330
F106A9
100
AcDbEntity
8
Geo
100
AcDbLine
10
-58.8610291009239
20
0.168999950407451
30
0.000000000000000
11
-58.7610291009239
21
0.0372343591097337
31
0.000000000000000
  0
LINE
  5
F106AA
330
F106AB
100
AcDbEntity
8
Geo
100
AcDbLine
10
-58.7610291009239
20
0.0372343591097337
30
0.000000000000000
11
-58.6610291009239
21
-0.0974972803551974
31
0.000000000000000
  0
LINE
  5
F106AC
330
F106AD
100
AcDbEntity
8
Geo
100
AcDbLine
10
-58.6610291009239
20
-0.0974972803551974
30
0.000000000000000
11
-58.5610291009239
21
-0.234995390199565
31
0.000000000000000
  0
LINE
  5
F106AE
330
F106AF
100
AcDbEntity
8
Geo
100
AcDbLine
10
-58.5610291009239
20
-0.234995390199565
30
0.000000000000000
11
-58.4610291009239
21
-0.375056294666912
31
0.000000000000000
  0
LINE
  5
F106B0
330
F106B1
100
AcDbEntity
8
Geo
100
AcDbLine
10
-58.4610291009239
20
-0.375056294666912
30
0.000000000000000
11
-58.3610291009239
21
-0.517472521736720
31
0.000000000000000
  0
LINE
  5
F106B2
330
F106B3
100
AcDbEntity
8
Geo
100
AcDbLine
10
-58.3610291009239
20
-0.517472521736720
30
0.000000000000000
11
-58.2610291009239
21
-0.662033110452413
31
0.000000000000000
  0
LINE
  5
F106B4
330
F106B5
100
AcDbEntity
8
Geo
100
AcDbLine
10
-58.2610291009239
20
-0.662033110452413
30
0.000000000000000
11
-58.1610291009239
21
-0.808523923417530
31
0.000000000000000
  0
LINE
  5
F106B6
330
F106B7
100
AcDbEntity
8
Geo
100
AcDbLine
10
-58.1610291009239
20
-0.808523923417530
30
0.000000000000000
11
-58.0610291009239
21
-0.956727963997150
31
0.000000000000000
  0
LINE
  5
F106B8
330
F106B9
100
AcDbEntity
8
Geo
100
AcDbLine
10
-58.0610291009239
20
-0.956727963997150
30
0.000000000000000
11
-57.9610291009239
21
-1.10642569775470
31
0.000000000000000
  0
LINE
  5
F106BA
330
F106BB
100
AcDbEntity
8
Geo
100
AcDbLine
10
-57.9610291009239
20
-1.10642569775470
30
0.000000000000000
11
-57.8610291009239
21
-1.25739537764800
31
0.000000000000000
  0
LINE
  5
F106BC
330
F106BD
100
AcDbEntity
8
Geo
100
AcDbLine
10
-57.8610291009239
20
-1.25739537764800
30
0.000000000000000
11
-57.7610291009239
21
-1.40941337250286
31
0.000000000000000
  0
LINE
  5
F106BE
330
F106BF
100
AcDbEntity
8
Geo
100
AcDbLine
10
-57.7610291009239
20
-1.40941337250286
30
0.000000000000000
11
-57.6610291009239
21
-1.56225449827760
31
0.000000000000000
  0
LINE
  5
F106C0
330
F106C1
100
AcDbEntity
8
Geo
100
AcDbLine
10
-57.6610291009239
20
-1.56225449827760
30
0.000000000000000
11
-57.5610291009239
21
-1.71569235162789
31
0.000000000000000
  0
LINE
  5
F106C2
330
F106C3
100
AcDbEntity
8
Geo
100
AcDbLine
10
-57.5610291009239
20
-1.71569235162789
30
0.000000000000000
11
-57.4610291009239
21
-1.86949964527765
31
0.000000000000000
  0
LINE
  5
F106C4
330
F106C5
100
AcDbEntity
8
Geo
100
AcDbLine
10
-57.4610291009239
20
-1.86949964527765
30
0.000000000000000
11
-57.3610291009239
21
-2.02344854469945
31
0.000000000000000
  0
LINE
  5
F106C6
330
F106C7
100
AcDbEntity
8
Geo
100
AcDbLine
10
-57.3610291009239
20
-2.02344854469945
30
0.000000000000000
11
-57.2610291009239
21
-2.17731100560539
31
0.000000000000000
  0
LINE
  5
F106C8
330
F106C9
100
AcDbEntity
8
Geo
100
AcDbLine
10
-57.2610291009239
20
-2.17731100560539
30
0.000000000000000
11
-57.1610291009239
21
-2.33085911174883
31
0.000000000000000
  0
LINE
  5
F106CA
330
F106CB
100
AcDbEntity
8
Geo
100
AcDbLine
10
-57.1610291009239
20
-2.33085911174883
30
0.000000000000000
11
-57.0610291009239
21
-2.48386541253640
31
0.000000000000000
  0
LINE
  5
F106CC
330
F106CD
100
AcDbEntity
8
Geo
100
AcDbLine
10
-57.0610291009239
20
-2.48386541253640
30
0.000000000000000
11
-56.9610291009239
21
-2.63610325995026
31
0.000000000000000
  0
LINE
  5
F106CE
330
F106CF
100
AcDbEntity
8
Geo
100
AcDbLine
10
-56.9610291009239
20
-2.63610325995026
30
0.000000000000000
11
-56.8610291009239
21
-2.78734714428144
31
0.000000000000000
  0
LINE
  5
F106D0
330
F106D1
100
AcDbEntity
8
Geo
100
AcDbLine
10
-56.8610291009239
20
-2.78734714428144
30
0.000000000000000
11
-56.7610291009239
21
-2.93737302817710
31
0.000000000000000
  0
LINE
  5
F106D2
330
F106D3
100
AcDbEntity
8
Geo
100
AcDbLine
10
-56.7610291009239
20
-2.93737302817710
30
0.000000000000000
11
-56.6610291009239
21
-3.08595867850673
31
0.000000000000000
  0
LINE
  5
F106D4
330
F106D5
100
AcDbEntity
8
Geo
100
AcDbLine
10
-56.6610291009239
20
-3.08595867850673
30
0.000000000000000
11
-56.5610291009239
21
-3.23288399555577
31
0.000000000000000
  0
LINE
  5
F106D6
330
F106D7
100
AcDbEntity
8
Geo
100
AcDbLine
10
-56.5610291009239
20
-3.23288399555577
30
0.000000000000000
11
-56.4610291009239
21
-3.37793133905900
31
0.000000000000000
  0
LINE
  5
F106D8
330
F106D9
100
AcDbEntity
8
Geo
100
AcDbLine
10
-56.4610291009239
20
-3.37793133905900
30
0.000000000000000
11
-56.3610291009239
21
-3.52088585059080
31
0.000000000000000
  0
LINE
  5
F106DA
330
F106DB
100
AcDbEntity
8
Geo
100
AcDbLine
10
-56.3610291009239
20
-3.52088585059080
30
0.000000000000000
11
-56.2610291009239
21
-3.66153577183455
31
0.000000000000000
  0
LINE
  5
F106DC
330
F106DD
100
AcDbEntity
8
Geo
100
AcDbLine
10
-56.2610291009239
20
-3.66153577183455
30
0.000000000000000
11
-56.1610291009239
21
-3.79967275826003
31
0.000000000000000
  0
LINE
  5
F106DE
330
F106DF
100
AcDbEntity
8
Geo
100
AcDbLine
10
-56.1610291009239
20
-3.79967275826003
30
0.000000000000000
11
-56.0610291009239
21
-3.93509218774380
31
0.000000000000000
  0
LINE
  5
F106E0
330
F106E1
100
AcDbEntity
8
Geo
100
AcDbLine
10
-56.0610291009239
20
-3.93509218774380
30
0.000000000000000
11
-55.9610291009239
21
-4.06759346367570
31
0.000000000000000
  0
LINE
  5
F106E2
330
F106E3
100
AcDbEntity
8
Geo
100
AcDbLine
10
-55.9610291009239
20
-4.06759346367570
30
0.000000000000000
11
-55.8610291009239
21
-4.19698031210231
31
0.000000000000000
  0
LINE
  5
F106E4
330
F106E5
100
AcDbEntity
8
Geo
100
AcDbLine
10
-55.8610291009239
20
-4.19698031210231
30
0.000000000000000
11
-55.7610291009239
21
-4.32306107246727
31
0.000000000000000
  0
LINE
  5
F106E6
330
F106E7
100
AcDbEntity
8
Geo
100
AcDbLine
10
-55.7610291009239
20
-4.32306107246727
30
0.000000000000000
11
-55.6610291009239
21
-4.44564898151785
31
0.000000000000000
  0
LINE
  5
F106E8
330
F106E9
100
AcDbEntity
8
Geo
100
AcDbLine
10
-55.6610291009239
20
-4.44564898151785
30
0.000000000000000
11
-55.5610291009239
21
-4.56456244995702
31
0.000000000000000
  0
LINE
  5
F106EA
330
F106EB
100
AcDbEntity
8
Geo
100
AcDbLine
10
-55.5610291009239
20
-4.56456244995702
30
0.000000000000000
11
-55.4610291009239
21
-4.67962533143146
31
0.000000000000000
  0
LINE
  5
F106EC
330
F106ED
100
AcDbEntity
8
Geo
100
AcDbLine
10
-55.4610291009239
20
-4.67962533143146
30
0.000000000000000
11
-55.3610291009239
21
-4.79066718345692
31
0.000000000000000
  0
LINE
  5
F106EE
330
F106EF
100
AcDbEntity
8
Geo
100
AcDbLine
10
-55.3610291009239
20
-4.79066718345692
30
0.000000000000000
11
-55.2610291009239
21
-4.89752351989437
31
0.000000000000000
  0
LINE
  5
F106F0
330
F106F1
100
AcDbEntity
8
Geo
100
AcDbLine
10
-55.2610291009239
20
-4.89752351989437
30
0.000000000000000
11
-55.1610291009239
21
-5.00003605460314
31
0.000000000000000
  0
LINE
  5
F106F2
330
F106F3
100
AcDbEntity
8
Geo
100
AcDbLine
10
-55.1610291009239
20
-5.00003605460314
30
0.000000000000000
11
-55.0610291009239
21
-5.09805293590998
31
0.000000000000000
  0
LINE
  5
F106F4
330
F106F5
100
AcDbEntity
8
Geo
100
AcDbLine
10
-55.0610291009239
20
-5.09805293590998
30
0.000000000000000
11
-54.9610291009239
21
-5.19142897154663
31
0.000000000000000
  0
LINE
  5
F106F6
330
F106F7
100
AcDbEntity
8
Geo
100
AcDbLine
10
-54.9610291009239
20
-5.19142897154663
30
0.000000000000000
11
-54.8610291009239
21
-5.28002584372302
31
0.000000000000000
  0
LINE
  5
F106F8
330
F106F9
100
AcDbEntity
8
Geo
100
AcDbLine
10
-54.8610291009239
20
-5.28002584372302
30
0.000000000000000
11
-54.7610291009239
21
-5.36371231401719
31
0.000000000000000
  0
LINE
  5
F106FA
330
F106FB
100
AcDbEntity
8
Geo
100
AcDbLine
10
-54.7610291009239
20
-5.36371231401719
30
0.000000000000000
11
-54.6610291009239
21
-5.44236441777856
31
0.000000000000000
  0
LINE
  5
F106FC
330
F106FD
100
AcDbEntity
8
Geo
100
AcDbLine
10
-54.6610291009239
20
-5.44236441777856
30
0.000000000000000
11
-54.5610291009239
21
-5.51586564775659
31
0.000000000000000
  0
LINE
  5
F106FE
330
F106FF
100
AcDbEntity
8
Geo
100
AcDbLine
10
-54.5610291009239
20
-5.51586564775659
30
0.000000000000000
11
-54.4610291009239
21
-5.58410712668285
31
0.000000000000000
  0
LINE
  5
F10700
330
F10701
100
AcDbEntity
8
Geo
100
AcDbLine
10
-54.4610291009239
20
-5.58410712668285
30
0.000000000000000
11
-54.3610291009239
21
-5.64698776855071
31
0.000000000000000
  0
LINE
  5
F10702
330
F10703
100
AcDbEntity
8
Geo
100
AcDbLine
10
-54.3610291009239
20
-5.64698776855071
30
0.000000000000000
11
-54.2610291009239
21
-5.70441442835394
31
0.000000000000000
  0
LINE
  5
F10704
330
F10705
100
AcDbEntity
8
Geo
100
AcDbLine
10
-54.2610291009239
20
-5.70441442835394
30
0.000000000000000
11
-54.1610291009239
21
-5.75630204006225
31
0.000000000000000
  0
LINE
  5
F10706
330
F10707
100
AcDbEntity
8
Geo
100
AcDbLine
10
-54.1610291009239
20
-5.75630204006225
30
0.000000000000000
11
-54.0610291009239
21
-5.80257374262951
31
0.000000000000000
  0
LINE
  5
F10708
330
F10709
100
AcDbEntity
8
Geo
100
AcDbLine
10
-54.0610291009239
20
-5.80257374262951
30
0.000000000000000
11
-53.9610291009239
21
-5.84316099384786
31
0.000000000000000
  0
LINE
  5
F1070A
330
F1070B
100
AcDbEntity
8
Geo
100
AcDbLine
10
-53.9610291009239
20
-5.84316099384786
30
0.000000000000000
11
-53.8610291009239
21
-5.87800367187925
31
0.000000000000000
  0
LINE
  5
F1070C
330
F1070D
100
AcDbEntity
8
Geo
100
AcDbLine
10
-53.8610291009239
20
-5.87800367187925
30
0.000000000000000
11
-53.7610291009239
21
-5.90705016431378
31
0.000000000000000
  0
LINE
  5
F1070E
330
F1070F
100
AcDbEntity
8
Geo
100
AcDbLine
10
-53.7610291009239
20
-5.90705016431378
30
0.000000000000000
11
-53.6610291009239
21
-5.93025744462311
31
0.000000000000000
  0
LINE
  5
F10710
330
F10711
100
AcDbEntity
8
Geo
100
AcDbLine
10
-53.6610291009239
20
-5.93025744462311
30
0.000000000000000
11
-53.5610291009239
21
-5.94759113589561
31
0.000000000000000
  0
LINE
  5
F10712
330
F10713
100
AcDbEntity
8
Geo
100
AcDbLine
10
-53.5610291009239
20
-5.94759113589561
30
0.000000000000000
11
-53.4610291009239
21
-5.95902556175881
31
0.000000000000000
  0
LINE
  5
F10714
330
F10715
100
AcDbEntity
8
Geo
100
AcDbLine
10
-53.4610291009239
20
-5.95902556175881
30
0.000000000000000
11
-53.3610291009239
21
-5.96454378441379
31
0.000000000000000
  0
LINE
  5
F10716
330
F10717
100
AcDbEntity
8
Geo
100
AcDbLine
10
-65.5610291009239
20
1.48281020394926
30
0.000000000000000
11
-65.4610291009239
21
1.56881367736822
31
0.000000000000000
  0
LINE
  5
F10718
330
F10719
100
AcDbEntity
8
Geo
100
AcDbLine
10
-65.5610291009239
20
-2.26053766865432
30
0.000000000000000
11
-65.4610291009239
21
-2.39684408190557
31
0.000000000000000
  0
LINE
  5
F1071A
330
F1071B
100
AcDbEntity
8
Geo
100
AcDbLine
10
-65.4610291009239
20
1.56881367736822
30
0.000000000000000
11
-65.3610291009239
21
1.64928622632692
31
0.000000000000000
  0
LINE
  5
F1071C
330
F1071D
100
AcDbEntity
8
Geo
100
AcDbLine
10
-65.4610291009239
20
-2.39684408190557
30
0.000000000000000
11
-65.3610291009239
21
-2.54020134923268
31
0.000000000000000
  0
LINE
  5
F1071E
330
F1071F
100
AcDbEntity
8
Geo
100
AcDbLine
10
-65.3610291009239
20
1.64928622632692
30
0.000000000000000
11
-65.2610291009239
21
1.72381293563249
31
0.000000000000000
  0
LINE
  5
F10720
330
F10721
100
AcDbEntity
8
Geo
100
AcDbLine
10
-65.3610291009239
20
-2.54020134923268
30
0.000000000000000
11
-65.2610291009239
21
-2.69038002382129
31
0.000000000000000
  0
LINE
  5
F10722
330
F10723
100
AcDbEntity
8
Geo
100
AcDbLine
10
-65.2610291009239
20
1.72381293563249
30
0.000000000000000
11
-65.1610291009239
21
1.79198857437928
31
0.000000000000000
  0
LINE
  5
F10724
330
F10725
100
AcDbEntity
8
Geo
100
AcDbLine
10
-65.2610291009239
20
-2.69038002382129
30
0.000000000000000
11
-65.1610291009239
21
-2.84712918785128
31
0.000000000000000
  0
LINE
  5
F10726
330
F10727
100
AcDbEntity
8
Geo
100
AcDbLine
10
-65.1610291009239
20
1.79198857437928
30
0.000000000000000
11
-65.0610291009239
21
1.85341863295496
31
0.000000000000000
  0
LINE
  5
F10728
330
F10729
100
AcDbEntity
8
Geo
100
AcDbLine
10
-65.1610291009239
20
-2.84712918785128
30
0.000000000000000
11
-65.0610291009239
21
-3.01017686633639
31
0.000000000000000
  0
LINE
  5
F1072A
330
F1072B
100
AcDbEntity
8
Geo
100
AcDbLine
10
-65.0610291009239
20
1.85341863295496
30
0.000000000000000
11
-64.9610291009239
21
1.81037517808418
31
0.000000000000000
  0
LINE
  5
F1072C
330
F1072D
100
AcDbEntity
8
Geo
100
AcDbLine
10
-65.0610291009239
20
-3.01017686633639
30
0.000000000000000
11
-64.9610291009239
21
-3.15634121153950
31
0.000000000000000
  0
LINE
  5
F1072E
330
F1072F
100
AcDbEntity
8
Geo
100
AcDbLine
10
-64.9610291009239
20
1.81037517808418
30
0.000000000000000
11
-64.8610291009239
21
1.76173912404840
31
0.000000000000000
  0
LINE
  5
F10730
330
F10731
100
AcDbEntity
8
Geo
100
AcDbLine
10
-64.9610291009239
20
-3.15634121153950
30
0.000000000000000
11
-64.8610291009239
21
-3.30074096591497
31
0.000000000000000
  0
LINE
  5
F10732
330
F10733
100
AcDbEntity
8
Geo
100
AcDbLine
10
-64.8610291009239
20
1.76173912404840
30
0.000000000000000
11
-64.7610291009239
21
1.70758251536595
31
0.000000000000000
  0
LINE
  5
F10734
330
F10735
100
AcDbEntity
8
Geo
100
AcDbLine
10
-64.8610291009239
20
-3.30074096591497
30
0.000000000000000
11
-64.7610291009239
21
-3.44316223031001
31
0.000000000000000
  0
LINE
  5
F10736
330
F10737
100
AcDbEntity
8
Geo
100
AcDbLine
10
-64.7610291009239
20
1.70758251536595
30
0.000000000000000
11
-64.6610291009239
21
1.64798557414501
31
0.000000000000000
  0
LINE
  5
F10738
330
F10739
100
AcDbEntity
8
Geo
100
AcDbLine
10
-64.7610291009239
20
-3.44316223031001
30
0.000000000000000
11
-64.6610291009239
21
-3.58339403630627
31
0.000000000000000
  0
LINE
  5
F1073A
330
F1073B
100
AcDbEntity
8
Geo
100
AcDbLine
10
-64.6610291009239
20
1.64798557414501
30
0.000000000000000
11
-64.5610291009239
21
1.58303658125065
31
0.000000000000000
  0
LINE
  5
F1073C
330
F1073D
100
AcDbEntity
8
Geo
100
AcDbLine
10
-64.6610291009239
20
-3.58339403630627
30
0.000000000000000
11
-64.5610291009239
21
-3.72122865872704
31
0.000000000000000
  0
LINE
  5
F1073E
330
F1073F
100
AcDbEntity
8
Geo
100
AcDbLine
10
-64.5610291009239
20
1.58303658125065
30
0.000000000000000
11
-64.4610291009239
21
1.51283174553458
31
0.000000000000000
  0
LINE
  5
F10740
330
F10741
100
AcDbEntity
8
Geo
100
AcDbLine
10
-64.5610291009239
20
-3.72122865872704
30
0.000000000000000
11
-64.4610291009239
21
-3.85646192334025
31
0.000000000000000
  0
LINE
  5
F10742
330
F10743
100
AcDbEntity
8
Geo
100
AcDbLine
10
-64.4610291009239
20
1.51283174553458
30
0.000000000000000
11
-64.3610291009239
21
1.43747506132108
31
0.000000000000000
  0
LINE
  5
F10744
330
F10745
100
AcDbEntity
8
Geo
100
AcDbLine
10
-64.4610291009239
20
-3.85646192334025
30
0.000000000000000
11
-64.3610291009239
21
-3.98889350930150
31
0.000000000000000
  0
LINE
  5
F10746
330
F10747
100
AcDbEntity
8
Geo
100
AcDbLine
10
-64.3610291009239
20
1.43747506132108
30
0.000000000000000
11
-64.2610291009239
21
1.35707815436032
31
0.000000000000000
  0
LINE
  5
F10748
330
F10749
100
AcDbEntity
8
Geo
100
AcDbLine
10
-64.3610291009239
20
-3.98889350930150
30
0.000000000000000
11
-64.2610291009239
21
-4.11832724588902
31
0.000000000000000
  0
LINE
  5
F1074A
330
F1074B
100
AcDbEntity
8
Geo
100
AcDbLine
10
-64.2610291009239
20
1.35707815436032
30
0.000000000000000
11
-64.1610291009239
21
1.27176011647735
31
0.000000000000000
  0
LINE
  5
F1074C
330
F1074D
100
AcDbEntity
8
Geo
100
AcDbLine
10
-64.2610291009239
20
-4.11832724588902
30
0.000000000000000
11
-64.1610291009239
21
-4.24457140309111
31
0.000000000000000
  0
LINE
  5
F1074E
330
F1074F
100
AcDbEntity
8
Geo
100
AcDbLine
10
-64.1610291009239
20
1.27176011647735
30
0.000000000000000
11
-64.0610291009239
21
1.18164732916153
31
0.000000000000000
  0
LINE
  5
F10750
330
F10751
100
AcDbEntity
8
Geo
100
AcDbLine
10
-64.1610291009239
20
-4.24457140309111
30
0.000000000000000
11
-64.0610291009239
21
-4.36743897561552
31
0.000000000000000
  0
LINE
  5
F10752
330
F10753
100
AcDbEntity
8
Geo
100
AcDbLine
10
-64.0610291009239
20
1.18164732916153
30
0.000000000000000
11
-63.9610291009239
21
1.08687327635779
31
0.000000000000000
  0
LINE
  5
F10754
330
F10755
100
AcDbEntity
8
Geo
100
AcDbLine
10
-64.0610291009239
20
-4.36743897561552
30
0.000000000000000
11
-63.9610291009239
21
-4.48674795990011
31
0.000000000000000
  0
LINE
  5
F10756
330
F10757
100
AcDbEntity
8
Geo
100
AcDbLine
10
-63.9610291009239
20
1.08687327635779
30
0.000000000000000
11
-63.8610291009239
21
0.987578346737067
31
0.000000000000000
  0
LINE
  5
F10758
330
F10759
100
AcDbEntity
8
Geo
100
AcDbLine
10
-63.9610291009239
20
-4.48674795990011
30
0.000000000000000
11
-63.8610291009239
21
-4.60232162371450
31
0.000000000000000
  0
LINE
  5
F1075A
330
F1075B
100
AcDbEntity
8
Geo
100
AcDbLine
10
-63.8610291009239
20
0.987578346737067
30
0.000000000000000
11
-63.7610291009239
21
0.883909625738752
31
0.000000000000000
  0
LINE
  5
F1075C
330
F1075D
100
AcDbEntity
8
Geo
100
AcDbLine
10
-63.8610291009239
20
-4.60232162371450
30
0.000000000000000
11
-63.7610291009239
21
-4.71398876795326
31
0.000000000000000
  0
LINE
  5
F1075E
330
F1075F
100
AcDbEntity
8
Geo
100
AcDbLine
10
-63.7610291009239
20
0.883909625738752
30
0.000000000000000
11
-63.6610291009239
21
0.776020677693253
31
0.000000000000000
  0
LINE
  5
F10760
330
F10761
100
AcDbEntity
8
Geo
100
AcDbLine
10
-63.7610291009239
20
-4.71398876795326
30
0.000000000000000
11
-63.6610291009239
21
-4.82158398023290
31
0.000000000000000
  0
LINE
  5
F10762
330
F10763
100
AcDbEntity
8
Geo
100
AcDbLine
10
-63.6610291009239
20
0.776020677693253
30
0.000000000000000
11
-63.5610291009239
21
0.664071318347354
31
0.000000000000000
  0
LINE
  5
F10764
330
F10765
100
AcDbEntity
8
Geo
100
AcDbLine
10
-63.6610291009239
20
-4.82158398023290
30
0.000000000000000
11
-63.5610291009239
21
-4.92494787991702
31
0.000000000000000
  0
LINE
  5
F10766
330
F10767
100
AcDbEntity
8
Geo
100
AcDbLine
10
-63.5610291009239
20
0.664071318347354
30
0.000000000000000
11
-63.4610291009239
21
0.548227378129380
31
0.000000000000000
  0
LINE
  5
F10768
330
F10769
100
AcDbEntity
8
Geo
100
AcDbLine
10
-63.5610291009239
20
-4.92494787991702
30
0.000000000000000
11
-63.4610291009239
21
-5.02392735420660
31
0.000000000000000
  0
LINE
  5
F1076A
330
F1076B
100
AcDbEntity
8
Geo
100
AcDbLine
10
-63.4610291009239
20
0.548227378129380
30
0.000000000000000
11
-63.3610291009239
21
0.428660456504820
31
0.000000000000000
  0
LINE
  5
F1076C
330
F1076D
100
AcDbEntity
8
Geo
100
AcDbLine
10
-63.4610291009239
20
-5.02392735420660
30
0.000000000000000
11
-63.3610291009239
21
-5.11837578494577
31
0.000000000000000
  0
LINE
  5
F1076E
330
F1076F
100
AcDbEntity
8
Geo
100
AcDbLine
10
-63.3610291009239
20
0.428660456504820
30
0.000000000000000
11
-63.2610291009239
21
0.305547667786271
31
0.000000000000000
  0
LINE
  5
F10770
330
F10771
100
AcDbEntity
8
Geo
100
AcDbLine
10
-63.3610291009239
20
-5.11837578494577
30
0.000000000000000
11
-63.2610291009239
21
-5.20815326580711
31
0.000000000000000
  0
LINE
  5
F10772
330
F10773
100
AcDbEntity
8
Geo
100
AcDbLine
10
-63.2610291009239
20
0.305547667786271
30
0.000000000000000
11
-63.1610291009239
21
0.179071378774267
31
0.000000000000000
  0
LINE
  5
F10774
330
F10775
100
AcDbEntity
8
Geo
100
AcDbLine
10
-63.2610291009239
20
-5.20815326580711
30
0.000000000000000
11
-63.1610291009239
21
-5.29312680953466
31
0.000000000000000
  0
LINE
  5
F10776
330
F10777
100
AcDbEntity
8
Geo
100
AcDbLine
10
-63.1610291009239
20
0.179071378774267
30
0.000000000000000
11
-63.0610291009239
21
0.0494189386175878
31
0.000000000000000
  0
LINE
  5
F10778
330
F10779
100
AcDbEntity
8
Geo
100
AcDbLine
10
-63.1610291009239
20
-5.29312680953466
30
0.000000000000000
11
-63.0610291009239
21
-5.37317054493778
31
0.000000000000000
  0
LINE
  5
F1077A
330
F1077B
100
AcDbEntity
8
Geo
100
AcDbLine
10
-63.0610291009239
20
0.0494189386175878
30
0.000000000000000
11
-62.9610291009239
21
-0.0832175987067696
31
0.000000000000000
  0
LINE
  5
F1077C
330
F1077D
100
AcDbEntity
8
Geo
100
AcDbLine
10
-63.0610291009239
20
-5.37317054493778
30
0.000000000000000
11
-62.9610291009239
21
-5.44816590334395
31
0.000000000000000
  0
LINE
  5
F1077E
330
F1077F
100
AcDbEntity
8
Geo
100
AcDbLine
10
-62.9610291009239
20
-0.0832175987067696
30
0.000000000000000
11
-62.8610291009239
21
-0.218641758882878
31
0.000000000000000
  0
LINE
  5
F10780
330
F10781
100
AcDbEntity
8
Geo
100
AcDbLine
10
-62.9610291009239
20
-5.44816590334395
30
0.000000000000000
11
-62.8610291009239
21
-5.51800179423440
31
0.000000000000000
  0
LINE
  5
F10782
330
F10783
100
AcDbEntity
8
Geo
100
AcDbLine
10
-62.8610291009239
20
-0.218641758882878
30
0.000000000000000
11
-62.7610291009239
21
-0.356652938293002
31
0.000000000000000
  0
LINE
  5
F10784
330
F10785
100
AcDbEntity
8
Geo
100
AcDbLine
10
-62.8610291009239
20
-5.51800179423440
30
0.000000000000000
11
-62.7610291009239
21
-5.58257476980230
31
0.000000000000000
  0
LINE
  5
F10786
330
F10787
100
AcDbEntity
8
Geo
100
AcDbLine
10
-62.7610291009239
20
-0.356652938293002
30
0.000000000000000
11
-62.6610291009239
21
-0.497046701171462
31
0.000000000000000
  0
LINE
  5
F10788
330
F10789
100
AcDbEntity
8
Geo
100
AcDbLine
10
-62.7610291009239
20
-5.58257476980230
30
0.000000000000000
11
-62.6610291009239
21
-5.64178917818989
31
0.000000000000000
  0
LINE
  5
F1078A
330
F1078B
100
AcDbEntity
8
Geo
100
AcDbLine
10
-62.6610291009239
20
-0.497046701171462
30
0.000000000000000
11
-62.5610291009239
21
-0.639615082435043
31
0.000000000000000
  0
LINE
  5
F1078C
330
F1078D
100
AcDbEntity
8
Geo
100
AcDbLine
10
-62.6610291009239
20
-5.64178917818989
30
0.000000000000000
11
-62.5610291009239
21
-5.69555730517744
31
0.000000000000000
  0
LINE
  5
F1078E
330
F1078F
100
AcDbEntity
8
Geo
100
AcDbLine
10
-62.5610291009239
20
-0.639615082435043
30
0.000000000000000
11
-62.4610291009239
21
-0.784146895741376
31
0.000000000000000
  0
LINE
  5
F10790
330
F10791
100
AcDbEntity
8
Geo
100
AcDbLine
10
-62.5610291009239
20
-5.69555730517744
30
0.000000000000000
11
-62.4610291009239
21
-5.74379950411415
31
0.000000000000000
  0
LINE
  5
F10792
330
F10793
100
AcDbEntity
8
Geo
100
AcDbLine
10
-62.4610291009239
20
-0.784146895741376
30
0.000000000000000
11
-62.3610291009239
21
-0.930428046318975
31
0.000000000000000
  0
LINE
  5
F10794
330
F10795
100
AcDbEntity
8
Geo
100
AcDbLine
10
-62.4610291009239
20
-5.74379950411415
30
0.000000000000000
11
-62.3610291009239
21
-5.78644431389869
31
0.000000000000000
  0
LINE
  5
F10796
330
F10797
100
AcDbEntity
8
Geo
100
AcDbLine
10
-62.3610291009239
20
-0.930428046318975
30
0.000000000000000
11
-62.2610291009239
21
-1.07824184810552
31
0.000000000000000
  0
LINE
  5
F10798
330
F10799
100
AcDbEntity
8
Geo
100
AcDbLine
10
-62.3610291009239
20
-5.78644431389869
30
0.000000000000000
11
-62.2610291009239
21
-5.82342856483440
31
0.000000000000000
  0
LINE
  5
F1079A
330
F1079B
100
AcDbEntity
8
Geo
100
AcDbLine
10
-62.2610291009239
20
-1.07824184810552
30
0.000000000000000
11
-62.1610291009239
21
-1.22736934472460
31
0.000000000000000
  0
LINE
  5
F1079C
330
F1079D
100
AcDbEntity
8
Geo
100
AcDbLine
10
-62.2610291009239
20
-5.82342856483440
30
0.000000000000000
11
-62.1610291009239
21
-5.85469747220244
31
0.000000000000000
  0
LINE
  5
F1079E
330
F1079F
100
AcDbEntity
8
Geo
100
AcDbLine
10
-62.1610291009239
20
-1.22736934472460
30
0.000000000000000
11
-62.0610291009239
21
-1.37758963382552
31
0.000000000000000
  0
LINE
  5
F107A0
330
F107A1
100
AcDbEntity
8
Geo
100
AcDbLine
10
-62.1610291009239
20
-5.85469747220244
30
0.000000000000000
11
-62.0610291009239
21
-5.88020471741438
31
0.000000000000000
  0
LINE
  5
F107A2
330
F107A3
100
AcDbEntity
8
Geo
100
AcDbLine
10
-62.0610291009239
20
-1.37758963382552
30
0.000000000000000
11
-61.9610291009239
21
-1.52868019430561
31
0.000000000000000
  0
LINE
  5
F107A4
330
F107A5
100
AcDbEntity
8
Geo
100
AcDbLine
10
-62.0610291009239
20
-5.88020471741438
30
0.000000000000000
11
-61.9610291009239
21
-5.89991251662381
31
0.000000000000000
  0
LINE
  5
F107A6
330
F107A7
100
AcDbEntity
8
Geo
100
AcDbLine
10
-61.9610291009239
20
-1.52868019430561
30
0.000000000000000
11
-61.8610291009239
21
-1.68041721593043
31
0.000000000000000
  0
LINE
  5
F107A8
330
F107A9
100
AcDbEntity
8
Geo
100
AcDbLine
10
-61.9610291009239
20
-5.89991251662381
30
0.000000000000000
11
-61.8610291009239
21
-5.91379167669551
31
0.000000000000000
  0
LINE
  5
F107AA
330
F107AB
100
AcDbEntity
8
Geo
100
AcDbLine
10
-61.8610291009239
20
-1.68041721593043
30
0.000000000000000
11
-61.7610291009239
21
-1.83257593086355
31
0.000000000000000
  0
LINE
  5
F107AC
330
F107AD
100
AcDbEntity
8
Geo
100
AcDbLine
10
-61.8610291009239
20
-5.91379167669551
30
0.000000000000000
11
-61.7610291009239
21
-5.92182163844922
31
0.000000000000000
  0
LINE
  5
F107AE
330
F107AF
100
AcDbEntity
8
Geo
100
AcDbLine
10
-61.7610291009239
20
-1.83257593086355
30
0.000000000000000
11
-61.6610291009239
21
-1.98493094661486
31
0.000000000000000
  0
LINE
  5
F107B0
330
F107B1
100
AcDbEntity
8
Geo
100
AcDbLine
10
-61.6610291009239
20
-1.98493094661486
30
0.000000000000000
11
-61.5610291009239
21
-2.13725657991410
31
0.000000000000000
  0
LINE
  5
F107B2
330
F107B3
100
AcDbEntity
8
Geo
100
AcDbLine
10
-61.6610291009239
20
1.99379982161259
30
0.000000000000000
11
-61.5610291009239
21
1.99010438444615
31
0.000000000000000
  0
LINE
  5
F107B4
330
F107B5
100
AcDbEntity
8
Geo
100
AcDbLine
10
-61.5610291009239
20
-2.13725657991410
30
0.000000000000000
11
-61.4610291009239
21
-2.28932719101521
31
0.000000000000000
  0
LINE
  5
F107B6
330
F107B7
100
AcDbEntity
8
Geo
100
AcDbLine
10
-61.5610291009239
20
1.99010438444615
30
0.000000000000000
11
-61.4610291009239
21
1.98055011549446
31
0.000000000000000
  0
LINE
  5
F107B8
330
F107B9
100
AcDbEntity
8
Geo
100
AcDbLine
10
-61.4610291009239
20
-2.28932719101521
30
0.000000000000000
11
-61.3610291009239
21
-2.44091751793615
31
0.000000000000000
  0
LINE
  5
F107BA
330
F107BB
100
AcDbEntity
8
Geo
100
AcDbLine
10
-61.4610291009239
20
1.98055011549446
30
0.000000000000000
11
-61.3610291009239
21
1.96515116748265
31
0.000000000000000
  0
LINE
  5
F107BC
330
F107BD
100
AcDbEntity
8
Geo
100
AcDbLine
10
-61.3610291009239
20
-2.44091751793615
30
0.000000000000000
11
-61.2610291009239
21
-2.59180301013914
31
0.000000000000000
  0
LINE
  5
F107BE
330
F107BF
100
AcDbEntity
8
Geo
100
AcDbLine
10
-61.3610291009239
20
1.96515116748265
30
0.000000000000000
11
-61.2610291009239
21
1.94393035085074
31
0.000000000000000
  0
LINE
  5
F107C0
330
F107C1
100
AcDbEntity
8
Geo
100
AcDbLine
10
-61.2610291009239
20
-2.59180301013914
30
0.000000000000000
11
-61.1610291009239
21
-2.74176016115711
31
0.000000000000000
  0
LINE
  5
F107C2
330
F107C3
100
AcDbEntity
8
Geo
100
AcDbLine
10
-61.2610291009239
20
1.94393035085074
30
0.000000000000000
11
-61.1610291009239
21
1.91691909996449
31
0.000000000000000
  0
LINE
  5
F107C4
330
F107C5
100
AcDbEntity
8
Geo
100
AcDbLine
10
-61.1610291009239
20
-2.74176016115711
30
0.000000000000000
11
-61.0610291009239
21
-2.89056683967346
31
0.000000000000000
  0
LINE
  5
F107C6
330
F107C7
100
AcDbEntity
8
Geo
100
AcDbLine
10
-61.1610291009239
20
1.91691909996449
30
0.000000000000000
11
-61.0610291009239
21
1.88415742655183
31
0.000000000000000
  0
LINE
  5
F107C8
330
F107C9
100
AcDbEntity
8
Geo
100
AcDbLine
10
-61.0610291009239
20
-2.89056683967346
30
0.000000000000000
11
-60.9610291009239
21
-3.03800261856488
31
0.000000000000000
  0
LINE
  5
F107CA
330
F107CB
100
AcDbEntity
8
Geo
100
AcDbLine
10
-61.0610291009239
20
1.88415742655183
30
0.000000000000000
11
-60.9610291009239
21
1.84569386043341
31
0.000000000000000
  0
LINE
  5
F107CC
330
F107CD
100
AcDbEntity
8
Geo
100
AcDbLine
10
-60.9610291009239
20
-3.03800261856488
30
0.000000000000000
11
-60.8610291009239
21
-3.18384910141976
31
0.000000000000000
  0
LINE
  5
F107CE
330
F107CF
100
AcDbEntity
8
Geo
100
AcDbLine
10
-60.9610291009239
20
1.84569386043341
30
0.000000000000000
11
-60.8610291009239
21
1.80158537763557
31
0.000000000000000
  0
LINE
  5
F107D0
330
F107D1
100
AcDbEntity
8
Geo
100
AcDbLine
10
-60.8610291009239
20
-3.18384910141976
30
0.000000000000000
11
-60.7610291009239
21
-3.32789024604846
31
0.000000000000000
  0
LINE
  5
F107D2
330
F107D3
100
AcDbEntity
8
Geo
100
AcDbLine
10
-60.8610291009239
20
1.80158537763557
30
0.000000000000000
11
-60.7610291009239
21
1.75189731599174
31
0.000000000000000
  0
LINE
  5
F107D4
330
F107D5
100
AcDbEntity
8
Geo
100
AcDbLine
10
-60.7610291009239
20
-3.32789024604846
30
0.000000000000000
11
-60.6610291009239
21
-3.46991268450631
31
0.000000000000000
  0
LINE
  5
F107D6
330
F107D7
100
AcDbEntity
8
Geo
100
AcDbLine
10
-60.7610291009239
20
1.75189731599174
30
0.000000000000000
11
-60.6610291009239
21
1.69670327835767
31
0.000000000000000
  0
LINE
  5
F107D8
330
F107D9
100
AcDbEntity
8
Geo
100
AcDbLine
10
-60.6610291009239
20
-3.46991268450631
30
0.000000000000000
11
-60.5610291009239
21
-3.60970603915526
31
0.000000000000000
  0
LINE
  5
F107DA
330
F107DB
100
AcDbEntity
8
Geo
100
AcDbLine
10
-60.6610291009239
20
1.69670327835767
30
0.000000000000000
11
-60.5610291009239
21
1.63608502358355
31
0.000000000000000
  0
LINE
  5
F107DC
330
F107DD
100
AcDbEntity
8
Geo
100
AcDbLine
10
-60.5610291009239
20
-3.60970603915526
30
0.000000000000000
11
-60.4610291009239
21
-3.74706323429595
31
0.000000000000000
  0
LINE
  5
F107DE
330
F107DF
100
AcDbEntity
8
Geo
100
AcDbLine
10
-60.5610291009239
20
1.63608502358355
30
0.000000000000000
11
-60.4610291009239
21
1.57013234540480
31
0.000000000000000
  0
LINE
  5
F107E0
330
F107E1
100
AcDbEntity
8
Geo
100
AcDbLine
10
-60.4610291009239
20
-3.74706323429595
30
0.000000000000000
11
-60.3610291009239
21
-3.88178080290867
31
0.000000000000000
  0
LINE
  5
F107E2
330
F107E3
100
AcDbEntity
8
Geo
100
AcDbLine
10
-60.4610291009239
20
1.57013234540480
30
0.000000000000000
11
-60.3610291009239
21
1.49894293943074
31
0.000000000000000
  0
LINE
  5
F107E4
330
F107E5
100
AcDbEntity
8
Geo
100
AcDbLine
10
-60.3610291009239
20
-3.88178080290867
30
0.000000000000000
11
-60.2610291009239
21
-4.01365918804880
31
0.000000000000000
  0
LINE
  5
F107E6
330
F107E7
100
AcDbEntity
8
Geo
100
AcDbLine
10
-60.3610291009239
20
1.49894293943074
30
0.000000000000000
11
-60.2610291009239
21
1.42262225842815
31
0.000000000000000
  0
LINE
  5
F107E8
330
F107E9
100
AcDbEntity
8
Geo
100
AcDbLine
10
-60.2610291009239
20
-4.01365918804880
30
0.000000000000000
11
-60.1610291009239
21
-4.14250303845015
31
0.000000000000000
  0
LINE
  5
F107EA
330
F107EB
100
AcDbEntity
8
Geo
100
AcDbLine
10
-60.2610291009239
20
1.42262225842815
30
0.000000000000000
11
-60.1610291009239
21
1.34128335611431
31
0.000000000000000
  0
LINE
  5
F107EC
330
F107ED
100
AcDbEntity
8
Geo
100
AcDbLine
10
-60.1610291009239
20
-4.14250303845015
30
0.000000000000000
11
-60.0610291009239
21
-4.26812149789860
31
0.000000000000000
  0
LINE
  5
F107EE
330
F107EF
100
AcDbEntity
8
Geo
100
AcDbLine
10
-60.1610291009239
20
1.34128335611431
30
0.000000000000000
11
-60.0610291009239
21
1.25504671969067
31
0.000000000000000
  0
LINE
  5
F107F0
330
F107F1
100
AcDbEntity
8
Geo
100
AcDbLine
10
-60.0610291009239
20
-4.26812149789860
30
0.000000000000000
11
-59.9610291009239
21
-4.39032848794709
31
0.000000000000000
  0
LINE
  5
F107F2
330
F107F3
100
AcDbEntity
8
Geo
100
AcDbLine
10
-60.0610291009239
20
1.25504671969067
30
0.000000000000000
11
-59.9610291009239
21
1.16404009136529
31
0.000000000000000
  0
LINE
  5
F107F4
330
F107F5
100
AcDbEntity
8
Geo
100
AcDbLine
10
-59.9610291009239
20
-4.39032848794709
30
0.000000000000000
11
-59.8610291009239
21
-4.50894298355339
31
0.000000000000000
  0
LINE
  5
F107F6
330
F107F7
100
AcDbEntity
8
Geo
100
AcDbLine
10
-59.9610291009239
20
1.16404009136529
30
0.000000000000000
11
-59.8610291009239
21
1.06839827912853
31
0.000000000000000
  0
LINE
  5
F107F8
330
F107F9
100
AcDbEntity
8
Geo
100
AcDbLine
10
-59.8610291009239
20
-4.50894298355339
30
0.000000000000000
11
-59.7610291009239
21
-4.62378928123221
31
0.000000000000000
  0
LINE
  5
F107FA
330
F107FB
100
AcDbEntity
8
Geo
100
AcDbLine
10
-59.8610291009239
20
1.06839827912853
30
0.000000000000000
11
-59.7610291009239
21
0.968262957062173
31
0.000000000000000
  0
LINE
  5
F107FC
330
F107FD
100
AcDbEntity
8
Geo
100
AcDbLine
10
-59.7610291009239
20
-4.62378928123221
30
0.000000000000000
11
-59.6610291009239
21
-4.73469725932456
31
0.000000000000000
  0
LINE
  5
F107FE
330
F107FF
100
AcDbEntity
8
Geo
100
AcDbLine
10
-59.7610291009239
20
0.968262957062173
30
0.000000000000000
11
-59.6610291009239
21
0.863782455477744
31
0.000000000000000
  0
LINE
  5
F10800
330
F10801
100
AcDbEntity
8
Geo
100
AcDbLine
10
-59.6610291009239
20
-4.73469725932456
30
0.000000000000000
11
-59.5610291009239
21
-4.84150262999868
31
0.000000000000000
  0
LINE
  5
F10802
330
F10803
100
AcDbEntity
8
Geo
100
AcDbLine
10
-59.6610291009239
20
0.863782455477744
30
0.000000000000000
11
-59.5610291009239
21
0.755111541195089
31
0.000000000000000
  0
LINE
  5
F10804
330
F10805
100
AcDbEntity
8
Geo
100
AcDbLine
10
-59.5610291009239
20
-4.84150262999868
30
0.000000000000000
11
-59.4610291009239
21
-4.94404718260944
31
0.000000000000000
  0
LINE
  5
F10806
330
F10807
100
AcDbEntity
8
Geo
100
AcDbLine
10
-59.5610291009239
20
0.755111541195089
30
0.000000000000000
11
-59.4610291009239
21
0.642411188286481
31
0.000000000000000
  0
LINE
  5
F10808
330
F10809
100
AcDbEntity
8
Geo
100
AcDbLine
10
-59.4610291009239
20
-4.94404718260944
30
0.000000000000000
11
-59.3610291009239
21
-5.04217901805548
31
0.000000000000000
  0
LINE
  5
F1080A
330
F1080B
100
AcDbEntity
8
Geo
100
AcDbLine
10
-59.4610291009239
20
0.642411188286481
30
0.000000000000000
11
-59.3610291009239
21
0.525848339625948
31
0.000000000000000
  0
LINE
  5
F1080C
330
F1080D
100
AcDbEntity
8
Geo
100
AcDbLine
10
-59.3610291009239
20
-5.04217901805548
30
0.000000000000000
11
-59.2610291009239
21
-5.13575277378716
31
0.000000000000000
  0
LINE
  5
F1080E
330
F1080F
100
AcDbEntity
8
Geo
100
AcDbLine
10
-59.3610291009239
20
0.525848339625948
30
0.000000000000000
11
-59.2610291009239
21
0.405595659597045
31
0.000000000000000
  0
LINE
  5
F10810
330
F10811
100
AcDbEntity
8
Geo
100
AcDbLine
10
-59.2610291009239
20
-5.13575277378716
30
0.000000000000000
11
-59.1610291009239
21
-5.22462983913191
31
0.000000000000000
  0
LINE
  5
F10812
330
F10813
100
AcDbEntity
8
Geo
100
AcDbLine
10
-59.2610291009239
20
0.405595659597045
30
0.000000000000000
11
-59.1610291009239
21
0.281831278325329
31
0.000000000000000
  0
LINE
  5
F10814
330
F10815
100
AcDbEntity
8
Geo
100
AcDbLine
10
-59.1610291009239
20
-5.22462983913191
30
0.000000000000000
11
-59.0610291009239
21
-5.30867856061802
31
0.000000000000000
  0
LINE
  5
F10816
330
F10817
100
AcDbEntity
8
Geo
100
AcDbLine
10
-59.1610291009239
20
0.281831278325329
30
0.000000000000000
11
-59.0610291009239
21
0.154738527814464
31
0.000000000000000
  0
LINE
  5
F10818
330
F10819
100
AcDbEntity
8
Geo
100
AcDbLine
10
-59.0610291009239
20
-5.30867856061802
30
0.000000000000000
11
-58.9610291009239
21
-5.38777443699272
31
0.000000000000000
  0
LINE
  5
F1081A
330
F1081B
100
AcDbEntity
8
Geo
100
AcDbLine
10
-59.0610291009239
20
0.154738527814464
30
0.000000000000000
11
-58.9610291009239
21
0.0245056703767785
31
0.000000000000000
  0
LINE
  5
F1081C
330
F1081D
100
AcDbEntity
8
Geo
100
AcDbLine
10
-58.9610291009239
20
-5.38777443699272
30
0.000000000000000
11
-58.8610291009239
21
-5.46180030364574
31
0.000000000000000
  0
LINE
  5
F1081E
330
F1081F
100
AcDbEntity
8
Geo
100
AcDbLine
10
-58.9610291009239
20
0.0245056703767785
30
0.000000000000000
11
-58.8610291009239
21
-0.108674380239429
31
0.000000000000000
  0
LINE
  5
F10820
330
F10821
100
AcDbEntity
8
Geo
100
AcDbLine
10
-58.8610291009239
20
-5.46180030364574
30
0.000000000000000
11
-58.7610291009239
21
-5.53064650616506
31
0.000000000000000
  0
LINE
  5
F10822
330
F10823
100
AcDbEntity
8
Geo
100
AcDbLine
10
-58.8610291009239
20
-0.108674380239429
30
0.000000000000000
11
-58.7610291009239
21
-0.244604344612755
31
0.000000000000000
  0
LINE
  5
F10824
330
F10825
100
AcDbEntity
8
Geo
100
AcDbLine
10
-58.7610291009239
20
-5.53064650616506
30
0.000000000000000
11
-58.6610291009239
21
-5.59421106276787
31
0.000000000000000
  0
LINE
  5
F10826
330
F10827
100
AcDbEntity
8
Geo
100
AcDbLine
10
-58.7610291009239
20
-0.244604344612755
30
0.000000000000000
11
-58.6610291009239
21
-0.383082869878423
31
0.000000000000000
  0
LINE
  5
F10828
330
F10829
100
AcDbEntity
8
Geo
100
AcDbLine
10
-58.6610291009239
20
-5.59421106276787
30
0.000000000000000
11
-58.5610291009239
21
-5.65239981536599
31
0.000000000000000
  0
LINE
  5
F1082A
330
F1082B
100
AcDbEntity
8
Geo
100
AcDbLine
10
-58.6610291009239
20
-0.383082869878423
30
0.000000000000000
11
-58.5610291009239
21
-0.523904827991996
31
0.000000000000000
  0
LINE
  5
F1082C
330
F1082D
100
AcDbEntity
8
Geo
100
AcDbLine
10
-58.5610291009239
20
-5.65239981536599
30
0.000000000000000
11
-58.4610291009239
21
-5.70512656904215
31
0.000000000000000
  0
LINE
  5
F1082E
330
F1082F
100
AcDbEntity
8
Geo
100
AcDbLine
10
-58.5610291009239
20
-0.523904827991996
30
0.000000000000000
11
-58.4610291009239
21
-0.666861619585257
31
0.000000000000000
  0
LINE
  5
F10830
330
F10831
100
AcDbEntity
8
Geo
100
AcDbLine
10
-58.4610291009239
20
-5.70512656904215
30
0.000000000000000
11
-58.3610291009239
21
-5.75231321973040
31
0.000000000000000
  0
LINE
  5
F10832
330
F10833
100
AcDbEntity
8
Geo
100
AcDbLine
10
-58.4610291009239
20
-0.666861619585257
30
0.000000000000000
11
-58.3610291009239
21
-0.811741482964165
31
0.000000000000000
  0
LINE
  5
F10834
330
F10835
100
AcDbEntity
8
Geo
100
AcDbLine
10
-58.3610291009239
20
-5.75231321973040
30
0.000000000000000
11
-58.2610291009239
21
-5.79388986991153
31
0.000000000000000
  0
LINE
  5
F10836
330
F10837
100
AcDbEntity
8
Geo
100
AcDbLine
10
-58.3610291009239
20
-0.811741482964165
30
0.000000000000000
11
-58.2610291009239
21
-0.958329807791150
31
0.000000000000000
  0
LINE
  5
F10838
330
F10839
100
AcDbEntity
8
Geo
100
AcDbLine
10
-58.2610291009239
20
-5.79388986991153
30
0.000000000000000
11
-58.1610291009239
21
-5.82979493215219
31
0.000000000000000
  0
LINE
  5
F1083A
330
F1083B
100
AcDbEntity
8
Geo
100
AcDbLine
10
-58.2610291009239
20
-0.958329807791150
30
0.000000000000000
11
-58.1610291009239
21
-1.10640945298711
31
0.000000000000000
  0
LINE
  5
F1083C
330
F1083D
100
AcDbEntity
8
Geo
100
AcDbLine
10
-58.1610291009239
20
-5.82979493215219
30
0.000000000000000
11
-58.0610291009239
21
-5.85997522033424
31
0.000000000000000
  0
LINE
  5
F1083E
330
F1083F
100
AcDbEntity
8
Geo
100
AcDbLine
10
-58.1610291009239
20
-1.10640945298711
30
0.000000000000000
11
-58.0610291009239
21
-1.25576106838217
31
0.000000000000000
  0
LINE
  5
F10840
330
F10841
100
AcDbEntity
8
Geo
100
AcDbLine
10
-58.0610291009239
20
-5.85997522033424
30
0.000000000000000
11
-57.9610291009239
21
-5.88438602843931
31
0.000000000000000
  0
LINE
  5
F10842
330
F10843
100
AcDbEntity
8
Geo
100
AcDbLine
10
-58.0610291009239
20
-1.25576106838217
30
0.000000000000000
11
-57.9610291009239
21
-1.40616341963880
31
0.000000000000000
  0
LINE
  5
F10844
330
F10845
100
AcDbEntity
8
Geo
100
AcDbLine
10
-57.9610291009239
20
-5.88438602843931
30
0.000000000000000
11
-57.8610291009239
21
-5.90299119677174
31
0.000000000000000
  0
LINE
  5
F10846
330
F10847
100
AcDbEntity
8
Geo
100
AcDbLine
10
-57.9610291009239
20
-1.40616341963880
30
0.000000000000000
11
-57.8610291009239
21
-1.55739371596592
31
0.000000000000000
  0
LINE
  5
F10848
330
F10849
100
AcDbEntity
8
Geo
100
AcDbLine
10
-57.8610291009239
20
-5.90299119677174
30
0.000000000000000
11
-57.7610291009239
21
-5.91576316552188
31
0.000000000000000
  0
LINE
  5
F1084A
330
F1084B
100
AcDbEntity
8
Geo
100
AcDbLine
10
-57.8610291009239
20
-1.55739371596592
30
0.000000000000000
11
-57.7610291009239
21
-1.70922794013857
31
0.000000000000000
  0
LINE
  5
F1084C
330
F1084D
100
AcDbEntity
8
Geo
100
AcDbLine
10
-57.7610291009239
20
-5.91576316552188
30
0.000000000000000
11
-57.6610291009239
21
-5.92268301559041
31
0.000000000000000
  0
LINE
  5
F1084E
330
F1084F
100
AcDbEntity
8
Geo
100
AcDbLine
10
-57.7610291009239
20
-1.70922794013857
30
0.000000000000000
11
-57.6610291009239
21
-1.86144118033434
31
0.000000000000000
  0
LINE
  5
F10850
330
F10851
100
AcDbEntity
8
Geo
100
AcDbLine
10
-57.6610291009239
20
-1.86144118033434
30
0.000000000000000
11
-57.5610291009239
21
-2.01380796329491
31
0.000000000000000
  0
LINE
  5
F10852
330
F10853
100
AcDbEntity
8
Geo
100
AcDbLine
10
-57.5610291009239
20
1.99354981111185
30
0.000000000000000
11
-57.4610291009239
21
1.98874335664368
31
0.000000000000000
  0
LINE
  5
F10854
330
F10855
100
AcDbEntity
8
Geo
100
AcDbLine
10
-57.5610291009239
20
-2.01380796329491
30
0.000000000000000
11
-57.4610291009239
21
-2.16610258831927
31
0.000000000000000
  0
LINE
  5
F10856
330
F10857
100
AcDbEntity
8
Geo
100
AcDbLine
10
-57.4610291009239
20
1.98874335664368
30
0.000000000000000
11
-57.3610291009239
21
1.97808008647882
31
0.000000000000000
  0
LINE
  5
F10858
330
F10859
100
AcDbEntity
8
Geo
100
AcDbLine
10
-57.4610291009239
20
-2.16610258831927
30
0.000000000000000
11
-57.3610291009239
21
-2.31809946159388
31
0.000000000000000
  0
LINE
  5
F1085A
330
F1085B
100
AcDbEntity
8
Geo
100
AcDbLine
10
-57.3610291009239
20
1.97808008647882
30
0.000000000000000
11
-57.2610291009239
21
1.96157579610436
31
0.000000000000000
  0
LINE
  5
F1085C
330
F1085D
100
AcDbEntity
8
Geo
100
AcDbLine
10
-57.3610291009239
20
-2.31809946159388
30
0.000000000000000
11
-57.2610291009239
21
-2.46957343036443
31
0.000000000000000
  0
LINE
  5
F1085E
330
F1085F
100
AcDbEntity
8
Geo
100
AcDbLine
10
-57.2610291009239
20
1.96157579610436
30
0.000000000000000
11
-57.1610291009239
21
1.93925493330236
31
0.000000000000000
  0
LINE
  5
F10860
330
F10861
100
AcDbEntity
8
Geo
100
AcDbLine
10
-57.2610291009239
20
-2.46957343036443
30
0.000000000000000
11
-57.1610291009239
21
-2.62030011645432
31
0.000000000000000
  0
LINE
  5
F10862
330
F10863
100
AcDbEntity
8
Geo
100
AcDbLine
10
-57.1610291009239
20
1.93925493330236
30
0.000000000000000
11
-57.0610291009239
21
1.91115056193548
31
0.000000000000000
  0
LINE
  5
F10864
330
F10865
100
AcDbEntity
8
Geo
100
AcDbLine
10
-57.1610291009239
20
-2.62030011645432
30
0.000000000000000
11
-57.0610291009239
21
-2.77005624863574
31
0.000000000000000
  0
LINE
  5
F10866
330
F10867
100
AcDbEntity
8
Geo
100
AcDbLine
10
-57.0610291009239
20
1.91115056193548
30
0.000000000000000
11
-56.9610291009239
21
1.87730431296942
31
0.000000000000000
  0
LINE
  5
F10868
330
F10869
100
AcDbEntity
8
Geo
100
AcDbLine
10
-57.0610291009239
20
-2.77005624863574
30
0.000000000000000
11
-56.9610291009239
21
-2.91861999336101
31
0.000000000000000
  0
LINE
  5
F1086A
330
F1086B
100
AcDbEntity
8
Geo
100
AcDbLine
10
-56.9610291009239
20
1.87730431296942
30
0.000000000000000
11
-56.8610291009239
21
1.83776632280512
31
0.000000000000000
  0
LINE
  5
F1086C
330
F1086D
100
AcDbEntity
8
Geo
100
AcDbLine
10
-56.9610291009239
20
-2.91861999336101
30
0.000000000000000
11
-56.8610291009239
21
-3.06577128336430
31
0.000000000000000
  0
LINE
  5
F1086E
330
F1086F
100
AcDbEntity
8
Geo
100
AcDbLine
10
-56.8610291009239
20
1.83776632280512
30
0.000000000000000
11
-56.7610291009239
21
1.79259515901171
31
0.000000000000000
  0
LINE
  5
F10870
330
F10871
100
AcDbEntity
8
Geo
100
AcDbLine
10
-56.8610291009239
20
-3.06577128336430
30
0.000000000000000
11
-56.7610291009239
21
-3.21129214364699
31
0.000000000000000
  0
LINE
  5
F10872
330
F10873
100
AcDbEntity
8
Geo
100
AcDbLine
10
-56.7610291009239
20
1.79259515901171
30
0.000000000000000
11
-56.6610291009239
21
1.74185773357051
31
0.000000000000000
  0
LINE
  5
F10874
330
F10875
100
AcDbEntity
8
Geo
100
AcDbLine
10
-56.7610291009239
20
-3.21129214364699
30
0.000000000000000
11
-56.6610291009239
21
-3.35496701436370
31
0.000000000000000
  0
LINE
  5
F10876
330
F10877
100
AcDbEntity
8
Geo
100
AcDbLine
10
-56.6610291009239
20
1.74185773357051
30
0.000000000000000
11
-56.5610291009239
21
1.68562920375835
31
0.000000000000000
  0
LINE
  5
F10878
330
F10879
100
AcDbEntity
8
Geo
100
AcDbLine
10
-56.6610291009239
20
-3.35496701436370
30
0.000000000000000
11
-56.5610291009239
21
-3.49658307013080
31
0.000000000000000
  0
LINE
  5
F1087A
330
F1087B
100
AcDbEntity
8
Geo
100
AcDbLine
10
-56.5610291009239
20
1.68562920375835
30
0.000000000000000
11
-56.4610291009239
21
1.62399286081726
31
0.000000000000000
  0
LINE
  5
F1087C
330
F1087D
100
AcDbEntity
8
Geo
100
AcDbLine
10
-56.5610291009239
20
-3.49658307013080
30
0.000000000000000
11
-56.4610291009239
21
-3.63593053528433
31
0.000000000000000
  0
LINE
  5
F1087E
330
F1087F
100
AcDbEntity
8
Geo
100
AcDbLine
10
-56.4610291009239
20
1.62399286081726
30
0.000000000000000
11
-56.3610291009239
21
1.55704000657522
31
0.000000000000000
  0
LINE
  5
F10880
330
F10881
100
AcDbEntity
8
Geo
100
AcDbLine
10
-56.4610291009239
20
-3.63593053528433
30
0.000000000000000
11
-56.3610291009239
21
-3.77280299462042
31
0.000000000000000
  0
LINE
  5
F10882
330
F10883
100
AcDbEntity
8
Geo
100
AcDbLine
10
-56.3610291009239
20
1.55704000657522
30
0.000000000000000
11
-56.2610291009239
21
1.48486981820092
31
0.000000000000000
  0
LINE
  5
F10884
330
F10885
100
AcDbEntity
8
Geo
100
AcDbLine
10
-56.3610291009239
20
-3.77280299462042
30
0.000000000000000
11
-56.2610291009239
21
-3.90699769915784
31
0.000000000000000
  0
LINE
  5
F10886
330
F10887
100
AcDbEntity
8
Geo
100
AcDbLine
10
-56.2610291009239
20
1.48486981820092
30
0.000000000000000
11
-56.1610291009239
21
1.40758920129276
31
0.000000000000000
  0
LINE
  5
F10888
330
F10889
100
AcDbEntity
8
Geo
100
AcDbLine
10
-56.2610291009239
20
-3.90699769915784
30
0.000000000000000
11
-56.1610291009239
21
-4.03831586646975
31
0.000000000000000
  0
LINE
  5
F1088A
330
F1088B
100
AcDbEntity
8
Geo
100
AcDbLine
10
-56.1610291009239
20
1.40758920129276
30
0.000000000000000
11
-56.0610291009239
21
1.32531263151971
31
0.000000000000000
  0
LINE
  5
F1088C
330
F1088D
100
AcDbEntity
8
Geo
100
AcDbLine
10
-56.1610291009239
20
-4.03831586646975
30
0.000000000000000
11
-56.0610291009239
21
-4.16656297513987
31
0.000000000000000
  0
LINE
  5
F1088E
330
F1088F
100
AcDbEntity
8
Geo
100
AcDbLine
10
-56.0610291009239
20
1.32531263151971
30
0.000000000000000
11
-55.9610291009239
21
1.23816198504870
31
0.000000000000000
  0
LINE
  5
F10890
330
F10891
100
AcDbEntity
8
Geo
100
AcDbLine
10
-56.0610291009239
20
-4.16656297513987
30
0.000000000000000
11
-55.9610291009239
21
-4.29154905290677
31
0.000000000000000
  0
LINE
  5
F10892
330
F10893
100
AcDbEntity
8
Geo
100
AcDbLine
10
-55.9610291009239
20
1.23816198504870
30
0.000000000000000
11
-55.8610291009239
21
1.14626635800960
31
0.000000000000000
  0
LINE
  5
F10894
330
F10895
100
AcDbEntity
8
Geo
100
AcDbLine
10
-55.9610291009239
20
-4.29154905290677
30
0.000000000000000
11
-55.8610291009239
21
-4.41308895806947
31
0.000000000000000
  0
LINE
  5
F10896
330
F10897
100
AcDbEntity
8
Geo
100
AcDbLine
10
-55.8610291009239
20
1.14626635800960
30
0.000000000000000
11
-55.7610291009239
21
1.04976187526532
31
0.000000000000000
  0
LINE
  5
F10898
330
F10899
100
AcDbEntity
8
Geo
100
AcDbLine
10
-55.8610291009239
20
-4.41308895806947
30
0.000000000000000
11
-55.7610291009239
21
-4.53100265373763
31
0.000000000000000
  0
LINE
  5
F1089A
330
F1089B
100
AcDbEntity
8
Geo
100
AcDbLine
10
-55.7610291009239
20
1.04976187526532
30
0.000000000000000
11
-55.6610291009239
21
0.948791488770220
31
0.000000000000000
  0
LINE
  5
F1089C
330
F1089D
100
AcDbEntity
8
Geo
100
AcDbLine
10
-55.7610291009239
20
-4.53100265373763
30
0.000000000000000
11
-55.6610291009239
21
-4.64511547451994
31
0.000000000000000
  0
LINE
  5
F1089E
330
F1089F
100
AcDbEntity
8
Geo
100
AcDbLine
10
-55.6610291009239
20
0.948791488770220
30
0.000000000000000
11
-55.5610291009239
21
0.843504765815609
31
0.000000000000000
  0
LINE
  5
F108A0
330
F108A1
100
AcDbEntity
8
Geo
100
AcDbLine
10
-55.6610291009239
20
-4.64511547451994
30
0.000000000000000
11
-55.5610291009239
21
-4.75525838525570
31
0.000000000000000
  0
LINE
  5
F108A2
330
F108A3
100
AcDbEntity
8
Geo
100
AcDbLine
10
-55.5610291009239
20
0.843504765815609
30
0.000000000000000
11
-55.4610291009239
21
0.734057667475910
31
0.000000000000000
  0
LINE
  5
F108A4
330
F108A5
100
AcDbEntity
8
Geo
100
AcDbLine
10
-55.5610291009239
20
-4.75525838525570
30
0.000000000000000
11
-55.4610291009239
21
-4.86126823140635
31
0.000000000000000
  0
LINE
  5
F108A6
330
F108A7
100
AcDbEntity
8
Geo
100
AcDbLine
10
-55.4610291009239
20
0.734057667475910
30
0.000000000000000
11
-55.3610291009239
21
0.620612317583744
31
0.000000000000000
  0
LINE
  5
F108A8
330
F108A9
100
AcDbEntity
8
Geo
100
AcDbLine
10
-55.4610291009239
20
-4.86126823140635
30
0.000000000000000
11
-55.3610291009239
21
-4.96298798073612
31
0.000000000000000
  0
LINE
  5
F108AA
330
F108AB
100
AcDbEntity
8
Geo
100
AcDbLine
10
-55.3610291009239
20
0.620612317583744
30
0.000000000000000
11
-55.2610291009239
21
0.503336762576126
31
0.000000000000000
  0
LINE
  5
F108AC
330
F108AD
100
AcDbEntity
8
Geo
100
AcDbLine
10
-55.3610291009239
20
-4.96298798073612
30
0.000000000000000
11
-55.2610291009239
21
-5.06026695592357
31
0.000000000000000
  0
LINE
  5
F108AE
330
F108AF
100
AcDbEntity
8
Geo
100
AcDbLine
10
-55.2610291009239
20
0.503336762576126
30
0.000000000000000
11
-55.1610291009239
21
0.382404722567513
31
0.000000000000000
  0
LINE
  5
F108B0
330
F108B1
100
AcDbEntity
8
Geo
100
AcDbLine
10
-55.2610291009239
20
-5.06026695592357
30
0.000000000000000
11
-55.1610291009239
21
-5.15296105775978
31
0.000000000000000
  0
LINE
  5
F108B2
330
F108B3
100
AcDbEntity
8
Geo
100
AcDbLine
10
-55.1610291009239
20
0.382404722567513
30
0.000000000000000
11
-55.0610291009239
21
0.257995334018447
31
0.000000000000000
  0
LINE
  5
F108B4
330
F108B5
100
AcDbEntity
8
Geo
100
AcDbLine
10
-55.1610291009239
20
-5.15296105775978
30
0.000000000000000
11
-55.0610291009239
21
-5.24093297860224
31
0.000000000000000
  0
LINE
  5
F108B6
330
F108B7
100
AcDbEntity
8
Geo
100
AcDbLine
10
-55.0610291009239
20
0.257995334018447
30
0.000000000000000
11
-54.9610291009239
21
0.130292884380960
31
0.000000000000000
  0
LINE
  5
F108B8
330
F108B9
100
AcDbEntity
8
Geo
100
AcDbLine
10
-55.0610291009239
20
-5.24093297860224
30
0.000000000000000
11
-54.9610291009239
21
-5.32405240576853
31
0.000000000000000
  0
LINE
  5
F108BA
330
F108BB
100
AcDbEntity
8
Geo
100
AcDbLine
10
-54.9610291009239
20
0.130292884380960
30
0.000000000000000
11
-54.8610291009239
21
-0.000513460886157002
31
0.000000000000000
  0
LINE
  5
F108BC
330
F108BD
100
AcDbEntity
8
Geo
100
AcDbLine
10
-54.9610291009239
20
-5.32405240576853
30
0.000000000000000
11
-54.8610291009239
21
-5.40219621456824
31
0.000000000000000
  0
LINE
  5
F108BE
330
F108BF
100
AcDbEntity
8
Geo
100
AcDbLine
10
-54.8610291009239
20
-0.000513460886157002
30
0.000000000000000
11
-54.7610291009239
21
-0.134229938527895
31
0.000000000000000
  0
LINE
  5
F108C0
330
F108C1
100
AcDbEntity
8
Geo
100
AcDbLine
10
-54.8610291009239
20
-5.40219621456824
30
0.000000000000000
11
-54.7610291009239
21
-5.47524865068745
31
0.000000000000000
  0
LINE
  5
F108C2
330
F108C3
100
AcDbEntity
8
Geo
100
AcDbLine
10
-54.7610291009239
20
-0.134229938527895
30
0.000000000000000
11
-54.6610291009239
21
-0.270658474514252
31
0.000000000000000
  0
LINE
  5
F108C4
330
F108C5
100
AcDbEntity
8
Geo
100
AcDbLine
10
-54.7610291009239
20
-5.47524865068745
30
0.000000000000000
11
-54.6610291009239
21
-5.54310150165545
31
0.000000000000000
  0
LINE
  5
F108C6
330
F108C7
100
AcDbEntity
8
Geo
100
AcDbLine
10
-54.6610291009239
20
-0.270658474514252
30
0.000000000000000
11
-54.5610291009239
21
-0.409596977447025
31
0.000000000000000
  0
LINE
  5
F108C8
330
F108C9
100
AcDbEntity
8
Geo
100
AcDbLine
10
-54.6610291009239
20
-5.54310150165545
30
0.000000000000000
11
-54.5610291009239
21
-5.60565425713965
31
0.000000000000000
  0
LINE
  5
F108CA
330
F108CB
100
AcDbEntity
8
Geo
100
AcDbLine
10
-54.5610291009239
20
-0.409596977447025
30
0.000000000000000
11
-54.4610291009239
21
-0.550839637917503
31
0.000000000000000
  0
LINE
  5
F108CC
330
F108CD
100
AcDbEntity
8
Geo
100
AcDbLine
10
-54.5610291009239
20
-5.60565425713965
30
0.000000000000000
11
-54.4610291009239
21
-5.66281425783145
31
0.000000000000000
  0
LINE
  5
F108CE
330
F108CF
100
AcDbEntity
8
Geo
100
AcDbLine
10
-54.4610291009239
20
-0.550839637917503
30
0.000000000000000
11
-54.3610291009239
21
-0.694177233371663
31
0.000000000000000
  0
LINE
  5
F108D0
330
F108D1
100
AcDbEntity
8
Geo
100
AcDbLine
10
-54.4610291009239
20
-5.66281425783145
30
0.000000000000000
11
-54.3610291009239
21
-5.71449683270234
31
0.000000000000000
  0
LINE
  5
F108D2
330
F108D3
100
AcDbEntity
8
Geo
100
AcDbLine
10
-54.3610291009239
20
-0.694177233371663
30
0.000000000000000
11
-54.2610291009239
21
-0.839397438031241
31
0.000000000000000
  0
LINE
  5
F108D4
330
F108D5
100
AcDbEntity
8
Geo
100
AcDbLine
10
-54.3610291009239
20
-5.71449683270234
30
0.000000000000000
11
-54.2610291009239
21
-5.76062542442696
31
0.000000000000000
  0
LINE
  5
F108D6
330
F108D7
100
AcDbEntity
8
Geo
100
AcDbLine
10
-54.2610291009239
20
-0.839397438031241
30
0.000000000000000
11
-54.1610291009239
21
-0.986285137411614
31
0.000000000000000
  0
LINE
  5
F108D8
330
F108D9
100
AcDbEntity
8
Geo
100
AcDbLine
10
-54.2610291009239
20
-5.76062542442696
30
0.000000000000000
11
-54.1610291009239
21
-5.80113170278735
31
0.000000000000000
  0
LINE
  5
F108DA
330
F108DB
100
AcDbEntity
8
Geo
100
AcDbLine
10
-54.1610291009239
20
-0.986285137411614
30
0.000000000000000
11
-54.0610291009239
21
-1.13462274697056
31
0.000000000000000
  0
LINE
  5
F108DC
330
F108DD
100
AcDbEntity
8
Geo
100
AcDbLine
10
-54.1610291009239
20
-5.80113170278735
30
0.000000000000000
11
-54.0610291009239
21
-5.83595566589042
31
0.000000000000000
  0
LINE
  5
F108DE
330
F108DF
100
AcDbEntity
8
Geo
100
AcDbLine
10
-54.0610291009239
20
-1.13462274697056
30
0.000000000000000
11
-53.9610291009239
21
-1.28419053441596
31
0.000000000000000
  0
LINE
  5
F108E0
330
F108E1
100
AcDbEntity
8
Geo
100
AcDbLine
10
-54.0610291009239
20
-5.83595566589042
30
0.000000000000000
11
-53.9610291009239
21
-5.86504572904868
31
0.000000000000000
  0
LINE
  5
F108E2
330
F108E3
100
AcDbEntity
8
Geo
100
AcDbLine
10
-53.9610291009239
20
-1.28419053441596
30
0.000000000000000
11
-53.8610291009239
21
-1.43476694519495
31
0.000000000000000
  0
LINE
  5
F108E4
330
F108E5
100
AcDbEntity
8
Geo
100
AcDbLine
10
-53.9610291009239
20
-5.86504572904868
30
0.000000000000000
11
-53.8610291009239
21
-5.88835880119254
31
0.000000000000000
  0
LINE
  5
F108E6
330
F108E7
100
AcDbEntity
8
Geo
100
AcDbLine
10
-53.8610291009239
20
-1.43476694519495
30
0.000000000000000
11
-53.7610291009239
21
-1.58612893068230
31
0.000000000000000
  0
LINE
  5
F108E8
330
F108E9
100
AcDbEntity
8
Geo
100
AcDbLine
10
-53.8610291009239
20
-5.88835880119254
30
0.000000000000000
11
-53.7610291009239
21
-5.90586034870108
31
0.000000000000000
  0
LINE
  5
F108EA
330
F108EB
100
AcDbEntity
8
Geo
100
AcDbLine
10
-53.7610291009239
20
-1.58612893068230
30
0.000000000000000
11
-53.6610291009239
21
-1.73805227858209
31
0.000000000000000
  0
LINE
  5
F108EC
330
F108ED
100
AcDbEntity
8
Geo
100
AcDbLine
10
-53.7610291009239
20
-5.90586034870108
30
0.000000000000000
11
-53.6610291009239
21
-5.91752444655661
31
0.000000000000000
  0
LINE
  5
F108EE
330
F108EF
100
AcDbEntity
8
Geo
100
AcDbLine
10
-53.6610291009239
20
-1.73805227858209
30
0.000000000000000
11
-53.5610291009239
21
-1.89031194505307
31
0.000000000000000
  0
LINE
  5
F108F0
330
F108F1
100
AcDbEntity
8
Geo
100
AcDbLine
10
-53.6610291009239
20
-5.91752444655661
30
0.000000000000000
11
-53.5610291009239
21
-5.92333381674741
31
0.000000000000000
  0
LINE
  5
F108F2
330
F108F3
100
AcDbEntity
8
Geo
100
AcDbLine
10
-53.5610291009239
20
-1.89031194505307
30
0.000000000000000
11
-53.4610291009239
21
-2.04268238806572
31
0.000000000000000
  0
LINE
  5
F108F4
330
F108F5
100
AcDbEntity
8
Geo
100
AcDbLine
10
-53.4610291009239
20
1.99308916836029
30
0.000000000000000
11
-53.3610291009239
21
1.98717195233302
31
0.000000000000000
  0
LINE
  5
F108F6
330
F108F7
100
AcDbEntity
8
Geo
100
AcDbLine
10
-53.4610291009239
20
-2.04268238806572
30
0.000000000000000
11
-53.3610291009239
21
-2.19493790149743
31
0.000000000000000
  0
LINE
  5
F108F8
330
F108F9
100
AcDbEntity
8
Geo
100
AcDbLine
10
-53.3610291009239
20
1.98717195233302
30
0.000000000000000
11
-53.2610291009239
21
1.97540024832806
31
0.000000000000000
  0
LINE
  5
F108FA
330
F108FB
100
AcDbEntity
8
Geo
100
AcDbLine
10
-53.3610291009239
20
-2.19493790149743
30
0.000000000000000
11
-53.2610291009239
21
-2.34685294947058
31
0.000000000000000
  0
LINE
  5
F108FC
330
F108FD
100
AcDbEntity
8
Geo
100
AcDbLine
10
-53.2610291009239
20
1.97540024832806
30
0.000000000000000
11
-53.1610291009239
21
1.95779149375397
31
0.000000000000000
  0
LINE
  5
F108FE
330
F108FF
100
AcDbEntity
8
Geo
100
AcDbLine
10
-53.2610291009239
20
-2.34685294947058
30
0.000000000000000
11
-53.1610291009239
21
-2.49820250043858
31
0.000000000000000
  0
LINE
  5
F10900
330
F10901
100
AcDbEntity
8
Geo
100
AcDbLine
10
-53.1610291009239
20
1.95779149375397
30
0.000000000000000
11
-53.0610291009239
21
1.93437177243408
31
0.000000000000000
  0
LINE
  5
F10902
330
F10903
100
AcDbEntity
8
Geo
100
AcDbLine
10
-53.1610291009239
20
-2.49820250043858
30
0.000000000000000
11
-53.0610291009239
21
-2.64876236052474
31
0.000000000000000
  0
LINE
  5
F10904
330
F10905
100
AcDbEntity
8
Geo
100
AcDbLine
10
-53.0610291009239
20
1.93437177243408
30
0.000000000000000
11
-52.9610291009239
21
1.90517577596863
31
0.000000000000000
  0
LINE
  5
F10906
330
F10907
100
AcDbEntity
8
Geo
100
AcDbLine
10
-53.0610291009239
20
-2.64876236052474
30
0.000000000000000
11
-52.9610291009239
21
-2.79830950562038
31
0.000000000000000
  0
LINE
  5
F10908
330
F10909
100
AcDbEntity
8
Geo
100
AcDbLine
10
-52.9610291009239
20
1.90517577596863
30
0.000000000000000
11
-52.8610291009239
21
1.87024675234604
31
0.000000000000000
  0
LINE
  5
F1090A
330
F1090B
100
AcDbEntity
8
Geo
100
AcDbLine
10
-52.9610291009239
20
-2.79830950562038
30
0.000000000000000
11
-52.8610291009239
21
-2.94662241175008
31
0.000000000000000
  0
LINE
  5
F1090C
330
F1090D
100
AcDbEntity
8
Geo
100
AcDbLine
10
-52.8610291009239
20
1.87024675234604
30
0.000000000000000
11
-52.7610291009239
21
1.82963644187981
31
0.000000000000000
  0
LINE
  5
F1090E
330
F1090F
100
AcDbEntity
8
Geo
100
AcDbLine
10
-52.8610291009239
20
-2.94662241175008
30
0.000000000000000
11
-52.7610291009239
21
-3.09348138321490
31
0.000000000000000
  0
LINE
  5
F10910
330
F10911
100
AcDbEntity
8
Geo
100
AcDbLine
10
-52.7610291009239
20
1.82963644187981
30
0.000000000000000
11
-52.6610291009239
21
1.78340500056565
31
0.000000000000000
  0
LINE
  5
F10912
330
F10913
100
AcDbEntity
8
Geo
100
AcDbLine
10
-52.7610291009239
20
-3.09348138321490
30
0.000000000000000
11
-52.6610291009239
21
-3.23866887802723
31
0.000000000000000
  0
LINE
  5
F10914
330
F10915
100
AcDbEntity
8
Geo
100
AcDbLine
10
-52.6610291009239
20
1.78340500056565
30
0.000000000000000
11
-52.5610291009239
21
1.73162091097244
31
0.000000000000000
  0
LINE
  5
F10916
330
F10917
100
AcDbEntity
8
Geo
100
AcDbLine
10
-52.6610291009239
20
-3.23866887802723
30
0.000000000000000
11
-52.5610291009239
21
-3.38196983015550
31
0.000000000000000
  0
LINE
  5
F10918
330
F10919
100
AcDbEntity
8
Geo
100
AcDbLine
10
-52.5610291009239
20
1.73162091097244
30
0.000000000000000
11
-52.4610291009239
21
1.67436088079919
31
0.000000000000000
  0
LINE
  5
F1091A
330
F1091B
100
AcDbEntity
8
Geo
100
AcDbLine
10
-52.5610291009239
20
-3.38196983015550
30
0.000000000000000
11
-52.4610291009239
21
-3.52317196810115
31
0.000000000000000
  0
LINE
  5
F1091C
330
F1091D
100
AcDbEntity
8
Geo
100
AcDbLine
10
-52.4610291009239
20
1.67436088079919
30
0.000000000000000
11
-52.3610291009239
21
1.61170972924792
31
0.000000000000000
  0
LINE
  5
F1091E
330
F1091F
100
AcDbEntity
8
Geo
100
AcDbLine
10
-52.4610291009239
20
-3.52317196810115
30
0.000000000000000
11
-52.3610291009239
21
-3.66206612933613
31
0.000000000000000
  0
LINE
  5
F10920
330
F10921
100
AcDbEntity
8
Geo
100
AcDbLine
10
-52.3610291009239
20
1.61170972924792
30
0.000000000000000
11
-52.2610291009239
21
1.54376026138120
31
0.000000000000000
  0
LINE
  5
F10922
330
F10923
100
AcDbEntity
8
Geo
100
AcDbLine
10
-52.3610291009239
20
-3.66206612933613
30
0.000000000000000
11
-52.2610291009239
21
-3.79844657013501
31
0.000000000000000
  0
LINE
  5
F10924
330
F10925
100
AcDbEntity
8
Geo
100
AcDbLine
10
-52.2610291009239
20
1.54376026138120
30
0.000000000000000
11
-52.1610291009239
21
1.47061313065008
31
0.000000000000000
  0
LINE
  5
F10926
330
F10927
100
AcDbEntity
8
Geo
100
AcDbLine
10
-52.2610291009239
20
-3.79844657013501
30
0.000000000000000
11
-52.1610291009239
21
-3.93211127034292
31
0.000000000000000
  0
LINE
  5
F10928
330
F10929
100
AcDbEntity
8
Geo
100
AcDbLine
10
-52.1610291009239
20
1.47061313065008
30
0.000000000000000
11
-52.0610291009239
21
1.39237668979628
31
0.000000000000000
  0
LINE
  5
F1092A
330
F1092B
100
AcDbEntity
8
Geo
100
AcDbLine
10
-52.1610291009239
20
-3.93211127034292
30
0.000000000000000
11
-52.0610291009239
21
-4.06286223262770
31
0.000000000000000
  0
LINE
  5
F1092C
330
F1092D
100
AcDbEntity
8
Geo
100
AcDbLine
10
-52.0610291009239
20
1.39237668979628
30
0.000000000000000
11
-51.9610291009239
21
1.30916683034945
31
0.000000000000000
  0
LINE
  5
F1092E
330
F1092F
100
AcDbEntity
8
Geo
100
AcDbLine
10
-52.0610291009239
20
-4.06286223262770
30
0.000000000000000
11
-51.9610291009239
21
-4.19050577577307
31
0.000000000000000
  0
LINE
  5
F10930
330
F10931
100
AcDbEntity
8
Geo
100
AcDbLine
10
-51.9610291009239
20
1.30916683034945
30
0.000000000000000
11
-51.8610291009239
21
1.22110681095720
31
0.000000000000000
  0
LINE
  5
F10932
330
F10933
100
AcDbEntity
8
Geo
100
AcDbLine
10
-51.9610291009239
20
-4.19050577577307
30
0.000000000000000
11
-51.8610291009239
21
-4.31485282157836
31
0.000000000000000
  0
LINE
  5
F10934
330
F10935
100
AcDbEntity
8
Geo
100
AcDbLine
10
-51.8610291009239
20
1.22110681095720
30
0.000000000000000
11
-51.7610291009239
21
1.12832707480221
31
0.000000000000000
  0
LINE
  5
F10936
330
F10937
100
AcDbEntity
8
Geo
100
AcDbLine
10
-51.8610291009239
20
-4.31485282157836
30
0.000000000000000
11
-51.7610291009239
21
-4.43571917493973
31
0.000000000000000
  0
LINE
  5
F10938
330
F10939
100
AcDbEntity
8
Geo
100
AcDbLine
10
-51.7610291009239
20
1.12832707480221
30
0.000000000000000
11
-51.6610291009239
21
1.03096505637699
31
0.000000000000000
  0
LINE
  5
F1093A
330
F1093B
100
AcDbEntity
8
Geo
100
AcDbLine
10
-51.7610291009239
20
-4.43571917493973
30
0.000000000000000
11
-51.6610291009239
21
-4.55292579669820
31
0.000000000000000
  0
LINE
  5
F1093C
330
F1093D
100
AcDbEntity
8
Geo
100
AcDbLine
10
-51.6610291009239
20
1.03096505637699
30
0.000000000000000
11
-51.5610291009239
21
0.929164977902295
31
0.000000000000000
  0
LINE
  5
F1093E
330
F1093F
100
AcDbEntity
8
Geo
100
AcDbLine
10
-51.6610291009239
20
-4.55292579669820
30
0.000000000000000
11
-51.5610291009239
21
-4.66629906885003
31
0.000000000000000
  0
LINE
  5
F10940
330
F10941
100
AcDbEntity
8
Geo
100
AcDbLine
10
-51.5610291009239
20
0.929164977902295
30
0.000000000000000
11
-51.4610291009239
21
0.823077635690997
31
0.000000000000000
  0
LINE
  5
F10942
330
F10943
100
AcDbEntity
8
Geo
100
AcDbLine
10
-51.5610291009239
20
-4.66629906885003
30
0.000000000000000
11
-51.4610291009239
21
-4.77567105172686
31
0.000000000000000
  0
LINE
  5
F10944
330
F10945
100
AcDbEntity
8
Geo
100
AcDbLine
10
-51.4610291009239
20
0.823077635690997
30
0.000000000000000
11
-51.3610291009239
21
0.712860176773693
31
0.000000000000000
  0
LINE
  5
F10946
330
F10947
100
AcDbEntity
8
Geo
100
AcDbLine
10
-51.4610291009239
20
-4.77567105172686
30
0.000000000000000
11
-51.3610291009239
21
-4.88087973276449
31
0.000000000000000
  0
LINE
  5
F10948
330
F10949
100
AcDbEntity
8
Geo
100
AcDbLine
10
-51.3610291009239
20
0.712860176773693
30
0.000000000000000
11
-51.2610291009239
21
0.598675866117041
31
0.000000000000000
  0
LINE
  5
F1094A
330
F1094B
100
AcDbEntity
8
Geo
100
AcDbLine
10
-51.3610291009239
20
-4.88087973276449
30
0.000000000000000
11
-51.2610291009239
21
-4.98176926649189
31
0.000000000000000
  0
LINE
  5
F1094C
330
F1094D
100
AcDbEntity
8
Geo
100
AcDbLine
10
-51.2610291009239
20
0.598675866117041
30
0.000000000000000
11
-51.1610291009239
21
0.480693844779601
31
0.000000000000000
  0
LINE
  5
F1094E
330
F1094F
100
AcDbEntity
8
Geo
100
AcDbLine
10
-51.2610291009239
20
-4.98176926649189
30
0.000000000000000
11
-51.1610291009239
21
-5.07819020538484
31
0.000000000000000
  0
LINE
  5
F10950
330
F10951
100
AcDbEntity
8
Geo
100
AcDbLine
10
-51.1610291009239
20
0.480693844779601
30
0.000000000000000
11
-51.0610291009239
21
0.359088879363409
31
0.000000000000000
  0
LINE
  5
F10952
330
F10953
100
AcDbEntity
8
Geo
100
AcDbLine
10
-51.1610291009239
20
-5.07819020538484
30
0.000000000000000
11
-51.0610291009239
21
-5.16999972124236
31
0.000000000000000
  0
LINE
  5
F10954
330
F10955
100
AcDbEntity
8
Geo
100
AcDbLine
10
-51.0610291009239
20
0.359088879363409
30
0.000000000000000
11
-50.9610291009239
21
0.234041103132461
31
0.000000000000000
  0
LINE
  5
F10956
330
F10957
100
AcDbEntity
8
Geo
100
AcDbLine
10
-51.0610291009239
20
-5.16999972124236
30
0.000000000000000
11
-50.9610291009239
21
-5.25706181675792
31
0.000000000000000
  0
LINE
  5
F10958
330
F10959
100
AcDbEntity
8
Geo
100
AcDbLine
10
-50.9610291009239
20
0.234041103132461
30
0.000000000000000
11
-50.8610291009239
21
0.105735749181568
31
0.000000000000000
  0
LINE
  5
F1095A
330
F1095B
100
AcDbEntity
8
Geo
100
AcDbLine
10
-50.9610291009239
20
-5.25706181675792
30
0.000000000000000
11
-50.8610291009239
21
-5.33924752697206
31
0.000000000000000
  0
LINE
  5
F1095C
330
F1095D
100
AcDbEntity
8
Geo
100
AcDbLine
10
-50.8610291009239
20
0.105735749181568
30
0.000000000000000
11
-50.7610291009239
21
-0.0256371239491739
31
0.000000000000000
  0
LINE
  5
F1095E
330
F1095F
100
AcDbEntity
8
Geo
100
AcDbLine
10
-50.8610291009239
20
-5.33924752697206
30
0.000000000000000
11
-50.7610291009239
21
-5.41643511030798
31
0.000000000000000
  0
LINE
  5
F10960
330
F10961
100
AcDbEntity
8
Geo
100
AcDbLine
10
-50.7610291009239
20
-0.0256371239491739
30
0.000000000000000
11
-50.6610291009239
21
-0.159882913807826
31
0.000000000000000
  0
LINE
  5
F10962
330
F10963
100
AcDbEntity
8
Geo
100
AcDbLine
10
-50.7610291009239
20
-5.41643511030798
30
0.000000000000000
11
-50.6610291009239
21
-5.48851022890721
31
0.000000000000000
  0
LINE
  5
F10964
330
F10965
100
AcDbEntity
8
Geo
100
AcDbLine
10
-50.6610291009239
20
-0.159882913807826
30
0.000000000000000
11
-50.5610291009239
21
-0.296802762294946
31
0.000000000000000
  0
LINE
  5
F10966
330
F10967
100
AcDbEntity
8
Geo
100
AcDbLine
10
-50.6610291009239
20
-5.48851022890721
30
0.000000000000000
11
-50.5610291009239
21
-5.55536611799808
31
0.000000000000000
  0
LINE
  5
F10968
330
F10969
100
AcDbEntity
8
Geo
100
AcDbLine
10
-50.5610291009239
20
-0.296802762294946
30
0.000000000000000
11
-50.4610291009239
21
-0.436193850231813
31
0.000000000000000
  0
LINE
  5
F1096A
330
F1096B
100
AcDbEntity
8
Geo
100
AcDbLine
10
-50.5610291009239
20
-5.55536611799808
30
0.000000000000000
11
-50.4610291009239
21
-5.61690374404623
31
0.000000000000000
  0
LINE
  5
F1096C
330
F1096D
100
AcDbEntity
8
Geo
100
AcDbLine
10
-50.4610291009239
20
-0.436193850231813
30
0.000000000000000
11
-50.3610291009239
21
-0.577849697796190
31
0.000000000000000
  0
LINE
  5
F1096E
330
F1096F
100
AcDbEntity
8
Geo
100
AcDbLine
10
-50.4610291009239
20
-5.61690374404623
30
0.000000000000000
11
-50.3610291009239
21
-5.67303195145288
31
0.000000000000000
  0
LINE
  5
F10970
330
F10971
100
AcDbEntity
8
Geo
100
AcDbLine
10
-50.3610291009239
20
-0.577849697796190
30
0.000000000000000
11
-50.2610291009239
21
-0.721560470380596
31
0.000000000000000
  0
LINE
  5
F10972
330
F10973
100
AcDbEntity
8
Geo
100
AcDbLine
10
-50.3610291009239
20
-5.67303195145288
30
0.000000000000000
11
-50.2610291009239
21
-5.72366759758345
31
0.000000000000000
  0
LINE
  5
F10974
330
F10975
100
AcDbEntity
8
Geo
100
AcDbLine
10
-50.2610291009239
20
-0.721560470380596
30
0.000000000000000
11
-50.1610291009239
21
-0.867113289420002
31
0.000000000000000
  0
LINE
  5
F10976
330
F10977
100
AcDbEntity
8
Geo
100
AcDbLine
10
-50.2610291009239
20
-5.72366759758345
30
0.000000000000000
11
-50.1610291009239
21
-5.76873567592664
31
0.000000000000000
  0
LINE
  5
F10978
330
F10979
100
AcDbEntity
8
Geo
100
AcDbLine
10
-50.1610291009239
20
-0.867113289420002
30
0.000000000000000
11
-50.0610291009239
21
-1.01429254772857
31
0.000000000000000
  0
LINE
  5
F1097A
330
F1097B
100
AcDbEntity
8
Geo
100
AcDbLine
10
-50.1610291009239
20
-5.76873567592664
30
0.000000000000000
11
-50.0610291009239
21
-5.80816942720148
31
0.000000000000000
  0
LINE
  5
F1097C
330
F1097D
100
AcDbEntity
8
Geo
100
AcDbLine
10
-50.0610291009239
20
-1.01429254772857
30
0.000000000000000
11
-49.9610291009239
21
-1.16288022887826
31
0.000000000000000
  0
LINE
  5
F1097E
330
F1097F
100
AcDbEntity
8
Geo
100
AcDbLine
10
-50.0610291009239
20
-5.80816942720148
30
0.000000000000000
11
-49.9610291009239
21
-5.84191043824774
31
0.000000000000000
  0
LINE
  5
F10980
330
F10981
100
AcDbEntity
8
Geo
100
AcDbLine
10
-49.9610291009239
20
-1.16288022887826
30
0.000000000000000
11
-49.8610291009239
21
-1.31265623014626
31
0.000000000000000
  0
LINE
  5
F10982
330
F10983
100
AcDbEntity
8
Geo
100
AcDbLine
10
-49.9610291009239
20
-5.84191043824774
30
0.000000000000000
11
-49.8610291009239
21
-5.86990872855328
31
0.000000000000000
  0
LINE
  5
F10984
330
F10985
100
AcDbEntity
8
Geo
100
AcDbLine
10
-49.8610291009239
20
-1.31265623014626
30
0.000000000000000
11
-49.7610291009239
21
-1.46339868855285
31
0.000000000000000
  0
LINE
  5
F10986
330
F10987
100
AcDbEntity
8
Geo
100
AcDbLine
10
-49.8610291009239
20
-5.86990872855328
30
0.000000000000000
11
-49.7610291009239
21
-5.89212282429011
31
0.000000000000000
  0
LINE
  5
F10988
330
F10989
100
AcDbEntity
8
Geo
100
AcDbLine
10
-49.7610291009239
20
-1.46339868855285
30
0.000000000000000
11
-49.6610291009239
21
-1.61488430950669
31
0.000000000000000
  0
LINE
  5
F1098A
330
F1098B
100
AcDbEntity
8
Geo
100
AcDbLine
10
-49.7610291009239
20
-5.89212282429011
30
0.000000000000000
11
-49.6610291009239
21
-5.90851981974949
31
0.000000000000000
  0
LINE
  5
F1098C
330
F1098D
100
AcDbEntity
8
Geo
100
AcDbLine
10
-49.6610291009239
20
-1.61488430950669
30
0.000000000000000
11
-49.5610291009239
21
-1.76688869757083
31
0.000000000000000
  0
LINE
  5
F1098E
330
F1098F
100
AcDbEntity
8
Geo
100
AcDbLine
10
-49.6610291009239
20
-5.90851981974949
30
0.000000000000000
11
-49.5610291009239
21
-5.91907542608516
31
0.000000000000000
  0
LINE
  5
F10990
330
F10991
100
AcDbEntity
8
Geo
100
AcDbLine
10
-49.5610291009239
20
-1.76688869757083
30
0.000000000000000
11
-49.4610291009239
21
-1.91918668885930
31
0.000000000000000
  0
LINE
  5
F10992
330
F10993
100
AcDbEntity
8
Geo
100
AcDbLine
10
-49.5610291009239
20
-5.91907542608516
30
0.000000000000000
11
-49.4610291009239
21
-5.92377400729231
31
0.000000000000000
  0
LINE
  5
F10994
330
F10995
100
AcDbEntity
8
Geo
100
AcDbLine
10
-49.4610291009239
20
-1.91918668885930
30
0.000000000000000
11
-49.3610291009239
21
-2.07155268457214
31
0.000000000000000
  0
LINE
  5
F10996
330
F10997
100
AcDbEntity
8
Geo
100
AcDbLine
10
-49.3610291009239
20
1.99241791786789
30
0.000000000000000
11
-49.2610291009239
21
1.98539025512574
31
0.000000000000000
  0
LINE
  5
F10998
330
F10999
100
AcDbEntity
8
Geo
100
AcDbLine
10
-49.3610291009239
20
-2.07155268457214
30
0.000000000000000
11
-49.2610291009239
21
-2.22376098517447
31
0.000000000000000
  0
LINE
  5
F1099A
330
F1099B
100
AcDbEntity
8
Geo
100
AcDbLine
10
-49.2610291009239
20
1.98539025512574
30
0.000000000000000
11
-49.1610291009239
21
1.97251074363146
31
0.000000000000000
  0
LINE
  5
F1099C
330
F1099D
100
AcDbEntity
8
Geo
100
AcDbLine
10
-49.2610291009239
20
-2.22376098517447
30
0.000000000000000
11
-49.1610291009239
21
-2.37558612472499
31
0.000000000000000
  0
LINE
  5
F1099E
330
F1099F
100
AcDbEntity
8
Geo
100
AcDbLine
10
-49.1610291009239
20
1.97251074363146
30
0.000000000000000
11
-49.0610291009239
21
1.95379846178728
31
0.000000000000000
  0
LINE
  5
F109A0
330
F109A1
100
AcDbEntity
8
Geo
100
AcDbLine
10
-49.1610291009239
20
-2.37558612472499
30
0.000000000000000
11
-49.0610291009239
21
-2.52680320485832
31
0.000000000000000
  0
LINE
  5
F109A2
330
F109A3
100
AcDbEntity
8
Geo
100
AcDbLine
10
-49.0610291009239
20
1.95379846178728
30
0.000000000000000
11
-48.9610291009239
21
1.92928112806994
31
0.000000000000000
  0
LINE
  5
F109A4
330
F109A5
100
AcDbEntity
8
Geo
100
AcDbLine
10
-49.0610291009239
20
-2.52680320485832
30
0.000000000000000
11
-48.9610291009239
21
-2.67718822792665
31
0.000000000000000
  0
LINE
  5
F109A6
330
F109A7
100
AcDbEntity
8
Geo
100
AcDbLine
10
-48.9610291009239
20
1.92928112806994
30
0.000000000000000
11
-48.8610291009239
21
1.89899505997136
31
0.000000000000000
  0
LINE
  5
F109A8
330
F109A9
100
AcDbEntity
8
Geo
100
AcDbLine
10
-48.9610291009239
20
-2.67718822792665
30
0.000000000000000
11
-48.8610291009239
21
-2.82651842880709
31
0.000000000000000
  0
LINE
  5
F109AA
330
F109AB
100
AcDbEntity
8
Geo
100
AcDbLine
10
-48.8610291009239
20
1.89899505997136
30
0.000000000000000
11
-48.7610291009239
21
1.86298512020154
31
0.000000000000000
  0
LINE
  5
F109AC
330
F109AD
100
AcDbEntity
8
Geo
100
AcDbLine
10
-48.8610291009239
20
-2.82651842880709
30
0.000000000000000
11
-48.7610291009239
21
-2.97457260488342
31
0.000000000000000
  0
LINE
  5
F109AE
330
F109AF
100
AcDbEntity
8
Geo
100
AcDbLine
10
-48.7610291009239
20
1.86298512020154
30
0.000000000000000
11
-48.6610291009239
21
1.82130465023356
31
0.000000000000000
  0
LINE
  5
F109B0
330
F109B1
100
AcDbEntity
8
Geo
100
AcDbLine
10
-48.7610291009239
20
-2.97457260488342
30
0.000000000000000
11
-48.6610291009239
21
-3.12113144371314
31
0.000000000000000
  0
LINE
  5
F109B2
330
F109B3
100
AcDbEntity
8
Geo
100
AcDbLine
10
-48.6610291009239
20
1.82130465023356
30
0.000000000000000
11
-48.5610291009239
21
1.77401539128886
31
0.000000000000000
  0
LINE
  5
F109B4
330
F109B5
100
AcDbEntity
8
Geo
100
AcDbLine
10
-48.6610291009239
20
-3.12113144371314
30
0.000000000000000
11
-48.5610291009239
21
-3.26597784789470
31
0.000000000000000
  0
LINE
  5
F109B6
330
F109B7
100
AcDbEntity
8
Geo
100
AcDbLine
10
-48.5610291009239
20
1.77401539128886
30
0.000000000000000
11
-48.4610291009239
21
1.72118739288013
31
0.000000000000000
  0
LINE
  5
F109B8
330
F109B9
100
AcDbEntity
8
Geo
100
AcDbLine
10
-48.5610291009239
20
-3.26597784789470
30
0.000000000000000
11
-48.4610291009239
21
-3.40889725665360
31
0.000000000000000
  0
LINE
  5
F109BA
330
F109BB
100
AcDbEntity
8
Geo
100
AcDbLine
10
-48.4610291009239
20
1.72118739288013
30
0.000000000000000
11
-48.3610291009239
21
1.66289890904700
31
0.000000000000000
  0
LINE
  5
F109BC
330
F109BD
100
AcDbEntity
8
Geo
100
AcDbLine
10
-48.4610291009239
20
-3.40889725665360
30
0.000000000000000
11
-48.3610291009239
21
-3.54967796367094
31
0.000000000000000
  0
LINE
  5
F109BE
330
F109BF
100
AcDbEntity
8
Geo
100
AcDbLine
10
-48.3610291009239
20
1.66289890904700
30
0.000000000000000
11
-48.2610291009239
21
1.59923628243847
31
0.000000000000000
  0
LINE
  5
F109C0
330
F109C1
100
AcDbEntity
8
Geo
100
AcDbLine
10
-48.3610291009239
20
-3.54967796367094
30
0.000000000000000
11
-48.2610291009239
21
-3.68811143068369
31
0.000000000000000
  0
LINE
  5
F109C2
330
F109C3
100
AcDbEntity
8
Geo
100
AcDbLine
10
-48.2610291009239
20
1.59923628243847
30
0.000000000000000
11
-48.1610291009239
21
1.53029381641368
31
0.000000000000000
  0
LINE
  5
F109C4
330
F109C5
100
AcDbEntity
8
Geo
100
AcDbLine
10
-48.2610291009239
20
-3.68811143068369
30
0.000000000000000
11
-48.1610291009239
21
-3.82399259639214
31
0.000000000000000
  0
LINE
  5
F109C6
330
F109C7
100
AcDbEntity
8
Geo
100
AcDbLine
10
-48.1610291009239
20
1.53029381641368
30
0.000000000000000
11
-48.0610291009239
21
1.45617363535045
31
0.000000000000000
  0
LINE
  5
F109C8
330
F109C9
100
AcDbEntity
8
Geo
100
AcDbLine
10
-48.1610291009239
20
-3.82399259639214
30
0.000000000000000
11
-48.0610291009239
21
-3.95712018021691
31
0.000000000000000
  0
LINE
  5
F109CA
330
F109CB
100
AcDbEntity
8
Geo
100
AcDbLine
10
-48.0610291009239
20
1.45617363535045
30
0.000000000000000
11
-47.9610291009239
21
1.37698553336859
31
0.000000000000000
  0
LINE
  5
F109CC
330
F109CD
100
AcDbEntity
8
Geo
100
AcDbLine
10
-48.0610291009239
20
-3.95712018021691
30
0.000000000000000
11
-47.9610291009239
21
-4.08729698045557
31
0.000000000000000
  0
LINE
  5
F109CE
330
F109CF
100
AcDbEntity
8
Geo
100
AcDbLine
10
-47.9610291009239
20
1.37698553336859
30
0.000000000000000
11
-47.8610291009239
21
1.29284681169204
31
0.000000000000000
  0
LINE
  5
F109D0
330
F109D1
100
AcDbEntity
8
Geo
100
AcDbLine
10
-47.9610291009239
20
-4.08729698045557
30
0.000000000000000
11
-47.8610291009239
21
-4.21433016639729
31
0.000000000000000
  0
LINE
  5
F109D2
330
F109D3
100
AcDbEntity
8
Geo
100
AcDbLine
10
-47.8610291009239
20
1.29284681169204
30
0.000000000000000
11
-47.7610291009239
21
1.20388210489071
31
0.000000000000000
  0
LINE
  5
F109D4
330
F109D5
100
AcDbEntity
8
Geo
100
AcDbLine
10
-47.8610291009239
20
-4.21433016639729
30
0.000000000000000
11
-47.7610291009239
21
-4.33803156396264
31
0.000000000000000
  0
LINE
  5
F109D6
330
F109D7
100
AcDbEntity
8
Geo
100
AcDbLine
10
-47.7610291009239
20
1.20388210489071
30
0.000000000000000
11
-47.6610291009239
21
1.11022319625950
31
0.000000000000000
  0
LINE
  5
F109D8
330
F109D9
100
AcDbEntity
8
Geo
100
AcDbLine
10
-47.7610291009239
20
-4.33803156396264
30
0.000000000000000
11
-47.6610291009239
21
-4.45821793444563
31
0.000000000000000
  0
LINE
  5
F109DA
330
F109DB
100
AcDbEntity
8
Geo
100
AcDbLine
10
-47.6610291009239
20
1.11022319625950
30
0.000000000000000
11
-47.5610291009239
21
1.01200882260783
31
0.000000000000000
  0
LINE
  5
F109DC
330
F109DD
100
AcDbEntity
8
Geo
100
AcDbLine
10
-47.6610291009239
20
-4.45821793444563
30
0.000000000000000
11
-47.5610291009239
21
-4.57471124594495
31
0.000000000000000
  0
LINE
  5
F109DE
330
F109DF
100
AcDbEntity
8
Geo
100
AcDbLine
10
-47.5610291009239
20
1.01200882260783
30
0.000000000000000
11
-47.4610291009239
21
0.909384468749071
31
0.000000000000000
  0
LINE
  5
F109E0
330
F109E1
100
AcDbEntity
8
Geo
100
AcDbLine
10
-47.5610291009239
20
-4.57471124594495
30
0.000000000000000
11
-47.4610291009239
21
-4.68733893708235
31
0.000000000000000
  0
LINE
  5
F109E2
330
F109E3
100
AcDbEntity
8
Geo
100
AcDbLine
10
-47.4610291009239
20
0.909384468749071
30
0.000000000000000
11
-47.3610291009239
21
0.802502151994058
31
0.000000000000000
  0
LINE
  5
F109E4
330
F109E5
100
AcDbEntity
8
Geo
100
AcDbLine
10
-47.4610291009239
20
-4.68733893708235
30
0.000000000000000
11
-47.3610291009239
21
-4.79593417261756
31
0.000000000000000
  0
LINE
  5
F109E6
330
F109E7
100
AcDbEntity
8
Geo
100
AcDbLine
10
-47.3610291009239
20
0.802502151994058
30
0.000000000000000
11
-47.2610291009239
21
0.691520196968062
31
0.000000000000000
  0
LINE
  5
F109E8
330
F109E9
100
AcDbEntity
8
Geo
100
AcDbLine
10
-47.3610291009239
20
-4.79593417261756
30
0.000000000000000
11
-47.2610291009239
21
-4.90033609058114
31
0.000000000000000
  0
LINE
  5
F109EA
330
F109EB
100
AcDbEntity
8
Geo
100
AcDbLine
10
-47.2610291009239
20
0.691520196968062
30
0.000000000000000
11
-47.1610291009239
21
0.576603001084752
31
0.000000000000000
  0
LINE
  5
F109EC
330
F109ED
100
AcDbEntity
8
Geo
100
AcDbLine
10
-47.2610291009239
20
-4.90033609058114
30
0.000000000000000
11
-47.1610291009239
21
-5.00039004055905
31
0.000000000000000
  0
LINE
  5
F109EE
330
F109EF
100
AcDbEntity
8
Geo
100
AcDbLine
10
-47.1610291009239
20
0.576603001084752
30
0.000000000000000
11
-47.0610291009239
21
0.457920791024534
31
0.000000000000000
  0
LINE
  5
F109F0
330
F109F1
100
AcDbEntity
8
Geo
100
AcDbLine
10
-47.1610291009239
20
-5.00039004055905
30
0.000000000000000
11
-47.0610291009239
21
-5.09594781277612
31
0.000000000000000
  0
LINE
  5
F109F2
330
F109F3
100
AcDbEntity
8
Geo
100
AcDbLine
10
-47.0610291009239
20
0.457920791024534
30
0.000000000000000
11
-46.9610291009239
21
0.335649370578015
31
0.000000000000000
  0
LINE
  5
F109F4
330
F109F5
100
AcDbEntity
8
Geo
100
AcDbLine
10
-47.0610291009239
20
-5.09594781277612
30
0.000000000000000
11
-46.9610291009239
21
-5.18686785763895
31
0.000000000000000
  0
LINE
  5
F109F6
330
F109F7
100
AcDbEntity
8
Geo
100
AcDbLine
10
-46.9610291009239
20
0.335649370578015
30
0.000000000000000
11
-46.8610291009239
21
0.209969860228092
31
0.000000000000000
  0
LINE
  5
F109F8
330
F109F9
100
AcDbEntity
8
Geo
100
AcDbLine
10
-46.9610291009239
20
-5.18686785763895
30
0.000000000000000
11
-46.8610291009239
21
-5.27301549541312
31
0.000000000000000
  0
LINE
  5
F109FA
330
F109FB
100
AcDbEntity
8
Geo
100
AcDbLine
10
-46.8610291009239
20
0.209969860228092
30
0.000000000000000
11
-46.7610291009239
21
0.0810684288564336
31
0.000000000000000
  0
LINE
  5
F109FC
330
F109FD
100
AcDbEntity
8
Geo
100
AcDbLine
10
-46.8610291009239
20
-5.27301549541312
30
0.000000000000000
11
-46.7610291009239
21
-5.35426311572414
31
0.000000000000000
  0
LINE
  5
F109FE
330
F109FF
100
AcDbEntity
8
Geo
100
AcDbLine
10
-46.7610291009239
20
0.0810684288564336
30
0.000000000000000
11
-46.6610291009239
21
-0.0508639820282171
31
0.000000000000000
  0
LINE
  5
F10A00
330
F10A01
100
AcDbEntity
8
Geo
100
AcDbLine
10
-46.7610291009239
20
-5.35426311572414
30
0.000000000000000
11
-46.6610291009239
21
-5.43049036658649
31
0.000000000000000
  0
LINE
  5
F10A02
330
F10A03
100
AcDbEntity
8
Geo
100
AcDbLine
10
-46.6610291009239
20
-0.0508639820282171
30
0.000000000000000
11
-46.5610291009239
21
-0.185631941131435
31
0.000000000000000
  0
LINE
  5
F10A04
330
F10A05
100
AcDbEntity
8
Geo
100
AcDbLine
10
-46.6610291009239
20
-5.43049036658649
30
0.000000000000000
11
-46.5610291009239
21
-5.50158433268081
31
0.000000000000000
  0
LINE
  5
F10A06
330
F10A07
100
AcDbEntity
8
Geo
100
AcDbLine
10
-46.5610291009239
20
-0.185631941131435
30
0.000000000000000
11
-46.4610291009239
21
-0.323035816865213
31
0.000000000000000
  0
LINE
  5
F10A08
330
F10A09
100
AcDbEntity
8
Geo
100
AcDbLine
10
-46.5610291009239
20
-5.50158433268081
30
0.000000000000000
11
-46.4610291009239
21
-5.56743970261526
31
0.000000000000000
  0
LINE
  5
F10A0A
330
F10A0B
100
AcDbEntity
8
Geo
100
AcDbLine
10
-46.4610291009239
20
-0.323035816865213
30
0.000000000000000
11
-46.3610291009239
21
-0.462872073061949
31
0.000000000000000
  0
LINE
  5
F10A0C
330
F10A0D
100
AcDbEntity
8
Geo
100
AcDbLine
10
-46.4610291009239
20
-5.56743970261526
30
0.000000000000000
11
-46.3610291009239
21
-5.62795892492310
31
0.000000000000000
  0
LINE
  5
F10A0E
330
F10A0F
100
AcDbEntity
8
Geo
100
AcDbLine
10
-46.3610291009239
20
-0.462872073061949
30
0.000000000000000
11
-46.2610291009239
21
-0.604933570472294
31
0.000000000000000
  0
LINE
  5
F10A10
330
F10A11
100
AcDbEntity
8
Geo
100
AcDbLine
10
-46.3610291009239
20
-5.62795892492310
30
0.000000000000000
11
-46.2610291009239
21
-5.68305235256559
31
0.000000000000000
  0
LINE
  5
F10A12
330
F10A13
100
AcDbEntity
8
Geo
100
AcDbLine
10
-46.2610291009239
20
-0.604933570472294
30
0.000000000000000
11
-46.1610291009239
21
-0.749009873600214
31
0.000000000000000
  0
LINE
  5
F10A14
330
F10A15
100
AcDbEntity
8
Geo
100
AcDbLine
10
-46.2610291009239
20
-5.68305235256559
30
0.000000000000000
11
-46.1610291009239
21
-5.73263837572594
31
0.000000000000000
  0
LINE
  5
F10A16
330
F10A17
100
AcDbEntity
8
Geo
100
AcDbLine
10
-46.1610291009239
20
-0.749009873600214
30
0.000000000000000
11
-46.0610291009239
21
-0.894887562420811
31
0.000000000000000
  0
LINE
  5
F10A18
330
F10A19
100
AcDbEntity
8
Geo
100
AcDbLine
10
-46.1610291009239
20
-5.73263837572594
30
0.000000000000000
11
-46.0610291009239
21
-5.77664354269787
31
0.000000000000000
  0
LINE
  5
F10A1A
330
F10A1B
100
AcDbEntity
8
Geo
100
AcDbLine
10
-46.0610291009239
20
-0.894887562420811
30
0.000000000000000
11
-45.9610291009239
21
-1.04235054851909
31
0.000000000000000
  0
LINE
  5
F10A1C
330
F10A1D
100
AcDbEntity
8
Geo
100
AcDbLine
10
-46.0610291009239
20
-5.77664354269787
30
0.000000000000000
11
-45.9610291009239
21
-5.81500266868955
31
0.000000000000000
  0
LINE
  5
F10A1E
330
F10A1F
100
AcDbEntity
8
Geo
100
AcDbLine
10
-45.9610291009239
20
-1.04235054851909
30
0.000000000000000
11
-45.8610291009239
21
-1.19118039518144
31
0.000000000000000
  0
LINE
  5
F10A20
330
F10A21
100
AcDbEntity
8
Geo
100
AcDbLine
10
-45.9610291009239
20
-5.81500266868955
30
0.000000000000000
11
-45.8610291009239
21
-5.84765893238165
31
0.000000000000000
  0
LINE
  5
F10A22
330
F10A23
100
AcDbEntity
8
Geo
100
AcDbLine
10
-45.8610291009239
20
-1.19118039518144
30
0.000000000000000
11
-45.7610291009239
21
-1.34115664096562
31
0.000000000000000
  0
LINE
  5
F10A24
330
F10A25
100
AcDbEntity
8
Geo
100
AcDbLine
10
-45.8610291009239
20
-5.84765893238165
30
0.000000000000000
11
-45.7610291009239
21
-5.87456396009678
31
0.000000000000000
  0
LINE
  5
F10A26
330
F10A27
100
AcDbEntity
8
Geo
100
AcDbLine
10
-45.7610291009239
20
-1.34115664096562
30
0.000000000000000
11
-45.6610291009239
21
-1.49205712626997
31
0.000000000000000
  0
LINE
  5
F10A28
330
F10A29
100
AcDbEntity
8
Geo
100
AcDbLine
10
-45.7610291009239
20
-5.87456396009678
30
0.000000000000000
11
-45.6610291009239
21
-5.89567789745526
31
0.000000000000000
  0
LINE
  5
F10A2A
330
F10A2B
100
AcDbEntity
8
Geo
100
AcDbLine
10
-65.5610291009239
20
-1.96509534275066
30
0.000000000000000
11
-65.5610291009239
21
-1.96509534275066
31
0.000000000000000
  0
LINE
  5
F10A2C
330
F10A2D
100
AcDbEntity
8
Geo
100
AcDbLine
10
-65.5610291009239
20
-1.96509534275066
30
0.000000000000000
11
-65.5610291009239
21
-1.96509534275066
31
0.000000000000000
  0
LINE
  5
F10A2E
330
F10A2F
100
AcDbEntity
8
Geo
100
AcDbLine
10
-66.5610291009239
20
-1.96509534275066
30
0.000000000000000
11
-66.2610291009239
21
-1.96509534275066
31
0.000000000000000
  0
LINE
  5
F10A30
330
F10A31
100
AcDbEntity
8
Geo
100
AcDbLine
10
-66.1335291009239
20
-1.96509534275066
30
0.000000000000000
11
-66.0485291009239
21
-1.96509534275066
31
0.000000000000000
  0
LINE
  5
F10A32
330
F10A33
100
AcDbEntity
8
Geo
100
AcDbLine
10
-65.8360291009239
20
-1.96509534275066
30
0.000000000000000
11
-65.4110291009239
21
-1.96509534275066
31
0.000000000000000
  0
LINE
  5
F10A34
330
F10A35
100
AcDbEntity
8
Geo
100
AcDbLine
10
-65.2835291009239
20
-1.96509534275066
30
0.000000000000000
11
-65.1985291009239
21
-1.96509534275066
31
0.000000000000000
  0
LINE
  5
F10A36
330
F10A37
100
AcDbEntity
8
Geo
100
AcDbLine
10
-64.9860291009239
20
-1.96509534275066
30
0.000000000000000
11
-64.5610291009239
21
-1.96509534275066
31
0.000000000000000
  0
LINE
  5
F10A38
330
F10A39
100
AcDbEntity
8
Geo
100
AcDbLine
10
-1.56102910092389
20
1.53490465724934
30
0.000000000000000
11
-1.56102910092389
21
-1.96509534275066
31
0.000000000000000
  0
LINE
  5
F10A3A
330
F10A3B
100
AcDbEntity
8
Geo
100
AcDbLine
10
-65.4388064077028
20
-1.96509534275066
30
0.000000000000000
11
-65.5610291009239
21
-5.46509534275066
31
0.000000000000000
  0
LINE
  5
F10A3C
330
F10A3D
100
AcDbEntity
8
Geo
100
AcDbLine
10
-65.5610291009239
20
-5.46509534275066
30
0.000000000000000
11
-65.0610291009239
21
-5.96509534275066
31
0.000000000000000
  0
LINE
  5
F10A3E
330
F10A3F
100
AcDbEntity
8
Geo
100
AcDbLine
10
-65.0610291009239
20
-5.96509534275066
30
0.000000000000000
11
-45.5610291009239
21
-5.96509534275066
31
0.000000000000000
  0
LINE
  5
F10A40
330
F10A41
100
AcDbEntity
8
Geo
100
AcDbLine
10
-45.5610291009239
20
-5.96509534275066
30
0.000000000000000
11
-2.06102910092389
21
-5.96509534275066
31
0.000000000000000
  0
LINE
  5
F10A42
330
F10A43
100
AcDbEntity
8
Geo
100
AcDbLine
10
-2.06102910092389
20
-5.96509534275066
30
0.000000000000000
11
-1.56102910092389
21
-5.46509534275066
31
0.000000000000000
  0
LINE
  5
F10A44
330
F10A45
100
AcDbEntity
8
Geo
100
AcDbLine
10
-65.5610291009239
20
1.53490465724934
30
0.000000000000000
11
-65.5610291009239
21
-5.46509534275066
31
0.000000000000000
  0
LINE
  5
F10A46
330
F10A47
100
AcDbEntity
8
Geo
100
AcDbLine
10
-65.0610291009239
20
2.03490465724934
30
0.000000000000000
11
-65.0610291009239
21
-5.96509534275066
31
0.000000000000000
  0
LINE
  5
F10A48
330
F10A49
100
AcDbEntity
8
Geo
100
AcDbLine
10
-65.0610291009239
20
2.03490465724934
30
0.000000000000000
11
-65.0610291009239
21
-5.96509534275066
31
0.000000000000000
  0
LINE
  5
F10A4A
330
F10A4B
100
AcDbEntity
8
Geo
100
AcDbLine
10
-45.5610291009239
20
2.03490465724934
30
0.000000000000000
11
-45.5610291009239
21
-5.96509534275066
31
0.000000000000000
  0
LINE
  5
F10A4C
330
F10A4D
100
AcDbEntity
8
Geo
100
AcDbLine
10
-45.5610291009239
20
2.03490465724934
30
0.000000000000000
11
-45.5610291009239
21
-5.96509534275066
31
0.000000000000000
  0
LINE
  5
F10A4E
330
F10A4F
100
AcDbEntity
8
Geo
100
AcDbLine
10
-2.06102910092389
20
2.03490465724934
30
0.000000000000000
11
-2.06102910092389
21
-5.96509534275066
31
0.000000000000000
  0
LINE
  5
F10A50
330
F10A51
100
AcDbEntity
8
Geo
100
AcDbLine
10
-1.56102910092389
20
1.53490465724934
30
0.000000000000000
11
-1.56102910092389
21
-5.46509534275066
31
0.000000000000000
  0
LWPOLYLINE
  5
F10A52
330
F10A53
100
AcDbEntity
8
Rahmen
100
AcDbPolyline
90
   4
70
   1
43
   0.0
 10
-125.688441052115
 20
102.994852221025
 10
134.379139869447
 20
102.994852221025
 10
134.379139869447
 20
-103.161922335125
 10
-125.688441052115
 20
-103.161922335125
  0
TEXT
  5
F10A54
330
F10A55
 100
AcDbEntity
8
Text
100
AcDbText
10
-124.531556795347
20
-102.661922335125
30
0.000000000000000
40
1.00000000000000
1
ISBESketcher
100
AcDbText
  0
LWPOLYLINE
  5
F10A56
330
F10A57
100
AcDbEntity
8
Rahmen
100
AcDbPolyline
90
   4
70
   1
43
   0.0
 10
94.3509445852565
 20
-100.154023267527
 10
134.379139869447
 20
-100.154023267527
 10
134.379139869447
 20
-103.161922335125
 10
94.3509445852565
 20
-103.161922335125
  0
TEXT
  5
F10A58
330
F10A59
 100
AcDbEntity
8
Text
100
AcDbText
10
95.5000000000000
20
-101.944130554061
30
0.000000000000000
40
0.750000000000000
1
Created by:
100
AcDbText
  0
TEXT
  5
F10A5A
330
F10A5B
 100
AcDbEntity
8
Text
100
AcDbText
10
120.301919912140
20
-101.944130554061
30
0.000000000000000
40
0.750000000000000
1
nsarkol
100
AcDbText
  0
LWPOLYLINE
  5
F10A5C
330
F10A5D
100
AcDbEntity
8
Rahmen
100
AcDbPolyline
90
   4
70
   1
43
   0.0
 10
54.3227493010658
 20
-100.154023267527
 10
94.3509445852565
 20
-100.154023267527
 10
94.3509445852565
 20
-103.161922335125
 10
54.3227493010658
 20
-103.161922335125
  0
TEXT
  5
F10A5E
330
F10A5F
 100
AcDbEntity
8
Text
100
AcDbText
10
55.5000000000000
20
-101.944130554061
30
0.000000000000000
40
0.750000000000000
1
Created for:
100
AcDbText
  0
TEXT
  5
F10A60
330
F10A61
 100
AcDbEntity
8
Text
100
AcDbText
10
0.000000000000000
20
0.250000000000000
30
0.000000000000000
40
0.750000000000000
1

100
AcDbText
  0
LWPOLYLINE
  5
F10A62
330
F10A63
100
AcDbEntity
8
Rahmen
100
AcDbPolyline
90
   4
70
   1
43
   0.0
 10
120.959282490932
 20
-97.1461241999287
 10
134.379139869447
 20
-97.1461241999287
 10
134.379139869447
 20
-100.154023267527
 10
120.959282490932
 20
-100.154023267527
  0
TEXT
  5
F10A64
330
F10A65
 100
AcDbEntity
8
Text
100
AcDbText
10
122.166666666667
20
-98.9441305540611
30
0.000000000000000
40
0.750000000000000
1
Pages
100
AcDbText
  0
TEXT
  5
F10A66
330
F10A67
 100
AcDbEntity
8
Text
100
AcDbText
10
0.000000000000000
20
0.250000000000000
30
0.000000000000000
40
0.750000000000000
1

100
AcDbText
  0
LWPOLYLINE
  5
F10A68
330
F10A69
100
AcDbEntity
8
Rahmen
100
AcDbPolyline
90
   4
70
   1
43
   0.0
 10
120.959282490932
 20
-94.1382251323305
 10
134.379139869447
 20
-94.1382251323305
 10
134.379139869447
 20
-97.1461241999287
 10
120.959282490932
 20
-97.1461241999287
  0
TEXT
  5
F10A6A
330
F10A6B
 100
AcDbEntity
8
Text
100
AcDbText
10
122.166666666667
20
-95.9441305540611
30
0.000000000000000
40
0.750000000000000
1
Page
100
AcDbText
  0
TEXT
  5
F10A6C
330
F10A6D
 100
AcDbEntity
8
Text
100
AcDbText
10
0.000000000000000
20
0.250000000000000
30
0.000000000000000
40
0.750000000000000
1

100
AcDbText
  0
LWPOLYLINE
  5
F10A6E
330
F10A6F
100
AcDbEntity
8
Rahmen
100
AcDbPolyline
90
   4
70
   1
43
   0.0
 10
54.3227493010658
 20
-94.1382251323305
 10
120.959282490932
 20
-94.1382251323305
 10
120.959282490932
 20
-100.154023267527
 10
54.3227493010658
 20
-100.154023267527
  0
TEXT
  5
F10A70
330
F10A71
 100
AcDbEntity
8
Text
100
AcDbText
10
55.5000000000000
20
-95.9441305540611
30
0.000000000000000
40
0.750000000000000
1
Date:
100
AcDbText
  0
TEXT
  5
F10A72
330
F10A73
 100
AcDbEntity
8
Text
100
AcDbText
10
84.7097458400583
20
-98.9441305540611
30
0.000000000000000
40
0.750000000000000
1
05.07.2016
100
AcDbText
  0
LWPOLYLINE
  5
F10A74
330
F10A75
100
AcDbEntity
8
Rahmen
100
AcDbPolyline
90
   4
70
   1
43
   0.0
 10
54.3227493010658
 20
-88.1224269971343
 10
134.379139869447
 20
-88.1224269971343
 10
134.379139869447
 20
-94.1382251323305
 10
54.3227493010658
 20
-94.1382251323305
  0
TEXT
  5
F10A76
330
F10A77
 100
AcDbEntity
8
Text
100
AcDbText
10
0.000000000000000
20
0.500000000000000
30
0.000000000000000
40
1.50000000000000
1

100
AcDbText
  0
TEXT
  5
F10A78
330
F10A79
 100
AcDbEntity
8
Text
100
AcDbText
10
65.6935820064640
20
-92.7118120315574
30
0.000000000000000
40
2.50000000000000
1
VHRFF 3 080 064 08 03 050
100
AcDbText
  0
LWPOLYLINE
  5
F10A7A
330
F10A7B
100
AcDbEntity
8
Rahmen
100
AcDbPolyline
90
   4
70
   1
43
   0.0
 10
94.3509445852565
 20
-82.1066288619380
 10
134.379139869447
 20
-82.1066288619380
 10
134.379139869447
 20
-88.1224269971343
 10
94.3509445852565
 20
-88.1224269971343
  0
TEXT
  5
F10A7C
330
F10A7D
 100
AcDbEntity
8
Text
100
AcDbText
10
95.5000000000000
20
-83.9441305540611
30
0.000000000000000
40
0.750000000000000
1
Work piece material:
100
AcDbText
  0
TEXT
  5
F10A7E
330
F10A7F
 100
AcDbEntity
8
Text
100
AcDbText
10
0.000000000000000
20
0.250000000000000
30
0.000000000000000
40
0.750000000000000
1

100
AcDbText
  0
LWPOLYLINE
  5
F10A80
330
F10A81
100
AcDbEntity
8
Rahmen
100
AcDbPolyline
90
   4
70
   1
43
   0.0
 10
54.3227493010658
 20
-82.1066288619380
 10
94.3509445852565
 20
-82.1066288619380
 10
94.3509445852565
 20
-88.1224269971343
 10
54.3227493010658
 20
-88.1224269971343
  0
TEXT
  5
F10A82
330
F10A83
 100
AcDbEntity
8
Text
100
AcDbText
10
55.5000000000000
20
-83.9441305540611
30
0.000000000000000
40
0.750000000000000
1
Tool material:
100
AcDbText
  0
TEXT
  5
F10A84
330
F10A85
 100
AcDbEntity
8
Text
100
AcDbText
10
0.000000000000000
20
0.250000000000000
30
0.000000000000000
40
0.750000000000000
1

100
AcDbText
  0
LWPOLYLINE
  5
F10A86
330
F10A87
100
AcDbEntity
8
Rahmen
100
AcDbPolyline
90
   4
70
   1
43
   0.0
 10
94.3509445852565
 20
-79.0987297943398
 10
134.379139869447
 20
-79.0987297943398
 10
134.379139869447
 20
-82.1066288619380
 10
94.3509445852565
 20
-82.1066288619380
  0
TEXT
  5
F10A88
330
F10A89
 100
AcDbEntity
8
Text
100
AcDbText
10
0.000000000000000
20
0.500000000000000
30
0.000000000000000
40
1.50000000000000
1

100
AcDbText
  0
TEXT
  5
F10A8A
330
F10A8B
 100
AcDbEntity
8
Text
100
AcDbText
10
0.000000000000000
20
0.250000000000000
30
0.000000000000000
40
0.750000000000000
1

100
AcDbText
  0
LWPOLYLINE
  5
F10A8C
330
F10A8D
100
AcDbEntity
8
Rahmen
100
AcDbPolyline
90
   4
70
   1
43
   0.0
 10
54.3227493010658
 20
-79.0987297943398
 10
94.3509445852565
 20
-79.0987297943398
 10
94.3509445852565
 20
-82.1066288619380
 10
54.3227493010658
 20
-82.1066288619380
  0
TEXT
  5
F10A8E
330
F10A8F
 100
AcDbEntity
8
Text
100
AcDbText
10
55.5000000000000
20
-80.9441305540611
30
0.000000000000000
40
0.750000000000000
1
Scale:
100
AcDbText
  0
TEXT
  5
F10A90
330
F10A91
 100
AcDbEntity
8
Text
100
AcDbText
10
81.3431157432315
20
-80.9441305540611
30
0.000000000000000
40
0.750000000000000
1
2 : 1
100
AcDbText
0
VIEWPORT
5
294
102
{ACAD_XDICTIONARY
360
58A
102
}
330
25D
100
AcDbEntity
67
1
8
0
60
1
100
AcDbViewport
10
0.0
20
0.0
30
0.0
40
10.0
41
10.0
68
-1
69
1
12
0.0
22
0.0
13
0.0
23
0.0
14
1.0
24
1.0
15
0.0
25
0.0
16
0.0
26
0.0
36
1.0
17
0.0
27
0.0
37
0.0
42
0.0
43
0.0
44
0.0
45
10.0
50
0.0
51
0.0000000000007958
72
100
90
32800
1

281
0
71
0
74
0
110
0.0
120
0.0
130
0.0
111
1.0
121
0.0
131
0.0
112
0.0
122
1.0
132
0.0
79
0
146
0.0
1001
VD_INVISIBLE_NOT_FOR_READ
1000
VD_INVISIBLE_NOT_FOR_READ
0
VIEWPORT
5
295
102
{ACAD_XDICTIONARY
360
58C
102
}
330
25D
100
AcDbEntity
67
1
8
0
60
1
100
AcDbViewport
10
0.0
20
0.0
30
0.0
40
10.0
41
10.0
68
0
69
2
12
0.0
22
0.0
13
0.0
23
0.0
14
1.0
24
1.0
15
0.0
25
0.0
16
0.0
26
0.0
36
1.0
17
0.0
27
0.0
37
0.0
42
0.0
43
0.0
44
0.0
45
10.0
50
0.0
51
0.0000000000007958
72
100
90
163872
1

281
0
71
0
74
0
110
0.0
120
0.0
130
0.0
111
1.0
121
0.0
131
0.0
112
0.0
122
1.0
132
0.0
79
0
146
0.0
1001
VD_INVISIBLE_NOT_FOR_READ
1000
VD_INVISIBLE_NOT_FOR_READ
0
ENDSEC
0
SECTION
2
OBJECTS
0
DICTIONARY
5
13
330
0
100
AcDbDictionary
281
1
3
ACAD_COLOR
350
FA7
3
ACAD_GROUP
350
14
3
ACAD_LAYOUT
350
FCF
3
ACAD_MATERIAL
350
F7A
3
ACAD_MLEADERSTYLE
350
FCD
3
ACAD_MLINESTYLE
350
16
3
ACAD_PLOTSETTINGS
350
17
3
ACAD_PLOTSTYLENAME
350
18
3
ACAD_SCALELIST
350
FAB
3
ACAD_TABLESTYLE
350
FA8
3
ACAD_VISUALSTYLE
350
F93
3
ACDB_RECOMPOSE_DATA
350
107E
3
AcDbVariableDictionary
350
FF0
3
DWGPROPS
350
107F
0
DICTIONARY
5
F1000A
330
F10009
100
AcDbDictionary
280
1
281
1
3
ACAD_MTEXT_2008_RT
360
F1000B
0
DICTIONARY
5
F10014
330
F10013
100
AcDbDictionary
280
1
281
1
3
ACAD_MTEXT_2008_RT
360
F10015
0
DICTIONARY
5
F1001E
330
F1001D
100
AcDbDictionary
280
1
281
1
3
ACAD_MTEXT_2008_RT
360
F1001F
0
DICTIONARY
5
F10023
330
F10022
100
AcDbDictionary
280
1
281
1
3
ACAD_MTEXT_2008_RT
360
F10024
0
DICTIONARY
5
F10028
330
F10027
100
AcDbDictionary
280
1
281
1
3
ACAD_MTEXT_2008_RT
360
F10029
0
DICTIONARY
5
F10005
330
F10004
100
AcDbDictionary
280
1
281
1
3
ACAD_MTEXT_2008_RT
360
F10006
0
DICTIONARY
5
F1000F
330
F1000E
100
AcDbDictionary
280
1
281
1
3
ACAD_MTEXT_2008_RT
360
F10010
0
DICTIONARY
5
F10019
330
F10018
100
AcDbDictionary
280
1
281
1
3
ACAD_MTEXT_2008_RT
360
F1001A
0
DICTIONARY
5
FA7
102
{ACAD_REACTORS
330
13
102
}
330
13
100
AcDbDictionary
281
1
0
DICTIONARY
5
14
330
13
100
AcDbDictionary
281
1
0
DICTIONARY
5
FCF
102
{ACAD_REACTORS
330
13
102
}
330
13
100
AcDbDictionary
281
1
3
Layout1
350
FD1
3
Model
350
FD0
0
DICTIONARY
5
F7A
102
{ACAD_REACTORS
330
13
102
}
330
13
100
AcDbDictionary
281
1
3
ByBlock
350
F83
3
ByLayer
350
F7B
3
Global
350
F8B
0
DICTIONARY
5
FCD
102
{ACAD_REACTORS
330
13
102
}
330
13
100
AcDbDictionary
281
1
3
Standard
350
FCE
0
DICTIONARY
5
16
330
13
100
AcDbDictionary
281
1
3
Standard
350
FAA
0
DICTIONARY
5
17
102
{ACAD_REACTORS
330
13
102
}
330
13
100
AcDbDictionary
281
1
0
ACDBDICTIONARYWDFLT
5
18
102
{ACAD_REACTORS
330
13
102
}
330
13
100
AcDbDictionary
281
1
3
Normal
350
19
100
AcDbDictionaryWithDefault
340
19
0
DICTIONARY
5
FAB
102
{ACAD_REACTORS
330
13
102
}
330
13
100
AcDbDictionary
281
1
3
A0
350
FAC
3
A1
350
FAD
3
A2
350
FAE
3
A3
350
FAF
3
A4
350
FB0
3
A5
350
FB1
3
A6
350
FB2
3
A7
350
FB3
3
A8
350
FB4
3
A9
350
FB5
3
B0
350
FB6
3
B1
350
FB7
3
B2
350
FB8
3
B3
350
FB9
3
B4
350
FBA
3
B5
350
FBB
3
B6
350
FBC
3
B7
350
FBD
3
B8
350
FBE
3
B9
350
FBF
3
C0
350
FC0
3
C1
350
FC1
3
C2
350
FC2
3
C3
350
FC3
3
C4
350
FC4
3
C5
350
FC5
3
C6
350
FC6
3
C7
350
FC7
3
C8
350
FC8
3
C9
350
FC9
3
D0
350
FCA
3
D1
350
FCB
3
D2
350
FCC
0
DICTIONARY
5
FA8
102
{ACAD_REACTORS
330
13
102
}
330
13
100
AcDbDictionary
281
1
3
Standard
350
FA9
0
DICTIONARY
5
F93
102
{ACAD_REACTORS
330
13
102
}
330
13
100
AcDbDictionary
281
1
3
2dWireframe
350
F99
3
3D Hidden
350
F9B
3
3dWireframe
350
F9A
3
Basic
350
F98
3
Brighten
350
F9F
3
ColorChange
350
FA3
3
Conceptual
350
F9C
3
Dim
350
F9E
3
EdgeColorOff
350
FA6
3
Facepattern
350
FA2
3
Flat
350
F94
3
FlatWithEdges
350
F95
3
Gouraud
350
F96
3
GouraudWithEdges
350
F97
3
JitterOff
350
FA4
3
Linepattern
350
FA1
3
OverhangOff
350
FA5
3
Realistic
350
F9D
3
Thicken
350
FA0
0
XRECORD
5
107E
102
{ACAD_REACTORS
330
13
102
}
330
13
100
AcDbXrecord
280
1
90
1
330
FA9
330
F10009
330
F10013
330
F1001D
330
F10022
330
F10027
330
F10004
330
F1000E
330
F10018
0
XRECORD
5
F1000B
102
{ACAD_REACTORS
330
F1000A
102
}
330
F1000A
100
AcDbXrecord
280
1
40
48458.0
1
0.5 x 45°
0
XRECORD
5
F10015
102
{ACAD_REACTORS
330
F10014
102
}
330
F10014
100
AcDbXrecord
280
1
40
48458.0
1
44
0
XRECORD
5
F1001F
102
{ACAD_REACTORS
330
F1001E
102
}
330
F1001E
100
AcDbXrecord
280
1
40
48458.0
1
20
0
XRECORD
5
F10024
102
{ACAD_REACTORS
330
F10023
102
}
330
F10023
100
AcDbXrecord
280
1
40
48458.0
1
21
0
XRECORD
5
F10029
102
{ACAD_REACTORS
330
F10028
102
}
330
F10028
100
AcDbXrecord
280
1
40
48458.0
1
64
0
XRECORD
5
F10006
102
{ACAD_REACTORS
330
F10005
102
}
330
F10005
100
AcDbXrecord
280
1
40
48458.0
1
2°
0
XRECORD
5
F10010
102
{ACAD_REACTORS
330
F1000F
102
}
330
F1000F
100
AcDbXrecord
280
1
40
48458.0
1
8
0
LAYOUT
5
FD1
102
{ACAD_XDICTIONARY
360
10A9
102
}
102
{ACAD_REACTORS
330
FCF
102
}
330
FCF
100
AcDbPlotSettings
1

2
Microsoft XPS Document Writer
4

6

40
0.0
41
0.0
42
0.0
43
0.0
44
0.0
45
0.0
46
0.0
47
0.0
48
0.0
49
0.0
140
0.0
141
0.0
142
1.0
143
1.0
70
688
72
0
73
0
74
5
7

75
16
147
1.0
148
0.0
149
0.0
100
AcDbLayout
1
Layout1
70
1
71
1
10
0.0
20
0.0
11
12.0
21
9.0
12
0.0
22
0.0
32
0.0
14
1.000000000000000E+20
24
1.000000000000000E+20
34
1.000000000000000E+20
15
-1.000000000000000E+20
25
-1.000000000000000E+20
35
-1.000000000000000E+20
146
0.0
13
0.0
23
0.0
33
0.0
16
1.0
26
0.0
36
0.0
17
0.0
27
1.0
37
0.0
76
0
330
25D
0
LAYOUT
5
FD0
102
{ACAD_XDICTIONARY
360
10A7
102
}
102
{ACAD_REACTORS
330
FCF
102
}
330
FCF
100
AcDbPlotSettings
1

2
Microsoft XPS Document Writer
4

6

40
0.0
41
0.0
42
0.0
43
0.0
44
0.0
45
0.0
46
0.0
47
0.0
48
0.0
49
0.0
140
0.0
141
0.0
142
1.0
143
1.0
70
1712
72
0
73
0
74
0
7

75
0
147
1.0
148
0.0
149
0.0
100
AcDbLayout
1
Model
70
1
71
0
10
0.0
20
0.0
11
12.0
21
9.0
12
0.0
22
0.0
32
0.0
14
0.0
24
0.0
34
0.0
15
0.0
25
0.0
35
0.0
146
0.0
13
0.0
23
0.0
33
0.0
16
1.0
26
0.0
36
0.0
17
0.0
27
1.0
37
0.0
76
0
330
261
331
26B
0
MATERIAL
5
F83
102
{ACAD_XDICTIONARY
360
F84
102
}
102
{ACAD_REACTORS
330
F7A
102
}
330
F7A
100
AcDbMaterial
1
ByBlock
72
0
43
0.0208333333333333
43
0.0
43
0.0
43
0.0
43
0.0
43
0.0208333333333333
43
0.0
43
0.0
43
0.0
43
0.0
43
1.0
43
0.0
43
0.0
43
0.0
43
0.0
43
1.0
77
0
47
0.0208333333333333
47
0.0
47
0.0
47
0.0
47
0.0
47
0.0208333333333333
47
0.0
47
0.0
47
0.0
47
0.0
47
1.0
47
0.0
47
0.0
47
0.0
47
0.0
47
1.0
171
0
49
0.0208333333333333
49
0.0
49
0.0
49
0.0
49
0.0
49
0.0208333333333333
49
0.0
49
0.0
49
0.0
49
0.0
49
1.0
49
0.0
49
0.0
49
0.0
49
0.0
49
1.0
175
0
142
0.0208333333333333
142
0.0
142
0.0
142
0.0
142
0.0
142
0.0208333333333333
142
0.0
142
0.0
142
0.0
142
0.0
142
1.0
142
0.0
142
0.0
142
0.0
142
0.0
142
1.0
179
0
144
0.0208333333333333
144
0.0
144
0.0
144
0.0
144
0.0
144
0.0208333333333333
144
0.0
144
0.0
144
0.0
144
0.0
144
1.0
144
0.0
144
0.0
144
0.0
144
0.0
144
1.0
147
0.0208333333333333
147
0.0
147
0.0
147
0.0
147
0.0
147
0.0208333333333333
147
0.0
147
0.0
147
0.0
147
0.0
147
1.0
147
0.0
147
0.0
147
0.0
147
0.0
147
1.0
0
MATERIAL
5
F7B
102
{ACAD_XDICTIONARY
360
F7C
102
}
102
{ACAD_REACTORS
330
F7A
102
}
330
F7A
100
AcDbMaterial
1
ByLayer
72
0
43
0.0208333333333333
43
0.0
43
0.0
43
0.0
43
0.0
43
0.0208333333333333
43
0.0
43
0.0
43
0.0
43
0.0
43
1.0
43
0.0
43
0.0
43
0.0
43
0.0
43
1.0
77
0
47
0.0208333333333333
47
0.0
47
0.0
47
0.0
47
0.0
47
0.0208333333333333
47
0.0
47
0.0
47
0.0
47
0.0
47
1.0
47
0.0
47
0.0
47
0.0
47
0.0
47
1.0
171
0
49
0.0208333333333333
49
0.0
49
0.0
49
0.0
49
0.0
49
0.0208333333333333
49
0.0
49
0.0
49
0.0
49
0.0
49
1.0
49
0.0
49
0.0
49
0.0
49
0.0
49
1.0
175
0
142
0.0208333333333333
142
0.0
142
0.0
142
0.0
142
0.0
142
0.0208333333333333
142
0.0
142
0.0
142
0.0
142
0.0
142
1.0
142
0.0
142
0.0
142
0.0
142
0.0
142
1.0
179
0
144
0.0208333333333333
144
0.0
144
0.0
144
0.0
144
0.0
144
0.0208333333333333
144
0.0
144
0.0
144
0.0
144
0.0
144
1.0
144
0.0
144
0.0
144
0.0
144
0.0
144
1.0
147
0.0208333333333333
147
0.0
147
0.0
147
0.0
147
0.0
147
0.0208333333333333
147
0.0
147
0.0
147
0.0
147
0.0
147
1.0
147
0.0
147
0.0
147
0.0
147
0.0
147
1.0
0
MATERIAL
5
F8B
102
{ACAD_XDICTIONARY
360
F8C
102
}
102
{ACAD_REACTORS
330
F7A
102
}
330
F7A
100
AcDbMaterial
1
Global
72
0
43
0.0208333333333333
43
0.0
43
0.0
43
0.0
43
0.0
43
0.0208333333333333
43
0.0
43
0.0
43
0.0
43
0.0
43
1.0
43
0.0
43
0.0
43
0.0
43
0.0
43
1.0
77
0
47
0.0208333333333333
47
0.0
47
0.0
47
0.0
47
0.0
47
0.0208333333333333
47
0.0
47
0.0
47
0.0
47
0.0
47
1.0
47
0.0
47
0.0
47
0.0
47
0.0
47
1.0
171
0
49
0.0208333333333333
49
0.0
49
0.0
49
0.0
49
0.0
49
0.0208333333333333
49
0.0
49
0.0
49
0.0
49
0.0
49
1.0
49
0.0
49
0.0
49
0.0
49
0.0
49
1.0
175
0
142
0.0208333333333333
142
0.0
142
0.0
142
0.0
142
0.0
142
0.0208333333333333
142
0.0
142
0.0
142
0.0
142
0.0
142
1.0
142
0.0
142
0.0
142
0.0
142
0.0
142
1.0
179
0
144
0.0208333333333333
144
0.0
144
0.0
144
0.0
144
0.0
144
0.0208333333333333
144
0.0
144
0.0
144
0.0
144
0.0
144
1.0
144
0.0
144
0.0
144
0.0
144
0.0
144
1.0
147
0.0208333333333333
147
0.0
147
0.0
147
0.0
147
0.0
147
0.0208333333333333
147
0.0
147
0.0
147
0.0
147
0.0
147
1.0
147
0.0
147
0.0
147
0.0
147
0.0
147
1.0
0
MLEADERSTYLE
5
FCE
102
{ACAD_REACTORS
330
FCD
102
}
330
FCD
100
AcDbMLeaderStyle
170
2
171
1
172
0
90
2
40
0.0
41
0.0
173
1
91
-1056964608
340
256
92
-2
290
1
42
0.09
291
1
43
0.36
3
Standard
44
0.18
300

342
253
174
1
178
6
175
1
176
0
93
-1056964608
45
0.18
292
0
297
0
46
0.18
94
-1056964608
47
1.0
49
1.0
140
1.0
293
1
141
0.0
294
1
177
0
142
1.0
295
0
296
0
143
0.125
1001
ACAD_MLEADERVER
1070
2
0
MLINESTYLE
5
FAA
102
{ACAD_REACTORS
330
16
102
}
330
16
100
AcDbMlineStyle
2
STANDARD
70
0
3

62
256
51
90.0
52
90.0
71
2
49
0.5
62
256
6
BYLAYER
49
-0.5
62
256
6
BYLAYER
0
ACDBPLACEHOLDER
5
19
102
{ACAD_REACTORS
330
18
102
}
330
18
0
SCALE
5
FAC
102
{ACAD_REACTORS
330
FAB
102
}
330
FAB
100
AcDbScale
70
0
300
1:1
140
1.0
141
1.0
290
1
0
SCALE
5
FAD
102
{ACAD_REACTORS
330
FAB
102
}
330
FAB
100
AcDbScale
70
0
300
1:2
140
1.0
141
2.0
290
0
0
SCALE
5
FAE
102
{ACAD_REACTORS
330
FAB
102
}
330
FAB
100
AcDbScale
70
0
300
1:4
140
1.0
141
4.0
290
0
0
SCALE
5
FAF
102
{ACAD_REACTORS
330
FAB
102
}
330
FAB
100
AcDbScale
70
0
300
1:5
140
1.0
141
5.0
290
0
0
SCALE
5
FB0
102
{ACAD_REACTORS
330
FAB
102
}
330
FAB
100
AcDbScale
70
0
300
1:8
140
1.0
141
8.0
290
0
0
SCALE
5
FB1
102
{ACAD_REACTORS
330
FAB
102
}
330
FAB
100
AcDbScale
70
0
300
1:10
140
1.0
141
10.0
290
0
0
SCALE
5
FB2
102
{ACAD_REACTORS
330
FAB
102
}
330
FAB
100
AcDbScale
70
0
300
1:16
140
1.0
141
16.0
290
0
0
SCALE
5
FB3
102
{ACAD_REACTORS
330
FAB
102
}
330
FAB
100
AcDbScale
70
0
300
1:20
140
1.0
141
20.0
290
0
0
SCALE
5
FB4
102
{ACAD_REACTORS
330
FAB
102
}
330
FAB
100
AcDbScale
70
0
300
1:30
140
1.0
141
30.0
290
0
0
SCALE
5
FB5
102
{ACAD_REACTORS
330
FAB
102
}
330
FAB
100
AcDbScale
70
0
300
1:40
140
1.0
141
40.0
290
0
0
SCALE
5
FB6
102
{ACAD_REACTORS
330
FAB
102
}
330
FAB
100
AcDbScale
70
0
300
1:50
140
1.0
141
50.0
290
0
0
SCALE
5
FB7
102
{ACAD_REACTORS
330
FAB
102
}
330
FAB
100
AcDbScale
70
0
300
1:100
140
1.0
141
100.0
290
0
0
SCALE
5
FB8
102
{ACAD_REACTORS
330
FAB
102
}
330
FAB
100
AcDbScale
70
0
300
2:1
140
2.0
141
1.0
290
0
0
SCALE
5
FB9
102
{ACAD_REACTORS
330
FAB
102
}
330
FAB
100
AcDbScale
70
0
300
4:1
140
4.0
141
1.0
290
0
0
SCALE
5
FBA
102
{ACAD_REACTORS
330
FAB
102
}
330
FAB
100
AcDbScale
70
0
300
8:1
140
8.0
141
1.0
290
0
0
SCALE
5
FBB
102
{ACAD_REACTORS
330
FAB
102
}
330
FAB
100
AcDbScale
70
0
300
10:1
140
10.0
141
1.0
290
0
0
SCALE
5
FBC
102
{ACAD_REACTORS
330
FAB
102
}
330
FAB
100
AcDbScale
70
0
300
100:1
140
100.0
141
1.0
290
0
0
SCALE
5
FBD
102
{ACAD_REACTORS
330
FAB
102
}
330
FAB
100
AcDbScale
70
0
300
1/128" = 1'-0"
140
0.0078125
141
12.0
290
0
0
SCALE
5
FBE
102
{ACAD_REACTORS
330
FAB
102
}
330
FAB
100
AcDbScale
70
0
300
1/64" = 1'-0"
140
0.015625
141
12.0
290
0
0
SCALE
5
FBF
102
{ACAD_REACTORS
330
FAB
102
}
330
FAB
100
AcDbScale
70
0
300
1/32" = 1'-0"
140
0.03125
141
12.0
290
0
0
SCALE
5
FC0
102
{ACAD_REACTORS
330
FAB
102
}
330
FAB
100
AcDbScale
70
0
300
1/16" = 1'-0"
140
0.0625
141
12.0
290
0
0
SCALE
5
FC1
102
{ACAD_REACTORS
330
FAB
102
}
330
FAB
100
AcDbScale
70
0
300
3/32" = 1'-0"
140
0.09375
141
12.0
290
0
0
SCALE
5
FC2
102
{ACAD_REACTORS
330
FAB
102
}
330
FAB
100
AcDbScale
70
0
300
1/8" = 1'-0"
140
0.125
141
12.0
290
0
0
SCALE
5
FC3
102
{ACAD_REACTORS
330
FAB
102
}
330
FAB
100
AcDbScale
70
0
300
3/16" = 1'-0"
140
0.1875
141
12.0
290
0
0
SCALE
5
FC4
102
{ACAD_REACTORS
330
FAB
102
}
330
FAB
100
AcDbScale
70
0
300
1/4" = 1'-0"
140
0.25
141
12.0
290
0
0
SCALE
5
FC5
102
{ACAD_REACTORS
330
FAB
102
}
330
FAB
100
AcDbScale
70
0
300
3/8" = 1'-0"
140
0.375
141
12.0
290
0
0
SCALE
5
FC6
102
{ACAD_REACTORS
330
FAB
102
}
330
FAB
100
AcDbScale
70
0
300
1/2" = 1'-0"
140
0.5
141
12.0
290
0
0
SCALE
5
FC7
102
{ACAD_REACTORS
330
FAB
102
}
330
FAB
100
AcDbScale
70
0
300
3/4" = 1'-0"
140
0.75
141
12.0
290
0
0
SCALE
5
FC8
102
{ACAD_REACTORS
330
FAB
102
}
330
FAB
100
AcDbScale
70
0
300
1" = 1'-0"
140
1.0
141
12.0
290
0
0
SCALE
5
FC9
102
{ACAD_REACTORS
330
FAB
102
}
330
FAB
100
AcDbScale
70
0
300
1-1/2" = 1'-0"
140
1.5
141
12.0
290
0
0
SCALE
5
FCA
102
{ACAD_REACTORS
330
FAB
102
}
330
FAB
100
AcDbScale
70
0
300
3" = 1'-0"
140
3.0
141
12.0
290
0
0
SCALE
5
FCB
102
{ACAD_REACTORS
330
FAB
102
}
330
FAB
100
AcDbScale
70
0
300
6" = 1'-0"
140
6.0
141
12.0
290
0
0
SCALE
5
FCC
102
{ACAD_REACTORS
330
FAB
102
}
330
FAB
100
AcDbScale
70
0
300
1'-0" = 1'-0"
140
12.0
141
12.0
290
0
0
TABLESTYLE
5
FA9
102
{ACAD_XDICTIONARY
360
FF8
102
}
102
{ACAD_REACTORS
330
FA8
102
}
330
FA8
100
AcDbTableStyle
3
Standard
70
0
71
0
40
0.06
41
0.06
280
0
281
0
7
Standard
140
0.18
170
2
62
0
63
7
283
0
274
-2
284
1
64
0
275
-2
285
1
65
0
276
-2
286
1
66
0
277
-2
287
1
67
0
278
-2
288
1
68
0
279
-2
289
1
69
0
7
Standard
140
0.25
170
5
62
0
63
7
283
0
274
-2
284
1
64
0
275
-2
285
1
65
0
276
-2
286
1
66
0
277
-2
287
1
67
0
278
-2
288
1
68
0
279
-2
289
1
69
0
7
Standard
140
0.18
170
5
62
0
63
7
283
0
274
-2
284
1
64
0
275
-2
285
1
65
0
276
-2
286
1
66
0
277
-2
287
1
67
0
278
-2
288
1
68
0
279
-2
289
1
69
0
0
VISUALSTYLE
5
F99
102
{ACAD_XDICTIONARY
360
108A
102
}
102
{ACAD_REACTORS
330
F93
102
}
330
F93
100
AcDbVisualStyle
2

70
4
71
0
72
2
73
0
90
0
40
-0.6
41
-30.0
62
5
63
7
74
1
91
4
64
7
65
257
75
1
175
1
42
1.0
92
0
66
257
43
1.0
76
1
77
6
78
2
67
7
79
5
170
0
171
0
290
0
174
0
93
1
44
0.0
173
0
291
0
45
0.0
1001
ACAD
1000
AcDbSavedByObjectVersion
1070
0
0
VISUALSTYLE
5
F9B
102
{ACAD_XDICTIONARY
360
108E
102
}
102
{ACAD_REACTORS
330
F93
102
}
330
F93
100
AcDbVisualStyle
2

70
6
71
1
72
2
73
2
90
0
40
-0.6
41
-30.0
62
5
63
7
74
2
91
2
64
7
65
257
75
2
175
1
42
179.0
92
0
66
257
43
1.0
76
1
77
6
78
2
67
7
79
3
170
0
171
0
290
0
174
0
93
1
44
0.0
173
0
291
0
45
0.0
1001
ACAD
1000
AcDbSavedByObjectVersion
1070
0
0
VISUALSTYLE
5
F9A
102
{ACAD_XDICTIONARY
360
108C
102
}
102
{ACAD_REACTORS
330
F93
102
}
330
F93
100
AcDbVisualStyle
2

70
5
71
0
72
2
73
0
90
0
40
-0.6
41
-30.0
62
5
63
7
74
1
91
4
64
7
65
257
75
1
175
1
42
1.0
92
0
66
257
43
1.0
76
1
77
6
78
2
67
7
79
5
170
0
171
0
290
0
174
0
93
1
44
0.0
173
0
291
0
45
0.0
1001
ACAD
1000
AcDbSavedByObjectVersion
1070
0
0
VISUALSTYLE
5
F98
102
{ACAD_XDICTIONARY
360
1088
102
}
102
{ACAD_REACTORS
330
F93
102
}
330
F93
100
AcDbVisualStyle
2

70
7
71
1
72
0
73
1
90
0
40
-0.6
41
-30.0
62
5
63
7
74
0
91
4
64
7
65
257
75
1
175
1
42
1.0
92
8
66
7
43
1.0
76
1
77
6
78
2
67
7
79
5
170
0
171
0
290
0
174
0
93
1
44
0.0
173
0
291
1
45
0.0
1001
ACAD
1000
AcDbSavedByObjectVersion
1070
0
0
VISUALSTYLE
5
F9F
102
{ACAD_XDICTIONARY
360
1096
102
}
102
{ACAD_REACTORS
330
F93
102
}
330
F93
100
AcDbVisualStyle
2

70
12
71
2
72
2
73
0
90
0
40
-0.6
41
-30.0
62
5
63
7
74
1
91
4
64
7
65
257
75
1
175
1
42
1.0
92
8
66
7
43
1.0
76
1
77
6
78
2
67
7
79
5
170
0
171
0
290
0
174
0
93
1
44
50.0
173
0
291
1
45
0.0
1001
ACAD
1000
AcDbSavedByObjectVersion
1070
0
0
VISUALSTYLE
5
FA3
102
{ACAD_XDICTIONARY
360
109E
102
}
102
{ACAD_REACTORS
330
F93
102
}
330
F93
100
AcDbVisualStyle
2

70
16
71
2
72
2
73
3
90
0
40
-0.6
41
-30.0
62
5
63
8
74
1
91
4
64
7
65
257
75
1
175
1
42
1.0
92
8
66
8
43
1.0
76
1
77
6
78
2
67
7
79
5
170
0
171
0
290
0
174
0
93
1
44
0.0
173
0
291
1
45
0.0
1001
ACAD
1000
AcDbSavedByObjectVersion
1070
0
0
VISUALSTYLE
5
F9C
102
{ACAD_XDICTIONARY
360
1090
102
}
102
{ACAD_REACTORS
330
F93
102
}
330
F93
100
AcDbVisualStyle
2

70
9
71
3
72
2
73
0
90
0
40
-0.6
41
-30.0
62
5
63
7
74
2
91
2
64
7
65
257
75
1
175
1
42
179.0
92
8
66
7
43
1.0
76
1
77
6
78
2
67
7
79
3
170
0
171
0
290
0
174
0
93
1
44
0.0
173
0
291
0
45
0.0
1001
ACAD
1000
AcDbSavedByObjectVersion
1070
0
0
VISUALSTYLE
5
F9E
102
{ACAD_XDICTIONARY
360
1094
102
}
102
{ACAD_REACTORS
330
F93
102
}
330
F93
100
AcDbVisualStyle
2

70
11
71
2
72
2
73
0
90
0
40
-0.6
41
-30.0
62
5
63
7
74
1
91
4
64
7
65
257
75
1
175
1
42
1.0
92
8
66
7
43
1.0
76
1
77
6
78
2
67
7
79
5
170
0
171
0
290
0
174
0
93
1
44
-50.0
173
0
291
1
45
0.0
1001
ACAD
1000
AcDbSavedByObjectVersion
1070
0
0
VISUALSTYLE
5
FA6
102
{ACAD_XDICTIONARY
360
10A4
102
}
102
{ACAD_REACTORS
330
F93
102
}
330
F93
100
AcDbVisualStyle
2

70
22
71
2
72
2
73
0
90
0
40
-0.6
41
-30.0
62
5
63
7
74
1
91
4
64
7
65
257
75
1
175
1
42
1.0
92
8
66
7
43
1.0
76
1
77
6
78
2
67
7
79
5
170
0
171
0
290
0
174
0
93
1
44
0.0
173
0
291
1
45
0.0
1001
ACAD
1000
AcDbSavedByObjectVersion
1070
0
0
VISUALSTYLE
5
FA2
102
{ACAD_XDICTIONARY
360
109C
102
}
102
{ACAD_REACTORS
330
F93
102
}
330
F93
100
AcDbVisualStyle
2

70
15
71
2
72
2
73
0
90
0
40
-0.6
41
-30.0
62
5
63
7
74
1
91
4
64
7
65
257
75
1
175
1
42
1.0
92
8
66
7
43
1.0
76
1
77
6
78
2
67
7
79
5
170
0
171
0
290
0
174
0
93
1
44
0.0
173
0
291
1
45
0.0
1001
ACAD
1000
AcDbSavedByObjectVersion
1070
0
0
VISUALSTYLE
5
F94
102
{ACAD_XDICTIONARY
360
1080
102
}
102
{ACAD_REACTORS
330
F93
102
}
330
F93
100
AcDbVisualStyle
2

70
0
71
2
72
1
73
1
90
2
40
-0.6
41
30.0
62
5
63
7
74
0
91
4
64
7
65
257
75
1
175
1
42
1.0
92
8
66
7
43
1.0
76
1
77
6
78
2
67
7
79
5
170
0
171
0
290
0
174
0
93
13
44
0.0
173
0
291
1
45
0.0
1001
ACAD
1000
AcDbSavedByObjectVersion
1070
0
0
VISUALSTYLE
5
F95
102
{ACAD_XDICTIONARY
360
1082
102
}
102
{ACAD_REACTORS
330
F93
102
}
330
F93
100
AcDbVisualStyle
2

70
1
71
2
72
1
73
1
90
2
40
-0.6
41
30.0
62
5
63
7
74
1
91
4
64
7
65
257
75
1
175
1
42
1.0
92
0
66
257
43
1.0
76
1
77
6
78
2
67
7
79
5
170
0
171
0
290
0
174
0
93
13
44
0.0
173
0
291
1
45
0.0
1001
ACAD
1000
AcDbSavedByObjectVersion
1070
0
0
VISUALSTYLE
5
F96
102
{ACAD_XDICTIONARY
360
1084
102
}
102
{ACAD_REACTORS
330
F93
102
}
330
F93
100
AcDbVisualStyle
2

70
2
71
2
72
2
73
1
90
2
40
-0.6
41
30.0
62
5
63
7
74
0
91
4
64
7
65
257
75
1
175
1
42
1.0
92
0
66
7
43
1.0
76
1
77
6
78
2
67
7
79
5
170
0
171
0
290
0
174
0
93
13
44
0.0
173
0
291
1
45
0.0
1001
ACAD
1000
AcDbSavedByObjectVersion
1070
0
0
VISUALSTYLE
5
F97
102
{ACAD_XDICTIONARY
360
1086
102
}
102
{ACAD_REACTORS
330
F93
102
}
330
F93
100
AcDbVisualStyle
2

70
3
71
2
72
2
73
1
90
2
40
-0.6
41
30.0
62
5
63
7
74
1
91
4
64
7
65
257
75
1
175
1
42
1.0
92
0
66
257
43
1.0
76
1
77
6
78
2
67
7
79
5
170
0
171
0
290
0
174
0
93
13
44
0.0
173
0
291
1
45
0.0
1001
ACAD
1000
AcDbSavedByObjectVersion
1070
0
0
VISUALSTYLE
5
FA4
102
{ACAD_XDICTIONARY
360
10A0
102
}
102
{ACAD_REACTORS
330
F93
102
}
330
F93
100
AcDbVisualStyle
2

70
20
71
2
72
2
73
0
90
0
40
-0.6
41
-30.0
62
5
63
7
74
1
91
4
64
7
65
257
75
1
175
1
42
1.0
92
10
66
7
43
1.0
76
1
77
6
78
2
67
7
79
5
170
0
171
0
290
0
174
0
93
1
44
0.0
173
0
291
1
45
0.0
1001
ACAD
1000
AcDbSavedByObjectVersion
1070
0
0
VISUALSTYLE
5
FA1
102
{ACAD_XDICTIONARY
360
109A
102
}
102
{ACAD_REACTORS
330
F93
102
}
330
F93
100
AcDbVisualStyle
2

70
14
71
2
72
2
73
0
90
0
40
-0.6
41
-30.0
62
5
63
7
74
1
91
4
64
7
65
257
75
7
175
7
42
1.0
92
8
66
7
43
1.0
76
1
77
6
78
2
67
7
79
5
170
0
171
0
290
0
174
0
93
1
44
0.0
173
0
291
1
45
0.0
1001
ACAD
1000
AcDbSavedByObjectVersion
1070
0
0
VISUALSTYLE
5
FA5
102
{ACAD_XDICTIONARY
360
10A2
102
}
102
{ACAD_REACTORS
330
F93
102
}
330
F93
100
AcDbVisualStyle
2

70
21
71
2
72
2
73
0
90
0
40
-0.6
41
-30.0
62
5
63
7
74
1
91
4
64
7
65
257
75
1
175
1
42
1.0
92
9
66
7
43
1.0
76
1
77
6
78
2
67
7
79
5
170
0
171
0
290
0
174
0
93
1
44
0.0
173
0
291
1
45
0.0
1001
ACAD
1000
AcDbSavedByObjectVersion
1070
0
0
VISUALSTYLE
5
F9D
102
{ACAD_XDICTIONARY
360
1092
102
}
102
{ACAD_REACTORS
330
F93
102
}
330
F93
100
AcDbVisualStyle
2

70
8
71
2
72
2
73
0
90
0
40
-0.6
41
-30.0
62
5
63
7
74
1
91
0
64
7
65
257
75
1
175
1
42
1.0
92
8
66
8
43
1.0
76
1
77
6
78
2
67
7
79
5
170
0
171
0
290
0
174
0
93
13
44
0.0
173
0
291
0
45
0.0
1001
ACAD
1000
AcDbSavedByObjectVersion
1070
0
0
VISUALSTYLE
5
FA0
102
{ACAD_XDICTIONARY
360
1098
102
}
102
{ACAD_REACTORS
330
F93
102
}
330
F93
100
AcDbVisualStyle
2

70
13
71
2
72
2
73
0
90
0
40
-0.6
41
-30.0
62
5
63
7
74
1
91
4
64
7
65
257
75
1
175
1
42
1.0
92
12
66
7
43
1.0
76
1
77
6
78
2
67
7
79
5
170
0
171
0
290
0
174
0
93
1
44
0.0
173
0
291
1
45
0.0
1001
ACAD
1000
AcDbSavedByObjectVersion
1070
0
0
DICTIONARYVAR
5
FF3
102
{ACAD_REACTORS
330
FF0
102
}
330
FF0
100
DictionaryVariables
280
0
1
1:1
0
DICTIONARYVAR
5
FF2
102
{ACAD_REACTORS
330
FF0
102
}
330
FF0
100
DictionaryVariables
280
0
1
STANDARD
0
DICTIONARYVAR
5
FF1
102
{ACAD_REACTORS
330
FF0
102
}
330
FF0
100
DictionaryVariables
280
0
1
STANDARD
0
DICTIONARYVAR
5
FF6
102
{ACAD_REACTORS
330
FF0
102
}
330
FF0
100
DictionaryVariables
280
0
1
1
0
DICTIONARYVAR
5
FF5
102
{ACAD_REACTORS
330
FF0
102
}
330
FF0
100
DictionaryVariables
280
0
1
0
0
DICTIONARYVAR
5
FF4
102
{ACAD_REACTORS
330
FF0
102
}
330
FF0
100
DictionaryVariables
280
0
1
127
0
DICTIONARYVAR
5
1078
102
{ACAD_REACTORS
330
FF0
102
}
330
FF0
100
DictionaryVariables
280
0
1
2
0
DICTIONARY
5
10A9
330
FD1
100
AcDbDictionary
280
1
281
1
3
ACAD_XREC_ROUNDTRIP
360
10AA
0
DICTIONARY
5
10A7
330
FD0
100
AcDbDictionary
280
1
281
1
3
ACAD_XREC_ROUNDTRIP
360
10A8
0
DICTIONARY
5
F84
330
F83
100
AcDbDictionary
280
1
281
1
3
ACAD_XREC_ROUNDTRIP
360
FFF
3
BUMPTILE
360
F86
3
DIFFUSETILE
360
F85
3
OPACITYTILE
360
F89
3
REFLECTIONTILE
360
F88
3
REFRACTIONTILE
360
F8A
3
SPECULARTILE
360
F87
0
DICTIONARY
5
F7C
330
F7B
100
AcDbDictionary
280
1
281
1
3
ACAD_XREC_ROUNDTRIP
360
FFE
3
BUMPTILE
360
F7E
3
DIFFUSETILE
360
F7D
3
OPACITYTILE
360
F81
3
REFLECTIONTILE
360
F80
3
REFRACTIONTILE
360
F82
3
SPECULARTILE
360
F7F
0
DICTIONARY
5
F8C
330
F8B
100
AcDbDictionary
280
1
281
1
3
ACAD_XREC_ROUNDTRIP
360
1000
3
BUMPTILE
360
F8E
3
DIFFUSETILE
360
F8D
3
OPACITYTILE
360
F91
3
REFLECTIONTILE
360
F90
3
REFRACTIONTILE
360
F92
3
SPECULARTILE
360
F8F
0
DICTIONARY
5
FF8
330
FA9
100
AcDbDictionary
280
1
281
1
3
ACAD_ROUNDTRIP_2008_TABLESTYLE_CELLSTYLEMAP
360
1079
3
ACAD_XREC_ROUNDTRIP
360
10A6
0
DICTIONARY
5
108A
330
F99
100
AcDbDictionary
280
1
281
1
3
ACAD_XREC_ROUNDTRIP
360
108B
0
DICTIONARY
5
108E
330
F9B
100
AcDbDictionary
280
1
281
1
3
ACAD_XREC_ROUNDTRIP
360
108F
0
DICTIONARY
5
108C
330
F9A
100
AcDbDictionary
280
1
281
1
3
ACAD_XREC_ROUNDTRIP
360
108D
0
DICTIONARY
5
1088
330
F98
100
AcDbDictionary
280
1
281
1
3
ACAD_XREC_ROUNDTRIP
360
1089
0
DICTIONARY
5
1096
330
F9F
100
AcDbDictionary
280
1
281
1
3
ACAD_XREC_ROUNDTRIP
360
1097
0
DICTIONARY
5
109E
330
FA3
100
AcDbDictionary
280
1
281
1
3
ACAD_XREC_ROUNDTRIP
360
109F
0
DICTIONARY
5
1090
330
F9C
100
AcDbDictionary
280
1
281
1
3
ACAD_XREC_ROUNDTRIP
360
1091
0
DICTIONARY
5
1094
330
F9E
100
AcDbDictionary
280
1
281
1
3
ACAD_XREC_ROUNDTRIP
360
1095
0
DICTIONARY
5
10A4
330
FA6
100
AcDbDictionary
280
1
281
1
3
ACAD_XREC_ROUNDTRIP
360
10A5
0
DICTIONARY
5
109C
330
FA2
100
AcDbDictionary
280
1
281
1
3
ACAD_XREC_ROUNDTRIP
360
109D
0
DICTIONARY
5
1080
330
F94
100
AcDbDictionary
280
1
281
1
3
ACAD_XREC_ROUNDTRIP
360
1081
0
DICTIONARY
5
1082
330
F95
100
AcDbDictionary
280
1
281
1
3
ACAD_XREC_ROUNDTRIP
360
1083
0
DICTIONARY
5
1084
330
F96
100
AcDbDictionary
280
1
281
1
3
ACAD_XREC_ROUNDTRIP
360
1085
0
DICTIONARY
5
1086
330
F97
100
AcDbDictionary
280
1
281
1
3
ACAD_XREC_ROUNDTRIP
360
1087
0
DICTIONARY
5
10A0
330
FA4
100
AcDbDictionary
280
1
281
1
3
ACAD_XREC_ROUNDTRIP
360
10A1
0
DICTIONARY
5
109A
330
FA1
100
AcDbDictionary
280
1
281
1
3
ACAD_XREC_ROUNDTRIP
360
109B
0
DICTIONARY
5
10A2
330
FA5
100
AcDbDictionary
280
1
281
1
3
ACAD_XREC_ROUNDTRIP
360
10A3
0
DICTIONARY
5
1092
330
F9D
100
AcDbDictionary
280
1
281
1
3
ACAD_XREC_ROUNDTRIP
360
1093
0
DICTIONARY
5
1098
330
FA0
100
AcDbDictionary
280
1
281
1
3
ACAD_XREC_ROUNDTRIP
360
1099
0
XRECORD
5
10AA
102
{ACAD_REACTORS
330
10A9
102
}
330
10A9
100
AcDbXrecord
280
1
102
SHADEPLOT
70
0
102
SHADEPLOTRESLEVEL
70
2
102
SHADEPLOTCUSTOMDPI
70
300
0
XRECORD
5
10A8
102
{ACAD_REACTORS
330
10A7
102
}
330
10A7
100
AcDbXrecord
280
1
102
SHADEPLOT
70
0
102
SHADEPLOTRESLEVEL
70
2
102
SHADEPLOTCUSTOMDPI
70
300
0
XRECORD
5
FFF
102
{ACAD_REACTORS
330
F84
102
}
330
F84
100
AcDbXrecord
280
1
102
MATERIAL
148
0.0
149
0.0
149
0.0
93
0
94
127
282
0
72
0
77
0
171
0
175
0
179
0
273
0
0
XRECORD
5
F86
102
{ACAD_REACTORS
330
F84
102
}
330
F84
100
AcDbXrecord
280
1
270
1
271
1
0
XRECORD
5
F85
102
{ACAD_REACTORS
330
F84
102
}
330
F84
100
AcDbXrecord
280
1
270
1
271
1
0
XRECORD
5
F89
102
{ACAD_REACTORS
330
F84
102
}
330
F84
100
AcDbXrecord
280
1
270
1
271
1
0
XRECORD
5
F88
102
{ACAD_REACTORS
330
F84
102
}
330
F84
100
AcDbXrecord
280
1
270
1
271
1
0
XRECORD
5
F8A
102
{ACAD_REACTORS
330
F84
102
}
330
F84
100
AcDbXrecord
280
1
270
1
271
1
0
XRECORD
5
F87
102
{ACAD_REACTORS
330
F84
102
}
330
F84
100
AcDbXrecord
280
1
270
1
271
1
0
XRECORD
5
FFE
102
{ACAD_REACTORS
330
F7C
102
}
330
F7C
100
AcDbXrecord
280
1
102
MATERIAL
148
0.0
149
0.0
149
0.0
93
0
94
127
282
0
72
0
77
0
171
0
175
0
179
0
273
0
0
XRECORD
5
F7E
102
{ACAD_REACTORS
330
F7C
102
}
330
F7C
100
AcDbXrecord
280
1
270
1
271
1
0
XRECORD
5
F7D
102
{ACAD_REACTORS
330
F7C
102
}
330
F7C
100
AcDbXrecord
280
1
270
1
271
1
0
XRECORD
5
F81
102
{ACAD_REACTORS
330
F7C
102
}
330
F7C
100
AcDbXrecord
280
1
270
1
271
1
0
XRECORD
5
F80
102
{ACAD_REACTORS
330
F7C
102
}
330
F7C
100
AcDbXrecord
280
1
270
1
271
1
0
XRECORD
5
F82
102
{ACAD_REACTORS
330
F7C
102
}
330
F7C
100
AcDbXrecord
280
1
270
1
271
1
0
XRECORD
5
F7F
102
{ACAD_REACTORS
330
F7C
102
}
330
F7C
100
AcDbXrecord
280
1
270
1
271
1
0
XRECORD
5
1000
102
{ACAD_REACTORS
330
F8C
102
}
330
F8C
100
AcDbXrecord
280
1
102
MATERIAL
148
0.0
149
0.0
149
0.0
93
0
94
127
282
0
72
0
77
0
171
0
175
0
179
0
273
0
0
XRECORD
5
F8E
102
{ACAD_REACTORS
330
F8C
102
}
330
F8C
100
AcDbXrecord
280
1
270
1
271
1
0
XRECORD
5
F8D
102
{ACAD_REACTORS
330
F8C
102
}
330
F8C
100
AcDbXrecord
280
1
270
1
271
1
0
XRECORD
5
F91
102
{ACAD_REACTORS
330
F8C
102
}
330
F8C
100
AcDbXrecord
280
1
270
1
271
1
0
XRECORD
5
F90
102
{ACAD_REACTORS
330
F8C
102
}
330
F8C
100
AcDbXrecord
280
1
270
1
271
1
0
XRECORD
5
F92
102
{ACAD_REACTORS
330
F8C
102
}
330
F8C
100
AcDbXrecord
280
1
270
1
271
1
0
XRECORD
5
F8F
102
{ACAD_REACTORS
330
F8C
102
}
330
F8C
100
AcDbXrecord
280
1
270
1
271
1
0
CELLSTYLEMAP
5
1079
102
{ACAD_REACTORS
330
FF8
102
}
330
FF8
100
AcDbCellStyleMap
90
3
300
CELLSTYLE
1
TABLEFORMAT_BEGIN
90
5
170
1
91
0
92
32768
62
257
93
1
300
CONTENTFORMAT
1
CONTENTFORMAT_BEGIN
90
0
91
0
92
512
93
0
300

40
0.0
140
1.0
94
5
62
0
340
253
144
0.25
309
CONTENTFORMAT_END
171
1
301
MARGIN
1
CELLMARGIN_BEGIN
40
0.06
40
0.06
40
0.06
40
0.06
40
0.18
40
0.18
309
CELLMARGIN_END
94
6
95
1
302
GRIDFORMAT
1
GRIDFORMAT_BEGIN
90
0
91
1
62
0
92
-2
340
0
93
0
40
0.045
309
GRIDFORMAT_END
95
2
302
GRIDFORMAT
1
GRIDFORMAT_BEGIN
90
0
91
1
62
0
92
-2
340
0
93
0
40
0.045
309
GRIDFORMAT_END
95
4
302
GRIDFORMAT
1
GRIDFORMAT_BEGIN
90
0
91
1
62
0
92
-2
340
0
93
0
40
0.045
309
GRIDFORMAT_END
95
8
302
GRIDFORMAT
1
GRIDFORMAT_BEGIN
90
0
91
1
62
0
92
-2
340
0
93
0
40
0.045
309
GRIDFORMAT_END
95
16
302
GRIDFORMAT
1
GRIDFORMAT_BEGIN
90
0
91
1
62
0
92
-2
340
0
93
0
40
0.045
309
GRIDFORMAT_END
95
32
302
GRIDFORMAT
1
GRIDFORMAT_BEGIN
90
0
91
1
62
0
92
-2
340
0
93
0
40
0.045
309
GRIDFORMAT_END
309
TABLEFORMAT_END
1
CELLSTYLE_BEGIN
90
1
91
1
300
_TITLE
309
CELLSTYLE_END
300
CELLSTYLE
1
TABLEFORMAT_BEGIN
90
5
170
1
91
0
92
0
62
257
93
1
300
CONTENTFORMAT
1
CONTENTFORMAT_BEGIN
90
0
91
0
92
512
93
0
300

40
0.0
140
1.0
94
5
62
0
340
253
144
0.18
309
CONTENTFORMAT_END
171
1
301
MARGIN
1
CELLMARGIN_BEGIN
40
0.06
40
0.06
40
0.06
40
0.06
40
0.18
40
0.18
309
CELLMARGIN_END
94
6
95
1
302
GRIDFORMAT
1
GRIDFORMAT_BEGIN
90
0
91
1
62
0
92
-2
340
0
93
0
40
0.045
309
GRIDFORMAT_END
95
2
302
GRIDFORMAT
1
GRIDFORMAT_BEGIN
90
0
91
1
62
0
92
-2
340
0
93
0
40
0.045
309
GRIDFORMAT_END
95
4
302
GRIDFORMAT
1
GRIDFORMAT_BEGIN
90
0
91
1
62
0
92
-2
340
0
93
0
40
0.045
309
GRIDFORMAT_END
95
8
302
GRIDFORMAT
1
GRIDFORMAT_BEGIN
90
0
91
1
62
0
92
-2
340
0
93
0
40
0.045
309
GRIDFORMAT_END
95
16
302
GRIDFORMAT
1
GRIDFORMAT_BEGIN
90
0
91
1
62
0
92
-2
340
0
93
0
40
0.045
309
GRIDFORMAT_END
95
32
302
GRIDFORMAT
1
GRIDFORMAT_BEGIN
90
0
91
1
62
0
92
-2
340
0
93
0
40
0.045
309
GRIDFORMAT_END
309
TABLEFORMAT_END
1
CELLSTYLE_BEGIN
90
2
91
1
300
_HEADER
309
CELLSTYLE_END
300
CELLSTYLE
1
TABLEFORMAT_BEGIN
90
5
170
1
91
0
92
0
62
257
93
1
300
CONTENTFORMAT
1
CONTENTFORMAT_BEGIN
90
0
91
0
92
512
93
0
300

40
0.0
140
1.0
94
2
62
0
340
253
144
0.18
309
CONTENTFORMAT_END
171
1
301
MARGIN
1
CELLMARGIN_BEGIN
40
0.06
40
0.06
40
0.06
40
0.06
40
0.18
40
0.18
309
CELLMARGIN_END
94
6
95
1
302
GRIDFORMAT
1
GRIDFORMAT_BEGIN
90
0
91
1
62
0
92
-2
340
0
93
0
40
0.045
309
GRIDFORMAT_END
95
2
302
GRIDFORMAT
1
GRIDFORMAT_BEGIN
90
0
91
1
62
0
92
-2
340
0
93
0
40
0.045
309
GRIDFORMAT_END
95
4
302
GRIDFORMAT
1
GRIDFORMAT_BEGIN
90
0
91
1
62
0
92
-2
340
0
93
0
40
0.045
309
GRIDFORMAT_END
95
8
302
GRIDFORMAT
1
GRIDFORMAT_BEGIN
90
0
91
1
62
0
92
-2
340
0
93
0
40
0.045
309
GRIDFORMAT_END
95
16
302
GRIDFORMAT
1
GRIDFORMAT_BEGIN
90
0
91
1
62
0
92
-2
340
0
93
0
40
0.045
309
GRIDFORMAT_END
95
32
302
GRIDFORMAT
1
GRIDFORMAT_BEGIN
90
0
91
1
62
0
92
-2
340
0
93
0
40
0.045
309
GRIDFORMAT_END
309
TABLEFORMAT_END
1
CELLSTYLE_BEGIN
90
3
91
2
300
_DATA
309
CELLSTYLE_END
0
XRECORD
5
10A6
102
{ACAD_REACTORS
330
FF8
102
}
330
FF8
100
AcDbXrecord
280
1
102
ACAD_ROUNDTRIP_PRE2007_TABLESTYLE
90
512
91
0
1

92
512
93
0
2

94
512
95
0
3

0
XRECORD
5
108B
102
{ACAD_REACTORS
330
108A
102
}
330
108A
100
AcDbXrecord
280
1
102
RTVSPropertyOp0
70
1
102
RTVSPropertyOp1
70
1
102
RTVSPropertyOp2
70
1
102
RTVSPropertyOp3
70
1
102
RTVSPropertyOp4
70
1
102
RTVSPropertyOp5
70
1
102
RTVSPropertyOp6
70
1
102
RTVSPropertyOp7
70
1
102
RTVSPropertyOp8
70
1
102
RTVSPropertyOp9
70
1
102
RTVSPropertyOp10
70
1
102
RTVSPropertyOp11
70
1
102
RTVSPropertyOp12
70
1
102
RTVSPropertyOp13
70
1
102
RTVSPropertyOp14
70
1
102
RTVSPropertyOp15
70
1
102
RTVSPropertyOp16
70
1
102
RTVSPropertyOp17
70
1
102
RTVSPropertyOp18
70
1
102
RTVSPropertyOp19
70
1
102
RTVSPropertyOp20
70
1
102
RTVSPropertyOp21
70
1
102
RTVSPropertyOp22
70
1
102
RTVSPropertyOp23
70
1
102
RTVSPropertyOp24
70
1
102
RTVSPropertyOp25
70
1
102
RTVSPropertyOp26
70
1
102
RTVSPropertyOp27
70
1
0
XRECORD
5
108F
102
{ACAD_REACTORS
330
108E
102
}
330
108E
100
AcDbXrecord
280
1
102
RTVSPropertyOp0
70
1
102
RTVSPropertyOp1
70
1
102
RTVSPropertyOp2
70
1
102
RTVSPropertyOp3
70
1
102
RTVSPropertyOp4
70
1
102
RTVSPropertyOp5
70
1
102
RTVSPropertyOp6
70
1
102
RTVSPropertyOp7
70
1
102
RTVSPropertyOp8
70
1
102
RTVSPropertyOp9
70
1
102
RTVSPropertyOp10
70
1
102
RTVSPropertyOp11
70
1
102
RTVSPropertyOp12
70
1
102
RTVSPropertyOp13
70
1
102
RTVSPropertyOp14
70
1
102
RTVSPropertyOp15
70
1
102
RTVSPropertyOp16
70
1
102
RTVSPropertyOp17
70
1
102
RTVSPropertyOp18
70
1
102
RTVSPropertyOp19
70
1
102
RTVSPropertyOp20
70
1
102
RTVSPropertyOp21
70
1
102
RTVSPropertyOp22
70
1
102
RTVSPropertyOp23
70
1
102
RTVSPropertyOp24
70
1
102
RTVSPropertyOp25
70
1
102
RTVSPropertyOp26
70
1
102
RTVSPropertyOp27
70
1
0
XRECORD
5
108D
102
{ACAD_REACTORS
330
108C
102
}
330
108C
100
AcDbXrecord
280
1
102
RTVSPropertyOp0
70
1
102
RTVSPropertyOp1
70
1
102
RTVSPropertyOp2
70
1
102
RTVSPropertyOp3
70
1
102
RTVSPropertyOp4
70
1
102
RTVSPropertyOp5
70
1
102
RTVSPropertyOp6
70
1
102
RTVSPropertyOp7
70
1
102
RTVSPropertyOp8
70
1
102
RTVSPropertyOp9
70
1
102
RTVSPropertyOp10
70
1
102
RTVSPropertyOp11
70
1
102
RTVSPropertyOp12
70
1
102
RTVSPropertyOp13
70
1
102
RTVSPropertyOp14
70
1
102
RTVSPropertyOp15
70
1
102
RTVSPropertyOp16
70
1
102
RTVSPropertyOp17
70
1
102
RTVSPropertyOp18
70
1
102
RTVSPropertyOp19
70
1
102
RTVSPropertyOp20
70
1
102
RTVSPropertyOp21
70
1
102
RTVSPropertyOp22
70
1
102
RTVSPropertyOp23
70
1
102
RTVSPropertyOp24
70
1
102
RTVSPropertyOp25
70
1
102
RTVSPropertyOp26
70
1
102
RTVSPropertyOp27
70
1
0
XRECORD
5
1089
102
{ACAD_REACTORS
330
1088
102
}
330
1088
100
AcDbXrecord
280
1
102
RTVSPropertyOp0
70
1
102
RTVSPropertyOp1
70
1
102
RTVSPropertyOp2
70
1
102
RTVSPropertyOp3
70
1
102
RTVSPropertyOp4
70
1
102
RTVSPropertyOp5
70
1
102
RTVSPropertyOp6
70
1
102
RTVSPropertyOp7
70
1
102
RTVSPropertyOp8
70
1
102
RTVSPropertyOp9
70
1
102
RTVSPropertyOp10
70
1
102
RTVSPropertyOp11
70
1
102
RTVSPropertyOp12
70
1
102
RTVSPropertyOp13
70
1
102
RTVSPropertyOp14
70
1
102
RTVSPropertyOp15
70
1
102
RTVSPropertyOp16
70
1
102
RTVSPropertyOp17
70
1
102
RTVSPropertyOp18
70
1
102
RTVSPropertyOp19
70
1
102
RTVSPropertyOp20
70
1
102
RTVSPropertyOp21
70
1
102
RTVSPropertyOp22
70
1
102
RTVSPropertyOp23
70
1
102
RTVSPropertyOp24
70
1
102
RTVSPropertyOp25
70
1
102
RTVSPropertyOp26
70
1
102
RTVSPropertyOp27
70
1
0
XRECORD
5
1097
102
{ACAD_REACTORS
330
1096
102
}
330
1096
100
AcDbXrecord
280
1
102
RTVSPropertyOp0
70
1
102
RTVSPropertyOp1
70
1
102
RTVSPropertyOp2
70
1
102
RTVSPropertyOp3
70
1
102
RTVSPropertyOp4
70
1
102
RTVSPropertyOp5
70
1
102
RTVSPropertyOp6
70
1
102
RTVSPropertyOp7
70
1
102
RTVSPropertyOp8
70
1
102
RTVSPropertyOp9
70
1
102
RTVSPropertyOp10
70
1
102
RTVSPropertyOp11
70
1
102
RTVSPropertyOp12
70
1
102
RTVSPropertyOp13
70
1
102
RTVSPropertyOp14
70
1
102
RTVSPropertyOp15
70
1
102
RTVSPropertyOp16
70
1
102
RTVSPropertyOp17
70
1
102
RTVSPropertyOp18
70
1
102
RTVSPropertyOp19
70
1
102
RTVSPropertyOp20
70
1
102
RTVSPropertyOp21
70
1
102
RTVSPropertyOp22
70
1
102
RTVSPropertyOp23
70
1
102
RTVSPropertyOp24
70
1
102
RTVSPropertyOp25
70
1
102
RTVSPropertyOp26
70
1
102
RTVSPropertyOp27
70
1
0
XRECORD
5
109F
102
{ACAD_REACTORS
330
109E
102
}
330
109E
100
AcDbXrecord
280
1
102
RTVSPropertyOp0
70
1
102
RTVSPropertyOp1
70
1
102
RTVSPropertyOp2
70
1
102
RTVSPropertyOp3
70
1
102
RTVSPropertyOp4
70
1
102
RTVSPropertyOp5
70
1
102
RTVSPropertyOp6
70
1
102
RTVSPropertyOp7
70
1
102
RTVSPropertyOp8
70
1
102
RTVSPropertyOp9
70
1
102
RTVSPropertyOp10
70
1
102
RTVSPropertyOp11
70
1
102
RTVSPropertyOp12
70
1
102
RTVSPropertyOp13
70
1
102
RTVSPropertyOp14
70
1
102
RTVSPropertyOp15
70
1
102
RTVSPropertyOp16
70
1
102
RTVSPropertyOp17
70
1
102
RTVSPropertyOp18
70
1
102
RTVSPropertyOp19
70
1
102
RTVSPropertyOp20
70
1
102
RTVSPropertyOp21
70
1
102
RTVSPropertyOp22
70
1
102
RTVSPropertyOp23
70
1
102
RTVSPropertyOp24
70
1
102
RTVSPropertyOp25
70
1
102
RTVSPropertyOp26
70
1
102
RTVSPropertyOp27
70
1
0
XRECORD
5
1091
102
{ACAD_REACTORS
330
1090
102
}
330
1090
100
AcDbXrecord
280
1
102
RTVSPropertyOp0
70
1
102
RTVSPropertyOp1
70
1
102
RTVSPropertyOp2
70
1
102
RTVSPropertyOp3
70
1
102
RTVSPropertyOp4
70
1
102
RTVSPropertyOp5
70
1
102
RTVSPropertyOp6
70
1
102
RTVSPropertyOp7
70
1
102
RTVSPropertyOp8
70
1
102
RTVSPropertyOp9
70
1
102
RTVSPropertyOp10
70
1
102
RTVSPropertyOp11
70
1
102
RTVSPropertyOp12
70
1
102
RTVSPropertyOp13
70
1
102
RTVSPropertyOp14
70
1
102
RTVSPropertyOp15
70
1
102
RTVSPropertyOp16
70
1
102
RTVSPropertyOp17
70
1
102
RTVSPropertyOp18
70
1
102
RTVSPropertyOp19
70
1
102
RTVSPropertyOp20
70
1
102
RTVSPropertyOp21
70
1
102
RTVSPropertyOp22
70
1
102
RTVSPropertyOp23
70
1
102
RTVSPropertyOp24
70
1
102
RTVSPropertyOp25
70
1
102
RTVSPropertyOp26
70
1
102
RTVSPropertyOp27
70
1
0
XRECORD
5
1095
102
{ACAD_REACTORS
330
1094
102
}
330
1094
100
AcDbXrecord
280
1
102
RTVSPropertyOp0
70
1
102
RTVSPropertyOp1
70
1
102
RTVSPropertyOp2
70
1
102
RTVSPropertyOp3
70
1
102
RTVSPropertyOp4
70
1
102
RTVSPropertyOp5
70
1
102
RTVSPropertyOp6
70
1
102
RTVSPropertyOp7
70
1
102
RTVSPropertyOp8
70
1
102
RTVSPropertyOp9
70
1
102
RTVSPropertyOp10
70
1
102
RTVSPropertyOp11
70
1
102
RTVSPropertyOp12
70
1
102
RTVSPropertyOp13
70
1
102
RTVSPropertyOp14
70
1
102
RTVSPropertyOp15
70
1
102
RTVSPropertyOp16
70
1
102
RTVSPropertyOp17
70
1
102
RTVSPropertyOp18
70
1
102
RTVSPropertyOp19
70
1
102
RTVSPropertyOp20
70
1
102
RTVSPropertyOp21
70
1
102
RTVSPropertyOp22
70
1
102
RTVSPropertyOp23
70
1
102
RTVSPropertyOp24
70
1
102
RTVSPropertyOp25
70
1
102
RTVSPropertyOp26
70
1
102
RTVSPropertyOp27
70
1
0
XRECORD
5
10A5
102
{ACAD_REACTORS
330
10A4
102
}
330
10A4
100
AcDbXrecord
280
1
102
RTVSPropertyOp0
70
0
102
RTVSPropertyOp1
70
0
102
RTVSPropertyOp2
70
0
102
RTVSPropertyOp3
70
0
102
RTVSPropertyOp4
70
0
102
RTVSPropertyOp5
70
0
102
RTVSPropertyOp6
70
0
102
RTVSPropertyOp7
70
0
102
RTVSPropertyOp8
70
0
102
RTVSPropertyOp9
70
0
102
RTVSPropertyOp10
70
0
102
RTVSPropertyOp11
70
0
102
RTVSPropertyOp12
70
0
102
RTVSPropertyOp13
70
0
102
RTVSPropertyOp14
70
2
102
RTVSPropertyOp15
70
0
102
RTVSPropertyOp16
70
0
102
RTVSPropertyOp17
70
0
102
RTVSPropertyOp18
70
0
102
RTVSPropertyOp19
70
0
102
RTVSPropertyOp20
70
0
102
RTVSPropertyOp21
70
0
102
RTVSPropertyOp22
70
0
102
RTVSPropertyOp23
70
0
102
RTVSPropertyOp24
70
0
102
RTVSPropertyOp25
70
0
102
RTVSPropertyOp26
70
0
102
RTVSPropertyOp27
70
0
0
XRECORD
5
109D
102
{ACAD_REACTORS
330
109C
102
}
330
109C
100
AcDbXrecord
280
1
102
RTVSPropertyOp0
70
1
102
RTVSPropertyOp1
70
1
102
RTVSPropertyOp2
70
1
102
RTVSPropertyOp3
70
1
102
RTVSPropertyOp4
70
1
102
RTVSPropertyOp5
70
1
102
RTVSPropertyOp6
70
1
102
RTVSPropertyOp7
70
1
102
RTVSPropertyOp8
70
1
102
RTVSPropertyOp9
70
1
102
RTVSPropertyOp10
70
1
102
RTVSPropertyOp11
70
1
102
RTVSPropertyOp12
70
1
102
RTVSPropertyOp13
70
1
102
RTVSPropertyOp14
70
1
102
RTVSPropertyOp15
70
1
102
RTVSPropertyOp16
70
1
102
RTVSPropertyOp17
70
1
102
RTVSPropertyOp18
70
1
102
RTVSPropertyOp19
70
1
102
RTVSPropertyOp20
70
1
102
RTVSPropertyOp21
70
1
102
RTVSPropertyOp22
70
1
102
RTVSPropertyOp23
70
1
102
RTVSPropertyOp24
70
1
102
RTVSPropertyOp25
70
1
102
RTVSPropertyOp26
70
1
102
RTVSPropertyOp27
70
1
0
XRECORD
5
1081
102
{ACAD_REACTORS
330
1080
102
}
330
1080
100
AcDbXrecord
280
1
102
RTVSPropertyOp0
70
1
102
RTVSPropertyOp1
70
1
102
RTVSPropertyOp2
70
1
102
RTVSPropertyOp3
70
1
102
RTVSPropertyOp4
70
1
102
RTVSPropertyOp5
70
1
102
RTVSPropertyOp6
70
1
102
RTVSPropertyOp7
70
1
102
RTVSPropertyOp8
70
1
102
RTVSPropertyOp9
70
1
102
RTVSPropertyOp10
70
1
102
RTVSPropertyOp11
70
1
102
RTVSPropertyOp12
70
1
102
RTVSPropertyOp13
70
1
102
RTVSPropertyOp14
70
1
102
RTVSPropertyOp15
70
1
102
RTVSPropertyOp16
70
1
102
RTVSPropertyOp17
70
1
102
RTVSPropertyOp18
70
1
102
RTVSPropertyOp19
70
1
102
RTVSPropertyOp20
70
1
102
RTVSPropertyOp21
70
1
102
RTVSPropertyOp22
70
1
102
RTVSPropertyOp23
70
1
102
RTVSPropertyOp24
70
1
102
RTVSPropertyOp25
70
1
102
RTVSPropertyOp26
70
1
102
RTVSPropertyOp27
70
1
0
XRECORD
5
1083
102
{ACAD_REACTORS
330
1082
102
}
330
1082
100
AcDbXrecord
280
1
102
RTVSPropertyOp0
70
1
102
RTVSPropertyOp1
70
1
102
RTVSPropertyOp2
70
1
102
RTVSPropertyOp3
70
1
102
RTVSPropertyOp4
70
1
102
RTVSPropertyOp5
70
1
102
RTVSPropertyOp6
70
1
102
RTVSPropertyOp7
70
1
102
RTVSPropertyOp8
70
1
102
RTVSPropertyOp9
70
1
102
RTVSPropertyOp10
70
1
102
RTVSPropertyOp11
70
1
102
RTVSPropertyOp12
70
1
102
RTVSPropertyOp13
70
1
102
RTVSPropertyOp14
70
1
102
RTVSPropertyOp15
70
1
102
RTVSPropertyOp16
70
1
102
RTVSPropertyOp17
70
1
102
RTVSPropertyOp18
70
1
102
RTVSPropertyOp19
70
1
102
RTVSPropertyOp20
70
1
102
RTVSPropertyOp21
70
1
102
RTVSPropertyOp22
70
1
102
RTVSPropertyOp23
70
1
102
RTVSPropertyOp24
70
1
102
RTVSPropertyOp25
70
1
102
RTVSPropertyOp26
70
1
102
RTVSPropertyOp27
70
1
0
XRECORD
5
1085
102
{ACAD_REACTORS
330
1084
102
}
330
1084
100
AcDbXrecord
280
1
102
RTVSPropertyOp0
70
1
102
RTVSPropertyOp1
70
1
102
RTVSPropertyOp2
70
1
102
RTVSPropertyOp3
70
1
102
RTVSPropertyOp4
70
1
102
RTVSPropertyOp5
70
1
102
RTVSPropertyOp6
70
1
102
RTVSPropertyOp7
70
1
102
RTVSPropertyOp8
70
1
102
RTVSPropertyOp9
70
1
102
RTVSPropertyOp10
70
1
102
RTVSPropertyOp11
70
1
102
RTVSPropertyOp12
70
1
102
RTVSPropertyOp13
70
1
102
RTVSPropertyOp14
70
1
102
RTVSPropertyOp15
70
1
102
RTVSPropertyOp16
70
1
102
RTVSPropertyOp17
70
1
102
RTVSPropertyOp18
70
1
102
RTVSPropertyOp19
70
1
102
RTVSPropertyOp20
70
1
102
RTVSPropertyOp21
70
1
102
RTVSPropertyOp22
70
1
102
RTVSPropertyOp23
70
1
102
RTVSPropertyOp24
70
1
102
RTVSPropertyOp25
70
1
102
RTVSPropertyOp26
70
1
102
RTVSPropertyOp27
70
1
0
XRECORD
5
1087
102
{ACAD_REACTORS
330
1086
102
}
330
1086
100
AcDbXrecord
280
1
102
RTVSPropertyOp0
70
1
102
RTVSPropertyOp1
70
1
102
RTVSPropertyOp2
70
1
102
RTVSPropertyOp3
70
1
102
RTVSPropertyOp4
70
1
102
RTVSPropertyOp5
70
1
102
RTVSPropertyOp6
70
1
102
RTVSPropertyOp7
70
1
102
RTVSPropertyOp8
70
1
102
RTVSPropertyOp9
70
1
102
RTVSPropertyOp10
70
1
102
RTVSPropertyOp11
70
1
102
RTVSPropertyOp12
70
1
102
RTVSPropertyOp13
70
1
102
RTVSPropertyOp14
70
1
102
RTVSPropertyOp15
70
1
102
RTVSPropertyOp16
70
1
102
RTVSPropertyOp17
70
1
102
RTVSPropertyOp18
70
1
102
RTVSPropertyOp19
70
1
102
RTVSPropertyOp20
70
1
102
RTVSPropertyOp21
70
1
102
RTVSPropertyOp22
70
1
102
RTVSPropertyOp23
70
1
102
RTVSPropertyOp24
70
1
102
RTVSPropertyOp25
70
1
102
RTVSPropertyOp26
70
1
102
RTVSPropertyOp27
70
1
0
XRECORD
5
10A1
102
{ACAD_REACTORS
330
10A0
102
}
330
10A0
100
AcDbXrecord
280
1
102
RTVSPropertyOp0
70
0
102
RTVSPropertyOp1
70
0
102
RTVSPropertyOp2
70
0
102
RTVSPropertyOp3
70
0
102
RTVSPropertyOp4
70
0
102
RTVSPropertyOp5
70
0
102
RTVSPropertyOp6
70
0
102
RTVSPropertyOp7
70
0
102
RTVSPropertyOp8
70
0
102
RTVSPropertyOp9
70
0
102
RTVSPropertyOp10
70
0
102
RTVSPropertyOp11
70
0
102
RTVSPropertyOp12
70
0
102
RTVSPropertyOp13
70
0
102
RTVSPropertyOp14
70
2
102
RTVSPropertyOp15
70
0
102
RTVSPropertyOp16
70
0
102
RTVSPropertyOp17
70
0
102
RTVSPropertyOp18
70
0
102
RTVSPropertyOp19
70
0
102
RTVSPropertyOp20
70
0
102
RTVSPropertyOp21
70
0
102
RTVSPropertyOp22
70
0
102
RTVSPropertyOp23
70
0
102
RTVSPropertyOp24
70
0
102
RTVSPropertyOp25
70
0
102
RTVSPropertyOp26
70
0
102
RTVSPropertyOp27
70
0
0
XRECORD
5
109B
102
{ACAD_REACTORS
330
109A
102
}
330
109A
100
AcDbXrecord
280
1
102
RTVSPropertyOp0
70
1
102
RTVSPropertyOp1
70
1
102
RTVSPropertyOp2
70
1
102
RTVSPropertyOp3
70
1
102
RTVSPropertyOp4
70
1
102
RTVSPropertyOp5
70
1
102
RTVSPropertyOp6
70
1
102
RTVSPropertyOp7
70
1
102
RTVSPropertyOp8
70
1
102
RTVSPropertyOp9
70
1
102
RTVSPropertyOp10
70
1
102
RTVSPropertyOp11
70
1
102
RTVSPropertyOp12
70
1
102
RTVSPropertyOp13
70
1
102
RTVSPropertyOp14
70
1
102
RTVSPropertyOp15
70
1
102
RTVSPropertyOp16
70
1
102
RTVSPropertyOp17
70
1
102
RTVSPropertyOp18
70
1
102
RTVSPropertyOp19
70
1
102
RTVSPropertyOp20
70
1
102
RTVSPropertyOp21
70
1
102
RTVSPropertyOp22
70
1
102
RTVSPropertyOp23
70
1
102
RTVSPropertyOp24
70
1
102
RTVSPropertyOp25
70
1
102
RTVSPropertyOp26
70
1
102
RTVSPropertyOp27
70
1
0
XRECORD
5
10A3
102
{ACAD_REACTORS
330
10A2
102
}
330
10A2
100
AcDbXrecord
280
1
102
RTVSPropertyOp0
70
0
102
RTVSPropertyOp1
70
0
102
RTVSPropertyOp2
70
0
102
RTVSPropertyOp3
70
0
102
RTVSPropertyOp4
70
0
102
RTVSPropertyOp5
70
0
102
RTVSPropertyOp6
70
0
102
RTVSPropertyOp7
70
0
102
RTVSPropertyOp8
70
0
102
RTVSPropertyOp9
70
0
102
RTVSPropertyOp10
70
0
102
RTVSPropertyOp11
70
0
102
RTVSPropertyOp12
70
0
102
RTVSPropertyOp13
70
0
102
RTVSPropertyOp14
70
2
102
RTVSPropertyOp15
70
0
102
RTVSPropertyOp16
70
0
102
RTVSPropertyOp17
70
0
102
RTVSPropertyOp18
70
0
102
RTVSPropertyOp19
70
0
102
RTVSPropertyOp20
70
0
102
RTVSPropertyOp21
70
0
102
RTVSPropertyOp22
70
0
102
RTVSPropertyOp23
70
0
102
RTVSPropertyOp24
70
0
102
RTVSPropertyOp25
70
0
102
RTVSPropertyOp26
70
0
102
RTVSPropertyOp27
70
0
0
XRECORD
5
1093
102
{ACAD_REACTORS
330
1092
102
}
330
1092
100
AcDbXrecord
280
1
102
RTVSPropertyOp0
70
1
102
RTVSPropertyOp1
70
1
102
RTVSPropertyOp2
70
1
102
RTVSPropertyOp3
70
1
102
RTVSPropertyOp4
70
1
102
RTVSPropertyOp5
70
1
102
RTVSPropertyOp6
70
1
102
RTVSPropertyOp7
70
1
102
RTVSPropertyOp8
70
1
102
RTVSPropertyOp9
70
1
102
RTVSPropertyOp10
70
1
102
RTVSPropertyOp11
70
1
102
RTVSPropertyOp12
70
1
102
RTVSPropertyOp13
70
1
102
RTVSPropertyOp14
70
1
102
RTVSPropertyOp15
70
1
102
RTVSPropertyOp16
70
1
102
RTVSPropertyOp17
70
1
102
RTVSPropertyOp18
70
1
102
RTVSPropertyOp19
70
1
102
RTVSPropertyOp20
70
1
102
RTVSPropertyOp21
70
1
102
RTVSPropertyOp22
70
1
102
RTVSPropertyOp23
70
1
102
RTVSPropertyOp24
70
1
102
RTVSPropertyOp25
70
1
102
RTVSPropertyOp26
70
1
102
RTVSPropertyOp27
70
1
0
XRECORD
5
1099
102
{ACAD_REACTORS
330
1098
102
}
330
1098
100
AcDbXrecord
280
1
102
RTVSPropertyOp0
70
1
102
RTVSPropertyOp1
70
1
102
RTVSPropertyOp2
70
1
102
RTVSPropertyOp3
70
1
102
RTVSPropertyOp4
70
1
102
RTVSPropertyOp5
70
1
102
RTVSPropertyOp6
70
1
102
RTVSPropertyOp7
70
1
102
RTVSPropertyOp8
70
1
102
RTVSPropertyOp9
70
1
102
RTVSPropertyOp10
70
1
102
RTVSPropertyOp11
70
1
102
RTVSPropertyOp12
70
1
102
RTVSPropertyOp13
70
1
102
RTVSPropertyOp14
70
1
102
RTVSPropertyOp15
70
1
102
RTVSPropertyOp16
70
1
102
RTVSPropertyOp17
70
1
102
RTVSPropertyOp18
70
1
102
RTVSPropertyOp19
70
1
102
RTVSPropertyOp20
70
1
102
RTVSPropertyOp21
70
1
102
RTVSPropertyOp22
70
1
102
RTVSPropertyOp23
70
1
102
RTVSPropertyOp24
70
1
102
RTVSPropertyOp25
70
1
102
RTVSPropertyOp26
70
1
102
RTVSPropertyOp27
70
1
0
ENDSEC
0
EOF
