0
SECTION
2
HEADER
9
$ACADVER
1
AC1015
9
$ACADMAINTVER
70
20
9
$DWGCODEPAGE
3
ANSI_1252
9
$INSBASE
10
0.0
20
0.0
30
0.0
9
$EXTMIN
10
-150.000000000000
20
-105.000000000000
30
0.0
9
$EXTMAX
10
150.000000000000
20
105.000000000000
30
0.0
9
$LIMMIN
10
0.0
20
0.0
9
$LIMMAX
10
12.0
20
9.0
9
$ORTHOMODE
70
0
9
$REGENMODE
70
1
9
$FILLMODE
70
1
9
$QTEXTMODE
70
0
9
$MIRRTEXT
70
1
9
$LTSCALE
40
1.0
9
$ATTMODE
70
1
9
$TEXTSIZE
40
0.2
9
$TRACEWID
40
0.05
9
$TEXTSTYLE
7
Standard
9
$CLAYER
8
0
9
$CELTYPE
6
ByLayer
9
$CECOLOR
62
256
9
$CELTSCALE
40
1.0
9
$DISPSILH
70
0
9
$DIMSCALE
40
1.0
9
$DIMASZ
40
2.5
9
$DIMEXO
40
0.625
9
$DIMDLI
40
0.38
9
$DIMRND
40
0.0
9
$DIMDLE
40
0.0
9
$DIMEXE
40
1.25
9
$DIMTP
40
0.0
9
$DIMTM
40
0.000000001
9
$DIMTXT
40
2.5
9
$DIMCEN
40
0.09
9
$DIMTSZ
40
0.0
9
$DIMTOL
70
1
9
$DIMLIM
70
0
9
$DIMTIH
70
0
9
$DIMTOH
70
0
9
$DIMSE1
70
0
9
$DIMSE2
70
0
9
$DIMTAD
70
1
9
$DIMZIN
70
0
9
$DIMBLK
1
VDDIM_DEFAULT
9
$DIMASO
70
1
9
$DIMSHO
70
1
9
$DIMPOST
1

9
$DIMAPOST
1

9
$DIMALT
70
0
9
$DIMALTD
70
2
9
$DIMALTF
40
25.4
9
$DIMLFAC
40
1.00000000000000
9
$DIMTOFL
70
0
9
$DIMTVP
40
0.0
9
$DIMTIX
70
0
9
$DIMSOXD
70
0
9
$DIMSAH
70
0
9
$DIMBLK1
1

9
$DIMBLK2
1

9
$DIMSTYLE
2
BEM-ISBE
9
$DIMCLRD
70
0
9
$DIMCLRE
70
0
9
$DIMCLRT
70
0
9
$DIMTFAC
40
0.5
9
$DIMGAP
40
0.625
9
$DIMJUST
70
0
9
$DIMSD1
70
0
9
$DIMSD2
70
0
9
$DIMTOLJ
70
1
9
$DIMTZIN
70
0
9
$DIMALTZ
70
0
9
$DIMALTTZ
70
0
9
$DIMUPT
70
0
9
$DIMDEC
70
3
9
$DIMTDEC
70
3
9
$DIMALTU
70
2
9
$DIMALTTD
70
2
9
$DIMTXSTY
7
Standard
9
$DIMAUNIT
70
0
9
$DIMADEC
70
3
9
$DIMALTRND
40
0.0
9
$DIMAZIN
70
0
9
$DIMDSEP
70
46
9
$DIMATFIT
70
3
9
$DIMFRAC
70
0
9
$DIMLDRBLK
1

9
$DIMLUNIT
70
2
9
$DIMLWD
70
-2
9
$DIMLWE
70
-2
9
$DIMTMOVE
70
0
9
$LUNITS
70
2
9
$LUPREC
70
4
9
$SKETCHINC
40
0.1
9
$FILLETRAD
40
0.5
9
$AUNITS
70
0
9
$AUPREC
70
0
9
$MENU
1
.
9
$ELEVATION
40
0.0
9
$PELEVATION
40
0.0
9
$THICKNESS
40
0.0
9
$LIMCHECK
70
0
9
$CHAMFERA
40
0.5
9
$CHAMFERB
40
0.5
9
$CHAMFERC
40
1.0
9
$CHAMFERD
40
0.0
9
$SKPOLY
70
0
9
$TDCREATE
40
0.0
9
$TDUCREATE
40
0.0
9
$TDUPDATE
40
0.0
9
$TDUUPDATE
40
0.0
9
$TDINDWG
40
0.0
9
$TDUSRTIMER
40
0.0
9
$USRTIMER
70
1
9
$ANGBASE
50
0.0
9
$ANGDIR
70
0
9
$PDMODE
70
0
9
$PDSIZE
40
0.0
9
$PLINEWID
40
0.0
9
$SPLFRAME
70
0
9
$SPLINETYPE
70
6
9
$SPLINESEGS
70
8
9
$HANDSEED
5
10AB
9
$SURFTAB1
70
6
9
$SURFTAB2
70
6
9
$SURFTYPE
70
6
9
$SURFU
70
6
9
$SURFV
70
6
9
$UCSBASE
2

9
$UCSNAME
2

9
$UCSORG
10
0.0
20
0.0
30
0.0
9
$UCSXDIR
10
1.0
20
0.0
30
0.0
9
$UCSYDIR
10
0.0
20
1.0
30
0.0
9
$UCSORTHOREF
2

9
$UCSORTHOVIEW
70
0
9
$UCSORGTOP
10
0.0
20
0.0
30
0.0
9
$UCSORGBOTTOM
10
0.0
20
0.0
30
0.0
9
$UCSORGLEFT
10
0.0
20
0.0
30
0.0
9
$UCSORGRIGHT
10
0.0
20
0.0
30
0.0
9
$UCSORGFRONT
10
0.0
20
0.0
30
0.0
9
$UCSORGBACK
10
0.0
20
0.0
30
0.0
9
$PUCSBASE
2

9
$PUCSNAME
2

9
$PUCSORG
10
0.0
20
0.0
30
0.0
9
$PUCSXDIR
10
1.0
20
0.0
30
0.0
9
$PUCSYDIR
10
0.0
20
1.0
30
0.0
9
$PUCSORTHOREF
2

9
$PUCSORTHOVIEW
70
0
9
$PUCSORGTOP
10
0.0
20
0.0
30
0.0
9
$PUCSORGBOTTOM
10
0.0
20
0.0
30
0.0
9
$PUCSORGLEFT
10
0.0
20
0.0
30
0.0
9
$PUCSORGRIGHT
10
0.0
20
0.0
30
0.0
9
$PUCSORGFRONT
10
0.0
20
0.0
30
0.0
9
$PUCSORGBACK
10
0.0
20
0.0
30
0.0
9
$USERI1
70
0
9
$USERI2
70
0
9
$USERI3
70
0
9
$USERI4
70
0
9
$USERI5
70
0
9
$USERR1
40
0.0
9
$USERR2
40
0.0
9
$USERR3
40
0.0
9
$USERR4
40
0.0
9
$USERR5
40
0.0
9
$WORLDVIEW
70
1
9
$SHADEDGE
70
3
9
$SHADEDIF
70
70
9
$TILEMODE
70
1
9
$MAXACTVP
70
64
9
$PINSBASE
10
0.0
20
0.0
30
0.0
9
$PLIMCHECK
70
0
9
$PEXTMIN
10
1.000000000000000E+20
20
1.000000000000000E+20
30
1.000000000000000E+20
9
$PEXTMAX
10
-1.000000000000000E+20
20
-1.000000000000000E+20
30
-1.000000000000000E+20
9
$PLIMMIN
10
0.0
20
0.0
9
$PLIMMAX
10
12.0
20
9.0
9
$UNITMODE
70
0
9
$VISRETAIN
70
1
9
$PLINEGEN
70
0
9
$PSLTSCALE
70
1
9
$TREEDEPTH
70
3020
9
$CMLSTYLE
2
Standard
9
$CMLJUST
70
0
9
$CMLSCALE
40
1.0
9
$PROXYGRAPHICS
70
1
9
$MEASUREMENT
70
0
9
$CELWEIGHT
370
-1
9
$ENDCAPS
280
0
9
$JOINSTYLE
280
0
9
$LWDISPLAY
290
0
9
$INSUNITS
70
4
9
$HYPERLINKBASE
1

9
$STYLESHEET
1

9
$XEDIT
290
1
9
$CEPSNTYPE
380
0
9
$PSTYLEMODE
290
0
9
$FINGERPRINTGUID
2
{FAEB1C30-E019-11D5-929B-00C0DF256EC4}
9
$VERSIONGUID
2
{04C5C4E4-4947-4D90-8812-D401569E61F7}
9
$EXTNAMES
290
1
9
$PSVPSCALE
40
0.0
9
$OLESTARTUP
290
0
0
ENDSEC
0
SECTION
2
TABLES
0
TABLE
2
VPORT
5
24A
330
0
100
AcDbSymbolTable
70
1
0
VPORT
5
26B
330
24A
100
AcDbSymbolTableRecord
100
AcDbViewportTableRecord
2
*Active
70
0
10
0.0
20
0.0
11
1.0
21
1.0
12
0.000000000000000
22
0.000000000000000
13
0.0
23
0.0
14
10.0
24
10.0
15
10.0
25
10.0
16
0.0
26
0.0
36
1.0
17
0.0
27
0.0
37
0.0
40
210.000000000000
41
1.42857142857143
42
1.0
43
0.0
44
0.0
50
0.0
51
0.0000000000007958
71
0
72
100
73
1
74
3
75
0
76
0
77
0
78
1
281
0
65
1
110
0.0
120
0.0
130
0.0
111
1.0
121
0.0
131
0.0
112
0.0
122
1.0
132
0.0
79
0
146
0.0
0
ENDTAB
0
TABLE
2
LTYPE
5
247
330
0
100
AcDbSymbolTable
70
25
0
LTYPE
5
256
330
247
100
AcDbSymbolTableRecord
100
AcDbLinetypeTableRecord
2
ByBlock
70
0
3

72
65
73
0
40
0.0
0
LTYPE
5
257
330
247
100
AcDbSymbolTableRecord
100
AcDbLinetypeTableRecord
2
ByLayer
70
0
3

72
65
73
0
40
0.0
0
LTYPE
5
258
330
247
100
AcDbSymbolTableRecord
100
AcDbLinetypeTableRecord
2
Continuous
70
0
3
Solid line
72
65
73
0
40
0.0
0
LTYPE
5
273
330
247
100
AcDbSymbolTableRecord
100
AcDbLinetypeTableRecord
2
CENTER
70
0
3
Center ____ _ ____ _ ____ _ ____ _ ____ _ ____
72
65
73
4
40
2.0
49
1.25
74
0
49
-0.25
74
0
49
0.25
74
0
49
-0.25
74
0
0
LTYPE
5
274
330
247
100
AcDbSymbolTableRecord
100
AcDbLinetypeTableRecord
2
DASHDOT
70
0
3
Dashdot __ . __ . __ . __ . __ . __ . __ . __
72
65
73
4
40
1.0
49
0.5
74
0
49
-0.25
74
0
49
0.0
74
0
49
-0.25
74
0
0
LTYPE
5
275
330
247
100
AcDbSymbolTableRecord
100
AcDbLinetypeTableRecord
2
DASHED
70
0
3
Dashed __ __ __ __ __ __ __ __ __ __ __ __ __ _
72
65
73
2
40
0.75
49
0.5
74
0
49
-0.25
74
0
0
LTYPE
5
276
330
247
100
AcDbSymbolTableRecord
100
AcDbLinetypeTableRecord
2
HIDDEN
70
0
3
Hidden __ __ __ __ __ __ __ __ __ __ __ __ __ __
72
65
73
2
40
0.375
49
0.25
74
0
49
-0.125
74
0
0
LTYPE
5
277
330
247
100
AcDbSymbolTableRecord
100
AcDbLinetypeTableRecord
2
HIDDEN2
70
0
3
Hidden2 _ _ _ _ _ _ _ _ _ _ _ _ _ _ _ _ _
72
65
73
2
40
0.1875
49
0.125
74
0
49
-0.0625
74
0
0
LTYPE
5
278
330
247
100
AcDbSymbolTableRecord
100
AcDbLinetypeTableRecord
2
BORDER
70
0
3
Border __ __ . __ __ . __ __ . __ __ . __ __ .
72
65
73
6
40
1.75
49
0.5
74
0
49
-0.25
74
0
49
0.5
74
0
49
-0.25
74
0
49
0.0
74
0
49
-0.25
74
0
0
LTYPE
5
279
330
247
100
AcDbSymbolTableRecord
100
AcDbLinetypeTableRecord
2
BORDER2
70
0
3
Border2 __.__.__.__.__.__.__.__.__.__.__.
72
65
73
6
40
0.875
49
0.25
74
0
49
-0.125
74
0
49
0.25
74
0
49
-0.125
74
0
49
0.0
74
0
49
-0.125
74
0
0
LTYPE
5
27A
330
247
100
AcDbSymbolTableRecord
100
AcDbLinetypeTableRecord
2
BORDERX2
70
0
3
Borderx2  ____  ____  .  ____  ____  .  ___
72
65
73
6
40
3.5
49
1.0
74
0
49
-0.5
74
0
49
1.0
74
0
49
-0.5
74
0
49
0.0
74
0
49
-0.5
74
0
0
LTYPE
5
27B
330
247
100
AcDbSymbolTableRecord
100
AcDbLinetypeTableRecord
2
CENTER2
70
0
3
Center2  ___ _ ___ _ ___ _ ___ _ ___ _ ___
72
65
73
4
40
1.125
49
0.75
74
0
49
-0.125
74
0
49
0.125
74
0
49
-0.125
74
0
0
LTYPE
5
27C
330
247
100
AcDbSymbolTableRecord
100
AcDbLinetypeTableRecord
2
CENTERX2
70
0
3
Centerx2  ________  __  ________  __  _____
72
65
73
4
40
4.0
49
2.5
74
0
49
-0.5
74
0
49
0.5
74
0
49
-0.5
74
0
0
LTYPE
5
27D
330
247
100
AcDbSymbolTableRecord
100
AcDbLinetypeTableRecord
2
DASHDOT2
70
0
3
Dashdot2  _._._._._._._._._._._._._._._.
72
65
73
4
40
0.5
49
0.25
74
0
49
-0.125
74
0
49
0.0
74
0
49
-0.125
74
0
0
LTYPE
5
27E
330
247
100
AcDbSymbolTableRecord
100
AcDbLinetypeTableRecord
2
DASHDOTX2
70
0
3
Dashdotx2 ____  .  ____  .  ____  .  ___
72
65
73
4
40
2.0
49
1.0
74
0
49
-0.5
74
0
49
0.0
74
0
49
-0.5
74
0
0
LTYPE
5
27F
330
247
100
AcDbSymbolTableRecord
100
AcDbLinetypeTableRecord
2
DASHED2
70
0
3
Dashed2 _ _ _ _ _ _ _ _ _ _ _ _ _ _ _ _ _
72
65
73
2
40
0.375
49
0.25
74
0
49
-0.125
74
0
0
LTYPE
5
280
330
247
100
AcDbSymbolTableRecord
100
AcDbLinetypeTableRecord
2
DASHEDX2
70
0
3
Dashedx2 ____  ____  ____  ____  ____  ___
72
65
73
2
40
1.5
49
1.0
74
0
49
-0.5
74
0
0
LTYPE
5
281
330
247
100
AcDbSymbolTableRecord
100
AcDbLinetypeTableRecord
2
DIVIDE
70
0
3
Divide ____ . . ____ . . ____ . . ____ . . ____
72
65
73
6
40
1.25
49
0.5
74
0
49
-0.25
74
0
49
0.0
74
0
49
-0.25
74
0
49
0.0
74
0
49
-0.25
74
0
0
LTYPE
5
282
330
247
100
AcDbSymbolTableRecord
100
AcDbLinetypeTableRecord
2
DIVIDE2
70
0
3
Divide2 __..__..__..__..__..__..__..__.._
72
65
73
6
40
0.625
49
0.25
74
0
49
-0.125
74
0
49
0.0
74
0
49
-0.125
74
0
49
0.0
74
0
49
-0.125
74
0
0
LTYPE
5
283
330
247
100
AcDbSymbolTableRecord
100
AcDbLinetypeTableRecord
2
DIVIDEX2
70
0
3
Dividex2 ________  .  .  ________  .  .  _
72
65
73
6
40
2.5
49
1.0
74
0
49
-0.5
74
0
49
0.0
74
0
49
-0.5
74
0
49
0.0
74
0
49
-0.5
74
0
0
LTYPE
5
284
330
247
100
AcDbSymbolTableRecord
100
AcDbLinetypeTableRecord
2
DOT
70
0
3
Dot . . . . . . . . . . . . . . . . . . . . . . . .
72
65
73
2
40
0.25
49
0.0
74
0
49
-0.25
74
0
0
LTYPE
5
285
330
247
100
AcDbSymbolTableRecord
100
AcDbLinetypeTableRecord
2
DOT2
70
0
3
Dot2 ........................................
72
65
73
2
40
0.125
49
0.0
74
0
49
-0.125
74
0
0
LTYPE
5
286
330
247
100
AcDbSymbolTableRecord
100
AcDbLinetypeTableRecord
2
DOTX2
70
0
3
Dotx2 .  .  .  .  .  .  .  .  .  .  .  .  .  .
72
65
73
2
40
0.5
49
0.0
74
0
49
-0.5
74
0
0
LTYPE
5
287
330
247
100
AcDbSymbolTableRecord
100
AcDbLinetypeTableRecord
2
HIDDENX2
70
0
3
Hiddenx2 ____ ____ ____ ____ ____ ____ ____
72
65
73
2
40
0.75
49
0.5
74
0
49
-0.25
74
0
0
LTYPE
5
288
330
247
100
AcDbSymbolTableRecord
100
AcDbLinetypeTableRecord
2
PHANTOM
70
0
3
Phantom ______  __  __  ______  __  __  ______
72
65
73
6
40
2.5
49
1.25
74
0
49
-0.25
74
0
49
0.25
74
0
49
-0.25
74
0
49
0.25
74
0
49
-0.25
74
0
0
LTYPE
5
289
330
247
100
AcDbSymbolTableRecord
100
AcDbLinetypeTableRecord
2
PHANTOM2
70
0
3
Phantom2 ___ _ _ ___ _ _ ___ _ _ ___ _ _
72
65
73
6
40
1.25
49
0.625
74
0
49
-0.125
74
0
49
0.125
74
0
49
-0.125
74
0
49
0.125
74
0
49
-0.125
74
0
0
LTYPE
5
28A
330
247
100
AcDbSymbolTableRecord
100
AcDbLinetypeTableRecord
2
PHANTOMX2
70
0
3
Phantomx2 ____________    ____    ____   _
72
65
73
6
40
5.0
49
2.5
74
0
49
-0.5
74
0
49
0.5
74
0
49
-0.5
74
0
49
0.5
74
0
49
-0.5
74
0
0
ENDTAB
0
TABLE
2
LAYER
5
244
330
0
100
AcDbSymbolTable
70
6
0
LAYER
5
252
330
244
100
AcDbSymbolTableRecord
100
AcDbLayerTableRecord
2
0
70
0
62
7
6
Continuous
370
0
390
251
0
LAYER
5
23F
330
244
100
AcDbSymbolTableRecord
100
AcDbLayerTableRecord
2
Bemassung
70
0
 62
   7
6
Continuous
370
0
390
251
0
LAYER
5
240
330
244
100
AcDbSymbolTableRecord
100
AcDbLayerTableRecord
2
Rahmen
70
0
 62
   7
6
Continuous
370
0
390
251
0
LAYER
5
241
330
244
100
AcDbSymbolTableRecord
100
AcDbLayerTableRecord
2
Geo
70
0
 62
   7
6
Continuous
370
0
390
251
0
LAYER
5
33A
330
244
100
AcDbSymbolTableRecord
100
AcDbLayerTableRecord
2
Defpoints
70
0
62
7
6
Continuous
290
0
370
-3
390
251
0
LAYER
5
57E
330
244
100
AcDbSymbolTableRecord
100
AcDbLayerTableRecord
2
Text
70
0
 62
   7
6
Continuous
370
0
390
251
1001
AcAecLayerStandard
1000

1000

0
ENDTAB
0
TABLE
2
STYLE
5
245
330
0
100
AcDbSymbolTable
70
2
0
STYLE
5
253
330
245
100
AcDbSymbolTableRecord
100
AcDbTextStyleTableRecord
2
Standard
70
0
40
0.0
41
1.0
50
0.0
71
0
42
0.2
3
Arial
4

1001
ACAD
1000
Arial
1071
0
0
STYLE
5
132
330
245
100
AcDbSymbolTableRecord
100
AcDbTextStyleTableRecord
2
Beschriftung
70
0
40
0.0
41
1.0
50
0.0
71
0
42
0.2
3
Arial
4

1001
ACAD
1000
Arial
1071
0
1001
AcadAnnotative
1000
AnnotativeData
1070
1
1070
1
0
ENDTAB
0
TABLE
2
VIEW
5
248
330
0
100
AcDbSymbolTable
70
0
0
ENDTAB
0
TABLE
2
UCS
5
249
330
0
100
AcDbSymbolTable
70
0
0
ENDTAB
0
TABLE
2
APPID
5
24B
330
0
100
AcDbSymbolTable
70
13
0
APPID
5
254
330
24B
100
AcDbSymbolTableRecord
100
AcDbRegAppTableRecord
2
ACAD
70
0
0
APPID
5
26C
330
24B
100
AcDbSymbolTableRecord
100
AcDbRegAppTableRecord
2
VD_INVISIBLE_NOT_FOR_READ
70
0
0
APPID
5
26D
330
24B
100
AcDbSymbolTableRecord
100
AcDbRegAppTableRecord
2
VD_TEMPHATCH
70
0
0
APPID
5
26E
330
24B
100
AcDbSymbolTableRecord
100
AcDbRegAppTableRecord
2
VDEXTRAPARAM
70
0
0
APPID
5
26F
330
24B
100
AcDbSymbolTableRecord
100
AcDbRegAppTableRecord
2
PE_URL
70
0
0
APPID
5
270
330
24B
100
AcDbSymbolTableRecord
100
AcDbRegAppTableRecord
2
VD_UNKNOWN
70
0
0
APPID
5
28F
330
24B
100
AcDbSymbolTableRecord
100
AcDbRegAppTableRecord
2
AcadAnnotative
70
0
0
APPID
5
290
330
24B
100
AcDbSymbolTableRecord
100
AcDbRegAppTableRecord
2
ACAD_DSTYLE_DIMJAG
70
0
0
APPID
5
291
330
24B
100
AcDbSymbolTableRecord
100
AcDbRegAppTableRecord
2
ACAD_DSTYLE_DIMTALN
70
0
0
APPID
5
293
330
24B
100
AcDbSymbolTableRecord
100
AcDbRegAppTableRecord
2
ACAD_PSEXT
70
0
0
APPID
5
42A
330
24B
100
AcDbSymbolTableRecord
100
AcDbRegAppTableRecord
2
ACAD_MLEADERVER
70
0
0
APPID
5
532
330
24B
100
AcDbSymbolTableRecord
100
AcDbRegAppTableRecord
2
ACAD_EXEMPT_FROM_CAD_STANDARDS
70
0
0
APPID
5
57F
330
24B
100
AcDbSymbolTableRecord
100
AcDbRegAppTableRecord
2
AcAecLayerStandard
70
0
0
ENDTAB
0
TABLE
2
DIMSTYLE
5
24C
330
0
100
AcDbSymbolTable
70
3
100
AcDbDimStyleTable
71
2
340
27
340
269
0
DIMSTYLE
105
269
330
24C
100
AcDbSymbolTableRecord
100
AcDbDimStyleTableRecord
2
Standard
70
0
172
1
174
1
288
1
340
253
342
23C
0
DIMSTYLE
105
137
330
24C
100
AcDbSymbolTableRecord
100
AcDbDimStyleTableRecord
2
Beschriftung
70
0
41
2.5
42
0.625
44
1.25
73
0
74
0
77
1
140
2.5
147
0.625
172
1
174
1
271
2
288
1
340
253
342
23C
1001
AcadAnnotative
1000
AnnotativeData
1070
1
1070
1
1001
ACAD_DSTYLE_DIMJAG
1070
388
1040
1.5
1001
ACAD_DSTYLE_DIMTALN
1070
392
1070
0
0
DIMSTYLE
105
27
102
{ACAD_REACTORS
330
F10017
330
F1001C
330
F10026
330
F1002B
330
F10003
330
F1000D
330
F10008
330
F10012
330
F10021
102
}
330
24C
100
AcDbSymbolTableRecord
100
AcDbDimStyleTableRecord
2
BEM-ISBE
70
0
41
2.5
42
0.625
44
1.25
48
0.000000001
71
1
73
0
74
0
77
1
140
2.5
144
1.00000000000000
146
0.5
147
0.625
171
 3
172
 1
179
 3
271
 3
272
 3
274
 3
340
253
342
23C
1001
ACAD_DSTYLE_DIMJAG
1070
388
1040
1.5
1001
ACAD_DSTYLE_DIMTALN
1070
392
1070
1
0
ENDTAB
0
TABLE
2
BLOCK_RECORD
5
243
330
0
100
AcDbSymbolTable
70
5
0
BLOCK_RECORD
5
261
330
243
100
AcDbSymbolTableRecord
100
AcDbBlockTableRecord
2
*Model_Space
340
FD0
0
BLOCK_RECORD
5
25D
330
243
100
AcDbSymbolTableRecord
100
AcDbBlockTableRecord
2
*Paper_Space
340
FD1
0
BLOCK_RECORD
5
265
330
243
100
AcDbSymbolTableRecord
100
AcDbBlockTableRecord
2
*Paper_Space0
340
0
0
BLOCK_RECORD
5
23C
330
243
100
AcDbSymbolTableRecord
100
AcDbBlockTableRecord
2
VDDIM_DEFAULT
340
0
102
{BLKREFS
102
}
0
BLOCK_RECORD
5
23E
330
243
100
AcDbSymbolTableRecord
100
AcDbBlockTableRecord
2
VDDIM_NONE
340
0
0
BLOCK_RECORD
5
F10016
330
243
100
AcDbSymbolTableRecord
100
AcDbBlockTableRecord
2
*D7
340
0
0
BLOCK_RECORD
5
F1001B
330
243
100
AcDbSymbolTableRecord
100
AcDbBlockTableRecord
2
*D8
340
0
0
BLOCK_RECORD
5
F10025
330
243
100
AcDbSymbolTableRecord
100
AcDbBlockTableRecord
2
*D10
340
0
0
BLOCK_RECORD
5
F1002A
330
243
100
AcDbSymbolTableRecord
100
AcDbBlockTableRecord
2
*D11
340
0
0
BLOCK_RECORD
5
F10002
330
243
100
AcDbSymbolTableRecord
100
AcDbBlockTableRecord
2
*D3
340
0
0
BLOCK_RECORD
5
F1000C
330
243
100
AcDbSymbolTableRecord
100
AcDbBlockTableRecord
2
*D5
340
0
0
BLOCK_RECORD
5
F10007
330
243
100
AcDbSymbolTableRecord
100
AcDbBlockTableRecord
2
*D4
340
0
0
BLOCK_RECORD
5
F10011
330
243
100
AcDbSymbolTableRecord
100
AcDbBlockTableRecord
2
*D6
340
0
0
BLOCK_RECORD
5
F10020
330
243
100
AcDbSymbolTableRecord
100
AcDbBlockTableRecord
2
*D9
340
0
0
ENDTAB
0
ENDSEC
0
SECTION
2
BLOCKS
0
BLOCK
5
262
330
261
100
AcDbEntity
8
0
100
AcDbBlockBegin
2
*Model_Space
70
0
10
0.0
20
0.0
30
0.0
3
*Model_Space
1

0
ENDBLK
5
263
330
261
100
AcDbEntity
8
0
100
AcDbBlockEnd
0
BLOCK
5
25E
330
25D
100
AcDbEntity
67
1
8
0
100
AcDbBlockBegin
2
*Paper_Space
70
0
10
0.0
20
0.0
30
0.0
3
*Paper_Space
1

0
ENDBLK
5
25F
330
25D
100
AcDbEntity
67
1
8
0
100
AcDbBlockEnd
0
BLOCK
5
266
330
265
100
AcDbEntity
8
0
100
AcDbBlockBegin
2
*Paper_Space0
70
0
10
0.0
20
0.0
30
0.0
3
*Paper_Space0
1

0
VIEWPORT
5
296
102
{ACAD_XDICTIONARY
360
58E
102
}
330
265
100
AcDbEntity
8
0
60
1
100
AcDbViewport
10
0.0
20
0.0
30
0.0
40
10.0
41
10.0
69
0
12
0.0
22
0.0
13
0.0
23
0.0
14
1.0
24
1.0
15
0.0
25
0.0
16
0.0
26
0.0
36
1.0
17
0.0
27
0.0
37
0.0
42
0.0
43
0.0
44
0.0
45
10.0
50
0.0
51
0.0000000000007958
72
100
90
163872
1

281
0
71
0
74
0
110
0.0
120
0.0
130
0.0
111
1.0
121
0.0
131
0.0
112
0.0
122
1.0
132
0.0
79
0
146
0.0
1001
VD_INVISIBLE_NOT_FOR_READ
1000
VD_INVISIBLE_NOT_FOR_READ
0
VIEWPORT
5
297
102
{ACAD_XDICTIONARY
360
590
102
}
330
265
100
AcDbEntity
8
0
60
1
100
AcDbViewport
10
0.0
20
0.0
30
0.0
40
10.0
41
10.0
69
0
12
0.0
22
0.0
13
0.0
23
0.0
14
1.0
24
1.0
15
0.0
25
0.0
16
0.0
26
0.0
36
1.0
17
0.0
27
0.0
37
0.0
42
0.0
43
0.0
44
0.0
45
10.0
50
0.0
51
0.0000000000007958
72
100
90
163872
1

281
0
71
0
74
0
110
0.0
120
0.0
130
0.0
111
1.0
121
0.0
131
0.0
112
0.0
122
1.0
132
0.0
79
0
146
0.0
1001
VD_INVISIBLE_NOT_FOR_READ
1000
VD_INVISIBLE_NOT_FOR_READ
0
ENDBLK
5
267
330
265
100
AcDbEntity
8
0
100
AcDbBlockEnd
0
BLOCK
5
28B
330
23C
100
AcDbEntity
8
0
100
AcDbBlockBegin
2
VDDIM_DEFAULT
70
0
10
0.0
20
0.0
30
0.0
3
VDDIM_DEFAULT
1

0
LWPOLYLINE
5
23D
330
23C
100
AcDbEntity
8
0
6
Continuous
62
0
100
AcDbPolyline
90
4
70
0
43
0.0
10
0.0
20
0.0
10
-1.0
20
-0.1665
10
-1.0
20
0.1665
10
0.0
20
0.0
1001
VDEXTRAPARAM
1071
1
1071
0
1071
0
1040
1.0
1000

1000

1040
0.0
1040
0.0
0
HATCH
5
292
330
23C
100
AcDbEntity
8
0
6
Continuous
62
0
100
AcDbHatch
10
0.0
20
0.0
30
0.0
210
0.0
220
0.0
230
1.0
2
SOLID
70
1
71
0
91
1
92
2
72
0
73
1
93
3
10
0.0
20
0.0
10
-1.0
20
-0.1665
10
-1.0
20
0.1665
97
0
75
0
76
1
98
1
10
0.0
20
0.0
1001
VDEXTRAPARAM
1071
1
1071
0
1071
0
1040
1.0
1000

1000

1040
0.0
1040
0.0
1001
VD_TEMPHATCH
1000
VD_TEMPHATCH
0
ENDBLK
5
28C
330
23C
100
AcDbEntity
8
0
100
AcDbBlockEnd
0
BLOCK
5
28D
330
23E
100
AcDbEntity
8
0
100
AcDbBlockBegin
2
VDDIM_NONE
70
0
10
0.0
20
0.0
30
0.0
3
VDDIM_NONE
1

0
ENDBLK
5
28E
330
23E
100
AcDbEntity
8
0
100
AcDbBlockEnd
  0
BLOCK
  5
F1002F
330
F10016
100
AcDbEntity
  8
0
100
AcDbBlockBegin
  2
*D7
 70
     1
 10
0.0
 20
0.0
 30
0.0
  3
*D7
  1

  0
LINE
  5
F10030
330
F10016
100
AcDbEntity
  8
Bemassung
 62
     0
370
    -2
100
AcDbLine
10
-84.1218097447794
20
-9.99767981438509
30
0.000000000000000
11
-84.1218097447794
21
27.0023201856149
31
0.000000000000000
  0
LINE
  5
F10031
330
F10016
100
AcDbEntity
  8
Bemassung
 62
     0
370
    -2
100
AcDbLine
10
-60.1218097447794
20
4.70232018561491
30
0.000000000000000
11
-60.1218097447794
21
17.0023201856149
31
0.000000000000000
  0
LINE
  5
F10032
330
F10016
100
AcDbEntity
  8
Bemassung
 62
     0
370
    -2
100
AcDbLine
10
-84.1218097447794
20
15.0023201856149
30
0.000000000000000
11
-47.1668953724761
21
15.0023201856149
31
0.000000000000000
  0
INSERT
  5
F10033
330
F10016
100
AcDbEntity
  8
Bemassung
 62
     0
370
    -2
100
AcDbBlockReference
  2
VDDIM_DEFAULT
10
-84.1218097447794
20
15.0023201856149
30
0.000000000000000
 41
2.50000000000000
 42
2.50000000000000
 43
2.50000000000000
 50
180.000000000000
  0
INSERT
  5
F10034
330
F10016
100
AcDbEntity
  8
Bemassung
 62
     0
370
    -2
100
AcDbBlockReference
  2
VDDIM_DEFAULT
10
-60.1218097447794
20
15.0023201856149
30
0.000000000000000
 41
2.50000000000000
 42
2.50000000000000
 43
2.50000000000000
  0
MTEXT
  5
F10035
330
F10016
100
AcDbEntity
  8
Bemassung
 62
     0
100
AcDbMText
10
-72.1218097447794
20
15.6689868522816
30
0.000000000000000
 40
2.50000000000000
 41
0.0
 71
     8
 72
     1
  1
24
 11
1.00000000000000
 21
0.000000000000000
 31
0.0
 73
     1
 44
1.0
1001
ACAD
1000
MTEXTBEGIN
1070
73
1070
1
1070
44
1040
1.0
1070
74
1070
0
1000
MTEXTEND
  0
POINT
  5
F10036
330
F10016
100
AcDbEntity
  8
Bemassung
 62
     0
100
AcDbPoint
10
-84.1218097447794
20
-9.99767981438509
30
0.000000000000000
  0
POINT
  5
F10037
330
F10016
100
AcDbEntity
  8
Bemassung
 62
     0
100
AcDbPoint
10
-60.1218097447794
20
4.70232018561491
30
0.000000000000000
  0
ENDBLK
  5
F10038
330
F10016
100
AcDbEntity
  8
0
100
AcDbBlockEnd
  0
BLOCK
  5
F10039
330
F1001B
100
AcDbEntity
  8
0
100
AcDbBlockBegin
  2
*D8
 70
     1
 10
0.0
 20
0.0
 30
0.0
  3
*D8
  1

  0
LINE
  5
F1003A
330
F1001B
100
AcDbEntity
  8
Bemassung
 62
     0
370
    -2
100
AcDbLine
10
-60.1218097447794
20
4.70232018561491
30
0.000000000000000
11
-60.1218097447794
21
22.0023201856149
31
0.000000000000000
  0
LINE
  5
F1003B
330
F1001B
100
AcDbEntity
  8
Bemassung
 62
     0
370
    -2
100
AcDbLine
10
-20.1218097447794
20
4.50232018561491
30
0.000000000000000
11
-20.1218097447794
21
27.0023201856149
31
0.000000000000000
  0
LINE
  5
F1003C
330
F1001B
100
AcDbEntity
  8
Bemassung
 62
     0
370
    -2
100
AcDbLine
10
-60.1218097447794
20
20.0023201856149
30
0.000000000000000
11
48.8045777722837
21
20.0023201856149
31
0.000000000000000
  0
INSERT
  5
F1003D
330
F1001B
100
AcDbEntity
  8
Bemassung
 62
     0
370
    -2
100
AcDbBlockReference
  2
VDDIM_DEFAULT
10
-60.1218097447794
20
20.0023201856149
30
0.000000000000000
 41
2.50000000000000
 42
2.50000000000000
 43
2.50000000000000
 50
180.000000000000
  0
INSERT
  5
F1003E
330
F1001B
100
AcDbEntity
  8
Bemassung
 62
     0
370
    -2
100
AcDbBlockReference
  2
VDDIM_DEFAULT
10
-20.1218097447794
20
20.0023201856149
30
0.000000000000000
 41
2.50000000000000
 42
2.50000000000000
 43
2.50000000000000
  0
MTEXT
  5
F1003F
330
F1001B
100
AcDbEntity
  8
Bemassung
 62
     0
100
AcDbMText
10
-40.1218097447794
20
20.6689868522816
30
0.000000000000000
 40
2.50000000000000
 41
0.0
 71
     8
 72
     1
  1
40
 11
1.00000000000000
 21
0.000000000000000
 31
0.0
 73
     1
 44
1.0
1001
ACAD
1000
MTEXTBEGIN
1070
73
1070
1
1070
44
1040
1.0
1070
74
1070
0
1000
MTEXTEND
  0
POINT
  5
F10040
330
F1001B
100
AcDbEntity
  8
Bemassung
 62
     0
100
AcDbPoint
10
-60.1218097447794
20
4.70232018561491
30
0.000000000000000
  0
POINT
  5
F10041
330
F1001B
100
AcDbEntity
  8
Bemassung
 62
     0
100
AcDbPoint
10
-20.1218097447794
20
4.50232018561491
30
0.000000000000000
  0
ENDBLK
  5
F10042
330
F1001B
100
AcDbEntity
  8
0
100
AcDbBlockEnd
  0
BLOCK
  5
F10043
330
F10025
100
AcDbEntity
  8
0
100
AcDbBlockBegin
  2
*D10
 70
     1
 10
0.0
 20
0.0
 30
0.0
  3
*D10
  1

  0
LINE
  5
F10044
330
F10025
100
AcDbEntity
  8
Bemassung
 62
     0
370
    -2
100
AcDbLine
10
-66.1218097447794
20
-2.69767981438509
30
0.000000000000000
11
-66.1218097447794
21
-9.99767981438509
31
0.000000000000000
  0
LINE
  5
F10045
330
F10025
100
AcDbEntity
  8
Bemassung
 62
     0
370
    -2
100
AcDbLine
10
-84.1218097447794
20
-9.99767981438509
30
0.000000000000000
11
-84.1218097447794
21
27.0023201856149
31
0.000000000000000
  0
LINE
  5
F10046
330
F10025
100
AcDbEntity
  8
Bemassung
 62
     0
370
    -2
100
AcDbLine
10
-56.0822781236286
20
-7.99767981438509
30
0.000000000000000
11
-84.1218097447794
21
-7.99767981438509
31
0.000000000000000
  0
INSERT
  5
F10047
330
F10025
100
AcDbEntity
  8
Bemassung
 62
     0
370
    -2
100
AcDbBlockReference
  2
VDDIM_DEFAULT
10
-66.1218097447794
20
-7.99767981438509
30
0.000000000000000
 41
2.50000000000000
 42
2.50000000000000
 43
2.50000000000000
  0
INSERT
  5
F10048
330
F10025
100
AcDbEntity
  8
Bemassung
 62
     0
370
    -2
100
AcDbBlockReference
  2
VDDIM_DEFAULT
10
-84.1218097447794
20
-7.99767981438509
30
0.000000000000000
 41
2.50000000000000
 42
2.50000000000000
 43
2.50000000000000
 50
180.000000000000
  0
MTEXT
  5
F10049
330
F10025
100
AcDbEntity
  8
Bemassung
 62
     0
100
AcDbMText
10
-75.1218097447794
20
-7.33101314771843
30
0.000000000000000
 40
2.50000000000000
 41
0.0
 71
     8
 72
     1
  1
18
 11
1.00000000000000
 21
0.000000000000000
 31
0.0
 73
     1
 44
1.0
1001
ACAD
1000
MTEXTBEGIN
1070
73
1070
1
1070
44
1040
1.0
1070
74
1070
0
1000
MTEXTEND
  0
POINT
  5
F1004A
330
F10025
100
AcDbEntity
  8
Bemassung
 62
     0
100
AcDbPoint
10
-66.1218097447794
20
-2.69767981438509
30
0.000000000000000
  0
POINT
  5
F1004B
330
F10025
100
AcDbEntity
  8
Bemassung
 62
     0
100
AcDbPoint
10
-84.1218097447794
20
-9.99767981438509
30
0.000000000000000
  0
ENDBLK
  5
F1004C
330
F10025
100
AcDbEntity
  8
0
100
AcDbBlockEnd
  0
BLOCK
  5
F1004D
330
F1002A
100
AcDbEntity
  8
0
100
AcDbBlockBegin
  2
*D11
 70
     1
 10
0.0
 20
0.0
 30
0.0
  3
*D11
  1

  0
LINE
  5
F1004E
330
F1002A
100
AcDbEntity
  8
Bemassung
 62
     0
370
    -2
100
AcDbLine
10
-20.1218097447794
20
4.50232018561491
30
0.000000000000000
11
-20.1218097447794
21
27.0023201856149
31
0.000000000000000
  0
LINE
  5
F1004F
330
F1002A
100
AcDbEntity
  8
Bemassung
 62
     0
370
    -2
100
AcDbLine
10
-84.1218097447794
20
-9.99767981438509
30
0.000000000000000
11
-84.1218097447794
21
27.0023201856149
31
0.000000000000000
  0
LINE
  5
F10050
330
F1002A
100
AcDbEntity
  8
Bemassung
 62
     0
370
    -2
100
AcDbLine
10
12.8808296279337
20
25.0023201856149
30
0.000000000000000
11
-84.1218097447794
21
25.0023201856149
31
0.000000000000000
  0
INSERT
  5
F10051
330
F1002A
100
AcDbEntity
  8
Bemassung
 62
     0
370
    -2
100
AcDbBlockReference
  2
VDDIM_DEFAULT
10
-20.1218097447794
20
25.0023201856149
30
0.000000000000000
 41
2.50000000000000
 42
2.50000000000000
 43
2.50000000000000
  0
INSERT
  5
F10052
330
F1002A
100
AcDbEntity
  8
Bemassung
 62
     0
370
    -2
100
AcDbBlockReference
  2
VDDIM_DEFAULT
10
-84.1218097447794
20
25.0023201856149
30
0.000000000000000
 41
2.50000000000000
 42
2.50000000000000
 43
2.50000000000000
 50
180.000000000000
  0
MTEXT
  5
F10053
330
F1002A
100
AcDbEntity
  8
Bemassung
 62
     0
100
AcDbMText
10
-52.1218097447794
20
25.6689868522816
30
0.000000000000000
 40
2.50000000000000
 41
0.0
 71
     8
 72
     1
  1
64
 11
1.00000000000000
 21
0.000000000000000
 31
0.0
 73
     1
 44
1.0
1001
ACAD
1000
MTEXTBEGIN
1070
73
1070
1
1070
44
1040
1.0
1070
74
1070
0
1000
MTEXTEND
  0
POINT
  5
F10054
330
F1002A
100
AcDbEntity
  8
Bemassung
 62
     0
100
AcDbPoint
10
-20.1218097447794
20
4.50232018561491
30
0.000000000000000
  0
POINT
  5
F10055
330
F1002A
100
AcDbEntity
  8
Bemassung
 62
     0
100
AcDbPoint
10
-84.1218097447794
20
-9.99767981438509
30
0.000000000000000
  0
ENDBLK
  5
F10056
330
F1002A
100
AcDbEntity
  8
0
100
AcDbBlockEnd
  0
BLOCK
  5
F10057
330
F10002
100
AcDbEntity
  8
0
100
AcDbBlockBegin
  2
*D3
 70
     1
 10
0.0
 20
0.0
 30
0.0
  3
*D3
  1

 0
ARC
  5
F10058
330
F10002
100
AcDbEntity
  8
Bemassung
 62
     0
370
   -2
100
AcDbCircle
10
-84.1212005717985
20
3.96742068891240
30
0.000000000000000
 40
17.5178555648780
100
AcDbArc
 50
90.0000000000000
 51
111.079147490972
  0
LINE
  5
F10059
330
F10002
100
AcDbEntity
  8
Bemassung
 62
     0
370
    -2
100
AcDbLine
10
-84.1212005717985
20
3.96742068891240
30
0.000000000000000
11
-84.1212005717985
21
23.4852762537904
31
0.000000000000000
  0
LINE
  5
F1005A
330
F10002
100
AcDbEntity
  8
Bemassung
 62
     0
370
    -2
100
AcDbLine
10
-84.1212005717985
20
3.96742068891240
30
0.000000000000000
11
-84.8023639077249
21
23.4733865035351
31
0.000000000000000
  0
INSERT
  5
F1005B
330
F10002
100
AcDbEntity
  8
Bemassung
 62
     0
370
    -2
100
AcDbBlockReference
  2
VDDIM_DEFAULT
10
-84.1212005717985
20
21.4852762537904
30
0.000000000000000
 41
2.50000000000000
 42
2.50000000000000
 43
2.50000000000000
 50
179.836464408851
  0
INSERT
  5
F1005C
330
F10002
100
AcDbEntity
  8
Bemassung
 62
     0
370
    -2
100
AcDbBlockReference
  2
VDDIM_DEFAULT
10
-84.7325649143199
20
21.4746048494969
30
0.000000000000000
 41
2.50000000000000
 42
2.50000000000000
 43
2.50000000000000
 50
2.16353559114658
  0
MTEXT
  5
F1005D
330
F10002
100
AcDbEntity
  8
Bemassung
 62
     0
100
AcDbMText
10
-91.4629352833168
20
19.8725832161428
30
0.000000000000000
 40
2.50000000000000
 41
0.0
 71
     8
 72
     1
  1
2°
 11
0.908829545720346
 21
0.417167660330651
 31
0.0
 73
     1
 44
1.0
1001
ACAD
1000
MTEXTBEGIN
1070
73
1070
1
1070
44
1040
1.0
1070
74
1070
0
1000
MTEXTEND
  0
POINT
  5
F1005E
330
F10002
100
AcDbEntity
  8
Bemassung
 62
     0
100
AcDbPoint
10
-84.1212005717985
20
3.96742068891240
30
0.000000000000000
  0
POINT
  5
F1005F
330
F10002
100
AcDbEntity
  8
Bemassung
 62
     0
100
AcDbPoint
10
-84.1212005717985
20
21.4852762537904
30
0.000000000000000
  0
POINT
  5
F10060
330
F10002
100
AcDbEntity
  8
Bemassung
 62
     0
100
AcDbPoint
10
-84.7325649143199
20
21.4746048494969
30
0.000000000000000
  0
POINT
  5
F10061
330
F10002
100
AcDbEntity
  8
Bemassung
 62
     0
100
AcDbPoint
10
-84.4269293070264
20
21.4826081995383
30
0.000000000000000
  0
ENDBLK
  5
F10062
330
F10002
100
AcDbEntity
  8
0
100
AcDbBlockEnd
  0
BLOCK
  5
F10063
330
F1000C
100
AcDbEntity
  8
0
100
AcDbBlockBegin
  2
*D5
 70
     1
 10
0.0
 20
0.0
 30
0.0
  3
*D5
  1

  0
LINE
  5
F10064
330
F1000C
100
AcDbEntity
  8
Bemassung
 62
     0
370
    -2
100
AcDbLine
10
-83.8411495451180
20
4.69697855607390
30
0.000000000000000
11
-95.4213005455990
21
15.8798003878092
31
0.000000000000000
  0
INSERT
  5
F10065
330
F1000C
100
AcDbEntity
  8
Bemassung
 62
     0
370
    -2
100
AcDbBlockReference
  2
VDDIM_DEFAULT
10
-83.8411495451180
20
4.69697855607390
30
0.000000000000000
 41
2.50000000000000
 42
2.50000000000000
 43
2.50000000000000
 50
316.000000000000
  0
MTEXT
  5
F10066
330
F1000C
100
AcDbEntity
  8
Bemassung
 62
     0
100
AcDbMText
10
-91.0345475485046
20
11.6435622606639
30
0.000000000000000
 40
2.50000000000000
 41
0.0
 71
     8
 72
     1
  1
R1
 11
0.719339800338652
 21
-0.694658370458996
 31
0.0
 73
     1
 44
1.0
1001
ACAD
1000
MTEXTBEGIN
1070
73
1070
1
1070
44
1040
1.0
1070
74
1070
0
1000
MTEXTEND
  0
POINT
  5
F10067
330
F1000C
100
AcDbEntity
  8
Bemassung
 62
     0
100
AcDbPoint
10
-83.8411495451180
20
4.69697855607390
30
0.000000000000000
  0
POINT
  5
F10068
330
F1000C
100
AcDbEntity
  8
Bemassung
 62
     0
100
AcDbPoint
10
-83.1218097447794
20
4.00232018561491
30
0.000000000000000
  0
ENDBLK
  5
F10069
330
F1000C
100
AcDbEntity
  8
0
100
AcDbBlockEnd
  0
BLOCK
  5
F1006A
330
F10007
100
AcDbEntity
  8
0
100
AcDbBlockBegin
  2
*D4
 70
     1
 10
0.0
 20
0.0
 30
0.0
  3
*D4
  1

  0
LINE
  5
F1006B
330
F10007
100
AcDbEntity
  8
Bemassung
 62
     0
370
    -2
100
AcDbLine
10
-83.1218097447794
20
-2.99767981438509
30
0.000000000000000
11
-96.1218097447794
21
-2.99767981438509
31
0.000000000000000
  0
LINE
  5
F1006C
330
F10007
100
AcDbEntity
  8
Bemassung
 62
     0
370
    -2
100
AcDbLine
10
-83.1218097447794
20
5.00232018561491
30
0.000000000000000
11
-96.1218097447794
21
5.00232018561491
31
0.000000000000000
  0
LINE
  5
F1006D
330
F10007
100
AcDbEntity
  8
Bemassung
 62
     0
370
    -2
100
AcDbLine
10
-94.1218097447794
20
-2.99767981438509
30
0.000000000000000
11
-94.1218097447794
21
5.00232018561491
31
0.000000000000000
  0
INSERT
  5
F1006E
330
F10007
100
AcDbEntity
  8
Bemassung
 62
     0
370
    -2
100
AcDbBlockReference
  2
VDDIM_DEFAULT
10
-94.1218097447794
20
-2.99767981438509
30
0.000000000000000
 41
2.50000000000000
 42
2.50000000000000
 43
2.50000000000000
 50
270.000000000000
  0
INSERT
  5
F1006F
330
F10007
100
AcDbEntity
  8
Bemassung
 62
     0
370
    -2
100
AcDbBlockReference
  2
VDDIM_DEFAULT
10
-94.1218097447794
20
5.00232018561491
30
0.000000000000000
 41
2.50000000000000
 42
2.50000000000000
 43
2.50000000000000
 50
90.0000000000000
  0
MTEXT
  5
F10070
330
F10007
100
AcDbEntity
  8
Bemassung
 62
     0
100
AcDbMText
10
-93.4551430781127
20
1.00232018561491
30
0.000000000000000
 40
2.50000000000000
 41
0.0
 71
     8
 72
     1
  1
8
 11
6.12323399573677e-017
 21
1.00000000000000
 31
0.0
 73
     1
 44
1.0
1001
ACAD
1000
MTEXTBEGIN
1070
73
1070
1
1070
44
1040
1.0
1070
74
1070
0
1000
MTEXTEND
  0
POINT
  5
F10071
330
F10007
100
AcDbEntity
  8
Bemassung
 62
     0
100
AcDbPoint
10
-83.1218097447794
20
-2.99767981438509
30
0.000000000000000
  0
POINT
  5
F10072
330
F10007
100
AcDbEntity
  8
Bemassung
 62
     0
100
AcDbPoint
10
-83.1218097447794
20
5.00232018561491
30
0.000000000000000
  0
ENDBLK
  5
F10073
330
F10007
100
AcDbEntity
  8
0
100
AcDbBlockEnd
  0
BLOCK
  5
F10074
330
F10011
100
AcDbEntity
  8
0
100
AcDbBlockBegin
  2
*D6
 70
     1
 10
0.0
 20
0.0
 30
0.0
  3
*D6
  1

  0
LINE
  5
F10075
330
F10011
100
AcDbEntity
  8
Bemassung
 62
     0
370
    -2
100
AcDbLine
10
-66.1218097447794
20
-2.69767981438509
30
0.000000000000000
11
-59.4551430781127
21
-2.69767981438509
31
0.000000000000000
  0
LINE
  5
F10076
330
F10011
100
AcDbEntity
  8
Bemassung
 62
     0
370
    -2
100
AcDbLine
10
-66.1218097447794
20
4.70232018561491
30
0.000000000000000
11
-59.4551430781127
21
4.70232018561491
31
0.000000000000000
  0
LINE
  5
F10077
330
F10011
100
AcDbEntity
  8
Bemassung
 62
     0
370
    -2
100
AcDbLine
10
-61.4551430781127
20
-29.0192171616155
30
0.000000000000000
11
-61.4551430781127
21
4.70232018561491
31
0.000000000000000
  0
INSERT
  5
F10078
330
F10011
100
AcDbEntity
  8
Bemassung
 62
     0
370
    -2
100
AcDbBlockReference
  2
VDDIM_DEFAULT
10
-61.4551430781127
20
-2.69767981438509
30
0.000000000000000
 41
2.50000000000000
 42
2.50000000000000
 43
2.50000000000000
 50
270.000000000000
  0
INSERT
  5
F10079
330
F10011
100
AcDbEntity
  8
Bemassung
 62
     0
370
    -2
100
AcDbBlockReference
  2
VDDIM_DEFAULT
10
-61.4551430781127
20
4.70232018561491
30
0.000000000000000
 41
2.50000000000000
 42
2.50000000000000
 43
2.50000000000000
 50
90.0000000000000
  0
MTEXT
  5
F1007A
330
F10011
100
AcDbEntity
  8
Bemassung
 62
     0
100
AcDbMText
10
-60.7884764114461
20
-7.69377323142964
30
0.000000000000000
 40
2.50000000000000
 41
0.0
 71
     8
 72
     1
  1
7.4
 11
6.12323399573677e-017
 21
1.00000000000000
 31
0.0
 73
     1
 44
1.0
1001
ACAD
1000
MTEXTBEGIN
1070
73
1070
1
1070
44
1040
1.0
1070
74
1070
0
1000
MTEXTEND
  0
POINT
  5
F1007B
330
F10011
100
AcDbEntity
  8
Bemassung
 62
     0
100
AcDbPoint
10
-66.1218097447794
20
-2.69767981438509
30
0.000000000000000
  0
POINT
  5
F1007C
330
F10011
100
AcDbEntity
  8
Bemassung
 62
     0
100
AcDbPoint
10
-66.1218097447794
20
4.70232018561491
30
0.000000000000000
  0
ENDBLK
  5
F1007D
330
F10011
100
AcDbEntity
  8
0
100
AcDbBlockEnd
  0
BLOCK
  5
F1007E
330
F10020
100
AcDbEntity
  8
0
100
AcDbBlockBegin
  2
*D9
 70
     1
 10
0.0
 20
0.0
 30
0.0
  3
*D9
  1

  0
LINE
  5
F1007F
330
F10020
100
AcDbEntity
  8
Bemassung
 62
     0
370
    -2
100
AcDbLine
10
-20.6218097447794
20
-2.99767981438509
30
0.000000000000000
11
-8.12180974477940
21
-2.99767981438509
31
0.000000000000000
  0
LINE
  5
F10080
330
F10020
100
AcDbEntity
  8
Bemassung
 62
     0
370
    -2
100
AcDbLine
10
-20.6218097447794
20
5.00232018561491
30
0.000000000000000
11
-8.12180974477940
21
5.00232018561491
31
0.000000000000000
  0
LINE
  5
F10081
330
F10020
100
AcDbEntity
  8
Bemassung
 62
     0
370
    -2
100
AcDbLine
10
-10.1218097447794
20
-2.99767981438509
30
0.000000000000000
11
-10.1218097447794
21
5.00232018561491
31
0.000000000000000
  0
INSERT
  5
F10082
330
F10020
100
AcDbEntity
  8
Bemassung
 62
     0
370
    -2
100
AcDbBlockReference
  2
VDDIM_DEFAULT
10
-10.1218097447794
20
-2.99767981438509
30
0.000000000000000
 41
2.50000000000000
 42
2.50000000000000
 43
2.50000000000000
 50
270.000000000000
  0
INSERT
  5
F10083
330
F10020
100
AcDbEntity
  8
Bemassung
 62
     0
370
    -2
100
AcDbBlockReference
  2
VDDIM_DEFAULT
10
-10.1218097447794
20
5.00232018561491
30
0.000000000000000
 41
2.50000000000000
 42
2.50000000000000
 43
2.50000000000000
 50
90.0000000000000
  0
MTEXT
  5
F10084
330
F10020
100
AcDbEntity
  8
Bemassung
 62
     0
100
AcDbMText
10
-9.45514307811273
20
1.00232018561491
30
0.000000000000000
 40
2.50000000000000
 41
0.0
 71
     8
 72
     1
  1
8h6
 11
6.12323399573677e-017
 21
1.00000000000000
 31
0.0
 73
     1
 44
1.0
  0
POINT
  5
F10085
330
F10020
100
AcDbEntity
  8
Bemassung
 62
     0
100
AcDbPoint
10
-20.6218097447794
20
-2.99767981438509
30
0.000000000000000
  0
POINT
  5
F10086
330
F10020
100
AcDbEntity
  8
Bemassung
 62
     0
100
AcDbPoint
10
-20.6218097447794
20
5.00232018561491
30
0.000000000000000
  0
ENDBLK
  5
F10087
330
F10020
100
AcDbEntity
  8
0
100
AcDbBlockEnd
0
ENDSEC
0
SECTION
2
ENTITIES
  0
DIMENSION
  5
F10017
330
261
100
AcDbEntity
  8
Bemassung
100
AcDbDimension
  2
*D7
10
-60.1218097447794
20
15.0023201856149
30
0.000000000000000
11
-72.1218097447794
21
15.6689868522816
31
0.000000000000000
 70
32
 1
24
 71
     8
  3
BEM-ISBE
100
AcDbAlignedDimension
13
-84.1218097447794
23
-9.99767981438509
33
0.000000000000000
14
-60.1218097447794
24
4.70232018561491
34
0.000000000000000
100
AcDbRotatedDimension
1001
ACAD
1000
DSTYLE
1002
{
1070
284
1070
8
1070
78
1070
8
1070
144
1040
1.00000000000000
1070
147
1040
0.625
1070
 72
1070
 0
1070
 71
1070
 0
1002
}
  0
DIMENSION
  5
F1001C
330
261
100
AcDbEntity
  8
Bemassung
100
AcDbDimension
  2
*D8
10
-20.1218097447794
20
20.0023201856149
30
0.000000000000000
11
-40.1218097447794
21
20.6689868522816
31
0.000000000000000
 70
32
 1
40
 71
     8
  3
BEM-ISBE
100
AcDbAlignedDimension
13
-60.1218097447794
23
4.70232018561491
33
0.000000000000000
14
-20.1218097447794
24
4.50232018561491
34
0.000000000000000
100
AcDbRotatedDimension
1001
ACAD
1000
DSTYLE
1002
{
1070
284
1070
8
1070
78
1070
8
1070
144
1040
1.00000000000000
1070
147
1040
0.625
1070
 72
1070
 0
1070
 71
1070
 0
1002
}
  0
DIMENSION
  5
F10026
330
261
100
AcDbEntity
  8
Bemassung
100
AcDbDimension
  2
*D10
10
-84.1218097447794
20
-7.99767981438509
30
0.000000000000000
11
-75.1218097447794
21
-7.33101314771843
31
0.000000000000000
 70
32
 1
18
 71
     8
  3
BEM-ISBE
100
AcDbAlignedDimension
13
-66.1218097447794
23
-2.69767981438509
33
0.000000000000000
14
-84.1218097447794
24
-9.99767981438509
34
0.000000000000000
100
AcDbRotatedDimension
1001
ACAD
1000
DSTYLE
1002
{
1070
284
1070
8
1070
78
1070
8
1070
144
1040
1.00000000000000
1070
147
1040
0.625
1070
 72
1070
 0
1070
 71
1070
 0
1002
}
  0
DIMENSION
  5
F1002B
330
261
100
AcDbEntity
  8
Bemassung
100
AcDbDimension
  2
*D11
10
-84.1218097447794
20
25.0023201856149
30
0.000000000000000
11
-52.1218097447794
21
25.6689868522816
31
0.000000000000000
 70
32
 1
64
 71
     8
  3
BEM-ISBE
100
AcDbAlignedDimension
13
-20.1218097447794
23
4.50232018561491
33
0.000000000000000
14
-84.1218097447794
24
-9.99767981438509
34
0.000000000000000
100
AcDbRotatedDimension
1001
ACAD
1000
DSTYLE
1002
{
1070
284
1070
8
1070
78
1070
8
1070
144
1040
1.00000000000000
1070
147
1040
0.625
1070
 72
1070
 0
1070
 71
1070
 0
1002
}
  0
DIMENSION
  5
F10003
330
261
100
AcDbEntity
  8
Bemassung
100
AcDbDimension
  2
*D3
10
-84.1212005717985
20
3.96742068891240
30
0.000000000000000
11
-91.4629352833168
21
19.8725832161428
31
0.000000000000000
 70
34
 1
2°
 71
     8
  3
BEM-ISBE
100
AcDb2LineAngularDimension
13
-84.1212005717985
23
3.96742068891240
33
0.000000000000000
14
-90.4216241649240
24
20.3130600505010
34
0.000000000000000
15
-84.1212005717985
25
21.4852762537904
35
0.000000000000000
16
-84.4269293070264
26
21.4826081995383
36
0.000000000000000
1001
ACAD
1000
DSTYLE
1002
{
1070
284
1070
8
1070
79
1070
2
1070
147
1040
0.625
1070
 72
1070
 0
1070
 71
1070
 0
1002
}
  0
DIMENSION
  5
F1000D
330
261
100
AcDbEntity
  8
Bemassung
100
AcDbDimension
  2
*D5
10
-83.1218097447794
20
4.00232018561491
30
0.000000000000000
11
-91.0345475485046
21
11.6435622606639
31
0.000000000000000
 70
164
 1
R1
 71
     8
  3
BEM-ISBE
100
AcDbRadialDimension
15
-83.8411495451180
25
4.69697855607390
35
0.000000000000000
40
0.0
1001
ACAD
1000
DSTYLE
1002
{
1070
284
1070
8
1070
78
1070
8
1070
144
1040
1.00000000000000
1070
147
1040
0.625
1070
 72
1070
 0
1070
 71
1070
 0
1002
}
  0
DIMENSION
  5
F10008
330
261
100
AcDbEntity
  8
Bemassung
100
AcDbDimension
  2
*D4
10
-94.1218097447794
20
5.00232018561491
30
0.000000000000000
11
-93.4551430781127
21
1.00232018561491
31
0.000000000000000
 70
32
 1
8
 71
     8
  3
BEM-ISBE
100
AcDbAlignedDimension
13
-83.1218097447794
23
-2.99767981438509
33
0.000000000000000
14
-83.1218097447794
24
5.00232018561491
34
0.000000000000000
50
90.0000000000000
100
AcDbRotatedDimension
1001
ACAD
1000
DSTYLE
1002
{
1070
284
1070
8
1070
78
1070
8
1070
144
1040
1.00000000000000
1070
147
1040
0.625
1070
 72
1070
 0
1070
 71
1070
 0
1002
}
  0
DIMENSION
  5
F10012
330
261
100
AcDbEntity
  8
Bemassung
100
AcDbDimension
  2
*D6
10
-61.4551430781127
20
4.70232018561491
30
0.000000000000000
11
-60.7884764114461
21
-7.69377323142964
31
0.000000000000000
 70
32
 1
7.4
 71
     8
  3
BEM-ISBE
100
AcDbAlignedDimension
13
-66.1218097447794
23
-2.69767981438509
33
0.000000000000000
14
-66.1218097447794
24
4.70232018561491
34
0.000000000000000
50
90.0000000000000
100
AcDbRotatedDimension
1001
ACAD
1000
DSTYLE
1002
{
1070
284
1070
8
1070
78
1070
8
1070
144
1040
1.00000000000000
1070
147
1040
0.625
1070
 72
1070
 0
1070
 71
1070
 0
1002
}
  0
DIMENSION
  5
F10021
330
261
100
AcDbEntity
  8
Bemassung
100
AcDbDimension
  2
*D9
10
-10.1218097447794
20
5.00232018561491
30
0.000000000000000
11
-9.45514307811273
21
1.00232018561491
31
0.000000000000000
 70
32
 1
8h6
 71
     8
  3
BEM-ISBE
100
AcDbAlignedDimension
13
-20.6218097447794
23
-2.99767981438509
33
0.000000000000000
14
-20.6218097447794
24
5.00232018561491
34
0.000000000000000
50
90.0000000000000
100
AcDbRotatedDimension
1001
ACAD
1000
DSTYLE
1002
{
1070
284
1070
8
1070
78
1070
8
1070
144
1040
1.00000000000000
1070
147
1040
0.625
1070
 72
1070
 0
1070
 71
1070
 0
1002
}
  0
LINE
  5
F10088
330
F10089
100
AcDbEntity
8
Geo
100
AcDbLine
10
-84.0176569806030
20
1.00232018561491
30
0.000000000000000
11
-84.1212005717985
21
3.96742068891240
31
0.000000000000000
  0
ARC
  5
F1008A
330
F1008B
100
AcDbEntity
8
Geo
100
AcDbCircle
10
-83.1218097447794
20
4.00232018561491
30
0.000000000000000
 40
1.00000000000000
100
AcDbArc
 50
90.0000000000000
 51
182.000000000000
  0
LINE
  5
F1008C
330
F1008D
100
AcDbEntity
8
Geo
100
AcDbLine
10
-83.1218097447794
20
5.00232018561491
30
0.000000000000000
11
-66.1218097447794
21
5.00232018561491
31
0.000000000000000
  0
LINE
  5
F1008E
330
F1008F
100
AcDbEntity
8
Geo
100
AcDbLine
10
-66.1218097447794
20
5.00232018561491
30
0.000000000000000
11
-66.1218097447794
21
4.70232018561491
31
0.000000000000000
  0
LINE
  5
F10090
330
F10091
100
AcDbEntity
8
Geo
100
AcDbLine
10
-66.1218097447794
20
4.70232018561491
30
0.000000000000000
11
-60.1218097447794
21
4.70232018561491
31
0.000000000000000
  0
LINE
  5
F10092
330
F10093
100
AcDbEntity
8
Geo
100
AcDbLine
10
-60.1218097447794
20
4.70232018561491
30
0.000000000000000
11
-60.1218097447794
21
5.00232018561491
31
0.000000000000000
  0
LINE
  5
F10094
330
F10095
100
AcDbEntity
8
Geo
100
AcDbLine
10
-60.1218097447794
20
5.00232018561491
30
0.000000000000000
11
-20.6218097447794
21
5.00232018561491
31
0.000000000000000
  0
LINE
  5
F10096
330
F10097
100
AcDbEntity
8
Geo
100
AcDbLine
10
-20.6218097447794
20
5.00232018561491
30
0.000000000000000
11
-20.1218097447794
21
4.50232018561491
31
0.000000000000000
  0
LINE
  5
F10098
330
F10099
100
AcDbEntity
8
Geo
100
AcDbLine
10
-80.9218097447794
20
5.00107459776245
30
0.000000000000000
11
-80.8218097447794
21
5.00195387829510
31
0.000000000000000
  0
LINE
  5
F1009A
330
F1009B
100
AcDbEntity
8
Geo
100
AcDbLine
10
-80.8218097447794
20
5.00195387829510
30
0.000000000000000
11
-80.7218097447794
21
4.99690850707202
31
0.000000000000000
  0
LINE
  5
F1009C
330
F1009D
100
AcDbEntity
8
Geo
100
AcDbLine
10
-80.7218097447794
20
4.99690850707202
30
0.000000000000000
11
-80.6218097447794
21
4.98594595779448
31
0.000000000000000
  0
LINE
  5
F1009E
330
F1009F
100
AcDbEntity
8
Geo
100
AcDbLine
10
-80.6218097447794
20
4.98594595779448
30
0.000000000000000
11
-80.5218097447794
21
4.96908246927128
31
0.000000000000000
  0
LINE
  5
F100A0
330
F100A1
100
AcDbEntity
8
Geo
100
AcDbLine
10
-80.5218097447794
20
4.96908246927128
30
0.000000000000000
11
-80.4218097447794
21
4.94634302136423
31
0.000000000000000
  0
LINE
  5
F100A2
330
F100A3
100
AcDbEntity
8
Geo
100
AcDbLine
10
-80.4218097447794
20
4.94634302136423
30
0.000000000000000
11
-80.3218097447794
21
4.91776129798549
31
0.000000000000000
  0
LINE
  5
F100A4
330
F100A5
100
AcDbEntity
8
Geo
100
AcDbLine
10
-80.3218097447794
20
4.91776129798549
30
0.000000000000000
11
-80.2218097447794
21
4.88337963720164
31
0.000000000000000
  0
LINE
  5
F100A6
330
F100A7
100
AcDbEntity
8
Geo
100
AcDbLine
10
-80.2218097447794
20
4.88337963720164
30
0.000000000000000
11
-80.1218097447794
21
4.84324896851837
31
0.000000000000000
  0
LINE
  5
F100A8
330
F100A9
100
AcDbEntity
8
Geo
100
AcDbLine
10
-80.1218097447794
20
4.84324896851837
30
0.000000000000000
11
-80.0218097447794
21
4.79742873743869
31
0.000000000000000
  0
LINE
  5
F100AA
330
F100AB
100
AcDbEntity
8
Geo
100
AcDbLine
10
-80.0218097447794
20
4.79742873743869
30
0.000000000000000
11
-79.9218097447794
21
4.74598681740635
31
0.000000000000000
  0
LINE
  5
F100AC
330
F100AD
100
AcDbEntity
8
Geo
100
AcDbLine
10
-79.9218097447794
20
4.74598681740635
30
0.000000000000000
11
-79.8218097447794
21
4.68899940926505
31
0.000000000000000
  0
LINE
  5
F100AE
330
F100AF
100
AcDbEntity
8
Geo
100
AcDbLine
10
-79.8218097447794
20
4.68899940926505
30
0.000000000000000
11
-79.7218097447794
21
4.62655092838221
31
0.000000000000000
  0
LINE
  5
F100B0
330
F100B1
100
AcDbEntity
8
Geo
100
AcDbLine
10
-79.7218097447794
20
4.62655092838221
30
0.000000000000000
11
-79.6218097447794
21
4.55873387960460
31
0.000000000000000
  0
LINE
  5
F100B2
330
F100B3
100
AcDbEntity
8
Geo
100
AcDbLine
10
-79.6218097447794
20
4.55873387960460
30
0.000000000000000
11
-79.5218097447794
21
4.48564872023106
31
0.000000000000000
  0
LINE
  5
F100B4
330
F100B5
100
AcDbEntity
8
Geo
100
AcDbLine
10
-79.5218097447794
20
4.48564872023106
30
0.000000000000000
11
-79.4218097447794
21
4.40740371120523
31
0.000000000000000
  0
LINE
  5
F100B6
330
F100B7
100
AcDbEntity
8
Geo
100
AcDbLine
10
-79.4218097447794
20
4.40740371120523
30
0.000000000000000
11
-79.3218097447794
21
4.32411475674879
31
0.000000000000000
  0
LINE
  5
F100B8
330
F100B9
100
AcDbEntity
8
Geo
100
AcDbLine
10
-79.3218097447794
20
4.32411475674879
30
0.000000000000000
11
-79.2218097447794
21
4.23590523267266
31
0.000000000000000
  0
LINE
  5
F100BA
330
F100BB
100
AcDbEntity
8
Geo
100
AcDbLine
10
-79.2218097447794
20
4.23590523267266
30
0.000000000000000
11
-79.1218097447794
21
4.14290580362061
31
0.000000000000000
  0
LINE
  5
F100BC
330
F100BD
100
AcDbEntity
8
Geo
100
AcDbLine
10
-79.1218097447794
20
4.14290580362061
30
0.000000000000000
11
-79.0218097447794
21
4.04525422951593
31
0.000000000000000
  0
LINE
  5
F100BE
330
F100BF
100
AcDbEntity
8
Geo
100
AcDbLine
10
-79.0218097447794
20
4.04525422951593
30
0.000000000000000
11
-78.9218097447794
21
3.94309516149779
31
0.000000000000000
  0
LINE
  5
F100C0
330
F100C1
100
AcDbEntity
8
Geo
100
AcDbLine
10
-78.9218097447794
20
3.94309516149779
30
0.000000000000000
11
-78.8218097447794
21
3.83657992764976
31
0.000000000000000
  0
LINE
  5
F100C2
330
F100C3
100
AcDbEntity
8
Geo
100
AcDbLine
10
-78.8218097447794
20
3.83657992764976
30
0.000000000000000
11
-78.7218097447794
21
3.72586630883773
31
0.000000000000000
  0
LINE
  5
F100C4
330
F100C5
100
AcDbEntity
8
Geo
100
AcDbLine
10
-78.7218097447794
20
3.72586630883773
30
0.000000000000000
11
-78.6218097447794
21
3.61111830498931
31
0.000000000000000
  0
LINE
  5
F100C6
330
F100C7
100
AcDbEntity
8
Geo
100
AcDbLine
10
-78.6218097447794
20
3.61111830498931
30
0.000000000000000
11
-78.5218097447794
21
3.49250589216098
31
0.000000000000000
  0
LINE
  5
F100C8
330
F100C9
100
AcDbEntity
8
Geo
100
AcDbLine
10
-78.5218097447794
20
3.49250589216098
30
0.000000000000000
11
-78.4218097447794
21
3.37020477075281
31
0.000000000000000
  0
LINE
  5
F100CA
330
F100CB
100
AcDbEntity
8
Geo
100
AcDbLine
10
-78.4218097447794
20
3.37020477075281
30
0.000000000000000
11
-78.3218097447794
21
3.24439610524369
31
0.000000000000000
  0
LINE
  5
F100CC
330
F100CD
100
AcDbEntity
8
Geo
100
AcDbLine
10
-78.3218097447794
20
3.24439610524369
30
0.000000000000000
11
-78.2218097447794
21
3.11526625583263
31
0.000000000000000
  0
LINE
  5
F100CE
330
F100CF
100
AcDbEntity
8
Geo
100
AcDbLine
10
-78.2218097447794
20
3.11526625583263
30
0.000000000000000
11
-78.1218097447794
21
2.98300650238372
31
0.000000000000000
  0
LINE
  5
F100D0
330
F100D1
100
AcDbEntity
8
Geo
100
AcDbLine
10
-78.1218097447794
20
2.98300650238372
30
0.000000000000000
11
-78.0218097447794
21
2.84781276108344
31
0.000000000000000
  0
LINE
  5
F100D2
330
F100D3
100
AcDbEntity
8
Geo
100
AcDbLine
10
-78.0218097447794
20
2.84781276108344
30
0.000000000000000
11
-77.9218097447794
21
2.70988529423037
31
0.000000000000000
  0
LINE
  5
F100D4
330
F100D5
100
AcDbEntity
8
Geo
100
AcDbLine
10
-77.9218097447794
20
2.70988529423037
30
0.000000000000000
11
-77.8218097447794
21
2.56942841358691
31
0.000000000000000
  0
LINE
  5
F100D6
330
F100D7
100
AcDbEntity
8
Geo
100
AcDbLine
10
-77.8218097447794
20
2.56942841358691
30
0.000000000000000
11
-77.7218097447794
21
2.42665017773252
31
0.000000000000000
  0
LINE
  5
F100D8
330
F100D9
100
AcDbEntity
8
Geo
100
AcDbLine
10
-77.7218097447794
20
2.42665017773252
30
0.000000000000000
11
-77.6218097447794
21
2.28176208386689
31
0.000000000000000
  0
LINE
  5
F100DA
330
F100DB
100
AcDbEntity
8
Geo
100
AcDbLine
10
-77.6218097447794
20
2.28176208386689
30
0.000000000000000
11
-77.5218097447794
21
2.13497875451938
31
0.000000000000000
  0
LINE
  5
F100DC
330
F100DD
100
AcDbEntity
8
Geo
100
AcDbLine
10
-77.5218097447794
20
2.13497875451938
30
0.000000000000000
11
-77.4218097447794
21
1.98651761962903
31
0.000000000000000
  0
LINE
  5
F100DE
330
F100DF
100
AcDbEntity
8
Geo
100
AcDbLine
10
-77.4218097447794
20
1.98651761962903
30
0.000000000000000
11
-77.3218097447794
21
1.83659859446586
31
0.000000000000000
  0
LINE
  5
F100E0
330
F100E1
100
AcDbEntity
8
Geo
100
AcDbLine
10
-77.3218097447794
20
1.83659859446586
30
0.000000000000000
11
-77.2218097447794
21
1.68544375387068
31
0.000000000000000
  0
LINE
  5
F100E2
330
F100E3
100
AcDbEntity
8
Geo
100
AcDbLine
10
-77.2218097447794
20
1.68544375387068
30
0.000000000000000
11
-77.1218097447794
21
1.53327700329598
31
0.000000000000000
  0
LINE
  5
F100E4
330
F100E5
100
AcDbEntity
8
Geo
100
AcDbLine
10
-77.1218097447794
20
1.53327700329598
30
0.000000000000000
11
-77.0218097447794
21
1.38032374713507
31
0.000000000000000
  0
LINE
  5
F100E6
330
F100E7
100
AcDbEntity
8
Geo
100
AcDbLine
10
-77.0218097447794
20
1.38032374713507
30
0.000000000000000
11
-76.9218097447794
21
1.22681055483087
31
0.000000000000000
  0
LINE
  5
F100E8
330
F100E9
100
AcDbEntity
8
Geo
100
AcDbLine
10
-76.9218097447794
20
1.22681055483087
30
0.000000000000000
11
-76.8218097447794
21
1.07296482525893
31
0.000000000000000
  0
LINE
  5
F100EA
330
F100EB
100
AcDbEntity
8
Geo
100
AcDbLine
10
-76.8218097447794
20
1.07296482525893
30
0.000000000000000
11
-76.7218097447794
21
0.919014449881788
31
0.000000000000000
  0
LINE
  5
F100EC
330
F100ED
100
AcDbEntity
8
Geo
100
AcDbLine
10
-76.7218097447794
20
0.919014449881788
30
0.000000000000000
11
-76.6218097447794
21
0.765187475173655
31
0.000000000000000
  0
LINE
  5
F100EE
330
F100EF
100
AcDbEntity
8
Geo
100
AcDbLine
10
-76.6218097447794
20
0.765187475173655
30
0.000000000000000
11
-76.5218097447794
21
0.611711764815512
31
0.000000000000000
  0
LINE
  5
F100F0
330
F100F1
100
AcDbEntity
8
Geo
100
AcDbLine
10
-76.5218097447794
20
0.611711764815512
30
0.000000000000000
11
-76.4218097447794
21
0.458814662160950
31
0.000000000000000
  0
LINE
  5
F100F2
330
F100F3
100
AcDbEntity
8
Geo
100
AcDbLine
10
-76.4218097447794
20
0.458814662160950
30
0.000000000000000
11
-76.3218097447794
21
0.306722653472791
31
0.000000000000000
  0
LINE
  5
F100F4
330
F100F5
100
AcDbEntity
8
Geo
100
AcDbLine
10
-76.3218097447794
20
0.306722653472791
30
0.000000000000000
11
-76.2218097447794
21
0.155661032429290
31
0.000000000000000
  0
LINE
  5
F100F6
330
F100F7
100
AcDbEntity
8
Geo
100
AcDbLine
10
-76.2218097447794
20
0.155661032429290
30
0.000000000000000
11
-76.1218097447794
21
0.00585356639693790
31
0.000000000000000
  0
LINE
  5
F100F8
330
F100F9
100
AcDbEntity
8
Geo
100
AcDbLine
10
-76.1218097447794
20
0.00585356639693790
30
0.000000000000000
11
-76.0218097447794
21
-0.142477835035825
31
0.000000000000000
  0
LINE
  5
F100FA
330
F100FB
100
AcDbEntity
8
Geo
100
AcDbLine
10
-76.0218097447794
20
-0.142477835035825
30
0.000000000000000
11
-75.9218097447794
21
-0.289113448772973
31
0.000000000000000
  0
LINE
  5
F100FC
330
F100FD
100
AcDbEntity
8
Geo
100
AcDbLine
10
-75.9218097447794
20
-0.289113448772973
30
0.000000000000000
11
-75.8218097447794
21
-0.433836063686401
31
0.000000000000000
  0
LINE
  5
F100FE
330
F100FF
100
AcDbEntity
8
Geo
100
AcDbLine
10
-75.8218097447794
20
-0.433836063686401
30
0.000000000000000
11
-75.7218097447794
21
-0.576431302370472
31
0.000000000000000
  0
LINE
  5
F10100
330
F10101
100
AcDbEntity
8
Geo
100
AcDbLine
10
-75.7218097447794
20
-0.576431302370472
30
0.000000000000000
11
-75.6218097447794
21
-0.716687938698959
31
0.000000000000000
  0
LINE
  5
F10102
330
F10103
100
AcDbEntity
8
Geo
100
AcDbLine
10
-75.6218097447794
20
-0.716687938698959
30
0.000000000000000
11
-75.5218097447794
21
-0.854398210714012
31
0.000000000000000
  0
LINE
  5
F10104
330
F10105
100
AcDbEntity
8
Geo
100
AcDbLine
10
-75.5218097447794
20
-0.854398210714012
30
0.000000000000000
11
-75.4218097447794
21
-0.989358128383651
31
0.000000000000000
  0
LINE
  5
F10106
330
F10107
100
AcDbEntity
8
Geo
100
AcDbLine
10
-75.4218097447794
20
-0.989358128383651
30
0.000000000000000
11
-75.3218097447794
21
-1.12136777577191
31
0.000000000000000
  0
LINE
  5
F10108
330
F10109
100
AcDbEntity
8
Geo
100
AcDbLine
10
-75.3218097447794
20
-1.12136777577191
30
0.000000000000000
11
-75.2218097447794
21
-1.25023160717405
31
0.000000000000000
  0
LINE
  5
F1010A
330
F1010B
100
AcDbEntity
8
Geo
100
AcDbLine
10
-75.2218097447794
20
-1.25023160717405
30
0.000000000000000
11
-75.1218097447794
21
-1.37575873677810
31
0.000000000000000
  0
LINE
  5
F1010C
330
F1010D
100
AcDbEntity
8
Geo
100
AcDbLine
10
-75.1218097447794
20
-1.37575873677810
30
0.000000000000000
11
-75.0218097447794
21
-1.49776322142378
31
0.000000000000000
  0
LINE
  5
F1010E
330
F1010F
100
AcDbEntity
8
Geo
100
AcDbLine
10
-75.0218097447794
20
-1.49776322142378
30
0.000000000000000
11
-74.9218097447794
21
-1.61606433603981
31
0.000000000000000
  0
LINE
  5
F10110
330
F10111
100
AcDbEntity
8
Geo
100
AcDbLine
10
-74.9218097447794
20
-1.61606433603981
30
0.000000000000000
11
-74.8218097447794
21
-1.73048684135175
31
0.000000000000000
  0
LINE
  5
F10112
330
F10113
100
AcDbEntity
8
Geo
100
AcDbLine
10
-74.8218097447794
20
-1.73048684135175
30
0.000000000000000
11
-74.7218097447794
21
-1.84086124346362
31
0.000000000000000
  0
LINE
  5
F10114
330
F10115
100
AcDbEntity
8
Geo
100
AcDbLine
10
-74.7218097447794
20
-1.84086124346362
30
0.000000000000000
11
-74.6218097447794
21
-1.94702404492903
31
0.000000000000000
  0
LINE
  5
F10116
330
F10117
100
AcDbEntity
8
Geo
100
AcDbLine
10
-74.6218097447794
20
-1.94702404492903
30
0.000000000000000
11
-74.5218097447794
21
-2.04881798693970
31
0.000000000000000
  0
LINE
  5
F10118
330
F10119
100
AcDbEntity
8
Geo
100
AcDbLine
10
-74.5218097447794
20
-2.04881798693970
30
0.000000000000000
11
-74.4218097447794
21
-2.14609228227270
31
0.000000000000000
  0
LINE
  5
F1011A
330
F1011B
100
AcDbEntity
8
Geo
100
AcDbLine
10
-74.4218097447794
20
-2.14609228227270
30
0.000000000000000
11
-74.3218097447794
21
-2.23870283865134
31
0.000000000000000
  0
LINE
  5
F1011C
330
F1011D
100
AcDbEntity
8
Geo
100
AcDbLine
10
-74.3218097447794
20
-2.23870283865134
30
0.000000000000000
11
-74.2218097447794
21
-2.32651247218891
31
0.000000000000000
  0
LINE
  5
F1011E
330
F1011F
100
AcDbEntity
8
Geo
100
AcDbLine
10
-74.2218097447794
20
-2.32651247218891
30
0.000000000000000
11
-74.1218097447794
21
-2.40939111059892
31
0.000000000000000
  0
LINE
  5
F10120
330
F10121
100
AcDbEntity
8
Geo
100
AcDbLine
10
-74.1218097447794
20
-2.40939111059892
30
0.000000000000000
11
-74.0218097447794
21
-2.48721598587102
31
0.000000000000000
  0
LINE
  5
F10122
330
F10123
100
AcDbEntity
8
Geo
100
AcDbLine
10
-74.0218097447794
20
-2.48721598587102
30
0.000000000000000
11
-73.9218097447794
21
-2.55987181612709
31
0.000000000000000
  0
LINE
  5
F10124
330
F10125
100
AcDbEntity
8
Geo
100
AcDbLine
10
-73.9218097447794
20
-2.55987181612709
30
0.000000000000000
11
-73.8218097447794
21
-2.62725097638809
31
0.000000000000000
  0
LINE
  5
F10126
330
F10127
100
AcDbEntity
8
Geo
100
AcDbLine
10
-73.8218097447794
20
-2.62725097638809
30
0.000000000000000
11
-73.7218097447794
21
-2.68925365799883
31
0.000000000000000
  0
LINE
  5
F10128
330
F10129
100
AcDbEntity
8
Geo
100
AcDbLine
10
-73.7218097447794
20
-2.68925365799883
30
0.000000000000000
11
-73.6218097447794
21
-2.74578801647437
31
0.000000000000000
  0
LINE
  5
F1012A
330
F1012B
100
AcDbEntity
8
Geo
100
AcDbLine
10
-73.6218097447794
20
-2.74578801647437
30
0.000000000000000
11
-73.5218097447794
21
-2.79677030754912
31
0.000000000000000
  0
LINE
  5
F1012C
330
F1012D
100
AcDbEntity
8
Geo
100
AcDbLine
10
-73.5218097447794
20
-2.79677030754912
30
0.000000000000000
11
-73.4218097447794
21
-2.84212501122712
31
0.000000000000000
  0
LINE
  5
F1012E
330
F1012F
100
AcDbEntity
8
Geo
100
AcDbLine
10
-73.4218097447794
20
-2.84212501122712
30
0.000000000000000
11
-73.3218097447794
21
-2.88178494364969
31
0.000000000000000
  0
LINE
  5
F10130
330
F10131
100
AcDbEntity
8
Geo
100
AcDbLine
10
-73.3218097447794
20
-2.88178494364969
30
0.000000000000000
11
-73.2218097447794
21
-2.91569135661478
31
0.000000000000000
  0
LINE
  5
F10132
330
F10133
100
AcDbEntity
8
Geo
100
AcDbLine
10
-73.2218097447794
20
-2.91569135661478
30
0.000000000000000
11
-73.1218097447794
21
-2.94379402460064
31
0.000000000000000
  0
LINE
  5
F10134
330
F10135
100
AcDbEntity
8
Geo
100
AcDbLine
10
-73.1218097447794
20
-2.94379402460064
30
0.000000000000000
11
-73.0218097447794
21
-2.96605131916475
31
0.000000000000000
  0
LINE
  5
F10136
330
F10137
100
AcDbEntity
8
Geo
100
AcDbLine
10
-73.0218097447794
20
-2.96605131916475
30
0.000000000000000
11
-72.9218097447794
21
-2.98243027060803
31
0.000000000000000
  0
LINE
  5
F10138
330
F10139
100
AcDbEntity
8
Geo
100
AcDbLine
10
-72.9218097447794
20
-2.98243027060803
30
0.000000000000000
11
-72.8218097447794
21
-2.99290661681276
31
0.000000000000000
  0
LINE
  5
F1013A
330
F1013B
100
AcDbEntity
8
Geo
100
AcDbLine
10
-72.8218097447794
20
-2.99290661681276
30
0.000000000000000
11
-72.7218097447794
21
-2.99746483918208
31
0.000000000000000
  0
LINE
  5
F1013C
330
F1013D
100
AcDbEntity
8
Geo
100
AcDbLine
10
-84.1218097447794
20
4.00232018561491
30
0.000000000000000
11
-84.0218097447794
21
4.43566529053833
31
0.000000000000000
  0
LINE
  5
F1013E
330
F1013F
100
AcDbEntity
8
Geo
100
AcDbLine
10
-84.0218097447794
20
4.43566529053833
30
0.000000000000000
11
-83.9218097447794
21
4.59165878539757
31
0.000000000000000
  0
LINE
  5
F10140
330
F10141
100
AcDbEntity
8
Geo
100
AcDbLine
10
-83.9218097447794
20
4.59165878539757
30
0.000000000000000
11
-83.8218097447794
21
4.69172957612798
31
0.000000000000000
  0
LINE
  5
F10142
330
F10143
100
AcDbEntity
8
Geo
100
AcDbLine
10
-83.8218097447794
20
4.69172957612798
30
0.000000000000000
11
-83.7218097447794
21
4.75737204036508
31
0.000000000000000
  0
LINE
  5
F10144
330
F10145
100
AcDbEntity
8
Geo
100
AcDbLine
10
-83.7218097447794
20
4.75737204036508
30
0.000000000000000
11
-83.6218097447794
21
4.79697321999274
31
0.000000000000000
  0
LINE
  5
F10146
330
F10147
100
AcDbEntity
8
Geo
100
AcDbLine
10
-83.6218097447794
20
4.79697321999274
30
0.000000000000000
11
-83.5218097447794
21
4.81485827604899
31
0.000000000000000
  0
LINE
  5
F10148
330
F10149
100
AcDbEntity
8
Geo
100
AcDbLine
10
-83.5218097447794
20
4.81485827604899
30
0.000000000000000
11
-83.4218097447794
21
4.81361210738219
31
0.000000000000000
  0
LINE
  5
F1014A
330
F1014B
100
AcDbEntity
8
Geo
100
AcDbLine
10
-83.4218097447794
20
4.81361210738219
30
0.000000000000000
11
-83.3218097447794
21
4.79493031392048
31
0.000000000000000
  0
LINE
  5
F1014C
330
F1014D
100
AcDbEntity
8
Geo
100
AcDbLine
10
-83.3218097447794
20
4.79493031392048
30
0.000000000000000
11
-83.2218097447794
21
4.75999580150582
31
0.000000000000000
  0
LINE
  5
F1014E
330
F1014F
100
AcDbEntity
8
Geo
100
AcDbLine
10
-83.2218097447794
20
4.75999580150582
30
0.000000000000000
11
-83.1218097447794
21
4.70966385190160
31
0.000000000000000
  0
LINE
  5
F10150
330
F10151
100
AcDbEntity
8
Geo
100
AcDbLine
10
-83.1218097447794
20
4.70966385190160
30
0.000000000000000
11
-83.0218097447794
21
4.64912541469295
31
0.000000000000000
  0
LINE
  5
F10152
330
F10153
100
AcDbEntity
8
Geo
100
AcDbLine
10
-83.0218097447794
20
4.64912541469295
30
0.000000000000000
11
-82.9218097447794
21
4.58318497003476
31
0.000000000000000
  0
LINE
  5
F10154
330
F10155
100
AcDbEntity
8
Geo
100
AcDbLine
10
-82.9218097447794
20
4.58318497003476
30
0.000000000000000
11
-82.8218097447794
21
4.51194019541482
31
0.000000000000000
  0
LINE
  5
F10156
330
F10157
100
AcDbEntity
8
Geo
100
AcDbLine
10
-82.8218097447794
20
4.51194019541482
30
0.000000000000000
11
-82.7218097447794
21
4.43549662561743
31
0.000000000000000
  0
LINE
  5
F10158
330
F10159
100
AcDbEntity
8
Geo
100
AcDbLine
10
-82.7218097447794
20
4.43549662561743
30
0.000000000000000
11
-82.6218097447794
21
4.35396749639488
31
0.000000000000000
  0
LINE
  5
F1015A
330
F1015B
100
AcDbEntity
8
Geo
100
AcDbLine
10
-82.6218097447794
20
4.35396749639488
30
0.000000000000000
11
-82.5218097447794
21
4.26747357673144
31
0.000000000000000
  0
LINE
  5
F1015C
330
F1015D
100
AcDbEntity
8
Geo
100
AcDbLine
10
-82.5218097447794
20
4.26747357673144
30
0.000000000000000
11
-82.4218097447794
21
4.17614298994850
31
0.000000000000000
  0
LINE
  5
F1015E
330
F1015F
100
AcDbEntity
8
Geo
100
AcDbLine
10
-82.4218097447794
20
4.17614298994850
30
0.000000000000000
11
-82.3218097447794
21
4.08011102391563
31
0.000000000000000
  0
LINE
  5
F10160
330
F10161
100
AcDbEntity
8
Geo
100
AcDbLine
10
-82.3218097447794
20
4.08011102391563
30
0.000000000000000
11
-82.2218097447794
21
3.97951993064884
31
0.000000000000000
  0
LINE
  5
F10162
330
F10163
100
AcDbEntity
8
Geo
100
AcDbLine
10
-82.2218097447794
20
3.97951993064884
30
0.000000000000000
11
-82.1218097447794
21
3.87451871559294
31
0.000000000000000
  0
LINE
  5
F10164
330
F10165
100
AcDbEntity
8
Geo
100
AcDbLine
10
-82.1218097447794
20
3.87451871559294
30
0.000000000000000
11
-82.0218097447794
21
3.76526291689988
31
0.000000000000000
  0
LINE
  5
F10166
330
F10167
100
AcDbEntity
8
Geo
100
AcDbLine
10
-82.0218097447794
20
3.76526291689988
30
0.000000000000000
11
-81.9218097447794
21
3.65191437503039
31
0.000000000000000
  0
LINE
  5
F10168
330
F10169
100
AcDbEntity
8
Geo
100
AcDbLine
10
-81.9218097447794
20
3.65191437503039
30
0.000000000000000
11
-81.8218097447794
21
3.53464099301990
31
0.000000000000000
  0
LINE
  5
F1016A
330
F1016B
100
AcDbEntity
8
Geo
100
AcDbLine
10
-81.8218097447794
20
3.53464099301990
30
0.000000000000000
11
-81.7218097447794
21
3.41361648776402
31
0.000000000000000
  0
LINE
  5
F1016C
330
F1016D
100
AcDbEntity
8
Geo
100
AcDbLine
10
-81.7218097447794
20
3.41361648776402
30
0.000000000000000
11
-81.6218097447794
21
3.28902013269191
31
0.000000000000000
  0
LINE
  5
F1016E
330
F1016F
100
AcDbEntity
8
Geo
100
AcDbLine
10
-81.6218097447794
20
3.28902013269191
30
0.000000000000000
11
-81.5218097447794
21
3.16103649220887
31
0.000000000000000
  0
LINE
  5
F10170
330
F10171
100
AcDbEntity
8
Geo
100
AcDbLine
10
-81.5218097447794
20
3.16103649220887
30
0.000000000000000
11
-81.4218097447794
21
3.02985514830128
31
0.000000000000000
  0
LINE
  5
F10172
330
F10173
100
AcDbEntity
8
Geo
100
AcDbLine
10
-81.4218097447794
20
3.02985514830128
30
0.000000000000000
11
-81.3218097447794
21
2.89567041970911
31
0.000000000000000
  0
LINE
  5
F10174
330
F10175
100
AcDbEntity
8
Geo
100
AcDbLine
10
-81.3218097447794
20
2.89567041970911
30
0.000000000000000
11
-81.2218097447794
21
2.75868107408185
31
0.000000000000000
  0
LINE
  5
F10176
330
F10177
100
AcDbEntity
8
Geo
100
AcDbLine
10
-81.2218097447794
20
2.75868107408185
30
0.000000000000000
11
-81.1218097447794
21
2.61909003354421
31
0.000000000000000
  0
LINE
  5
F10178
330
F10179
100
AcDbEntity
8
Geo
100
AcDbLine
10
-81.1218097447794
20
2.61909003354421
30
0.000000000000000
11
-81.0218097447794
21
2.47710407410796
31
0.000000000000000
  0
LINE
  5
F1017A
330
F1017B
100
AcDbEntity
8
Geo
100
AcDbLine
10
-81.0218097447794
20
2.47710407410796
30
0.000000000000000
11
-80.9218097447794
21
2.33293351937481
31
0.000000000000000
  0
LINE
  5
F1017C
330
F1017D
100
AcDbEntity
8
Geo
100
AcDbLine
10
-80.9218097447794
20
2.33293351937481
30
0.000000000000000
11
-80.8218097447794
21
2.18679192898445
31
0.000000000000000
  0
LINE
  5
F1017E
330
F1017F
100
AcDbEntity
8
Geo
100
AcDbLine
10
-80.8218097447794
20
2.18679192898445
30
0.000000000000000
11
-80.7218097447794
21
2.03889578226889
31
0.000000000000000
  0
LINE
  5
F10180
330
F10181
100
AcDbEntity
8
Geo
100
AcDbLine
10
-80.7218097447794
20
2.03889578226889
30
0.000000000000000
11
-80.6218097447794
21
1.88946415758196
31
0.000000000000000
  0
LINE
  5
F10182
330
F10183
100
AcDbEntity
8
Geo
100
AcDbLine
10
-80.6218097447794
20
1.88946415758196
30
0.000000000000000
11
-80.5218097447794
21
1.73871840777883
31
0.000000000000000
  0
LINE
  5
F10184
330
F10185
100
AcDbEntity
8
Geo
100
AcDbLine
10
-80.5218097447794
20
1.73871840777883
30
0.000000000000000
11
-80.4218097447794
21
1.58688183232638
31
0.000000000000000
  0
LINE
  5
F10186
330
F10187
100
AcDbEntity
8
Geo
100
AcDbLine
10
-80.4218097447794
20
1.58688183232638
30
0.000000000000000
11
-80.3218097447794
21
1.43417934652998
31
0.000000000000000
  0
LINE
  5
F10188
330
F10189
100
AcDbEntity
8
Geo
100
AcDbLine
10
-80.3218097447794
20
1.43417934652998
30
0.000000000000000
11
-80.2218097447794
21
1.28083714836676
31
0.000000000000000
  0
LINE
  5
F1018A
330
F1018B
100
AcDbEntity
8
Geo
100
AcDbLine
10
-80.2218097447794
20
1.28083714836676
30
0.000000000000000
11
-80.1218097447794
21
1.12708238341888
31
0.000000000000000
  0
LINE
  5
F1018C
330
F1018D
100
AcDbEntity
8
Geo
100
AcDbLine
10
-80.1218097447794
20
1.12708238341888
30
0.000000000000000
11
-80.0218097447794
21
0.973142808403124
31
0.000000000000000
  0
LINE
  5
F1018E
330
F1018F
100
AcDbEntity
8
Geo
100
AcDbLine
10
-80.0218097447794
20
0.973142808403124
30
0.000000000000000
11
-79.9218097447794
21
0.819246453795132
31
0.000000000000000
  0
LINE
  5
F10190
330
F10191
100
AcDbEntity
8
Geo
100
AcDbLine
10
-79.9218097447794
20
0.819246453795132
30
0.000000000000000
11
-79.8218097447794
21
0.665621286048238
31
0.000000000000000
  0
LINE
  5
F10192
330
F10193
100
AcDbEntity
8
Geo
100
AcDbLine
10
-79.8218097447794
20
0.665621286048238
30
0.000000000000000
11
-79.7218097447794
21
0.512494869907053
31
0.000000000000000
  0
LINE
  5
F10194
330
F10195
100
AcDbEntity
8
Geo
100
AcDbLine
10
-79.7218097447794
20
0.512494869907053
30
0.000000000000000
11
-79.6218097447794
21
0.360094031316140
31
0.000000000000000
  0
LINE
  5
F10196
330
F10197
100
AcDbEntity
8
Geo
100
AcDbLine
10
-79.6218097447794
20
0.360094031316140
30
0.000000000000000
11
-79.5218097447794
21
0.208644521423055
31
0.000000000000000
  0
LINE
  5
F10198
330
F10199
100
AcDbEntity
8
Geo
100
AcDbLine
10
-79.5218097447794
20
0.208644521423055
30
0.000000000000000
11
-79.4218097447794
21
0.0583706821734974
31
0.000000000000000
  0
LINE
  5
F1019A
330
F1019B
100
AcDbEntity
8
Geo
100
AcDbLine
10
-79.4218097447794
20
0.0583706821734974
30
0.000000000000000
11
-79.3218097447794
21
-0.0905048860061040
31
0.000000000000000
  0
LINE
  5
F1019C
330
F1019D
100
AcDbEntity
8
Geo
100
AcDbLine
10
-79.3218097447794
20
-0.0905048860061040
30
0.000000000000000
11
-79.2218097447794
21
-0.237761653946287
31
0.000000000000000
  0
LINE
  5
F1019E
330
F1019F
100
AcDbEntity
8
Geo
100
AcDbLine
10
-79.2218097447794
20
-0.237761653946287
30
0.000000000000000
11
-79.1218097447794
21
-0.383181490404102
31
0.000000000000000
  0
LINE
  5
F101A0
330
F101A1
100
AcDbEntity
8
Geo
100
AcDbLine
10
-79.1218097447794
20
-0.383181490404102
30
0.000000000000000
11
-79.0218097447794
21
-0.526548985180620
31
0.000000000000000
  0
LINE
  5
F101A2
330
F101A3
100
AcDbEntity
8
Geo
100
AcDbLine
10
-79.0218097447794
20
-0.526548985180620
30
0.000000000000000
11
-78.9218097447794
21
-0.667651768207750
31
0.000000000000000
  0
LINE
  5
F101A4
330
F101A5
100
AcDbEntity
8
Geo
100
AcDbLine
10
-78.9218097447794
20
-0.667651768207750
30
0.000000000000000
11
-78.8218097447794
21
-0.806280824131732
31
0.000000000000000
  0
LINE
  5
F101A6
330
F101A7
100
AcDbEntity
8
Geo
100
AcDbLine
10
-78.8218097447794
20
-0.806280824131732
30
0.000000000000000
11
-78.7218097447794
21
-0.942230801927272
31
0.000000000000000
  0
LINE
  5
F101A8
330
F101A9
100
AcDbEntity
8
Geo
100
AcDbLine
10
-78.7218097447794
20
-0.942230801927272
30
0.000000000000000
11
-78.6218097447794
21
-1.07530031908374
31
0.000000000000000
  0
LINE
  5
F101AA
330
F101AB
100
AcDbEntity
8
Geo
100
AcDbLine
10
-78.6218097447794
20
-1.07530031908374
30
0.000000000000000
11
-78.5218097447794
21
-1.20529225991279
31
0.000000000000000
  0
LINE
  5
F101AC
330
F101AD
100
AcDbEntity
8
Geo
100
AcDbLine
10
-78.5218097447794
20
-1.20529225991279
30
0.000000000000000
11
-78.4218097447794
21
-1.33201406753556
31
0.000000000000000
  0
LINE
  5
F101AE
330
F101AF
100
AcDbEntity
8
Geo
100
AcDbLine
10
-78.4218097447794
20
-1.33201406753556
30
0.000000000000000
11
-78.3218097447794
21
-1.45527802911690
31
0.000000000000000
  0
LINE
  5
F101B0
330
F101B1
100
AcDbEntity
8
Geo
100
AcDbLine
10
-78.3218097447794
20
-1.45527802911690
30
0.000000000000000
11
-78.2218097447794
21
-1.57490155392412
31
0.000000000000000
  0
LINE
  5
F101B2
330
F101B3
100
AcDbEntity
8
Geo
100
AcDbLine
10
-78.2218097447794
20
-1.57490155392412
30
0.000000000000000
11
-78.1218097447794
21
-1.69070744379841
31
0.000000000000000
  0
LINE
  5
F101B4
330
F101B5
100
AcDbEntity
8
Geo
100
AcDbLine
10
-78.1218097447794
20
-1.69070744379841
30
0.000000000000000
11
-78.0218097447794
21
-1.80252415563820
31
0.000000000000000
  0
LINE
  5
F101B6
330
F101B7
100
AcDbEntity
8
Geo
100
AcDbLine
10
-78.0218097447794
20
-1.80252415563820
30
0.000000000000000
11
-77.9218097447794
21
-1.91018605550574
31
0.000000000000000
  0
LINE
  5
F101B8
330
F101B9
100
AcDbEntity
8
Geo
100
AcDbLine
10
-77.9218097447794
20
-1.91018605550574
30
0.000000000000000
11
-77.8218097447794
21
-2.01353366398039
31
0.000000000000000
  0
LINE
  5
F101BA
330
F101BB
100
AcDbEntity
8
Geo
100
AcDbLine
10
-77.8218097447794
20
-2.01353366398039
30
0.000000000000000
11
-77.7218097447794
21
-2.11241389239526
31
0.000000000000000
  0
LINE
  5
F101BC
330
F101BD
100
AcDbEntity
8
Geo
100
AcDbLine
10
-77.7218097447794
20
-2.11241389239526
30
0.000000000000000
11
-77.6218097447794
21
-2.20668026960727
31
0.000000000000000
  0
LINE
  5
F101BE
330
F101BF
100
AcDbEntity
8
Geo
100
AcDbLine
10
-77.6218097447794
20
-2.20668026960727
30
0.000000000000000
11
-77.5218097447794
21
-2.29619315896464
31
0.000000000000000
  0
LINE
  5
F101C0
330
F101C1
100
AcDbEntity
8
Geo
100
AcDbLine
10
-77.5218097447794
20
-2.29619315896464
30
0.000000000000000
11
-77.4218097447794
21
-2.38081996515042
31
0.000000000000000
  0
LINE
  5
F101C2
330
F101C3
100
AcDbEntity
8
Geo
100
AcDbLine
10
-77.4218097447794
20
-2.38081996515042
30
0.000000000000000
11
-77.3218097447794
21
-2.46043533059580
31
0.000000000000000
  0
LINE
  5
F101C4
330
F101C5
100
AcDbEntity
8
Geo
100
AcDbLine
10
-77.3218097447794
20
-2.46043533059580
30
0.000000000000000
11
-77.2218097447794
21
-2.53492132117209
31
0.000000000000000
  0
LINE
  5
F101C6
330
F101C7
100
AcDbEntity
8
Geo
100
AcDbLine
10
-77.2218097447794
20
-2.53492132117209
30
0.000000000000000
11
-77.1218097447794
21
-2.60416760088635
31
0.000000000000000
  0
LINE
  5
F101C8
330
F101C9
100
AcDbEntity
8
Geo
100
AcDbLine
10
-77.1218097447794
20
-2.60416760088635
30
0.000000000000000
11
-77.0218097447794
21
-2.66807159532197
31
0.000000000000000
  0
LINE
  5
F101CA
330
F101CB
100
AcDbEntity
8
Geo
100
AcDbLine
10
-77.0218097447794
20
-2.66807159532197
30
0.000000000000000
11
-76.9218097447794
21
-2.72653864358199
31
0.000000000000000
  0
LINE
  5
F101CC
330
F101CD
100
AcDbEntity
8
Geo
100
AcDbLine
10
-76.9218097447794
20
-2.72653864358199
30
0.000000000000000
11
-76.8218097447794
21
-2.77948213851018
31
0.000000000000000
  0
LINE
  5
F101CE
330
F101CF
100
AcDbEntity
8
Geo
100
AcDbLine
10
-76.8218097447794
20
-2.77948213851018
30
0.000000000000000
11
-76.7218097447794
21
-2.82682365498207
31
0.000000000000000
  0
LINE
  5
F101D0
330
F101D1
100
AcDbEntity
8
Geo
100
AcDbLine
10
-76.7218097447794
20
-2.82682365498207
30
0.000000000000000
11
-76.6218097447794
21
-2.86849306607598
31
0.000000000000000
  0
LINE
  5
F101D2
330
F101D3
100
AcDbEntity
8
Geo
100
AcDbLine
10
-76.6218097447794
20
-2.86849306607598
30
0.000000000000000
11
-76.5218097447794
21
-2.90442864695195
31
0.000000000000000
  0
LINE
  5
F101D4
330
F101D5
100
AcDbEntity
8
Geo
100
AcDbLine
10
-76.5218097447794
20
-2.90442864695195
30
0.000000000000000
11
-76.4218097447794
21
-2.93457716628465
31
0.000000000000000
  0
LINE
  5
F101D6
330
F101D7
100
AcDbEntity
8
Geo
100
AcDbLine
10
-76.4218097447794
20
-2.93457716628465
30
0.000000000000000
11
-76.3218097447794
21
-2.95889396511483
31
0.000000000000000
  0
LINE
  5
F101D8
330
F101D9
100
AcDbEntity
8
Geo
100
AcDbLine
10
-76.3218097447794
20
-2.95889396511483
30
0.000000000000000
11
-76.2218097447794
21
-2.97734302300266
31
0.000000000000000
  0
LINE
  5
F101DA
330
F101DB
100
AcDbEntity
8
Geo
100
AcDbLine
10
-76.2218097447794
20
-2.97734302300266
30
0.000000000000000
11
-76.1218097447794
21
-2.98989701138465
31
0.000000000000000
  0
LINE
  5
F101DC
330
F101DD
100
AcDbEntity
8
Geo
100
AcDbLine
10
-76.1218097447794
20
-2.98989701138465
30
0.000000000000000
11
-76.0218097447794
21
-2.99653733405551
31
0.000000000000000
  0
LINE
  5
F101DE
330
F101DF
100
AcDbEntity
8
Geo
100
AcDbLine
10
-84.1218097447794
20
3.85548973450036
30
0.000000000000000
11
-84.0218097447794
21
4.22676879639712
31
0.000000000000000
  0
LINE
  5
F101E0
330
F101E1
100
AcDbEntity
8
Geo
100
AcDbLine
10
-84.0218097447794
20
4.22676879639712
30
0.000000000000000
11
-83.9218097447794
21
4.33043130357607
31
0.000000000000000
  0
LINE
  5
F101E2
330
F101E3
100
AcDbEntity
8
Geo
100
AcDbLine
10
-83.9218097447794
20
4.33043130357607
30
0.000000000000000
11
-83.8218097447794
21
4.37892251886722
31
0.000000000000000
  0
LINE
  5
F101E4
330
F101E5
100
AcDbEntity
8
Geo
100
AcDbLine
10
-83.8218097447794
20
4.37892251886722
30
0.000000000000000
11
-83.7218097447794
21
4.39351024780484
31
0.000000000000000
  0
LINE
  5
F101E6
330
F101E7
100
AcDbEntity
8
Geo
100
AcDbLine
10
-83.7218097447794
20
4.39351024780484
30
0.000000000000000
11
-83.6218097447794
21
4.38275239934999
31
0.000000000000000
  0
LINE
  5
F101E8
330
F101E9
100
AcDbEntity
8
Geo
100
AcDbLine
10
-83.6218097447794
20
4.38275239934999
30
0.000000000000000
11
-83.5218097447794
21
4.35123738294068
31
0.000000000000000
  0
LINE
  5
F101EA
330
F101EB
100
AcDbEntity
8
Geo
100
AcDbLine
10
-83.5218097447794
20
4.35123738294068
30
0.000000000000000
11
-83.4218097447794
21
4.30184367524993
31
0.000000000000000
  0
LINE
  5
F101EC
330
F101ED
100
AcDbEntity
8
Geo
100
AcDbLine
10
-83.4218097447794
20
4.30184367524993
30
0.000000000000000
11
-83.3218097447794
21
4.23657490087690
31
0.000000000000000
  0
LINE
  5
F101EE
330
F101EF
100
AcDbEntity
8
Geo
100
AcDbLine
10
-83.3218097447794
20
4.23657490087690
30
0.000000000000000
11
-83.2218097447794
21
4.15693396343638
31
0.000000000000000
  0
LINE
  5
F101F0
330
F101F1
100
AcDbEntity
8
Geo
100
AcDbLine
10
-83.2218097447794
20
4.15693396343638
30
0.000000000000000
11
-83.1218097447794
21
4.06411127030381
31
0.000000000000000
  0
LINE
  5
F101F2
330
F101F3
100
AcDbEntity
8
Geo
100
AcDbLine
10
-83.1218097447794
20
4.06411127030381
30
0.000000000000000
11
-83.0218097447794
21
3.96279501525814
31
0.000000000000000
  0
LINE
  5
F101F4
330
F101F5
100
AcDbEntity
8
Geo
100
AcDbLine
10
-83.0218097447794
20
3.96279501525814
30
0.000000000000000
11
-82.9218097447794
21
3.85709341301695
31
0.000000000000000
  0
LINE
  5
F101F6
330
F101F7
100
AcDbEntity
8
Geo
100
AcDbLine
10
-82.9218097447794
20
3.85709341301695
30
0.000000000000000
11
-82.8218097447794
21
3.74716303921478
31
0.000000000000000
  0
LINE
  5
F101F8
330
F101F9
100
AcDbEntity
8
Geo
100
AcDbLine
10
-82.8218097447794
20
3.74716303921478
30
0.000000000000000
11
-82.7218097447794
21
3.63316673355950
31
0.000000000000000
  0
LINE
  5
F101FA
330
F101FB
100
AcDbEntity
8
Geo
100
AcDbLine
10
-82.7218097447794
20
3.63316673355950
30
0.000000000000000
11
-82.6218097447794
21
3.51527335861813
31
0.000000000000000
  0
LINE
  5
F101FC
330
F101FD
100
AcDbEntity
8
Geo
100
AcDbLine
10
-82.6218097447794
20
3.51527335861813
30
0.000000000000000
11
-82.5218097447794
21
3.39365754968092
31
0.000000000000000
  0
LINE
  5
F101FE
330
F101FF
100
AcDbEntity
8
Geo
100
AcDbLine
10
-82.5218097447794
20
3.39365754968092
30
0.000000000000000
11
-82.4218097447794
21
3.26849945607436
31
0.000000000000000
  0
LINE
  5
F10200
330
F10201
100
AcDbEntity
8
Geo
100
AcDbLine
10
-82.4218097447794
20
3.26849945607436
30
0.000000000000000
11
-82.3218097447794
21
3.13998447430624
31
0.000000000000000
  0
LINE
  5
F10202
330
F10203
100
AcDbEntity
8
Geo
100
AcDbLine
10
-82.3218097447794
20
3.13998447430624
30
0.000000000000000
11
-82.2218097447794
21
3.00830297343804
31
0.000000000000000
  0
LINE
  5
F10204
330
F10205
100
AcDbEntity
8
Geo
100
AcDbLine
10
-82.2218097447794
20
3.00830297343804
30
0.000000000000000
11
-82.1218097447794
21
2.87365001309153
31
0.000000000000000
  0
LINE
  5
F10206
330
F10207
100
AcDbEntity
8
Geo
100
AcDbLine
10
-82.1218097447794
20
2.87365001309153
30
0.000000000000000
11
-82.0218097447794
21
2.73622505450723
31
0.000000000000000
  0
LINE
  5
F10208
330
F10209
100
AcDbEntity
8
Geo
100
AcDbLine
10
-82.0218097447794
20
2.73622505450723
30
0.000000000000000
11
-81.9218097447794
21
2.59623166508273
31
0.000000000000000
  0
LINE
  5
F1020A
330
F1020B
100
AcDbEntity
8
Geo
100
AcDbLine
10
-81.9218097447794
20
2.59623166508273
30
0.000000000000000
11
-81.8218097447794
21
2.45387721682862
31
0.000000000000000
  0
LINE
  5
F1020C
330
F1020D
100
AcDbEntity
8
Geo
100
AcDbLine
10
-81.8218097447794
20
2.45387721682862
30
0.000000000000000
11
-81.7218097447794
21
2.30937257918859
31
0.000000000000000
  0
LINE
  5
F1020E
330
F1020F
100
AcDbEntity
8
Geo
100
AcDbLine
10
-81.7218097447794
20
2.30937257918859
30
0.000000000000000
11
-81.6218097447794
21
2.16293180667886
31
0.000000000000000
  0
LINE
  5
F10210
330
F10211
100
AcDbEntity
8
Geo
100
AcDbLine
10
-81.6218097447794
20
2.16293180667886
30
0.000000000000000
11
-81.5218097447794
21
2.01477182180950
31
0.000000000000000
  0
LINE
  5
F10212
330
F10213
100
AcDbEntity
8
Geo
100
AcDbLine
10
-81.5218097447794
20
2.01477182180950
30
0.000000000000000
11
-81.4218097447794
21
1.86511209375741
31
0.000000000000000
  0
LINE
  5
F10214
330
F10215
100
AcDbEntity
8
Geo
100
AcDbLine
10
-81.4218097447794
20
1.86511209375741
30
0.000000000000000
11
-81.3218097447794
21
1.71417431326698
31
0.000000000000000
  0
LINE
  5
F10216
330
F10217
100
AcDbEntity
8
Geo
100
AcDbLine
10
-81.3218097447794
20
1.71417431326698
30
0.000000000000000
11
-81.2218097447794
21
1.56218206425985
31
0.000000000000000
  0
LINE
  5
F10218
330
F10219
100
AcDbEntity
8
Geo
100
AcDbLine
10
-81.2218097447794
20
1.56218206425985
30
0.000000000000000
11
-81.1218097447794
21
1.40936049264042
31
0.000000000000000
  0
LINE
  5
F1021A
330
F1021B
100
AcDbEntity
8
Geo
100
AcDbLine
10
-81.1218097447794
20
1.40936049264042
30
0.000000000000000
11
-81.0218097447794
21
1.25593597278748
31
0.000000000000000
  0
LINE
  5
F1021C
330
F1021D
100
AcDbEntity
8
Geo
100
AcDbLine
10
-81.0218097447794
20
1.25593597278748
30
0.000000000000000
11
-80.9218097447794
21
1.10213577222621
31
0.000000000000000
  0
LINE
  5
F1021E
330
F1021F
100
AcDbEntity
8
Geo
100
AcDbLine
10
-80.9218097447794
20
1.10213577222621
30
0.000000000000000
11
-80.8218097447794
21
0.948187714977067
31
0.000000000000000
  0
LINE
  5
F10220
330
F10221
100
AcDbEntity
8
Geo
100
AcDbLine
10
-80.8218097447794
20
0.948187714977067
30
0.000000000000000
11
-80.7218097447794
21
0.794319844080442
31
0.000000000000000
  0
LINE
  5
F10222
330
F10223
100
AcDbEntity
8
Geo
100
AcDbLine
10
-80.7218097447794
20
0.794319844080442
30
0.000000000000000
11
-80.6218097447794
21
0.640760083796776
31
0.000000000000000
  0
LINE
  5
F10224
330
F10225
100
AcDbEntity
8
Geo
100
AcDbLine
10
-80.6218097447794
20
0.640760083796776
30
0.000000000000000
11
-80.5218097447794
21
0.487735901982700
31
0.000000000000000
  0
LINE
  5
F10226
330
F10227
100
AcDbEntity
8
Geo
100
AcDbLine
10
-80.5218097447794
20
0.487735901982700
30
0.000000000000000
11
-80.4218097447794
21
0.335473973143210
31
0.000000000000000
  0
LINE
  5
F10228
330
F10229
100
AcDbEntity
8
Geo
100
AcDbLine
10
-80.4218097447794
20
0.335473973143210
30
0.000000000000000
11
-80.3218097447794
21
0.184199842659044
31
0.000000000000000
  0
LINE
  5
F1022A
330
F1022B
100
AcDbEntity
8
Geo
100
AcDbLine
10
-80.3218097447794
20
0.184199842659044
30
0.000000000000000
11
-80.2218097447794
21
0.0341375926866290
31
0.000000000000000
  0
LINE
  5
F1022C
330
F1022D
100
AcDbEntity
8
Geo
100
AcDbLine
10
-80.2218097447794
20
0.0341375926866290
30
0.000000000000000
11
-80.1218097447794
21
-0.114490489774502
31
0.000000000000000
  0
LINE
  5
F1022E
330
F1022F
100
AcDbEntity
8
Geo
100
AcDbLine
10
-80.1218097447794
20
-0.114490489774502
30
0.000000000000000
11
-80.0218097447794
21
-0.261464242155134
31
0.000000000000000
  0
LINE
  5
F10230
330
F10231
100
AcDbEntity
8
Geo
100
AcDbLine
10
-80.0218097447794
20
-0.261464242155134
30
0.000000000000000
11
-79.9218097447794
21
-0.406565952442870
31
0.000000000000000
  0
LINE
  5
F10232
330
F10233
100
AcDbEntity
8
Geo
100
AcDbLine
10
-79.9218097447794
20
-0.406565952442870
30
0.000000000000000
11
-79.8218097447794
21
-0.549580681678624
31
0.000000000000000
  0
LINE
  5
F10234
330
F10235
100
AcDbEntity
8
Geo
100
AcDbLine
10
-79.8218097447794
20
-0.549580681678624
30
0.000000000000000
11
-79.7218097447794
21
-0.690296582345409
31
0.000000000000000
  0
LINE
  5
F10236
330
F10237
100
AcDbEntity
8
Geo
100
AcDbLine
10
-79.7218097447794
20
-0.690296582345409
30
0.000000000000000
11
-79.6218097447794
21
-0.828505212177754
31
0.000000000000000
  0
LINE
  5
F10238
330
F10239
100
AcDbEntity
8
Geo
100
AcDbLine
10
-79.6218097447794
20
-0.828505212177754
30
0.000000000000000
11
-79.5218097447794
21
-0.964001842926949
31
0.000000000000000
  0
LINE
  5
F1023A
330
F1023B
100
AcDbEntity
8
Geo
100
AcDbLine
10
-79.5218097447794
20
-0.964001842926949
30
0.000000000000000
11
-79.4218097447794
21
-1.09658576362470
31
0.000000000000000
  0
LINE
  5
F1023C
330
F1023D
100
AcDbEntity
8
Geo
100
AcDbLine
10
-79.4218097447794
20
-1.09658576362470
30
0.000000000000000
11
-79.3218097447794
21
-1.22606057789602
31
0.000000000000000
  0
LINE
  5
F1023E
330
F1023F
100
AcDbEntity
8
Geo
100
AcDbLine
10
-79.3218097447794
20
-1.22606057789602
30
0.000000000000000
11
-79.2218097447794
21
-1.35223449488087
31
0.000000000000000
  0
LINE
  5
F10240
330
F10241
100
AcDbEntity
8
Geo
100
AcDbLine
10
-79.2218097447794
20
-1.35223449488087
30
0.000000000000000
11
-79.1218097447794
21
-1.47492061333375
31
0.000000000000000
  0
LINE
  5
F10242
330
F10243
100
AcDbEntity
8
Geo
100
AcDbLine
10
-79.1218097447794
20
-1.47492061333375
30
0.000000000000000
11
-79.0218097447794
21
-1.59393719848017
31
0.000000000000000
  0
LINE
  5
F10244
330
F10245
100
AcDbEntity
8
Geo
100
AcDbLine
10
-79.0218097447794
20
-1.59393719848017
30
0.000000000000000
11
-78.9218097447794
21
-1.70910795122020
31
0.000000000000000
  0
LINE
  5
F10246
330
F10247
100
AcDbEntity
8
Geo
100
AcDbLine
10
-78.9218097447794
20
-1.70910795122020
30
0.000000000000000
11
-78.8218097447794
21
-1.82026226928000
31
0.000000000000000
  0
LINE
  5
F10248
330
F10249
100
AcDbEntity
8
Geo
100
AcDbLine
10
-78.8218097447794
20
-1.82026226928000
30
0.000000000000000
11
-78.7218097447794
21
-1.92723549992479
31
0.000000000000000
  0
LINE
  5
F1024A
330
F1024B
100
AcDbEntity
8
Geo
100
AcDbLine
10
-78.7218097447794
20
-1.92723549992479
30
0.000000000000000
11
-78.6218097447794
21
-2.02986918385868
31
0.000000000000000
  0
LINE
  5
F1024C
330
F1024D
100
AcDbEntity
8
Geo
100
AcDbLine
10
-78.6218097447794
20
-2.02986918385868
30
0.000000000000000
11
-78.5218097447794
21
-2.12801128995021
31
0.000000000000000
  0
LINE
  5
F1024E
330
F1024F
100
AcDbEntity
8
Geo
100
AcDbLine
10
-78.5218097447794
20
-2.12801128995021
30
0.000000000000000
11
-78.4218097447794
21
-2.22151644043585
31
0.000000000000000
  0
LINE
  5
F10250
330
F10251
100
AcDbEntity
8
Geo
100
AcDbLine
10
-78.4218097447794
20
-2.22151644043585
30
0.000000000000000
11
-78.3218097447794
21
-2.31024612626789
31
0.000000000000000
  0
LINE
  5
F10252
330
F10253
100
AcDbEntity
8
Geo
100
AcDbLine
10
-78.3218097447794
20
-2.31024612626789
30
0.000000000000000
11
-78.2218097447794
21
-2.39406891228768
31
0.000000000000000
  0
LINE
  5
F10254
330
F10255
100
AcDbEntity
8
Geo
100
AcDbLine
10
-78.2218097447794
20
-2.39406891228768
30
0.000000000000000
11
-78.1218097447794
21
-2.47286063192033
31
0.000000000000000
  0
LINE
  5
F10256
330
F10257
100
AcDbEntity
8
Geo
100
AcDbLine
10
-78.1218097447794
20
-2.47286063192033
30
0.000000000000000
11
-78.0218097447794
21
-2.54650457110253
31
0.000000000000000
  0
LINE
  5
F10258
330
F10259
100
AcDbEntity
8
Geo
100
AcDbLine
10
-78.0218097447794
20
-2.54650457110253
30
0.000000000000000
11
-77.9218097447794
21
-2.61489164117090
31
0.000000000000000
  0
LINE
  5
F1025A
330
F1025B
100
AcDbEntity
8
Geo
100
AcDbLine
10
-77.9218097447794
20
-2.61489164117090
30
0.000000000000000
11
-77.8218097447794
21
-2.67792054045486
31
0.000000000000000
  0
LINE
  5
F1025C
330
F1025D
100
AcDbEntity
8
Geo
100
AcDbLine
10
-77.8218097447794
20
-2.67792054045486
30
0.000000000000000
11
-77.7218097447794
21
-2.73549790433467
31
0.000000000000000
  0
LINE
  5
F1025E
330
F1025F
100
AcDbEntity
8
Geo
100
AcDbLine
10
-77.7218097447794
20
-2.73549790433467
30
0.000000000000000
11
-77.6218097447794
21
-2.78753844354231
31
0.000000000000000
  0
LINE
  5
F10260
330
F10261
100
AcDbEntity
8
Geo
100
AcDbLine
10
-77.6218097447794
20
-2.78753844354231
30
0.000000000000000
11
-77.5218097447794
21
-2.83396507050035
31
0.000000000000000
  0
LINE
  5
F10262
330
F10263
100
AcDbEntity
8
Geo
100
AcDbLine
10
-77.5218097447794
20
-2.83396507050035
30
0.000000000000000
11
-77.4218097447794
21
-2.87470901351167
31
0.000000000000000
  0
LINE
  5
F10264
330
F10265
100
AcDbEntity
8
Geo
100
AcDbLine
10
-77.4218097447794
20
-2.87470901351167
30
0.000000000000000
11
-77.3218097447794
21
-2.90970991863086
31
0.000000000000000
  0
LINE
  5
F10266
330
F10267
100
AcDbEntity
8
Geo
100
AcDbLine
10
-77.3218097447794
20
-2.90970991863086
30
0.000000000000000
11
-77.2218097447794
21
-2.93891593906648
31
0.000000000000000
  0
LINE
  5
F10268
330
F10269
100
AcDbEntity
8
Geo
100
AcDbLine
10
-77.2218097447794
20
-2.93891593906648
30
0.000000000000000
11
-77.1218097447794
21
-2.96228381198158
31
0.000000000000000
  0
LINE
  5
F1026A
330
F1026B
100
AcDbEntity
8
Geo
100
AcDbLine
10
-77.1218097447794
20
-2.96228381198158
30
0.000000000000000
11
-77.0218097447794
21
-2.97977892257892
31
0.000000000000000
  0
LINE
  5
F1026C
330
F1026D
100
AcDbEntity
8
Geo
100
AcDbLine
10
-77.0218097447794
20
-2.97977892257892
30
0.000000000000000
11
-76.9218097447794
21
-2.99137535537583
31
0.000000000000000
  0
LINE
  5
F1026E
330
F1026F
100
AcDbEntity
8
Geo
100
AcDbLine
10
-76.9218097447794
20
-2.99137535537583
30
0.000000000000000
11
-76.8218097447794
21
-2.99705593259273
31
0.000000000000000
  0
LINE
  5
F10270
330
F10271
100
AcDbEntity
8
Geo
100
AcDbLine
10
-67.9218097447794
20
5.00232018561491
30
0.000000000000000
11
-67.8218097447794
21
5.00182418567535
31
0.000000000000000
  0
LINE
  5
F10272
330
F10273
100
AcDbEntity
8
Geo
100
AcDbLine
10
-67.8218097447794
20
5.00182418567535
30
0.000000000000000
11
-67.7218097447794
21
5.00036626201497
31
0.000000000000000
  0
LINE
  5
F10274
330
F10275
100
AcDbEntity
8
Geo
100
AcDbLine
10
-67.7218097447794
20
5.00036626201497
30
0.000000000000000
11
-67.6218097447794
21
4.99810167349843
31
0.000000000000000
  0
LINE
  5
F10276
330
F10277
100
AcDbEntity
8
Geo
100
AcDbLine
10
-67.6218097447794
20
4.99810167349843
30
0.000000000000000
11
-67.5218097447794
21
4.99517807068722
31
0.000000000000000
  0
LINE
  5
F10278
330
F10279
100
AcDbEntity
8
Geo
100
AcDbLine
10
-67.5218097447794
20
4.99517807068722
30
0.000000000000000
11
-67.4218097447794
21
4.99173469853076
31
0.000000000000000
  0
LINE
  5
F1027A
330
F1027B
100
AcDbEntity
8
Geo
100
AcDbLine
10
-67.4218097447794
20
4.99173469853076
30
0.000000000000000
11
-67.3218097447794
21
4.98790233778691
31
0.000000000000000
  0
LINE
  5
F1027C
330
F1027D
100
AcDbEntity
8
Geo
100
AcDbLine
10
-67.3218097447794
20
4.98790233778691
30
0.000000000000000
11
-67.2218097447794
21
4.98380326710351
31
0.000000000000000
  0
LINE
  5
F1027E
330
F1027F
100
AcDbEntity
8
Geo
100
AcDbLine
10
-67.2218097447794
20
4.98380326710351
30
0.000000000000000
11
-67.1218097447794
21
4.97955124255722
31
0.000000000000000
  0
LINE
  5
F10280
330
F10281
100
AcDbEntity
8
Geo
100
AcDbLine
10
-67.1218097447794
20
4.97955124255722
30
0.000000000000000
11
-67.0218097447794
21
4.97525149164697
31
0.000000000000000
  0
LINE
  5
F10282
330
F10283
100
AcDbEntity
8
Geo
100
AcDbLine
10
-67.0218097447794
20
4.97525149164697
30
0.000000000000000
11
-66.9218097447794
21
4.97100071894416
31
0.000000000000000
  0
LINE
  5
F10284
330
F10285
100
AcDbEntity
8
Geo
100
AcDbLine
10
-66.9218097447794
20
4.97100071894416
30
0.000000000000000
11
-66.8218097447794
21
4.96688712080931
31
0.000000000000000
  0
LINE
  5
F10286
330
F10287
100
AcDbEntity
8
Geo
100
AcDbLine
10
-66.8218097447794
20
4.96688712080931
30
0.000000000000000
11
-66.7218097447794
21
4.96299040679317
31
0.000000000000000
  0
LINE
  5
F10288
330
F10289
100
AcDbEntity
8
Geo
100
AcDbLine
10
-66.7218097447794
20
4.96299040679317
30
0.000000000000000
11
-66.6218097447794
21
4.95938182555029
31
0.000000000000000
  0
LINE
  5
F1028A
330
F1028B
100
AcDbEntity
8
Geo
100
AcDbLine
10
-66.6218097447794
20
4.95938182555029
30
0.000000000000000
11
-66.5218097447794
21
4.95612419330235
31
0.000000000000000
  0
LINE
  5
F1028C
330
F1028D
100
AcDbEntity
8
Geo
100
AcDbLine
10
-66.5218097447794
20
4.95612419330235
30
0.000000000000000
11
-66.4218097447794
21
4.95327192309782
31
0.000000000000000
  0
LINE
  5
F1028E
330
F1028F
100
AcDbEntity
8
Geo
100
AcDbLine
10
-66.4218097447794
20
4.95327192309782
30
0.000000000000000
11
-66.3218097447794
21
4.95087105332331
31
0.000000000000000
  0
LINE
  5
F10290
330
F10291
100
AcDbEntity
8
Geo
100
AcDbLine
10
-66.3218097447794
20
4.95087105332331
30
0.000000000000000
11
-66.2218097447794
21
4.94895927412922
31
0.000000000000000
  0
LINE
  5
F10292
330
F10293
100
AcDbEntity
8
Geo
100
AcDbLine
10
-66.2218097447794
20
4.94895927412922
30
0.000000000000000
11
-66.1218097447794
21
4.94756595063941
31
0.000000000000000
  0
LINE
  5
F10294
330
F10295
100
AcDbEntity
8
Geo
100
AcDbLine
10
-84.1218097447794
20
1.00232018561490
30
0.000000000000000
11
-84.0218097447794
21
0.870105373196844
31
0.000000000000000
  0
LINE
  5
F10296
330
F10297
100
AcDbEntity
8
Geo
100
AcDbLine
10
-84.0218097447794
20
0.870105373196844
30
0.000000000000000
11
-83.9218097447794
21
0.725465682111287
31
0.000000000000000
  0
LINE
  5
F10298
330
F10299
100
AcDbEntity
8
Geo
100
AcDbLine
10
-83.9218097447794
20
0.725465682111287
30
0.000000000000000
11
-83.8218097447794
21
0.574400325921934
31
0.000000000000000
  0
LINE
  5
F1029A
330
F1029B
100
AcDbEntity
8
Geo
100
AcDbLine
10
-83.8218097447794
20
0.574400325921934
30
0.000000000000000
11
-83.7218097447794
21
0.419580476879276
31
0.000000000000000
  0
LINE
  5
F1029C
330
F1029D
100
AcDbEntity
8
Geo
100
AcDbLine
10
-83.7218097447794
20
0.419580476879276
30
0.000000000000000
11
-83.6218097447794
21
0.262887449394960
31
0.000000000000000
  0
LINE
  5
F1029E
330
F1029F
100
AcDbEntity
8
Geo
100
AcDbLine
10
-83.6218097447794
20
0.262887449394960
30
0.000000000000000
11
-83.5218097447794
21
0.105858171396647
31
0.000000000000000
  0
LINE
  5
F102A0
330
F102A1
100
AcDbEntity
8
Geo
100
AcDbLine
10
-83.5218097447794
20
0.105858171396647
30
0.000000000000000
11
-83.4218097447794
21
-0.0501479115610248
31
0.000000000000000
  0
LINE
  5
F102A2
330
F102A3
100
AcDbEntity
8
Geo
100
AcDbLine
10
-83.4218097447794
20
-0.0501479115610248
30
0.000000000000000
11
-83.3218097447794
21
-0.203865454058216
31
0.000000000000000
  0
LINE
  5
F102A4
330
F102A5
100
AcDbEntity
8
Geo
100
AcDbLine
10
-83.3218097447794
20
-0.203865454058216
30
0.000000000000000
11
-83.2218097447794
21
-0.354071567669729
31
0.000000000000000
  0
LINE
  5
F102A6
330
F102A7
100
AcDbEntity
8
Geo
100
AcDbLine
10
-83.2218097447794
20
-0.354071567669729
30
0.000000000000000
11
-83.1218097447794
21
-0.499546299810472
31
0.000000000000000
  0
LINE
  5
F102A8
330
F102A9
100
AcDbEntity
8
Geo
100
AcDbLine
10
-83.1218097447794
20
-0.499546299810472
30
0.000000000000000
11
-83.0218097447794
21
-0.641094436800592
31
0.000000000000000
  0
LINE
  5
F102AA
330
F102AB
100
AcDbEntity
8
Geo
100
AcDbLine
10
-83.0218097447794
20
-0.641094436800592
30
0.000000000000000
11
-82.9218097447794
21
-0.780208186025170
31
0.000000000000000
  0
LINE
  5
F102AC
330
F102AD
100
AcDbEntity
8
Geo
100
AcDbLine
10
-82.9218097447794
20
-0.780208186025170
30
0.000000000000000
11
-82.8218097447794
21
-0.916681478483415
31
0.000000000000000
  0
LINE
  5
F102AE
330
F102AF
100
AcDbEntity
8
Geo
100
AcDbLine
10
-82.8218097447794
20
-0.916681478483415
30
0.000000000000000
11
-82.7218097447794
21
-1.05031215647942
31
0.000000000000000
  0
LINE
  5
F102B0
330
F102B1
100
AcDbEntity
8
Geo
100
AcDbLine
10
-82.7218097447794
20
-1.05031215647942
30
0.000000000000000
11
-82.6218097447794
21
-1.18090227307808
31
0.000000000000000
  0
LINE
  5
F102B2
330
F102B3
100
AcDbEntity
8
Geo
100
AcDbLine
10
-82.6218097447794
20
-1.18090227307808
30
0.000000000000000
11
-82.5218097447794
21
-1.30825838532360
31
0.000000000000000
  0
LINE
  5
F102B4
330
F102B5
100
AcDbEntity
8
Geo
100
AcDbLine
10
-82.5218097447794
20
-1.30825838532360
30
0.000000000000000
11
-82.4218097447794
21
-1.43219184078629
31
0.000000000000000
  0
LINE
  5
F102B6
330
F102B7
100
AcDbEntity
8
Geo
100
AcDbLine
10
-82.4218097447794
20
-1.43219184078629
30
0.000000000000000
11
-82.3218097447794
21
-1.55251905701313
31
0.000000000000000
  0
LINE
  5
F102B8
330
F102B9
100
AcDbEntity
8
Geo
100
AcDbLine
10
-82.3218097447794
20
-1.55251905701313
30
0.000000000000000
11
-82.2218097447794
21
-1.66906179346819
31
0.000000000000000
  0
LINE
  5
F102BA
330
F102BB
100
AcDbEntity
8
Geo
100
AcDbLine
10
-82.2218097447794
20
-1.66906179346819
30
0.000000000000000
11
-82.1218097447794
21
-1.78164741556010
31
0.000000000000000
  0
LINE
  5
F102BC
330
F102BD
100
AcDbEntity
8
Geo
100
AcDbLine
10
-82.1218097447794
20
-1.78164741556010
30
0.000000000000000
11
-82.0218097447794
21
-1.89010915036542
31
0.000000000000000
  0
LINE
  5
F102BE
330
F102BF
100
AcDbEntity
8
Geo
100
AcDbLine
10
-82.0218097447794
20
-1.89010915036542
30
0.000000000000000
11
-81.9218097447794
21
-1.99428633366916
31
0.000000000000000
  0
LINE
  5
F102C0
330
F102C1
100
AcDbEntity
8
Geo
100
AcDbLine
10
-81.9218097447794
20
-1.99428633366916
30
0.000000000000000
11
-81.8218097447794
21
-2.09402464795641
31
0.000000000000000
  0
LINE
  5
F102C2
330
F102C3
100
AcDbEntity
8
Geo
100
AcDbLine
10
-81.8218097447794
20
-2.09402464795641
30
0.000000000000000
11
-81.7218097447794
21
-2.18917635100269
31
0.000000000000000
  0
LINE
  5
F102C4
330
F102C5
100
AcDbEntity
8
Geo
100
AcDbLine
10
-81.7218097447794
20
-2.18917635100269
30
0.000000000000000
11
-81.6218097447794
21
-2.27960049472429
31
0.000000000000000
  0
LINE
  5
F102C6
330
F102C7
100
AcDbEntity
8
Geo
100
AcDbLine
10
-81.6218097447794
20
-2.27960049472429
30
0.000000000000000
11
-81.5218097447794
21
-2.36516313396448
31
0.000000000000000
  0
LINE
  5
F102C8
330
F102C9
100
AcDbEntity
8
Geo
100
AcDbLine
10
-81.5218097447794
20
-2.36516313396448
30
0.000000000000000
11
-81.4218097447794
21
-2.44573752490625
31
0.000000000000000
  0
LINE
  5
F102CA
330
F102CB
100
AcDbEntity
8
Geo
100
AcDbLine
10
-81.4218097447794
20
-2.44573752490625
30
0.000000000000000
11
-81.3218097447794
21
-2.52120431281780
31
0.000000000000000
  0
LINE
  5
F102CC
330
F102CD
100
AcDbEntity
8
Geo
100
AcDbLine
10
-81.3218097447794
20
-2.52120431281780
30
0.000000000000000
11
-81.2218097447794
21
-2.59145170885247
31
0.000000000000000
  0
LINE
  5
F102CE
330
F102CF
100
AcDbEntity
8
Geo
100
AcDbLine
10
-81.2218097447794
20
-2.59145170885247
30
0.000000000000000
11
-81.1218097447794
21
-2.65637565564147
31
0.000000000000000
  0
LINE
  5
F102D0
330
F102D1
100
AcDbEntity
8
Geo
100
AcDbLine
10
-81.1218097447794
20
-2.65637565564147
30
0.000000000000000
11
-81.0218097447794
21
-2.71587998143384
31
0.000000000000000
  0
LINE
  5
F102D2
330
F102D3
100
AcDbEntity
8
Geo
100
AcDbLine
10
-81.0218097447794
20
-2.71587998143384
30
0.000000000000000
11
-80.9218097447794
21
-2.76987654255561
31
0.000000000000000
  0
LINE
  5
F102D4
330
F102D5
100
AcDbEntity
8
Geo
100
AcDbLine
10
-80.9218097447794
20
-2.76987654255561
30
0.000000000000000
11
-80.8218097447794
21
-2.81828535397684
31
0.000000000000000
  0
LINE
  5
F102D6
330
F102D7
100
AcDbEntity
8
Geo
100
AcDbLine
10
-80.8218097447794
20
-2.81828535397684
30
0.000000000000000
11
-80.7218097447794
21
-2.86103470779334
31
0.000000000000000
  0
LINE
  5
F102D8
330
F102D9
100
AcDbEntity
8
Geo
100
AcDbLine
10
-80.7218097447794
20
-2.86103470779334
30
0.000000000000000
11
-80.6218097447794
21
-2.89806127944752
31
0.000000000000000
  0
LINE
  5
F102DA
330
F102DB
100
AcDbEntity
8
Geo
100
AcDbLine
10
-80.6218097447794
20
-2.89806127944752
30
0.000000000000000
11
-80.5218097447794
21
-2.92931022153094
31
0.000000000000000
  0
LINE
  5
F102DC
330
F102DD
100
AcDbEntity
8
Geo
100
AcDbLine
10
-80.5218097447794
20
-2.92931022153094
30
0.000000000000000
11
-80.4218097447794
21
-2.95473524502970
31
0.000000000000000
  0
LINE
  5
F102DE
330
F102DF
100
AcDbEntity
8
Geo
100
AcDbLine
10
-80.4218097447794
20
-2.95473524502970
30
0.000000000000000
11
-80.3218097447794
21
-2.97429868789230
31
0.000000000000000
  0
LINE
  5
F102E0
330
F102E1
100
AcDbEntity
8
Geo
100
AcDbLine
10
-80.3218097447794
20
-2.97429868789230
30
0.000000000000000
11
-80.2218097447794
21
-2.98797157081839
31
0.000000000000000
  0
LINE
  5
F102E2
330
F102E3
100
AcDbEntity
8
Geo
100
AcDbLine
10
-80.2218097447794
20
-2.98797157081839
30
0.000000000000000
11
-80.1218097447794
21
-2.99573364018573
31
0.000000000000000
  0
LINE
  5
F102E4
330
F102E5
100
AcDbEntity
8
Geo
100
AcDbLine
10
-71.9218097447794
20
5.00176862727804
30
0.000000000000000
11
-71.8218097447794
21
5.00136247258934
31
0.000000000000000
  0
LINE
  5
F102E6
330
F102E7
100
AcDbEntity
8
Geo
100
AcDbLine
10
-71.8218097447794
20
5.00136247258934
30
0.000000000000000
11
-71.7218097447794
21
4.99503254219334
31
0.000000000000000
  0
LINE
  5
F102E8
330
F102E9
100
AcDbEntity
8
Geo
100
AcDbLine
10
-71.7218097447794
20
4.99503254219334
30
0.000000000000000
11
-71.6218097447794
21
4.98278821260702
31
0.000000000000000
  0
LINE
  5
F102EA
330
F102EB
100
AcDbEntity
8
Geo
100
AcDbLine
10
-71.6218097447794
20
4.98278821260702
30
0.000000000000000
11
-71.5218097447794
21
4.96464762133855
31
0.000000000000000
  0
LINE
  5
F102EC
330
F102ED
100
AcDbEntity
8
Geo
100
AcDbLine
10
-71.5218097447794
20
4.96464762133855
30
0.000000000000000
11
-71.4218097447794
21
4.94063764002021
31
0.000000000000000
  0
LINE
  5
F102EE
330
F102EF
100
AcDbEntity
8
Geo
100
AcDbLine
10
-71.4218097447794
20
4.94063764002021
30
0.000000000000000
11
-71.3218097447794
21
4.91079383460353
31
0.000000000000000
  0
LINE
  5
F102F0
330
F102F1
100
AcDbEntity
8
Geo
100
AcDbLine
10
-71.3218097447794
20
4.91079383460353
30
0.000000000000000
11
-71.2218097447794
21
4.87516041267544
31
0.000000000000000
  0
LINE
  5
F102F2
330
F102F3
100
AcDbEntity
8
Geo
100
AcDbLine
10
-71.2218097447794
20
4.87516041267544
30
0.000000000000000
11
-71.1218097447794
21
4.83379015797363
31
0.000000000000000
  0
LINE
  5
F102F4
330
F102F5
100
AcDbEntity
8
Geo
100
AcDbLine
10
-71.1218097447794
20
4.83379015797363
30
0.000000000000000
11
-71.0218097447794
21
4.83924950578508
31
0.000000000000000
  0
LINE
  5
F102F6
330
F102F7
100
AcDbEntity
8
Geo
100
AcDbLine
10
-71.0218097447794
20
4.83924950578508
30
0.000000000000000
11
-70.9218097447794
21
4.84451743227126
31
0.000000000000000
  0
LINE
  5
F102F8
330
F102F9
100
AcDbEntity
8
Geo
100
AcDbLine
10
-70.9218097447794
20
4.84451743227126
30
0.000000000000000
11
-70.8218097447794
21
4.84959884992316
31
0.000000000000000
  0
LINE
  5
F102FA
330
F102FB
100
AcDbEntity
8
Geo
100
AcDbLine
10
-70.8218097447794
20
4.84959884992316
30
0.000000000000000
11
-70.7218097447794
21
4.85449858688879
31
0.000000000000000
  0
LINE
  5
F102FC
330
F102FD
100
AcDbEntity
8
Geo
100
AcDbLine
10
-70.7218097447794
20
4.85449858688879
30
0.000000000000000
11
-70.6218097447794
21
4.85922138596796
31
0.000000000000000
  0
LINE
  5
F102FE
330
F102FF
100
AcDbEntity
8
Geo
100
AcDbLine
10
-70.6218097447794
20
4.85922138596796
30
0.000000000000000
11
-70.5218097447794
21
4.86377190365070
31
0.000000000000000
  0
LINE
  5
F10300
330
F10301
100
AcDbEntity
8
Geo
100
AcDbLine
10
-70.5218097447794
20
4.86377190365070
30
0.000000000000000
11
-70.4218097447794
21
4.86815470919777
31
0.000000000000000
  0
LINE
  5
F10302
330
F10303
100
AcDbEntity
8
Geo
100
AcDbLine
10
-70.4218097447794
20
4.86815470919777
30
0.000000000000000
11
-70.3218097447794
21
4.87237428376210
31
0.000000000000000
  0
LINE
  5
F10304
330
F10305
100
AcDbEntity
8
Geo
100
AcDbLine
10
-70.3218097447794
20
4.87237428376210
30
0.000000000000000
11
-70.2218097447794
21
4.87643501954977
31
0.000000000000000
  0
LINE
  5
F10306
330
F10307
100
AcDbEntity
8
Geo
100
AcDbLine
10
-70.2218097447794
20
4.87643501954977
30
0.000000000000000
11
-70.1218097447794
21
4.88034121901924
31
0.000000000000000
  0
LINE
  5
F10308
330
F10309
100
AcDbEntity
8
Geo
100
AcDbLine
10
-70.1218097447794
20
4.88034121901924
30
0.000000000000000
11
-70.0218097447794
21
4.88409709411755
31
0.000000000000000
  0
LINE
  5
F1030A
330
F1030B
100
AcDbEntity
8
Geo
100
AcDbLine
10
-70.0218097447794
20
4.88409709411755
30
0.000000000000000
11
-69.9218097447794
21
4.88770676555222
31
0.000000000000000
  0
LINE
  5
F1030C
330
F1030D
100
AcDbEntity
8
Geo
100
AcDbLine
10
-69.9218097447794
20
4.88770676555222
30
0.000000000000000
11
-69.8218097447794
21
4.89117426209771
31
0.000000000000000
  0
LINE
  5
F1030E
330
F1030F
100
AcDbEntity
8
Geo
100
AcDbLine
10
-69.8218097447794
20
4.89117426209771
30
0.000000000000000
11
-69.7218097447794
21
4.89450351993507
31
0.000000000000000
  0
LINE
  5
F10310
330
F10311
100
AcDbEntity
8
Geo
100
AcDbLine
10
-69.7218097447794
20
4.89450351993507
30
0.000000000000000
11
-69.6218097447794
21
4.89769838202379
31
0.000000000000000
  0
LINE
  5
F10312
330
F10313
100
AcDbEntity
8
Geo
100
AcDbLine
10
-69.6218097447794
20
4.89769838202379
30
0.000000000000000
11
-69.5218097447794
21
4.90076259750455
31
0.000000000000000
  0
LINE
  5
F10314
330
F10315
100
AcDbEntity
8
Geo
100
AcDbLine
10
-69.5218097447794
20
4.90076259750455
30
0.000000000000000
11
-69.4218097447794
21
4.90369982113180
31
0.000000000000000
  0
LINE
  5
F10316
330
F10317
100
AcDbEntity
8
Geo
100
AcDbLine
10
-69.4218097447794
20
4.90369982113180
30
0.000000000000000
11
-69.3218097447794
21
4.90651361273504
31
0.000000000000000
  0
LINE
  5
F10318
330
F10319
100
AcDbEntity
8
Geo
100
AcDbLine
10
-69.3218097447794
20
4.90651361273504
30
0.000000000000000
11
-69.2218097447794
21
4.90920743670778
31
0.000000000000000
  0
LINE
  5
F1031A
330
F1031B
100
AcDbEntity
8
Geo
100
AcDbLine
10
-69.2218097447794
20
4.90920743670778
30
0.000000000000000
11
-69.1218097447794
21
4.91178466152301
31
0.000000000000000
  0
LINE
  5
F1031C
330
F1031D
100
AcDbEntity
8
Geo
100
AcDbLine
10
-69.1218097447794
20
4.91178466152301
30
0.000000000000000
11
-69.0218097447794
21
4.91424855927426
31
0.000000000000000
  0
LINE
  5
F1031E
330
F1031F
100
AcDbEntity
8
Geo
100
AcDbLine
10
-69.0218097447794
20
4.91424855927426
30
0.000000000000000
11
-68.9218097447794
21
4.91660230524124
31
0.000000000000000
  0
LINE
  5
F10320
330
F10321
100
AcDbEntity
8
Geo
100
AcDbLine
10
-68.9218097447794
20
4.91660230524124
30
0.000000000000000
11
-68.8218097447794
21
4.91884897747900
31
0.000000000000000
  0
LINE
  5
F10322
330
F10323
100
AcDbEntity
8
Geo
100
AcDbLine
10
-68.8218097447794
20
4.91884897747900
30
0.000000000000000
11
-68.7218097447794
21
4.92099155642975
31
0.000000000000000
  0
LINE
  5
F10324
330
F10325
100
AcDbEntity
8
Geo
100
AcDbLine
10
-68.7218097447794
20
4.92099155642975
30
0.000000000000000
11
-68.6218097447794
21
4.92303292455641
31
0.000000000000000
  0
LINE
  5
F10326
330
F10327
100
AcDbEntity
8
Geo
100
AcDbLine
10
-68.6218097447794
20
4.92303292455641
30
0.000000000000000
11
-68.5218097447794
21
4.92497586599698
31
0.000000000000000
  0
LINE
  5
F10328
330
F10329
100
AcDbEntity
8
Geo
100
AcDbLine
10
-68.5218097447794
20
4.92497586599698
30
0.000000000000000
11
-68.4218097447794
21
4.92682306623882
31
0.000000000000000
  0
LINE
  5
F1032A
330
F1032B
100
AcDbEntity
8
Geo
100
AcDbLine
10
-68.4218097447794
20
4.92682306623882
30
0.000000000000000
11
-68.3218097447794
21
4.92857711181219
31
0.000000000000000
  0
LINE
  5
F1032C
330
F1032D
100
AcDbEntity
8
Geo
100
AcDbLine
10
-68.3218097447794
20
4.92857711181219
30
0.000000000000000
11
-68.2218097447794
21
4.93024049000194
31
0.000000000000000
  0
LINE
  5
F1032E
330
F1032F
100
AcDbEntity
8
Geo
100
AcDbLine
10
-68.2218097447794
20
4.93024049000194
30
0.000000000000000
11
-68.1218097447794
21
4.93181558857694
31
0.000000000000000
  0
LINE
  5
F10330
330
F10331
100
AcDbEntity
8
Geo
100
AcDbLine
10
-68.1218097447794
20
4.93181558857694
30
0.000000000000000
11
-68.0218097447794
21
4.93330469553615
31
0.000000000000000
  0
LINE
  5
F10332
330
F10333
100
AcDbEntity
8
Geo
100
AcDbLine
10
-68.0218097447794
20
4.93330469553615
30
0.000000000000000
11
-67.9218097447794
21
4.93470999887094
31
0.000000000000000
  0
LINE
  5
F10334
330
F10335
100
AcDbEntity
8
Geo
100
AcDbLine
10
-67.9218097447794
20
4.93470999887094
30
0.000000000000000
11
-67.8218097447794
21
4.93603358634263
31
0.000000000000000
  0
LINE
  5
F10336
330
F10337
100
AcDbEntity
8
Geo
100
AcDbLine
10
-67.8218097447794
20
4.93603358634263
30
0.000000000000000
11
-67.7218097447794
21
4.93727744527498
31
0.000000000000000
  0
LINE
  5
F10338
330
F10339
100
AcDbEntity
8
Geo
100
AcDbLine
10
-67.7218097447794
20
4.93727744527498
30
0.000000000000000
11
-67.6218097447794
21
4.93844346236060
31
0.000000000000000
  0
LINE
  5
F1033A
330
F1033B
100
AcDbEntity
8
Geo
100
AcDbLine
10
-67.6218097447794
20
4.93844346236060
30
0.000000000000000
11
-67.5218097447794
21
4.93953342348103
31
0.000000000000000
  0
LINE
  5
F1033C
330
F1033D
100
AcDbEntity
8
Geo
100
AcDbLine
10
-67.5218097447794
20
4.93953342348103
30
0.000000000000000
11
-67.4218097447794
21
4.94054901353971
31
0.000000000000000
  0
LINE
  5
F1033E
330
F1033F
100
AcDbEntity
8
Geo
100
AcDbLine
10
-67.4218097447794
20
4.94054901353971
30
0.000000000000000
11
-67.3218097447794
21
4.94149181630735
31
0.000000000000000
  0
LINE
  5
F10340
330
F10341
100
AcDbEntity
8
Geo
100
AcDbLine
10
-67.3218097447794
20
4.94149181630735
30
0.000000000000000
11
-67.2218097447794
21
4.94236331427921
31
0.000000000000000
  0
LINE
  5
F10342
330
F10343
100
AcDbEntity
8
Geo
100
AcDbLine
10
-67.2218097447794
20
4.94236331427921
30
0.000000000000000
11
-67.1218097447794
21
4.94316488854386
31
0.000000000000000
  0
LINE
  5
F10344
330
F10345
100
AcDbEntity
8
Geo
100
AcDbLine
10
-67.1218097447794
20
4.94316488854386
30
0.000000000000000
11
-67.0218097447794
21
4.94389781866287
31
0.000000000000000
  0
LINE
  5
F10346
330
F10347
100
AcDbEntity
8
Geo
100
AcDbLine
10
-67.0218097447794
20
4.94389781866287
30
0.000000000000000
11
-66.9218097447794
21
4.94456328256106
31
0.000000000000000
  0
LINE
  5
F10348
330
F10349
100
AcDbEntity
8
Geo
100
AcDbLine
10
-66.9218097447794
20
4.94456328256106
30
0.000000000000000
11
-66.8218097447794
21
4.94516235642695
31
0.000000000000000
  0
LINE
  5
F1034A
330
F1034B
100
AcDbEntity
8
Geo
100
AcDbLine
10
-66.8218097447794
20
4.94516235642695
30
0.000000000000000
11
-66.7218097447794
21
4.94569601462306
31
0.000000000000000
  0
LINE
  5
F1034C
330
F1034D
100
AcDbEntity
8
Geo
100
AcDbLine
10
-66.7218097447794
20
4.94569601462306
30
0.000000000000000
11
-66.6218097447794
21
4.94616512960564
31
0.000000000000000
  0
LINE
  5
F1034E
330
F1034F
100
AcDbEntity
8
Geo
100
AcDbLine
10
-66.6218097447794
20
4.94616512960564
30
0.000000000000000
11
-66.5218097447794
21
4.94657047185365
31
0.000000000000000
  0
LINE
  5
F10350
330
F10351
100
AcDbEntity
8
Geo
100
AcDbLine
10
-66.5218097447794
20
4.94657047185365
30
0.000000000000000
11
-66.4218097447794
21
4.94691270980667
31
0.000000000000000
  0
LINE
  5
F10352
330
F10353
100
AcDbEntity
8
Geo
100
AcDbLine
10
-66.4218097447794
20
4.94691270980667
30
0.000000000000000
11
-66.3218097447794
21
4.94719240981154
31
0.000000000000000
  0
LINE
  5
F10354
330
F10355
100
AcDbEntity
8
Geo
100
AcDbLine
10
-66.3218097447794
20
4.94719240981154
30
0.000000000000000
11
-66.2218097447794
21
4.94741003607745
31
0.000000000000000
  0
LINE
  5
F10356
330
F10357
100
AcDbEntity
8
Geo
100
AcDbLine
10
-66.2218097447794
20
4.94741003607745
30
0.000000000000000
11
-66.1218097447794
21
4.94756595063941
31
0.000000000000000
  0
LINE
  5
F10358
330
F10359
100
AcDbEntity
8
Geo
100
AcDbLine
10
-84.1218097447794
20
0.0752692024900725
30
0.000000000000000
11
-84.0218097447794
21
-0.184385558261388
31
0.000000000000000
  0
LINE
  5
F1035A
330
F1035B
100
AcDbEntity
8
Geo
100
AcDbLine
10
-84.0218097447794
20
-0.184385558261388
30
0.000000000000000
11
-83.9218097447794
21
-0.370150719906668
31
0.000000000000000
  0
LINE
  5
F1035C
330
F1035D
100
AcDbEntity
8
Geo
100
AcDbLine
10
-83.9218097447794
20
-0.370150719906668
30
0.000000000000000
11
-83.8218097447794
21
-0.544745986273238
31
0.000000000000000
  0
LINE
  5
F1035E
330
F1035F
100
AcDbEntity
8
Geo
100
AcDbLine
10
-83.8218097447794
20
-0.544745986273238
30
0.000000000000000
11
-83.7218097447794
21
-0.712273049559003
31
0.000000000000000
  0
LINE
  5
F10360
330
F10361
100
AcDbEntity
8
Geo
100
AcDbLine
10
-83.7218097447794
20
-0.712273049559003
30
0.000000000000000
11
-83.6218097447794
21
-0.873534411908220
31
0.000000000000000
  0
LINE
  5
F10362
330
F10363
100
AcDbEntity
8
Geo
100
AcDbLine
10
-83.6218097447794
20
-0.873534411908220
30
0.000000000000000
11
-83.5218097447794
21
-1.02840491626437
31
0.000000000000000
  0
LINE
  5
F10364
330
F10365
100
AcDbEntity
8
Geo
100
AcDbLine
10
-83.5218097447794
20
-1.02840491626437
30
0.000000000000000
11
-83.4218097447794
21
-1.17639043074704
31
0.000000000000000
  0
LINE
  5
F10366
330
F10367
100
AcDbEntity
8
Geo
100
AcDbLine
10
-83.4218097447794
20
-1.17639043074704
30
0.000000000000000
11
-83.3218097447794
21
-1.31681150954280
31
0.000000000000000
  0
LINE
  5
F10368
330
F10369
100
AcDbEntity
8
Geo
100
AcDbLine
10
-83.3218097447794
20
-1.31681150954280
30
0.000000000000000
11
-83.2218097447794
21
-1.44887065465407
31
0.000000000000000
  0
LINE
  5
F1036A
330
F1036B
100
AcDbEntity
8
Geo
100
AcDbLine
10
-83.2218097447794
20
-1.44887065465407
30
0.000000000000000
11
-83.1218097447794
21
-1.57167191882509
31
0.000000000000000
  0
LINE
  5
F1036C
330
F1036D
100
AcDbEntity
8
Geo
100
AcDbLine
10
-83.1218097447794
20
-1.57167191882509
30
0.000000000000000
11
-83.0218097447794
21
-1.68758479096861
31
0.000000000000000
  0
LINE
  5
F1036E
330
F1036F
100
AcDbEntity
8
Geo
100
AcDbLine
10
-83.0218097447794
20
-1.68758479096861
30
0.000000000000000
11
-82.9218097447794
21
-1.79951311065887
31
0.000000000000000
  0
LINE
  5
F10370
330
F10371
100
AcDbEntity
8
Geo
100
AcDbLine
10
-82.9218097447794
20
-1.79951311065887
30
0.000000000000000
11
-82.8218097447794
21
-1.90729107863357
31
0.000000000000000
  0
LINE
  5
F10372
330
F10373
100
AcDbEntity
8
Geo
100
AcDbLine
10
-82.8218097447794
20
-1.90729107863357
30
0.000000000000000
11
-82.7218097447794
21
-2.01075904354053
31
0.000000000000000
  0
LINE
  5
F10374
330
F10375
100
AcDbEntity
8
Geo
100
AcDbLine
10
-82.7218097447794
20
-2.01075904354053
30
0.000000000000000
11
-82.6218097447794
21
-2.10976373842907
31
0.000000000000000
  0
LINE
  5
F10376
330
F10377
100
AcDbEntity
8
Geo
100
AcDbLine
10
-82.6218097447794
20
-2.10976373842907
30
0.000000000000000
11
-82.5218097447794
21
-2.20415850778409
31
0.000000000000000
  0
LINE
  5
F10378
330
F10379
100
AcDbEntity
8
Geo
100
AcDbLine
10
-82.5218097447794
20
-2.20415850778409
30
0.000000000000000
11
-82.4218097447794
21
-2.29380352476669
31
0.000000000000000
  0
LINE
  5
F1037A
330
F1037B
100
AcDbEntity
8
Geo
100
AcDbLine
10
-82.4218097447794
20
-2.29380352476669
30
0.000000000000000
11
-82.3218097447794
21
-2.37856599833949
31
0.000000000000000
  0
LINE
  5
F1037C
330
F1037D
100
AcDbEntity
8
Geo
100
AcDbLine
10
-82.3218097447794
20
-2.37856599833949
30
0.000000000000000
11
-82.2218097447794
21
-2.45832036996975
31
0.000000000000000
  0
LINE
  5
F1037E
330
F1037F
100
AcDbEntity
8
Geo
100
AcDbLine
10
-82.2218097447794
20
-2.45832036996975
30
0.000000000000000
11
-82.1218097447794
21
-2.53294849961911
31
0.000000000000000
  0
LINE
  5
F10380
330
F10381
100
AcDbEntity
8
Geo
100
AcDbLine
10
-82.1218097447794
20
-2.53294849961911
30
0.000000000000000
11
-82.0218097447794
21
-2.60233984074422
31
0.000000000000000
  0
LINE
  5
F10382
330
F10383
100
AcDbEntity
8
Geo
100
AcDbLine
10
-82.0218097447794
20
-2.60233984074422
30
0.000000000000000
11
-81.9218097447794
21
-2.66639160404923
31
0.000000000000000
  0
LINE
  5
F10384
330
F10385
100
AcDbEntity
8
Geo
100
AcDbLine
10
-81.9218097447794
20
-2.66639160404923
30
0.000000000000000
11
-81.8218097447794
21
-2.72500890974734
31
0.000000000000000
  0
LINE
  5
F10386
330
F10387
100
AcDbEntity
8
Geo
100
AcDbLine
10
-81.8218097447794
20
-2.72500890974734
30
0.000000000000000
11
-81.7218097447794
21
-2.77810492810620
31
0.000000000000000
  0
LINE
  5
F10388
330
F10389
100
AcDbEntity
8
Geo
100
AcDbLine
10
-81.7218097447794
20
-2.77810492810620
30
0.000000000000000
11
-81.6218097447794
21
-2.82560100806858
31
0.000000000000000
  0
LINE
  5
F1038A
330
F1038B
100
AcDbEntity
8
Geo
100
AcDbLine
10
-81.6218097447794
20
-2.82560100806858
30
0.000000000000000
11
-81.5218097447794
21
-2.86742679375814
31
0.000000000000000
  0
LINE
  5
F1038C
330
F1038D
100
AcDbEntity
8
Geo
100
AcDbLine
10
-81.5218097447794
20
-2.86742679375814
30
0.000000000000000
11
-81.4218097447794
21
-2.90352032869745
31
0.000000000000000
  0
LINE
  5
F1038E
330
F1038F
100
AcDbEntity
8
Geo
100
AcDbLine
10
-81.4218097447794
20
-2.90352032869745
30
0.000000000000000
11
-81.3218097447794
21
-2.93382814758402
31
0.000000000000000
  0
LINE
  5
F10390
330
F10391
100
AcDbEntity
8
Geo
100
AcDbLine
10
-81.3218097447794
20
-2.93382814758402
30
0.000000000000000
11
-81.2218097447794
21
-2.95830535548843
31
0.000000000000000
  0
LINE
  5
F10392
330
F10393
100
AcDbEntity
8
Geo
100
AcDbLine
10
-81.2218097447794
20
-2.95830535548843
30
0.000000000000000
11
-81.1218097447794
21
-2.97691569435710
31
0.000000000000000
  0
LINE
  5
F10394
330
F10395
100
AcDbEntity
8
Geo
100
AcDbLine
10
-81.1218097447794
20
-2.97691569435710
30
0.000000000000000
11
-81.0218097447794
21
-2.98963159672125
31
0.000000000000000
  0
LINE
  5
F10396
330
F10397
100
AcDbEntity
8
Geo
100
AcDbLine
10
-81.0218097447794
20
-2.98963159672125
30
0.000000000000000
11
-80.9218097447794
21
-2.99643422653264
31
0.000000000000000
  0
LINE
  5
F10398
330
F10399
100
AcDbEntity
8
Geo
100
AcDbLine
10
-72.7218097447794
20
5.00210521041189
30
0.000000000000000
11
-72.6218097447794
21
5.00073855685741
31
0.000000000000000
  0
LINE
  5
F1039A
330
F1039B
100
AcDbEntity
8
Geo
100
AcDbLine
10
-72.6218097447794
20
5.00073855685741
30
0.000000000000000
11
-72.5218097447794
21
4.99344905180112
31
0.000000000000000
  0
LINE
  5
F1039C
330
F1039D
100
AcDbEntity
8
Geo
100
AcDbLine
10
-72.5218097447794
20
4.99344905180112
30
0.000000000000000
11
-72.4218097447794
21
4.98024749317660
31
0.000000000000000
  0
LINE
  5
F1039E
330
F1039F
100
AcDbEntity
8
Geo
100
AcDbLine
10
-72.4218097447794
20
4.98024749317660
30
0.000000000000000
11
-72.3218097447794
21
4.96115343643404
31
0.000000000000000
  0
LINE
  5
F103A0
330
F103A1
100
AcDbEntity
8
Geo
100
AcDbLine
10
-72.3218097447794
20
4.96115343643404
30
0.000000000000000
11
-72.2218097447794
21
4.93619516557280
31
0.000000000000000
  0
LINE
  5
F103A2
330
F103A3
100
AcDbEntity
8
Geo
100
AcDbLine
10
-72.2218097447794
20
4.93619516557280
30
0.000000000000000
11
-72.1218097447794
21
4.90540965124435
31
0.000000000000000
  0
LINE
  5
F103A4
330
F103A5
100
AcDbEntity
8
Geo
100
AcDbLine
10
-72.1218097447794
20
4.90540965124435
30
0.000000000000000
11
-72.0218097447794
21
4.86884249598772
31
0.000000000000000
  0
LINE
  5
F103A6
330
F103A7
100
AcDbEntity
8
Geo
100
AcDbLine
10
-72.0218097447794
20
4.86884249598772
30
0.000000000000000
11
-71.9218097447794
21
4.82654786667847
31
0.000000000000000
  0
LINE
  5
F103A8
330
F103A9
100
AcDbEntity
8
Geo
100
AcDbLine
10
-71.9218097447794
20
4.82654786667847
30
0.000000000000000
11
-71.8218097447794
21
4.77858841429145
31
0.000000000000000
  0
LINE
  5
F103AA
330
F103AB
100
AcDbEntity
8
Geo
100
AcDbLine
10
-71.8218097447794
20
4.77858841429145
30
0.000000000000000
11
-71.7218097447794
21
4.72503518109591
31
0.000000000000000
  0
LINE
  5
F103AC
330
F103AD
100
AcDbEntity
8
Geo
100
AcDbLine
10
-71.7218097447794
20
4.72503518109591
30
0.000000000000000
11
-71.6218097447794
21
4.66596749542077
31
0.000000000000000
  0
LINE
  5
F103AE
330
F103AF
100
AcDbEntity
8
Geo
100
AcDbLine
10
-71.6218097447794
20
4.66596749542077
30
0.000000000000000
11
-71.5218097447794
21
4.60147285414562
31
0.000000000000000
  0
LINE
  5
F103B0
330
F103B1
100
AcDbEntity
8
Geo
100
AcDbLine
10
-71.5218097447794
20
4.60147285414562
30
0.000000000000000
11
-71.4218097447794
21
4.53164679309175
31
0.000000000000000
  0
LINE
  5
F103B2
330
F103B3
100
AcDbEntity
8
Geo
100
AcDbLine
10
-71.4218097447794
20
4.53164679309175
30
0.000000000000000
11
-71.3218097447794
21
4.45659274550506
31
0.000000000000000
  0
LINE
  5
F103B4
330
F103B5
100
AcDbEntity
8
Geo
100
AcDbLine
10
-71.3218097447794
20
4.45659274550506
30
0.000000000000000
11
-71.2218097447794
21
4.37642188884051
31
0.000000000000000
  0
LINE
  5
F103B6
330
F103B7
100
AcDbEntity
8
Geo
100
AcDbLine
10
-71.2218097447794
20
4.37642188884051
30
0.000000000000000
11
-71.1218097447794
21
4.29125298007516
31
0.000000000000000
  0
LINE
  5
F103B8
330
F103B9
100
AcDbEntity
8
Geo
100
AcDbLine
10
-71.1218097447794
20
4.29125298007516
30
0.000000000000000
11
-71.0218097447794
21
4.19007617260256
31
0.000000000000000
  0
LINE
  5
F103BA
330
F103BB
100
AcDbEntity
8
Geo
100
AcDbLine
10
-71.0218097447794
20
4.19007617260256
30
0.000000000000000
11
-70.9218097447794
21
4.08510819203139
31
0.000000000000000
  0
LINE
  5
F103BC
330
F103BD
100
AcDbEntity
8
Geo
100
AcDbLine
10
-70.9218097447794
20
4.08510819203139
30
0.000000000000000
11
-70.8218097447794
21
3.97686919867282
31
0.000000000000000
  0
LINE
  5
F103BE
330
F103BF
100
AcDbEntity
8
Geo
100
AcDbLine
10
-70.8218097447794
20
3.97686919867282
30
0.000000000000000
11
-70.7218097447794
21
3.86585997100062
31
0.000000000000000
  0
LINE
  5
F103C0
330
F103C1
100
AcDbEntity
8
Geo
100
AcDbLine
10
-70.7218097447794
20
3.86585997100062
30
0.000000000000000
11
-70.6218097447794
21
3.75256091653724
31
0.000000000000000
  0
LINE
  5
F103C2
330
F103C3
100
AcDbEntity
8
Geo
100
AcDbLine
10
-70.6218097447794
20
3.75256091653724
30
0.000000000000000
11
-70.5218097447794
21
3.63743129764584
31
0.000000000000000
  0
LINE
  5
F103C4
330
F103C5
100
AcDbEntity
8
Geo
100
AcDbLine
10
-70.5218097447794
20
3.63743129764584
30
0.000000000000000
11
-70.4218097447794
21
3.52090865769853
31
0.000000000000000
  0
LINE
  5
F103C6
330
F103C7
100
AcDbEntity
8
Geo
100
AcDbLine
10
-70.4218097447794
20
3.52090865769853
30
0.000000000000000
11
-70.3218097447794
21
3.40340843298787
31
0.000000000000000
  0
LINE
  5
F103C8
330
F103C9
100
AcDbEntity
8
Geo
100
AcDbLine
10
-70.3218097447794
20
3.40340843298787
30
0.000000000000000
11
-70.2218097447794
21
3.28532373578488
31
0.000000000000000
  0
LINE
  5
F103CA
330
F103CB
100
AcDbEntity
8
Geo
100
AcDbLine
10
-70.2218097447794
20
3.28532373578488
30
0.000000000000000
11
-70.1218097447794
21
3.16702529410483
31
0.000000000000000
  0
LINE
  5
F103CC
330
F103CD
100
AcDbEntity
8
Geo
100
AcDbLine
10
-70.1218097447794
20
3.16702529410483
30
0.000000000000000
11
-70.0218097447794
21
3.04886153400736
31
0.000000000000000
  0
LINE
  5
F103CE
330
F103CF
100
AcDbEntity
8
Geo
100
AcDbLine
10
-70.0218097447794
20
3.04886153400736
30
0.000000000000000
11
-69.9218097447794
21
2.93115879061478
31
0.000000000000000
  0
LINE
  5
F103D0
330
F103D1
100
AcDbEntity
8
Geo
100
AcDbLine
10
-69.9218097447794
20
2.93115879061478
30
0.000000000000000
11
-69.8218097447794
21
2.81422163446662
31
0.000000000000000
  0
LINE
  5
F103D2
330
F103D3
100
AcDbEntity
8
Geo
100
AcDbLine
10
-69.8218097447794
20
2.81422163446662
30
0.000000000000000
11
-69.7218097447794
21
2.69833330032828
31
0.000000000000000
  0
LINE
  5
F103D4
330
F103D5
100
AcDbEntity
8
Geo
100
AcDbLine
10
-69.7218097447794
20
2.69833330032828
30
0.000000000000000
11
-69.6218097447794
21
2.58375620612308
31
0.000000000000000
  0
LINE
  5
F103D6
330
F103D7
100
AcDbEntity
8
Geo
100
AcDbLine
10
-69.6218097447794
20
2.58375620612308
30
0.000000000000000
11
-69.5218097447794
21
2.47073255024920
31
0.000000000000000
  0
LINE
  5
F103D8
330
F103D9
100
AcDbEntity
8
Geo
100
AcDbLine
10
-69.5218097447794
20
2.47073255024920
30
0.000000000000000
11
-69.4218097447794
21
2.35948497616664
31
0.000000000000000
  0
LINE
  5
F103DA
330
F103DB
100
AcDbEntity
8
Geo
100
AcDbLine
10
-69.4218097447794
20
2.35948497616664
30
0.000000000000000
11
-69.3218097447794
21
2.25021729378305
31
0.000000000000000
  0
LINE
  5
F103DC
330
F103DD
100
AcDbEntity
8
Geo
100
AcDbLine
10
-69.3218097447794
20
2.25021729378305
30
0.000000000000000
11
-69.2218097447794
21
2.14311524782441
31
0.000000000000000
  0
LINE
  5
F103DE
330
F103DF
100
AcDbEntity
8
Geo
100
AcDbLine
10
-69.2218097447794
20
2.14311524782441
30
0.000000000000000
11
-69.1218097447794
21
2.03834732403813
31
0.000000000000000
  0
LINE
  5
F103E0
330
F103E1
100
AcDbEntity
8
Geo
100
AcDbLine
10
-69.1218097447794
20
2.03834732403813
30
0.000000000000000
11
-69.0218097447794
21
1.93606558473649
31
0.000000000000000
  0
LINE
  5
F103E2
330
F103E3
100
AcDbEntity
8
Geo
100
AcDbLine
10
-69.0218097447794
20
1.93606558473649
30
0.000000000000000
11
-68.9218097447794
21
1.83640652584056
31
0.000000000000000
  0
LINE
  5
F103E4
330
F103E5
100
AcDbEntity
8
Geo
100
AcDbLine
10
-68.9218097447794
20
1.83640652584056
30
0.000000000000000
11
-68.8218097447794
21
1.73949194822442
31
0.000000000000000
  0
LINE
  5
F103E6
330
F103E7
100
AcDbEntity
8
Geo
100
AcDbLine
10
-68.8218097447794
20
1.73949194822442
30
0.000000000000000
11
-68.7218097447794
21
1.64542983678189
31
0.000000000000000
  0
LINE
  5
F103E8
330
F103E9
100
AcDbEntity
8
Geo
100
AcDbLine
10
-68.7218097447794
20
1.64542983678189
30
0.000000000000000
11
-68.6218097447794
21
1.55431524123952
31
0.000000000000000
  0
LINE
  5
F103EA
330
F103EB
100
AcDbEntity
8
Geo
100
AcDbLine
10
-68.6218097447794
20
1.55431524123952
30
0.000000000000000
11
-68.5218097447794
21
1.46623115331691
31
0.000000000000000
  0
LINE
  5
F103EC
330
F103ED
100
AcDbEntity
8
Geo
100
AcDbLine
10
-68.5218097447794
20
1.46623115331691
30
0.000000000000000
11
-68.4218097447794
21
1.38124937538655
31
0.000000000000000
  0
LINE
  5
F103EE
330
F103EF
100
AcDbEntity
8
Geo
100
AcDbLine
10
-68.4218097447794
20
1.38124937538655
30
0.000000000000000
11
-68.3218097447794
21
1.29943137630800
31
0.000000000000000
  0
LINE
  5
F103F0
330
F103F1
100
AcDbEntity
8
Geo
100
AcDbLine
10
-68.3218097447794
20
1.29943137630800
30
0.000000000000000
11
-68.2218097447794
21
1.22082913060352
31
0.000000000000000
  0
LINE
  5
F103F2
330
F103F3
100
AcDbEntity
8
Geo
100
AcDbLine
10
-68.2218097447794
20
1.22082913060352
30
0.000000000000000
11
-68.1218097447794
21
1.14548593760455
31
0.000000000000000
  0
LINE
  5
F103F4
330
F103F5
100
AcDbEntity
8
Geo
100
AcDbLine
10
-68.1218097447794
20
1.14548593760455
30
0.000000000000000
11
-68.0218097447794
21
1.07343721762840
31
0.000000000000000
  0
LINE
  5
F103F6
330
F103F7
100
AcDbEntity
8
Geo
100
AcDbLine
10
-68.0218097447794
20
1.07343721762840
30
0.000000000000000
11
-67.9218097447794
21
1.00471128264306
31
0.000000000000000
  0
LINE
  5
F103F8
330
F103F9
100
AcDbEntity
8
Geo
100
AcDbLine
10
-67.9218097447794
20
1.00471128264306
30
0.000000000000000
11
-67.8218097447794
21
0.939330079244896
31
0.000000000000000
  0
LINE
  5
F103FA
330
F103FB
100
AcDbEntity
8
Geo
100
AcDbLine
10
-67.8218097447794
20
0.939330079244896
30
0.000000000000000
11
-67.7218097447794
21
0.877309902109590
31
0.000000000000000
  0
LINE
  5
F103FC
330
F103FD
100
AcDbEntity
8
Geo
100
AcDbLine
10
-67.7218097447794
20
0.877309902109590
30
0.000000000000000
11
-67.6218097447794
21
0.818662076381095
31
0.000000000000000
  0
LINE
  5
F103FE
330
F103FF
100
AcDbEntity
8
Geo
100
AcDbLine
10
-67.6218097447794
20
0.818662076381095
30
0.000000000000000
11
-67.5218097447794
21
0.763393607738282
31
0.000000000000000
  0
LINE
  5
F10400
330
F10401
100
AcDbEntity
8
Geo
100
AcDbLine
10
-67.5218097447794
20
0.763393607738282
30
0.000000000000000
11
-67.4218097447794
21
0.711507799124401
31
0.000000000000000
  0
LINE
  5
F10402
330
F10403
100
AcDbEntity
8
Geo
100
AcDbLine
10
-67.4218097447794
20
0.711507799124401
30
0.000000000000000
11
-67.3218097447794
21
0.663004833342214
31
0.000000000000000
  0
LINE
  5
F10404
330
F10405
100
AcDbEntity
8
Geo
100
AcDbLine
10
-67.3218097447794
20
0.663004833342214
30
0.000000000000000
11
-67.2218097447794
21
0.617882320908545
31
0.000000000000000
  0
LINE
  5
F10406
330
F10407
100
AcDbEntity
8
Geo
100
AcDbLine
10
-67.2218097447794
20
0.617882320908545
30
0.000000000000000
11
-67.1218097447794
21
0.576135812727459
31
0.000000000000000
  0
LINE
  5
F10408
330
F10409
100
AcDbEntity
8
Geo
100
AcDbLine
10
-67.1218097447794
20
0.576135812727459
30
0.000000000000000
11
-67.0218097447794
21
0.537759277282798
31
0.000000000000000
  0
LINE
  5
F1040A
330
F1040B
100
AcDbEntity
8
Geo
100
AcDbLine
10
-67.0218097447794
20
0.537759277282798
30
0.000000000000000
11
-66.9218097447794
21
0.502745542169715
31
0.000000000000000
  0
LINE
  5
F1040C
330
F1040D
100
AcDbEntity
8
Geo
100
AcDbLine
10
-66.9218097447794
20
0.502745542169715
30
0.000000000000000
11
-66.8218097447794
21
0.471086699882665
31
0.000000000000000
  0
LINE
  5
F1040E
330
F1040F
100
AcDbEntity
8
Geo
100
AcDbLine
10
-66.8218097447794
20
0.471086699882665
30
0.000000000000000
11
-66.7218097447794
21
0.442774477855734
31
0.000000000000000
  0
LINE
  5
F10410
330
F10411
100
AcDbEntity
8
Geo
100
AcDbLine
10
-66.7218097447794
20
0.442774477855734
30
0.000000000000000
11
-66.6218097447794
21
0.417800572811494
31
0.000000000000000
  0
LINE
  5
F10412
330
F10413
100
AcDbEntity
8
Geo
100
AcDbLine
10
-66.6218097447794
20
0.417800572811494
30
0.000000000000000
11
-66.5218097447794
21
0.396156949518640
31
0.000000000000000
  0
LINE
  5
F10414
330
F10415
100
AcDbEntity
8
Geo
100
AcDbLine
10
-66.5218097447794
20
0.396156949518640
30
0.000000000000000
11
-66.4218097447794
21
0.377836104087847
31
0.000000000000000
  0
LINE
  5
F10416
330
F10417
100
AcDbEntity
8
Geo
100
AcDbLine
10
-66.4218097447794
20
0.377836104087847
30
0.000000000000000
11
-66.3218097447794
21
0.362831291951237
31
0.000000000000000
  0
LINE
  5
F10418
330
F10419
100
AcDbEntity
8
Geo
100
AcDbLine
10
-66.3218097447794
20
0.362831291951237
30
0.000000000000000
11
-66.2218097447794
21
0.351136720675197
31
0.000000000000000
  0
LINE
  5
F1041A
330
F1041B
100
AcDbEntity
8
Geo
100
AcDbLine
10
-66.2218097447794
20
0.351136720675197
30
0.000000000000000
11
-66.1218097447794
21
0.342747707750511
31
0.000000000000000
  0
LINE
  5
F1041C
330
F1041D
100
AcDbEntity
8
Geo
100
AcDbLine
10
-76.0218097447794
20
5.00117770528532
30
0.000000000000000
11
-75.9218097447794
21
5.00189452594443
31
0.000000000000000
  0
LINE
  5
F1041E
330
F1041F
100
AcDbEntity
8
Geo
100
AcDbLine
10
-75.9218097447794
20
5.00189452594443
30
0.000000000000000
11
-75.8218097447794
21
4.99668678276634
31
0.000000000000000
  0
LINE
  5
F10420
330
F10421
100
AcDbEntity
8
Geo
100
AcDbLine
10
-75.8218097447794
20
4.99668678276634
30
0.000000000000000
11
-75.7218097447794
21
4.98556218997370
31
0.000000000000000
  0
LINE
  5
F10422
330
F10423
100
AcDbEntity
8
Geo
100
AcDbLine
10
-75.7218097447794
20
4.98556218997370
30
0.000000000000000
11
-75.6218097447794
21
4.96853722641014
31
0.000000000000000
  0
LINE
  5
F10424
330
F10425
100
AcDbEntity
8
Geo
100
AcDbLine
10
-75.6218097447794
20
4.96853722641014
30
0.000000000000000
11
-75.5218097447794
21
4.94563711113021
31
0.000000000000000
  0
LINE
  5
F10426
330
F10427
100
AcDbEntity
8
Geo
100
AcDbLine
10
-75.5218097447794
20
4.94563711113021
30
0.000000000000000
11
-75.4218097447794
21
4.91689576604242
31
0.000000000000000
  0
LINE
  5
F10428
330
F10429
100
AcDbEntity
8
Geo
100
AcDbLine
10
-75.4218097447794
20
4.91689576604242
30
0.000000000000000
11
-75.3218097447794
21
4.88235576566077
31
0.000000000000000
  0
LINE
  5
F1042A
330
F1042B
100
AcDbEntity
8
Geo
100
AcDbLine
10
-75.3218097447794
20
4.88235576566077
30
0.000000000000000
11
-75.2218097447794
21
4.84206827403917
31
0.000000000000000
  0
LINE
  5
F1042C
330
F1042D
100
AcDbEntity
8
Geo
100
AcDbLine
10
-75.2218097447794
20
4.84206827403917
30
0.000000000000000
11
-75.1218097447794
21
4.79609296898223
31
0.000000000000000
  0
LINE
  5
F1042E
330
F1042F
100
AcDbEntity
8
Geo
100
AcDbLine
10
-75.1218097447794
20
4.79609296898223
30
0.000000000000000
11
-75.0218097447794
21
4.74449795364457
31
0.000000000000000
  0
LINE
  5
F10430
330
F10431
100
AcDbEntity
8
Geo
100
AcDbLine
10
-75.0218097447794
20
4.74449795364457
30
0.000000000000000
11
-74.9218097447794
21
4.68735965564973
31
0.000000000000000
  0
LINE
  5
F10432
330
F10433
100
AcDbEntity
8
Geo
100
AcDbLine
10
-74.9218097447794
20
4.68735965564973
30
0.000000000000000
11
-74.8218097447794
21
4.62476271387808
31
0.000000000000000
  0
LINE
  5
F10434
330
F10435
100
AcDbEntity
8
Geo
100
AcDbLine
10
-74.8218097447794
20
4.62476271387808
30
0.000000000000000
11
-74.7218097447794
21
4.55679985309128
31
0.000000000000000
  0
LINE
  5
F10436
330
F10437
100
AcDbEntity
8
Geo
100
AcDbLine
10
-74.7218097447794
20
4.55679985309128
30
0.000000000000000
11
-74.6218097447794
21
4.48357174657931
31
0.000000000000000
  0
LINE
  5
F10438
330
F10439
100
AcDbEntity
8
Geo
100
AcDbLine
10
-74.6218097447794
20
4.48357174657931
30
0.000000000000000
11
-74.5218097447794
21
4.40518686703320
31
0.000000000000000
  0
LINE
  5
F1043A
330
F1043B
100
AcDbEntity
8
Geo
100
AcDbLine
10
-74.5218097447794
20
4.40518686703320
30
0.000000000000000
11
-74.4218097447794
21
4.32176132586461
31
0.000000000000000
  0
LINE
  5
F1043C
330
F1043D
100
AcDbEntity
8
Geo
100
AcDbLine
10
-74.4218097447794
20
4.32176132586461
30
0.000000000000000
11
-74.3218097447794
21
4.23341870121019
31
0.000000000000000
  0
LINE
  5
F1043E
330
F1043F
100
AcDbEntity
8
Geo
100
AcDbLine
10
-74.3218097447794
20
4.23341870121019
30
0.000000000000000
11
-74.2218097447794
21
4.14028985487542
31
0.000000000000000
  0
LINE
  5
F10440
330
F10441
100
AcDbEntity
8
Geo
100
AcDbLine
10
-74.2218097447794
20
4.14028985487542
30
0.000000000000000
11
-74.1218097447794
21
4.04251273848919
31
0.000000000000000
  0
LINE
  5
F10442
330
F10443
100
AcDbEntity
8
Geo
100
AcDbLine
10
-74.1218097447794
20
4.04251273848919
30
0.000000000000000
11
-74.0218097447794
21
3.94023218915630
31
0.000000000000000
  0
LINE
  5
F10444
330
F10445
100
AcDbEntity
8
Geo
100
AcDbLine
10
-74.0218097447794
20
3.94023218915630
30
0.000000000000000
11
-73.9218097447794
21
3.83359971491043
31
0.000000000000000
  0
LINE
  5
F10446
330
F10447
100
AcDbEntity
8
Geo
100
AcDbLine
10
-73.9218097447794
20
3.83359971491043
30
0.000000000000000
11
-73.8218097447794
21
3.72277327028549
31
0.000000000000000
  0
LINE
  5
F10448
330
F10449
100
AcDbEntity
8
Geo
100
AcDbLine
10
-73.8218097447794
20
3.72277327028549
30
0.000000000000000
11
-73.7218097447794
21
3.60791702233780
31
0.000000000000000
  0
LINE
  5
F1044A
330
F1044B
100
AcDbEntity
8
Geo
100
AcDbLine
10
-73.7218097447794
20
3.60791702233780
30
0.000000000000000
11
-73.6218097447794
21
3.48920110746570
31
0.000000000000000
  0
LINE
  5
F1044C
330
F1044D
100
AcDbEntity
8
Geo
100
AcDbLine
10
-73.6218097447794
20
3.48920110746570
30
0.000000000000000
11
-73.5218097447794
21
3.36680137938666
31
0.000000000000000
  0
LINE
  5
F1044E
330
F1044F
100
AcDbEntity
8
Geo
100
AcDbLine
10
-73.5218097447794
20
3.36680137938666
30
0.000000000000000
11
-73.4218097447794
21
3.24089914864551
31
0.000000000000000
  0
LINE
  5
F10450
330
F10451
100
AcDbEntity
8
Geo
100
AcDbLine
10
-73.4218097447794
20
3.24089914864551
30
0.000000000000000
11
-73.3218097447794
21
3.11168091403931
31
0.000000000000000
  0
LINE
  5
F10452
330
F10453
100
AcDbEntity
8
Geo
100
AcDbLine
10
-73.3218097447794
20
3.11168091403931
30
0.000000000000000
11
-73.2218097447794
21
2.97933808635700
31
0.000000000000000
  0
LINE
  5
F10454
330
F10455
100
AcDbEntity
8
Geo
100
AcDbLine
10
-73.2218097447794
20
2.97933808635700
30
0.000000000000000
11
-73.1218097447794
21
2.84406670484282
31
0.000000000000000
  0
LINE
  5
F10456
330
F10457
100
AcDbEntity
8
Geo
100
AcDbLine
10
-73.1218097447794
20
2.84406670484282
30
0.000000000000000
11
-73.0218097447794
21
2.70606714680368
31
0.000000000000000
  0
LINE
  5
F10458
330
F10459
100
AcDbEntity
8
Geo
100
AcDbLine
10
-73.0218097447794
20
2.70606714680368
30
0.000000000000000
11
-72.9218097447794
21
2.56554383079056
31
0.000000000000000
  0
LINE
  5
F1045A
330
F1045B
100
AcDbEntity
8
Geo
100
AcDbLine
10
-72.9218097447794
20
2.56554383079056
30
0.000000000000000
11
-72.8218097447794
21
2.42270491379353
31
0.000000000000000
  0
LINE
  5
F1045C
330
F1045D
100
AcDbEntity
8
Geo
100
AcDbLine
10
-72.8218097447794
20
2.42270491379353
30
0.000000000000000
11
-72.7218097447794
21
2.27776198289917
31
0.000000000000000
  0
LINE
  5
F1045E
330
F1045F
100
AcDbEntity
8
Geo
100
AcDbLine
10
-72.7218097447794
20
2.27776198289917
30
0.000000000000000
11
-72.6218097447794
21
2.13092974186687
31
0.000000000000000
  0
LINE
  5
F10460
330
F10461
100
AcDbEntity
8
Geo
100
AcDbLine
10
-72.6218097447794
20
2.13092974186687
30
0.000000000000000
11
-72.5218097447794
21
1.98242569308848
31
0.000000000000000
  0
LINE
  5
F10462
330
F10463
100
AcDbEntity
8
Geo
100
AcDbLine
10
-72.5218097447794
20
1.98242569308848
30
0.000000000000000
11
-72.4218097447794
21
1.83246981540227
31
0.000000000000000
  0
LINE
  5
F10464
330
F10465
100
AcDbEntity
8
Geo
100
AcDbLine
10
-72.4218097447794
20
1.83246981540227
30
0.000000000000000
11
-72.3218097447794
21
1.68128423823867
31
0.000000000000000
  0
LINE
  5
F10466
330
F10467
100
AcDbEntity
8
Geo
100
AcDbLine
10
-72.3218097447794
20
1.68128423823867
30
0.000000000000000
11
-72.2218097447794
21
1.52909291258020
31
0.000000000000000
  0
LINE
  5
F10468
330
F10469
100
AcDbEntity
8
Geo
100
AcDbLine
10
-72.2218097447794
20
1.52909291258020
30
0.000000000000000
11
-72.1218097447794
21
1.37612127922320
31
0.000000000000000
  0
LINE
  5
F1046A
330
F1046B
100
AcDbEntity
8
Geo
100
AcDbLine
10
-72.1218097447794
20
1.37612127922320
30
0.000000000000000
11
-72.0218097447794
21
1.22259593483271
31
0.000000000000000
  0
LINE
  5
F1046C
330
F1046D
100
AcDbEntity
8
Geo
100
AcDbLine
10
-72.0218097447794
20
1.22259593483271
30
0.000000000000000
11
-71.9218097447794
21
1.06874429628515
31
0.000000000000000
  0
LINE
  5
F1046E
330
F1046F
100
AcDbEntity
8
Geo
100
AcDbLine
10
-71.9218097447794
20
1.06874429628515
30
0.000000000000000
11
-71.8218097447794
21
0.914794263796006
31
0.000000000000000
  0
LINE
  5
F10470
330
F10471
100
AcDbEntity
8
Geo
100
AcDbLine
10
-71.8218097447794
20
0.914794263796006
30
0.000000000000000
11
-71.7218097447794
21
0.760973883331579
31
0.000000000000000
  0
LINE
  5
F10472
330
F10473
100
AcDbEntity
8
Geo
100
AcDbLine
10
-71.7218097447794
20
0.760973883331579
30
0.000000000000000
11
-71.6218097447794
21
0.607511008804805
31
0.000000000000000
  0
LINE
  5
F10474
330
F10475
100
AcDbEntity
8
Geo
100
AcDbLine
10
-71.6218097447794
20
0.607511008804805
30
0.000000000000000
11
-71.5218097447794
21
0.454632964555576
31
0.000000000000000
  0
LINE
  5
F10476
330
F10477
100
AcDbEntity
8
Geo
100
AcDbLine
10
-71.5218097447794
20
0.454632964555576
30
0.000000000000000
11
-71.4218097447794
21
0.302566208615520
31
0.000000000000000
  0
LINE
  5
F10478
330
F10479
100
AcDbEntity
8
Geo
100
AcDbLine
10
-71.4218097447794
20
0.302566208615520
30
0.000000000000000
11
-71.3218097447794
21
0.151535997256035
31
0.000000000000000
  0
LINE
  5
F1047A
330
F1047B
100
AcDbEntity
8
Geo
100
AcDbLine
10
-71.3218097447794
20
0.151535997256035
30
0.000000000000000
11
-71.2218097447794
21
0.00176605131649255
31
0.000000000000000
  0
LINE
  5
F1047C
330
F1047D
100
AcDbEntity
8
Geo
100
AcDbLine
10
-71.2218097447794
20
0.00176605131649255
30
0.000000000000000
11
-71.1218097447794
21
-0.146521775193170
31
0.000000000000000
  0
LINE
  5
F1047E
330
F1047F
100
AcDbEntity
8
Geo
100
AcDbLine
10
-71.1218097447794
20
-0.146521775193170
30
0.000000000000000
11
-71.0218097447794
21
-0.128154666833557
31
0.000000000000000
  0
LINE
  5
F10480
330
F10481
100
AcDbEntity
8
Geo
100
AcDbLine
10
-71.0218097447794
20
-0.128154666833557
30
0.000000000000000
11
-70.9218097447794
21
-0.110118719577752
31
0.000000000000000
  0
LINE
  5
F10482
330
F10483
100
AcDbEntity
8
Geo
100
AcDbLine
10
-70.9218097447794
20
-0.110118719577752
30
0.000000000000000
11
-70.8218097447794
21
-0.0924158004376272
31
0.000000000000000
  0
LINE
  5
F10484
330
F10485
100
AcDbEntity
8
Geo
100
AcDbLine
10
-70.8218097447794
20
-0.0924158004376272
30
0.000000000000000
11
-70.7218097447794
21
-0.0750477017657036
31
0.000000000000000
  0
LINE
  5
F10486
330
F10487
100
AcDbEntity
8
Geo
100
AcDbLine
10
-70.7218097447794
20
-0.0750477017657036
30
0.000000000000000
11
-70.6218097447794
21
-0.0580161434406914
31
0.000000000000000
  0
LINE
  5
F10488
330
F10489
100
AcDbEntity
8
Geo
100
AcDbLine
10
-70.6218097447794
20
-0.0580161434406914
30
0.000000000000000
11
-70.5218097447794
21
-0.0413227750178597
31
0.000000000000000
  0
LINE
  5
F1048A
330
F1048B
100
AcDbEntity
8
Geo
100
AcDbLine
10
-70.5218097447794
20
-0.0413227750178597
30
0.000000000000000
11
-70.4218097447794
21
-0.0249691778435004
31
0.000000000000000
  0
LINE
  5
F1048C
330
F1048D
100
AcDbEntity
8
Geo
100
AcDbLine
10
-70.4218097447794
20
-0.0249691778435004
30
0.000000000000000
11
-70.3218097447794
21
-0.00895686713278754
31
0.000000000000000
  0
LINE
  5
F1048E
330
F1048F
100
AcDbEntity
8
Geo
100
AcDbLine
10
-70.3218097447794
20
-0.00895686713278754
30
0.000000000000000
11
-70.2218097447794
21
0.00671270598962848
31
0.000000000000000
  0
LINE
  5
F10490
330
F10491
100
AcDbEntity
8
Geo
100
AcDbLine
10
-70.2218097447794
20
0.00671270598962848
30
0.000000000000000
11
-70.1218097447794
21
0.0220381524869251
31
0.000000000000000
  0
LINE
  5
F10492
330
F10493
100
AcDbEntity
8
Geo
100
AcDbLine
10
-70.1218097447794
20
0.0220381524869251
30
0.000000000000000
11
-70.0218097447794
21
0.0370181434459154
31
0.000000000000000
  0
LINE
  5
F10494
330
F10495
100
AcDbEntity
8
Geo
100
AcDbLine
10
-70.0218097447794
20
0.0370181434459154
30
0.000000000000000
11
-69.9218097447794
21
0.0516514081519263
31
0.000000000000000
  0
LINE
  5
F10496
330
F10497
100
AcDbEntity
8
Geo
100
AcDbLine
10
-69.9218097447794
20
0.0516514081519263
30
0.000000000000000
11
-69.8218097447794
21
0.0659367322033012
31
0.000000000000000
  0
LINE
  5
F10498
330
F10499
100
AcDbEntity
8
Geo
100
AcDbLine
10
-69.8218097447794
20
0.0659367322033012
30
0.000000000000000
11
-69.7218097447794
21
0.0798729556660360
31
0.000000000000000
  0
LINE
  5
F1049A
330
F1049B
100
AcDbEntity
8
Geo
100
AcDbLine
10
-69.7218097447794
20
0.0798729556660360
30
0.000000000000000
11
-69.6218097447794
21
0.0934589712690448
31
0.000000000000000
  0
LINE
  5
F1049C
330
F1049D
100
AcDbEntity
8
Geo
100
AcDbLine
10
-69.6218097447794
20
0.0934589712690448
30
0.000000000000000
11
-69.5218097447794
21
0.106693722640521
31
0.000000000000000
  0
LINE
  5
F1049E
330
F1049F
100
AcDbEntity
8
Geo
100
AcDbLine
10
-69.5218097447794
20
0.106693722640521
30
0.000000000000000
11
-69.4218097447794
21
0.119576202585835
31
0.000000000000000
  0
LINE
  5
F104A0
330
F104A1
100
AcDbEntity
8
Geo
100
AcDbLine
10
-69.4218097447794
20
0.119576202585835
30
0.000000000000000
11
-69.3218097447794
21
0.132105451407387
31
0.000000000000000
  0
LINE
  5
F104A2
330
F104A3
100
AcDbEntity
8
Geo
100
AcDbLine
10
-69.3218097447794
20
0.132105451407387
30
0.000000000000000
11
-69.2218097447794
21
0.144280555266816
31
0.000000000000000
  0
LINE
  5
F104A4
330
F104A5
100
AcDbEntity
8
Geo
100
AcDbLine
10
-69.2218097447794
20
0.144280555266816
30
0.000000000000000
11
-69.1218097447794
21
0.156100644589923
31
0.000000000000000
  0
LINE
  5
F104A6
330
F104A7
100
AcDbEntity
8
Geo
100
AcDbLine
10
-69.1218097447794
20
0.156100644589923
30
0.000000000000000
11
-69.0218097447794
21
0.167564892514692
31
0.000000000000000
  0
LINE
  5
F104A8
330
F104A9
100
AcDbEntity
8
Geo
100
AcDbLine
10
-69.0218097447794
20
0.167564892514692
30
0.000000000000000
11
-68.9218097447794
21
0.178672513382712
31
0.000000000000000
  0
LINE
  5
F104AA
330
F104AB
100
AcDbEntity
8
Geo
100
AcDbLine
10
-68.9218097447794
20
0.178672513382712
30
0.000000000000000
11
-68.8218097447794
21
0.189422761274332
31
0.000000000000000
  0
LINE
  5
F104AC
330
F104AD
100
AcDbEntity
8
Geo
100
AcDbLine
10
-68.8218097447794
20
0.189422761274332
30
0.000000000000000
11
-68.7218097447794
21
0.199814928587845
31
0.000000000000000
  0
LINE
  5
F104AE
330
F104AF
100
AcDbEntity
8
Geo
100
AcDbLine
10
-68.7218097447794
20
0.199814928587845
30
0.000000000000000
11
-68.6218097447794
21
0.209848344662978
31
0.000000000000000
  0
LINE
  5
F104B0
330
F104B1
100
AcDbEntity
8
Geo
100
AcDbLine
10
-68.6218097447794
20
0.209848344662978
30
0.000000000000000
11
-68.5218097447794
21
0.219522374448945
31
0.000000000000000
  0
LINE
  5
F104B2
330
F104B3
100
AcDbEntity
8
Geo
100
AcDbLine
10
-68.5218097447794
20
0.219522374448945
30
0.000000000000000
11
-68.4218097447794
21
0.228836417217327
31
0.000000000000000
  0
LINE
  5
F104B4
330
F104B5
100
AcDbEntity
8
Geo
100
AcDbLine
10
-68.4218097447794
20
0.228836417217327
30
0.000000000000000
11
-68.3218097447794
21
0.237789905319984
31
0.000000000000000
  0
LINE
  5
F104B6
330
F104B7
100
AcDbEntity
8
Geo
100
AcDbLine
10
-68.3218097447794
20
0.237789905319984
30
0.000000000000000
11
-68.2218097447794
21
0.246382302992247
31
0.000000000000000
  0
LINE
  5
F104B8
330
F104B9
100
AcDbEntity
8
Geo
100
AcDbLine
10
-68.2218097447794
20
0.246382302992247
30
0.000000000000000
11
-68.1218097447794
21
0.254613105201568
31
0.000000000000000
  0
LINE
  5
F104BA
330
F104BB
100
AcDbEntity
8
Geo
100
AcDbLine
10
-68.1218097447794
20
0.254613105201568
30
0.000000000000000
11
-68.0218097447794
21
0.262481836541834
31
0.000000000000000
  0
LINE
  5
F104BC
330
F104BD
100
AcDbEntity
8
Geo
100
AcDbLine
10
-68.0218097447794
20
0.262481836541834
30
0.000000000000000
11
-67.9218097447794
21
0.269988050173512
31
0.000000000000000
  0
LINE
  5
F104BE
330
F104BF
100
AcDbEntity
8
Geo
100
AcDbLine
10
-67.9218097447794
20
0.269988050173512
30
0.000000000000000
11
-67.8218097447794
21
0.277131326809800
31
0.000000000000000
  0
LINE
  5
F104C0
330
F104C1
100
AcDbEntity
8
Geo
100
AcDbLine
10
-67.8218097447794
20
0.277131326809800
30
0.000000000000000
11
-67.7218097447794
21
0.283911273748931
31
0.000000000000000
  0
LINE
  5
F104C2
330
F104C3
100
AcDbEntity
8
Geo
100
AcDbLine
10
-67.7218097447794
20
0.283911273748931
30
0.000000000000000
11
-67.6218097447794
21
0.290327523952777
31
0.000000000000000
  0
LINE
  5
F104C4
330
F104C5
100
AcDbEntity
8
Geo
100
AcDbLine
10
-67.6218097447794
20
0.290327523952777
30
0.000000000000000
11
-67.5218097447794
21
0.296379735171885
31
0.000000000000000
  0
LINE
  5
F104C6
330
F104C7
100
AcDbEntity
8
Geo
100
AcDbLine
10
-67.5218097447794
20
0.296379735171885
30
0.000000000000000
11
-67.4218097447794
21
0.302067589117072
31
0.000000000000000
  0
LINE
  5
F104C8
330
F104C9
100
AcDbEntity
8
Geo
100
AcDbLine
10
-67.4218097447794
20
0.302067589117072
30
0.000000000000000
11
-67.3218097447794
21
0.307390790677679
31
0.000000000000000
  0
LINE
  5
F104CA
330
F104CB
100
AcDbEntity
8
Geo
100
AcDbLine
10
-67.3218097447794
20
0.307390790677679
30
0.000000000000000
11
-67.2218097447794
21
0.312349067186614
31
0.000000000000000
  0
LINE
  5
F104CC
330
F104CD
100
AcDbEntity
8
Geo
100
AcDbLine
10
-67.2218097447794
20
0.312349067186614
30
0.000000000000000
11
-67.1218097447794
21
0.316942167732252
31
0.000000000000000
  0
LINE
  5
F104CE
330
F104CF
100
AcDbEntity
8
Geo
100
AcDbLine
10
-67.1218097447794
20
0.316942167732252
30
0.000000000000000
11
-67.0218097447794
21
0.321169862517305
31
0.000000000000000
  0
LINE
  5
F104D0
330
F104D1
100
AcDbEntity
8
Geo
100
AcDbLine
10
-67.0218097447794
20
0.321169862517305
30
0.000000000000000
11
-66.9218097447794
21
0.325031942264723
31
0.000000000000000
  0
LINE
  5
F104D2
330
F104D3
100
AcDbEntity
8
Geo
100
AcDbLine
10
-66.9218097447794
20
0.325031942264723
30
0.000000000000000
11
-66.8218097447794
21
0.328528217670714
31
0.000000000000000
  0
LINE
  5
F104D4
330
F104D5
100
AcDbEntity
8
Geo
100
AcDbLine
10
-66.8218097447794
20
0.328528217670714
30
0.000000000000000
11
-66.7218097447794
21
0.331658518904943
31
0.000000000000000
  0
LINE
  5
F104D6
330
F104D7
100
AcDbEntity
8
Geo
100
AcDbLine
10
-66.7218097447794
20
0.331658518904943
30
0.000000000000000
11
-66.6218097447794
21
0.334422695157964
31
0.000000000000000
  0
LINE
  5
F104D8
330
F104D9
100
AcDbEntity
8
Geo
100
AcDbLine
10
-66.6218097447794
20
0.334422695157964
30
0.000000000000000
11
-66.5218097447794
21
0.336820614235954
31
0.000000000000000
  0
LINE
  5
F104DA
330
F104DB
100
AcDbEntity
8
Geo
100
AcDbLine
10
-66.5218097447794
20
0.336820614235954
30
0.000000000000000
11
-66.4218097447794
21
0.338852162202778
31
0.000000000000000
  0
LINE
  5
F104DC
330
F104DD
100
AcDbEntity
8
Geo
100
AcDbLine
10
-66.4218097447794
20
0.338852162202778
30
0.000000000000000
11
-66.3218097447794
21
0.340517243069432
31
0.000000000000000
  0
LINE
  5
F104DE
330
F104DF
100
AcDbEntity
8
Geo
100
AcDbLine
10
-66.3218097447794
20
0.340517243069432
30
0.000000000000000
11
-66.2218097447794
21
0.341815778530913
31
0.000000000000000
  0
LINE
  5
F104E0
330
F104E1
100
AcDbEntity
8
Geo
100
AcDbLine
10
-66.2218097447794
20
0.341815778530913
30
0.000000000000000
11
-66.1218097447794
21
0.342747707750518
31
0.000000000000000
  0
LINE
  5
F104E2
330
F104E3
100
AcDbEntity
8
Geo
100
AcDbLine
10
-76.8218097447794
20
5.00169630382254
30
0.000000000000000
11
-76.7218097447794
21
5.00145261082840
31
0.000000000000000
  0
LINE
  5
F104E4
330
F104E5
100
AcDbEntity
8
Geo
100
AcDbLine
10
-76.7218097447794
20
5.00145261082840
30
0.000000000000000
11
-76.6218097447794
21
4.99528500860531
31
0.000000000000000
  0
LINE
  5
F104E6
330
F104E7
100
AcDbEntity
8
Geo
100
AcDbLine
10
-76.6218097447794
20
4.99528500860531
30
0.000000000000000
11
-76.5218097447794
21
4.98320263321376
31
0.000000000000000
  0
LINE
  5
F104E8
330
F104E9
100
AcDbEntity
8
Geo
100
AcDbLine
10
-76.5218097447794
20
4.98320263321376
30
0.000000000000000
11
-76.4218097447794
21
4.96522338225939
31
0.000000000000000
  0
LINE
  5
F104EA
330
F104EB
100
AcDbEntity
8
Geo
100
AcDbLine
10
-76.4218097447794
20
4.96522338225939
30
0.000000000000000
11
-76.3218097447794
21
4.94137388838132
31
0.000000000000000
  0
LINE
  5
F104EC
330
F104ED
100
AcDbEntity
8
Geo
100
AcDbLine
10
-76.3218097447794
20
4.94137388838132
30
0.000000000000000
11
-76.2218097447794
21
4.91168947980125
31
0.000000000000000
  0
LINE
  5
F104EE
330
F104EF
100
AcDbEntity
8
Geo
100
AcDbLine
10
-76.2218097447794
20
4.91168947980125
30
0.000000000000000
11
-76.1218097447794
21
4.87621412799179
31
0.000000000000000
  0
LINE
  5
F104F0
330
F104F1
100
AcDbEntity
8
Geo
100
AcDbLine
10
-76.1218097447794
20
4.87621412799179
30
0.000000000000000
11
-76.0218097447794
21
4.83500038254162
31
0.000000000000000
  0
LINE
  5
F104F2
330
F104F3
100
AcDbEntity
8
Geo
100
AcDbLine
10
-76.0218097447794
20
4.83500038254162
30
0.000000000000000
11
-75.9218097447794
21
4.78810929331382
31
0.000000000000000
  0
LINE
  5
F104F4
330
F104F5
100
AcDbEntity
8
Geo
100
AcDbLine
10
-75.9218097447794
20
4.78810929331382
30
0.000000000000000
11
-75.8218097447794
21
4.73561032001282
31
0.000000000000000
  0
LINE
  5
F104F6
330
F104F7
100
AcDbEntity
8
Geo
100
AcDbLine
10
-75.8218097447794
20
4.73561032001282
30
0.000000000000000
11
-75.7218097447794
21
4.67758122929384
31
0.000000000000000
  0
LINE
  5
F104F8
330
F104F9
100
AcDbEntity
8
Geo
100
AcDbLine
10
-75.7218097447794
20
4.67758122929384
30
0.000000000000000
11
-75.6218097447794
21
4.61410797956722
31
0.000000000000000
  0
LINE
  5
F104FA
330
F104FB
100
AcDbEntity
8
Geo
100
AcDbLine
10
-75.6218097447794
20
4.61410797956722
30
0.000000000000000
11
-75.5218097447794
21
4.54528459366839
31
0.000000000000000
  0
LINE
  5
F104FC
330
F104FD
100
AcDbEntity
8
Geo
100
AcDbLine
10
-75.5218097447794
20
4.54528459366839
30
0.000000000000000
11
-75.4218097447794
21
4.47121301958194
31
0.000000000000000
  0
LINE
  5
F104FE
330
F104FF
100
AcDbEntity
8
Geo
100
AcDbLine
10
-75.4218097447794
20
4.47121301958194
30
0.000000000000000
11
-75.3218097447794
21
4.39200297942625
31
0.000000000000000
  0
LINE
  5
F10500
330
F10501
100
AcDbEntity
8
Geo
100
AcDbLine
10
-75.3218097447794
20
4.39200297942625
30
0.000000000000000
11
-75.2218097447794
21
4.30777180692224
31
0.000000000000000
  0
LINE
  5
F10502
330
F10503
100
AcDbEntity
8
Geo
100
AcDbLine
10
-75.2218097447794
20
4.30777180692224
30
0.000000000000000
11
-75.1218097447794
21
4.21864427358710
31
0.000000000000000
  0
LINE
  5
F10504
330
F10505
100
AcDbEntity
8
Geo
100
AcDbLine
10
-75.1218097447794
20
4.21864427358710
30
0.000000000000000
11
-75.0218097447794
21
4.12475240391042
31
0.000000000000000
  0
LINE
  5
F10506
330
F10507
100
AcDbEntity
8
Geo
100
AcDbLine
10
-75.0218097447794
20
4.12475240391042
30
0.000000000000000
11
-74.9218097447794
21
4.02623527978653
31
0.000000000000000
  0
LINE
  5
F10508
330
F10509
100
AcDbEntity
8
Geo
100
AcDbLine
10
-74.9218097447794
20
4.02623527978653
30
0.000000000000000
11
-74.8218097447794
21
3.92323883449263
31
0.000000000000000
  0
LINE
  5
F1050A
330
F1050B
100
AcDbEntity
8
Geo
100
AcDbLine
10
-74.8218097447794
20
3.92323883449263
30
0.000000000000000
11
-74.7218097447794
21
3.81591563651807
31
0.000000000000000
  0
LINE
  5
F1050C
330
F1050D
100
AcDbEntity
8
Geo
100
AcDbLine
10
-74.7218097447794
20
3.81591563651807
30
0.000000000000000
11
-74.6218097447794
21
3.70442466356486
31
0.000000000000000
  0
LINE
  5
F1050E
330
F1050F
100
AcDbEntity
8
Geo
100
AcDbLine
10
-74.6218097447794
20
3.70442466356486
30
0.000000000000000
11
-74.5218097447794
21
3.58893106705420
31
0.000000000000000
  0
LINE
  5
F10510
330
F10511
100
AcDbEntity
8
Geo
100
AcDbLine
10
-74.5218097447794
20
3.58893106705420
30
0.000000000000000
11
-74.4218097447794
21
3.46960592748793
31
0.000000000000000
  0
LINE
  5
F10512
330
F10513
100
AcDbEntity
8
Geo
100
AcDbLine
10
-74.4218097447794
20
3.46960592748793
30
0.000000000000000
11
-74.3218097447794
21
3.34662600102724
31
0.000000000000000
  0
LINE
  5
F10514
330
F10515
100
AcDbEntity
8
Geo
100
AcDbLine
10
-74.3218097447794
20
3.34662600102724
30
0.000000000000000
11
-74.2218097447794
21
3.22017345766398
31
0.000000000000000
  0
LINE
  5
F10516
330
F10517
100
AcDbEntity
8
Geo
100
AcDbLine
10
-74.2218097447794
20
3.22017345766398
30
0.000000000000000
11
-74.1218097447794
21
3.09043561137254
31
0.000000000000000
  0
LINE
  5
F10518
330
F10519
100
AcDbEntity
8
Geo
100
AcDbLine
10
-74.1218097447794
20
3.09043561137254
30
0.000000000000000
11
-74.0218097447794
21
2.95760464264189
31
0.000000000000000
  0
LINE
  5
F1051A
330
F1051B
100
AcDbEntity
8
Geo
100
AcDbLine
10
-74.0218097447794
20
2.95760464264189
30
0.000000000000000
11
-73.9218097447794
21
2.82187731379895
31
0.000000000000000
  0
LINE
  5
F1051C
330
F1051D
100
AcDbEntity
8
Geo
100
AcDbLine
10
-73.9218097447794
20
2.82187731379895
30
0.000000000000000
11
-73.8218097447794
21
2.68345467754475
31
0.000000000000000
  0
LINE
  5
F1051E
330
F1051F
100
AcDbEntity
8
Geo
100
AcDbLine
10
-73.8218097447794
20
2.68345467754475
30
0.000000000000000
11
-73.7218097447794
21
2.54254177913543
31
0.000000000000000
  0
LINE
  5
F10520
330
F10521
100
AcDbEntity
8
Geo
100
AcDbLine
10
-73.7218097447794
20
2.54254177913543
30
0.000000000000000
11
-73.6218097447794
21
2.39934735264893
31
0.000000000000000
  0
LINE
  5
F10522
330
F10523
100
AcDbEntity
8
Geo
100
AcDbLine
10
-73.6218097447794
20
2.39934735264893
30
0.000000000000000
11
-73.5218097447794
21
2.25408351178752
31
0.000000000000000
  0
LINE
  5
F10524
330
F10525
100
AcDbEntity
8
Geo
100
AcDbLine
10
-73.5218097447794
20
2.25408351178752
30
0.000000000000000
11
-73.4218097447794
21
2.10696543567408
31
0.000000000000000
  0
LINE
  5
F10526
330
F10527
100
AcDbEntity
8
Geo
100
AcDbLine
10
-73.4218097447794
20
2.10696543567408
30
0.000000000000000
11
-73.3218097447794
21
1.95821105010754
31
0.000000000000000
  0
LINE
  5
F10528
330
F10529
100
AcDbEntity
8
Geo
100
AcDbLine
10
-73.3218097447794
20
1.95821105010754
30
0.000000000000000
11
-73.2218097447794
21
1.80804070474975
31
0.000000000000000
  0
LINE
  5
F1052A
330
F1052B
100
AcDbEntity
8
Geo
100
AcDbLine
10
-73.2218097447794
20
1.80804070474975
30
0.000000000000000
11
-73.1218097447794
21
1.65667684672177
31
0.000000000000000
  0
LINE
  5
F1052C
330
F1052D
100
AcDbEntity
8
Geo
100
AcDbLine
10
-73.1218097447794
20
1.65667684672177
30
0.000000000000000
11
-73.0218097447794
21
1.50434369109330
31
0.000000000000000
  0
LINE
  5
F1052E
330
F1052F
100
AcDbEntity
8
Geo
100
AcDbLine
10
-73.0218097447794
20
1.50434369109330
30
0.000000000000000
11
-72.9218097447794
21
1.35126688875324
31
0.000000000000000
  0
LINE
  5
F10530
330
F10531
100
AcDbEntity
8
Geo
100
AcDbLine
10
-72.9218097447794
20
1.35126688875324
30
0.000000000000000
11
-72.8218097447794
21
1.19767319215329
31
0.000000000000000
  0
LINE
  5
F10532
330
F10533
100
AcDbEntity
8
Geo
100
AcDbLine
10
-72.8218097447794
20
1.19767319215329
30
0.000000000000000
11
-72.7218097447794
21
1.04379011941990
31
0.000000000000000
  0
LINE
  5
F10534
330
F10535
100
AcDbEntity
8
Geo
100
AcDbLine
10
-72.7218097447794
20
1.04379011941990
30
0.000000000000000
11
-72.6218097447794
21
0.889845617331964
31
0.000000000000000
  0
LINE
  5
F10536
330
F10537
100
AcDbEntity
8
Geo
100
AcDbLine
10
-72.6218097447794
20
0.889845617331964
30
0.000000000000000
11
-72.5218097447794
21
0.736067723663617
31
0.000000000000000
  0
LINE
  5
F10538
330
F10539
100
AcDbEntity
8
Geo
100
AcDbLine
10
-72.5218097447794
20
0.736067723663617
30
0.000000000000000
11
-72.4218097447794
21
0.582684229392159
31
0.000000000000000
  0
LINE
  5
F1053A
330
F1053B
100
AcDbEntity
8
Geo
100
AcDbLine
10
-72.4218097447794
20
0.582684229392159
30
0.000000000000000
11
-72.3218097447794
21
0.429922341271624
31
0.000000000000000
  0
LINE
  5
F1053C
330
F1053D
100
AcDbEntity
8
Geo
100
AcDbLine
10
-72.3218097447794
20
0.429922341271624
30
0.000000000000000
11
-72.2218097447794
21
0.278008345271733
31
0.000000000000000
  0
LINE
  5
F1053E
330
F1053F
100
AcDbEntity
8
Geo
100
AcDbLine
10
-72.2218097447794
20
0.278008345271733
30
0.000000000000000
11
-72.1218097447794
21
0.127167271380793
31
0.000000000000000
  0
LINE
  5
F10540
330
F10541
100
AcDbEntity
8
Geo
100
AcDbLine
10
-72.1218097447794
20
0.127167271380793
30
0.000000000000000
11
-72.0218097447794
21
-0.0223774397308887
31
0.000000000000000
  0
LINE
  5
F10542
330
F10543
100
AcDbEntity
8
Geo
100
AcDbLine
10
-72.0218097447794
20
-0.0223774397308887
30
0.000000000000000
11
-71.9218097447794
21
-0.170404267693366
31
0.000000000000000
  0
LINE
  5
F10544
330
F10545
100
AcDbEntity
8
Geo
100
AcDbLine
10
-71.9218097447794
20
-0.170404267693366
30
0.000000000000000
11
-71.8218097447794
21
-0.316693940574870
31
0.000000000000000
  0
LINE
  5
F10546
330
F10547
100
AcDbEntity
8
Geo
100
AcDbLine
10
-71.8218097447794
20
-0.316693940574870
30
0.000000000000000
11
-71.7218097447794
21
-0.461029759688988
31
0.000000000000000
  0
LINE
  5
F10548
330
F10549
100
AcDbEntity
8
Geo
100
AcDbLine
10
-71.7218097447794
20
-0.461029759688988
30
0.000000000000000
11
-71.6218097447794
21
-0.603197920590161
31
0.000000000000000
  0
LINE
  5
F1054A
330
F1054B
100
AcDbEntity
8
Geo
100
AcDbLine
10
-71.6218097447794
20
-0.603197920590161
30
0.000000000000000
11
-71.5218097447794
21
-0.742987829781880
31
0.000000000000000
  0
LINE
  5
F1054C
330
F1054D
100
AcDbEntity
8
Geo
100
AcDbLine
10
-71.5218097447794
20
-0.742987829781880
30
0.000000000000000
11
-71.4218097447794
21
-0.880192416668546
31
0.000000000000000
  0
LINE
  5
F1054E
330
F1054F
100
AcDbEntity
8
Geo
100
AcDbLine
10
-71.4218097447794
20
-0.880192416668546
30
0.000000000000000
11
-71.3218097447794
21
-1.01460844028884
31
0.000000000000000
  0
LINE
  5
F10550
330
F10551
100
AcDbEntity
8
Geo
100
AcDbLine
10
-71.3218097447794
20
-1.01460844028884
30
0.000000000000000
11
-71.2218097447794
21
-1.14603679037631
31
0.000000000000000
  0
LINE
  5
F10552
330
F10553
100
AcDbEntity
8
Geo
100
AcDbLine
10
-71.2218097447794
20
-1.14603679037631
30
0.000000000000000
11
-71.1218097447794
21
-1.27428278230109
31
0.000000000000000
  0
LINE
  5
F10554
330
F10555
100
AcDbEntity
8
Geo
100
AcDbLine
10
-71.1218097447794
20
-1.27428278230109
30
0.000000000000000
11
-71.0218097447794
21
-1.41391899282427
31
0.000000000000000
  0
LINE
  5
F10556
330
F10557
100
AcDbEntity
8
Geo
100
AcDbLine
10
-71.0218097447794
20
-1.41391899282427
30
0.000000000000000
11
-70.9218097447794
21
-1.54648700746477
31
0.000000000000000
  0
LINE
  5
F10558
330
F10559
100
AcDbEntity
8
Geo
100
AcDbLine
10
-70.9218097447794
20
-1.54648700746477
30
0.000000000000000
11
-70.8218097447794
21
-1.67201303388416
31
0.000000000000000
  0
LINE
  5
F1055A
330
F1055B
100
AcDbEntity
8
Geo
100
AcDbLine
10
-70.8218097447794
20
-1.67201303388416
30
0.000000000000000
11
-70.7218097447794
21
-1.79055286869909
31
0.000000000000000
  0
LINE
  5
F1055C
330
F1055D
100
AcDbEntity
8
Geo
100
AcDbLine
10
-70.7218097447794
20
-1.79055286869909
30
0.000000000000000
11
-70.6218097447794
21
-1.90218939811448
31
0.000000000000000
  0
LINE
  5
F1055E
330
F1055F
100
AcDbEntity
8
Geo
100
AcDbLine
10
-70.6218097447794
20
-1.90218939811448
30
0.000000000000000
11
-70.5218097447794
21
-2.00703014747214
31
0.000000000000000
  0
LINE
  5
F10560
330
F10561
100
AcDbEntity
8
Geo
100
AcDbLine
10
-70.5218097447794
20
-2.00703014747214
30
0.000000000000000
11
-70.4218097447794
21
-2.10520489204538
31
0.000000000000000
  0
LINE
  5
F10562
330
F10563
100
AcDbEntity
8
Geo
100
AcDbLine
10
-70.4218097447794
20
-2.10520489204538
30
0.000000000000000
11
-70.3218097447794
21
-2.19686333965017
31
0.000000000000000
  0
LINE
  5
F10564
330
F10565
100
AcDbEntity
8
Geo
100
AcDbLine
10
-70.3218097447794
20
-2.19686333965017
30
0.000000000000000
11
-70.2218097447794
21
-2.28217289398069
31
0.000000000000000
  0
LINE
  5
F10566
330
F10567
100
AcDbEntity
8
Geo
100
AcDbLine
10
-70.2218097447794
20
-2.28217289398069
30
0.000000000000000
11
-70.1218097447794
21
-2.36131650601481
31
0.000000000000000
  0
LINE
  5
F10568
330
F10569
100
AcDbEntity
8
Geo
100
AcDbLine
10
-70.1218097447794
20
-2.36131650601481
30
0.000000000000000
11
-70.0218097447794
21
-2.43449061937859
31
0.000000000000000
  0
LINE
  5
F1056A
330
F1056B
100
AcDbEntity
8
Geo
100
AcDbLine
10
-70.0218097447794
20
-2.43449061937859
30
0.000000000000000
11
-69.9218097447794
21
-2.50190321420740
31
0.000000000000000
  0
LINE
  5
F1056C
330
F1056D
100
AcDbEntity
8
Geo
100
AcDbLine
10
-69.9218097447794
20
-2.50190321420740
30
0.000000000000000
11
-69.8218097447794
21
-2.56377195279783
31
0.000000000000000
  0
LINE
  5
F1056E
330
F1056F
100
AcDbEntity
8
Geo
100
AcDbLine
10
-69.8218097447794
20
-2.56377195279783
30
0.000000000000000
11
-69.7218097447794
21
-2.62032242920653
31
0.000000000000000
  0
LINE
  5
F10570
330
F10571
100
AcDbEntity
8
Geo
100
AcDbLine
10
-69.7218097447794
20
-2.62032242920653
30
0.000000000000000
11
-69.6218097447794
21
-2.67178652391862
31
0.000000000000000
  0
LINE
  5
F10572
330
F10573
100
AcDbEntity
8
Geo
100
AcDbLine
10
-69.6218097447794
20
-2.67178652391862
30
0.000000000000000
11
-69.5218097447794
21
-2.71840086377716
31
0.000000000000000
  0
LINE
  5
F10574
330
F10575
100
AcDbEntity
8
Geo
100
AcDbLine
10
-69.5218097447794
20
-2.71840086377716
30
0.000000000000000
11
-69.4218097447794
21
-2.76040538653179
31
0.000000000000000
  0
LINE
  5
F10576
330
F10577
100
AcDbEntity
8
Geo
100
AcDbLine
10
-69.4218097447794
20
-2.76040538653179
30
0.000000000000000
11
-69.3218097447794
21
-2.79804200862732
31
0.000000000000000
  0
LINE
  5
F10578
330
F10579
100
AcDbEntity
8
Geo
100
AcDbLine
10
-69.3218097447794
20
-2.79804200862732
30
0.000000000000000
11
-69.2218097447794
21
-2.83155339420465
31
0.000000000000000
  0
LINE
  5
F1057A
330
F1057B
100
AcDbEntity
8
Geo
100
AcDbLine
10
-69.2218097447794
20
-2.83155339420465
30
0.000000000000000
11
-69.1218097447794
21
-2.86118182272553
31
0.000000000000000
  0
LINE
  5
F1057C
330
F1057D
100
AcDbEntity
8
Geo
100
AcDbLine
10
-69.1218097447794
20
-2.86118182272553
30
0.000000000000000
11
-69.0218097447794
21
-2.88716815215130
31
0.000000000000000
  0
LINE
  5
F1057E
330
F1057F
100
AcDbEntity
8
Geo
100
AcDbLine
10
-69.0218097447794
20
-2.88716815215130
30
0.000000000000000
11
-68.9218097447794
21
-2.90975087420098
31
0.000000000000000
  0
LINE
  5
F10580
330
F10581
100
AcDbEntity
8
Geo
100
AcDbLine
10
-68.9218097447794
20
-2.90975087420098
30
0.000000000000000
11
-68.8218097447794
21
-2.92916525787986
31
0.000000000000000
  0
LINE
  5
F10582
330
F10583
100
AcDbEntity
8
Geo
100
AcDbLine
10
-68.8218097447794
20
-2.92916525787986
30
0.000000000000000
11
-68.7218097447794
21
-2.94564257720035
31
0.000000000000000
  0
LINE
  5
F10584
330
F10585
100
AcDbEntity
8
Geo
100
AcDbLine
10
-68.7218097447794
20
-2.94564257720035
30
0.000000000000000
11
-68.6218097447794
21
-2.95940941880865
31
0.000000000000000
  0
LINE
  5
F10586
330
F10587
100
AcDbEntity
8
Geo
100
AcDbLine
10
-68.6218097447794
20
-2.95940941880865
30
0.000000000000000
11
-68.5218097447794
21
-2.97068706507641
31
0.000000000000000
  0
LINE
  5
F10588
330
F10589
100
AcDbEntity
8
Geo
100
AcDbLine
10
-68.5218097447794
20
-2.97068706507641
30
0.000000000000000
11
-68.4218097447794
21
-2.97969094811376
31
0.000000000000000
  0
LINE
  5
F1058A
330
F1058B
100
AcDbEntity
8
Geo
100
AcDbLine
10
-68.4218097447794
20
-2.97969094811376
30
0.000000000000000
11
-68.3218097447794
21
-2.98663017010086
31
0.000000000000000
  0
LINE
  5
F1058C
330
F1058D
100
AcDbEntity
8
Geo
100
AcDbLine
10
-68.3218097447794
20
-2.98663017010086
30
0.000000000000000
11
-68.2218097447794
21
-2.99170708531853
31
0.000000000000000
  0
LINE
  5
F1058E
330
F1058F
100
AcDbEntity
8
Geo
100
AcDbLine
10
-68.2218097447794
20
-2.99170708531853
30
0.000000000000000
11
-68.1218097447794
21
-2.99511693927615
31
0.000000000000000
  0
LINE
  5
F10590
330
F10591
100
AcDbEntity
8
Geo
100
AcDbLine
10
-68.1218097447794
20
-2.99511693927615
30
0.000000000000000
11
-68.0218097447794
21
-2.99704756038665
31
0.000000000000000
  0
LINE
  5
F10592
330
F10593
100
AcDbEntity
8
Geo
100
AcDbLine
10
-68.0218097447794
20
-2.99704756038665
30
0.000000000000000
11
-67.9218097447794
21
-2.99767909971691
31
0.000000000000000
  0
LINE
  5
F10594
330
F10595
100
AcDbEntity
8
Geo
100
AcDbLine
10
-67.9218097447794
20
-2.99767909971691
30
0.000000000000000
11
-67.8218097447794
21
-2.99767981438509
31
0.000000000000000
  0
LINE
  5
F10596
330
F10597
100
AcDbEntity
8
Geo
100
AcDbLine
10
-80.1218097447794
20
5.00037401141554
30
0.000000000000000
11
-80.0218097447794
21
5.00221376928173
31
0.000000000000000
  0
LINE
  5
F10598
330
F10599
100
AcDbEntity
8
Geo
100
AcDbLine
10
-80.0218097447794
20
5.00221376928173
30
0.000000000000000
11
-79.9218097447794
21
4.99812849041602
31
0.000000000000000
  0
LINE
  5
F1059A
330
F1059B
100
AcDbEntity
8
Geo
100
AcDbLine
10
-79.9218097447794
20
4.99812849041602
30
0.000000000000000
11
-79.8218097447794
21
4.98812422633625
31
0.000000000000000
  0
LINE
  5
F1059C
330
F1059D
100
AcDbEntity
8
Geo
100
AcDbLine
10
-79.8218097447794
20
4.98812422633625
30
0.000000000000000
11
-79.7218097447794
21
4.97221579634470
31
0.000000000000000
  0
LINE
  5
F1059E
330
F1059F
100
AcDbEntity
8
Geo
100
AcDbLine
10
-79.7218097447794
20
4.97221579634470
30
0.000000000000000
11
-79.6218097447794
21
4.95042676557632
31
0.000000000000000
  0
LINE
  5
F105A0
330
F105A1
100
AcDbEntity
8
Geo
100
AcDbLine
10
-79.6218097447794
20
4.95042676557632
30
0.000000000000000
11
-79.5218097447794
21
4.92278941009169
31
0.000000000000000
  0
LINE
  5
F105A2
330
F105A3
100
AcDbEntity
8
Geo
100
AcDbLine
10
-79.5218097447794
20
4.92278941009169
30
0.000000000000000
11
-79.4218097447794
21
4.88934466906658
31
0.000000000000000
  0
LINE
  5
F105A4
330
F105A5
100
AcDbEntity
8
Geo
100
AcDbLine
10
-79.4218097447794
20
4.88934466906658
30
0.000000000000000
11
-79.3218097447794
21
4.85014208414874
31
0.000000000000000
  0
LINE
  5
F105A6
330
F105A7
100
AcDbEntity
8
Geo
100
AcDbLine
10
-79.3218097447794
20
4.85014208414874
30
0.000000000000000
11
-79.2218097447794
21
4.80523972607202
31
0.000000000000000
  0
LINE
  5
F105A8
330
F105A9
100
AcDbEntity
8
Geo
100
AcDbLine
10
-79.2218097447794
20
4.80523972607202
30
0.000000000000000
11
-79.1218097447794
21
4.75470410863618
31
0.000000000000000
  0
LINE
  5
F105AA
330
F105AB
100
AcDbEntity
8
Geo
100
AcDbLine
10
-79.1218097447794
20
4.75470410863618
30
0.000000000000000
11
-79.0218097447794
21
4.69861009018016
31
0.000000000000000
  0
LINE
  5
F105AC
330
F105AD
100
AcDbEntity
8
Geo
100
AcDbLine
10
-79.0218097447794
20
4.69861009018016
30
0.000000000000000
11
-78.9218097447794
21
4.63704076269449
31
0.000000000000000
  0
LINE
  5
F105AE
330
F105AF
100
AcDbEntity
8
Geo
100
AcDbLine
10
-78.9218097447794
20
4.63704076269449
30
0.000000000000000
11
-78.8218097447794
21
4.57008732873726
31
0.000000000000000
  0
LINE
  5
F105B0
330
F105B1
100
AcDbEntity
8
Geo
100
AcDbLine
10
-78.8218097447794
20
4.57008732873726
30
0.000000000000000
11
-78.7218097447794
21
4.49784896633589
31
0.000000000000000
  0
LINE
  5
F105B2
330
F105B3
100
AcDbEntity
8
Geo
100
AcDbLine
10
-78.7218097447794
20
4.49784896633589
30
0.000000000000000
11
-78.6218097447794
21
4.42043268207487
31
0.000000000000000
  0
LINE
  5
F105B4
330
F105B5
100
AcDbEntity
8
Geo
100
AcDbLine
10
-78.6218097447794
20
4.42043268207487
30
0.000000000000000
11
-78.5218097447794
21
4.33795315258703
31
0.000000000000000
  0
LINE
  5
F105B6
330
F105B7
100
AcDbEntity
8
Geo
100
AcDbLine
10
-78.5218097447794
20
4.33795315258703
30
0.000000000000000
11
-78.4218097447794
21
4.25053255468323
31
0.000000000000000
  0
LINE
  5
F105B8
330
F105B9
100
AcDbEntity
8
Geo
100
AcDbLine
10
-78.4218097447794
20
4.25053255468323
30
0.000000000000000
11
-78.3218097447794
21
4.15830038437203
31
0.000000000000000
  0
LINE
  5
F105BA
330
F105BB
100
AcDbEntity
8
Geo
100
AcDbLine
10
-78.3218097447794
20
4.15830038437203
30
0.000000000000000
11
-78.2218097447794
21
4.06139326503741
31
0.000000000000000
  0
LINE
  5
F105BC
330
F105BD
100
AcDbEntity
8
Geo
100
AcDbLine
10
-78.2218097447794
20
4.06139326503741
30
0.000000000000000
11
-78.1218097447794
21
3.95995474505874
31
0.000000000000000
  0
LINE
  5
F105BE
330
F105BF
100
AcDbEntity
8
Geo
100
AcDbLine
10
-78.1218097447794
20
3.95995474505874
30
0.000000000000000
11
-78.0218097447794
21
3.85413508517280
31
0.000000000000000
  0
LINE
  5
F105C0
330
F105C1
100
AcDbEntity
8
Geo
100
AcDbLine
10
-78.0218097447794
20
3.85413508517280
30
0.000000000000000
11
-77.9218097447794
21
3.74409103589274
31
0.000000000000000
  0
LINE
  5
F105C2
330
F105C3
100
AcDbEntity
8
Geo
100
AcDbLine
10
-77.9218097447794
20
3.74409103589274
30
0.000000000000000
11
-77.8218097447794
21
3.62998560531378
31
0.000000000000000
  0
LINE
  5
F105C4
330
F105C5
100
AcDbEntity
8
Geo
100
AcDbLine
10
-77.8218097447794
20
3.62998560531378
30
0.000000000000000
11
-77.7218097447794
21
3.51198781764951
31
0.000000000000000
  0
LINE
  5
F105C6
330
F105C7
100
AcDbEntity
8
Geo
100
AcDbLine
10
-77.7218097447794
20
3.51198781764951
30
0.000000000000000
11
-77.6218097447794
21
3.39027246285661
31
0.000000000000000
  0
LINE
  5
F105C8
330
F105C9
100
AcDbEntity
8
Geo
100
AcDbLine
10
-77.6218097447794
20
3.39027246285661
30
0.000000000000000
11
-77.5218097447794
21
3.26501983771871
31
0.000000000000000
  0
LINE
  5
F105CA
330
F105CB
100
AcDbEntity
8
Geo
100
AcDbLine
10
-77.5218097447794
20
3.26501983771871
30
0.000000000000000
11
-77.4218097447794
21
3.13641547877301
31
0.000000000000000
  0
LINE
  5
F105CC
330
F105CD
100
AcDbEntity
8
Geo
100
AcDbLine
10
-77.4218097447794
20
3.13641547877301
30
0.000000000000000
11
-77.3218097447794
21
3.00464988747530
31
0.000000000000000
  0
LINE
  5
F105CE
330
F105CF
100
AcDbEntity
8
Geo
100
AcDbLine
10
-77.3218097447794
20
3.00464988747530
30
0.000000000000000
11
-77.2218097447794
21
2.86991824801037
31
0.000000000000000
  0
LINE
  5
F105D0
330
F105D1
100
AcDbEntity
8
Geo
100
AcDbLine
10
-77.2218097447794
20
2.86991824801037
30
0.000000000000000
11
-77.1218097447794
21
2.73242013816600
31
0.000000000000000
  0
LINE
  5
F105D2
330
F105D3
100
AcDbEntity
8
Geo
100
AcDbLine
10
-77.1218097447794
20
2.73242013816600
30
0.000000000000000
11
-77.0218097447794
21
2.59235923369865
31
0.000000000000000
  0
LINE
  5
F105D4
330
F105D5
100
AcDbEntity
8
Geo
100
AcDbLine
10
-77.0218097447794
20
2.59235923369865
30
0.000000000000000
11
-76.9218097447794
21
2.44994300662884
31
0.000000000000000
  0
LINE
  5
F105D6
330
F105D7
100
AcDbEntity
8
Geo
100
AcDbLine
10
-76.9218097447794
20
2.44994300662884
30
0.000000000000000
11
-76.8218097447794
21
2.30538241791315
31
0.000000000000000
  0
LINE
  5
F105D8
330
F105D9
100
AcDbEntity
8
Geo
100
AcDbLine
10
-76.8218097447794
20
2.30538241791315
30
0.000000000000000
11
-76.7218097447794
21
2.15889160494803
31
0.000000000000000
  0
LINE
  5
F105DA
330
F105DB
100
AcDbEntity
8
Geo
100
AcDbLine
10
-76.7218097447794
20
2.15889160494803
30
0.000000000000000
11
-76.6218097447794
21
2.01068756436841
31
0.000000000000000
  0
LINE
  5
F105DC
330
F105DD
100
AcDbEntity
8
Geo
100
AcDbLine
10
-76.6218097447794
20
2.01068756436841
30
0.000000000000000
11
-76.5218097447794
21
1.86098983061087
31
0.000000000000000
  0
LINE
  5
F105DE
330
F105DF
100
AcDbEntity
8
Geo
100
AcDbLine
10
-76.5218097447794
20
1.86098983061087
30
0.000000000000000
11
-76.4218097447794
21
1.71002015071756
31
0.000000000000000
  0
LINE
  5
F105E0
330
F105E1
100
AcDbEntity
8
Geo
100
AcDbLine
10
-76.4218097447794
20
1.71002015071756
30
0.000000000000000
11
-76.3218097447794
21
1.55800215586271
31
0.000000000000000
  0
LINE
  5
F105E2
330
F105E3
100
AcDbEntity
8
Geo
100
AcDbLine
10
-76.3218097447794
20
1.55800215586271
30
0.000000000000000
11
-76.2218097447794
21
1.40516103008796
31
0.000000000000000
  0
LINE
  5
F105E4
330
F105E5
100
AcDbEntity
8
Geo
100
AcDbLine
10
-76.2218097447794
20
1.40516103008796
30
0.000000000000000
11
-76.1218097447794
21
1.25172317673768
31
0.000000000000000
  0
LINE
  5
F105E6
330
F105E7
100
AcDbEntity
8
Geo
100
AcDbLine
10
-76.1218097447794
20
1.25172317673768
30
0.000000000000000
11
-76.0218097447794
21
1.09791588308791
31
0.000000000000000
  0
LINE
  5
F105E8
330
F105E9
100
AcDbEntity
8
Geo
100
AcDbLine
10
-76.0218097447794
20
1.09791588308791
30
0.000000000000000
11
-75.9218097447794
21
0.943966983666111
31
0.000000000000000
  0
LINE
  5
F105EA
330
F105EB
100
AcDbEntity
8
Geo
100
AcDbLine
10
-75.9218097447794
20
0.943966983666111
30
0.000000000000000
11
-75.8218097447794
21
0.790104522760177
31
0.000000000000000
  0
LINE
  5
F105EC
330
F105ED
100
AcDbEntity
8
Geo
100
AcDbLine
10
-75.8218097447794
20
0.790104522760177
30
0.000000000000000
11
-75.7218097447794
21
0.636556416616737
31
0.000000000000000
  0
LINE
  5
F105EE
330
F105EF
100
AcDbEntity
8
Geo
100
AcDbLine
10
-75.7218097447794
20
0.636556416616737
30
0.000000000000000
11
-75.6218097447794
21
0.483550115829160
31
0.000000000000000
  0
LINE
  5
F105F0
330
F105F1
100
AcDbEntity
8
Geo
100
AcDbLine
10
-75.6218097447794
20
0.483550115829160
30
0.000000000000000
11
-75.5218097447794
21
0.331312268415303
31
0.000000000000000
  0
LINE
  5
F105F2
330
F105F3
100
AcDbEntity
8
Geo
100
AcDbLine
10
-75.5218097447794
20
0.331312268415303
30
0.000000000000000
11
-75.4218097447794
21
0.180068384084122
31
0.000000000000000
  0
LINE
  5
F105F4
330
F105F5
100
AcDbEntity
8
Geo
100
AcDbLine
10
-75.4218097447794
20
0.180068384084122
30
0.000000000000000
11
-75.3218097447794
21
0.0300425001884607
31
0.000000000000000
  0
LINE
  5
F105F6
330
F105F7
100
AcDbEntity
8
Geo
100
AcDbLine
10
-75.3218097447794
20
0.0300425001884607
30
0.000000000000000
11
-75.2218097447794
21
-0.118543150141169
31
0.000000000000000
  0
LINE
  5
F105F8
330
F105F9
100
AcDbEntity
8
Geo
100
AcDbLine
10
-75.2218097447794
20
-0.118543150141169
30
0.000000000000000
11
-75.1218097447794
21
-0.265468467190206
31
0.000000000000000
  0
LINE
  5
F105FA
330
F105FB
100
AcDbEntity
8
Geo
100
AcDbLine
10
-75.1218097447794
20
-0.265468467190206
30
0.000000000000000
11
-75.0218097447794
21
-0.410515810693440
31
0.000000000000000
  0
LINE
  5
F105FC
330
F105FD
100
AcDbEntity
8
Geo
100
AcDbLine
10
-75.0218097447794
20
-0.410515810693440
30
0.000000000000000
11
-74.9218097447794
21
-0.553470322225231
31
0.000000000000000
  0
LINE
  5
F105FE
330
F105FF
100
AcDbEntity
8
Geo
100
AcDbLine
10
-74.9218097447794
20
-0.553470322225231
30
0.000000000000000
11
-74.8218097447794
21
-0.694120243468989
31
0.000000000000000
  0
LINE
  5
F10600
330
F10601
100
AcDbEntity
8
Geo
100
AcDbLine
10
-74.8218097447794
20
-0.694120243468989
30
0.000000000000000
11
-74.7218097447794
21
-0.832257229894470
31
0.000000000000000
  0
LINE
  5
F10602
330
F10603
100
AcDbEntity
8
Geo
100
AcDbLine
10
-74.7218097447794
20
-0.832257229894470
30
0.000000000000000
11
-74.6218097447794
21
-0.967676659378241
31
0.000000000000000
  0
LINE
  5
F10604
330
F10605
100
AcDbEntity
8
Geo
100
AcDbLine
10
-74.6218097447794
20
-0.967676659378241
30
0.000000000000000
11
-74.5218097447794
21
-1.10017793531014
31
0.000000000000000
  0
LINE
  5
F10606
330
F10607
100
AcDbEntity
8
Geo
100
AcDbLine
10
-74.5218097447794
20
-1.10017793531014
30
0.000000000000000
11
-74.4218097447794
21
-1.22956478373674
31
0.000000000000000
  0
LINE
  5
F10608
330
F10609
100
AcDbEntity
8
Geo
100
AcDbLine
10
-74.4218097447794
20
-1.22956478373674
30
0.000000000000000
11
-74.3218097447794
21
-1.35564554410171
31
0.000000000000000
  0
LINE
  5
F1060A
330
F1060B
100
AcDbEntity
8
Geo
100
AcDbLine
10
-74.3218097447794
20
-1.35564554410171
30
0.000000000000000
11
-74.2218097447794
21
-1.47823345315228
31
0.000000000000000
  0
LINE
  5
F1060C
330
F1060D
100
AcDbEntity
8
Geo
100
AcDbLine
10
-74.2218097447794
20
-1.47823345315228
30
0.000000000000000
11
-74.1218097447794
21
-1.59714692159145
31
0.000000000000000
  0
LINE
  5
F1060E
330
F1060F
100
AcDbEntity
8
Geo
100
AcDbLine
10
-74.1218097447794
20
-1.59714692159145
30
0.000000000000000
11
-74.0218097447794
21
-1.71220980306590
31
0.000000000000000
  0
LINE
  5
F10610
330
F10611
100
AcDbEntity
8
Geo
100
AcDbLine
10
-74.0218097447794
20
-1.71220980306590
30
0.000000000000000
11
-73.9218097447794
21
-1.82325165509135
31
0.000000000000000
  0
LINE
  5
F10612
330
F10613
100
AcDbEntity
8
Geo
100
AcDbLine
10
-73.9218097447794
20
-1.82325165509135
30
0.000000000000000
11
-73.8218097447794
21
-1.93010799152880
31
0.000000000000000
  0
LINE
  5
F10614
330
F10615
100
AcDbEntity
8
Geo
100
AcDbLine
10
-73.8218097447794
20
-1.93010799152880
30
0.000000000000000
11
-73.7218097447794
21
-2.03262052623758
31
0.000000000000000
  0
LINE
  5
F10616
330
F10617
100
AcDbEntity
8
Geo
100
AcDbLine
10
-73.7218097447794
20
-2.03262052623758
30
0.000000000000000
11
-73.6218097447794
21
-2.13063740754441
31
0.000000000000000
  0
LINE
  5
F10618
330
F10619
100
AcDbEntity
8
Geo
100
AcDbLine
10
-73.6218097447794
20
-2.13063740754441
30
0.000000000000000
11
-73.5218097447794
21
-2.22401344318106
31
0.000000000000000
  0
LINE
  5
F1061A
330
F1061B
100
AcDbEntity
8
Geo
100
AcDbLine
10
-73.5218097447794
20
-2.22401344318106
30
0.000000000000000
11
-73.4218097447794
21
-2.31261031535746
31
0.000000000000000
  0
LINE
  5
F1061C
330
F1061D
100
AcDbEntity
8
Geo
100
AcDbLine
10
-73.4218097447794
20
-2.31261031535746
30
0.000000000000000
11
-73.3218097447794
21
-2.39629678565163
31
0.000000000000000
  0
LINE
  5
F1061E
330
F1061F
100
AcDbEntity
8
Geo
100
AcDbLine
10
-73.3218097447794
20
-2.39629678565163
30
0.000000000000000
11
-73.2218097447794
21
-2.47494888941299
31
0.000000000000000
  0
LINE
  5
F10620
330
F10621
100
AcDbEntity
8
Geo
100
AcDbLine
10
-73.2218097447794
20
-2.47494888941299
30
0.000000000000000
11
-73.1218097447794
21
-2.54845011939103
31
0.000000000000000
  0
LINE
  5
F10622
330
F10623
100
AcDbEntity
8
Geo
100
AcDbLine
10
-73.1218097447794
20
-2.54845011939103
30
0.000000000000000
11
-73.0218097447794
21
-2.61669159831728
31
0.000000000000000
  0
LINE
  5
F10624
330
F10625
100
AcDbEntity
8
Geo
100
AcDbLine
10
-73.0218097447794
20
-2.61669159831728
30
0.000000000000000
11
-72.9218097447794
21
-2.67957224018515
31
0.000000000000000
  0
LINE
  5
F10626
330
F10627
100
AcDbEntity
8
Geo
100
AcDbLine
10
-72.9218097447794
20
-2.67957224018515
30
0.000000000000000
11
-72.8218097447794
21
-2.73699889998838
31
0.000000000000000
  0
LINE
  5
F10628
330
F10629
100
AcDbEntity
8
Geo
100
AcDbLine
10
-72.8218097447794
20
-2.73699889998838
30
0.000000000000000
11
-72.7218097447794
21
-2.78888651169669
31
0.000000000000000
  0
LINE
  5
F1062A
330
F1062B
100
AcDbEntity
8
Geo
100
AcDbLine
10
-72.7218097447794
20
-2.78888651169669
30
0.000000000000000
11
-72.6218097447794
21
-2.83515821426395
31
0.000000000000000
  0
LINE
  5
F1062C
330
F1062D
100
AcDbEntity
8
Geo
100
AcDbLine
10
-72.6218097447794
20
-2.83515821426395
30
0.000000000000000
11
-72.5218097447794
21
-2.87574546548230
31
0.000000000000000
  0
LINE
  5
F1062E
330
F1062F
100
AcDbEntity
8
Geo
100
AcDbLine
10
-72.5218097447794
20
-2.87574546548230
30
0.000000000000000
11
-72.4218097447794
21
-2.91058814351369
31
0.000000000000000
  0
LINE
  5
F10630
330
F10631
100
AcDbEntity
8
Geo
100
AcDbLine
10
-72.4218097447794
20
-2.91058814351369
30
0.000000000000000
11
-72.3218097447794
21
-2.93963463594821
31
0.000000000000000
  0
LINE
  5
F10632
330
F10633
100
AcDbEntity
8
Geo
100
AcDbLine
10
-72.3218097447794
20
-2.93963463594821
30
0.000000000000000
11
-72.2218097447794
21
-2.96284191625755
31
0.000000000000000
  0
LINE
  5
F10634
330
F10635
100
AcDbEntity
8
Geo
100
AcDbLine
10
-72.2218097447794
20
-2.96284191625755
30
0.000000000000000
11
-72.1218097447794
21
-2.98017560753005
31
0.000000000000000
  0
LINE
  5
F10636
330
F10637
100
AcDbEntity
8
Geo
100
AcDbLine
10
-72.1218097447794
20
-2.98017560753005
30
0.000000000000000
11
-72.0218097447794
21
-2.99161003339325
31
0.000000000000000
  0
LINE
  5
F10638
330
F10639
100
AcDbEntity
8
Geo
100
AcDbLine
10
-72.0218097447794
20
-2.99161003339325
30
0.000000000000000
11
-71.9218097447794
21
-2.99712825604823
31
0.000000000000000
  0
LINE
  5
F1063A
330
F1063B
100
AcDbEntity
8
Geo
100
AcDbLine
10
-84.1218097447794
20
3.95022573231483
30
0.000000000000000
11
-84.0218097447794
21
4.37224064812203
31
0.000000000000000
  0
LINE
  5
F1063C
330
F1063D
100
AcDbEntity
8
Geo
100
AcDbLine
10
-84.1218097447794
20
0.706877859711244
30
0.000000000000000
11
-84.0218097447794
21
0.576886487832405
31
0.000000000000000
  0
LINE
  5
F1063E
330
F1063F
100
AcDbEntity
8
Geo
100
AcDbLine
10
-84.0218097447794
20
4.37224064812203
30
0.000000000000000
11
-83.9218097447794
21
4.51699790469852
31
0.000000000000000
  0
LINE
  5
F10640
330
F10641
100
AcDbEntity
8
Geo
100
AcDbLine
10
-84.0218097447794
20
0.576886487832405
30
0.000000000000000
11
-83.9218097447794
21
0.434904582007982
31
0.000000000000000
  0
LINE
  5
F10642
330
F10643
100
AcDbEntity
8
Geo
100
AcDbLine
10
-83.9218097447794
20
4.51699790469852
30
0.000000000000000
11
-83.8218097447794
21
4.60594305220362
31
0.000000000000000
  0
LINE
  5
F10644
330
F10645
100
AcDbEntity
8
Geo
100
AcDbLine
10
-83.9218097447794
20
0.434904582007982
30
0.000000000000000
11
-83.8218097447794
21
0.286927418828109
31
0.000000000000000
  0
LINE
  5
F10646
330
F10647
100
AcDbEntity
8
Geo
100
AcDbLine
10
-83.8218097447794
20
4.60594305220362
30
0.000000000000000
11
-83.7218097447794
21
4.66058694867247
31
0.000000000000000
  0
LINE
  5
F10648
330
F10649
100
AcDbEntity
8
Geo
100
AcDbLine
10
-83.8218097447794
20
0.286927418828109
30
0.000000000000000
11
-83.7218097447794
21
0.135621596007322
31
0.000000000000000
  0
LINE
  5
F1064A
330
F1064B
100
AcDbEntity
8
Geo
100
AcDbLine
10
-83.7218097447794
20
4.66058694867247
30
0.000000000000000
11
-83.6218097447794
21
4.68933292815189
31
0.000000000000000
  0
LINE
  5
F1064C
330
F1064D
100
AcDbEntity
8
Geo
100
AcDbLine
10
-83.7218097447794
20
0.135621596007322
30
0.000000000000000
11
-83.6218097447794
21
-0.0171367773648241
31
0.000000000000000
  0
LINE
  5
F1064E
330
F1064F
100
AcDbEntity
8
Geo
100
AcDbLine
10
-83.6218097447794
20
4.68933292815189
30
0.000000000000000
11
-83.5218097447794
21
4.69652223147259
31
0.000000000000000
  0
LINE
  5
F10650
330
F10651
100
AcDbEntity
8
Geo
100
AcDbLine
10
-83.6218097447794
20
-0.0171367773648241
30
0.000000000000000
11
-83.5218097447794
21
-0.169816601758264
31
0.000000000000000
  0
LINE
  5
F10652
330
F10653
100
AcDbEntity
8
Geo
100
AcDbLine
10
-83.5218097447794
20
4.69652223147259
30
0.000000000000000
11
-83.4218097447794
21
4.68475560108641
31
0.000000000000000
  0
LINE
  5
F10654
330
F10655
100
AcDbEntity
8
Geo
100
AcDbLine
10
-83.5218097447794
20
-0.169816601758264
30
0.000000000000000
11
-83.4218097447794
21
-0.321064874457858
31
0.000000000000000
  0
LINE
  5
F10656
330
F10657
100
AcDbEntity
8
Geo
100
AcDbLine
10
-83.4218097447794
20
4.68475560108641
30
0.000000000000000
11
-83.3218097447794
21
4.65574422086660
31
0.000000000000000
  0
LINE
  5
F10658
330
F10659
100
AcDbEntity
8
Geo
100
AcDbLine
10
-83.4218097447794
20
-0.321064874457858
30
0.000000000000000
11
-83.3218097447794
21
-0.469623297781402
31
0.000000000000000
  0
LINE
  5
F1065A
330
F1065B
100
AcDbEntity
8
Geo
100
AcDbLine
10
-83.3218097447794
20
4.65574422086660
30
0.000000000000000
11
-83.2218097447794
21
4.61068629785746
31
0.000000000000000
  0
LINE
  5
F1065C
330
F1065D
100
AcDbEntity
8
Geo
100
AcDbLine
10
-83.3218097447794
20
-0.469623297781402
30
0.000000000000000
11
-83.2218097447794
21
-0.614276625499664
31
0.000000000000000
  0
LINE
  5
F1065E
330
F1065F
100
AcDbEntity
8
Geo
100
AcDbLine
10
-83.2218097447794
20
4.61068629785746
30
0.000000000000000
11
-83.1218097447794
21
4.55045210961621
31
0.000000000000000
  0
LINE
  5
F10660
330
F10661
100
AcDbEntity
8
Geo
100
AcDbLine
10
-83.2218097447794
20
-0.614276625499664
30
0.000000000000000
11
-83.1218097447794
21
-0.753813130361473
31
0.000000000000000
  0
LINE
  5
F10662
330
F10663
100
AcDbEntity
8
Geo
100
AcDbLine
10
-83.1218097447794
20
4.55045210961621
30
0.000000000000000
11
-83.0218097447794
21
4.48024727390015
31
0.000000000000000
  0
LINE
  5
F10664
330
F10665
100
AcDbEntity
8
Geo
100
AcDbLine
10
-83.1218097447794
20
-0.753813130361473
30
0.000000000000000
11
-83.0218097447794
21
-0.889046394974683
31
0.000000000000000
  0
LINE
  5
F10666
330
F10667
100
AcDbEntity
8
Geo
100
AcDbLine
10
-83.0218097447794
20
4.48024727390015
30
0.000000000000000
11
-82.9218097447794
21
4.40489058968664
31
0.000000000000000
  0
LINE
  5
F10668
330
F10669
100
AcDbEntity
8
Geo
100
AcDbLine
10
-83.0218097447794
20
-0.889046394974683
30
0.000000000000000
11
-82.9218097447794
21
-1.02147798093593
31
0.000000000000000
  0
LINE
  5
F1066A
330
F1066B
100
AcDbEntity
8
Geo
100
AcDbLine
10
-82.9218097447794
20
4.40489058968664
30
0.000000000000000
11
-82.8218097447794
21
4.32449368272588
31
0.000000000000000
  0
LINE
  5
F1066C
330
F1066D
100
AcDbEntity
8
Geo
100
AcDbLine
10
-82.9218097447794
20
-1.02147798093593
30
0.000000000000000
11
-82.8218097447794
21
-1.15091171752346
31
0.000000000000000
  0
LINE
  5
F1066E
330
F1066F
100
AcDbEntity
8
Geo
100
AcDbLine
10
-82.8218097447794
20
4.32449368272588
30
0.000000000000000
11
-82.7218097447794
21
4.23917564484291
31
0.000000000000000
  0
LINE
  5
F10670
330
F10671
100
AcDbEntity
8
Geo
100
AcDbLine
10
-82.8218097447794
20
-1.15091171752346
30
0.000000000000000
11
-82.7218097447794
21
-1.27715587472555
31
0.000000000000000
  0
LINE
  5
F10672
330
F10673
100
AcDbEntity
8
Geo
100
AcDbLine
10
-82.7218097447794
20
4.23917564484291
30
0.000000000000000
11
-82.6218097447794
21
4.14906285752710
31
0.000000000000000
  0
LINE
  5
F10674
330
F10675
100
AcDbEntity
8
Geo
100
AcDbLine
10
-82.7218097447794
20
-1.27715587472555
30
0.000000000000000
11
-82.6218097447794
21
-1.40002344724996
31
0.000000000000000
  0
LINE
  5
F10676
330
F10677
100
AcDbEntity
8
Geo
100
AcDbLine
10
-82.6218097447794
20
4.14906285752710
30
0.000000000000000
11
-82.5218097447794
21
4.05428880472336
31
0.000000000000000
  0
LINE
  5
F10678
330
F10679
100
AcDbEntity
8
Geo
100
AcDbLine
10
-82.6218097447794
20
-1.40002344724996
30
0.000000000000000
11
-82.5218097447794
21
-1.51933243153455
31
0.000000000000000
  0
LINE
  5
F1067A
330
F1067B
100
AcDbEntity
8
Geo
100
AcDbLine
10
-82.5218097447794
20
4.05428880472336
30
0.000000000000000
11
-82.4218097447794
21
3.95499387510263
31
0.000000000000000
  0
LINE
  5
F1067C
330
F1067D
100
AcDbEntity
8
Geo
100
AcDbLine
10
-82.5218097447794
20
-1.51933243153455
30
0.000000000000000
11
-82.4218097447794
21
-1.63490609534893
31
0.000000000000000
  0
LINE
  5
F1067E
330
F1067F
100
AcDbEntity
8
Geo
100
AcDbLine
10
-82.4218097447794
20
3.95499387510263
30
0.000000000000000
11
-82.3218097447794
21
3.85132515410432
31
0.000000000000000
  0
LINE
  5
F10680
330
F10681
100
AcDbEntity
8
Geo
100
AcDbLine
10
-82.4218097447794
20
-1.63490609534893
30
0.000000000000000
11
-82.3218097447794
21
-1.74657323958769
31
0.000000000000000
  0
LINE
  5
F10682
330
F10683
100
AcDbEntity
8
Geo
100
AcDbLine
10
-82.3218097447794
20
3.85132515410432
30
0.000000000000000
11
-82.2218097447794
21
3.74343620605882
31
0.000000000000000
  0
LINE
  5
F10684
330
F10685
100
AcDbEntity
8
Geo
100
AcDbLine
10
-82.3218097447794
20
-1.74657323958769
30
0.000000000000000
11
-82.2218097447794
21
-1.85416845186734
31
0.000000000000000
  0
LINE
  5
F10686
330
F10687
100
AcDbEntity
8
Geo
100
AcDbLine
10
-82.2218097447794
20
3.74343620605882
30
0.000000000000000
11
-82.1218097447794
21
3.63148684671292
31
0.000000000000000
  0
LINE
  5
F10688
330
F10689
100
AcDbEntity
8
Geo
100
AcDbLine
10
-82.2218097447794
20
-1.85416845186734
30
0.000000000000000
11
-82.1218097447794
21
-1.95753235155146
31
0.000000000000000
  0
LINE
  5
F1068A
330
F1068B
100
AcDbEntity
8
Geo
100
AcDbLine
10
-82.1218097447794
20
3.63148684671292
30
0.000000000000000
11
-82.0218097447794
21
3.51564290649494
31
0.000000000000000
  0
LINE
  5
F1068C
330
F1068D
100
AcDbEntity
8
Geo
100
AcDbLine
10
-82.1218097447794
20
-1.95753235155146
30
0.000000000000000
11
-82.0218097447794
21
-2.05651182584103
31
0.000000000000000
  0
LINE
  5
F1068E
330
F1068F
100
AcDbEntity
8
Geo
100
AcDbLine
10
-82.0218097447794
20
3.51564290649494
30
0.000000000000000
11
-81.9218097447794
21
3.39607598487038
31
0.000000000000000
  0
LINE
  5
F10690
330
F10691
100
AcDbEntity
8
Geo
100
AcDbLine
10
-82.0218097447794
20
-2.05651182584103
30
0.000000000000000
11
-81.9218097447794
21
-2.15096025658021
31
0.000000000000000
  0
LINE
  5
F10692
330
F10693
100
AcDbEntity
8
Geo
100
AcDbLine
10
-81.9218097447794
20
3.39607598487038
30
0.000000000000000
11
-81.8218097447794
21
3.27296319615183
31
0.000000000000000
  0
LINE
  5
F10694
330
F10695
100
AcDbEntity
8
Geo
100
AcDbLine
10
-81.9218097447794
20
-2.15096025658021
30
0.000000000000000
11
-81.8218097447794
21
-2.24073773744154
31
0.000000000000000
  0
LINE
  5
F10696
330
F10697
100
AcDbEntity
8
Geo
100
AcDbLine
10
-81.8218097447794
20
3.27296319615183
30
0.000000000000000
11
-81.7218097447794
21
3.14648690713983
31
0.000000000000000
  0
LINE
  5
F10698
330
F10699
100
AcDbEntity
8
Geo
100
AcDbLine
10
-81.8218097447794
20
-2.24073773744154
30
0.000000000000000
11
-81.7218097447794
21
-2.32571128116910
31
0.000000000000000
  0
LINE
  5
F1069A
330
F1069B
100
AcDbEntity
8
Geo
100
AcDbLine
10
-81.7218097447794
20
3.14648690713983
30
0.000000000000000
11
-81.6218097447794
21
3.01683446698315
31
0.000000000000000
  0
LINE
  5
F1069C
330
F1069D
100
AcDbEntity
8
Geo
100
AcDbLine
10
-81.7218097447794
20
-2.32571128116910
30
0.000000000000000
11
-81.6218097447794
21
-2.40575501657222
31
0.000000000000000
  0
LINE
  5
F1069E
330
F1069F
100
AcDbEntity
8
Geo
100
AcDbLine
10
-81.6218097447794
20
3.01683446698315
30
0.000000000000000
11
-81.5218097447794
21
2.88419792965879
31
0.000000000000000
  0
LINE
  5
F106A0
330
F106A1
100
AcDbEntity
8
Geo
100
AcDbLine
10
-81.6218097447794
20
-2.40575501657222
30
0.000000000000000
11
-81.5218097447794
21
-2.48075037497839
31
0.000000000000000
  0
LINE
  5
F106A2
330
F106A3
100
AcDbEntity
8
Geo
100
AcDbLine
10
-81.5218097447794
20
2.88419792965879
30
0.000000000000000
11
-81.4218097447794
21
2.74877376948269
31
0.000000000000000
  0
LINE
  5
F106A4
330
F106A5
100
AcDbEntity
8
Geo
100
AcDbLine
10
-81.5218097447794
20
-2.48075037497839
30
0.000000000000000
11
-81.4218097447794
21
-2.55058626586884
31
0.000000000000000
  0
LINE
  5
F106A6
330
F106A7
100
AcDbEntity
8
Geo
100
AcDbLine
10
-81.4218097447794
20
2.74877376948269
30
0.000000000000000
11
-81.3218097447794
21
2.61076259007256
31
0.000000000000000
  0
LINE
  5
F106A8
330
F106A9
100
AcDbEntity
8
Geo
100
AcDbLine
10
-81.4218097447794
20
-2.55058626586884
30
0.000000000000000
11
-81.3218097447794
21
-2.61515924143674
31
0.000000000000000
  0
LINE
  5
F106AA
330
F106AB
100
AcDbEntity
8
Geo
100
AcDbLine
10
-81.3218097447794
20
2.61076259007256
30
0.000000000000000
11
-81.2218097447794
21
2.47036882719410
31
0.000000000000000
  0
LINE
  5
F106AC
330
F106AD
100
AcDbEntity
8
Geo
100
AcDbLine
10
-81.3218097447794
20
-2.61515924143674
30
0.000000000000000
11
-81.2218097447794
21
-2.67437364982433
31
0.000000000000000
  0
LINE
  5
F106AE
330
F106AF
100
AcDbEntity
8
Geo
100
AcDbLine
10
-81.2218097447794
20
2.47036882719410
30
0.000000000000000
11
-81.1218097447794
21
2.32780044593052
31
0.000000000000000
  0
LINE
  5
F106B0
330
F106B1
100
AcDbEntity
8
Geo
100
AcDbLine
10
-81.2218097447794
20
-2.67437364982433
30
0.000000000000000
11
-81.1218097447794
21
-2.72814177681187
31
0.000000000000000
  0
LINE
  5
F106B2
330
F106B3
100
AcDbEntity
8
Geo
100
AcDbLine
10
-81.1218097447794
20
2.32780044593052
30
0.000000000000000
11
-81.0218097447794
21
2.18326863262419
31
0.000000000000000
  0
LINE
  5
F106B4
330
F106B5
100
AcDbEntity
8
Geo
100
AcDbLine
10
-81.1218097447794
20
-2.72814177681187
30
0.000000000000000
11
-81.0218097447794
21
-2.77638397574859
31
0.000000000000000
  0
LINE
  5
F106B6
330
F106B7
100
AcDbEntity
8
Geo
100
AcDbLine
10
-81.0218097447794
20
2.18326863262419
30
0.000000000000000
11
-80.9218097447794
21
2.03698748204659
31
0.000000000000000
  0
LINE
  5
F106B8
330
F106B9
100
AcDbEntity
8
Geo
100
AcDbLine
10
-81.0218097447794
20
-2.77638397574859
30
0.000000000000000
11
-80.9218097447794
21
-2.81902878553313
31
0.000000000000000
  0
LINE
  5
F106BA
330
F106BB
100
AcDbEntity
8
Geo
100
AcDbLine
10
-80.9218097447794
20
2.03698748204659
30
0.000000000000000
11
-80.8218097447794
21
1.88917368026005
31
0.000000000000000
  0
LINE
  5
F106BC
330
F106BD
100
AcDbEntity
8
Geo
100
AcDbLine
10
-80.9218097447794
20
-2.81902878553313
30
0.000000000000000
11
-80.8218097447794
21
-2.85601303646883
31
0.000000000000000
  0
LINE
  5
F106BE
330
F106BF
100
AcDbEntity
8
Geo
100
AcDbLine
10
-80.8218097447794
20
1.88917368026005
30
0.000000000000000
11
-80.7218097447794
21
1.74004618364096
31
0.000000000000000
  0
LINE
  5
F106C0
330
F106C1
100
AcDbEntity
8
Geo
100
AcDbLine
10
-80.8218097447794
20
-2.85601303646883
30
0.000000000000000
11
-80.7218097447794
21
-2.88728194383688
31
0.000000000000000
  0
LINE
  5
F106C2
330
F106C3
100
AcDbEntity
8
Geo
100
AcDbLine
10
-80.7218097447794
20
1.74004618364096
30
0.000000000000000
11
-80.6218097447794
21
1.58982589454004
31
0.000000000000000
  0
LINE
  5
F106C4
330
F106C5
100
AcDbEntity
8
Geo
100
AcDbLine
10
-80.7218097447794
20
-2.88728194383688
30
0.000000000000000
11
-80.6218097447794
21
-2.91278918904882
31
0.000000000000000
  0
LINE
  5
F106C6
330
F106C7
100
AcDbEntity
8
Geo
100
AcDbLine
10
-80.6218097447794
20
1.58982589454004
30
0.000000000000000
11
-80.5218097447794
21
1.43873533405995
31
0.000000000000000
  0
LINE
  5
F106C8
330
F106C9
100
AcDbEntity
8
Geo
100
AcDbLine
10
-80.6218097447794
20
-2.91278918904882
30
0.000000000000000
11
-80.5218097447794
21
-2.93249698825824
31
0.000000000000000
  0
LINE
  5
F106CA
330
F106CB
100
AcDbEntity
8
Geo
100
AcDbLine
10
-80.5218097447794
20
1.43873533405995
30
0.000000000000000
11
-80.4218097447794
21
1.28699831243514
31
0.000000000000000
  0
LINE
  5
F106CC
330
F106CD
100
AcDbEntity
8
Geo
100
AcDbLine
10
-80.5218097447794
20
-2.93249698825824
30
0.000000000000000
11
-80.4218097447794
21
-2.94637614832994
31
0.000000000000000
  0
LINE
  5
F106CE
330
F106CF
100
AcDbEntity
8
Geo
100
AcDbLine
10
-80.4218097447794
20
1.28699831243514
30
0.000000000000000
11
-80.3218097447794
21
1.13483959750201
31
0.000000000000000
  0
LINE
  5
F106D0
330
F106D1
100
AcDbEntity
8
Geo
100
AcDbLine
10
-80.4218097447794
20
-2.94637614832994
30
0.000000000000000
11
-80.3218097447794
21
-2.95440611008366
31
0.000000000000000
  0
LINE
  5
F106D2
330
F106D3
100
AcDbEntity
8
Geo
100
AcDbLine
10
-80.3218097447794
20
1.13483959750201
30
0.000000000000000
11
-80.2218097447794
21
0.982484581750702
31
0.000000000000000
  0
LINE
  5
F106D4
330
F106D5
100
AcDbEntity
8
Geo
100
AcDbLine
10
-80.2218097447794
20
0.982484581750702
30
0.000000000000000
11
-80.1218097447794
21
0.830158948451461
31
0.000000000000000
  0
LINE
  5
F106D6
330
F106D7
100
AcDbEntity
8
Geo
100
AcDbLine
10
-80.2218097447794
20
4.96121534997815
30
0.000000000000000
11
-80.1218097447794
21
4.95751991281172
31
0.000000000000000
  0
LINE
  5
F106D8
330
F106D9
100
AcDbEntity
8
Geo
100
AcDbLine
10
-80.1218097447794
20
0.830158948451461
30
0.000000000000000
11
-80.0218097447794
21
0.678088337350353
31
0.000000000000000
  0
LINE
  5
F106DA
330
F106DB
100
AcDbEntity
8
Geo
100
AcDbLine
10
-80.1218097447794
20
4.95751991281172
30
0.000000000000000
11
-80.0218097447794
21
4.94796564386002
31
0.000000000000000
  0
LINE
  5
F106DC
330
F106DD
100
AcDbEntity
8
Geo
100
AcDbLine
10
-80.0218097447794
20
0.678088337350353
30
0.000000000000000
11
-79.9218097447794
21
0.526498010429418
31
0.000000000000000
  0
LINE
  5
F106DE
330
F106DF
100
AcDbEntity
8
Geo
100
AcDbLine
10
-80.0218097447794
20
4.94796564386002
30
0.000000000000000
11
-79.9218097447794
21
4.93256669584822
31
0.000000000000000
  0
LINE
  5
F106E0
330
F106E1
100
AcDbEntity
8
Geo
100
AcDbLine
10
-79.9218097447794
20
0.526498010429418
30
0.000000000000000
11
-79.8218097447794
21
0.375612518226422
31
0.000000000000000
  0
LINE
  5
F106E2
330
F106E3
100
AcDbEntity
8
Geo
100
AcDbLine
10
-79.9218097447794
20
4.93256669584822
30
0.000000000000000
11
-79.8218097447794
21
4.91134587921630
31
0.000000000000000
  0
LINE
  5
F106E4
330
F106E5
100
AcDbEntity
8
Geo
100
AcDbLine
10
-79.8218097447794
20
0.375612518226422
30
0.000000000000000
11
-79.7218097447794
21
0.225655367208450
31
0.000000000000000
  0
LINE
  5
F106E6
330
F106E7
100
AcDbEntity
8
Geo
100
AcDbLine
10
-79.8218097447794
20
4.91134587921630
30
0.000000000000000
11
-79.7218097447794
21
4.88433462833006
31
0.000000000000000
  0
LINE
  5
F106E8
330
F106E9
100
AcDbEntity
8
Geo
100
AcDbLine
10
-79.7218097447794
20
0.225655367208450
30
0.000000000000000
11
-79.6218097447794
21
0.0768486886921033
31
0.000000000000000
  0
LINE
  5
F106EA
330
F106EB
100
AcDbEntity
8
Geo
100
AcDbLine
10
-79.7218097447794
20
4.88433462833006
30
0.000000000000000
11
-79.6218097447794
21
4.85157295491739
31
0.000000000000000
  0
LINE
  5
F106EC
330
F106ED
100
AcDbEntity
8
Geo
100
AcDbLine
10
-79.6218097447794
20
0.0768486886921033
30
0.000000000000000
11
-79.5218097447794
21
-0.0705870901993195
31
0.000000000000000
  0
LINE
  5
F106EE
330
F106EF
100
AcDbEntity
8
Geo
100
AcDbLine
10
-79.6218097447794
20
4.85157295491739
30
0.000000000000000
11
-79.5218097447794
21
4.81310938879897
31
0.000000000000000
  0
LINE
  5
F106F0
330
F106F1
100
AcDbEntity
8
Geo
100
AcDbLine
10
-79.5218097447794
20
-0.0705870901993195
30
0.000000000000000
11
-79.4218097447794
21
-0.216433573054198
31
0.000000000000000
  0
LINE
  5
F106F2
330
F106F3
100
AcDbEntity
8
Geo
100
AcDbLine
10
-79.5218097447794
20
4.81310938879897
30
0.000000000000000
11
-79.4218097447794
21
4.76900090600113
31
0.000000000000000
  0
LINE
  5
F106F4
330
F106F5
100
AcDbEntity
8
Geo
100
AcDbLine
10
-79.4218097447794
20
-0.216433573054198
30
0.000000000000000
11
-79.3218097447794
21
-0.360474717682895
31
0.000000000000000
  0
LINE
  5
F106F6
330
F106F7
100
AcDbEntity
8
Geo
100
AcDbLine
10
-79.4218097447794
20
4.76900090600113
30
0.000000000000000
11
-79.3218097447794
21
4.71931284435731
31
0.000000000000000
  0
LINE
  5
F106F8
330
F106F9
100
AcDbEntity
8
Geo
100
AcDbLine
10
-79.3218097447794
20
-0.360474717682895
30
0.000000000000000
11
-79.2218097447794
21
-0.502497156140747
31
0.000000000000000
  0
LINE
  5
F106FA
330
F106FB
100
AcDbEntity
8
Geo
100
AcDbLine
10
-79.3218097447794
20
4.71931284435731
30
0.000000000000000
11
-79.2218097447794
21
4.66411880672323
31
0.000000000000000
  0
LINE
  5
F106FC
330
F106FD
100
AcDbEntity
8
Geo
100
AcDbLine
10
-79.2218097447794
20
-0.502497156140747
30
0.000000000000000
11
-79.1218097447794
21
-0.642290510789692
31
0.000000000000000
  0
LINE
  5
F106FE
330
F106FF
100
AcDbEntity
8
Geo
100
AcDbLine
10
-79.2218097447794
20
4.66411880672323
30
0.000000000000000
11
-79.1218097447794
21
4.60350055194911
31
0.000000000000000
  0
LINE
  5
F10700
330
F10701
100
AcDbEntity
8
Geo
100
AcDbLine
10
-79.1218097447794
20
-0.642290510789692
30
0.000000000000000
11
-79.0218097447794
21
-0.779647705930382
31
0.000000000000000
  0
LINE
  5
F10702
330
F10703
100
AcDbEntity
8
Geo
100
AcDbLine
10
-79.1218097447794
20
4.60350055194911
30
0.000000000000000
11
-79.0218097447794
21
4.53754787377037
31
0.000000000000000
  0
LINE
  5
F10704
330
F10705
100
AcDbEntity
8
Geo
100
AcDbLine
10
-79.0218097447794
20
-0.779647705930382
30
0.000000000000000
11
-78.9218097447794
21
-0.914365274543110
31
0.000000000000000
  0
LINE
  5
F10706
330
F10707
100
AcDbEntity
8
Geo
100
AcDbLine
10
-79.0218097447794
20
4.53754787377037
30
0.000000000000000
11
-78.9218097447794
21
4.46635846779630
31
0.000000000000000
  0
LINE
  5
F10708
330
F10709
100
AcDbEntity
8
Geo
100
AcDbLine
10
-78.9218097447794
20
-0.914365274543110
30
0.000000000000000
11
-78.8218097447794
21
-1.04624365968323
31
0.000000000000000
  0
LINE
  5
F1070A
330
F1070B
100
AcDbEntity
8
Geo
100
AcDbLine
10
-78.9218097447794
20
4.46635846779630
30
0.000000000000000
11
-78.8218097447794
21
4.39003778679371
31
0.000000000000000
  0
LINE
  5
F1070C
330
F1070D
100
AcDbEntity
8
Geo
100
AcDbLine
10
-78.8218097447794
20
-1.04624365968323
30
0.000000000000000
11
-78.7218097447794
21
-1.17508751008459
31
0.000000000000000
  0
LINE
  5
F1070E
330
F1070F
100
AcDbEntity
8
Geo
100
AcDbLine
10
-78.8218097447794
20
4.39003778679371
30
0.000000000000000
11
-78.7218097447794
21
4.30869888447987
31
0.000000000000000
  0
LINE
  5
F10710
330
F10711
100
AcDbEntity
8
Geo
100
AcDbLine
10
-78.7218097447794
20
-1.17508751008459
30
0.000000000000000
11
-78.6218097447794
21
-1.30070596953304
31
0.000000000000000
  0
LINE
  5
F10712
330
F10713
100
AcDbEntity
8
Geo
100
AcDbLine
10
-78.7218097447794
20
4.30869888447987
30
0.000000000000000
11
-78.6218097447794
21
4.22246224805623
31
0.000000000000000
  0
LINE
  5
F10714
330
F10715
100
AcDbEntity
8
Geo
100
AcDbLine
10
-78.6218097447794
20
-1.30070596953304
30
0.000000000000000
11
-78.5218097447794
21
-1.42291295958153
31
0.000000000000000
  0
LINE
  5
F10716
330
F10717
100
AcDbEntity
8
Geo
100
AcDbLine
10
-78.6218097447794
20
4.22246224805623
30
0.000000000000000
11
-78.5218097447794
21
4.13145561973085
31
0.000000000000000
  0
LINE
  5
F10718
330
F10719
100
AcDbEntity
8
Geo
100
AcDbLine
10
-78.5218097447794
20
-1.42291295958153
30
0.000000000000000
11
-78.4218097447794
21
-1.54152745518783
31
0.000000000000000
  0
LINE
  5
F1071A
330
F1071B
100
AcDbEntity
8
Geo
100
AcDbLine
10
-78.5218097447794
20
4.13145561973085
30
0.000000000000000
11
-78.4218097447794
21
4.03581380749410
31
0.000000000000000
  0
LINE
  5
F1071C
330
F1071D
100
AcDbEntity
8
Geo
100
AcDbLine
10
-78.4218097447794
20
-1.54152745518783
30
0.000000000000000
11
-78.3218097447794
21
-1.65637375286665
31
0.000000000000000
  0
LINE
  5
F1071E
330
F1071F
100
AcDbEntity
8
Geo
100
AcDbLine
10
-78.4218097447794
20
4.03581380749410
30
0.000000000000000
11
-78.3218097447794
21
3.93567848542774
31
0.000000000000000
  0
LINE
  5
F10720
330
F10721
100
AcDbEntity
8
Geo
100
AcDbLine
10
-78.3218097447794
20
-1.65637375286665
30
0.000000000000000
11
-78.2218097447794
21
-1.76728173095899
31
0.000000000000000
  0
LINE
  5
F10722
330
F10723
100
AcDbEntity
8
Geo
100
AcDbLine
10
-78.3218097447794
20
3.93567848542774
30
0.000000000000000
11
-78.2218097447794
21
3.83119798384331
31
0.000000000000000
  0
LINE
  5
F10724
330
F10725
100
AcDbEntity
8
Geo
100
AcDbLine
10
-78.2218097447794
20
-1.76728173095899
30
0.000000000000000
11
-78.1218097447794
21
-1.87408710163312
31
0.000000000000000
  0
LINE
  5
F10726
330
F10727
100
AcDbEntity
8
Geo
100
AcDbLine
10
-78.2218097447794
20
3.83119798384331
30
0.000000000000000
11
-78.1218097447794
21
3.72252706956065
31
0.000000000000000
  0
LINE
  5
F10728
330
F10729
100
AcDbEntity
8
Geo
100
AcDbLine
10
-78.1218097447794
20
-1.87408710163312
30
0.000000000000000
11
-78.0218097447794
21
-1.97663165424388
31
0.000000000000000
  0
LINE
  5
F1072A
330
F1072B
100
AcDbEntity
8
Geo
100
AcDbLine
10
-78.1218097447794
20
3.72252706956065
30
0.000000000000000
11
-78.0218097447794
21
3.60982671665204
31
0.000000000000000
  0
LINE
  5
F1072C
330
F1072D
100
AcDbEntity
8
Geo
100
AcDbLine
10
-78.0218097447794
20
-1.97663165424388
30
0.000000000000000
11
-77.9218097447794
21
-2.07476348968992
31
0.000000000000000
  0
LINE
  5
F1072E
330
F1072F
100
AcDbEntity
8
Geo
100
AcDbLine
10
-78.0218097447794
20
3.60982671665204
30
0.000000000000000
11
-77.9218097447794
21
3.49326386799151
31
0.000000000000000
  0
LINE
  5
F10730
330
F10731
100
AcDbEntity
8
Geo
100
AcDbLine
10
-77.9218097447794
20
-2.07476348968992
30
0.000000000000000
11
-77.8218097447794
21
-2.16833724542160
31
0.000000000000000
  0
LINE
  5
F10732
330
F10733
100
AcDbEntity
8
Geo
100
AcDbLine
10
-77.9218097447794
20
3.49326386799151
30
0.000000000000000
11
-77.8218097447794
21
3.37301118796261
31
0.000000000000000
  0
LINE
  5
F10734
330
F10735
100
AcDbEntity
8
Geo
100
AcDbLine
10
-77.8218097447794
20
-2.16833724542160
30
0.000000000000000
11
-77.7218097447794
21
-2.25721431076635
31
0.000000000000000
  0
LINE
  5
F10736
330
F10737
100
AcDbEntity
8
Geo
100
AcDbLine
10
-77.8218097447794
20
3.37301118796261
30
0.000000000000000
11
-77.7218097447794
21
3.24924680669089
31
0.000000000000000
  0
LINE
  5
F10738
330
F10739
100
AcDbEntity
8
Geo
100
AcDbLine
10
-77.7218097447794
20
-2.25721431076635
30
0.000000000000000
11
-77.6218097447794
21
-2.34126303225246
31
0.000000000000000
  0
LINE
  5
F1073A
330
F1073B
100
AcDbEntity
8
Geo
100
AcDbLine
10
-77.7218097447794
20
3.24924680669089
30
0.000000000000000
11
-77.6218097447794
21
3.12215405618003
31
0.000000000000000
  0
LINE
  5
F1073C
330
F1073D
100
AcDbEntity
8
Geo
100
AcDbLine
10
-77.6218097447794
20
-2.34126303225246
30
0.000000000000000
11
-77.5218097447794
21
-2.42035890862715
31
0.000000000000000
  0
LINE
  5
F1073E
330
F1073F
100
AcDbEntity
8
Geo
100
AcDbLine
10
-77.6218097447794
20
3.12215405618003
30
0.000000000000000
11
-77.5218097447794
21
2.99192119874234
31
0.000000000000000
  0
LINE
  5
F10740
330
F10741
100
AcDbEntity
8
Geo
100
AcDbLine
10
-77.5218097447794
20
-2.42035890862715
30
0.000000000000000
11
-77.4218097447794
21
-2.49438477528017
31
0.000000000000000
  0
LINE
  5
F10742
330
F10743
100
AcDbEntity
8
Geo
100
AcDbLine
10
-77.5218097447794
20
2.99192119874234
30
0.000000000000000
11
-77.4218097447794
21
2.85874114812613
31
0.000000000000000
  0
LINE
  5
F10744
330
F10745
100
AcDbEntity
8
Geo
100
AcDbLine
10
-77.4218097447794
20
-2.49438477528017
30
0.000000000000000
11
-77.3218097447794
21
-2.56323097779950
31
0.000000000000000
  0
LINE
  5
F10746
330
F10747
100
AcDbEntity
8
Geo
100
AcDbLine
10
-77.4218097447794
20
2.85874114812613
30
0.000000000000000
11
-77.3218097447794
21
2.72281118375281
31
0.000000000000000
  0
LINE
  5
F10748
330
F10749
100
AcDbEntity
8
Geo
100
AcDbLine
10
-77.3218097447794
20
-2.56323097779950
30
0.000000000000000
11
-77.2218097447794
21
-2.62679553440231
31
0.000000000000000
  0
LINE
  5
F1074A
330
F1074B
100
AcDbEntity
8
Geo
100
AcDbLine
10
-77.3218097447794
20
2.72281118375281
30
0.000000000000000
11
-77.2218097447794
21
2.58433265848714
31
0.000000000000000
  0
LINE
  5
F1074C
330
F1074D
100
AcDbEntity
8
Geo
100
AcDbLine
10
-77.2218097447794
20
-2.62679553440231
30
0.000000000000000
11
-77.1218097447794
21
-2.68498428700043
31
0.000000000000000
  0
LINE
  5
F1074E
330
F1074F
100
AcDbEntity
8
Geo
100
AcDbLine
10
-77.2218097447794
20
2.58433265848714
30
0.000000000000000
11
-77.1218097447794
21
2.44351070037357
31
0.000000000000000
  0
LINE
  5
F10750
330
F10751
100
AcDbEntity
8
Geo
100
AcDbLine
10
-77.1218097447794
20
-2.68498428700043
30
0.000000000000000
11
-77.0218097447794
21
-2.73771104067659
31
0.000000000000000
  0
LINE
  5
F10752
330
F10753
100
AcDbEntity
8
Geo
100
AcDbLine
10
-77.1218097447794
20
2.44351070037357
30
0.000000000000000
11
-77.0218097447794
21
2.30055390878031
31
0.000000000000000
  0
LINE
  5
F10754
330
F10755
100
AcDbEntity
8
Geo
100
AcDbLine
10
-77.0218097447794
20
-2.73771104067659
30
0.000000000000000
11
-76.9218097447794
21
-2.78489769136484
31
0.000000000000000
  0
LINE
  5
F10756
330
F10757
100
AcDbEntity
8
Geo
100
AcDbLine
10
-77.0218097447794
20
2.30055390878031
30
0.000000000000000
11
-76.9218097447794
21
2.15567404540140
31
0.000000000000000
  0
LINE
  5
F10758
330
F10759
100
AcDbEntity
8
Geo
100
AcDbLine
10
-76.9218097447794
20
-2.78489769136484
30
0.000000000000000
11
-76.8218097447794
21
-2.82647434154597
31
0.000000000000000
  0
LINE
  5
F1075A
330
F1075B
100
AcDbEntity
8
Geo
100
AcDbLine
10
-76.9218097447794
20
2.15567404540140
30
0.000000000000000
11
-76.8218097447794
21
2.00908572057441
31
0.000000000000000
  0
LINE
  5
F1075C
330
F1075D
100
AcDbEntity
8
Geo
100
AcDbLine
10
-76.8218097447794
20
-2.82647434154597
30
0.000000000000000
11
-76.7218097447794
21
-2.86237940378662
31
0.000000000000000
  0
LINE
  5
F1075E
330
F1075F
100
AcDbEntity
8
Geo
100
AcDbLine
10
-76.8218097447794
20
2.00908572057441
30
0.000000000000000
11
-76.7218097447794
21
1.86100607537846
31
0.000000000000000
  0
LINE
  5
F10760
330
F10761
100
AcDbEntity
8
Geo
100
AcDbLine
10
-76.7218097447794
20
-2.86237940378662
30
0.000000000000000
11
-76.6218097447794
21
-2.89255969196868
31
0.000000000000000
  0
LINE
  5
F10762
330
F10763
100
AcDbEntity
8
Geo
100
AcDbLine
10
-76.7218097447794
20
1.86100607537846
30
0.000000000000000
11
-76.6218097447794
21
1.71165445998340
31
0.000000000000000
  0
LINE
  5
F10764
330
F10765
100
AcDbEntity
8
Geo
100
AcDbLine
10
-76.6218097447794
20
-2.89255969196868
30
0.000000000000000
11
-76.5218097447794
21
-2.91697050007375
31
0.000000000000000
  0
LINE
  5
F10766
330
F10767
100
AcDbEntity
8
Geo
100
AcDbLine
10
-76.6218097447794
20
1.71165445998340
30
0.000000000000000
11
-76.5218097447794
21
1.56125210872676
31
0.000000000000000
  0
LINE
  5
F10768
330
F10769
100
AcDbEntity
8
Geo
100
AcDbLine
10
-76.5218097447794
20
-2.91697050007375
30
0.000000000000000
11
-76.4218097447794
21
-2.93557566840618
31
0.000000000000000
  0
LINE
  5
F1076A
330
F1076B
100
AcDbEntity
8
Geo
100
AcDbLine
10
-76.5218097447794
20
1.56125210872676
30
0.000000000000000
11
-76.4218097447794
21
1.41002181239964
31
0.000000000000000
  0
LINE
  5
F1076C
330
F1076D
100
AcDbEntity
8
Geo
100
AcDbLine
10
-76.4218097447794
20
-2.93557566840618
30
0.000000000000000
11
-76.3218097447794
21
-2.94834763715632
31
0.000000000000000
  0
LINE
  5
F1076E
330
F1076F
100
AcDbEntity
8
Geo
100
AcDbLine
10
-76.4218097447794
20
1.41002181239964
30
0.000000000000000
11
-76.3218097447794
21
1.25818758822699
31
0.000000000000000
  0
LINE
  5
F10770
330
F10771
100
AcDbEntity
8
Geo
100
AcDbLine
10
-76.3218097447794
20
-2.94834763715632
30
0.000000000000000
11
-76.2218097447794
21
-2.95526748722484
31
0.000000000000000
  0
LINE
  5
F10772
330
F10773
100
AcDbEntity
8
Geo
100
AcDbLine
10
-76.3218097447794
20
1.25818758822699
30
0.000000000000000
11
-76.2218097447794
21
1.10597434803122
31
0.000000000000000
  0
LINE
  5
F10774
330
F10775
100
AcDbEntity
8
Geo
100
AcDbLine
10
-76.2218097447794
20
1.10597434803122
30
0.000000000000000
11
-76.1218097447794
21
0.953607565070653
31
0.000000000000000
  0
LINE
  5
F10776
330
F10777
100
AcDbEntity
8
Geo
100
AcDbLine
10
-76.1218097447794
20
4.96096533947741
30
0.000000000000000
11
-76.0218097447794
21
4.95615888500924
31
0.000000000000000
  0
LINE
  5
F10778
330
F10779
100
AcDbEntity
8
Geo
100
AcDbLine
10
-76.1218097447794
20
0.953607565070653
30
0.000000000000000
11
-76.0218097447794
21
0.801312940046291
31
0.000000000000000
  0
LINE
  5
F1077A
330
F1077B
100
AcDbEntity
8
Geo
100
AcDbLine
10
-76.0218097447794
20
4.95615888500924
30
0.000000000000000
11
-75.9218097447794
21
4.94549561484439
31
0.000000000000000
  0
LINE
  5
F1077C
330
F1077D
100
AcDbEntity
8
Geo
100
AcDbLine
10
-76.0218097447794
20
0.801312940046291
30
0.000000000000000
11
-75.9218097447794
21
0.649316066771679
31
0.000000000000000
  0
LINE
  5
F1077E
330
F1077F
100
AcDbEntity
8
Geo
100
AcDbLine
10
-75.9218097447794
20
4.94549561484439
30
0.000000000000000
11
-75.8218097447794
21
4.92899132446992
31
0.000000000000000
  0
LINE
  5
F10780
330
F10781
100
AcDbEntity
8
Geo
100
AcDbLine
10
-75.9218097447794
20
0.649316066771679
30
0.000000000000000
11
-75.8218097447794
21
0.497842098001130
31
0.000000000000000
  0
LINE
  5
F10782
330
F10783
100
AcDbEntity
8
Geo
100
AcDbLine
10
-75.8218097447794
20
4.92899132446992
30
0.000000000000000
11
-75.7218097447794
21
4.90667046166793
31
0.000000000000000
  0
LINE
  5
F10784
330
F10785
100
AcDbEntity
8
Geo
100
AcDbLine
10
-75.8218097447794
20
0.497842098001130
30
0.000000000000000
11
-75.7218097447794
21
0.347115411911239
31
0.000000000000000
  0
LINE
  5
F10786
330
F10787
100
AcDbEntity
8
Geo
100
AcDbLine
10
-75.7218097447794
20
4.90667046166793
30
0.000000000000000
11
-75.6218097447794
21
4.87856609030104
31
0.000000000000000
  0
LINE
  5
F10788
330
F10789
100
AcDbEntity
8
Geo
100
AcDbLine
10
-75.7218097447794
20
0.347115411911239
30
0.000000000000000
11
-75.6218097447794
21
0.197359279729822
31
0.000000000000000
  0
LINE
  5
F1078A
330
F1078B
100
AcDbEntity
8
Geo
100
AcDbLine
10
-75.6218097447794
20
4.87856609030104
30
0.000000000000000
11
-75.5218097447794
21
4.84471984133499
31
0.000000000000000
  0
LINE
  5
F1078C
330
F1078D
100
AcDbEntity
8
Geo
100
AcDbLine
10
-75.6218097447794
20
0.197359279729822
30
0.000000000000000
11
-75.5218097447794
21
0.0487955350045572
31
0.000000000000000
  0
LINE
  5
F1078E
330
F1078F
100
AcDbEntity
8
Geo
100
AcDbLine
10
-75.5218097447794
20
4.84471984133499
30
0.000000000000000
11
-75.4218097447794
21
4.80518185117068
31
0.000000000000000
  0
LINE
  5
F10790
330
F10791
100
AcDbEntity
8
Geo
100
AcDbLine
10
-75.5218097447794
20
0.0487955350045572
30
0.000000000000000
11
-75.4218097447794
21
-0.0983557549987359
31
0.000000000000000
  0
LINE
  5
F10792
330
F10793
100
AcDbEntity
8
Geo
100
AcDbLine
10
-75.4218097447794
20
4.80518185117068
30
0.000000000000000
11
-75.3218097447794
21
4.76001068737728
31
0.000000000000000
  0
LINE
  5
F10794
330
F10795
100
AcDbEntity
8
Geo
100
AcDbLine
10
-75.4218097447794
20
-0.0983557549987359
30
0.000000000000000
11
-75.3218097447794
21
-0.243876615281429
31
0.000000000000000
  0
LINE
  5
F10796
330
F10797
100
AcDbEntity
8
Geo
100
AcDbLine
10
-75.3218097447794
20
4.76001068737728
30
0.000000000000000
11
-75.2218097447794
21
4.70927326193607
31
0.000000000000000
  0
LINE
  5
F10798
330
F10799
100
AcDbEntity
8
Geo
100
AcDbLine
10
-75.3218097447794
20
-0.243876615281429
30
0.000000000000000
11
-75.2218097447794
21
-0.387551485998141
31
0.000000000000000
  0
LINE
  5
F1079A
330
F1079B
100
AcDbEntity
8
Geo
100
AcDbLine
10
-75.2218097447794
20
4.70927326193607
30
0.000000000000000
11
-75.1218097447794
21
4.65304473212391
31
0.000000000000000
  0
LINE
  5
F1079C
330
F1079D
100
AcDbEntity
8
Geo
100
AcDbLine
10
-75.2218097447794
20
-0.387551485998141
30
0.000000000000000
11
-75.1218097447794
21
-0.529167541765237
31
0.000000000000000
  0
LINE
  5
F1079E
330
F1079F
100
AcDbEntity
8
Geo
100
AcDbLine
10
-75.1218097447794
20
4.65304473212391
30
0.000000000000000
11
-75.0218097447794
21
4.59140838918282
31
0.000000000000000
  0
LINE
  5
F107A0
330
F107A1
100
AcDbEntity
8
Geo
100
AcDbLine
10
-75.1218097447794
20
-0.529167541765237
30
0.000000000000000
11
-75.0218097447794
21
-0.668515006918766
31
0.000000000000000
  0
LINE
  5
F107A2
330
F107A3
100
AcDbEntity
8
Geo
100
AcDbLine
10
-75.0218097447794
20
4.59140838918282
30
0.000000000000000
11
-74.9218097447794
21
4.52445553494078
31
0.000000000000000
  0
LINE
  5
F107A4
330
F107A5
100
AcDbEntity
8
Geo
100
AcDbLine
10
-75.0218097447794
20
-0.668515006918766
30
0.000000000000000
11
-74.9218097447794
21
-0.805387466254857
31
0.000000000000000
  0
LINE
  5
F107A6
330
F107A7
100
AcDbEntity
8
Geo
100
AcDbLine
10
-74.9218097447794
20
4.52445553494078
30
0.000000000000000
11
-74.8218097447794
21
4.45228534656648
31
0.000000000000000
  0
LINE
  5
F107A8
330
F107A9
100
AcDbEntity
8
Geo
100
AcDbLine
10
-74.9218097447794
20
-0.805387466254857
30
0.000000000000000
11
-74.8218097447794
21
-0.939582170792274
31
0.000000000000000
  0
LINE
  5
F107AA
330
F107AB
100
AcDbEntity
8
Geo
100
AcDbLine
10
-74.8218097447794
20
4.45228534656648
30
0.000000000000000
11
-74.7218097447794
21
4.37500472965832
31
0.000000000000000
  0
LINE
  5
F107AC
330
F107AD
100
AcDbEntity
8
Geo
100
AcDbLine
10
-74.8218097447794
20
-0.939582170792274
30
0.000000000000000
11
-74.7218097447794
21
-1.07090033810419
31
0.000000000000000
  0
LINE
  5
F107AE
330
F107AF
100
AcDbEntity
8
Geo
100
AcDbLine
10
-74.7218097447794
20
4.37500472965832
30
0.000000000000000
11
-74.6218097447794
21
4.29272815988527
31
0.000000000000000
  0
LINE
  5
F107B0
330
F107B1
100
AcDbEntity
8
Geo
100
AcDbLine
10
-74.7218097447794
20
-1.07090033810419
30
0.000000000000000
11
-74.6218097447794
21
-1.19914744677431
31
0.000000000000000
  0
LINE
  5
F107B2
330
F107B3
100
AcDbEntity
8
Geo
100
AcDbLine
10
-74.6218097447794
20
4.29272815988527
30
0.000000000000000
11
-74.5218097447794
21
4.20557751341427
31
0.000000000000000
  0
LINE
  5
F107B4
330
F107B5
100
AcDbEntity
8
Geo
100
AcDbLine
10
-74.6218097447794
20
-1.19914744677431
30
0.000000000000000
11
-74.5218097447794
21
-1.32413352454120
31
0.000000000000000
  0
LINE
  5
F107B6
330
F107B7
100
AcDbEntity
8
Geo
100
AcDbLine
10
-74.5218097447794
20
4.20557751341427
30
0.000000000000000
11
-74.4218097447794
21
4.11368188637517
31
0.000000000000000
  0
LINE
  5
F107B8
330
F107B9
100
AcDbEntity
8
Geo
100
AcDbLine
10
-74.5218097447794
20
-1.32413352454120
30
0.000000000000000
11
-74.4218097447794
21
-1.44567342970390
31
0.000000000000000
  0
LINE
  5
F107BA
330
F107BB
100
AcDbEntity
8
Geo
100
AcDbLine
10
-74.4218097447794
20
4.11368188637517
30
0.000000000000000
11
-74.3218097447794
21
4.01717740363088
31
0.000000000000000
  0
LINE
  5
F107BC
330
F107BD
100
AcDbEntity
8
Geo
100
AcDbLine
10
-74.4218097447794
20
-1.44567342970390
30
0.000000000000000
11
-74.3218097447794
21
-1.56358712537207
31
0.000000000000000
  0
LINE
  5
F107BE
330
F107BF
100
AcDbEntity
8
Geo
100
AcDbLine
10
-74.3218097447794
20
4.01717740363088
30
0.000000000000000
11
-74.2218097447794
21
3.91620701713578
31
0.000000000000000
  0
LINE
  5
F107C0
330
F107C1
100
AcDbEntity
8
Geo
100
AcDbLine
10
-74.3218097447794
20
-1.56358712537207
30
0.000000000000000
11
-74.2218097447794
21
-1.67769994615438
31
0.000000000000000
  0
LINE
  5
F107C2
330
F107C3
100
AcDbEntity
8
Geo
100
AcDbLine
10
-74.2218097447794
20
3.91620701713578
30
0.000000000000000
11
-74.1218097447794
21
3.81092029418117
31
0.000000000000000
  0
LINE
  5
F107C4
330
F107C5
100
AcDbEntity
8
Geo
100
AcDbLine
10
-74.2218097447794
20
-1.67769994615438
30
0.000000000000000
11
-74.1218097447794
21
-1.78784285689013
31
0.000000000000000
  0
LINE
  5
F107C6
330
F107C7
100
AcDbEntity
8
Geo
100
AcDbLine
10
-74.1218097447794
20
3.81092029418117
30
0.000000000000000
11
-74.0218097447794
21
3.70147319584147
31
0.000000000000000
  0
LINE
  5
F107C8
330
F107C9
100
AcDbEntity
8
Geo
100
AcDbLine
10
-74.1218097447794
20
-1.78784285689013
30
0.000000000000000
11
-74.0218097447794
21
-1.89385270304079
31
0.000000000000000
  0
LINE
  5
F107CA
330
F107CB
100
AcDbEntity
8
Geo
100
AcDbLine
10
-74.0218097447794
20
3.70147319584147
30
0.000000000000000
11
-73.9218097447794
21
3.58802784594931
31
0.000000000000000
  0
LINE
  5
F107CC
330
F107CD
100
AcDbEntity
8
Geo
100
AcDbLine
10
-74.0218097447794
20
-1.89385270304079
30
0.000000000000000
11
-73.9218097447794
21
-1.99557245237055
31
0.000000000000000
  0
LINE
  5
F107CE
330
F107CF
100
AcDbEntity
8
Geo
100
AcDbLine
10
-73.9218097447794
20
3.58802784594931
30
0.000000000000000
11
-73.8218097447794
21
3.47075229094169
31
0.000000000000000
  0
LINE
  5
F107D0
330
F107D1
100
AcDbEntity
8
Geo
100
AcDbLine
10
-73.9218097447794
20
-1.99557245237055
30
0.000000000000000
11
-73.8218097447794
21
-2.09285142755801
31
0.000000000000000
  0
LINE
  5
F107D2
330
F107D3
100
AcDbEntity
8
Geo
100
AcDbLine
10
-73.8218097447794
20
3.47075229094169
30
0.000000000000000
11
-73.7218097447794
21
3.34982025093308
31
0.000000000000000
  0
LINE
  5
F107D4
330
F107D5
100
AcDbEntity
8
Geo
100
AcDbLine
10
-73.8218097447794
20
-2.09285142755801
30
0.000000000000000
11
-73.7218097447794
21
-2.18554552939421
31
0.000000000000000
  0
LINE
  5
F107D6
330
F107D7
100
AcDbEntity
8
Geo
100
AcDbLine
10
-73.7218097447794
20
3.34982025093308
30
0.000000000000000
11
-73.6218097447794
21
3.22541086238401
31
0.000000000000000
  0
LINE
  5
F107D8
330
F107D9
100
AcDbEntity
8
Geo
100
AcDbLine
10
-73.7218097447794
20
-2.18554552939421
30
0.000000000000000
11
-73.6218097447794
21
-2.27351745023668
31
0.000000000000000
  0
LINE
  5
F107DA
330
F107DB
100
AcDbEntity
8
Geo
100
AcDbLine
10
-73.6218097447794
20
3.22541086238401
30
0.000000000000000
11
-73.5218097447794
21
3.09770841274652
31
0.000000000000000
  0
LINE
  5
F107DC
330
F107DD
100
AcDbEntity
8
Geo
100
AcDbLine
10
-73.6218097447794
20
-2.27351745023668
30
0.000000000000000
11
-73.5218097447794
21
-2.35663687740296
31
0.000000000000000
  0
LINE
  5
F107DE
330
F107DF
100
AcDbEntity
8
Geo
100
AcDbLine
10
-73.5218097447794
20
3.09770841274652
30
0.000000000000000
11
-73.4218097447794
21
2.96690206747941
31
0.000000000000000
  0
LINE
  5
F107E0
330
F107E1
100
AcDbEntity
8
Geo
100
AcDbLine
10
-73.5218097447794
20
-2.35663687740296
30
0.000000000000000
11
-73.4218097447794
21
-2.43478068620267
31
0.000000000000000
  0
LINE
  5
F107E2
330
F107E3
100
AcDbEntity
8
Geo
100
AcDbLine
10
-73.4218097447794
20
2.96690206747941
30
0.000000000000000
11
-73.3218097447794
21
2.83318558983767
31
0.000000000000000
  0
LINE
  5
F107E4
330
F107E5
100
AcDbEntity
8
Geo
100
AcDbLine
10
-73.4218097447794
20
-2.43478068620267
30
0.000000000000000
11
-73.3218097447794
21
-2.50783312232189
31
0.000000000000000
  0
LINE
  5
F107E6
330
F107E7
100
AcDbEntity
8
Geo
100
AcDbLine
10
-73.3218097447794
20
2.83318558983767
30
0.000000000000000
11
-73.2218097447794
21
2.69675705385131
31
0.000000000000000
  0
LINE
  5
F107E8
330
F107E9
100
AcDbEntity
8
Geo
100
AcDbLine
10
-73.3218097447794
20
-2.50783312232189
30
0.000000000000000
11
-73.2218097447794
21
-2.57568597328988
31
0.000000000000000
  0
LINE
  5
F107EA
330
F107EB
100
AcDbEntity
8
Geo
100
AcDbLine
10
-73.2218097447794
20
2.69675705385131
30
0.000000000000000
11
-73.1218097447794
21
2.55781855091854
31
0.000000000000000
  0
LINE
  5
F107EC
330
F107ED
100
AcDbEntity
8
Geo
100
AcDbLine
10
-73.2218097447794
20
-2.57568597328988
30
0.000000000000000
11
-73.1218097447794
21
-2.63823872877408
31
0.000000000000000
  0
LINE
  5
F107EE
330
F107EF
100
AcDbEntity
8
Geo
100
AcDbLine
10
-73.1218097447794
20
2.55781855091854
30
0.000000000000000
11
-73.0218097447794
21
2.41657589044806
31
0.000000000000000
  0
LINE
  5
F107F0
330
F107F1
100
AcDbEntity
8
Geo
100
AcDbLine
10
-73.1218097447794
20
-2.63823872877408
30
0.000000000000000
11
-73.0218097447794
21
-2.69539872946589
31
0.000000000000000
  0
LINE
  5
F107F2
330
F107F3
100
AcDbEntity
8
Geo
100
AcDbLine
10
-73.0218097447794
20
2.41657589044806
30
0.000000000000000
11
-72.9218097447794
21
2.27323829499390
31
0.000000000000000
  0
LINE
  5
F107F4
330
F107F5
100
AcDbEntity
8
Geo
100
AcDbLine
10
-73.0218097447794
20
-2.69539872946589
30
0.000000000000000
11
-72.9218097447794
21
-2.74708130433678
31
0.000000000000000
  0
LINE
  5
F107F6
330
F107F7
100
AcDbEntity
8
Geo
100
AcDbLine
10
-72.9218097447794
20
2.27323829499390
30
0.000000000000000
11
-72.8218097447794
21
2.12801809033432
31
0.000000000000000
  0
LINE
  5
F107F8
330
F107F9
100
AcDbEntity
8
Geo
100
AcDbLine
10
-72.9218097447794
20
-2.74708130433678
30
0.000000000000000
11
-72.8218097447794
21
-2.79320989606140
31
0.000000000000000
  0
LINE
  5
F107FA
330
F107FB
100
AcDbEntity
8
Geo
100
AcDbLine
10
-72.8218097447794
20
2.12801809033432
30
0.000000000000000
11
-72.7218097447794
21
1.98113039095395
31
0.000000000000000
  0
LINE
  5
F107FC
330
F107FD
100
AcDbEntity
8
Geo
100
AcDbLine
10
-72.8218097447794
20
-2.79320989606140
30
0.000000000000000
11
-72.7218097447794
21
-2.83371617442178
31
0.000000000000000
  0
LINE
  5
F107FE
330
F107FF
100
AcDbEntity
8
Geo
100
AcDbLine
10
-72.7218097447794
20
1.98113039095395
30
0.000000000000000
11
-72.6218097447794
21
1.83279278139501
31
0.000000000000000
  0
LINE
  5
F10800
330
F10801
100
AcDbEntity
8
Geo
100
AcDbLine
10
-72.7218097447794
20
-2.83371617442178
30
0.000000000000000
11
-72.6218097447794
21
-2.86854013752485
31
0.000000000000000
  0
LINE
  5
F10802
330
F10803
100
AcDbEntity
8
Geo
100
AcDbLine
10
-72.6218097447794
20
1.83279278139501
30
0.000000000000000
11
-72.5218097447794
21
1.68322499394960
31
0.000000000000000
  0
LINE
  5
F10804
330
F10805
100
AcDbEntity
8
Geo
100
AcDbLine
10
-72.6218097447794
20
-2.86854013752485
30
0.000000000000000
11
-72.5218097447794
21
-2.89763020068311
31
0.000000000000000
  0
LINE
  5
F10806
330
F10807
100
AcDbEntity
8
Geo
100
AcDbLine
10
-72.5218097447794
20
1.68322499394960
30
0.000000000000000
11
-72.4218097447794
21
1.53264858317062
31
0.000000000000000
  0
LINE
  5
F10808
330
F10809
100
AcDbEntity
8
Geo
100
AcDbLine
10
-72.5218097447794
20
-2.89763020068311
30
0.000000000000000
11
-72.4218097447794
21
-2.92094327282698
31
0.000000000000000
  0
LINE
  5
F1080A
330
F1080B
100
AcDbEntity
8
Geo
100
AcDbLine
10
-72.4218097447794
20
1.53264858317062
30
0.000000000000000
11
-72.3218097447794
21
1.38128659768327
31
0.000000000000000
  0
LINE
  5
F1080C
330
F1080D
100
AcDbEntity
8
Geo
100
AcDbLine
10
-72.4218097447794
20
-2.92094327282698
30
0.000000000000000
11
-72.3218097447794
21
-2.93844482033551
31
0.000000000000000
  0
LINE
  5
F1080E
330
F1080F
100
AcDbEntity
8
Geo
100
AcDbLine
10
-72.3218097447794
20
1.38128659768327
30
0.000000000000000
11
-72.2218097447794
21
1.22936324978347
31
0.000000000000000
  0
LINE
  5
F10810
330
F10811
100
AcDbEntity
8
Geo
100
AcDbLine
10
-72.3218097447794
20
-2.93844482033551
30
0.000000000000000
11
-72.2218097447794
21
-2.95010891819105
31
0.000000000000000
  0
LINE
  5
F10812
330
F10813
100
AcDbEntity
8
Geo
100
AcDbLine
10
-72.2218097447794
20
1.22936324978347
30
0.000000000000000
11
-72.1218097447794
21
1.07710358331250
31
0.000000000000000
  0
LINE
  5
F10814
330
F10815
100
AcDbEntity
8
Geo
100
AcDbLine
10
-72.2218097447794
20
-2.95010891819105
30
0.000000000000000
11
-72.1218097447794
21
-2.95591828838185
31
0.000000000000000
  0
LINE
  5
F10816
330
F10817
100
AcDbEntity
8
Geo
100
AcDbLine
10
-72.1218097447794
20
1.07710358331250
30
0.000000000000000
11
-72.0218097447794
21
0.924733140299843
31
0.000000000000000
  0
LINE
  5
F10818
330
F10819
100
AcDbEntity
8
Geo
100
AcDbLine
10
-72.0218097447794
20
4.96050469672586
30
0.000000000000000
11
-71.9218097447794
21
4.95458748069859
31
0.000000000000000
  0
LINE
  5
F1081A
330
F1081B
100
AcDbEntity
8
Geo
100
AcDbLine
10
-72.0218097447794
20
0.924733140299843
30
0.000000000000000
11
-71.9218097447794
21
0.772477626868137
31
0.000000000000000
  0
LINE
  5
F1081C
330
F1081D
100
AcDbEntity
8
Geo
100
AcDbLine
10
-71.9218097447794
20
4.95458748069859
30
0.000000000000000
11
-71.8218097447794
21
4.94281577669363
31
0.000000000000000
  0
LINE
  5
F1081E
330
F1081F
100
AcDbEntity
8
Geo
100
AcDbLine
10
-71.9218097447794
20
0.772477626868137
30
0.000000000000000
11
-71.8218097447794
21
0.620562578894983
31
0.000000000000000
  0
LINE
  5
F10820
330
F10821
100
AcDbEntity
8
Geo
100
AcDbLine
10
-71.8218097447794
20
4.94281577669363
30
0.000000000000000
11
-71.7218097447794
21
4.92520702211953
31
0.000000000000000
  0
LINE
  5
F10822
330
F10823
100
AcDbEntity
8
Geo
100
AcDbLine
10
-71.8218097447794
20
0.620562578894983
30
0.000000000000000
11
-71.7218097447794
21
0.469213027926984
31
0.000000000000000
  0
LINE
  5
F10824
330
F10825
100
AcDbEntity
8
Geo
100
AcDbLine
10
-71.7218097447794
20
4.92520702211953
30
0.000000000000000
11
-71.6218097447794
21
4.90178730079965
31
0.000000000000000
  0
LINE
  5
F10826
330
F10827
100
AcDbEntity
8
Geo
100
AcDbLine
10
-71.7218097447794
20
0.469213027926984
30
0.000000000000000
11
-71.6218097447794
21
0.318653167840820
31
0.000000000000000
  0
LINE
  5
F10828
330
F10829
100
AcDbEntity
8
Geo
100
AcDbLine
10
-71.6218097447794
20
4.90178730079965
30
0.000000000000000
11
-71.5218097447794
21
4.87259130433419
31
0.000000000000000
  0
LINE
  5
F1082A
330
F1082B
100
AcDbEntity
8
Geo
100
AcDbLine
10
-71.6218097447794
20
0.318653167840820
30
0.000000000000000
11
-71.5218097447794
21
0.169106022745185
31
0.000000000000000
  0
LINE
  5
F1082C
330
F1082D
100
AcDbEntity
8
Geo
100
AcDbLine
10
-71.5218097447794
20
4.87259130433419
30
0.000000000000000
11
-71.4218097447794
21
4.83766228071160
31
0.000000000000000
  0
LINE
  5
F1082E
330
F1082F
100
AcDbEntity
8
Geo
100
AcDbLine
10
-71.5218097447794
20
0.169106022745185
30
0.000000000000000
11
-71.4218097447794
21
0.0207931166154807
31
0.000000000000000
  0
LINE
  5
F10830
330
F10831
100
AcDbEntity
8
Geo
100
AcDbLine
10
-71.4218097447794
20
4.83766228071160
30
0.000000000000000
11
-71.3218097447794
21
4.79705197024538
31
0.000000000000000
  0
LINE
  5
F10832
330
F10833
100
AcDbEntity
8
Geo
100
AcDbLine
10
-71.4218097447794
20
0.0207931166154807
30
0.000000000000000
11
-71.3218097447794
21
-0.126065854849332
31
0.000000000000000
  0
LINE
  5
F10834
330
F10835
100
AcDbEntity
8
Geo
100
AcDbLine
10
-71.3218097447794
20
4.79705197024538
30
0.000000000000000
11
-71.2218097447794
21
4.75082052893121
31
0.000000000000000
  0
LINE
  5
F10836
330
F10837
100
AcDbEntity
8
Geo
100
AcDbLine
10
-71.3218097447794
20
-0.126065854849332
30
0.000000000000000
11
-71.2218097447794
21
-0.271253349661664
31
0.000000000000000
  0
LINE
  5
F10838
330
F10839
100
AcDbEntity
8
Geo
100
AcDbLine
10
-71.2218097447794
20
4.75082052893121
30
0.000000000000000
11
-71.1218097447794
21
4.69903643933801
31
0.000000000000000
  0
LINE
  5
F1083A
330
F1083B
100
AcDbEntity
8
Geo
100
AcDbLine
10
-71.2218097447794
20
-0.271253349661664
30
0.000000000000000
11
-71.1218097447794
21
-0.414554301789936
31
0.000000000000000
  0
LINE
  5
F1083C
330
F1083D
100
AcDbEntity
8
Geo
100
AcDbLine
10
-84.1218097447794
20
1.00232018561491
30
0.000000000000000
11
-84.1218097447794
21
1.00232018561491
31
0.000000000000000
  0
LINE
  5
F1083E
330
F1083F
100
AcDbEntity
8
Geo
100
AcDbLine
10
-84.1218097447794
20
1.00232018561491
30
0.000000000000000
11
-84.1218097447794
21
1.00232018561491
31
0.000000000000000
  0
LINE
  5
F10840
330
F10841
100
AcDbEntity
8
Geo
100
AcDbLine
10
-85.1218097447794
20
1.00232018561491
30
0.000000000000000
11
-84.8218097447794
21
1.00232018561491
31
0.000000000000000
  0
LINE
  5
F10842
330
F10843
100
AcDbEntity
8
Geo
100
AcDbLine
10
-84.6943097447794
20
1.00232018561491
30
0.000000000000000
11
-84.6093097447794
21
1.00232018561491
31
0.000000000000000
  0
LINE
  5
F10844
330
F10845
100
AcDbEntity
8
Geo
100
AcDbLine
10
-84.3968097447794
20
1.00232018561491
30
0.000000000000000
11
-83.9718097447794
21
1.00232018561491
31
0.000000000000000
  0
LINE
  5
F10846
330
F10847
100
AcDbEntity
8
Geo
100
AcDbLine
10
-83.8443097447794
20
1.00232018561491
30
0.000000000000000
11
-83.7593097447794
21
1.00232018561491
31
0.000000000000000
  0
LINE
  5
F10848
330
F10849
100
AcDbEntity
8
Geo
100
AcDbLine
10
-83.5468097447794
20
1.00232018561491
30
0.000000000000000
11
-83.1218097447794
21
1.00232018561491
31
0.000000000000000
  0
LINE
  5
F1084A
330
F1084B
100
AcDbEntity
8
Geo
100
AcDbLine
10
-20.1218097447794
20
4.50232018561491
30
0.000000000000000
11
-20.1218097447794
21
1.00232018561491
31
0.000000000000000
  0
LINE
  5
F1084C
330
F1084D
100
AcDbEntity
8
Geo
100
AcDbLine
10
-84.0176569806030
20
1.00232018561491
30
0.000000000000000
11
-84.1212005717985
21
-1.96278031768259
31
0.000000000000000
  0
ARC
  5
F1084E
330
F1084F
100
AcDbEntity
8
Geo
100
AcDbCircle
10
-83.1218097447794
20
-1.99767981438509
30
0.000000000000000
 40
1.00000000000000
100
AcDbArc
 50
178.000000000000
 51
270.000000000000
  0
LINE
  5
F10850
330
F10851
100
AcDbEntity
8
Geo
100
AcDbLine
10
-83.1218097447794
20
-2.99767981438509
30
0.000000000000000
11
-66.1218097447794
21
-2.99767981438509
31
0.000000000000000
  0
LINE
  5
F10852
330
F10853
100
AcDbEntity
8
Geo
100
AcDbLine
10
-66.1218097447794
20
-2.99767981438509
30
0.000000000000000
11
-66.1218097447794
21
-2.69767981438509
31
0.000000000000000
  0
LINE
  5
F10854
330
F10855
100
AcDbEntity
8
Geo
100
AcDbLine
10
-66.1218097447794
20
-2.69767981438509
30
0.000000000000000
11
-60.1218097447794
21
-2.69767981438509
31
0.000000000000000
  0
LINE
  5
F10856
330
F10857
100
AcDbEntity
8
Geo
100
AcDbLine
10
-60.1218097447794
20
-2.69767981438509
30
0.000000000000000
11
-60.1218097447794
21
-2.99767981438509
31
0.000000000000000
  0
LINE
  5
F10858
330
F10859
100
AcDbEntity
8
Geo
100
AcDbLine
10
-60.1218097447794
20
-2.99767981438509
30
0.000000000000000
11
-20.6218097447794
21
-2.99767981438509
31
0.000000000000000
  0
LINE
  5
F1085A
330
F1085B
100
AcDbEntity
8
Geo
100
AcDbLine
10
-20.6218097447794
20
-2.99767981438509
30
0.000000000000000
11
-20.1218097447794
21
-2.49767981438509
31
0.000000000000000
  0
LINE
  5
F1085C
330
F1085D
100
AcDbEntity
8
Geo
100
AcDbLine
10
-83.1218097447794
20
5.00232018561491
30
0.000000000000000
11
-83.1218097447794
21
-2.99767981438509
31
0.000000000000000
  0
LINE
  5
F1085E
330
F1085F
100
AcDbEntity
8
Geo
100
AcDbLine
10
-83.1218097447794
20
5.00232018561491
30
0.000000000000000
11
-83.1218097447794
21
-2.99767981438509
31
0.000000000000000
  0
LINE
  5
F10860
330
F10861
100
AcDbEntity
8
Geo
100
AcDbLine
10
-66.1218097447794
20
5.00232018561491
30
0.000000000000000
11
-66.1218097447794
21
-2.99767981438509
31
0.000000000000000
  0
LINE
  5
F10862
330
F10863
100
AcDbEntity
8
Geo
100
AcDbLine
10
-66.1218097447794
20
4.70232018561491
30
0.000000000000000
11
-66.1218097447794
21
-2.69767981438509
31
0.000000000000000
  0
LINE
  5
F10864
330
F10865
100
AcDbEntity
8
Geo
100
AcDbLine
10
-60.1218097447794
20
4.70232018561491
30
0.000000000000000
11
-60.1218097447794
21
-2.69767981438509
31
0.000000000000000
  0
LINE
  5
F10866
330
F10867
100
AcDbEntity
8
Geo
100
AcDbLine
10
-60.1218097447794
20
4.70232018561491
30
0.000000000000000
11
-60.1218097447794
21
-2.69767981438509
31
0.000000000000000
  0
LINE
  5
F10868
330
F10869
100
AcDbEntity
8
Geo
100
AcDbLine
10
-20.6218097447794
20
5.00232018561491
30
0.000000000000000
11
-20.6218097447794
21
-2.99767981438509
31
0.000000000000000
  0
LINE
  5
F1086A
330
F1086B
100
AcDbEntity
8
Geo
100
AcDbLine
10
-20.1218097447794
20
4.50232018561491
30
0.000000000000000
11
-20.1218097447794
21
-2.49767981438509
31
0.000000000000000
  0
LWPOLYLINE
  5
F1086C
330
F1086D
100
AcDbEntity
8
Rahmen
100
AcDbPolyline
90
   4
70
   1
43
   0.0
 10
-125.569820154671
 20
102.876004127494
 10
134.287365327452
 20
102.876004127494
 10
134.287365327452
 20
-103.226667707973
 10
-125.569820154671
 20
-103.226667707973
  0
TEXT
  5
F1086E
330
F1086F
 100
AcDbEntity
8
Text
100
AcDbText
10
-124.520951595711
20
-102.726667707973
30
0.000000000000000
40
1.00000000000000
1
ISBESketcher
100
AcDbText
  0
LWPOLYLINE
  5
F10870
330
F10871
100
AcDbEntity
8
Rahmen
100
AcDbPolyline
90
   4
70
   1
43
   0.0
 10
94.4303600870056
 20
-100.080062031096
 10
134.287365327452
 20
-100.080062031096
 10
134.287365327452
 20
-103.226667707973
 10
94.4303600870056
 20
-103.226667707973
  0
TEXT
  5
F10872
330
F10873
 100
AcDbEntity
8
Text
100
AcDbText
10
95.5000000000000
20
-102.036651419219
30
0.000000000000000
40
0.750000000000000
1
Created by:
100
AcDbText
  0
TEXT
  5
F10874
330
F10875
 100
AcDbEntity
8
Text
100
AcDbText
10
120.008937172472
20
-102.036651419219
30
0.000000000000000
40
0.750000000000000
1
nsarkol
100
AcDbText
  0
LWPOLYLINE
  5
F10876
330
F10877
100
AcDbEntity
8
Rahmen
100
AcDbPolyline
90
   4
70
   1
43
   0.0
 10
54.3111377068192
 20
-100.080062031096
 10
94.4303600870056
 20
-100.080062031096
 10
94.4303600870056
 20
-103.226667707973
 10
54.3111377068192
 20
-103.226667707973
  0
TEXT
  5
F10878
330
F10879
 100
AcDbEntity
8
Text
100
AcDbText
10
55.5000000000000
20
-102.036651419219
30
0.000000000000000
40
0.750000000000000
1
Created for:
100
AcDbText
  0
TEXT
  5
F1087A
330
F1087B
 100
AcDbEntity
8
Text
100
AcDbText
10
0.000000000000000
20
0.250000000000000
30
0.000000000000000
40
0.750000000000000
1

100
AcDbText
  0
LWPOLYLINE
  5
F1087C
330
F1087D
100
AcDbEntity
8
Rahmen
100
AcDbPolyline
90
   4
70
   1
43
   0.0
 10
120.914291200724
 20
-97.1956734939585
 10
134.287365327452
 20
-97.1956734939585
 10
134.287365327452
 20
-100.080062031096
 10
120.914291200724
 20
-100.080062031096
  0
TEXT
  5
F1087E
330
F1087F
 100
AcDbEntity
8
Text
100
AcDbText
10
122.166666666667
20
-99.0366514192193
30
0.000000000000000
40
0.750000000000000
1
Pages
100
AcDbText
  0
TEXT
  5
F10880
330
F10881
 100
AcDbEntity
8
Text
100
AcDbText
10
0.000000000000000
20
0.250000000000000
30
0.000000000000000
40
0.750000000000000
1

100
AcDbText
  0
LWPOLYLINE
  5
F10882
330
F10883
100
AcDbEntity
8
Rahmen
100
AcDbPolyline
90
   4
70
   1
43
   0.0
 10
120.914291200724
 20
-94.0490678170811
 10
134.287365327452
 20
-94.0490678170811
 10
134.287365327452
 20
-97.1956734939585
 10
120.914291200724
 20
-97.1956734939585
  0
TEXT
  5
F10884
330
F10885
 100
AcDbEntity
8
Text
100
AcDbText
10
122.166666666667
20
-96.0366514192193
30
0.000000000000000
40
0.750000000000000
1
Page
100
AcDbText
  0
TEXT
  5
F10886
330
F10887
 100
AcDbEntity
8
Text
100
AcDbText
10
0.000000000000000
20
0.250000000000000
30
0.000000000000000
40
0.750000000000000
1

100
AcDbText
  0
LWPOLYLINE
  5
F10888
330
F10889
100
AcDbEntity
8
Rahmen
100
AcDbPolyline
90
   4
70
   1
43
   0.0
 10
54.3111377068192
 20
-94.0490678170811
 10
120.914291200724
 20
-94.0490678170811
 10
120.914291200724
 20
-100.080062031096
 10
54.3111377068192
 20
-100.080062031096
  0
TEXT
  5
F1088A
330
F1088B
 100
AcDbEntity
8
Text
100
AcDbText
10
55.5000000000000
20
-96.0366514192193
30
0.000000000000000
40
0.750000000000000
1
Date:
100
AcDbText
  0
TEXT
  5
F1088C
330
F1088D
 100
AcDbEntity
8
Text
100
AcDbText
10
84.2934019468463
20
-99.0366514192193
30
0.000000000000000
40
0.750000000000000
1
05.07.2016
100
AcDbText
  0
LWPOLYLINE
  5
F1088E
330
F1088F
100
AcDbEntity
8
Rahmen
100
AcDbPolyline
90
   4
70
   1
43
   0.0
 10
54.3111377068192
 20
-88.0180736030662
 10
134.287365327452
 20
-88.0180736030662
 10
134.287365327452
 20
-94.0490678170811
 10
54.3111377068192
 20
-94.0490678170811
  0
TEXT
  5
F10890
330
F10891
 100
AcDbEntity
8
Text
100
AcDbText
10
0.000000000000000
20
0.500000000000000
30
0.000000000000000
40
1.50000000000000
1

100
AcDbText
  0
TEXT
  5
F10892
330
F10893
 100
AcDbEntity
8
Text
100
AcDbText
10
66.3116574779735
20
-92.6577294941946
30
0.000000000000000
40
2.50000000000000
1
VHRS 5 080 064 08 03 100 L
100
AcDbText
  0
LWPOLYLINE
  5
F10894
330
F10895
100
AcDbEntity
8
Rahmen
100
AcDbPolyline
90
   4
70
   1
43
   0.0
 10
94.4303600870056
 20
-82.2492965287910
 10
134.287365327452
 20
-82.2492965287910
 10
134.287365327452
 20
-88.0180736030662
 10
94.4303600870056
 20
-88.0180736030662
  0
TEXT
  5
F10896
330
F10897
 100
AcDbEntity
8
Text
100
AcDbText
10
95.5000000000000
20
-84.0366514192193
30
0.000000000000000
40
0.750000000000000
1
Work piece material:
100
AcDbText
  0
TEXT
  5
F10898
330
F10899
 100
AcDbEntity
8
Text
100
AcDbText
10
0.000000000000000
20
0.250000000000000
30
0.000000000000000
40
0.750000000000000
1

100
AcDbText
  0
LWPOLYLINE
  5
F1089A
330
F1089B
100
AcDbEntity
8
Rahmen
100
AcDbPolyline
90
   4
70
   1
43
   0.0
 10
54.3111377068192
 20
-82.2492965287910
 10
94.4303600870056
 20
-82.2492965287910
 10
94.4303600870056
 20
-88.0180736030662
 10
54.3111377068192
 20
-88.0180736030662
  0
TEXT
  5
F1089C
330
F1089D
 100
AcDbEntity
8
Text
100
AcDbText
10
55.5000000000000
20
-84.0366514192193
30
0.000000000000000
40
0.750000000000000
1
Tool material:
100
AcDbText
  0
TEXT
  5
F1089E
330
F1089F
 100
AcDbEntity
8
Text
100
AcDbText
10
0.000000000000000
20
0.250000000000000
30
0.000000000000000
40
0.750000000000000
1

100
AcDbText
  0
LWPOLYLINE
  5
F108A0
330
F108A1
100
AcDbEntity
8
Rahmen
100
AcDbPolyline
90
   4
70
   1
43
   0.0
 10
94.4303600870056
 20
-79.1026908519136
 10
134.287365327452
 20
-79.1026908519136
 10
134.287365327452
 20
-82.2492965287910
 10
94.4303600870056
 20
-82.2492965287910
  0
TEXT
  5
F108A2
330
F108A3
 100
AcDbEntity
8
Text
100
AcDbText
10
0.000000000000000
20
0.500000000000000
30
0.000000000000000
40
1.50000000000000
1

100
AcDbText
  0
TEXT
  5
F108A4
330
F108A5
 100
AcDbEntity
8
Text
100
AcDbText
10
0.000000000000000
20
0.250000000000000
30
0.000000000000000
40
0.750000000000000
1

100
AcDbText
  0
LWPOLYLINE
  5
F108A6
330
F108A7
100
AcDbEntity
8
Rahmen
100
AcDbPolyline
90
   4
70
   1
43
   0.0
 10
54.3111377068192
 20
-79.1026908519136
 10
94.4303600870056
 20
-79.1026908519136
 10
94.4303600870056
 20
-82.2492965287910
 10
54.3111377068192
 20
-82.2492965287910
  0
TEXT
  5
F108A8
330
F108A9
 100
AcDbEntity
8
Text
100
AcDbText
10
55.5000000000000
20
-81.0366514192193
30
0.000000000000000
40
0.750000000000000
1
Scale:
100
AcDbText
  0
TEXT
  5
F108AA
330
F108AB
 100
AcDbEntity
8
Text
100
AcDbText
10
81.1889143013011
20
-81.0366514192193
30
0.000000000000000
40
0.750000000000000
1
3 : 1
100
AcDbText
0
VIEWPORT
5
294
102
{ACAD_XDICTIONARY
360
58A
102
}
330
25D
100
AcDbEntity
67
1
8
0
60
1
100
AcDbViewport
10
0.0
20
0.0
30
0.0
40
10.0
41
10.0
68
-1
69
1
12
0.0
22
0.0
13
0.0
23
0.0
14
1.0
24
1.0
15
0.0
25
0.0
16
0.0
26
0.0
36
1.0
17
0.0
27
0.0
37
0.0
42
0.0
43
0.0
44
0.0
45
10.0
50
0.0
51
0.0000000000007958
72
100
90
32800
1

281
0
71
0
74
0
110
0.0
120
0.0
130
0.0
111
1.0
121
0.0
131
0.0
112
0.0
122
1.0
132
0.0
79
0
146
0.0
1001
VD_INVISIBLE_NOT_FOR_READ
1000
VD_INVISIBLE_NOT_FOR_READ
0
VIEWPORT
5
295
102
{ACAD_XDICTIONARY
360
58C
102
}
330
25D
100
AcDbEntity
67
1
8
0
60
1
100
AcDbViewport
10
0.0
20
0.0
30
0.0
40
10.0
41
10.0
68
0
69
2
12
0.0
22
0.0
13
0.0
23
0.0
14
1.0
24
1.0
15
0.0
25
0.0
16
0.0
26
0.0
36
1.0
17
0.0
27
0.0
37
0.0
42
0.0
43
0.0
44
0.0
45
10.0
50
0.0
51
0.0000000000007958
72
100
90
163872
1

281
0
71
0
74
0
110
0.0
120
0.0
130
0.0
111
1.0
121
0.0
131
0.0
112
0.0
122
1.0
132
0.0
79
0
146
0.0
1001
VD_INVISIBLE_NOT_FOR_READ
1000
VD_INVISIBLE_NOT_FOR_READ
0
ENDSEC
0
SECTION
2
OBJECTS
0
DICTIONARY
5
13
330
0
100
AcDbDictionary
281
1
3
ACAD_COLOR
350
FA7
3
ACAD_GROUP
350
14
3
ACAD_LAYOUT
350
FCF
3
ACAD_MATERIAL
350
F7A
3
ACAD_MLEADERSTYLE
350
FCD
3
ACAD_MLINESTYLE
350
16
3
ACAD_PLOTSETTINGS
350
17
3
ACAD_PLOTSTYLENAME
350
18
3
ACAD_SCALELIST
350
FAB
3
ACAD_TABLESTYLE
350
FA8
3
ACAD_VISUALSTYLE
350
F93
3
ACDB_RECOMPOSE_DATA
350
107E
3
AcDbVariableDictionary
350
FF0
3
DWGPROPS
350
107F
0
DICTIONARY
5
F10019
330
F10018
100
AcDbDictionary
280
1
281
1
3
ACAD_MTEXT_2008_RT
360
F1001A
0
DICTIONARY
5
F1001E
330
F1001D
100
AcDbDictionary
280
1
281
1
3
ACAD_MTEXT_2008_RT
360
F1001F
0
DICTIONARY
5
F10028
330
F10027
100
AcDbDictionary
280
1
281
1
3
ACAD_MTEXT_2008_RT
360
F10029
0
DICTIONARY
5
F1002D
330
F1002C
100
AcDbDictionary
280
1
281
1
3
ACAD_MTEXT_2008_RT
360
F1002E
0
DICTIONARY
5
F10005
330
F10004
100
AcDbDictionary
280
1
281
1
3
ACAD_MTEXT_2008_RT
360
F10006
0
DICTIONARY
5
F1000F
330
F1000E
100
AcDbDictionary
280
1
281
1
3
ACAD_MTEXT_2008_RT
360
F10010
0
DICTIONARY
5
F1000A
330
F10009
100
AcDbDictionary
280
1
281
1
3
ACAD_MTEXT_2008_RT
360
F1000B
0
DICTIONARY
5
F10014
330
F10013
100
AcDbDictionary
280
1
281
1
3
ACAD_MTEXT_2008_RT
360
F10015
0
DICTIONARY
5
F10023
330
F10022
100
AcDbDictionary
280
1
281
1
3
ACAD_MTEXT_2008_RT
360
F10024
0
DICTIONARY
5
FA7
102
{ACAD_REACTORS
330
13
102
}
330
13
100
AcDbDictionary
281
1
0
DICTIONARY
5
14
330
13
100
AcDbDictionary
281
1
0
DICTIONARY
5
FCF
102
{ACAD_REACTORS
330
13
102
}
330
13
100
AcDbDictionary
281
1
3
Layout1
350
FD1
3
Model
350
FD0
0
DICTIONARY
5
F7A
102
{ACAD_REACTORS
330
13
102
}
330
13
100
AcDbDictionary
281
1
3
ByBlock
350
F83
3
ByLayer
350
F7B
3
Global
350
F8B
0
DICTIONARY
5
FCD
102
{ACAD_REACTORS
330
13
102
}
330
13
100
AcDbDictionary
281
1
3
Standard
350
FCE
0
DICTIONARY
5
16
330
13
100
AcDbDictionary
281
1
3
Standard
350
FAA
0
DICTIONARY
5
17
102
{ACAD_REACTORS
330
13
102
}
330
13
100
AcDbDictionary
281
1
0
ACDBDICTIONARYWDFLT
5
18
102
{ACAD_REACTORS
330
13
102
}
330
13
100
AcDbDictionary
281
1
3
Normal
350
19
100
AcDbDictionaryWithDefault
340
19
0
DICTIONARY
5
FAB
102
{ACAD_REACTORS
330
13
102
}
330
13
100
AcDbDictionary
281
1
3
A0
350
FAC
3
A1
350
FAD
3
A2
350
FAE
3
A3
350
FAF
3
A4
350
FB0
3
A5
350
FB1
3
A6
350
FB2
3
A7
350
FB3
3
A8
350
FB4
3
A9
350
FB5
3
B0
350
FB6
3
B1
350
FB7
3
B2
350
FB8
3
B3
350
FB9
3
B4
350
FBA
3
B5
350
FBB
3
B6
350
FBC
3
B7
350
FBD
3
B8
350
FBE
3
B9
350
FBF
3
C0
350
FC0
3
C1
350
FC1
3
C2
350
FC2
3
C3
350
FC3
3
C4
350
FC4
3
C5
350
FC5
3
C6
350
FC6
3
C7
350
FC7
3
C8
350
FC8
3
C9
350
FC9
3
D0
350
FCA
3
D1
350
FCB
3
D2
350
FCC
0
DICTIONARY
5
FA8
102
{ACAD_REACTORS
330
13
102
}
330
13
100
AcDbDictionary
281
1
3
Standard
350
FA9
0
DICTIONARY
5
F93
102
{ACAD_REACTORS
330
13
102
}
330
13
100
AcDbDictionary
281
1
3
2dWireframe
350
F99
3
3D Hidden
350
F9B
3
3dWireframe
350
F9A
3
Basic
350
F98
3
Brighten
350
F9F
3
ColorChange
350
FA3
3
Conceptual
350
F9C
3
Dim
350
F9E
3
EdgeColorOff
350
FA6
3
Facepattern
350
FA2
3
Flat
350
F94
3
FlatWithEdges
350
F95
3
Gouraud
350
F96
3
GouraudWithEdges
350
F97
3
JitterOff
350
FA4
3
Linepattern
350
FA1
3
OverhangOff
350
FA5
3
Realistic
350
F9D
3
Thicken
350
FA0
0
XRECORD
5
107E
102
{ACAD_REACTORS
330
13
102
}
330
13
100
AcDbXrecord
280
1
90
1
330
FA9
330
F10018
330
F1001D
330
F10027
330
F1002C
330
F10004
330
F1000E
330
F10009
330
F10013
330
F10022
0
XRECORD
5
F1001A
102
{ACAD_REACTORS
330
F10019
102
}
330
F10019
100
AcDbXrecord
280
1
40
48458.0
1
24
0
XRECORD
5
F1001F
102
{ACAD_REACTORS
330
F1001E
102
}
330
F1001E
100
AcDbXrecord
280
1
40
48458.0
1
40
0
XRECORD
5
F10029
102
{ACAD_REACTORS
330
F10028
102
}
330
F10028
100
AcDbXrecord
280
1
40
48458.0
1
18
0
XRECORD
5
F1002E
102
{ACAD_REACTORS
330
F1002D
102
}
330
F1002D
100
AcDbXrecord
280
1
40
48458.0
1
64
0
XRECORD
5
F10006
102
{ACAD_REACTORS
330
F10005
102
}
330
F10005
100
AcDbXrecord
280
1
40
48458.0
1
2°
0
XRECORD
5
F10010
102
{ACAD_REACTORS
330
F1000F
102
}
330
F1000F
100
AcDbXrecord
280
1
40
48458.0
1
R1
0
XRECORD
5
F1000B
102
{ACAD_REACTORS
330
F1000A
102
}
330
F1000A
100
AcDbXrecord
280
1
40
48458.0
1
8
0
XRECORD
5
F10015
102
{ACAD_REACTORS
330
F10014
102
}
330
F10014
100
AcDbXrecord
280
1
40
48458.0
1
7.4
0
LAYOUT
5
FD1
102
{ACAD_XDICTIONARY
360
10A9
102
}
102
{ACAD_REACTORS
330
FCF
102
}
330
FCF
100
AcDbPlotSettings
1

2
Microsoft XPS Document Writer
4

6

40
0.0
41
0.0
42
0.0
43
0.0
44
0.0
45
0.0
46
0.0
47
0.0
48
0.0
49
0.0
140
0.0
141
0.0
142
1.0
143
1.0
70
688
72
0
73
0
74
5
7

75
16
147
1.0
148
0.0
149
0.0
100
AcDbLayout
1
Layout1
70
1
71
1
10
0.0
20
0.0
11
12.0
21
9.0
12
0.0
22
0.0
32
0.0
14
1.000000000000000E+20
24
1.000000000000000E+20
34
1.000000000000000E+20
15
-1.000000000000000E+20
25
-1.000000000000000E+20
35
-1.000000000000000E+20
146
0.0
13
0.0
23
0.0
33
0.0
16
1.0
26
0.0
36
0.0
17
0.0
27
1.0
37
0.0
76
0
330
25D
0
LAYOUT
5
FD0
102
{ACAD_XDICTIONARY
360
10A7
102
}
102
{ACAD_REACTORS
330
FCF
102
}
330
FCF
100
AcDbPlotSettings
1

2
Microsoft XPS Document Writer
4

6

40
0.0
41
0.0
42
0.0
43
0.0
44
0.0
45
0.0
46
0.0
47
0.0
48
0.0
49
0.0
140
0.0
141
0.0
142
1.0
143
1.0
70
1712
72
0
73
0
74
0
7

75
0
147
1.0
148
0.0
149
0.0
100
AcDbLayout
1
Model
70
1
71
0
10
0.0
20
0.0
11
12.0
21
9.0
12
0.0
22
0.0
32
0.0
14
0.0
24
0.0
34
0.0
15
0.0
25
0.0
35
0.0
146
0.0
13
0.0
23
0.0
33
0.0
16
1.0
26
0.0
36
0.0
17
0.0
27
1.0
37
0.0
76
0
330
261
331
26B
0
MATERIAL
5
F83
102
{ACAD_XDICTIONARY
360
F84
102
}
102
{ACAD_REACTORS
330
F7A
102
}
330
F7A
100
AcDbMaterial
1
ByBlock
72
0
43
0.0208333333333333
43
0.0
43
0.0
43
0.0
43
0.0
43
0.0208333333333333
43
0.0
43
0.0
43
0.0
43
0.0
43
1.0
43
0.0
43
0.0
43
0.0
43
0.0
43
1.0
77
0
47
0.0208333333333333
47
0.0
47
0.0
47
0.0
47
0.0
47
0.0208333333333333
47
0.0
47
0.0
47
0.0
47
0.0
47
1.0
47
0.0
47
0.0
47
0.0
47
0.0
47
1.0
171
0
49
0.0208333333333333
49
0.0
49
0.0
49
0.0
49
0.0
49
0.0208333333333333
49
0.0
49
0.0
49
0.0
49
0.0
49
1.0
49
0.0
49
0.0
49
0.0
49
0.0
49
1.0
175
0
142
0.0208333333333333
142
0.0
142
0.0
142
0.0
142
0.0
142
0.0208333333333333
142
0.0
142
0.0
142
0.0
142
0.0
142
1.0
142
0.0
142
0.0
142
0.0
142
0.0
142
1.0
179
0
144
0.0208333333333333
144
0.0
144
0.0
144
0.0
144
0.0
144
0.0208333333333333
144
0.0
144
0.0
144
0.0
144
0.0
144
1.0
144
0.0
144
0.0
144
0.0
144
0.0
144
1.0
147
0.0208333333333333
147
0.0
147
0.0
147
0.0
147
0.0
147
0.0208333333333333
147
0.0
147
0.0
147
0.0
147
0.0
147
1.0
147
0.0
147
0.0
147
0.0
147
0.0
147
1.0
0
MATERIAL
5
F7B
102
{ACAD_XDICTIONARY
360
F7C
102
}
102
{ACAD_REACTORS
330
F7A
102
}
330
F7A
100
AcDbMaterial
1
ByLayer
72
0
43
0.0208333333333333
43
0.0
43
0.0
43
0.0
43
0.0
43
0.0208333333333333
43
0.0
43
0.0
43
0.0
43
0.0
43
1.0
43
0.0
43
0.0
43
0.0
43
0.0
43
1.0
77
0
47
0.0208333333333333
47
0.0
47
0.0
47
0.0
47
0.0
47
0.0208333333333333
47
0.0
47
0.0
47
0.0
47
0.0
47
1.0
47
0.0
47
0.0
47
0.0
47
0.0
47
1.0
171
0
49
0.0208333333333333
49
0.0
49
0.0
49
0.0
49
0.0
49
0.0208333333333333
49
0.0
49
0.0
49
0.0
49
0.0
49
1.0
49
0.0
49
0.0
49
0.0
49
0.0
49
1.0
175
0
142
0.0208333333333333
142
0.0
142
0.0
142
0.0
142
0.0
142
0.0208333333333333
142
0.0
142
0.0
142
0.0
142
0.0
142
1.0
142
0.0
142
0.0
142
0.0
142
0.0
142
1.0
179
0
144
0.0208333333333333
144
0.0
144
0.0
144
0.0
144
0.0
144
0.0208333333333333
144
0.0
144
0.0
144
0.0
144
0.0
144
1.0
144
0.0
144
0.0
144
0.0
144
0.0
144
1.0
147
0.0208333333333333
147
0.0
147
0.0
147
0.0
147
0.0
147
0.0208333333333333
147
0.0
147
0.0
147
0.0
147
0.0
147
1.0
147
0.0
147
0.0
147
0.0
147
0.0
147
1.0
0
MATERIAL
5
F8B
102
{ACAD_XDICTIONARY
360
F8C
102
}
102
{ACAD_REACTORS
330
F7A
102
}
330
F7A
100
AcDbMaterial
1
Global
72
0
43
0.0208333333333333
43
0.0
43
0.0
43
0.0
43
0.0
43
0.0208333333333333
43
0.0
43
0.0
43
0.0
43
0.0
43
1.0
43
0.0
43
0.0
43
0.0
43
0.0
43
1.0
77
0
47
0.0208333333333333
47
0.0
47
0.0
47
0.0
47
0.0
47
0.0208333333333333
47
0.0
47
0.0
47
0.0
47
0.0
47
1.0
47
0.0
47
0.0
47
0.0
47
0.0
47
1.0
171
0
49
0.0208333333333333
49
0.0
49
0.0
49
0.0
49
0.0
49
0.0208333333333333
49
0.0
49
0.0
49
0.0
49
0.0
49
1.0
49
0.0
49
0.0
49
0.0
49
0.0
49
1.0
175
0
142
0.0208333333333333
142
0.0
142
0.0
142
0.0
142
0.0
142
0.0208333333333333
142
0.0
142
0.0
142
0.0
142
0.0
142
1.0
142
0.0
142
0.0
142
0.0
142
0.0
142
1.0
179
0
144
0.0208333333333333
144
0.0
144
0.0
144
0.0
144
0.0
144
0.0208333333333333
144
0.0
144
0.0
144
0.0
144
0.0
144
1.0
144
0.0
144
0.0
144
0.0
144
0.0
144
1.0
147
0.0208333333333333
147
0.0
147
0.0
147
0.0
147
0.0
147
0.0208333333333333
147
0.0
147
0.0
147
0.0
147
0.0
147
1.0
147
0.0
147
0.0
147
0.0
147
0.0
147
1.0
0
MLEADERSTYLE
5
FCE
102
{ACAD_REACTORS
330
FCD
102
}
330
FCD
100
AcDbMLeaderStyle
170
2
171
1
172
0
90
2
40
0.0
41
0.0
173
1
91
-1056964608
340
256
92
-2
290
1
42
0.09
291
1
43
0.36
3
Standard
44
0.18
300

342
253
174
1
178
6
175
1
176
0
93
-1056964608
45
0.18
292
0
297
0
46
0.18
94
-1056964608
47
1.0
49
1.0
140
1.0
293
1
141
0.0
294
1
177
0
142
1.0
295
0
296
0
143
0.125
1001
ACAD_MLEADERVER
1070
2
0
MLINESTYLE
5
FAA
102
{ACAD_REACTORS
330
16
102
}
330
16
100
AcDbMlineStyle
2
STANDARD
70
0
3

62
256
51
90.0
52
90.0
71
2
49
0.5
62
256
6
BYLAYER
49
-0.5
62
256
6
BYLAYER
0
ACDBPLACEHOLDER
5
19
102
{ACAD_REACTORS
330
18
102
}
330
18
0
SCALE
5
FAC
102
{ACAD_REACTORS
330
FAB
102
}
330
FAB
100
AcDbScale
70
0
300
1:1
140
1.0
141
1.0
290
1
0
SCALE
5
FAD
102
{ACAD_REACTORS
330
FAB
102
}
330
FAB
100
AcDbScale
70
0
300
1:2
140
1.0
141
2.0
290
0
0
SCALE
5
FAE
102
{ACAD_REACTORS
330
FAB
102
}
330
FAB
100
AcDbScale
70
0
300
1:4
140
1.0
141
4.0
290
0
0
SCALE
5
FAF
102
{ACAD_REACTORS
330
FAB
102
}
330
FAB
100
AcDbScale
70
0
300
1:5
140
1.0
141
5.0
290
0
0
SCALE
5
FB0
102
{ACAD_REACTORS
330
FAB
102
}
330
FAB
100
AcDbScale
70
0
300
1:8
140
1.0
141
8.0
290
0
0
SCALE
5
FB1
102
{ACAD_REACTORS
330
FAB
102
}
330
FAB
100
AcDbScale
70
0
300
1:10
140
1.0
141
10.0
290
0
0
SCALE
5
FB2
102
{ACAD_REACTORS
330
FAB
102
}
330
FAB
100
AcDbScale
70
0
300
1:16
140
1.0
141
16.0
290
0
0
SCALE
5
FB3
102
{ACAD_REACTORS
330
FAB
102
}
330
FAB
100
AcDbScale
70
0
300
1:20
140
1.0
141
20.0
290
0
0
SCALE
5
FB4
102
{ACAD_REACTORS
330
FAB
102
}
330
FAB
100
AcDbScale
70
0
300
1:30
140
1.0
141
30.0
290
0
0
SCALE
5
FB5
102
{ACAD_REACTORS
330
FAB
102
}
330
FAB
100
AcDbScale
70
0
300
1:40
140
1.0
141
40.0
290
0
0
SCALE
5
FB6
102
{ACAD_REACTORS
330
FAB
102
}
330
FAB
100
AcDbScale
70
0
300
1:50
140
1.0
141
50.0
290
0
0
SCALE
5
FB7
102
{ACAD_REACTORS
330
FAB
102
}
330
FAB
100
AcDbScale
70
0
300
1:100
140
1.0
141
100.0
290
0
0
SCALE
5
FB8
102
{ACAD_REACTORS
330
FAB
102
}
330
FAB
100
AcDbScale
70
0
300
2:1
140
2.0
141
1.0
290
0
0
SCALE
5
FB9
102
{ACAD_REACTORS
330
FAB
102
}
330
FAB
100
AcDbScale
70
0
300
4:1
140
4.0
141
1.0
290
0
0
SCALE
5
FBA
102
{ACAD_REACTORS
330
FAB
102
}
330
FAB
100
AcDbScale
70
0
300
8:1
140
8.0
141
1.0
290
0
0
SCALE
5
FBB
102
{ACAD_REACTORS
330
FAB
102
}
330
FAB
100
AcDbScale
70
0
300
10:1
140
10.0
141
1.0
290
0
0
SCALE
5
FBC
102
{ACAD_REACTORS
330
FAB
102
}
330
FAB
100
AcDbScale
70
0
300
100:1
140
100.0
141
1.0
290
0
0
SCALE
5
FBD
102
{ACAD_REACTORS
330
FAB
102
}
330
FAB
100
AcDbScale
70
0
300
1/128" = 1'-0"
140
0.0078125
141
12.0
290
0
0
SCALE
5
FBE
102
{ACAD_REACTORS
330
FAB
102
}
330
FAB
100
AcDbScale
70
0
300
1/64" = 1'-0"
140
0.015625
141
12.0
290
0
0
SCALE
5
FBF
102
{ACAD_REACTORS
330
FAB
102
}
330
FAB
100
AcDbScale
70
0
300
1/32" = 1'-0"
140
0.03125
141
12.0
290
0
0
SCALE
5
FC0
102
{ACAD_REACTORS
330
FAB
102
}
330
FAB
100
AcDbScale
70
0
300
1/16" = 1'-0"
140
0.0625
141
12.0
290
0
0
SCALE
5
FC1
102
{ACAD_REACTORS
330
FAB
102
}
330
FAB
100
AcDbScale
70
0
300
3/32" = 1'-0"
140
0.09375
141
12.0
290
0
0
SCALE
5
FC2
102
{ACAD_REACTORS
330
FAB
102
}
330
FAB
100
AcDbScale
70
0
300
1/8" = 1'-0"
140
0.125
141
12.0
290
0
0
SCALE
5
FC3
102
{ACAD_REACTORS
330
FAB
102
}
330
FAB
100
AcDbScale
70
0
300
3/16" = 1'-0"
140
0.1875
141
12.0
290
0
0
SCALE
5
FC4
102
{ACAD_REACTORS
330
FAB
102
}
330
FAB
100
AcDbScale
70
0
300
1/4" = 1'-0"
140
0.25
141
12.0
290
0
0
SCALE
5
FC5
102
{ACAD_REACTORS
330
FAB
102
}
330
FAB
100
AcDbScale
70
0
300
3/8" = 1'-0"
140
0.375
141
12.0
290
0
0
SCALE
5
FC6
102
{ACAD_REACTORS
330
FAB
102
}
330
FAB
100
AcDbScale
70
0
300
1/2" = 1'-0"
140
0.5
141
12.0
290
0
0
SCALE
5
FC7
102
{ACAD_REACTORS
330
FAB
102
}
330
FAB
100
AcDbScale
70
0
300
3/4" = 1'-0"
140
0.75
141
12.0
290
0
0
SCALE
5
FC8
102
{ACAD_REACTORS
330
FAB
102
}
330
FAB
100
AcDbScale
70
0
300
1" = 1'-0"
140
1.0
141
12.0
290
0
0
SCALE
5
FC9
102
{ACAD_REACTORS
330
FAB
102
}
330
FAB
100
AcDbScale
70
0
300
1-1/2" = 1'-0"
140
1.5
141
12.0
290
0
0
SCALE
5
FCA
102
{ACAD_REACTORS
330
FAB
102
}
330
FAB
100
AcDbScale
70
0
300
3" = 1'-0"
140
3.0
141
12.0
290
0
0
SCALE
5
FCB
102
{ACAD_REACTORS
330
FAB
102
}
330
FAB
100
AcDbScale
70
0
300
6" = 1'-0"
140
6.0
141
12.0
290
0
0
SCALE
5
FCC
102
{ACAD_REACTORS
330
FAB
102
}
330
FAB
100
AcDbScale
70
0
300
1'-0" = 1'-0"
140
12.0
141
12.0
290
0
0
TABLESTYLE
5
FA9
102
{ACAD_XDICTIONARY
360
FF8
102
}
102
{ACAD_REACTORS
330
FA8
102
}
330
FA8
100
AcDbTableStyle
3
Standard
70
0
71
0
40
0.06
41
0.06
280
0
281
0
7
Standard
140
0.18
170
2
62
0
63
7
283
0
274
-2
284
1
64
0
275
-2
285
1
65
0
276
-2
286
1
66
0
277
-2
287
1
67
0
278
-2
288
1
68
0
279
-2
289
1
69
0
7
Standard
140
0.25
170
5
62
0
63
7
283
0
274
-2
284
1
64
0
275
-2
285
1
65
0
276
-2
286
1
66
0
277
-2
287
1
67
0
278
-2
288
1
68
0
279
-2
289
1
69
0
7
Standard
140
0.18
170
5
62
0
63
7
283
0
274
-2
284
1
64
0
275
-2
285
1
65
0
276
-2
286
1
66
0
277
-2
287
1
67
0
278
-2
288
1
68
0
279
-2
289
1
69
0
0
VISUALSTYLE
5
F99
102
{ACAD_XDICTIONARY
360
108A
102
}
102
{ACAD_REACTORS
330
F93
102
}
330
F93
100
AcDbVisualStyle
2

70
4
71
0
72
2
73
0
90
0
40
-0.6
41
-30.0
62
5
63
7
74
1
91
4
64
7
65
257
75
1
175
1
42
1.0
92
0
66
257
43
1.0
76
1
77
6
78
2
67
7
79
5
170
0
171
0
290
0
174
0
93
1
44
0.0
173
0
291
0
45
0.0
1001
ACAD
1000
AcDbSavedByObjectVersion
1070
0
0
VISUALSTYLE
5
F9B
102
{ACAD_XDICTIONARY
360
108E
102
}
102
{ACAD_REACTORS
330
F93
102
}
330
F93
100
AcDbVisualStyle
2

70
6
71
1
72
2
73
2
90
0
40
-0.6
41
-30.0
62
5
63
7
74
2
91
2
64
7
65
257
75
2
175
1
42
179.0
92
0
66
257
43
1.0
76
1
77
6
78
2
67
7
79
3
170
0
171
0
290
0
174
0
93
1
44
0.0
173
0
291
0
45
0.0
1001
ACAD
1000
AcDbSavedByObjectVersion
1070
0
0
VISUALSTYLE
5
F9A
102
{ACAD_XDICTIONARY
360
108C
102
}
102
{ACAD_REACTORS
330
F93
102
}
330
F93
100
AcDbVisualStyle
2

70
5
71
0
72
2
73
0
90
0
40
-0.6
41
-30.0
62
5
63
7
74
1
91
4
64
7
65
257
75
1
175
1
42
1.0
92
0
66
257
43
1.0
76
1
77
6
78
2
67
7
79
5
170
0
171
0
290
0
174
0
93
1
44
0.0
173
0
291
0
45
0.0
1001
ACAD
1000
AcDbSavedByObjectVersion
1070
0
0
VISUALSTYLE
5
F98
102
{ACAD_XDICTIONARY
360
1088
102
}
102
{ACAD_REACTORS
330
F93
102
}
330
F93
100
AcDbVisualStyle
2

70
7
71
1
72
0
73
1
90
0
40
-0.6
41
-30.0
62
5
63
7
74
0
91
4
64
7
65
257
75
1
175
1
42
1.0
92
8
66
7
43
1.0
76
1
77
6
78
2
67
7
79
5
170
0
171
0
290
0
174
0
93
1
44
0.0
173
0
291
1
45
0.0
1001
ACAD
1000
AcDbSavedByObjectVersion
1070
0
0
VISUALSTYLE
5
F9F
102
{ACAD_XDICTIONARY
360
1096
102
}
102
{ACAD_REACTORS
330
F93
102
}
330
F93
100
AcDbVisualStyle
2

70
12
71
2
72
2
73
0
90
0
40
-0.6
41
-30.0
62
5
63
7
74
1
91
4
64
7
65
257
75
1
175
1
42
1.0
92
8
66
7
43
1.0
76
1
77
6
78
2
67
7
79
5
170
0
171
0
290
0
174
0
93
1
44
50.0
173
0
291
1
45
0.0
1001
ACAD
1000
AcDbSavedByObjectVersion
1070
0
0
VISUALSTYLE
5
FA3
102
{ACAD_XDICTIONARY
360
109E
102
}
102
{ACAD_REACTORS
330
F93
102
}
330
F93
100
AcDbVisualStyle
2

70
16
71
2
72
2
73
3
90
0
40
-0.6
41
-30.0
62
5
63
8
74
1
91
4
64
7
65
257
75
1
175
1
42
1.0
92
8
66
8
43
1.0
76
1
77
6
78
2
67
7
79
5
170
0
171
0
290
0
174
0
93
1
44
0.0
173
0
291
1
45
0.0
1001
ACAD
1000
AcDbSavedByObjectVersion
1070
0
0
VISUALSTYLE
5
F9C
102
{ACAD_XDICTIONARY
360
1090
102
}
102
{ACAD_REACTORS
330
F93
102
}
330
F93
100
AcDbVisualStyle
2

70
9
71
3
72
2
73
0
90
0
40
-0.6
41
-30.0
62
5
63
7
74
2
91
2
64
7
65
257
75
1
175
1
42
179.0
92
8
66
7
43
1.0
76
1
77
6
78
2
67
7
79
3
170
0
171
0
290
0
174
0
93
1
44
0.0
173
0
291
0
45
0.0
1001
ACAD
1000
AcDbSavedByObjectVersion
1070
0
0
VISUALSTYLE
5
F9E
102
{ACAD_XDICTIONARY
360
1094
102
}
102
{ACAD_REACTORS
330
F93
102
}
330
F93
100
AcDbVisualStyle
2

70
11
71
2
72
2
73
0
90
0
40
-0.6
41
-30.0
62
5
63
7
74
1
91
4
64
7
65
257
75
1
175
1
42
1.0
92
8
66
7
43
1.0
76
1
77
6
78
2
67
7
79
5
170
0
171
0
290
0
174
0
93
1
44
-50.0
173
0
291
1
45
0.0
1001
ACAD
1000
AcDbSavedByObjectVersion
1070
0
0
VISUALSTYLE
5
FA6
102
{ACAD_XDICTIONARY
360
10A4
102
}
102
{ACAD_REACTORS
330
F93
102
}
330
F93
100
AcDbVisualStyle
2

70
22
71
2
72
2
73
0
90
0
40
-0.6
41
-30.0
62
5
63
7
74
1
91
4
64
7
65
257
75
1
175
1
42
1.0
92
8
66
7
43
1.0
76
1
77
6
78
2
67
7
79
5
170
0
171
0
290
0
174
0
93
1
44
0.0
173
0
291
1
45
0.0
1001
ACAD
1000
AcDbSavedByObjectVersion
1070
0
0
VISUALSTYLE
5
FA2
102
{ACAD_XDICTIONARY
360
109C
102
}
102
{ACAD_REACTORS
330
F93
102
}
330
F93
100
AcDbVisualStyle
2

70
15
71
2
72
2
73
0
90
0
40
-0.6
41
-30.0
62
5
63
7
74
1
91
4
64
7
65
257
75
1
175
1
42
1.0
92
8
66
7
43
1.0
76
1
77
6
78
2
67
7
79
5
170
0
171
0
290
0
174
0
93
1
44
0.0
173
0
291
1
45
0.0
1001
ACAD
1000
AcDbSavedByObjectVersion
1070
0
0
VISUALSTYLE
5
F94
102
{ACAD_XDICTIONARY
360
1080
102
}
102
{ACAD_REACTORS
330
F93
102
}
330
F93
100
AcDbVisualStyle
2

70
0
71
2
72
1
73
1
90
2
40
-0.6
41
30.0
62
5
63
7
74
0
91
4
64
7
65
257
75
1
175
1
42
1.0
92
8
66
7
43
1.0
76
1
77
6
78
2
67
7
79
5
170
0
171
0
290
0
174
0
93
13
44
0.0
173
0
291
1
45
0.0
1001
ACAD
1000
AcDbSavedByObjectVersion
1070
0
0
VISUALSTYLE
5
F95
102
{ACAD_XDICTIONARY
360
1082
102
}
102
{ACAD_REACTORS
330
F93
102
}
330
F93
100
AcDbVisualStyle
2

70
1
71
2
72
1
73
1
90
2
40
-0.6
41
30.0
62
5
63
7
74
1
91
4
64
7
65
257
75
1
175
1
42
1.0
92
0
66
257
43
1.0
76
1
77
6
78
2
67
7
79
5
170
0
171
0
290
0
174
0
93
13
44
0.0
173
0
291
1
45
0.0
1001
ACAD
1000
AcDbSavedByObjectVersion
1070
0
0
VISUALSTYLE
5
F96
102
{ACAD_XDICTIONARY
360
1084
102
}
102
{ACAD_REACTORS
330
F93
102
}
330
F93
100
AcDbVisualStyle
2

70
2
71
2
72
2
73
1
90
2
40
-0.6
41
30.0
62
5
63
7
74
0
91
4
64
7
65
257
75
1
175
1
42
1.0
92
0
66
7
43
1.0
76
1
77
6
78
2
67
7
79
5
170
0
171
0
290
0
174
0
93
13
44
0.0
173
0
291
1
45
0.0
1001
ACAD
1000
AcDbSavedByObjectVersion
1070
0
0
VISUALSTYLE
5
F97
102
{ACAD_XDICTIONARY
360
1086
102
}
102
{ACAD_REACTORS
330
F93
102
}
330
F93
100
AcDbVisualStyle
2

70
3
71
2
72
2
73
1
90
2
40
-0.6
41
30.0
62
5
63
7
74
1
91
4
64
7
65
257
75
1
175
1
42
1.0
92
0
66
257
43
1.0
76
1
77
6
78
2
67
7
79
5
170
0
171
0
290
0
174
0
93
13
44
0.0
173
0
291
1
45
0.0
1001
ACAD
1000
AcDbSavedByObjectVersion
1070
0
0
VISUALSTYLE
5
FA4
102
{ACAD_XDICTIONARY
360
10A0
102
}
102
{ACAD_REACTORS
330
F93
102
}
330
F93
100
AcDbVisualStyle
2

70
20
71
2
72
2
73
0
90
0
40
-0.6
41
-30.0
62
5
63
7
74
1
91
4
64
7
65
257
75
1
175
1
42
1.0
92
10
66
7
43
1.0
76
1
77
6
78
2
67
7
79
5
170
0
171
0
290
0
174
0
93
1
44
0.0
173
0
291
1
45
0.0
1001
ACAD
1000
AcDbSavedByObjectVersion
1070
0
0
VISUALSTYLE
5
FA1
102
{ACAD_XDICTIONARY
360
109A
102
}
102
{ACAD_REACTORS
330
F93
102
}
330
F93
100
AcDbVisualStyle
2

70
14
71
2
72
2
73
0
90
0
40
-0.6
41
-30.0
62
5
63
7
74
1
91
4
64
7
65
257
75
7
175
7
42
1.0
92
8
66
7
43
1.0
76
1
77
6
78
2
67
7
79
5
170
0
171
0
290
0
174
0
93
1
44
0.0
173
0
291
1
45
0.0
1001
ACAD
1000
AcDbSavedByObjectVersion
1070
0
0
VISUALSTYLE
5
FA5
102
{ACAD_XDICTIONARY
360
10A2
102
}
102
{ACAD_REACTORS
330
F93
102
}
330
F93
100
AcDbVisualStyle
2

70
21
71
2
72
2
73
0
90
0
40
-0.6
41
-30.0
62
5
63
7
74
1
91
4
64
7
65
257
75
1
175
1
42
1.0
92
9
66
7
43
1.0
76
1
77
6
78
2
67
7
79
5
170
0
171
0
290
0
174
0
93
1
44
0.0
173
0
291
1
45
0.0
1001
ACAD
1000
AcDbSavedByObjectVersion
1070
0
0
VISUALSTYLE
5
F9D
102
{ACAD_XDICTIONARY
360
1092
102
}
102
{ACAD_REACTORS
330
F93
102
}
330
F93
100
AcDbVisualStyle
2

70
8
71
2
72
2
73
0
90
0
40
-0.6
41
-30.0
62
5
63
7
74
1
91
0
64
7
65
257
75
1
175
1
42
1.0
92
8
66
8
43
1.0
76
1
77
6
78
2
67
7
79
5
170
0
171
0
290
0
174
0
93
13
44
0.0
173
0
291
0
45
0.0
1001
ACAD
1000
AcDbSavedByObjectVersion
1070
0
0
VISUALSTYLE
5
FA0
102
{ACAD_XDICTIONARY
360
1098
102
}
102
{ACAD_REACTORS
330
F93
102
}
330
F93
100
AcDbVisualStyle
2

70
13
71
2
72
2
73
0
90
0
40
-0.6
41
-30.0
62
5
63
7
74
1
91
4
64
7
65
257
75
1
175
1
42
1.0
92
12
66
7
43
1.0
76
1
77
6
78
2
67
7
79
5
170
0
171
0
290
0
174
0
93
1
44
0.0
173
0
291
1
45
0.0
1001
ACAD
1000
AcDbSavedByObjectVersion
1070
0
0
DICTIONARYVAR
5
FF3
102
{ACAD_REACTORS
330
FF0
102
}
330
FF0
100
DictionaryVariables
280
0
1
1:1
0
DICTIONARYVAR
5
FF2
102
{ACAD_REACTORS
330
FF0
102
}
330
FF0
100
DictionaryVariables
280
0
1
STANDARD
0
DICTIONARYVAR
5
FF1
102
{ACAD_REACTORS
330
FF0
102
}
330
FF0
100
DictionaryVariables
280
0
1
STANDARD
0
DICTIONARYVAR
5
FF6
102
{ACAD_REACTORS
330
FF0
102
}
330
FF0
100
DictionaryVariables
280
0
1
1
0
DICTIONARYVAR
5
FF5
102
{ACAD_REACTORS
330
FF0
102
}
330
FF0
100
DictionaryVariables
280
0
1
0
0
DICTIONARYVAR
5
FF4
102
{ACAD_REACTORS
330
FF0
102
}
330
FF0
100
DictionaryVariables
280
0
1
127
0
DICTIONARYVAR
5
1078
102
{ACAD_REACTORS
330
FF0
102
}
330
FF0
100
DictionaryVariables
280
0
1
2
0
DICTIONARY
5
10A9
330
FD1
100
AcDbDictionary
280
1
281
1
3
ACAD_XREC_ROUNDTRIP
360
10AA
0
DICTIONARY
5
10A7
330
FD0
100
AcDbDictionary
280
1
281
1
3
ACAD_XREC_ROUNDTRIP
360
10A8
0
DICTIONARY
5
F84
330
F83
100
AcDbDictionary
280
1
281
1
3
ACAD_XREC_ROUNDTRIP
360
FFF
3
BUMPTILE
360
F86
3
DIFFUSETILE
360
F85
3
OPACITYTILE
360
F89
3
REFLECTIONTILE
360
F88
3
REFRACTIONTILE
360
F8A
3
SPECULARTILE
360
F87
0
DICTIONARY
5
F7C
330
F7B
100
AcDbDictionary
280
1
281
1
3
ACAD_XREC_ROUNDTRIP
360
FFE
3
BUMPTILE
360
F7E
3
DIFFUSETILE
360
F7D
3
OPACITYTILE
360
F81
3
REFLECTIONTILE
360
F80
3
REFRACTIONTILE
360
F82
3
SPECULARTILE
360
F7F
0
DICTIONARY
5
F8C
330
F8B
100
AcDbDictionary
280
1
281
1
3
ACAD_XREC_ROUNDTRIP
360
1000
3
BUMPTILE
360
F8E
3
DIFFUSETILE
360
F8D
3
OPACITYTILE
360
F91
3
REFLECTIONTILE
360
F90
3
REFRACTIONTILE
360
F92
3
SPECULARTILE
360
F8F
0
DICTIONARY
5
FF8
330
FA9
100
AcDbDictionary
280
1
281
1
3
ACAD_ROUNDTRIP_2008_TABLESTYLE_CELLSTYLEMAP
360
1079
3
ACAD_XREC_ROUNDTRIP
360
10A6
0
DICTIONARY
5
108A
330
F99
100
AcDbDictionary
280
1
281
1
3
ACAD_XREC_ROUNDTRIP
360
108B
0
DICTIONARY
5
108E
330
F9B
100
AcDbDictionary
280
1
281
1
3
ACAD_XREC_ROUNDTRIP
360
108F
0
DICTIONARY
5
108C
330
F9A
100
AcDbDictionary
280
1
281
1
3
ACAD_XREC_ROUNDTRIP
360
108D
0
DICTIONARY
5
1088
330
F98
100
AcDbDictionary
280
1
281
1
3
ACAD_XREC_ROUNDTRIP
360
1089
0
DICTIONARY
5
1096
330
F9F
100
AcDbDictionary
280
1
281
1
3
ACAD_XREC_ROUNDTRIP
360
1097
0
DICTIONARY
5
109E
330
FA3
100
AcDbDictionary
280
1
281
1
3
ACAD_XREC_ROUNDTRIP
360
109F
0
DICTIONARY
5
1090
330
F9C
100
AcDbDictionary
280
1
281
1
3
ACAD_XREC_ROUNDTRIP
360
1091
0
DICTIONARY
5
1094
330
F9E
100
AcDbDictionary
280
1
281
1
3
ACAD_XREC_ROUNDTRIP
360
1095
0
DICTIONARY
5
10A4
330
FA6
100
AcDbDictionary
280
1
281
1
3
ACAD_XREC_ROUNDTRIP
360
10A5
0
DICTIONARY
5
109C
330
FA2
100
AcDbDictionary
280
1
281
1
3
ACAD_XREC_ROUNDTRIP
360
109D
0
DICTIONARY
5
1080
330
F94
100
AcDbDictionary
280
1
281
1
3
ACAD_XREC_ROUNDTRIP
360
1081
0
DICTIONARY
5
1082
330
F95
100
AcDbDictionary
280
1
281
1
3
ACAD_XREC_ROUNDTRIP
360
1083
0
DICTIONARY
5
1084
330
F96
100
AcDbDictionary
280
1
281
1
3
ACAD_XREC_ROUNDTRIP
360
1085
0
DICTIONARY
5
1086
330
F97
100
AcDbDictionary
280
1
281
1
3
ACAD_XREC_ROUNDTRIP
360
1087
0
DICTIONARY
5
10A0
330
FA4
100
AcDbDictionary
280
1
281
1
3
ACAD_XREC_ROUNDTRIP
360
10A1
0
DICTIONARY
5
109A
330
FA1
100
AcDbDictionary
280
1
281
1
3
ACAD_XREC_ROUNDTRIP
360
109B
0
DICTIONARY
5
10A2
330
FA5
100
AcDbDictionary
280
1
281
1
3
ACAD_XREC_ROUNDTRIP
360
10A3
0
DICTIONARY
5
1092
330
F9D
100
AcDbDictionary
280
1
281
1
3
ACAD_XREC_ROUNDTRIP
360
1093
0
DICTIONARY
5
1098
330
FA0
100
AcDbDictionary
280
1
281
1
3
ACAD_XREC_ROUNDTRIP
360
1099
0
XRECORD
5
10AA
102
{ACAD_REACTORS
330
10A9
102
}
330
10A9
100
AcDbXrecord
280
1
102
SHADEPLOT
70
0
102
SHADEPLOTRESLEVEL
70
2
102
SHADEPLOTCUSTOMDPI
70
300
0
XRECORD
5
10A8
102
{ACAD_REACTORS
330
10A7
102
}
330
10A7
100
AcDbXrecord
280
1
102
SHADEPLOT
70
0
102
SHADEPLOTRESLEVEL
70
2
102
SHADEPLOTCUSTOMDPI
70
300
0
XRECORD
5
FFF
102
{ACAD_REACTORS
330
F84
102
}
330
F84
100
AcDbXrecord
280
1
102
MATERIAL
148
0.0
149
0.0
149
0.0
93
0
94
127
282
0
72
0
77
0
171
0
175
0
179
0
273
0
0
XRECORD
5
F86
102
{ACAD_REACTORS
330
F84
102
}
330
F84
100
AcDbXrecord
280
1
270
1
271
1
0
XRECORD
5
F85
102
{ACAD_REACTORS
330
F84
102
}
330
F84
100
AcDbXrecord
280
1
270
1
271
1
0
XRECORD
5
F89
102
{ACAD_REACTORS
330
F84
102
}
330
F84
100
AcDbXrecord
280
1
270
1
271
1
0
XRECORD
5
F88
102
{ACAD_REACTORS
330
F84
102
}
330
F84
100
AcDbXrecord
280
1
270
1
271
1
0
XRECORD
5
F8A
102
{ACAD_REACTORS
330
F84
102
}
330
F84
100
AcDbXrecord
280
1
270
1
271
1
0
XRECORD
5
F87
102
{ACAD_REACTORS
330
F84
102
}
330
F84
100
AcDbXrecord
280
1
270
1
271
1
0
XRECORD
5
FFE
102
{ACAD_REACTORS
330
F7C
102
}
330
F7C
100
AcDbXrecord
280
1
102
MATERIAL
148
0.0
149
0.0
149
0.0
93
0
94
127
282
0
72
0
77
0
171
0
175
0
179
0
273
0
0
XRECORD
5
F7E
102
{ACAD_REACTORS
330
F7C
102
}
330
F7C
100
AcDbXrecord
280
1
270
1
271
1
0
XRECORD
5
F7D
102
{ACAD_REACTORS
330
F7C
102
}
330
F7C
100
AcDbXrecord
280
1
270
1
271
1
0
XRECORD
5
F81
102
{ACAD_REACTORS
330
F7C
102
}
330
F7C
100
AcDbXrecord
280
1
270
1
271
1
0
XRECORD
5
F80
102
{ACAD_REACTORS
330
F7C
102
}
330
F7C
100
AcDbXrecord
280
1
270
1
271
1
0
XRECORD
5
F82
102
{ACAD_REACTORS
330
F7C
102
}
330
F7C
100
AcDbXrecord
280
1
270
1
271
1
0
XRECORD
5
F7F
102
{ACAD_REACTORS
330
F7C
102
}
330
F7C
100
AcDbXrecord
280
1
270
1
271
1
0
XRECORD
5
1000
102
{ACAD_REACTORS
330
F8C
102
}
330
F8C
100
AcDbXrecord
280
1
102
MATERIAL
148
0.0
149
0.0
149
0.0
93
0
94
127
282
0
72
0
77
0
171
0
175
0
179
0
273
0
0
XRECORD
5
F8E
102
{ACAD_REACTORS
330
F8C
102
}
330
F8C
100
AcDbXrecord
280
1
270
1
271
1
0
XRECORD
5
F8D
102
{ACAD_REACTORS
330
F8C
102
}
330
F8C
100
AcDbXrecord
280
1
270
1
271
1
0
XRECORD
5
F91
102
{ACAD_REACTORS
330
F8C
102
}
330
F8C
100
AcDbXrecord
280
1
270
1
271
1
0
XRECORD
5
F90
102
{ACAD_REACTORS
330
F8C
102
}
330
F8C
100
AcDbXrecord
280
1
270
1
271
1
0
XRECORD
5
F92
102
{ACAD_REACTORS
330
F8C
102
}
330
F8C
100
AcDbXrecord
280
1
270
1
271
1
0
XRECORD
5
F8F
102
{ACAD_REACTORS
330
F8C
102
}
330
F8C
100
AcDbXrecord
280
1
270
1
271
1
0
CELLSTYLEMAP
5
1079
102
{ACAD_REACTORS
330
FF8
102
}
330
FF8
100
AcDbCellStyleMap
90
3
300
CELLSTYLE
1
TABLEFORMAT_BEGIN
90
5
170
1
91
0
92
32768
62
257
93
1
300
CONTENTFORMAT
1
CONTENTFORMAT_BEGIN
90
0
91
0
92
512
93
0
300

40
0.0
140
1.0
94
5
62
0
340
253
144
0.25
309
CONTENTFORMAT_END
171
1
301
MARGIN
1
CELLMARGIN_BEGIN
40
0.06
40
0.06
40
0.06
40
0.06
40
0.18
40
0.18
309
CELLMARGIN_END
94
6
95
1
302
GRIDFORMAT
1
GRIDFORMAT_BEGIN
90
0
91
1
62
0
92
-2
340
0
93
0
40
0.045
309
GRIDFORMAT_END
95
2
302
GRIDFORMAT
1
GRIDFORMAT_BEGIN
90
0
91
1
62
0
92
-2
340
0
93
0
40
0.045
309
GRIDFORMAT_END
95
4
302
GRIDFORMAT
1
GRIDFORMAT_BEGIN
90
0
91
1
62
0
92
-2
340
0
93
0
40
0.045
309
GRIDFORMAT_END
95
8
302
GRIDFORMAT
1
GRIDFORMAT_BEGIN
90
0
91
1
62
0
92
-2
340
0
93
0
40
0.045
309
GRIDFORMAT_END
95
16
302
GRIDFORMAT
1
GRIDFORMAT_BEGIN
90
0
91
1
62
0
92
-2
340
0
93
0
40
0.045
309
GRIDFORMAT_END
95
32
302
GRIDFORMAT
1
GRIDFORMAT_BEGIN
90
0
91
1
62
0
92
-2
340
0
93
0
40
0.045
309
GRIDFORMAT_END
309
TABLEFORMAT_END
1
CELLSTYLE_BEGIN
90
1
91
1
300
_TITLE
309
CELLSTYLE_END
300
CELLSTYLE
1
TABLEFORMAT_BEGIN
90
5
170
1
91
0
92
0
62
257
93
1
300
CONTENTFORMAT
1
CONTENTFORMAT_BEGIN
90
0
91
0
92
512
93
0
300

40
0.0
140
1.0
94
5
62
0
340
253
144
0.18
309
CONTENTFORMAT_END
171
1
301
MARGIN
1
CELLMARGIN_BEGIN
40
0.06
40
0.06
40
0.06
40
0.06
40
0.18
40
0.18
309
CELLMARGIN_END
94
6
95
1
302
GRIDFORMAT
1
GRIDFORMAT_BEGIN
90
0
91
1
62
0
92
-2
340
0
93
0
40
0.045
309
GRIDFORMAT_END
95
2
302
GRIDFORMAT
1
GRIDFORMAT_BEGIN
90
0
91
1
62
0
92
-2
340
0
93
0
40
0.045
309
GRIDFORMAT_END
95
4
302
GRIDFORMAT
1
GRIDFORMAT_BEGIN
90
0
91
1
62
0
92
-2
340
0
93
0
40
0.045
309
GRIDFORMAT_END
95
8
302
GRIDFORMAT
1
GRIDFORMAT_BEGIN
90
0
91
1
62
0
92
-2
340
0
93
0
40
0.045
309
GRIDFORMAT_END
95
16
302
GRIDFORMAT
1
GRIDFORMAT_BEGIN
90
0
91
1
62
0
92
-2
340
0
93
0
40
0.045
309
GRIDFORMAT_END
95
32
302
GRIDFORMAT
1
GRIDFORMAT_BEGIN
90
0
91
1
62
0
92
-2
340
0
93
0
40
0.045
309
GRIDFORMAT_END
309
TABLEFORMAT_END
1
CELLSTYLE_BEGIN
90
2
91
1
300
_HEADER
309
CELLSTYLE_END
300
CELLSTYLE
1
TABLEFORMAT_BEGIN
90
5
170
1
91
0
92
0
62
257
93
1
300
CONTENTFORMAT
1
CONTENTFORMAT_BEGIN
90
0
91
0
92
512
93
0
300

40
0.0
140
1.0
94
2
62
0
340
253
144
0.18
309
CONTENTFORMAT_END
171
1
301
MARGIN
1
CELLMARGIN_BEGIN
40
0.06
40
0.06
40
0.06
40
0.06
40
0.18
40
0.18
309
CELLMARGIN_END
94
6
95
1
302
GRIDFORMAT
1
GRIDFORMAT_BEGIN
90
0
91
1
62
0
92
-2
340
0
93
0
40
0.045
309
GRIDFORMAT_END
95
2
302
GRIDFORMAT
1
GRIDFORMAT_BEGIN
90
0
91
1
62
0
92
-2
340
0
93
0
40
0.045
309
GRIDFORMAT_END
95
4
302
GRIDFORMAT
1
GRIDFORMAT_BEGIN
90
0
91
1
62
0
92
-2
340
0
93
0
40
0.045
309
GRIDFORMAT_END
95
8
302
GRIDFORMAT
1
GRIDFORMAT_BEGIN
90
0
91
1
62
0
92
-2
340
0
93
0
40
0.045
309
GRIDFORMAT_END
95
16
302
GRIDFORMAT
1
GRIDFORMAT_BEGIN
90
0
91
1
62
0
92
-2
340
0
93
0
40
0.045
309
GRIDFORMAT_END
95
32
302
GRIDFORMAT
1
GRIDFORMAT_BEGIN
90
0
91
1
62
0
92
-2
340
0
93
0
40
0.045
309
GRIDFORMAT_END
309
TABLEFORMAT_END
1
CELLSTYLE_BEGIN
90
3
91
2
300
_DATA
309
CELLSTYLE_END
0
XRECORD
5
10A6
102
{ACAD_REACTORS
330
FF8
102
}
330
FF8
100
AcDbXrecord
280
1
102
ACAD_ROUNDTRIP_PRE2007_TABLESTYLE
90
512
91
0
1

92
512
93
0
2

94
512
95
0
3

0
XRECORD
5
108B
102
{ACAD_REACTORS
330
108A
102
}
330
108A
100
AcDbXrecord
280
1
102
RTVSPropertyOp0
70
1
102
RTVSPropertyOp1
70
1
102
RTVSPropertyOp2
70
1
102
RTVSPropertyOp3
70
1
102
RTVSPropertyOp4
70
1
102
RTVSPropertyOp5
70
1
102
RTVSPropertyOp6
70
1
102
RTVSPropertyOp7
70
1
102
RTVSPropertyOp8
70
1
102
RTVSPropertyOp9
70
1
102
RTVSPropertyOp10
70
1
102
RTVSPropertyOp11
70
1
102
RTVSPropertyOp12
70
1
102
RTVSPropertyOp13
70
1
102
RTVSPropertyOp14
70
1
102
RTVSPropertyOp15
70
1
102
RTVSPropertyOp16
70
1
102
RTVSPropertyOp17
70
1
102
RTVSPropertyOp18
70
1
102
RTVSPropertyOp19
70
1
102
RTVSPropertyOp20
70
1
102
RTVSPropertyOp21
70
1
102
RTVSPropertyOp22
70
1
102
RTVSPropertyOp23
70
1
102
RTVSPropertyOp24
70
1
102
RTVSPropertyOp25
70
1
102
RTVSPropertyOp26
70
1
102
RTVSPropertyOp27
70
1
0
XRECORD
5
108F
102
{ACAD_REACTORS
330
108E
102
}
330
108E
100
AcDbXrecord
280
1
102
RTVSPropertyOp0
70
1
102
RTVSPropertyOp1
70
1
102
RTVSPropertyOp2
70
1
102
RTVSPropertyOp3
70
1
102
RTVSPropertyOp4
70
1
102
RTVSPropertyOp5
70
1
102
RTVSPropertyOp6
70
1
102
RTVSPropertyOp7
70
1
102
RTVSPropertyOp8
70
1
102
RTVSPropertyOp9
70
1
102
RTVSPropertyOp10
70
1
102
RTVSPropertyOp11
70
1
102
RTVSPropertyOp12
70
1
102
RTVSPropertyOp13
70
1
102
RTVSPropertyOp14
70
1
102
RTVSPropertyOp15
70
1
102
RTVSPropertyOp16
70
1
102
RTVSPropertyOp17
70
1
102
RTVSPropertyOp18
70
1
102
RTVSPropertyOp19
70
1
102
RTVSPropertyOp20
70
1
102
RTVSPropertyOp21
70
1
102
RTVSPropertyOp22
70
1
102
RTVSPropertyOp23
70
1
102
RTVSPropertyOp24
70
1
102
RTVSPropertyOp25
70
1
102
RTVSPropertyOp26
70
1
102
RTVSPropertyOp27
70
1
0
XRECORD
5
108D
102
{ACAD_REACTORS
330
108C
102
}
330
108C
100
AcDbXrecord
280
1
102
RTVSPropertyOp0
70
1
102
RTVSPropertyOp1
70
1
102
RTVSPropertyOp2
70
1
102
RTVSPropertyOp3
70
1
102
RTVSPropertyOp4
70
1
102
RTVSPropertyOp5
70
1
102
RTVSPropertyOp6
70
1
102
RTVSPropertyOp7
70
1
102
RTVSPropertyOp8
70
1
102
RTVSPropertyOp9
70
1
102
RTVSPropertyOp10
70
1
102
RTVSPropertyOp11
70
1
102
RTVSPropertyOp12
70
1
102
RTVSPropertyOp13
70
1
102
RTVSPropertyOp14
70
1
102
RTVSPropertyOp15
70
1
102
RTVSPropertyOp16
70
1
102
RTVSPropertyOp17
70
1
102
RTVSPropertyOp18
70
1
102
RTVSPropertyOp19
70
1
102
RTVSPropertyOp20
70
1
102
RTVSPropertyOp21
70
1
102
RTVSPropertyOp22
70
1
102
RTVSPropertyOp23
70
1
102
RTVSPropertyOp24
70
1
102
RTVSPropertyOp25
70
1
102
RTVSPropertyOp26
70
1
102
RTVSPropertyOp27
70
1
0
XRECORD
5
1089
102
{ACAD_REACTORS
330
1088
102
}
330
1088
100
AcDbXrecord
280
1
102
RTVSPropertyOp0
70
1
102
RTVSPropertyOp1
70
1
102
RTVSPropertyOp2
70
1
102
RTVSPropertyOp3
70
1
102
RTVSPropertyOp4
70
1
102
RTVSPropertyOp5
70
1
102
RTVSPropertyOp6
70
1
102
RTVSPropertyOp7
70
1
102
RTVSPropertyOp8
70
1
102
RTVSPropertyOp9
70
1
102
RTVSPropertyOp10
70
1
102
RTVSPropertyOp11
70
1
102
RTVSPropertyOp12
70
1
102
RTVSPropertyOp13
70
1
102
RTVSPropertyOp14
70
1
102
RTVSPropertyOp15
70
1
102
RTVSPropertyOp16
70
1
102
RTVSPropertyOp17
70
1
102
RTVSPropertyOp18
70
1
102
RTVSPropertyOp19
70
1
102
RTVSPropertyOp20
70
1
102
RTVSPropertyOp21
70
1
102
RTVSPropertyOp22
70
1
102
RTVSPropertyOp23
70
1
102
RTVSPropertyOp24
70
1
102
RTVSPropertyOp25
70
1
102
RTVSPropertyOp26
70
1
102
RTVSPropertyOp27
70
1
0
XRECORD
5
1097
102
{ACAD_REACTORS
330
1096
102
}
330
1096
100
AcDbXrecord
280
1
102
RTVSPropertyOp0
70
1
102
RTVSPropertyOp1
70
1
102
RTVSPropertyOp2
70
1
102
RTVSPropertyOp3
70
1
102
RTVSPropertyOp4
70
1
102
RTVSPropertyOp5
70
1
102
RTVSPropertyOp6
70
1
102
RTVSPropertyOp7
70
1
102
RTVSPropertyOp8
70
1
102
RTVSPropertyOp9
70
1
102
RTVSPropertyOp10
70
1
102
RTVSPropertyOp11
70
1
102
RTVSPropertyOp12
70
1
102
RTVSPropertyOp13
70
1
102
RTVSPropertyOp14
70
1
102
RTVSPropertyOp15
70
1
102
RTVSPropertyOp16
70
1
102
RTVSPropertyOp17
70
1
102
RTVSPropertyOp18
70
1
102
RTVSPropertyOp19
70
1
102
RTVSPropertyOp20
70
1
102
RTVSPropertyOp21
70
1
102
RTVSPropertyOp22
70
1
102
RTVSPropertyOp23
70
1
102
RTVSPropertyOp24
70
1
102
RTVSPropertyOp25
70
1
102
RTVSPropertyOp26
70
1
102
RTVSPropertyOp27
70
1
0
XRECORD
5
109F
102
{ACAD_REACTORS
330
109E
102
}
330
109E
100
AcDbXrecord
280
1
102
RTVSPropertyOp0
70
1
102
RTVSPropertyOp1
70
1
102
RTVSPropertyOp2
70
1
102
RTVSPropertyOp3
70
1
102
RTVSPropertyOp4
70
1
102
RTVSPropertyOp5
70
1
102
RTVSPropertyOp6
70
1
102
RTVSPropertyOp7
70
1
102
RTVSPropertyOp8
70
1
102
RTVSPropertyOp9
70
1
102
RTVSPropertyOp10
70
1
102
RTVSPropertyOp11
70
1
102
RTVSPropertyOp12
70
1
102
RTVSPropertyOp13
70
1
102
RTVSPropertyOp14
70
1
102
RTVSPropertyOp15
70
1
102
RTVSPropertyOp16
70
1
102
RTVSPropertyOp17
70
1
102
RTVSPropertyOp18
70
1
102
RTVSPropertyOp19
70
1
102
RTVSPropertyOp20
70
1
102
RTVSPropertyOp21
70
1
102
RTVSPropertyOp22
70
1
102
RTVSPropertyOp23
70
1
102
RTVSPropertyOp24
70
1
102
RTVSPropertyOp25
70
1
102
RTVSPropertyOp26
70
1
102
RTVSPropertyOp27
70
1
0
XRECORD
5
1091
102
{ACAD_REACTORS
330
1090
102
}
330
1090
100
AcDbXrecord
280
1
102
RTVSPropertyOp0
70
1
102
RTVSPropertyOp1
70
1
102
RTVSPropertyOp2
70
1
102
RTVSPropertyOp3
70
1
102
RTVSPropertyOp4
70
1
102
RTVSPropertyOp5
70
1
102
RTVSPropertyOp6
70
1
102
RTVSPropertyOp7
70
1
102
RTVSPropertyOp8
70
1
102
RTVSPropertyOp9
70
1
102
RTVSPropertyOp10
70
1
102
RTVSPropertyOp11
70
1
102
RTVSPropertyOp12
70
1
102
RTVSPropertyOp13
70
1
102
RTVSPropertyOp14
70
1
102
RTVSPropertyOp15
70
1
102
RTVSPropertyOp16
70
1
102
RTVSPropertyOp17
70
1
102
RTVSPropertyOp18
70
1
102
RTVSPropertyOp19
70
1
102
RTVSPropertyOp20
70
1
102
RTVSPropertyOp21
70
1
102
RTVSPropertyOp22
70
1
102
RTVSPropertyOp23
70
1
102
RTVSPropertyOp24
70
1
102
RTVSPropertyOp25
70
1
102
RTVSPropertyOp26
70
1
102
RTVSPropertyOp27
70
1
0
XRECORD
5
1095
102
{ACAD_REACTORS
330
1094
102
}
330
1094
100
AcDbXrecord
280
1
102
RTVSPropertyOp0
70
1
102
RTVSPropertyOp1
70
1
102
RTVSPropertyOp2
70
1
102
RTVSPropertyOp3
70
1
102
RTVSPropertyOp4
70
1
102
RTVSPropertyOp5
70
1
102
RTVSPropertyOp6
70
1
102
RTVSPropertyOp7
70
1
102
RTVSPropertyOp8
70
1
102
RTVSPropertyOp9
70
1
102
RTVSPropertyOp10
70
1
102
RTVSPropertyOp11
70
1
102
RTVSPropertyOp12
70
1
102
RTVSPropertyOp13
70
1
102
RTVSPropertyOp14
70
1
102
RTVSPropertyOp15
70
1
102
RTVSPropertyOp16
70
1
102
RTVSPropertyOp17
70
1
102
RTVSPropertyOp18
70
1
102
RTVSPropertyOp19
70
1
102
RTVSPropertyOp20
70
1
102
RTVSPropertyOp21
70
1
102
RTVSPropertyOp22
70
1
102
RTVSPropertyOp23
70
1
102
RTVSPropertyOp24
70
1
102
RTVSPropertyOp25
70
1
102
RTVSPropertyOp26
70
1
102
RTVSPropertyOp27
70
1
0
XRECORD
5
10A5
102
{ACAD_REACTORS
330
10A4
102
}
330
10A4
100
AcDbXrecord
280
1
102
RTVSPropertyOp0
70
0
102
RTVSPropertyOp1
70
0
102
RTVSPropertyOp2
70
0
102
RTVSPropertyOp3
70
0
102
RTVSPropertyOp4
70
0
102
RTVSPropertyOp5
70
0
102
RTVSPropertyOp6
70
0
102
RTVSPropertyOp7
70
0
102
RTVSPropertyOp8
70
0
102
RTVSPropertyOp9
70
0
102
RTVSPropertyOp10
70
0
102
RTVSPropertyOp11
70
0
102
RTVSPropertyOp12
70
0
102
RTVSPropertyOp13
70
0
102
RTVSPropertyOp14
70
2
102
RTVSPropertyOp15
70
0
102
RTVSPropertyOp16
70
0
102
RTVSPropertyOp17
70
0
102
RTVSPropertyOp18
70
0
102
RTVSPropertyOp19
70
0
102
RTVSPropertyOp20
70
0
102
RTVSPropertyOp21
70
0
102
RTVSPropertyOp22
70
0
102
RTVSPropertyOp23
70
0
102
RTVSPropertyOp24
70
0
102
RTVSPropertyOp25
70
0
102
RTVSPropertyOp26
70
0
102
RTVSPropertyOp27
70
0
0
XRECORD
5
109D
102
{ACAD_REACTORS
330
109C
102
}
330
109C
100
AcDbXrecord
280
1
102
RTVSPropertyOp0
70
1
102
RTVSPropertyOp1
70
1
102
RTVSPropertyOp2
70
1
102
RTVSPropertyOp3
70
1
102
RTVSPropertyOp4
70
1
102
RTVSPropertyOp5
70
1
102
RTVSPropertyOp6
70
1
102
RTVSPropertyOp7
70
1
102
RTVSPropertyOp8
70
1
102
RTVSPropertyOp9
70
1
102
RTVSPropertyOp10
70
1
102
RTVSPropertyOp11
70
1
102
RTVSPropertyOp12
70
1
102
RTVSPropertyOp13
70
1
102
RTVSPropertyOp14
70
1
102
RTVSPropertyOp15
70
1
102
RTVSPropertyOp16
70
1
102
RTVSPropertyOp17
70
1
102
RTVSPropertyOp18
70
1
102
RTVSPropertyOp19
70
1
102
RTVSPropertyOp20
70
1
102
RTVSPropertyOp21
70
1
102
RTVSPropertyOp22
70
1
102
RTVSPropertyOp23
70
1
102
RTVSPropertyOp24
70
1
102
RTVSPropertyOp25
70
1
102
RTVSPropertyOp26
70
1
102
RTVSPropertyOp27
70
1
0
XRECORD
5
1081
102
{ACAD_REACTORS
330
1080
102
}
330
1080
100
AcDbXrecord
280
1
102
RTVSPropertyOp0
70
1
102
RTVSPropertyOp1
70
1
102
RTVSPropertyOp2
70
1
102
RTVSPropertyOp3
70
1
102
RTVSPropertyOp4
70
1
102
RTVSPropertyOp5
70
1
102
RTVSPropertyOp6
70
1
102
RTVSPropertyOp7
70
1
102
RTVSPropertyOp8
70
1
102
RTVSPropertyOp9
70
1
102
RTVSPropertyOp10
70
1
102
RTVSPropertyOp11
70
1
102
RTVSPropertyOp12
70
1
102
RTVSPropertyOp13
70
1
102
RTVSPropertyOp14
70
1
102
RTVSPropertyOp15
70
1
102
RTVSPropertyOp16
70
1
102
RTVSPropertyOp17
70
1
102
RTVSPropertyOp18
70
1
102
RTVSPropertyOp19
70
1
102
RTVSPropertyOp20
70
1
102
RTVSPropertyOp21
70
1
102
RTVSPropertyOp22
70
1
102
RTVSPropertyOp23
70
1
102
RTVSPropertyOp24
70
1
102
RTVSPropertyOp25
70
1
102
RTVSPropertyOp26
70
1
102
RTVSPropertyOp27
70
1
0
XRECORD
5
1083
102
{ACAD_REACTORS
330
1082
102
}
330
1082
100
AcDbXrecord
280
1
102
RTVSPropertyOp0
70
1
102
RTVSPropertyOp1
70
1
102
RTVSPropertyOp2
70
1
102
RTVSPropertyOp3
70
1
102
RTVSPropertyOp4
70
1
102
RTVSPropertyOp5
70
1
102
RTVSPropertyOp6
70
1
102
RTVSPropertyOp7
70
1
102
RTVSPropertyOp8
70
1
102
RTVSPropertyOp9
70
1
102
RTVSPropertyOp10
70
1
102
RTVSPropertyOp11
70
1
102
RTVSPropertyOp12
70
1
102
RTVSPropertyOp13
70
1
102
RTVSPropertyOp14
70
1
102
RTVSPropertyOp15
70
1
102
RTVSPropertyOp16
70
1
102
RTVSPropertyOp17
70
1
102
RTVSPropertyOp18
70
1
102
RTVSPropertyOp19
70
1
102
RTVSPropertyOp20
70
1
102
RTVSPropertyOp21
70
1
102
RTVSPropertyOp22
70
1
102
RTVSPropertyOp23
70
1
102
RTVSPropertyOp24
70
1
102
RTVSPropertyOp25
70
1
102
RTVSPropertyOp26
70
1
102
RTVSPropertyOp27
70
1
0
XRECORD
5
1085
102
{ACAD_REACTORS
330
1084
102
}
330
1084
100
AcDbXrecord
280
1
102
RTVSPropertyOp0
70
1
102
RTVSPropertyOp1
70
1
102
RTVSPropertyOp2
70
1
102
RTVSPropertyOp3
70
1
102
RTVSPropertyOp4
70
1
102
RTVSPropertyOp5
70
1
102
RTVSPropertyOp6
70
1
102
RTVSPropertyOp7
70
1
102
RTVSPropertyOp8
70
1
102
RTVSPropertyOp9
70
1
102
RTVSPropertyOp10
70
1
102
RTVSPropertyOp11
70
1
102
RTVSPropertyOp12
70
1
102
RTVSPropertyOp13
70
1
102
RTVSPropertyOp14
70
1
102
RTVSPropertyOp15
70
1
102
RTVSPropertyOp16
70
1
102
RTVSPropertyOp17
70
1
102
RTVSPropertyOp18
70
1
102
RTVSPropertyOp19
70
1
102
RTVSPropertyOp20
70
1
102
RTVSPropertyOp21
70
1
102
RTVSPropertyOp22
70
1
102
RTVSPropertyOp23
70
1
102
RTVSPropertyOp24
70
1
102
RTVSPropertyOp25
70
1
102
RTVSPropertyOp26
70
1
102
RTVSPropertyOp27
70
1
0
XRECORD
5
1087
102
{ACAD_REACTORS
330
1086
102
}
330
1086
100
AcDbXrecord
280
1
102
RTVSPropertyOp0
70
1
102
RTVSPropertyOp1
70
1
102
RTVSPropertyOp2
70
1
102
RTVSPropertyOp3
70
1
102
RTVSPropertyOp4
70
1
102
RTVSPropertyOp5
70
1
102
RTVSPropertyOp6
70
1
102
RTVSPropertyOp7
70
1
102
RTVSPropertyOp8
70
1
102
RTVSPropertyOp9
70
1
102
RTVSPropertyOp10
70
1
102
RTVSPropertyOp11
70
1
102
RTVSPropertyOp12
70
1
102
RTVSPropertyOp13
70
1
102
RTVSPropertyOp14
70
1
102
RTVSPropertyOp15
70
1
102
RTVSPropertyOp16
70
1
102
RTVSPropertyOp17
70
1
102
RTVSPropertyOp18
70
1
102
RTVSPropertyOp19
70
1
102
RTVSPropertyOp20
70
1
102
RTVSPropertyOp21
70
1
102
RTVSPropertyOp22
70
1
102
RTVSPropertyOp23
70
1
102
RTVSPropertyOp24
70
1
102
RTVSPropertyOp25
70
1
102
RTVSPropertyOp26
70
1
102
RTVSPropertyOp27
70
1
0
XRECORD
5
10A1
102
{ACAD_REACTORS
330
10A0
102
}
330
10A0
100
AcDbXrecord
280
1
102
RTVSPropertyOp0
70
0
102
RTVSPropertyOp1
70
0
102
RTVSPropertyOp2
70
0
102
RTVSPropertyOp3
70
0
102
RTVSPropertyOp4
70
0
102
RTVSPropertyOp5
70
0
102
RTVSPropertyOp6
70
0
102
RTVSPropertyOp7
70
0
102
RTVSPropertyOp8
70
0
102
RTVSPropertyOp9
70
0
102
RTVSPropertyOp10
70
0
102
RTVSPropertyOp11
70
0
102
RTVSPropertyOp12
70
0
102
RTVSPropertyOp13
70
0
102
RTVSPropertyOp14
70
2
102
RTVSPropertyOp15
70
0
102
RTVSPropertyOp16
70
0
102
RTVSPropertyOp17
70
0
102
RTVSPropertyOp18
70
0
102
RTVSPropertyOp19
70
0
102
RTVSPropertyOp20
70
0
102
RTVSPropertyOp21
70
0
102
RTVSPropertyOp22
70
0
102
RTVSPropertyOp23
70
0
102
RTVSPropertyOp24
70
0
102
RTVSPropertyOp25
70
0
102
RTVSPropertyOp26
70
0
102
RTVSPropertyOp27
70
0
0
XRECORD
5
109B
102
{ACAD_REACTORS
330
109A
102
}
330
109A
100
AcDbXrecord
280
1
102
RTVSPropertyOp0
70
1
102
RTVSPropertyOp1
70
1
102
RTVSPropertyOp2
70
1
102
RTVSPropertyOp3
70
1
102
RTVSPropertyOp4
70
1
102
RTVSPropertyOp5
70
1
102
RTVSPropertyOp6
70
1
102
RTVSPropertyOp7
70
1
102
RTVSPropertyOp8
70
1
102
RTVSPropertyOp9
70
1
102
RTVSPropertyOp10
70
1
102
RTVSPropertyOp11
70
1
102
RTVSPropertyOp12
70
1
102
RTVSPropertyOp13
70
1
102
RTVSPropertyOp14
70
1
102
RTVSPropertyOp15
70
1
102
RTVSPropertyOp16
70
1
102
RTVSPropertyOp17
70
1
102
RTVSPropertyOp18
70
1
102
RTVSPropertyOp19
70
1
102
RTVSPropertyOp20
70
1
102
RTVSPropertyOp21
70
1
102
RTVSPropertyOp22
70
1
102
RTVSPropertyOp23
70
1
102
RTVSPropertyOp24
70
1
102
RTVSPropertyOp25
70
1
102
RTVSPropertyOp26
70
1
102
RTVSPropertyOp27
70
1
0
XRECORD
5
10A3
102
{ACAD_REACTORS
330
10A2
102
}
330
10A2
100
AcDbXrecord
280
1
102
RTVSPropertyOp0
70
0
102
RTVSPropertyOp1
70
0
102
RTVSPropertyOp2
70
0
102
RTVSPropertyOp3
70
0
102
RTVSPropertyOp4
70
0
102
RTVSPropertyOp5
70
0
102
RTVSPropertyOp6
70
0
102
RTVSPropertyOp7
70
0
102
RTVSPropertyOp8
70
0
102
RTVSPropertyOp9
70
0
102
RTVSPropertyOp10
70
0
102
RTVSPropertyOp11
70
0
102
RTVSPropertyOp12
70
0
102
RTVSPropertyOp13
70
0
102
RTVSPropertyOp14
70
2
102
RTVSPropertyOp15
70
0
102
RTVSPropertyOp16
70
0
102
RTVSPropertyOp17
70
0
102
RTVSPropertyOp18
70
0
102
RTVSPropertyOp19
70
0
102
RTVSPropertyOp20
70
0
102
RTVSPropertyOp21
70
0
102
RTVSPropertyOp22
70
0
102
RTVSPropertyOp23
70
0
102
RTVSPropertyOp24
70
0
102
RTVSPropertyOp25
70
0
102
RTVSPropertyOp26
70
0
102
RTVSPropertyOp27
70
0
0
XRECORD
5
1093
102
{ACAD_REACTORS
330
1092
102
}
330
1092
100
AcDbXrecord
280
1
102
RTVSPropertyOp0
70
1
102
RTVSPropertyOp1
70
1
102
RTVSPropertyOp2
70
1
102
RTVSPropertyOp3
70
1
102
RTVSPropertyOp4
70
1
102
RTVSPropertyOp5
70
1
102
RTVSPropertyOp6
70
1
102
RTVSPropertyOp7
70
1
102
RTVSPropertyOp8
70
1
102
RTVSPropertyOp9
70
1
102
RTVSPropertyOp10
70
1
102
RTVSPropertyOp11
70
1
102
RTVSPropertyOp12
70
1
102
RTVSPropertyOp13
70
1
102
RTVSPropertyOp14
70
1
102
RTVSPropertyOp15
70
1
102
RTVSPropertyOp16
70
1
102
RTVSPropertyOp17
70
1
102
RTVSPropertyOp18
70
1
102
RTVSPropertyOp19
70
1
102
RTVSPropertyOp20
70
1
102
RTVSPropertyOp21
70
1
102
RTVSPropertyOp22
70
1
102
RTVSPropertyOp23
70
1
102
RTVSPropertyOp24
70
1
102
RTVSPropertyOp25
70
1
102
RTVSPropertyOp26
70
1
102
RTVSPropertyOp27
70
1
0
XRECORD
5
1099
102
{ACAD_REACTORS
330
1098
102
}
330
1098
100
AcDbXrecord
280
1
102
RTVSPropertyOp0
70
1
102
RTVSPropertyOp1
70
1
102
RTVSPropertyOp2
70
1
102
RTVSPropertyOp3
70
1
102
RTVSPropertyOp4
70
1
102
RTVSPropertyOp5
70
1
102
RTVSPropertyOp6
70
1
102
RTVSPropertyOp7
70
1
102
RTVSPropertyOp8
70
1
102
RTVSPropertyOp9
70
1
102
RTVSPropertyOp10
70
1
102
RTVSPropertyOp11
70
1
102
RTVSPropertyOp12
70
1
102
RTVSPropertyOp13
70
1
102
RTVSPropertyOp14
70
1
102
RTVSPropertyOp15
70
1
102
RTVSPropertyOp16
70
1
102
RTVSPropertyOp17
70
1
102
RTVSPropertyOp18
70
1
102
RTVSPropertyOp19
70
1
102
RTVSPropertyOp20
70
1
102
RTVSPropertyOp21
70
1
102
RTVSPropertyOp22
70
1
102
RTVSPropertyOp23
70
1
102
RTVSPropertyOp24
70
1
102
RTVSPropertyOp25
70
1
102
RTVSPropertyOp26
70
1
102
RTVSPropertyOp27
70
1
0
ENDSEC
0
EOF
