0
SECTION
2
HEADER
9
$ACADVER
1
AC1015
9
$ACADMAINTVER
70
20
9
$DWGCODEPAGE
3
ANSI_1252
9
$INSBASE
10
0.0
20
0.0
30
0.0
9
$EXTMIN
10
-150.000000000000
20
-105.000000000000
30
0.0
9
$EXTMAX
10
150.000000000000
20
105.000000000000
30
0.0
9
$LIMMIN
10
0.0
20
0.0
9
$LIMMAX
10
12.0
20
9.0
9
$ORTHOMODE
70
0
9
$REGENMODE
70
1
9
$FILLMODE
70
1
9
$QTEXTMODE
70
0
9
$MIRRTEXT
70
1
9
$LTSCALE
40
1.0
9
$ATTMODE
70
1
9
$TEXTSIZE
40
0.2
9
$TRACEWID
40
0.05
9
$TEXTSTYLE
7
Standard
9
$CLAYER
8
0
9
$CELTYPE
6
ByLayer
9
$CECOLOR
62
256
9
$CELTSCALE
40
1.0
9
$DISPSILH
70
0
9
$DIMSCALE
40
1.0
9
$DIMASZ
40
2.5
9
$DIMEXO
40
0.625
9
$DIMDLI
40
0.38
9
$DIMRND
40
0.0
9
$DIMDLE
40
0.0
9
$DIMEXE
40
1.25
9
$DIMTP
40
0.0
9
$DIMTM
40
0.000000001
9
$DIMTXT
40
2.5
9
$DIMCEN
40
0.09
9
$DIMTSZ
40
0.0
9
$DIMTOL
70
1
9
$DIMLIM
70
0
9
$DIMTIH
70
0
9
$DIMTOH
70
0
9
$DIMSE1
70
0
9
$DIMSE2
70
0
9
$DIMTAD
70
1
9
$DIMZIN
70
0
9
$DIMBLK
1
VDDIM_DEFAULT
9
$DIMASO
70
1
9
$DIMSHO
70
1
9
$DIMPOST
1

9
$DIMAPOST
1

9
$DIMALT
70
0
9
$DIMALTD
70
2
9
$DIMALTF
40
25.4
9
$DIMLFAC
40
1.00000000000000
9
$DIMTOFL
70
0
9
$DIMTVP
40
0.0
9
$DIMTIX
70
0
9
$DIMSOXD
70
0
9
$DIMSAH
70
0
9
$DIMBLK1
1

9
$DIMBLK2
1

9
$DIMSTYLE
2
BEM-ISBE
9
$DIMCLRD
70
0
9
$DIMCLRE
70
0
9
$DIMCLRT
70
0
9
$DIMTFAC
40
0.5
9
$DIMGAP
40
0.625
9
$DIMJUST
70
0
9
$DIMSD1
70
0
9
$DIMSD2
70
0
9
$DIMTOLJ
70
1
9
$DIMTZIN
70
0
9
$DIMALTZ
70
0
9
$DIMALTTZ
70
0
9
$DIMUPT
70
0
9
$DIMDEC
70
3
9
$DIMTDEC
70
3
9
$DIMALTU
70
2
9
$DIMALTTD
70
2
9
$DIMTXSTY
7
Standard
9
$DIMAUNIT
70
0
9
$DIMADEC
70
3
9
$DIMALTRND
40
0.0
9
$DIMAZIN
70
0
9
$DIMDSEP
70
46
9
$DIMATFIT
70
3
9
$DIMFRAC
70
0
9
$DIMLDRBLK
1

9
$DIMLUNIT
70
2
9
$DIMLWD
70
-2
9
$DIMLWE
70
-2
9
$DIMTMOVE
70
0
9
$LUNITS
70
2
9
$LUPREC
70
4
9
$SKETCHINC
40
0.1
9
$FILLETRAD
40
0.5
9
$AUNITS
70
0
9
$AUPREC
70
0
9
$MENU
1
.
9
$ELEVATION
40
0.0
9
$PELEVATION
40
0.0
9
$THICKNESS
40
0.0
9
$LIMCHECK
70
0
9
$CHAMFERA
40
0.5
9
$CHAMFERB
40
0.5
9
$CHAMFERC
40
1.0
9
$CHAMFERD
40
0.0
9
$SKPOLY
70
0
9
$TDCREATE
40
0.0
9
$TDUCREATE
40
0.0
9
$TDUPDATE
40
0.0
9
$TDUUPDATE
40
0.0
9
$TDINDWG
40
0.0
9
$TDUSRTIMER
40
0.0
9
$USRTIMER
70
1
9
$ANGBASE
50
0.0
9
$ANGDIR
70
0
9
$PDMODE
70
0
9
$PDSIZE
40
0.0
9
$PLINEWID
40
0.0
9
$SPLFRAME
70
0
9
$SPLINETYPE
70
6
9
$SPLINESEGS
70
8
9
$HANDSEED
5
10AB
9
$SURFTAB1
70
6
9
$SURFTAB2
70
6
9
$SURFTYPE
70
6
9
$SURFU
70
6
9
$SURFV
70
6
9
$UCSBASE
2

9
$UCSNAME
2

9
$UCSORG
10
0.0
20
0.0
30
0.0
9
$UCSXDIR
10
1.0
20
0.0
30
0.0
9
$UCSYDIR
10
0.0
20
1.0
30
0.0
9
$UCSORTHOREF
2

9
$UCSORTHOVIEW
70
0
9
$UCSORGTOP
10
0.0
20
0.0
30
0.0
9
$UCSORGBOTTOM
10
0.0
20
0.0
30
0.0
9
$UCSORGLEFT
10
0.0
20
0.0
30
0.0
9
$UCSORGRIGHT
10
0.0
20
0.0
30
0.0
9
$UCSORGFRONT
10
0.0
20
0.0
30
0.0
9
$UCSORGBACK
10
0.0
20
0.0
30
0.0
9
$PUCSBASE
2

9
$PUCSNAME
2

9
$PUCSORG
10
0.0
20
0.0
30
0.0
9
$PUCSXDIR
10
1.0
20
0.0
30
0.0
9
$PUCSYDIR
10
0.0
20
1.0
30
0.0
9
$PUCSORTHOREF
2

9
$PUCSORTHOVIEW
70
0
9
$PUCSORGTOP
10
0.0
20
0.0
30
0.0
9
$PUCSORGBOTTOM
10
0.0
20
0.0
30
0.0
9
$PUCSORGLEFT
10
0.0
20
0.0
30
0.0
9
$PUCSORGRIGHT
10
0.0
20
0.0
30
0.0
9
$PUCSORGFRONT
10
0.0
20
0.0
30
0.0
9
$PUCSORGBACK
10
0.0
20
0.0
30
0.0
9
$USERI1
70
0
9
$USERI2
70
0
9
$USERI3
70
0
9
$USERI4
70
0
9
$USERI5
70
0
9
$USERR1
40
0.0
9
$USERR2
40
0.0
9
$USERR3
40
0.0
9
$USERR4
40
0.0
9
$USERR5
40
0.0
9
$WORLDVIEW
70
1
9
$SHADEDGE
70
3
9
$SHADEDIF
70
70
9
$TILEMODE
70
1
9
$MAXACTVP
70
64
9
$PINSBASE
10
0.0
20
0.0
30
0.0
9
$PLIMCHECK
70
0
9
$PEXTMIN
10
1.000000000000000E+20
20
1.000000000000000E+20
30
1.000000000000000E+20
9
$PEXTMAX
10
-1.000000000000000E+20
20
-1.000000000000000E+20
30
-1.000000000000000E+20
9
$PLIMMIN
10
0.0
20
0.0
9
$PLIMMAX
10
12.0
20
9.0
9
$UNITMODE
70
0
9
$VISRETAIN
70
1
9
$PLINEGEN
70
0
9
$PSLTSCALE
70
1
9
$TREEDEPTH
70
3020
9
$CMLSTYLE
2
Standard
9
$CMLJUST
70
0
9
$CMLSCALE
40
1.0
9
$PROXYGRAPHICS
70
1
9
$MEASUREMENT
70
0
9
$CELWEIGHT
370
-1
9
$ENDCAPS
280
0
9
$JOINSTYLE
280
0
9
$LWDISPLAY
290
0
9
$INSUNITS
70
4
9
$HYPERLINKBASE
1

9
$STYLESHEET
1

9
$XEDIT
290
1
9
$CEPSNTYPE
380
0
9
$PSTYLEMODE
290
0
9
$FINGERPRINTGUID
2
{FAEB1C30-E019-11D5-929B-00C0DF256EC4}
9
$VERSIONGUID
2
{04C5C4E4-4947-4D90-8812-D401569E61F7}
9
$EXTNAMES
290
1
9
$PSVPSCALE
40
0.0
9
$OLESTARTUP
290
0
0
ENDSEC
0
SECTION
2
TABLES
0
TABLE
2
VPORT
5
24A
330
0
100
AcDbSymbolTable
70
1
0
VPORT
5
26B
330
24A
100
AcDbSymbolTableRecord
100
AcDbViewportTableRecord
2
*Active
70
0
10
0.0
20
0.0
11
1.0
21
1.0
12
0.000000000000000
22
0.000000000000000
13
0.0
23
0.0
14
10.0
24
10.0
15
10.0
25
10.0
16
0.0
26
0.0
36
1.0
17
0.0
27
0.0
37
0.0
40
210.000000000000
41
1.42857142857143
42
1.0
43
0.0
44
0.0
50
0.0
51
0.0000000000007958
71
0
72
100
73
1
74
3
75
0
76
0
77
0
78
1
281
0
65
1
110
0.0
120
0.0
130
0.0
111
1.0
121
0.0
131
0.0
112
0.0
122
1.0
132
0.0
79
0
146
0.0
0
ENDTAB
0
TABLE
2
LTYPE
5
247
330
0
100
AcDbSymbolTable
70
25
0
LTYPE
5
256
330
247
100
AcDbSymbolTableRecord
100
AcDbLinetypeTableRecord
2
ByBlock
70
0
3

72
65
73
0
40
0.0
0
LTYPE
5
257
330
247
100
AcDbSymbolTableRecord
100
AcDbLinetypeTableRecord
2
ByLayer
70
0
3

72
65
73
0
40
0.0
0
LTYPE
5
258
330
247
100
AcDbSymbolTableRecord
100
AcDbLinetypeTableRecord
2
Continuous
70
0
3
Solid line
72
65
73
0
40
0.0
0
LTYPE
5
273
330
247
100
AcDbSymbolTableRecord
100
AcDbLinetypeTableRecord
2
CENTER
70
0
3
Center ____ _ ____ _ ____ _ ____ _ ____ _ ____
72
65
73
4
40
2.0
49
1.25
74
0
49
-0.25
74
0
49
0.25
74
0
49
-0.25
74
0
0
LTYPE
5
274
330
247
100
AcDbSymbolTableRecord
100
AcDbLinetypeTableRecord
2
DASHDOT
70
0
3
Dashdot __ . __ . __ . __ . __ . __ . __ . __
72
65
73
4
40
1.0
49
0.5
74
0
49
-0.25
74
0
49
0.0
74
0
49
-0.25
74
0
0
LTYPE
5
275
330
247
100
AcDbSymbolTableRecord
100
AcDbLinetypeTableRecord
2
DASHED
70
0
3
Dashed __ __ __ __ __ __ __ __ __ __ __ __ __ _
72
65
73
2
40
0.75
49
0.5
74
0
49
-0.25
74
0
0
LTYPE
5
276
330
247
100
AcDbSymbolTableRecord
100
AcDbLinetypeTableRecord
2
HIDDEN
70
0
3
Hidden __ __ __ __ __ __ __ __ __ __ __ __ __ __
72
65
73
2
40
0.375
49
0.25
74
0
49
-0.125
74
0
0
LTYPE
5
277
330
247
100
AcDbSymbolTableRecord
100
AcDbLinetypeTableRecord
2
HIDDEN2
70
0
3
Hidden2 _ _ _ _ _ _ _ _ _ _ _ _ _ _ _ _ _
72
65
73
2
40
0.1875
49
0.125
74
0
49
-0.0625
74
0
0
LTYPE
5
278
330
247
100
AcDbSymbolTableRecord
100
AcDbLinetypeTableRecord
2
BORDER
70
0
3
Border __ __ . __ __ . __ __ . __ __ . __ __ .
72
65
73
6
40
1.75
49
0.5
74
0
49
-0.25
74
0
49
0.5
74
0
49
-0.25
74
0
49
0.0
74
0
49
-0.25
74
0
0
LTYPE
5
279
330
247
100
AcDbSymbolTableRecord
100
AcDbLinetypeTableRecord
2
BORDER2
70
0
3
Border2 __.__.__.__.__.__.__.__.__.__.__.
72
65
73
6
40
0.875
49
0.25
74
0
49
-0.125
74
0
49
0.25
74
0
49
-0.125
74
0
49
0.0
74
0
49
-0.125
74
0
0
LTYPE
5
27A
330
247
100
AcDbSymbolTableRecord
100
AcDbLinetypeTableRecord
2
BORDERX2
70
0
3
Borderx2  ____  ____  .  ____  ____  .  ___
72
65
73
6
40
3.5
49
1.0
74
0
49
-0.5
74
0
49
1.0
74
0
49
-0.5
74
0
49
0.0
74
0
49
-0.5
74
0
0
LTYPE
5
27B
330
247
100
AcDbSymbolTableRecord
100
AcDbLinetypeTableRecord
2
CENTER2
70
0
3
Center2  ___ _ ___ _ ___ _ ___ _ ___ _ ___
72
65
73
4
40
1.125
49
0.75
74
0
49
-0.125
74
0
49
0.125
74
0
49
-0.125
74
0
0
LTYPE
5
27C
330
247
100
AcDbSymbolTableRecord
100
AcDbLinetypeTableRecord
2
CENTERX2
70
0
3
Centerx2  ________  __  ________  __  _____
72
65
73
4
40
4.0
49
2.5
74
0
49
-0.5
74
0
49
0.5
74
0
49
-0.5
74
0
0
LTYPE
5
27D
330
247
100
AcDbSymbolTableRecord
100
AcDbLinetypeTableRecord
2
DASHDOT2
70
0
3
Dashdot2  _._._._._._._._._._._._._._._.
72
65
73
4
40
0.5
49
0.25
74
0
49
-0.125
74
0
49
0.0
74
0
49
-0.125
74
0
0
LTYPE
5
27E
330
247
100
AcDbSymbolTableRecord
100
AcDbLinetypeTableRecord
2
DASHDOTX2
70
0
3
Dashdotx2 ____  .  ____  .  ____  .  ___
72
65
73
4
40
2.0
49
1.0
74
0
49
-0.5
74
0
49
0.0
74
0
49
-0.5
74
0
0
LTYPE
5
27F
330
247
100
AcDbSymbolTableRecord
100
AcDbLinetypeTableRecord
2
DASHED2
70
0
3
Dashed2 _ _ _ _ _ _ _ _ _ _ _ _ _ _ _ _ _
72
65
73
2
40
0.375
49
0.25
74
0
49
-0.125
74
0
0
LTYPE
5
280
330
247
100
AcDbSymbolTableRecord
100
AcDbLinetypeTableRecord
2
DASHEDX2
70
0
3
Dashedx2 ____  ____  ____  ____  ____  ___
72
65
73
2
40
1.5
49
1.0
74
0
49
-0.5
74
0
0
LTYPE
5
281
330
247
100
AcDbSymbolTableRecord
100
AcDbLinetypeTableRecord
2
DIVIDE
70
0
3
Divide ____ . . ____ . . ____ . . ____ . . ____
72
65
73
6
40
1.25
49
0.5
74
0
49
-0.25
74
0
49
0.0
74
0
49
-0.25
74
0
49
0.0
74
0
49
-0.25
74
0
0
LTYPE
5
282
330
247
100
AcDbSymbolTableRecord
100
AcDbLinetypeTableRecord
2
DIVIDE2
70
0
3
Divide2 __..__..__..__..__..__..__..__.._
72
65
73
6
40
0.625
49
0.25
74
0
49
-0.125
74
0
49
0.0
74
0
49
-0.125
74
0
49
0.0
74
0
49
-0.125
74
0
0
LTYPE
5
283
330
247
100
AcDbSymbolTableRecord
100
AcDbLinetypeTableRecord
2
DIVIDEX2
70
0
3
Dividex2 ________  .  .  ________  .  .  _
72
65
73
6
40
2.5
49
1.0
74
0
49
-0.5
74
0
49
0.0
74
0
49
-0.5
74
0
49
0.0
74
0
49
-0.5
74
0
0
LTYPE
5
284
330
247
100
AcDbSymbolTableRecord
100
AcDbLinetypeTableRecord
2
DOT
70
0
3
Dot . . . . . . . . . . . . . . . . . . . . . . . .
72
65
73
2
40
0.25
49
0.0
74
0
49
-0.25
74
0
0
LTYPE
5
285
330
247
100
AcDbSymbolTableRecord
100
AcDbLinetypeTableRecord
2
DOT2
70
0
3
Dot2 ........................................
72
65
73
2
40
0.125
49
0.0
74
0
49
-0.125
74
0
0
LTYPE
5
286
330
247
100
AcDbSymbolTableRecord
100
AcDbLinetypeTableRecord
2
DOTX2
70
0
3
Dotx2 .  .  .  .  .  .  .  .  .  .  .  .  .  .
72
65
73
2
40
0.5
49
0.0
74
0
49
-0.5
74
0
0
LTYPE
5
287
330
247
100
AcDbSymbolTableRecord
100
AcDbLinetypeTableRecord
2
HIDDENX2
70
0
3
Hiddenx2 ____ ____ ____ ____ ____ ____ ____
72
65
73
2
40
0.75
49
0.5
74
0
49
-0.25
74
0
0
LTYPE
5
288
330
247
100
AcDbSymbolTableRecord
100
AcDbLinetypeTableRecord
2
PHANTOM
70
0
3
Phantom ______  __  __  ______  __  __  ______
72
65
73
6
40
2.5
49
1.25
74
0
49
-0.25
74
0
49
0.25
74
0
49
-0.25
74
0
49
0.25
74
0
49
-0.25
74
0
0
LTYPE
5
289
330
247
100
AcDbSymbolTableRecord
100
AcDbLinetypeTableRecord
2
PHANTOM2
70
0
3
Phantom2 ___ _ _ ___ _ _ ___ _ _ ___ _ _
72
65
73
6
40
1.25
49
0.625
74
0
49
-0.125
74
0
49
0.125
74
0
49
-0.125
74
0
49
0.125
74
0
49
-0.125
74
0
0
LTYPE
5
28A
330
247
100
AcDbSymbolTableRecord
100
AcDbLinetypeTableRecord
2
PHANTOMX2
70
0
3
Phantomx2 ____________    ____    ____   _
72
65
73
6
40
5.0
49
2.5
74
0
49
-0.5
74
0
49
0.5
74
0
49
-0.5
74
0
49
0.5
74
0
49
-0.5
74
0
0
ENDTAB
0
TABLE
2
LAYER
5
244
330
0
100
AcDbSymbolTable
70
6
0
LAYER
5
252
330
244
100
AcDbSymbolTableRecord
100
AcDbLayerTableRecord
2
0
70
0
62
7
6
Continuous
370
0
390
251
0
LAYER
5
23F
330
244
100
AcDbSymbolTableRecord
100
AcDbLayerTableRecord
2
Bemassung
70
0
 62
   7
6
Continuous
370
0
390
251
0
LAYER
5
240
330
244
100
AcDbSymbolTableRecord
100
AcDbLayerTableRecord
2
Rahmen
70
0
 62
   7
6
Continuous
370
0
390
251
0
LAYER
5
241
330
244
100
AcDbSymbolTableRecord
100
AcDbLayerTableRecord
2
Geo
70
0
 62
   7
6
Continuous
370
0
390
251
0
LAYER
5
33A
330
244
100
AcDbSymbolTableRecord
100
AcDbLayerTableRecord
2
Defpoints
70
0
62
7
6
Continuous
290
0
370
-3
390
251
0
LAYER
5
57E
330
244
100
AcDbSymbolTableRecord
100
AcDbLayerTableRecord
2
Text
70
0
 62
   7
6
Continuous
370
0
390
251
1001
AcAecLayerStandard
1000

1000

0
ENDTAB
0
TABLE
2
STYLE
5
245
330
0
100
AcDbSymbolTable
70
2
0
STYLE
5
253
330
245
100
AcDbSymbolTableRecord
100
AcDbTextStyleTableRecord
2
Standard
70
0
40
0.0
41
1.0
50
0.0
71
0
42
0.2
3
Arial
4

1001
ACAD
1000
Arial
1071
0
0
STYLE
5
132
330
245
100
AcDbSymbolTableRecord
100
AcDbTextStyleTableRecord
2
Beschriftung
70
0
40
0.0
41
1.0
50
0.0
71
0
42
0.2
3
Arial
4

1001
ACAD
1000
Arial
1071
0
1001
AcadAnnotative
1000
AnnotativeData
1070
1
1070
1
0
ENDTAB
0
TABLE
2
VIEW
5
248
330
0
100
AcDbSymbolTable
70
0
0
ENDTAB
0
TABLE
2
UCS
5
249
330
0
100
AcDbSymbolTable
70
0
0
ENDTAB
0
TABLE
2
APPID
5
24B
330
0
100
AcDbSymbolTable
70
13
0
APPID
5
254
330
24B
100
AcDbSymbolTableRecord
100
AcDbRegAppTableRecord
2
ACAD
70
0
0
APPID
5
26C
330
24B
100
AcDbSymbolTableRecord
100
AcDbRegAppTableRecord
2
VD_INVISIBLE_NOT_FOR_READ
70
0
0
APPID
5
26D
330
24B
100
AcDbSymbolTableRecord
100
AcDbRegAppTableRecord
2
VD_TEMPHATCH
70
0
0
APPID
5
26E
330
24B
100
AcDbSymbolTableRecord
100
AcDbRegAppTableRecord
2
VDEXTRAPARAM
70
0
0
APPID
5
26F
330
24B
100
AcDbSymbolTableRecord
100
AcDbRegAppTableRecord
2
PE_URL
70
0
0
APPID
5
270
330
24B
100
AcDbSymbolTableRecord
100
AcDbRegAppTableRecord
2
VD_UNKNOWN
70
0
0
APPID
5
28F
330
24B
100
AcDbSymbolTableRecord
100
AcDbRegAppTableRecord
2
AcadAnnotative
70
0
0
APPID
5
290
330
24B
100
AcDbSymbolTableRecord
100
AcDbRegAppTableRecord
2
ACAD_DSTYLE_DIMJAG
70
0
0
APPID
5
291
330
24B
100
AcDbSymbolTableRecord
100
AcDbRegAppTableRecord
2
ACAD_DSTYLE_DIMTALN
70
0
0
APPID
5
293
330
24B
100
AcDbSymbolTableRecord
100
AcDbRegAppTableRecord
2
ACAD_PSEXT
70
0
0
APPID
5
42A
330
24B
100
AcDbSymbolTableRecord
100
AcDbRegAppTableRecord
2
ACAD_MLEADERVER
70
0
0
APPID
5
532
330
24B
100
AcDbSymbolTableRecord
100
AcDbRegAppTableRecord
2
ACAD_EXEMPT_FROM_CAD_STANDARDS
70
0
0
APPID
5
57F
330
24B
100
AcDbSymbolTableRecord
100
AcDbRegAppTableRecord
2
AcAecLayerStandard
70
0
0
ENDTAB
0
TABLE
2
DIMSTYLE
5
24C
330
0
100
AcDbSymbolTable
70
3
100
AcDbDimStyleTable
71
2
340
27
340
269
0
DIMSTYLE
105
269
330
24C
100
AcDbSymbolTableRecord
100
AcDbDimStyleTableRecord
2
Standard
70
0
172
1
174
1
288
1
340
253
342
23C
0
DIMSTYLE
105
137
330
24C
100
AcDbSymbolTableRecord
100
AcDbDimStyleTableRecord
2
Beschriftung
70
0
41
2.5
42
0.625
44
1.25
73
0
74
0
77
1
140
2.5
147
0.625
172
1
174
1
271
2
288
1
340
253
342
23C
1001
AcadAnnotative
1000
AnnotativeData
1070
1
1070
1
1001
ACAD_DSTYLE_DIMJAG
1070
388
1040
1.5
1001
ACAD_DSTYLE_DIMTALN
1070
392
1070
0
0
DIMSTYLE
105
27
102
{ACAD_REACTORS
330
F10017
330
F1001C
330
F10026
330
F1002B
330
F10003
330
F1000D
330
F10008
330
F10012
330
F10021
102
}
330
24C
100
AcDbSymbolTableRecord
100
AcDbDimStyleTableRecord
2
BEM-ISBE
70
0
41
2.5
42
0.625
44
1.25
48
0.000000001
71
1
73
0
74
0
77
1
140
2.5
144
1.00000000000000
146
0.5
147
0.625
171
 3
172
 1
179
 3
271
 3
272
 3
274
 3
340
253
342
23C
1001
ACAD_DSTYLE_DIMJAG
1070
388
1040
1.5
1001
ACAD_DSTYLE_DIMTALN
1070
392
1070
1
0
ENDTAB
0
TABLE
2
BLOCK_RECORD
5
243
330
0
100
AcDbSymbolTable
70
5
0
BLOCK_RECORD
5
261
330
243
100
AcDbSymbolTableRecord
100
AcDbBlockTableRecord
2
*Model_Space
340
FD0
0
BLOCK_RECORD
5
25D
330
243
100
AcDbSymbolTableRecord
100
AcDbBlockTableRecord
2
*Paper_Space
340
FD1
0
BLOCK_RECORD
5
265
330
243
100
AcDbSymbolTableRecord
100
AcDbBlockTableRecord
2
*Paper_Space0
340
0
0
BLOCK_RECORD
5
23C
330
243
100
AcDbSymbolTableRecord
100
AcDbBlockTableRecord
2
VDDIM_DEFAULT
340
0
102
{BLKREFS
102
}
0
BLOCK_RECORD
5
23E
330
243
100
AcDbSymbolTableRecord
100
AcDbBlockTableRecord
2
VDDIM_NONE
340
0
0
BLOCK_RECORD
5
F10016
330
243
100
AcDbSymbolTableRecord
100
AcDbBlockTableRecord
2
*D7
340
0
0
BLOCK_RECORD
5
F1001B
330
243
100
AcDbSymbolTableRecord
100
AcDbBlockTableRecord
2
*D8
340
0
0
BLOCK_RECORD
5
F10025
330
243
100
AcDbSymbolTableRecord
100
AcDbBlockTableRecord
2
*D10
340
0
0
BLOCK_RECORD
5
F1002A
330
243
100
AcDbSymbolTableRecord
100
AcDbBlockTableRecord
2
*D11
340
0
0
BLOCK_RECORD
5
F10002
330
243
100
AcDbSymbolTableRecord
100
AcDbBlockTableRecord
2
*D3
340
0
0
BLOCK_RECORD
5
F1000C
330
243
100
AcDbSymbolTableRecord
100
AcDbBlockTableRecord
2
*D5
340
0
0
BLOCK_RECORD
5
F10007
330
243
100
AcDbSymbolTableRecord
100
AcDbBlockTableRecord
2
*D4
340
0
0
BLOCK_RECORD
5
F10011
330
243
100
AcDbSymbolTableRecord
100
AcDbBlockTableRecord
2
*D6
340
0
0
BLOCK_RECORD
5
F10020
330
243
100
AcDbSymbolTableRecord
100
AcDbBlockTableRecord
2
*D9
340
0
0
ENDTAB
0
ENDSEC
0
SECTION
2
BLOCKS
0
BLOCK
5
262
330
261
100
AcDbEntity
8
0
100
AcDbBlockBegin
2
*Model_Space
70
0
10
0.0
20
0.0
30
0.0
3
*Model_Space
1

0
ENDBLK
5
263
330
261
100
AcDbEntity
8
0
100
AcDbBlockEnd
0
BLOCK
5
25E
330
25D
100
AcDbEntity
67
1
8
0
100
AcDbBlockBegin
2
*Paper_Space
70
0
10
0.0
20
0.0
30
0.0
3
*Paper_Space
1

0
ENDBLK
5
25F
330
25D
100
AcDbEntity
67
1
8
0
100
AcDbBlockEnd
0
BLOCK
5
266
330
265
100
AcDbEntity
8
0
100
AcDbBlockBegin
2
*Paper_Space0
70
0
10
0.0
20
0.0
30
0.0
3
*Paper_Space0
1

0
VIEWPORT
5
296
102
{ACAD_XDICTIONARY
360
58E
102
}
330
265
100
AcDbEntity
8
0
60
1
100
AcDbViewport
10
0.0
20
0.0
30
0.0
40
10.0
41
10.0
69
0
12
0.0
22
0.0
13
0.0
23
0.0
14
1.0
24
1.0
15
0.0
25
0.0
16
0.0
26
0.0
36
1.0
17
0.0
27
0.0
37
0.0
42
0.0
43
0.0
44
0.0
45
10.0
50
0.0
51
0.0000000000007958
72
100
90
163872
1

281
0
71
0
74
0
110
0.0
120
0.0
130
0.0
111
1.0
121
0.0
131
0.0
112
0.0
122
1.0
132
0.0
79
0
146
0.0
1001
VD_INVISIBLE_NOT_FOR_READ
1000
VD_INVISIBLE_NOT_FOR_READ
0
VIEWPORT
5
297
102
{ACAD_XDICTIONARY
360
590
102
}
330
265
100
AcDbEntity
8
0
60
1
100
AcDbViewport
10
0.0
20
0.0
30
0.0
40
10.0
41
10.0
69
0
12
0.0
22
0.0
13
0.0
23
0.0
14
1.0
24
1.0
15
0.0
25
0.0
16
0.0
26
0.0
36
1.0
17
0.0
27
0.0
37
0.0
42
0.0
43
0.0
44
0.0
45
10.0
50
0.0
51
0.0000000000007958
72
100
90
163872
1

281
0
71
0
74
0
110
0.0
120
0.0
130
0.0
111
1.0
121
0.0
131
0.0
112
0.0
122
1.0
132
0.0
79
0
146
0.0
1001
VD_INVISIBLE_NOT_FOR_READ
1000
VD_INVISIBLE_NOT_FOR_READ
0
ENDBLK
5
267
330
265
100
AcDbEntity
8
0
100
AcDbBlockEnd
0
BLOCK
5
28B
330
23C
100
AcDbEntity
8
0
100
AcDbBlockBegin
2
VDDIM_DEFAULT
70
0
10
0.0
20
0.0
30
0.0
3
VDDIM_DEFAULT
1

0
LWPOLYLINE
5
23D
330
23C
100
AcDbEntity
8
0
6
Continuous
62
0
100
AcDbPolyline
90
4
70
0
43
0.0
10
0.0
20
0.0
10
-1.0
20
-0.1665
10
-1.0
20
0.1665
10
0.0
20
0.0
1001
VDEXTRAPARAM
1071
1
1071
0
1071
0
1040
1.0
1000

1000

1040
0.0
1040
0.0
0
HATCH
5
292
330
23C
100
AcDbEntity
8
0
6
Continuous
62
0
100
AcDbHatch
10
0.0
20
0.0
30
0.0
210
0.0
220
0.0
230
1.0
2
SOLID
70
1
71
0
91
1
92
2
72
0
73
1
93
3
10
0.0
20
0.0
10
-1.0
20
-0.1665
10
-1.0
20
0.1665
97
0
75
0
76
1
98
1
10
0.0
20
0.0
1001
VDEXTRAPARAM
1071
1
1071
0
1071
0
1040
1.0
1000

1000

1040
0.0
1040
0.0
1001
VD_TEMPHATCH
1000
VD_TEMPHATCH
0
ENDBLK
5
28C
330
23C
100
AcDbEntity
8
0
100
AcDbBlockEnd
0
BLOCK
5
28D
330
23E
100
AcDbEntity
8
0
100
AcDbBlockBegin
2
VDDIM_NONE
70
0
10
0.0
20
0.0
30
0.0
3
VDDIM_NONE
1

0
ENDBLK
5
28E
330
23E
100
AcDbEntity
8
0
100
AcDbBlockEnd
  0
BLOCK
  5
F1002F
330
F10016
100
AcDbEntity
  8
0
100
AcDbBlockBegin
  2
*D7
 70
     1
 10
0.0
 20
0.0
 30
0.0
  3
*D7
  1

  0
LINE
  5
F10030
330
F10016
100
AcDbEntity
  8
Bemassung
 62
     0
370
    -2
100
AcDbLine
10
-96.0974477958237
20
-11.7517401392111
30
0.000000000000000
11
-96.0974477958237
21
25.2482598607889
31
0.000000000000000
  0
LINE
  5
F10031
330
F10016
100
AcDbEntity
  8
Bemassung
 62
     0
370
    -2
100
AcDbLine
10
-72.0974477958237
20
2.94825986078886
30
0.000000000000000
11
-72.0974477958237
21
15.2482598607889
31
0.000000000000000
  0
LINE
  5
F10032
330
F10016
100
AcDbEntity
  8
Bemassung
 62
     0
370
    -2
100
AcDbLine
10
-96.0974477958237
20
13.2482598607889
30
0.000000000000000
11
-59.2732442365500
21
13.2482598607889
31
0.000000000000000
  0
INSERT
  5
F10033
330
F10016
100
AcDbEntity
  8
Bemassung
 62
     0
370
    -2
100
AcDbBlockReference
  2
VDDIM_DEFAULT
10
-96.0974477958237
20
13.2482598607889
30
0.000000000000000
 41
2.50000000000000
 42
2.50000000000000
 43
2.50000000000000
 50
180.000000000000
  0
INSERT
  5
F10034
330
F10016
100
AcDbEntity
  8
Bemassung
 62
     0
370
    -2
100
AcDbBlockReference
  2
VDDIM_DEFAULT
10
-72.0974477958237
20
13.2482598607889
30
0.000000000000000
 41
2.50000000000000
 42
2.50000000000000
 43
2.50000000000000
  0
MTEXT
  5
F10035
330
F10016
100
AcDbEntity
  8
Bemassung
 62
     0
100
AcDbMText
10
-84.0974477958237
20
13.9149265274555
30
0.000000000000000
 40
2.50000000000000
 41
0.0
 71
     8
 72
     1
  1
24
 11
1.00000000000000
 21
0.000000000000000
 31
0.0
 73
     1
 44
1.0
1001
ACAD
1000
MTEXTBEGIN
1070
73
1070
1
1070
44
1040
1.0
1070
74
1070
0
1000
MTEXTEND
  0
POINT
  5
F10036
330
F10016
100
AcDbEntity
  8
Bemassung
 62
     0
100
AcDbPoint
10
-96.0974477958237
20
-11.7517401392111
30
0.000000000000000
  0
POINT
  5
F10037
330
F10016
100
AcDbEntity
  8
Bemassung
 62
     0
100
AcDbPoint
10
-72.0974477958237
20
2.94825986078886
30
0.000000000000000
  0
ENDBLK
  5
F10038
330
F10016
100
AcDbEntity
  8
0
100
AcDbBlockEnd
  0
BLOCK
  5
F10039
330
F1001B
100
AcDbEntity
  8
0
100
AcDbBlockBegin
  2
*D8
 70
     1
 10
0.0
 20
0.0
 30
0.0
  3
*D8
  1

  0
LINE
  5
F1003A
330
F1001B
100
AcDbEntity
  8
Bemassung
 62
     0
370
    -2
100
AcDbLine
10
-72.0974477958237
20
2.94825986078886
30
0.000000000000000
11
-72.0974477958237
21
20.2482598607889
31
0.000000000000000
  0
LINE
  5
F1003B
330
F1001B
100
AcDbEntity
  8
Bemassung
 62
     0
370
    -2
100
AcDbLine
10
-32.0974477958237
20
2.24825986078886
30
0.000000000000000
11
-32.0974477958237
21
25.2482598607889
31
0.000000000000000
  0
LINE
  5
F1003C
330
F1001B
100
AcDbEntity
  8
Bemassung
 62
     0
370
    -2
100
AcDbLine
10
-72.0974477958237
20
18.2482598607889
30
0.000000000000000
11
36.7260905276491
21
18.2482598607889
31
0.000000000000000
  0
INSERT
  5
F1003D
330
F1001B
100
AcDbEntity
  8
Bemassung
 62
     0
370
    -2
100
AcDbBlockReference
  2
VDDIM_DEFAULT
10
-72.0974477958237
20
18.2482598607889
30
0.000000000000000
 41
2.50000000000000
 42
2.50000000000000
 43
2.50000000000000
 50
180.000000000000
  0
INSERT
  5
F1003E
330
F1001B
100
AcDbEntity
  8
Bemassung
 62
     0
370
    -2
100
AcDbBlockReference
  2
VDDIM_DEFAULT
10
-32.0974477958237
20
18.2482598607889
30
0.000000000000000
 41
2.50000000000000
 42
2.50000000000000
 43
2.50000000000000
  0
MTEXT
  5
F1003F
330
F1001B
100
AcDbEntity
  8
Bemassung
 62
     0
100
AcDbMText
10
-52.0974477958237
20
18.9149265274555
30
0.000000000000000
 40
2.50000000000000
 41
0.0
 71
     8
 72
     1
  1
40
 11
1.00000000000000
 21
0.000000000000000
 31
0.0
 73
     1
 44
1.0
1001
ACAD
1000
MTEXTBEGIN
1070
73
1070
1
1070
44
1040
1.0
1070
74
1070
0
1000
MTEXTEND
  0
POINT
  5
F10040
330
F1001B
100
AcDbEntity
  8
Bemassung
 62
     0
100
AcDbPoint
10
-72.0974477958237
20
2.94825986078886
30
0.000000000000000
  0
POINT
  5
F10041
330
F1001B
100
AcDbEntity
  8
Bemassung
 62
     0
100
AcDbPoint
10
-32.0974477958237
20
2.24825986078886
30
0.000000000000000
  0
ENDBLK
  5
F10042
330
F1001B
100
AcDbEntity
  8
0
100
AcDbBlockEnd
  0
BLOCK
  5
F10043
330
F10025
100
AcDbEntity
  8
0
100
AcDbBlockBegin
  2
*D10
 70
     1
 10
0.0
 20
0.0
 30
0.0
  3
*D10
  1

  0
LINE
  5
F10044
330
F10025
100
AcDbEntity
  8
Bemassung
 62
     0
370
    -2
100
AcDbLine
10
-78.0974477958237
20
-4.45174013921114
30
0.000000000000000
11
-78.0974477958237
21
-11.7517401392111
31
0.000000000000000
  0
LINE
  5
F10045
330
F10025
100
AcDbEntity
  8
Bemassung
 62
     0
370
    -2
100
AcDbLine
10
-96.0974477958237
20
-11.7517401392111
30
0.000000000000000
11
-96.0974477958237
21
25.2482598607889
31
0.000000000000000
  0
LINE
  5
F10046
330
F10025
100
AcDbEntity
  8
Bemassung
 62
     0
370
    -2
100
AcDbLine
10
-68.2974928853726
20
-9.75174013921114
30
0.000000000000000
11
-96.0974477958237
21
-9.75174013921114
31
0.000000000000000
  0
INSERT
  5
F10047
330
F10025
100
AcDbEntity
  8
Bemassung
 62
     0
370
    -2
100
AcDbBlockReference
  2
VDDIM_DEFAULT
10
-78.0974477958237
20
-9.75174013921114
30
0.000000000000000
 41
2.50000000000000
 42
2.50000000000000
 43
2.50000000000000
  0
INSERT
  5
F10048
330
F10025
100
AcDbEntity
  8
Bemassung
 62
     0
370
    -2
100
AcDbBlockReference
  2
VDDIM_DEFAULT
10
-96.0974477958237
20
-9.75174013921114
30
0.000000000000000
 41
2.50000000000000
 42
2.50000000000000
 43
2.50000000000000
 50
180.000000000000
  0
MTEXT
  5
F10049
330
F10025
100
AcDbEntity
  8
Bemassung
 62
     0
100
AcDbMText
10
-87.0974477958237
20
-9.08507347254447
30
0.000000000000000
 40
2.50000000000000
 41
0.0
 71
     8
 72
     1
  1
18
 11
1.00000000000000
 21
0.000000000000000
 31
0.0
 73
     1
 44
1.0
1001
ACAD
1000
MTEXTBEGIN
1070
73
1070
1
1070
44
1040
1.0
1070
74
1070
0
1000
MTEXTEND
  0
POINT
  5
F1004A
330
F10025
100
AcDbEntity
  8
Bemassung
 62
     0
100
AcDbPoint
10
-78.0974477958237
20
-4.45174013921114
30
0.000000000000000
  0
POINT
  5
F1004B
330
F10025
100
AcDbEntity
  8
Bemassung
 62
     0
100
AcDbPoint
10
-96.0974477958237
20
-11.7517401392111
30
0.000000000000000
  0
ENDBLK
  5
F1004C
330
F10025
100
AcDbEntity
  8
0
100
AcDbBlockEnd
  0
BLOCK
  5
F1004D
330
F1002A
100
AcDbEntity
  8
0
100
AcDbBlockBegin
  2
*D11
 70
     1
 10
0.0
 20
0.0
 30
0.0
  3
*D11
  1

  0
LINE
  5
F1004E
330
F1002A
100
AcDbEntity
  8
Bemassung
 62
     0
370
    -2
100
AcDbLine
10
-32.0974477958237
20
2.24825986078886
30
0.000000000000000
11
-32.0974477958237
21
25.2482598607889
31
0.000000000000000
  0
LINE
  5
F1004F
330
F1002A
100
AcDbEntity
  8
Bemassung
 62
     0
370
    -2
100
AcDbLine
10
-96.0974477958237
20
-11.7517401392111
30
0.000000000000000
11
-96.0974477958237
21
25.2482598607889
31
0.000000000000000
  0
LINE
  5
F10050
330
F1002A
100
AcDbEntity
  8
Bemassung
 62
     0
370
    -2
100
AcDbLine
10
0.784686426303949
20
23.2482598607889
30
0.000000000000000
11
-96.0974477958237
21
23.2482598607889
31
0.000000000000000
  0
INSERT
  5
F10051
330
F1002A
100
AcDbEntity
  8
Bemassung
 62
     0
370
    -2
100
AcDbBlockReference
  2
VDDIM_DEFAULT
10
-32.0974477958237
20
23.2482598607889
30
0.000000000000000
 41
2.50000000000000
 42
2.50000000000000
 43
2.50000000000000
  0
INSERT
  5
F10052
330
F1002A
100
AcDbEntity
  8
Bemassung
 62
     0
370
    -2
100
AcDbBlockReference
  2
VDDIM_DEFAULT
10
-96.0974477958237
20
23.2482598607889
30
0.000000000000000
 41
2.50000000000000
 42
2.50000000000000
 43
2.50000000000000
 50
180.000000000000
  0
MTEXT
  5
F10053
330
F1002A
100
AcDbEntity
  8
Bemassung
 62
     0
100
AcDbMText
10
-64.0974477958237
20
23.9149265274555
30
0.000000000000000
 40
2.50000000000000
 41
0.0
 71
     8
 72
     1
  1
64
 11
1.00000000000000
 21
0.000000000000000
 31
0.0
 73
     1
 44
1.0
1001
ACAD
1000
MTEXTBEGIN
1070
73
1070
1
1070
44
1040
1.0
1070
74
1070
0
1000
MTEXTEND
  0
POINT
  5
F10054
330
F1002A
100
AcDbEntity
  8
Bemassung
 62
     0
100
AcDbPoint
10
-32.0974477958237
20
2.24825986078886
30
0.000000000000000
  0
POINT
  5
F10055
330
F1002A
100
AcDbEntity
  8
Bemassung
 62
     0
100
AcDbPoint
10
-96.0974477958237
20
-11.7517401392111
30
0.000000000000000
  0
ENDBLK
  5
F10056
330
F1002A
100
AcDbEntity
  8
0
100
AcDbBlockEnd
  0
BLOCK
  5
F10057
330
F10002
100
AcDbEntity
  8
0
100
AcDbBlockBegin
  2
*D3
 70
     1
 10
0.0
 20
0.0
 30
0.0
  3
*D3
  1

 0
ARC
  5
F10058
330
F10002
100
AcDbEntity
  8
Bemassung
 62
     0
370
   -2
100
AcDbCircle
10
-96.0972650439294
20
2.93779001177811
30
0.000000000000000
 40
18.9091232513799
100
AcDbArc
 50
90.0000000000000
 51
102.100265258185
  0
LINE
  5
F10059
330
F10002
100
AcDbEntity
  8
Bemassung
 62
     0
370
    -2
100
AcDbLine
10
-96.0972650439294
20
2.93779001177811
30
0.000000000000000
11
-96.0972650439294
21
23.8469132631580
31
0.000000000000000
  0
LINE
  5
F1005A
330
F10002
100
AcDbEntity
  8
Bemassung
 62
     0
370
    -2
100
AcDbLine
10
-96.0972650439294
20
2.93779001177811
30
0.000000000000000
11
-96.8269829218931
21
23.8341759902189
31
0.000000000000000
  0
INSERT
  5
F1005B
330
F10002
100
AcDbEntity
  8
Bemassung
 62
     0
370
    -2
100
AcDbBlockReference
  2
VDDIM_DEFAULT
10
-96.0972650439294
20
21.8469132631580
30
0.000000000000000
 41
2.50000000000000
 42
2.50000000000000
 43
2.50000000000000
 50
179.848496819447
  0
INSERT
  5
F1005C
330
F10002
100
AcDbEntity
  8
Bemassung
 62
     0
370
    -2
100
AcDbBlockReference
  2
VDDIM_DEFAULT
10
-96.7571839284881
20
21.8353943361807
30
0.000000000000000
 41
2.50000000000000
 42
2.50000000000000
 43
2.50000000000000
 50
2.15150318055189
  0
MTEXT
  5
F1005D
330
F10002
100
AcDbEntity
  8
Bemassung
 62
     0
100
AcDbMText
10
-100.593536824598
20
21.3045665991446
30
0.000000000000000
 40
2.50000000000000
 41
0.0
 71
     8
 72
     1
  1
2°
 11
0.971102968422699
 21
0.238660899019138
 31
0.0
 73
     1
 44
1.0
1001
ACAD
1000
MTEXTBEGIN
1070
73
1070
1
1070
44
1040
1.0
1070
74
1070
0
1000
MTEXTEND
  0
POINT
  5
F1005E
330
F10002
100
AcDbEntity
  8
Bemassung
 62
     0
100
AcDbPoint
10
-96.0972650439294
20
2.93779001177811
30
0.000000000000000
  0
POINT
  5
F1005F
330
F10002
100
AcDbEntity
  8
Bemassung
 62
     0
100
AcDbPoint
10
-96.0972650439294
20
21.8469132631580
30
0.000000000000000
  0
POINT
  5
F10060
330
F10002
100
AcDbEntity
  8
Bemassung
 62
     0
100
AcDbPoint
10
-96.7571839284881
20
21.8353943361807
30
0.000000000000000
  0
POINT
  5
F10061
330
F10002
100
AcDbEntity
  8
Bemassung
 62
     0
100
AcDbPoint
10
-96.4272747482852
20
21.8440333120984
30
0.000000000000000
  0
ENDBLK
  5
F10062
330
F10002
100
AcDbEntity
  8
0
100
AcDbBlockEnd
  0
BLOCK
  5
F10063
330
F1000C
100
AcDbEntity
  8
0
100
AcDbBlockBegin
  2
*D5
 70
     1
 10
0.0
 20
0.0
 30
0.0
  3
*D5
  1

  0
LINE
  5
F10064
330
F1000C
100
AcDbEntity
  8
Bemassung
 62
     0
370
    -2
100
AcDbLine
10
-96.0132497359253
20
3.15665737192656
30
0.000000000000000
11
-108.384168093598
21
15.1031143639858
31
0.000000000000000
  0
INSERT
  5
F10065
330
F1000C
100
AcDbEntity
  8
Bemassung
 62
     0
370
    -2
100
AcDbBlockReference
  2
VDDIM_DEFAULT
10
-96.0132497359253
20
3.15665737192656
30
0.000000000000000
 41
2.50000000000000
 42
2.50000000000000
 43
2.50000000000000
 50
316.000000000000
  0
MTEXT
  5
F10066
330
F1000C
100
AcDbEntity
  8
Bemassung
 62
     0
100
AcDbMText
10
-103.206647739312
20
10.1032410765165
30
0.000000000000000
 40
2.50000000000000
 41
0.0
 71
     8
 72
     1
  1
R0.3
 11
0.719339800338652
 21
-0.694658370458996
 31
0.0
 73
     1
 44
1.0
1001
ACAD
1000
MTEXTBEGIN
1070
73
1070
1
1070
44
1040
1.0
1070
74
1070
0
1000
MTEXTEND
  0
POINT
  5
F10067
330
F1000C
100
AcDbEntity
  8
Bemassung
 62
     0
100
AcDbPoint
10
-96.0132497359253
20
3.15665737192656
30
0.000000000000000
  0
POINT
  5
F10068
330
F1000C
100
AcDbEntity
  8
Bemassung
 62
     0
100
AcDbPoint
10
-95.7974477958237
20
2.94825986078886
30
0.000000000000000
  0
ENDBLK
  5
F10069
330
F1000C
100
AcDbEntity
  8
0
100
AcDbBlockEnd
  0
BLOCK
  5
F1006A
330
F10007
100
AcDbEntity
  8
0
100
AcDbBlockBegin
  2
*D4
 70
     1
 10
0.0
 20
0.0
 30
0.0
  3
*D4
  1

  0
LINE
  5
F1006B
330
F10007
100
AcDbEntity
  8
Bemassung
 62
     0
370
    -2
100
AcDbLine
10
-95.7974477958237
20
-4.75174013921114
30
0.000000000000000
11
-108.097447795824
21
-4.75174013921114
31
0.000000000000000
  0
LINE
  5
F1006C
330
F10007
100
AcDbEntity
  8
Bemassung
 62
     0
370
    -2
100
AcDbLine
10
-95.7974477958237
20
3.24825986078886
30
0.000000000000000
11
-108.097447795824
21
3.24825986078886
31
0.000000000000000
  0
LINE
  5
F1006D
330
F10007
100
AcDbEntity
  8
Bemassung
 62
     0
370
    -2
100
AcDbLine
10
-106.097447795824
20
-4.75174013921114
30
0.000000000000000
11
-106.097447795824
21
3.24825986078886
31
0.000000000000000
  0
INSERT
  5
F1006E
330
F10007
100
AcDbEntity
  8
Bemassung
 62
     0
370
    -2
100
AcDbBlockReference
  2
VDDIM_DEFAULT
10
-106.097447795824
20
-4.75174013921114
30
0.000000000000000
 41
2.50000000000000
 42
2.50000000000000
 43
2.50000000000000
 50
270.000000000000
  0
INSERT
  5
F1006F
330
F10007
100
AcDbEntity
  8
Bemassung
 62
     0
370
    -2
100
AcDbBlockReference
  2
VDDIM_DEFAULT
10
-106.097447795824
20
3.24825986078886
30
0.000000000000000
 41
2.50000000000000
 42
2.50000000000000
 43
2.50000000000000
 50
90.0000000000000
  0
MTEXT
  5
F10070
330
F10007
100
AcDbEntity
  8
Bemassung
 62
     0
100
AcDbMText
10
-105.430781129157
20
-0.751740139211137
30
0.000000000000000
 40
2.50000000000000
 41
0.0
 71
     8
 72
     1
  1
8
 11
6.12323399573677e-017
 21
1.00000000000000
 31
0.0
 73
     1
 44
1.0
1001
ACAD
1000
MTEXTBEGIN
1070
73
1070
1
1070
44
1040
1.0
1070
74
1070
0
1000
MTEXTEND
  0
POINT
  5
F10071
330
F10007
100
AcDbEntity
  8
Bemassung
 62
     0
100
AcDbPoint
10
-95.7974477958237
20
-4.75174013921114
30
0.000000000000000
  0
POINT
  5
F10072
330
F10007
100
AcDbEntity
  8
Bemassung
 62
     0
100
AcDbPoint
10
-95.7974477958237
20
3.24825986078886
30
0.000000000000000
  0
ENDBLK
  5
F10073
330
F10007
100
AcDbEntity
  8
0
100
AcDbBlockEnd
  0
BLOCK
  5
F10074
330
F10011
100
AcDbEntity
  8
0
100
AcDbBlockBegin
  2
*D6
 70
     1
 10
0.0
 20
0.0
 30
0.0
  3
*D6
  1

  0
LINE
  5
F10075
330
F10011
100
AcDbEntity
  8
Bemassung
 62
     0
370
    -2
100
AcDbLine
10
-78.0974477958237
20
-4.45174013921114
30
0.000000000000000
11
-70.0974477958237
21
-4.45174013921114
31
0.000000000000000
  0
LINE
  5
F10076
330
F10011
100
AcDbEntity
  8
Bemassung
 62
     0
370
    -2
100
AcDbLine
10
-78.0974477958237
20
2.94825986078886
30
0.000000000000000
11
-70.0974477958237
21
2.94825986078886
31
0.000000000000000
  0
LINE
  5
F10077
330
F10011
100
AcDbEntity
  8
Bemassung
 62
     0
370
    -2
100
AcDbLine
10
-72.0974477958237
20
-32.7271472176076
30
0.000000000000000
11
-72.0974477958237
21
2.94825986078886
31
0.000000000000000
  0
INSERT
  5
F10078
330
F10011
100
AcDbEntity
  8
Bemassung
 62
     0
370
    -2
100
AcDbBlockReference
  2
VDDIM_DEFAULT
10
-72.0974477958237
20
-4.45174013921114
30
0.000000000000000
 41
2.50000000000000
 42
2.50000000000000
 43
2.50000000000000
 50
270.000000000000
  0
INSERT
  5
F10079
330
F10011
100
AcDbEntity
  8
Bemassung
 62
     0
370
    -2
100
AcDbBlockReference
  2
VDDIM_DEFAULT
10
-72.0974477958237
20
2.94825986078886
30
0.000000000000000
 41
2.50000000000000
 42
2.50000000000000
 43
2.50000000000000
 50
90.0000000000000
  0
MTEXT
  5
F1007A
330
F10011
100
AcDbEntity
  8
Bemassung
 62
     0
100
AcDbMText
10
-71.4307811291570
20
-10.2173487117633
30
0.000000000000000
 40
2.50000000000000
 41
0.0
 71
     8
 72
     1
  1
7.4
 11
6.12323399573677e-017
 21
1.00000000000000
 31
0.0
 73
     1
 44
1.0
1001
ACAD
1000
MTEXTBEGIN
1070
73
1070
1
1070
44
1040
1.0
1070
74
1070
0
1000
MTEXTEND
  0
POINT
  5
F1007B
330
F10011
100
AcDbEntity
  8
Bemassung
 62
     0
100
AcDbPoint
10
-78.0974477958237
20
-4.45174013921114
30
0.000000000000000
  0
POINT
  5
F1007C
330
F10011
100
AcDbEntity
  8
Bemassung
 62
     0
100
AcDbPoint
10
-78.0974477958237
20
2.94825986078886
30
0.000000000000000
  0
ENDBLK
  5
F1007D
330
F10011
100
AcDbEntity
  8
0
100
AcDbBlockEnd
  0
BLOCK
  5
F1007E
330
F10020
100
AcDbEntity
  8
0
100
AcDbBlockBegin
  2
*D9
 70
     1
 10
0.0
 20
0.0
 30
0.0
  3
*D9
  1

  0
LINE
  5
F1007F
330
F10020
100
AcDbEntity
  8
Bemassung
 62
     0
370
    -2
100
AcDbLine
10
-33.0974477958237
20
-4.75174013921114
30
0.000000000000000
11
-20.0974477958237
21
-4.75174013921114
31
0.000000000000000
  0
LINE
  5
F10080
330
F10020
100
AcDbEntity
  8
Bemassung
 62
     0
370
    -2
100
AcDbLine
10
-33.0974477958237
20
3.24825986078886
30
0.000000000000000
11
-20.0974477958237
21
3.24825986078886
31
0.000000000000000
  0
LINE
  5
F10081
330
F10020
100
AcDbEntity
  8
Bemassung
 62
     0
370
    -2
100
AcDbLine
10
-22.0974477958237
20
-4.75174013921114
30
0.000000000000000
11
-22.0974477958237
21
3.24825986078886
31
0.000000000000000
  0
INSERT
  5
F10082
330
F10020
100
AcDbEntity
  8
Bemassung
 62
     0
370
    -2
100
AcDbBlockReference
  2
VDDIM_DEFAULT
10
-22.0974477958237
20
-4.75174013921114
30
0.000000000000000
 41
2.50000000000000
 42
2.50000000000000
 43
2.50000000000000
 50
270.000000000000
  0
INSERT
  5
F10083
330
F10020
100
AcDbEntity
  8
Bemassung
 62
     0
370
    -2
100
AcDbBlockReference
  2
VDDIM_DEFAULT
10
-22.0974477958237
20
3.24825986078886
30
0.000000000000000
 41
2.50000000000000
 42
2.50000000000000
 43
2.50000000000000
 50
90.0000000000000
  0
MTEXT
  5
F10084
330
F10020
100
AcDbEntity
  8
Bemassung
 62
     0
100
AcDbMText
10
-21.4307811291570
20
-0.751740139211137
30
0.000000000000000
 40
2.50000000000000
 41
0.0
 71
     8
 72
     1
  1
8h6
 11
6.12323399573677e-017
 21
1.00000000000000
 31
0.0
 73
     1
 44
1.0
  0
POINT
  5
F10085
330
F10020
100
AcDbEntity
  8
Bemassung
 62
     0
100
AcDbPoint
10
-33.0974477958237
20
-4.75174013921114
30
0.000000000000000
  0
POINT
  5
F10086
330
F10020
100
AcDbEntity
  8
Bemassung
 62
     0
100
AcDbPoint
10
-33.0974477958237
20
3.24825986078886
30
0.000000000000000
  0
ENDBLK
  5
F10087
330
F10020
100
AcDbEntity
  8
0
100
AcDbBlockEnd
0
ENDSEC
0
SECTION
2
ENTITIES
  0
DIMENSION
  5
F10017
330
261
100
AcDbEntity
  8
Bemassung
100
AcDbDimension
  2
*D7
10
-72.0974477958237
20
13.2482598607889
30
0.000000000000000
11
-84.0974477958237
21
13.9149265274555
31
0.000000000000000
 70
32
 1
24
 71
     8
  3
BEM-ISBE
100
AcDbAlignedDimension
13
-96.0974477958237
23
-11.7517401392111
33
0.000000000000000
14
-72.0974477958237
24
2.94825986078886
34
0.000000000000000
100
AcDbRotatedDimension
1001
ACAD
1000
DSTYLE
1002
{
1070
284
1070
8
1070
78
1070
8
1070
144
1040
1.00000000000000
1070
147
1040
0.625
1070
 72
1070
 0
1070
 71
1070
 0
1002
}
  0
DIMENSION
  5
F1001C
330
261
100
AcDbEntity
  8
Bemassung
100
AcDbDimension
  2
*D8
10
-32.0974477958237
20
18.2482598607889
30
0.000000000000000
11
-52.0974477958237
21
18.9149265274555
31
0.000000000000000
 70
32
 1
40
 71
     8
  3
BEM-ISBE
100
AcDbAlignedDimension
13
-72.0974477958237
23
2.94825986078886
33
0.000000000000000
14
-32.0974477958237
24
2.24825986078886
34
0.000000000000000
100
AcDbRotatedDimension
1001
ACAD
1000
DSTYLE
1002
{
1070
284
1070
8
1070
78
1070
8
1070
144
1040
1.00000000000000
1070
147
1040
0.625
1070
 72
1070
 0
1070
 71
1070
 0
1002
}
  0
DIMENSION
  5
F10026
330
261
100
AcDbEntity
  8
Bemassung
100
AcDbDimension
  2
*D10
10
-96.0974477958237
20
-9.75174013921114
30
0.000000000000000
11
-87.0974477958237
21
-9.08507347254447
31
0.000000000000000
 70
32
 1
18
 71
     8
  3
BEM-ISBE
100
AcDbAlignedDimension
13
-78.0974477958237
23
-4.45174013921114
33
0.000000000000000
14
-96.0974477958237
24
-11.7517401392111
34
0.000000000000000
100
AcDbRotatedDimension
1001
ACAD
1000
DSTYLE
1002
{
1070
284
1070
8
1070
78
1070
8
1070
144
1040
1.00000000000000
1070
147
1040
0.625
1070
 72
1070
 0
1070
 71
1070
 0
1002
}
  0
DIMENSION
  5
F1002B
330
261
100
AcDbEntity
  8
Bemassung
100
AcDbDimension
  2
*D11
10
-96.0974477958237
20
23.2482598607889
30
0.000000000000000
11
-64.0974477958237
21
23.9149265274555
31
0.000000000000000
 70
32
 1
64
 71
     8
  3
BEM-ISBE
100
AcDbAlignedDimension
13
-32.0974477958237
23
2.24825986078886
33
0.000000000000000
14
-96.0974477958237
24
-11.7517401392111
34
0.000000000000000
100
AcDbRotatedDimension
1001
ACAD
1000
DSTYLE
1002
{
1070
284
1070
8
1070
78
1070
8
1070
144
1040
1.00000000000000
1070
147
1040
0.625
1070
 72
1070
 0
1070
 71
1070
 0
1002
}
  0
DIMENSION
  5
F10003
330
261
100
AcDbEntity
  8
Bemassung
100
AcDbDimension
  2
*D3
10
-96.0972650439294
20
2.93779001177811
30
0.000000000000000
11
-100.593536824598
21
21.3045665991446
31
0.000000000000000
 70
34
 1
2°
 71
     8
  3
BEM-ISBE
100
AcDb2LineAngularDimension
13
-96.0972650439294
23
2.93779001177811
33
0.000000000000000
14
-100.061053882927
24
21.4267953981074
34
0.000000000000000
15
-96.0972650439294
25
21.8469132631580
35
0.000000000000000
16
-96.4272747482852
26
21.8440333120984
36
0.000000000000000
1001
ACAD
1000
DSTYLE
1002
{
1070
284
1070
8
1070
79
1070
2
1070
147
1040
0.625
1070
 72
1070
 0
1070
 71
1070
 0
1002
}
  0
DIMENSION
  5
F1000D
330
261
100
AcDbEntity
  8
Bemassung
100
AcDbDimension
  2
*D5
10
-95.7974477958237
20
2.94825986078886
30
0.000000000000000
11
-103.206647739312
21
10.1032410765165
31
0.000000000000000
 70
164
 1
R0.3
 71
     8
  3
BEM-ISBE
100
AcDbRadialDimension
15
-96.0132497359253
25
3.15665737192656
35
0.000000000000000
40
0.0
1001
ACAD
1000
DSTYLE
1002
{
1070
284
1070
8
1070
78
1070
8
1070
144
1040
1.00000000000000
1070
147
1040
0.625
1070
 72
1070
 0
1070
 71
1070
 0
1002
}
  0
DIMENSION
  5
F10008
330
261
100
AcDbEntity
  8
Bemassung
100
AcDbDimension
  2
*D4
10
-106.097447795824
20
3.24825986078886
30
0.000000000000000
11
-105.430781129157
21
-0.751740139211137
31
0.000000000000000
 70
32
 1
8
 71
     8
  3
BEM-ISBE
100
AcDbAlignedDimension
13
-95.7974477958237
23
-4.75174013921114
33
0.000000000000000
14
-95.7974477958237
24
3.24825986078886
34
0.000000000000000
50
90.0000000000000
100
AcDbRotatedDimension
1001
ACAD
1000
DSTYLE
1002
{
1070
284
1070
8
1070
78
1070
8
1070
144
1040
1.00000000000000
1070
147
1040
0.625
1070
 72
1070
 0
1070
 71
1070
 0
1002
}
  0
DIMENSION
  5
F10012
330
261
100
AcDbEntity
  8
Bemassung
100
AcDbDimension
  2
*D6
10
-72.0974477958237
20
2.94825986078886
30
0.000000000000000
11
-71.4307811291570
21
-10.2173487117633
31
0.000000000000000
 70
32
 1
7.4
 71
     8
  3
BEM-ISBE
100
AcDbAlignedDimension
13
-78.0974477958237
23
-4.45174013921114
33
0.000000000000000
14
-78.0974477958237
24
2.94825986078886
34
0.000000000000000
50
90.0000000000000
100
AcDbRotatedDimension
1001
ACAD
1000
DSTYLE
1002
{
1070
284
1070
8
1070
78
1070
8
1070
144
1040
1.00000000000000
1070
147
1040
0.625
1070
 72
1070
 0
1070
 71
1070
 0
1002
}
  0
DIMENSION
  5
F10021
330
261
100
AcDbEntity
  8
Bemassung
100
AcDbDimension
  2
*D9
10
-22.0974477958237
20
3.24825986078886
30
0.000000000000000
11
-21.4307811291570
21
-0.751740139211137
31
0.000000000000000
 70
32
 1
8h6
 71
     8
  3
BEM-ISBE
100
AcDbAlignedDimension
13
-33.0974477958237
23
-4.75174013921114
33
0.000000000000000
14
-33.0974477958237
24
3.24825986078886
34
0.000000000000000
50
90.0000000000000
100
AcDbRotatedDimension
1001
ACAD
1000
DSTYLE
1002
{
1070
284
1070
8
1070
78
1070
8
1070
144
1040
1.00000000000000
1070
147
1040
0.625
1070
 72
1070
 0
1070
 71
1070
 0
1002
}
  0
LINE
  5
F10088
330
F10089
100
AcDbEntity
8
Geo
100
AcDbLine
10
-95.9684238119938
20
-0.751740139211137
30
0.000000000000000
11
-96.0972650439294
21
2.93779001177811
31
0.000000000000000
  0
ARC
  5
F1008A
330
F1008B
100
AcDbEntity
8
Geo
100
AcDbCircle
10
-95.7974477958237
20
2.94825986078886
30
0.000000000000000
 40
0.300000000000000
100
AcDbArc
 50
90.0000000000000
 51
182.000000000000
  0
LINE
  5
F1008C
330
F1008D
100
AcDbEntity
8
Geo
100
AcDbLine
10
-95.7974477958237
20
3.24825986078886
30
0.000000000000000
11
-78.0974477958237
21
3.24825986078886
31
0.000000000000000
  0
LINE
  5
F1008E
330
F1008F
100
AcDbEntity
8
Geo
100
AcDbLine
10
-78.0974477958237
20
3.24825986078886
30
0.000000000000000
11
-78.0974477958237
21
2.94825986078886
31
0.000000000000000
  0
LINE
  5
F10090
330
F10091
100
AcDbEntity
8
Geo
100
AcDbLine
10
-78.0974477958237
20
2.94825986078886
30
0.000000000000000
11
-72.0974477958237
21
2.94825986078886
31
0.000000000000000
  0
LINE
  5
F10092
330
F10093
100
AcDbEntity
8
Geo
100
AcDbLine
10
-72.0974477958237
20
2.94825986078886
30
0.000000000000000
11
-72.0974477958237
21
3.24825986078886
31
0.000000000000000
  0
LINE
  5
F10094
330
F10095
100
AcDbEntity
8
Geo
100
AcDbLine
10
-72.0974477958237
20
3.24825986078886
30
0.000000000000000
11
-33.0974477958237
21
3.24825986078886
31
0.000000000000000
  0
LINE
  5
F10096
330
F10097
100
AcDbEntity
8
Geo
100
AcDbLine
10
-33.0974477958237
20
3.24825986078886
30
0.000000000000000
11
-32.0974477958237
21
2.24825986078886
31
0.000000000000000
  0
LINE
  5
F10098
330
F10099
100
AcDbEntity
8
Geo
100
AcDbLine
10
-92.8974477958237
20
3.24701427293641
30
0.000000000000000
11
-92.7974477958237
21
3.24789355346906
31
0.000000000000000
  0
LINE
  5
F1009A
330
F1009B
100
AcDbEntity
8
Geo
100
AcDbLine
10
-92.7974477958237
20
3.24789355346906
30
0.000000000000000
11
-92.6974477958236
21
3.24284818224598
31
0.000000000000000
  0
LINE
  5
F1009C
330
F1009D
100
AcDbEntity
8
Geo
100
AcDbLine
10
-92.6974477958236
20
3.24284818224598
30
0.000000000000000
11
-92.5974477958237
21
3.23188563296843
31
0.000000000000000
  0
LINE
  5
F1009E
330
F1009F
100
AcDbEntity
8
Geo
100
AcDbLine
10
-92.5974477958237
20
3.23188563296843
30
0.000000000000000
11
-92.4974477958236
21
3.21502214444524
31
0.000000000000000
  0
LINE
  5
F100A0
330
F100A1
100
AcDbEntity
8
Geo
100
AcDbLine
10
-92.4974477958236
20
3.21502214444524
30
0.000000000000000
11
-92.3974477958237
21
3.19228269653819
31
0.000000000000000
  0
LINE
  5
F100A2
330
F100A3
100
AcDbEntity
8
Geo
100
AcDbLine
10
-92.3974477958237
20
3.19228269653819
30
0.000000000000000
11
-92.2974477958237
21
3.16370097315945
31
0.000000000000000
  0
LINE
  5
F100A4
330
F100A5
100
AcDbEntity
8
Geo
100
AcDbLine
10
-92.2974477958237
20
3.16370097315945
30
0.000000000000000
11
-92.1974477958236
21
3.12931931237560
31
0.000000000000000
  0
LINE
  5
F100A6
330
F100A7
100
AcDbEntity
8
Geo
100
AcDbLine
10
-92.1974477958236
20
3.12931931237560
30
0.000000000000000
11
-92.0974477958237
21
3.08918864369233
31
0.000000000000000
  0
LINE
  5
F100A8
330
F100A9
100
AcDbEntity
8
Geo
100
AcDbLine
10
-92.0974477958237
20
3.08918864369233
30
0.000000000000000
11
-91.9974477958237
21
3.04336841261264
31
0.000000000000000
  0
LINE
  5
F100AA
330
F100AB
100
AcDbEntity
8
Geo
100
AcDbLine
10
-91.9974477958237
20
3.04336841261264
30
0.000000000000000
11
-91.8974477958237
21
2.99192649258031
31
0.000000000000000
  0
LINE
  5
F100AC
330
F100AD
100
AcDbEntity
8
Geo
100
AcDbLine
10
-91.8974477958237
20
2.99192649258031
30
0.000000000000000
11
-91.7974477958237
21
2.93493908443901
31
0.000000000000000
  0
LINE
  5
F100AE
330
F100AF
100
AcDbEntity
8
Geo
100
AcDbLine
10
-91.7974477958237
20
2.93493908443901
30
0.000000000000000
11
-91.6974477958236
21
2.87249060355616
31
0.000000000000000
  0
LINE
  5
F100B0
330
F100B1
100
AcDbEntity
8
Geo
100
AcDbLine
10
-91.6974477958236
20
2.87249060355616
30
0.000000000000000
11
-91.5974477958237
21
2.80467355477855
31
0.000000000000000
  0
LINE
  5
F100B2
330
F100B3
100
AcDbEntity
8
Geo
100
AcDbLine
10
-91.5974477958237
20
2.80467355477855
30
0.000000000000000
11
-91.4974477958237
21
2.73158839540501
31
0.000000000000000
  0
LINE
  5
F100B4
330
F100B5
100
AcDbEntity
8
Geo
100
AcDbLine
10
-91.4974477958237
20
2.73158839540501
30
0.000000000000000
11
-91.3974477958237
21
2.65334338637919
31
0.000000000000000
  0
LINE
  5
F100B6
330
F100B7
100
AcDbEntity
8
Geo
100
AcDbLine
10
-91.3974477958237
20
2.65334338637919
30
0.000000000000000
11
-91.2974477958237
21
2.57005443192275
31
0.000000000000000
  0
LINE
  5
F100B8
330
F100B9
100
AcDbEntity
8
Geo
100
AcDbLine
10
-91.2974477958237
20
2.57005443192275
30
0.000000000000000
11
-91.1974477958236
21
2.48184490784661
31
0.000000000000000
  0
LINE
  5
F100BA
330
F100BB
100
AcDbEntity
8
Geo
100
AcDbLine
10
-91.1974477958236
20
2.48184490784661
30
0.000000000000000
11
-91.0974477958237
21
2.38884547879457
31
0.000000000000000
  0
LINE
  5
F100BC
330
F100BD
100
AcDbEntity
8
Geo
100
AcDbLine
10
-91.0974477958237
20
2.38884547879457
30
0.000000000000000
11
-90.9974477958237
21
2.29119390468989
31
0.000000000000000
  0
LINE
  5
F100BE
330
F100BF
100
AcDbEntity
8
Geo
100
AcDbLine
10
-90.9974477958237
20
2.29119390468989
30
0.000000000000000
11
-90.8974477958237
21
2.18903483667175
31
0.000000000000000
  0
LINE
  5
F100C0
330
F100C1
100
AcDbEntity
8
Geo
100
AcDbLine
10
-90.8974477958237
20
2.18903483667175
30
0.000000000000000
11
-90.7974477958237
21
2.08251960282372
31
0.000000000000000
  0
LINE
  5
F100C2
330
F100C3
100
AcDbEntity
8
Geo
100
AcDbLine
10
-90.7974477958237
20
2.08251960282372
30
0.000000000000000
11
-90.6974477958237
21
1.97180598401169
31
0.000000000000000
  0
LINE
  5
F100C4
330
F100C5
100
AcDbEntity
8
Geo
100
AcDbLine
10
-90.6974477958237
20
1.97180598401169
30
0.000000000000000
11
-90.5974477958237
21
1.85705798016327
31
0.000000000000000
  0
LINE
  5
F100C6
330
F100C7
100
AcDbEntity
8
Geo
100
AcDbLine
10
-90.5974477958237
20
1.85705798016327
30
0.000000000000000
11
-90.4974477958237
21
1.73844556733494
31
0.000000000000000
  0
LINE
  5
F100C8
330
F100C9
100
AcDbEntity
8
Geo
100
AcDbLine
10
-90.4974477958237
20
1.73844556733494
30
0.000000000000000
11
-90.3974477958237
21
1.61614444592677
31
0.000000000000000
  0
LINE
  5
F100CA
330
F100CB
100
AcDbEntity
8
Geo
100
AcDbLine
10
-90.3974477958237
20
1.61614444592677
30
0.000000000000000
11
-90.2974477958237
21
1.49033578041764
31
0.000000000000000
  0
LINE
  5
F100CC
330
F100CD
100
AcDbEntity
8
Geo
100
AcDbLine
10
-90.2974477958237
20
1.49033578041764
30
0.000000000000000
11
-90.1974477958237
21
1.36120593100659
31
0.000000000000000
  0
LINE
  5
F100CE
330
F100CF
100
AcDbEntity
8
Geo
100
AcDbLine
10
-90.1974477958237
20
1.36120593100659
30
0.000000000000000
11
-90.0974477958237
21
1.22894617755767
31
0.000000000000000
  0
LINE
  5
F100D0
330
F100D1
100
AcDbEntity
8
Geo
100
AcDbLine
10
-90.0974477958237
20
1.22894617755767
30
0.000000000000000
11
-89.9974477958237
21
1.09375243625739
31
0.000000000000000
  0
LINE
  5
F100D2
330
F100D3
100
AcDbEntity
8
Geo
100
AcDbLine
10
-89.9974477958237
20
1.09375243625739
30
0.000000000000000
11
-89.8974477958237
21
0.955824969404327
31
0.000000000000000
  0
LINE
  5
F100D4
330
F100D5
100
AcDbEntity
8
Geo
100
AcDbLine
10
-89.8974477958237
20
0.955824969404327
30
0.000000000000000
11
-89.7974477958237
21
0.815368088760865
31
0.000000000000000
  0
LINE
  5
F100D6
330
F100D7
100
AcDbEntity
8
Geo
100
AcDbLine
10
-89.7974477958237
20
0.815368088760865
30
0.000000000000000
11
-89.6974477958237
21
0.672589852906478
31
0.000000000000000
  0
LINE
  5
F100D8
330
F100D9
100
AcDbEntity
8
Geo
100
AcDbLine
10
-89.6974477958237
20
0.672589852906478
30
0.000000000000000
11
-89.5974477958237
21
0.527701759040844
31
0.000000000000000
  0
LINE
  5
F100DA
330
F100DB
100
AcDbEntity
8
Geo
100
AcDbLine
10
-89.5974477958237
20
0.527701759040844
30
0.000000000000000
11
-89.4974477958237
21
0.380918429693340
31
0.000000000000000
  0
LINE
  5
F100DC
330
F100DD
100
AcDbEntity
8
Geo
100
AcDbLine
10
-89.4974477958237
20
0.380918429693340
30
0.000000000000000
11
-89.3974477958237
21
0.232457294802992
31
0.000000000000000
  0
LINE
  5
F100DE
330
F100DF
100
AcDbEntity
8
Geo
100
AcDbLine
10
-89.3974477958237
20
0.232457294802992
30
0.000000000000000
11
-89.2974477958237
21
0.0825382696398181
31
0.000000000000000
  0
LINE
  5
F100E0
330
F100E1
100
AcDbEntity
8
Geo
100
AcDbLine
10
-89.2974477958237
20
0.0825382696398181
30
0.000000000000000
11
-89.1974477958237
21
-0.0686165709553592
31
0.000000000000000
  0
LINE
  5
F100E2
330
F100E3
100
AcDbEntity
8
Geo
100
AcDbLine
10
-89.1974477958237
20
-0.0686165709553592
30
0.000000000000000
11
-89.0974477958237
21
-0.220783321530059
31
0.000000000000000
  0
LINE
  5
F100E4
330
F100E5
100
AcDbEntity
8
Geo
100
AcDbLine
10
-89.0974477958237
20
-0.220783321530059
30
0.000000000000000
11
-88.9974477958237
21
-0.373736577690971
31
0.000000000000000
  0
LINE
  5
F100E6
330
F100E7
100
AcDbEntity
8
Geo
100
AcDbLine
10
-88.9974477958237
20
-0.373736577690971
30
0.000000000000000
11
-88.8974477958237
21
-0.527249769995171
31
0.000000000000000
  0
LINE
  5
F100E8
330
F100E9
100
AcDbEntity
8
Geo
100
AcDbLine
10
-88.8974477958237
20
-0.527249769995171
30
0.000000000000000
11
-88.7974477958237
21
-0.681095499567109
31
0.000000000000000
  0
LINE
  5
F100EA
330
F100EB
100
AcDbEntity
8
Geo
100
AcDbLine
10
-88.7974477958237
20
-0.681095499567109
30
0.000000000000000
11
-88.6974477958237
21
-0.835045874944254
31
0.000000000000000
  0
LINE
  5
F100EC
330
F100ED
100
AcDbEntity
8
Geo
100
AcDbLine
10
-88.6974477958237
20
-0.835045874944254
30
0.000000000000000
11
-88.5974477958237
21
-0.988872849652388
31
0.000000000000000
  0
LINE
  5
F100EE
330
F100EF
100
AcDbEntity
8
Geo
100
AcDbLine
10
-88.5974477958237
20
-0.988872849652388
30
0.000000000000000
11
-88.4974477958237
21
-1.14234856001053
31
0.000000000000000
  0
LINE
  5
F100F0
330
F100F1
100
AcDbEntity
8
Geo
100
AcDbLine
10
-88.4974477958237
20
-1.14234856001053
30
0.000000000000000
11
-88.3974477958237
21
-1.29524566266509
31
0.000000000000000
  0
LINE
  5
F100F2
330
F100F3
100
AcDbEntity
8
Geo
100
AcDbLine
10
-88.3974477958237
20
-1.29524566266509
30
0.000000000000000
11
-88.2974477958237
21
-1.44733767135325
31
0.000000000000000
  0
LINE
  5
F100F4
330
F100F5
100
AcDbEntity
8
Geo
100
AcDbLine
10
-88.2974477958237
20
-1.44733767135325
30
0.000000000000000
11
-88.1974477958237
21
-1.59839929239675
31
0.000000000000000
  0
LINE
  5
F100F6
330
F100F7
100
AcDbEntity
8
Geo
100
AcDbLine
10
-88.1974477958237
20
-1.59839929239675
30
0.000000000000000
11
-88.0974477958237
21
-1.74820675842910
31
0.000000000000000
  0
LINE
  5
F100F8
330
F100F9
100
AcDbEntity
8
Geo
100
AcDbLine
10
-88.0974477958237
20
-1.74820675842910
30
0.000000000000000
11
-87.9974477958237
21
-1.89653815986187
31
0.000000000000000
  0
LINE
  5
F100FA
330
F100FB
100
AcDbEntity
8
Geo
100
AcDbLine
10
-87.9974477958237
20
-1.89653815986187
30
0.000000000000000
11
-87.8974477958237
21
-2.04317377359902
31
0.000000000000000
  0
LINE
  5
F100FC
330
F100FD
100
AcDbEntity
8
Geo
100
AcDbLine
10
-87.8974477958237
20
-2.04317377359902
30
0.000000000000000
11
-87.7974477958237
21
-2.18789638851244
31
0.000000000000000
  0
LINE
  5
F100FE
330
F100FF
100
AcDbEntity
8
Geo
100
AcDbLine
10
-87.7974477958237
20
-2.18789638851244
30
0.000000000000000
11
-87.6974477958237
21
-2.33049162719651
31
0.000000000000000
  0
LINE
  5
F10100
330
F10101
100
AcDbEntity
8
Geo
100
AcDbLine
10
-87.6974477958237
20
-2.33049162719651
30
0.000000000000000
11
-87.5974477958237
21
-2.47074826352500
31
0.000000000000000
  0
LINE
  5
F10102
330
F10103
100
AcDbEntity
8
Geo
100
AcDbLine
10
-87.5974477958237
20
-2.47074826352500
30
0.000000000000000
11
-87.4974477958237
21
-2.60845853554005
31
0.000000000000000
  0
LINE
  5
F10104
330
F10105
100
AcDbEntity
8
Geo
100
AcDbLine
10
-87.4974477958237
20
-2.60845853554005
30
0.000000000000000
11
-87.3974477958237
21
-2.74341845320969
31
0.000000000000000
  0
LINE
  5
F10106
330
F10107
100
AcDbEntity
8
Geo
100
AcDbLine
10
-87.3974477958237
20
-2.74341845320969
30
0.000000000000000
11
-87.2974477958237
21
-2.87542810059795
31
0.000000000000000
  0
LINE
  5
F10108
330
F10109
100
AcDbEntity
8
Geo
100
AcDbLine
10
-87.2974477958237
20
-2.87542810059795
30
0.000000000000000
11
-87.1974477958237
21
-3.00429193200009
31
0.000000000000000
  0
LINE
  5
F1010A
330
F1010B
100
AcDbEntity
8
Geo
100
AcDbLine
10
-87.1974477958237
20
-3.00429193200009
30
0.000000000000000
11
-87.0974477958237
21
-3.12981906160414
31
0.000000000000000
  0
LINE
  5
F1010C
330
F1010D
100
AcDbEntity
8
Geo
100
AcDbLine
10
-87.0974477958237
20
-3.12981906160414
30
0.000000000000000
11
-86.9974477958237
21
-3.25182354624982
31
0.000000000000000
  0
LINE
  5
F1010E
330
F1010F
100
AcDbEntity
8
Geo
100
AcDbLine
10
-86.9974477958237
20
-3.25182354624982
30
0.000000000000000
11
-86.8974477958237
21
-3.37012466086586
31
0.000000000000000
  0
LINE
  5
F10110
330
F10111
100
AcDbEntity
8
Geo
100
AcDbLine
10
-86.8974477958237
20
-3.37012466086586
30
0.000000000000000
11
-86.7974477958237
21
-3.48454716617779
31
0.000000000000000
  0
LINE
  5
F10112
330
F10113
100
AcDbEntity
8
Geo
100
AcDbLine
10
-86.7974477958237
20
-3.48454716617779
30
0.000000000000000
11
-86.6974477958237
21
-3.59492156828966
31
0.000000000000000
  0
LINE
  5
F10114
330
F10115
100
AcDbEntity
8
Geo
100
AcDbLine
10
-86.6974477958237
20
-3.59492156828966
30
0.000000000000000
11
-86.5974477958237
21
-3.70108436975508
31
0.000000000000000
  0
LINE
  5
F10116
330
F10117
100
AcDbEntity
8
Geo
100
AcDbLine
10
-86.5974477958237
20
-3.70108436975508
30
0.000000000000000
11
-86.4974477958237
21
-3.80287831176574
31
0.000000000000000
  0
LINE
  5
F10118
330
F10119
100
AcDbEntity
8
Geo
100
AcDbLine
10
-86.4974477958237
20
-3.80287831176574
30
0.000000000000000
11
-86.3974477958237
21
-3.90015260709874
31
0.000000000000000
  0
LINE
  5
F1011A
330
F1011B
100
AcDbEntity
8
Geo
100
AcDbLine
10
-86.3974477958237
20
-3.90015260709874
30
0.000000000000000
11
-86.2974477958237
21
-3.99276316347738
31
0.000000000000000
  0
LINE
  5
F1011C
330
F1011D
100
AcDbEntity
8
Geo
100
AcDbLine
10
-86.2974477958237
20
-3.99276316347738
30
0.000000000000000
11
-86.1974477958237
21
-4.08057279701495
31
0.000000000000000
  0
LINE
  5
F1011E
330
F1011F
100
AcDbEntity
8
Geo
100
AcDbLine
10
-86.1974477958237
20
-4.08057279701495
30
0.000000000000000
11
-86.0974477958237
21
-4.16345143542496
31
0.000000000000000
  0
LINE
  5
F10120
330
F10121
100
AcDbEntity
8
Geo
100
AcDbLine
10
-86.0974477958237
20
-4.16345143542496
30
0.000000000000000
11
-85.9974477958237
21
-4.24127631069707
31
0.000000000000000
  0
LINE
  5
F10122
330
F10123
100
AcDbEntity
8
Geo
100
AcDbLine
10
-85.9974477958237
20
-4.24127631069707
30
0.000000000000000
11
-85.8974477958237
21
-4.31393214095313
31
0.000000000000000
  0
LINE
  5
F10124
330
F10125
100
AcDbEntity
8
Geo
100
AcDbLine
10
-85.8974477958237
20
-4.31393214095313
30
0.000000000000000
11
-85.7974477958237
21
-4.38131130121413
31
0.000000000000000
  0
LINE
  5
F10126
330
F10127
100
AcDbEntity
8
Geo
100
AcDbLine
10
-85.7974477958237
20
-4.38131130121413
30
0.000000000000000
11
-85.6974477958237
21
-4.44331398282487
31
0.000000000000000
  0
LINE
  5
F10128
330
F10129
100
AcDbEntity
8
Geo
100
AcDbLine
10
-85.6974477958237
20
-4.44331398282487
30
0.000000000000000
11
-85.5974477958237
21
-4.49984834130041
31
0.000000000000000
  0
LINE
  5
F1012A
330
F1012B
100
AcDbEntity
8
Geo
100
AcDbLine
10
-85.5974477958237
20
-4.49984834130041
30
0.000000000000000
11
-85.4974477958237
21
-4.55083063237516
31
0.000000000000000
  0
LINE
  5
F1012C
330
F1012D
100
AcDbEntity
8
Geo
100
AcDbLine
10
-85.4974477958237
20
-4.55083063237516
30
0.000000000000000
11
-85.3974477958237
21
-4.59618533605316
31
0.000000000000000
  0
LINE
  5
F1012E
330
F1012F
100
AcDbEntity
8
Geo
100
AcDbLine
10
-85.3974477958237
20
-4.59618533605316
30
0.000000000000000
11
-85.2974477958237
21
-4.63584526847573
31
0.000000000000000
  0
LINE
  5
F10130
330
F10131
100
AcDbEntity
8
Geo
100
AcDbLine
10
-85.2974477958237
20
-4.63584526847573
30
0.000000000000000
11
-85.1974477958237
21
-4.66975168144083
31
0.000000000000000
  0
LINE
  5
F10132
330
F10133
100
AcDbEntity
8
Geo
100
AcDbLine
10
-85.1974477958237
20
-4.66975168144083
30
0.000000000000000
11
-85.0974477958237
21
-4.69785434942669
31
0.000000000000000
  0
LINE
  5
F10134
330
F10135
100
AcDbEntity
8
Geo
100
AcDbLine
10
-85.0974477958237
20
-4.69785434942669
30
0.000000000000000
11
-84.9974477958237
21
-4.72011164399080
31
0.000000000000000
  0
LINE
  5
F10136
330
F10137
100
AcDbEntity
8
Geo
100
AcDbLine
10
-84.9974477958237
20
-4.72011164399080
30
0.000000000000000
11
-84.8974477958237
21
-4.73649059543407
31
0.000000000000000
  0
LINE
  5
F10138
330
F10139
100
AcDbEntity
8
Geo
100
AcDbLine
10
-84.8974477958237
20
-4.73649059543407
30
0.000000000000000
11
-84.7974477958237
21
-4.74696694163880
31
0.000000000000000
  0
LINE
  5
F1013A
330
F1013B
100
AcDbEntity
8
Geo
100
AcDbLine
10
-84.7974477958237
20
-4.74696694163880
30
0.000000000000000
11
-84.6974477958237
21
-4.75152516400812
31
0.000000000000000
  0
LINE
  5
F1013C
330
F1013D
100
AcDbEntity
8
Geo
100
AcDbLine
10
-96.0974477958237
20
2.94825986078886
30
0.000000000000000
11
-95.9974477958237
21
3.16896064192716
31
0.000000000000000
  0
LINE
  5
F1013E
330
F1013F
100
AcDbEntity
8
Geo
100
AcDbLine
10
-95.9974477958237
20
3.16896064192716
30
0.000000000000000
11
-95.8974477958237
21
3.21930738433004
31
0.000000000000000
  0
LINE
  5
F10140
330
F10141
100
AcDbEntity
8
Geo
100
AcDbLine
10
-95.8974477958237
20
3.21930738433004
30
0.000000000000000
11
-95.7974477958237
21
3.22162281058624
31
0.000000000000000
  0
LINE
  5
F10142
330
F10143
100
AcDbEntity
8
Geo
100
AcDbLine
10
-95.7974477958237
20
3.22162281058624
30
0.000000000000000
11
-95.6974477958236
21
3.20094602368378
31
0.000000000000000
  0
LINE
  5
F10144
330
F10145
100
AcDbEntity
8
Geo
100
AcDbLine
10
-95.6974477958236
20
3.20094602368378
30
0.000000000000000
11
-95.5974477958237
21
3.17441412833534
31
0.000000000000000
  0
LINE
  5
F10146
330
F10147
100
AcDbEntity
8
Geo
100
AcDbLine
10
-95.5974477958237
20
3.17441412833534
30
0.000000000000000
11
-95.4974477958237
21
3.14206642620011
31
0.000000000000000
  0
LINE
  5
F10148
330
F10149
100
AcDbEntity
8
Geo
100
AcDbLine
10
-95.4974477958237
20
3.14206642620011
30
0.000000000000000
11
-95.3974477958237
21
3.10395083388371
31
0.000000000000000
  0
LINE
  5
F1014A
330
F1014B
100
AcDbEntity
8
Geo
100
AcDbLine
10
-95.3974477958237
20
3.10395083388371
30
0.000000000000000
11
-95.2974477958237
21
3.06012381195935
31
0.000000000000000
  0
LINE
  5
F1014C
330
F1014D
100
AcDbEntity
8
Geo
100
AcDbLine
10
-95.2974477958237
20
3.06012381195935
30
0.000000000000000
11
-95.1974477958236
21
3.01065028133289
31
0.000000000000000
  0
LINE
  5
F1014E
330
F1014F
100
AcDbEntity
8
Geo
100
AcDbLine
10
-95.1974477958236
20
3.01065028133289
30
0.000000000000000
11
-95.0974477958237
21
2.95560352707556
31
0.000000000000000
  0
LINE
  5
F10150
330
F10151
100
AcDbEntity
8
Geo
100
AcDbLine
10
-95.0974477958237
20
2.95560352707556
30
0.000000000000000
11
-94.9974477958237
21
2.89506508986691
31
0.000000000000000
  0
LINE
  5
F10152
330
F10153
100
AcDbEntity
8
Geo
100
AcDbLine
10
-94.9974477958237
20
2.89506508986691
30
0.000000000000000
11
-94.8974477958237
21
2.82912464520871
31
0.000000000000000
  0
LINE
  5
F10154
330
F10155
100
AcDbEntity
8
Geo
100
AcDbLine
10
-94.8974477958237
20
2.82912464520871
30
0.000000000000000
11
-94.7974477958237
21
2.75787987058877
31
0.000000000000000
  0
LINE
  5
F10156
330
F10157
100
AcDbEntity
8
Geo
100
AcDbLine
10
-94.7974477958237
20
2.75787987058877
30
0.000000000000000
11
-94.6974477958236
21
2.68143630079139
31
0.000000000000000
  0
LINE
  5
F10158
330
F10159
100
AcDbEntity
8
Geo
100
AcDbLine
10
-94.6974477958236
20
2.68143630079139
30
0.000000000000000
11
-94.5974477958237
21
2.59990717156884
31
0.000000000000000
  0
LINE
  5
F1015A
330
F1015B
100
AcDbEntity
8
Geo
100
AcDbLine
10
-94.5974477958237
20
2.59990717156884
30
0.000000000000000
11
-94.4974477958237
21
2.51341325190540
31
0.000000000000000
  0
LINE
  5
F1015C
330
F1015D
100
AcDbEntity
8
Geo
100
AcDbLine
10
-94.4974477958237
20
2.51341325190540
30
0.000000000000000
11
-94.3974477958237
21
2.42208266512246
31
0.000000000000000
  0
LINE
  5
F1015E
330
F1015F
100
AcDbEntity
8
Geo
100
AcDbLine
10
-94.3974477958237
20
2.42208266512246
30
0.000000000000000
11
-94.2974477958237
21
2.32605069908958
31
0.000000000000000
  0
LINE
  5
F10160
330
F10161
100
AcDbEntity
8
Geo
100
AcDbLine
10
-94.2974477958237
20
2.32605069908958
30
0.000000000000000
11
-94.1974477958236
21
2.22545960582280
31
0.000000000000000
  0
LINE
  5
F10162
330
F10163
100
AcDbEntity
8
Geo
100
AcDbLine
10
-94.1974477958236
20
2.22545960582280
30
0.000000000000000
11
-94.0974477958237
21
2.12045839076689
31
0.000000000000000
  0
LINE
  5
F10164
330
F10165
100
AcDbEntity
8
Geo
100
AcDbLine
10
-94.0974477958237
20
2.12045839076689
30
0.000000000000000
11
-93.9974477958237
21
2.01120259207383
31
0.000000000000000
  0
LINE
  5
F10166
330
F10167
100
AcDbEntity
8
Geo
100
AcDbLine
10
-93.9974477958237
20
2.01120259207383
30
0.000000000000000
11
-93.8974477958237
21
1.89785405020435
31
0.000000000000000
  0
LINE
  5
F10168
330
F10169
100
AcDbEntity
8
Geo
100
AcDbLine
10
-93.8974477958237
20
1.89785405020435
30
0.000000000000000
11
-93.7974477958237
21
1.78058066819386
31
0.000000000000000
  0
LINE
  5
F1016A
330
F1016B
100
AcDbEntity
8
Geo
100
AcDbLine
10
-93.7974477958237
20
1.78058066819386
30
0.000000000000000
11
-93.6974477958236
21
1.65955616293797
31
0.000000000000000
  0
LINE
  5
F1016C
330
F1016D
100
AcDbEntity
8
Geo
100
AcDbLine
10
-93.6974477958236
20
1.65955616293797
30
0.000000000000000
11
-93.5974477958237
21
1.53495980786587
31
0.000000000000000
  0
LINE
  5
F1016E
330
F1016F
100
AcDbEntity
8
Geo
100
AcDbLine
10
-93.5974477958237
20
1.53495980786587
30
0.000000000000000
11
-93.4974477958237
21
1.40697616738283
31
0.000000000000000
  0
LINE
  5
F10170
330
F10171
100
AcDbEntity
8
Geo
100
AcDbLine
10
-93.4974477958237
20
1.40697616738283
30
0.000000000000000
11
-93.3974477958237
21
1.27579482347524
31
0.000000000000000
  0
LINE
  5
F10172
330
F10173
100
AcDbEntity
8
Geo
100
AcDbLine
10
-93.3974477958237
20
1.27579482347524
30
0.000000000000000
11
-93.2974477958237
21
1.14161009488307
31
0.000000000000000
  0
LINE
  5
F10174
330
F10175
100
AcDbEntity
8
Geo
100
AcDbLine
10
-93.2974477958237
20
1.14161009488307
30
0.000000000000000
11
-93.1974477958236
21
1.00462074925580
31
0.000000000000000
  0
LINE
  5
F10176
330
F10177
100
AcDbEntity
8
Geo
100
AcDbLine
10
-93.1974477958236
20
1.00462074925580
30
0.000000000000000
11
-93.0974477958237
21
0.865029708718170
31
0.000000000000000
  0
LINE
  5
F10178
330
F10179
100
AcDbEntity
8
Geo
100
AcDbLine
10
-93.0974477958237
20
0.865029708718170
30
0.000000000000000
11
-92.9974477958237
21
0.723043749281915
31
0.000000000000000
  0
LINE
  5
F1017A
330
F1017B
100
AcDbEntity
8
Geo
100
AcDbLine
10
-92.9974477958237
20
0.723043749281915
30
0.000000000000000
11
-92.8974477958237
21
0.578873194548772
31
0.000000000000000
  0
LINE
  5
F1017C
330
F1017D
100
AcDbEntity
8
Geo
100
AcDbLine
10
-92.8974477958237
20
0.578873194548772
30
0.000000000000000
11
-92.7974477958237
21
0.432731604158411
31
0.000000000000000
  0
LINE
  5
F1017E
330
F1017F
100
AcDbEntity
8
Geo
100
AcDbLine
10
-92.7974477958237
20
0.432731604158411
30
0.000000000000000
11
-92.6974477958236
21
0.284835457442850
31
0.000000000000000
  0
LINE
  5
F10180
330
F10181
100
AcDbEntity
8
Geo
100
AcDbLine
10
-92.6974477958236
20
0.284835457442850
30
0.000000000000000
11
-92.5974477958237
21
0.135403832755915
31
0.000000000000000
  0
LINE
  5
F10182
330
F10183
100
AcDbEntity
8
Geo
100
AcDbLine
10
-92.5974477958237
20
0.135403832755915
30
0.000000000000000
11
-92.4974477958236
21
-0.0153419170472103
31
0.000000000000000
  0
LINE
  5
F10184
330
F10185
100
AcDbEntity
8
Geo
100
AcDbLine
10
-92.4974477958236
20
-0.0153419170472103
30
0.000000000000000
11
-92.3974477958237
21
-0.167178492499658
31
0.000000000000000
  0
LINE
  5
F10186
330
F10187
100
AcDbEntity
8
Geo
100
AcDbLine
10
-92.3974477958237
20
-0.167178492499658
30
0.000000000000000
11
-92.2974477958237
21
-0.319880978296062
31
0.000000000000000
  0
LINE
  5
F10188
330
F10189
100
AcDbEntity
8
Geo
100
AcDbLine
10
-92.2974477958237
20
-0.319880978296062
30
0.000000000000000
11
-92.1974477958236
21
-0.473223176459286
31
0.000000000000000
  0
LINE
  5
F1018A
330
F1018B
100
AcDbEntity
8
Geo
100
AcDbLine
10
-92.1974477958236
20
-0.473223176459286
30
0.000000000000000
11
-92.0974477958237
21
-0.626977941407158
31
0.000000000000000
  0
LINE
  5
F1018C
330
F1018D
100
AcDbEntity
8
Geo
100
AcDbLine
10
-92.0974477958237
20
-0.626977941407158
30
0.000000000000000
11
-91.9974477958237
21
-0.780917516422919
31
0.000000000000000
  0
LINE
  5
F1018E
330
F1018F
100
AcDbEntity
8
Geo
100
AcDbLine
10
-91.9974477958237
20
-0.780917516422919
30
0.000000000000000
11
-91.8974477958237
21
-0.934813871030910
31
0.000000000000000
  0
LINE
  5
F10190
330
F10191
100
AcDbEntity
8
Geo
100
AcDbLine
10
-91.8974477958237
20
-0.934813871030910
30
0.000000000000000
11
-91.7974477958237
21
-1.08843903877780
31
0.000000000000000
  0
LINE
  5
F10192
330
F10193
100
AcDbEntity
8
Geo
100
AcDbLine
10
-91.7974477958237
20
-1.08843903877780
30
0.000000000000000
11
-91.6974477958236
21
-1.24156545491899
31
0.000000000000000
  0
LINE
  5
F10194
330
F10195
100
AcDbEntity
8
Geo
100
AcDbLine
10
-91.6974477958236
20
-1.24156545491899
30
0.000000000000000
11
-91.5974477958237
21
-1.39396629350990
31
0.000000000000000
  0
LINE
  5
F10196
330
F10197
100
AcDbEntity
8
Geo
100
AcDbLine
10
-91.5974477958237
20
-1.39396629350990
30
0.000000000000000
11
-91.4974477958237
21
-1.54541580340299
31
0.000000000000000
  0
LINE
  5
F10198
330
F10199
100
AcDbEntity
8
Geo
100
AcDbLine
10
-91.4974477958237
20
-1.54541580340299
30
0.000000000000000
11
-91.3974477958237
21
-1.69568964265255
31
0.000000000000000
  0
LINE
  5
F1019A
330
F1019B
100
AcDbEntity
8
Geo
100
AcDbLine
10
-91.3974477958237
20
-1.69568964265255
30
0.000000000000000
11
-91.2974477958237
21
-1.84456521083215
31
0.000000000000000
  0
LINE
  5
F1019C
330
F1019D
100
AcDbEntity
8
Geo
100
AcDbLine
10
-91.2974477958237
20
-1.84456521083215
30
0.000000000000000
11
-91.1974477958236
21
-1.99182197877233
31
0.000000000000000
  0
LINE
  5
F1019E
330
F1019F
100
AcDbEntity
8
Geo
100
AcDbLine
10
-91.1974477958236
20
-1.99182197877233
30
0.000000000000000
11
-91.0974477958237
21
-2.13724181523014
31
0.000000000000000
  0
LINE
  5
F101A0
330
F101A1
100
AcDbEntity
8
Geo
100
AcDbLine
10
-91.0974477958237
20
-2.13724181523014
30
0.000000000000000
11
-90.9974477958237
21
-2.28060931000666
31
0.000000000000000
  0
LINE
  5
F101A2
330
F101A3
100
AcDbEntity
8
Geo
100
AcDbLine
10
-90.9974477958237
20
-2.28060931000666
30
0.000000000000000
11
-90.8974477958237
21
-2.42171209303379
31
0.000000000000000
  0
LINE
  5
F101A4
330
F101A5
100
AcDbEntity
8
Geo
100
AcDbLine
10
-90.8974477958237
20
-2.42171209303379
30
0.000000000000000
11
-90.7974477958237
21
-2.56034114895777
31
0.000000000000000
  0
LINE
  5
F101A6
330
F101A7
100
AcDbEntity
8
Geo
100
AcDbLine
10
-90.7974477958237
20
-2.56034114895777
30
0.000000000000000
11
-90.6974477958237
21
-2.69629112675331
31
0.000000000000000
  0
LINE
  5
F101A8
330
F101A9
100
AcDbEntity
8
Geo
100
AcDbLine
10
-90.6974477958237
20
-2.69629112675331
30
0.000000000000000
11
-90.5974477958237
21
-2.82936064390978
31
0.000000000000000
  0
LINE
  5
F101AA
330
F101AB
100
AcDbEntity
8
Geo
100
AcDbLine
10
-90.5974477958237
20
-2.82936064390978
30
0.000000000000000
11
-90.4974477958237
21
-2.95935258473883
31
0.000000000000000
  0
LINE
  5
F101AC
330
F101AD
100
AcDbEntity
8
Geo
100
AcDbLine
10
-90.4974477958237
20
-2.95935258473883
30
0.000000000000000
11
-90.3974477958237
21
-3.08607439236160
31
0.000000000000000
  0
LINE
  5
F101AE
330
F101AF
100
AcDbEntity
8
Geo
100
AcDbLine
10
-90.3974477958237
20
-3.08607439236160
30
0.000000000000000
11
-90.2974477958237
21
-3.20933835394294
31
0.000000000000000
  0
LINE
  5
F101B0
330
F101B1
100
AcDbEntity
8
Geo
100
AcDbLine
10
-90.2974477958237
20
-3.20933835394294
30
0.000000000000000
11
-90.1974477958237
21
-3.32896187875016
31
0.000000000000000
  0
LINE
  5
F101B2
330
F101B3
100
AcDbEntity
8
Geo
100
AcDbLine
10
-90.1974477958237
20
-3.32896187875016
30
0.000000000000000
11
-90.0974477958237
21
-3.44476776862445
31
0.000000000000000
  0
LINE
  5
F101B4
330
F101B5
100
AcDbEntity
8
Geo
100
AcDbLine
10
-90.0974477958237
20
-3.44476776862445
30
0.000000000000000
11
-89.9974477958237
21
-3.55658448046425
31
0.000000000000000
  0
LINE
  5
F101B6
330
F101B7
100
AcDbEntity
8
Geo
100
AcDbLine
10
-89.9974477958237
20
-3.55658448046425
30
0.000000000000000
11
-89.8974477958237
21
-3.66424638033179
31
0.000000000000000
  0
LINE
  5
F101B8
330
F101B9
100
AcDbEntity
8
Geo
100
AcDbLine
10
-89.8974477958237
20
-3.66424638033179
30
0.000000000000000
11
-89.7974477958237
21
-3.76759398880643
31
0.000000000000000
  0
LINE
  5
F101BA
330
F101BB
100
AcDbEntity
8
Geo
100
AcDbLine
10
-89.7974477958237
20
-3.76759398880643
30
0.000000000000000
11
-89.6974477958237
21
-3.86647421722130
31
0.000000000000000
  0
LINE
  5
F101BC
330
F101BD
100
AcDbEntity
8
Geo
100
AcDbLine
10
-89.6974477958237
20
-3.86647421722130
30
0.000000000000000
11
-89.5974477958237
21
-3.96074059443331
31
0.000000000000000
  0
LINE
  5
F101BE
330
F101BF
100
AcDbEntity
8
Geo
100
AcDbLine
10
-89.5974477958237
20
-3.96074059443331
30
0.000000000000000
11
-89.4974477958237
21
-4.05025348379068
31
0.000000000000000
  0
LINE
  5
F101C0
330
F101C1
100
AcDbEntity
8
Geo
100
AcDbLine
10
-89.4974477958237
20
-4.05025348379068
30
0.000000000000000
11
-89.3974477958237
21
-4.13488028997646
31
0.000000000000000
  0
LINE
  5
F101C2
330
F101C3
100
AcDbEntity
8
Geo
100
AcDbLine
10
-89.3974477958237
20
-4.13488028997646
30
0.000000000000000
11
-89.2974477958237
21
-4.21449565542184
31
0.000000000000000
  0
LINE
  5
F101C4
330
F101C5
100
AcDbEntity
8
Geo
100
AcDbLine
10
-89.2974477958237
20
-4.21449565542184
30
0.000000000000000
11
-89.1974477958237
21
-4.28898164599813
31
0.000000000000000
  0
LINE
  5
F101C6
330
F101C7
100
AcDbEntity
8
Geo
100
AcDbLine
10
-89.1974477958237
20
-4.28898164599813
30
0.000000000000000
11
-89.0974477958237
21
-4.35822792571239
31
0.000000000000000
  0
LINE
  5
F101C8
330
F101C9
100
AcDbEntity
8
Geo
100
AcDbLine
10
-89.0974477958237
20
-4.35822792571239
30
0.000000000000000
11
-88.9974477958237
21
-4.42213192014801
31
0.000000000000000
  0
LINE
  5
F101CA
330
F101CB
100
AcDbEntity
8
Geo
100
AcDbLine
10
-88.9974477958237
20
-4.42213192014801
30
0.000000000000000
11
-88.8974477958237
21
-4.48059896840803
31
0.000000000000000
  0
LINE
  5
F101CC
330
F101CD
100
AcDbEntity
8
Geo
100
AcDbLine
10
-88.8974477958237
20
-4.48059896840803
30
0.000000000000000
11
-88.7974477958237
21
-4.53354246333623
31
0.000000000000000
  0
LINE
  5
F101CE
330
F101CF
100
AcDbEntity
8
Geo
100
AcDbLine
10
-88.7974477958237
20
-4.53354246333623
30
0.000000000000000
11
-88.6974477958237
21
-4.58088397980811
31
0.000000000000000
  0
LINE
  5
F101D0
330
F101D1
100
AcDbEntity
8
Geo
100
AcDbLine
10
-88.6974477958237
20
-4.58088397980811
30
0.000000000000000
11
-88.5974477958237
21
-4.62255339090202
31
0.000000000000000
  0
LINE
  5
F101D2
330
F101D3
100
AcDbEntity
8
Geo
100
AcDbLine
10
-88.5974477958237
20
-4.62255339090202
30
0.000000000000000
11
-88.4974477958237
21
-4.65848897177800
31
0.000000000000000
  0
LINE
  5
F101D4
330
F101D5
100
AcDbEntity
8
Geo
100
AcDbLine
10
-88.4974477958237
20
-4.65848897177800
30
0.000000000000000
11
-88.3974477958237
21
-4.68863749111069
31
0.000000000000000
  0
LINE
  5
F101D6
330
F101D7
100
AcDbEntity
8
Geo
100
AcDbLine
10
-88.3974477958237
20
-4.68863749111069
30
0.000000000000000
11
-88.2974477958237
21
-4.71295428994087
31
0.000000000000000
  0
LINE
  5
F101D8
330
F101D9
100
AcDbEntity
8
Geo
100
AcDbLine
10
-88.2974477958237
20
-4.71295428994087
30
0.000000000000000
11
-88.1974477958237
21
-4.73140334782870
31
0.000000000000000
  0
LINE
  5
F101DA
330
F101DB
100
AcDbEntity
8
Geo
100
AcDbLine
10
-88.1974477958237
20
-4.73140334782870
30
0.000000000000000
11
-88.0974477958237
21
-4.74395733621070
31
0.000000000000000
  0
LINE
  5
F101DC
330
F101DD
100
AcDbEntity
8
Geo
100
AcDbLine
10
-88.0974477958237
20
-4.74395733621070
30
0.000000000000000
11
-87.9974477958237
21
-4.75059765888155
31
0.000000000000000
  0
LINE
  5
F101DE
330
F101DF
100
AcDbEntity
8
Geo
100
AcDbLine
10
-96.0974477958237
20
2.76716897108093
30
0.000000000000000
11
-95.9974477958237
21
2.93041175659023
31
0.000000000000000
  0
LINE
  5
F101E0
330
F101E1
100
AcDbEntity
8
Geo
100
AcDbLine
10
-95.9974477958237
20
2.93041175659023
30
0.000000000000000
11
-95.8974477958237
21
2.93029961425481
31
0.000000000000000
  0
LINE
  5
F101E2
330
F101E3
100
AcDbEntity
8
Geo
100
AcDbLine
10
-95.8974477958237
20
2.93029961425481
30
0.000000000000000
11
-95.7974477958237
21
2.88474071369804
31
0.000000000000000
  0
LINE
  5
F101E4
330
F101E5
100
AcDbEntity
8
Geo
100
AcDbLine
10
-95.7974477958237
20
2.88474071369804
30
0.000000000000000
11
-95.6974477958236
21
2.81793361046248
31
0.000000000000000
  0
LINE
  5
F101E6
330
F101E7
100
AcDbEntity
8
Geo
100
AcDbLine
10
-95.6974477958236
20
2.81793361046248
30
0.000000000000000
11
-95.5974477958237
21
2.74583875452918
31
0.000000000000000
  0
LINE
  5
F101E8
330
F101E9
100
AcDbEntity
8
Geo
100
AcDbLine
10
-95.5974477958237
20
2.74583875452918
30
0.000000000000000
11
-95.4974477958237
21
2.66856293990670
31
0.000000000000000
  0
LINE
  5
F101EA
330
F101EB
100
AcDbEntity
8
Geo
100
AcDbLine
10
-95.4974477958237
20
2.66856293990670
30
0.000000000000000
11
-95.3974477958237
21
2.58622063515039
31
0.000000000000000
  0
LINE
  5
F101EC
330
F101ED
100
AcDbEntity
8
Geo
100
AcDbLine
10
-95.3974477958237
20
2.58622063515039
30
0.000000000000000
11
-95.2974477958237
21
2.49893381380032
31
0.000000000000000
  0
LINE
  5
F101EE
330
F101EF
100
AcDbEntity
8
Geo
100
AcDbLine
10
-95.2974477958237
20
2.49893381380032
30
0.000000000000000
11
-95.1974477958236
21
2.40683177370202
31
0.000000000000000
  0
LINE
  5
F101F0
330
F101F1
100
AcDbEntity
8
Geo
100
AcDbLine
10
-95.1974477958236
20
2.40683177370202
30
0.000000000000000
11
-95.0974477958237
21
2.31005094547777
31
0.000000000000000
  0
LINE
  5
F101F2
330
F101F3
100
AcDbEntity
8
Geo
100
AcDbLine
10
-95.0974477958237
20
2.31005094547777
30
0.000000000000000
11
-94.9974477958237
21
2.20873469043210
31
0.000000000000000
  0
LINE
  5
F101F4
330
F101F5
100
AcDbEntity
8
Geo
100
AcDbLine
10
-94.9974477958237
20
2.20873469043210
30
0.000000000000000
11
-94.8974477958237
21
2.10303308819091
31
0.000000000000000
  0
LINE
  5
F101F6
330
F101F7
100
AcDbEntity
8
Geo
100
AcDbLine
10
-94.8974477958237
20
2.10303308819091
30
0.000000000000000
11
-94.7974477958237
21
1.99310271438874
31
0.000000000000000
  0
LINE
  5
F101F8
330
F101F9
100
AcDbEntity
8
Geo
100
AcDbLine
10
-94.7974477958237
20
1.99310271438874
30
0.000000000000000
11
-94.6974477958236
21
1.87910640873346
31
0.000000000000000
  0
LINE
  5
F101FA
330
F101FB
100
AcDbEntity
8
Geo
100
AcDbLine
10
-94.6974477958236
20
1.87910640873346
30
0.000000000000000
11
-94.5974477958237
21
1.76121303379209
31
0.000000000000000
  0
LINE
  5
F101FC
330
F101FD
100
AcDbEntity
8
Geo
100
AcDbLine
10
-94.5974477958237
20
1.76121303379209
30
0.000000000000000
11
-94.4974477958237
21
1.63959722485488
31
0.000000000000000
  0
LINE
  5
F101FE
330
F101FF
100
AcDbEntity
8
Geo
100
AcDbLine
10
-94.4974477958237
20
1.63959722485488
30
0.000000000000000
11
-94.3974477958237
21
1.51443913124832
31
0.000000000000000
  0
LINE
  5
F10200
330
F10201
100
AcDbEntity
8
Geo
100
AcDbLine
10
-94.3974477958237
20
1.51443913124832
30
0.000000000000000
11
-94.2974477958237
21
1.38592414948020
31
0.000000000000000
  0
LINE
  5
F10202
330
F10203
100
AcDbEntity
8
Geo
100
AcDbLine
10
-94.2974477958237
20
1.38592414948020
30
0.000000000000000
11
-94.1974477958236
21
1.25424264861200
31
0.000000000000000
  0
LINE
  5
F10204
330
F10205
100
AcDbEntity
8
Geo
100
AcDbLine
10
-94.1974477958236
20
1.25424264861200
30
0.000000000000000
11
-94.0974477958237
21
1.11958968826549
31
0.000000000000000
  0
LINE
  5
F10206
330
F10207
100
AcDbEntity
8
Geo
100
AcDbLine
10
-94.0974477958237
20
1.11958968826549
30
0.000000000000000
11
-93.9974477958237
21
0.982164729681189
31
0.000000000000000
  0
LINE
  5
F10208
330
F10209
100
AcDbEntity
8
Geo
100
AcDbLine
10
-93.9974477958237
20
0.982164729681189
30
0.000000000000000
11
-93.8974477958237
21
0.842171340256689
31
0.000000000000000
  0
LINE
  5
F1020A
330
F1020B
100
AcDbEntity
8
Geo
100
AcDbLine
10
-93.8974477958237
20
0.842171340256689
30
0.000000000000000
11
-93.7974477958237
21
0.699816892002575
31
0.000000000000000
  0
LINE
  5
F1020C
330
F1020D
100
AcDbEntity
8
Geo
100
AcDbLine
10
-93.7974477958237
20
0.699816892002575
30
0.000000000000000
11
-93.6974477958236
21
0.555312254362549
31
0.000000000000000
  0
LINE
  5
F1020E
330
F1020F
100
AcDbEntity
8
Geo
100
AcDbLine
10
-93.6974477958236
20
0.555312254362549
30
0.000000000000000
11
-93.5974477958237
21
0.408871481852820
31
0.000000000000000
  0
LINE
  5
F10210
330
F10211
100
AcDbEntity
8
Geo
100
AcDbLine
10
-93.5974477958237
20
0.408871481852820
30
0.000000000000000
11
-93.4974477958237
21
0.260711496983455
31
0.000000000000000
  0
LINE
  5
F10212
330
F10213
100
AcDbEntity
8
Geo
100
AcDbLine
10
-93.4974477958237
20
0.260711496983455
30
0.000000000000000
11
-93.3974477958237
21
0.111051768931366
31
0.000000000000000
  0
LINE
  5
F10214
330
F10215
100
AcDbEntity
8
Geo
100
AcDbLine
10
-93.3974477958237
20
0.111051768931366
30
0.000000000000000
11
-93.2974477958237
21
-0.0398860115590668
31
0.000000000000000
  0
LINE
  5
F10216
330
F10217
100
AcDbEntity
8
Geo
100
AcDbLine
10
-93.2974477958237
20
-0.0398860115590668
30
0.000000000000000
11
-93.1974477958236
21
-0.191878260566190
31
0.000000000000000
  0
LINE
  5
F10218
330
F10219
100
AcDbEntity
8
Geo
100
AcDbLine
10
-93.1974477958236
20
-0.191878260566190
30
0.000000000000000
11
-93.0974477958237
21
-0.344699832185622
31
0.000000000000000
  0
LINE
  5
F1021A
330
F1021B
100
AcDbEntity
8
Geo
100
AcDbLine
10
-93.0974477958237
20
-0.344699832185622
30
0.000000000000000
11
-92.9974477958237
21
-0.498124352038560
31
0.000000000000000
  0
LINE
  5
F1021C
330
F1021D
100
AcDbEntity
8
Geo
100
AcDbLine
10
-92.9974477958237
20
-0.498124352038560
30
0.000000000000000
11
-92.8974477958237
21
-0.651924552599835
31
0.000000000000000
  0
LINE
  5
F1021E
330
F1021F
100
AcDbEntity
8
Geo
100
AcDbLine
10
-92.8974477958237
20
-0.651924552599835
30
0.000000000000000
11
-92.7974477958237
21
-0.805872609848975
31
0.000000000000000
  0
LINE
  5
F10220
330
F10221
100
AcDbEntity
8
Geo
100
AcDbLine
10
-92.7974477958237
20
-0.805872609848975
30
0.000000000000000
11
-92.6974477958236
21
-0.959740480745601
31
0.000000000000000
  0
LINE
  5
F10222
330
F10223
100
AcDbEntity
8
Geo
100
AcDbLine
10
-92.6974477958236
20
-0.959740480745601
30
0.000000000000000
11
-92.5974477958237
21
-1.11330024102927
31
0.000000000000000
  0
LINE
  5
F10224
330
F10225
100
AcDbEntity
8
Geo
100
AcDbLine
10
-92.5974477958237
20
-1.11330024102927
30
0.000000000000000
11
-92.4974477958236
21
-1.26632442284334
31
0.000000000000000
  0
LINE
  5
F10226
330
F10227
100
AcDbEntity
8
Geo
100
AcDbLine
10
-92.4974477958236
20
-1.26632442284334
30
0.000000000000000
11
-92.3974477958237
21
-1.41858635168283
31
0.000000000000000
  0
LINE
  5
F10228
330
F10229
100
AcDbEntity
8
Geo
100
AcDbLine
10
-92.3974477958237
20
-1.41858635168283
30
0.000000000000000
11
-92.2974477958237
21
-1.56986048216700
31
0.000000000000000
  0
LINE
  5
F1022A
330
F1022B
100
AcDbEntity
8
Geo
100
AcDbLine
10
-92.2974477958237
20
-1.56986048216700
30
0.000000000000000
11
-92.1974477958236
21
-1.71992273213941
31
0.000000000000000
  0
LINE
  5
F1022C
330
F1022D
100
AcDbEntity
8
Geo
100
AcDbLine
10
-92.1974477958236
20
-1.71992273213941
30
0.000000000000000
11
-92.0974477958237
21
-1.86855081460054
31
0.000000000000000
  0
LINE
  5
F1022E
330
F1022F
100
AcDbEntity
8
Geo
100
AcDbLine
10
-92.0974477958237
20
-1.86855081460054
30
0.000000000000000
11
-91.9974477958237
21
-2.01552456698118
31
0.000000000000000
  0
LINE
  5
F10230
330
F10231
100
AcDbEntity
8
Geo
100
AcDbLine
10
-91.9974477958237
20
-2.01552456698118
30
0.000000000000000
11
-91.8974477958237
21
-2.16062627726891
31
0.000000000000000
  0
LINE
  5
F10232
330
F10233
100
AcDbEntity
8
Geo
100
AcDbLine
10
-91.8974477958237
20
-2.16062627726891
30
0.000000000000000
11
-91.7974477958237
21
-2.30364100650467
31
0.000000000000000
  0
LINE
  5
F10234
330
F10235
100
AcDbEntity
8
Geo
100
AcDbLine
10
-91.7974477958237
20
-2.30364100650467
30
0.000000000000000
11
-91.6974477958236
21
-2.44435690717145
31
0.000000000000000
  0
LINE
  5
F10236
330
F10237
100
AcDbEntity
8
Geo
100
AcDbLine
10
-91.6974477958236
20
-2.44435690717145
30
0.000000000000000
11
-91.5974477958237
21
-2.58256553700380
31
0.000000000000000
  0
LINE
  5
F10238
330
F10239
100
AcDbEntity
8
Geo
100
AcDbLine
10
-91.5974477958237
20
-2.58256553700380
30
0.000000000000000
11
-91.4974477958237
21
-2.71806216775299
31
0.000000000000000
  0
LINE
  5
F1023A
330
F1023B
100
AcDbEntity
8
Geo
100
AcDbLine
10
-91.4974477958237
20
-2.71806216775299
30
0.000000000000000
11
-91.3974477958237
21
-2.85064608845074
31
0.000000000000000
  0
LINE
  5
F1023C
330
F1023D
100
AcDbEntity
8
Geo
100
AcDbLine
10
-91.3974477958237
20
-2.85064608845074
30
0.000000000000000
11
-91.2974477958237
21
-2.98012090272206
31
0.000000000000000
  0
LINE
  5
F1023E
330
F1023F
100
AcDbEntity
8
Geo
100
AcDbLine
10
-91.2974477958237
20
-2.98012090272206
30
0.000000000000000
11
-91.1974477958236
21
-3.10629481970691
31
0.000000000000000
  0
LINE
  5
F10240
330
F10241
100
AcDbEntity
8
Geo
100
AcDbLine
10
-91.1974477958236
20
-3.10629481970691
30
0.000000000000000
11
-91.0974477958237
21
-3.22898093815979
31
0.000000000000000
  0
LINE
  5
F10242
330
F10243
100
AcDbEntity
8
Geo
100
AcDbLine
10
-91.0974477958237
20
-3.22898093815979
30
0.000000000000000
11
-90.9974477958237
21
-3.34799752330622
31
0.000000000000000
  0
LINE
  5
F10244
330
F10245
100
AcDbEntity
8
Geo
100
AcDbLine
10
-90.9974477958237
20
-3.34799752330622
30
0.000000000000000
11
-90.8974477958237
21
-3.46316827604624
31
0.000000000000000
  0
LINE
  5
F10246
330
F10247
100
AcDbEntity
8
Geo
100
AcDbLine
10
-90.8974477958237
20
-3.46316827604624
30
0.000000000000000
11
-90.7974477958237
21
-3.57432259410604
31
0.000000000000000
  0
LINE
  5
F10248
330
F10249
100
AcDbEntity
8
Geo
100
AcDbLine
10
-90.7974477958237
20
-3.57432259410604
30
0.000000000000000
11
-90.6974477958237
21
-3.68129582475083
31
0.000000000000000
  0
LINE
  5
F1024A
330
F1024B
100
AcDbEntity
8
Geo
100
AcDbLine
10
-90.6974477958237
20
-3.68129582475083
30
0.000000000000000
11
-90.5974477958237
21
-3.78392950868472
31
0.000000000000000
  0
LINE
  5
F1024C
330
F1024D
100
AcDbEntity
8
Geo
100
AcDbLine
10
-90.5974477958237
20
-3.78392950868472
30
0.000000000000000
11
-90.4974477958237
21
-3.88207161477625
31
0.000000000000000
  0
LINE
  5
F1024E
330
F1024F
100
AcDbEntity
8
Geo
100
AcDbLine
10
-90.4974477958237
20
-3.88207161477625
30
0.000000000000000
11
-90.3974477958237
21
-3.97557676526190
31
0.000000000000000
  0
LINE
  5
F10250
330
F10251
100
AcDbEntity
8
Geo
100
AcDbLine
10
-90.3974477958237
20
-3.97557676526190
30
0.000000000000000
11
-90.2974477958237
21
-4.06430645109394
31
0.000000000000000
  0
LINE
  5
F10252
330
F10253
100
AcDbEntity
8
Geo
100
AcDbLine
10
-90.2974477958237
20
-4.06430645109394
30
0.000000000000000
11
-90.1974477958237
21
-4.14812923711372
31
0.000000000000000
  0
LINE
  5
F10254
330
F10255
100
AcDbEntity
8
Geo
100
AcDbLine
10
-90.1974477958237
20
-4.14812923711372
30
0.000000000000000
11
-90.0974477958237
21
-4.22692095674637
31
0.000000000000000
  0
LINE
  5
F10256
330
F10257
100
AcDbEntity
8
Geo
100
AcDbLine
10
-90.0974477958237
20
-4.22692095674637
30
0.000000000000000
11
-89.9974477958237
21
-4.30056489592857
31
0.000000000000000
  0
LINE
  5
F10258
330
F10259
100
AcDbEntity
8
Geo
100
AcDbLine
10
-89.9974477958237
20
-4.30056489592857
30
0.000000000000000
11
-89.8974477958237
21
-4.36895196599694
31
0.000000000000000
  0
LINE
  5
F1025A
330
F1025B
100
AcDbEntity
8
Geo
100
AcDbLine
10
-89.8974477958237
20
-4.36895196599694
30
0.000000000000000
11
-89.7974477958237
21
-4.43198086528090
31
0.000000000000000
  0
LINE
  5
F1025C
330
F1025D
100
AcDbEntity
8
Geo
100
AcDbLine
10
-89.7974477958237
20
-4.43198086528090
30
0.000000000000000
11
-89.6974477958237
21
-4.48955822916071
31
0.000000000000000
  0
LINE
  5
F1025E
330
F1025F
100
AcDbEntity
8
Geo
100
AcDbLine
10
-89.6974477958237
20
-4.48955822916071
30
0.000000000000000
11
-89.5974477958237
21
-4.54159876836835
31
0.000000000000000
  0
LINE
  5
F10260
330
F10261
100
AcDbEntity
8
Geo
100
AcDbLine
10
-89.5974477958237
20
-4.54159876836835
30
0.000000000000000
11
-89.4974477958237
21
-4.58802539532639
31
0.000000000000000
  0
LINE
  5
F10262
330
F10263
100
AcDbEntity
8
Geo
100
AcDbLine
10
-89.4974477958237
20
-4.58802539532639
30
0.000000000000000
11
-89.3974477958237
21
-4.62876933833771
31
0.000000000000000
  0
LINE
  5
F10264
330
F10265
100
AcDbEntity
8
Geo
100
AcDbLine
10
-89.3974477958237
20
-4.62876933833771
30
0.000000000000000
11
-89.2974477958237
21
-4.66377024345690
31
0.000000000000000
  0
LINE
  5
F10266
330
F10267
100
AcDbEntity
8
Geo
100
AcDbLine
10
-89.2974477958237
20
-4.66377024345690
30
0.000000000000000
11
-89.1974477958237
21
-4.69297626389252
31
0.000000000000000
  0
LINE
  5
F10268
330
F10269
100
AcDbEntity
8
Geo
100
AcDbLine
10
-89.1974477958237
20
-4.69297626389252
30
0.000000000000000
11
-89.0974477958237
21
-4.71634413680762
31
0.000000000000000
  0
LINE
  5
F1026A
330
F1026B
100
AcDbEntity
8
Geo
100
AcDbLine
10
-89.0974477958237
20
-4.71634413680762
30
0.000000000000000
11
-88.9974477958237
21
-4.73383924740496
31
0.000000000000000
  0
LINE
  5
F1026C
330
F1026D
100
AcDbEntity
8
Geo
100
AcDbLine
10
-88.9974477958237
20
-4.73383924740496
30
0.000000000000000
11
-88.8974477958237
21
-4.74543568020187
31
0.000000000000000
  0
LINE
  5
F1026E
330
F1026F
100
AcDbEntity
8
Geo
100
AcDbLine
10
-88.8974477958237
20
-4.74543568020187
30
0.000000000000000
11
-88.7974477958237
21
-4.75111625741877
31
0.000000000000000
  0
LINE
  5
F10270
330
F10271
100
AcDbEntity
8
Geo
100
AcDbLine
10
-79.8974477958237
20
3.24825986078886
30
0.000000000000000
11
-79.7974477958237
21
3.24776386084931
31
0.000000000000000
  0
LINE
  5
F10272
330
F10273
100
AcDbEntity
8
Geo
100
AcDbLine
10
-79.7974477958237
20
3.24776386084931
30
0.000000000000000
11
-79.6974477958237
21
3.24630593718892
31
0.000000000000000
  0
LINE
  5
F10274
330
F10275
100
AcDbEntity
8
Geo
100
AcDbLine
10
-79.6974477958237
20
3.24630593718892
30
0.000000000000000
11
-79.5974477958237
21
3.24404134867239
31
0.000000000000000
  0
LINE
  5
F10276
330
F10277
100
AcDbEntity
8
Geo
100
AcDbLine
10
-79.5974477958237
20
3.24404134867239
30
0.000000000000000
11
-79.4974477958237
21
3.24111774586118
31
0.000000000000000
  0
LINE
  5
F10278
330
F10279
100
AcDbEntity
8
Geo
100
AcDbLine
10
-79.4974477958237
20
3.24111774586118
30
0.000000000000000
11
-79.3974477958237
21
3.23767437370472
31
0.000000000000000
  0
LINE
  5
F1027A
330
F1027B
100
AcDbEntity
8
Geo
100
AcDbLine
10
-79.3974477958237
20
3.23767437370472
30
0.000000000000000
11
-79.2974477958237
21
3.23384201296087
31
0.000000000000000
  0
LINE
  5
F1027C
330
F1027D
100
AcDbEntity
8
Geo
100
AcDbLine
10
-79.2974477958237
20
3.23384201296087
30
0.000000000000000
11
-79.1974477958236
21
3.22974294227747
31
0.000000000000000
  0
LINE
  5
F1027E
330
F1027F
100
AcDbEntity
8
Geo
100
AcDbLine
10
-79.1974477958236
20
3.22974294227747
30
0.000000000000000
11
-79.0974477958237
21
3.22549091773118
31
0.000000000000000
  0
LINE
  5
F10280
330
F10281
100
AcDbEntity
8
Geo
100
AcDbLine
10
-79.0974477958237
20
3.22549091773118
30
0.000000000000000
11
-78.9974477958236
21
3.22119116682093
31
0.000000000000000
  0
LINE
  5
F10282
330
F10283
100
AcDbEntity
8
Geo
100
AcDbLine
10
-78.9974477958236
20
3.22119116682093
30
0.000000000000000
11
-78.8974477958237
21
3.21694039411812
31
0.000000000000000
  0
LINE
  5
F10284
330
F10285
100
AcDbEntity
8
Geo
100
AcDbLine
10
-78.8974477958237
20
3.21694039411812
30
0.000000000000000
11
-78.7974477958236
21
3.21282679598327
31
0.000000000000000
  0
LINE
  5
F10286
330
F10287
100
AcDbEntity
8
Geo
100
AcDbLine
10
-78.7974477958236
20
3.21282679598327
30
0.000000000000000
11
-78.6974477958236
21
3.20893008196713
31
0.000000000000000
  0
LINE
  5
F10288
330
F10289
100
AcDbEntity
8
Geo
100
AcDbLine
10
-78.6974477958236
20
3.20893008196713
30
0.000000000000000
11
-78.5974477958236
21
3.20532150072425
31
0.000000000000000
  0
LINE
  5
F1028A
330
F1028B
100
AcDbEntity
8
Geo
100
AcDbLine
10
-78.5974477958236
20
3.20532150072425
30
0.000000000000000
11
-78.4974477958236
21
3.20206386847630
31
0.000000000000000
  0
LINE
  5
F1028C
330
F1028D
100
AcDbEntity
8
Geo
100
AcDbLine
10
-78.4974477958236
20
3.20206386847630
30
0.000000000000000
11
-78.3974477958236
21
3.19921159827178
31
0.000000000000000
  0
LINE
  5
F1028E
330
F1028F
100
AcDbEntity
8
Geo
100
AcDbLine
10
-78.3974477958236
20
3.19921159827178
30
0.000000000000000
11
-78.2974477958236
21
3.19681072849727
31
0.000000000000000
  0
LINE
  5
F10290
330
F10291
100
AcDbEntity
8
Geo
100
AcDbLine
10
-78.2974477958236
20
3.19681072849727
30
0.000000000000000
11
-78.1974477958236
21
3.19489894930318
31
0.000000000000000
  0
LINE
  5
F10292
330
F10293
100
AcDbEntity
8
Geo
100
AcDbLine
10
-78.1974477958236
20
3.19489894930318
30
0.000000000000000
11
-78.0974477958237
21
3.19350562581337
31
0.000000000000000
  0
LINE
  5
F10294
330
F10295
100
AcDbEntity
8
Geo
100
AcDbLine
10
-96.0974477958237
20
-0.751740139211150
30
0.000000000000000
11
-95.9974477958237
21
-0.902722549217692
31
0.000000000000000
  0
LINE
  5
F10296
330
F10297
100
AcDbEntity
8
Geo
100
AcDbLine
10
-95.9974477958237
20
-0.902722549217692
30
0.000000000000000
11
-95.8974477958237
21
-1.05803678968202
31
0.000000000000000
  0
LINE
  5
F10298
330
F10299
100
AcDbEntity
8
Geo
100
AcDbLine
10
-95.8974477958237
20
-1.05803678968202
30
0.000000000000000
11
-95.7974477958237
21
-1.21259463813409
31
0.000000000000000
  0
LINE
  5
F1029A
330
F1029B
100
AcDbEntity
8
Geo
100
AcDbLine
10
-95.7974477958237
20
-1.21259463813409
30
0.000000000000000
11
-95.6974477958236
21
-1.36515035893285
31
0.000000000000000
  0
LINE
  5
F1029C
330
F1029D
100
AcDbEntity
8
Geo
100
AcDbLine
10
-95.6974477958236
20
-1.36515035893285
30
0.000000000000000
11
-95.5974477958237
21
-1.51679743603709
31
0.000000000000000
  0
LINE
  5
F1029E
330
F1029F
100
AcDbEntity
8
Geo
100
AcDbLine
10
-95.5974477958237
20
-1.51679743603709
30
0.000000000000000
11
-95.4974477958237
21
-1.66731123484507
31
0.000000000000000
  0
LINE
  5
F102A0
330
F102A1
100
AcDbEntity
8
Geo
100
AcDbLine
10
-95.4974477958237
20
-1.66731123484507
30
0.000000000000000
11
-95.3974477958237
21
-1.81646879947861
31
0.000000000000000
  0
LINE
  5
F102A2
330
F102A3
100
AcDbEntity
8
Geo
100
AcDbLine
10
-95.3974477958237
20
-1.81646879947861
30
0.000000000000000
11
-95.2974477958237
21
-1.96404918304730
31
0.000000000000000
  0
LINE
  5
F102A4
330
F102A5
100
AcDbEntity
8
Geo
100
AcDbLine
10
-95.2974477958237
20
-1.96404918304730
30
0.000000000000000
11
-95.1974477958236
21
-2.10983377493682
31
0.000000000000000
  0
LINE
  5
F102A6
330
F102A7
100
AcDbEntity
8
Geo
100
AcDbLine
10
-95.1974477958236
20
-2.10983377493682
30
0.000000000000000
11
-95.0974477958237
21
-2.25360662463651
31
0.000000000000000
  0
LINE
  5
F102A8
330
F102A9
100
AcDbEntity
8
Geo
100
AcDbLine
10
-95.0974477958237
20
-2.25360662463651
30
0.000000000000000
11
-94.9974477958237
21
-2.39515476162663
31
0.000000000000000
  0
LINE
  5
F102AA
330
F102AB
100
AcDbEntity
8
Geo
100
AcDbLine
10
-94.9974477958237
20
-2.39515476162663
30
0.000000000000000
11
-94.8974477958237
21
-2.53426851085121
31
0.000000000000000
  0
LINE
  5
F102AC
330
F102AD
100
AcDbEntity
8
Geo
100
AcDbLine
10
-94.8974477958237
20
-2.53426851085121
30
0.000000000000000
11
-94.7974477958237
21
-2.67074180330946
31
0.000000000000000
  0
LINE
  5
F102AE
330
F102AF
100
AcDbEntity
8
Geo
100
AcDbLine
10
-94.7974477958237
20
-2.67074180330946
30
0.000000000000000
11
-94.6974477958236
21
-2.80437248130546
31
0.000000000000000
  0
LINE
  5
F102B0
330
F102B1
100
AcDbEntity
8
Geo
100
AcDbLine
10
-94.6974477958236
20
-2.80437248130546
30
0.000000000000000
11
-94.5974477958237
21
-2.93496259790412
31
0.000000000000000
  0
LINE
  5
F102B2
330
F102B3
100
AcDbEntity
8
Geo
100
AcDbLine
10
-94.5974477958237
20
-2.93496259790412
30
0.000000000000000
11
-94.4974477958237
21
-3.06231871014964
31
0.000000000000000
  0
LINE
  5
F102B4
330
F102B5
100
AcDbEntity
8
Geo
100
AcDbLine
10
-94.4974477958237
20
-3.06231871014964
30
0.000000000000000
11
-94.3974477958237
21
-3.18625216561234
31
0.000000000000000
  0
LINE
  5
F102B6
330
F102B7
100
AcDbEntity
8
Geo
100
AcDbLine
10
-94.3974477958237
20
-3.18625216561234
30
0.000000000000000
11
-94.2974477958237
21
-3.30657938183917
31
0.000000000000000
  0
LINE
  5
F102B8
330
F102B9
100
AcDbEntity
8
Geo
100
AcDbLine
10
-94.2974477958237
20
-3.30657938183917
30
0.000000000000000
11
-94.1974477958236
21
-3.42312211829423
31
0.000000000000000
  0
LINE
  5
F102BA
330
F102BB
100
AcDbEntity
8
Geo
100
AcDbLine
10
-94.1974477958236
20
-3.42312211829423
30
0.000000000000000
11
-94.0974477958237
21
-3.53570774038614
31
0.000000000000000
  0
LINE
  5
F102BC
330
F102BD
100
AcDbEntity
8
Geo
100
AcDbLine
10
-94.0974477958237
20
-3.53570774038614
30
0.000000000000000
11
-93.9974477958237
21
-3.64416947519146
31
0.000000000000000
  0
LINE
  5
F102BE
330
F102BF
100
AcDbEntity
8
Geo
100
AcDbLine
10
-93.9974477958237
20
-3.64416947519146
30
0.000000000000000
11
-93.8974477958237
21
-3.74834665849520
31
0.000000000000000
  0
LINE
  5
F102C0
330
F102C1
100
AcDbEntity
8
Geo
100
AcDbLine
10
-93.8974477958237
20
-3.74834665849520
30
0.000000000000000
11
-93.7974477958237
21
-3.84808497278245
31
0.000000000000000
  0
LINE
  5
F102C2
330
F102C3
100
AcDbEntity
8
Geo
100
AcDbLine
10
-93.7974477958237
20
-3.84808497278245
30
0.000000000000000
11
-93.6974477958236
21
-3.94323667582873
31
0.000000000000000
  0
LINE
  5
F102C4
330
F102C5
100
AcDbEntity
8
Geo
100
AcDbLine
10
-93.6974477958236
20
-3.94323667582873
30
0.000000000000000
11
-93.5974477958237
21
-4.03366081955033
31
0.000000000000000
  0
LINE
  5
F102C6
330
F102C7
100
AcDbEntity
8
Geo
100
AcDbLine
10
-93.5974477958237
20
-4.03366081955033
30
0.000000000000000
11
-93.4974477958237
21
-4.11922345879052
31
0.000000000000000
  0
LINE
  5
F102C8
330
F102C9
100
AcDbEntity
8
Geo
100
AcDbLine
10
-93.4974477958237
20
-4.11922345879052
30
0.000000000000000
11
-93.3974477958237
21
-4.19979784973230
31
0.000000000000000
  0
LINE
  5
F102CA
330
F102CB
100
AcDbEntity
8
Geo
100
AcDbLine
10
-93.3974477958237
20
-4.19979784973230
30
0.000000000000000
11
-93.2974477958237
21
-4.27526463764384
31
0.000000000000000
  0
LINE
  5
F102CC
330
F102CD
100
AcDbEntity
8
Geo
100
AcDbLine
10
-93.2974477958237
20
-4.27526463764384
30
0.000000000000000
11
-93.1974477958236
21
-4.34551203367852
31
0.000000000000000
  0
LINE
  5
F102CE
330
F102CF
100
AcDbEntity
8
Geo
100
AcDbLine
10
-93.1974477958236
20
-4.34551203367852
30
0.000000000000000
11
-93.0974477958237
21
-4.41043598046751
31
0.000000000000000
  0
LINE
  5
F102D0
330
F102D1
100
AcDbEntity
8
Geo
100
AcDbLine
10
-93.0974477958237
20
-4.41043598046751
30
0.000000000000000
11
-92.9974477958237
21
-4.46994030625989
31
0.000000000000000
  0
LINE
  5
F102D2
330
F102D3
100
AcDbEntity
8
Geo
100
AcDbLine
10
-92.9974477958237
20
-4.46994030625989
30
0.000000000000000
11
-92.8974477958237
21
-4.52393686738166
31
0.000000000000000
  0
LINE
  5
F102D4
330
F102D5
100
AcDbEntity
8
Geo
100
AcDbLine
10
-92.8974477958237
20
-4.52393686738166
30
0.000000000000000
11
-92.7974477958237
21
-4.57234567880288
31
0.000000000000000
  0
LINE
  5
F102D6
330
F102D7
100
AcDbEntity
8
Geo
100
AcDbLine
10
-92.7974477958237
20
-4.57234567880288
30
0.000000000000000
11
-92.6974477958236
21
-4.61509503261938
31
0.000000000000000
  0
LINE
  5
F102D8
330
F102D9
100
AcDbEntity
8
Geo
100
AcDbLine
10
-92.6974477958236
20
-4.61509503261938
30
0.000000000000000
11
-92.5974477958237
21
-4.65212160427357
31
0.000000000000000
  0
LINE
  5
F102DA
330
F102DB
100
AcDbEntity
8
Geo
100
AcDbLine
10
-92.5974477958237
20
-4.65212160427357
30
0.000000000000000
11
-92.4974477958236
21
-4.68337054635698
31
0.000000000000000
  0
LINE
  5
F102DC
330
F102DD
100
AcDbEntity
8
Geo
100
AcDbLine
10
-92.4974477958236
20
-4.68337054635698
30
0.000000000000000
11
-92.3974477958237
21
-4.70879556985574
31
0.000000000000000
  0
LINE
  5
F102DE
330
F102DF
100
AcDbEntity
8
Geo
100
AcDbLine
10
-92.3974477958237
20
-4.70879556985574
30
0.000000000000000
11
-92.2974477958237
21
-4.72835901271834
31
0.000000000000000
  0
LINE
  5
F102E0
330
F102E1
100
AcDbEntity
8
Geo
100
AcDbLine
10
-92.2974477958237
20
-4.72835901271834
30
0.000000000000000
11
-92.1974477958236
21
-4.74203189564443
31
0.000000000000000
  0
LINE
  5
F102E2
330
F102E3
100
AcDbEntity
8
Geo
100
AcDbLine
10
-92.1974477958236
20
-4.74203189564443
30
0.000000000000000
11
-92.0974477958237
21
-4.74979396501178
31
0.000000000000000
  0
LINE
  5
F102E4
330
F102E5
100
AcDbEntity
8
Geo
100
AcDbLine
10
-83.8974477958237
20
3.24770830245200
30
0.000000000000000
11
-83.7974477958237
21
3.24730214776330
31
0.000000000000000
  0
LINE
  5
F102E6
330
F102E7
100
AcDbEntity
8
Geo
100
AcDbLine
10
-83.7974477958237
20
3.24730214776330
30
0.000000000000000
11
-83.6974477958237
21
3.24097221736730
31
0.000000000000000
  0
LINE
  5
F102E8
330
F102E9
100
AcDbEntity
8
Geo
100
AcDbLine
10
-83.6974477958237
20
3.24097221736730
30
0.000000000000000
11
-83.5974477958237
21
3.22872788778098
31
0.000000000000000
  0
LINE
  5
F102EA
330
F102EB
100
AcDbEntity
8
Geo
100
AcDbLine
10
-83.5974477958237
20
3.22872788778098
30
0.000000000000000
11
-83.4974477958237
21
3.21058729651250
31
0.000000000000000
  0
LINE
  5
F102EC
330
F102ED
100
AcDbEntity
8
Geo
100
AcDbLine
10
-83.4974477958237
20
3.21058729651250
30
0.000000000000000
11
-83.3974477958237
21
3.18657731519417
31
0.000000000000000
  0
LINE
  5
F102EE
330
F102EF
100
AcDbEntity
8
Geo
100
AcDbLine
10
-83.3974477958237
20
3.18657731519417
30
0.000000000000000
11
-83.2974477958237
21
3.15673350977749
31
0.000000000000000
  0
LINE
  5
F102F0
330
F102F1
100
AcDbEntity
8
Geo
100
AcDbLine
10
-83.2974477958237
20
3.15673350977749
30
0.000000000000000
11
-83.1974477958237
21
3.12110008784940
31
0.000000000000000
  0
LINE
  5
F102F2
330
F102F3
100
AcDbEntity
8
Geo
100
AcDbLine
10
-83.1974477958237
20
3.12110008784940
30
0.000000000000000
11
-83.0974477958237
21
3.07972983314759
31
0.000000000000000
  0
LINE
  5
F102F4
330
F102F5
100
AcDbEntity
8
Geo
100
AcDbLine
10
-83.0974477958237
20
3.07972983314759
30
0.000000000000000
11
-82.9974477958237
21
3.08518918095904
31
0.000000000000000
  0
LINE
  5
F102F6
330
F102F7
100
AcDbEntity
8
Geo
100
AcDbLine
10
-82.9974477958237
20
3.08518918095904
30
0.000000000000000
11
-82.8974477958237
21
3.09045710744522
31
0.000000000000000
  0
LINE
  5
F102F8
330
F102F9
100
AcDbEntity
8
Geo
100
AcDbLine
10
-82.8974477958237
20
3.09045710744522
30
0.000000000000000
11
-82.7974477958237
21
3.09553852509712
31
0.000000000000000
  0
LINE
  5
F102FA
330
F102FB
100
AcDbEntity
8
Geo
100
AcDbLine
10
-82.7974477958237
20
3.09553852509712
30
0.000000000000000
11
-82.6974477958236
21
3.10043826206274
31
0.000000000000000
  0
LINE
  5
F102FC
330
F102FD
100
AcDbEntity
8
Geo
100
AcDbLine
10
-82.6974477958236
20
3.10043826206274
30
0.000000000000000
11
-82.5974477958237
21
3.10516106114192
31
0.000000000000000
  0
LINE
  5
F102FE
330
F102FF
100
AcDbEntity
8
Geo
100
AcDbLine
10
-82.5974477958237
20
3.10516106114192
30
0.000000000000000
11
-82.4974477958237
21
3.10971157882466
31
0.000000000000000
  0
LINE
  5
F10300
330
F10301
100
AcDbEntity
8
Geo
100
AcDbLine
10
-82.4974477958237
20
3.10971157882466
30
0.000000000000000
11
-82.3974477958237
21
3.11409438437173
31
0.000000000000000
  0
LINE
  5
F10302
330
F10303
100
AcDbEntity
8
Geo
100
AcDbLine
10
-82.3974477958237
20
3.11409438437173
30
0.000000000000000
11
-82.2974477958237
21
3.11831395893606
31
0.000000000000000
  0
LINE
  5
F10304
330
F10305
100
AcDbEntity
8
Geo
100
AcDbLine
10
-82.2974477958237
20
3.11831395893606
30
0.000000000000000
11
-82.1974477958237
21
3.12237469472373
31
0.000000000000000
  0
LINE
  5
F10306
330
F10307
100
AcDbEntity
8
Geo
100
AcDbLine
10
-82.1974477958237
20
3.12237469472373
30
0.000000000000000
11
-82.0974477958237
21
3.12628089419320
31
0.000000000000000
  0
LINE
  5
F10308
330
F10309
100
AcDbEntity
8
Geo
100
AcDbLine
10
-82.0974477958237
20
3.12628089419320
30
0.000000000000000
11
-81.9974477958237
21
3.13003676929150
31
0.000000000000000
  0
LINE
  5
F1030A
330
F1030B
100
AcDbEntity
8
Geo
100
AcDbLine
10
-81.9974477958237
20
3.13003676929150
30
0.000000000000000
11
-81.8974477958237
21
3.13364644072618
31
0.000000000000000
  0
LINE
  5
F1030C
330
F1030D
100
AcDbEntity
8
Geo
100
AcDbLine
10
-81.8974477958237
20
3.13364644072618
30
0.000000000000000
11
-81.7974477958237
21
3.13711393727166
31
0.000000000000000
  0
LINE
  5
F1030E
330
F1030F
100
AcDbEntity
8
Geo
100
AcDbLine
10
-81.7974477958237
20
3.13711393727166
30
0.000000000000000
11
-81.6974477958237
21
3.14044319510902
31
0.000000000000000
  0
LINE
  5
F10310
330
F10311
100
AcDbEntity
8
Geo
100
AcDbLine
10
-81.6974477958237
20
3.14044319510902
30
0.000000000000000
11
-81.5974477958237
21
3.14363805719774
31
0.000000000000000
  0
LINE
  5
F10312
330
F10313
100
AcDbEntity
8
Geo
100
AcDbLine
10
-81.5974477958237
20
3.14363805719774
30
0.000000000000000
11
-81.4974477958237
21
3.14670227267851
31
0.000000000000000
  0
LINE
  5
F10314
330
F10315
100
AcDbEntity
8
Geo
100
AcDbLine
10
-81.4974477958237
20
3.14670227267851
30
0.000000000000000
11
-81.3974477958237
21
3.14963949630576
31
0.000000000000000
  0
LINE
  5
F10316
330
F10317
100
AcDbEntity
8
Geo
100
AcDbLine
10
-81.3974477958237
20
3.14963949630576
30
0.000000000000000
11
-81.2974477958237
21
3.15245328790900
31
0.000000000000000
  0
LINE
  5
F10318
330
F10319
100
AcDbEntity
8
Geo
100
AcDbLine
10
-81.2974477958237
20
3.15245328790900
30
0.000000000000000
11
-81.1974477958237
21
3.15514711188174
31
0.000000000000000
  0
LINE
  5
F1031A
330
F1031B
100
AcDbEntity
8
Geo
100
AcDbLine
10
-81.1974477958237
20
3.15514711188174
30
0.000000000000000
11
-81.0974477958237
21
3.15772433669697
31
0.000000000000000
  0
LINE
  5
F1031C
330
F1031D
100
AcDbEntity
8
Geo
100
AcDbLine
10
-81.0974477958237
20
3.15772433669697
30
0.000000000000000
11
-80.9974477958237
21
3.16018823444822
31
0.000000000000000
  0
LINE
  5
F1031E
330
F1031F
100
AcDbEntity
8
Geo
100
AcDbLine
10
-80.9974477958237
20
3.16018823444822
30
0.000000000000000
11
-80.8974477958237
21
3.16254198041520
31
0.000000000000000
  0
LINE
  5
F10320
330
F10321
100
AcDbEntity
8
Geo
100
AcDbLine
10
-80.8974477958237
20
3.16254198041520
30
0.000000000000000
11
-80.7974477958237
21
3.16478865265296
31
0.000000000000000
  0
LINE
  5
F10322
330
F10323
100
AcDbEntity
8
Geo
100
AcDbLine
10
-80.7974477958237
20
3.16478865265296
30
0.000000000000000
11
-80.6974477958237
21
3.16693123160371
31
0.000000000000000
  0
LINE
  5
F10324
330
F10325
100
AcDbEntity
8
Geo
100
AcDbLine
10
-80.6974477958237
20
3.16693123160371
30
0.000000000000000
11
-80.5974477958237
21
3.16897259973037
31
0.000000000000000
  0
LINE
  5
F10326
330
F10327
100
AcDbEntity
8
Geo
100
AcDbLine
10
-80.5974477958237
20
3.16897259973037
30
0.000000000000000
11
-80.4974477958237
21
3.17091554117094
31
0.000000000000000
  0
LINE
  5
F10328
330
F10329
100
AcDbEntity
8
Geo
100
AcDbLine
10
-80.4974477958237
20
3.17091554117094
30
0.000000000000000
11
-80.3974477958237
21
3.17276274141278
31
0.000000000000000
  0
LINE
  5
F1032A
330
F1032B
100
AcDbEntity
8
Geo
100
AcDbLine
10
-80.3974477958237
20
3.17276274141278
30
0.000000000000000
11
-80.2974477958237
21
3.17451678698614
31
0.000000000000000
  0
LINE
  5
F1032C
330
F1032D
100
AcDbEntity
8
Geo
100
AcDbLine
10
-80.2974477958237
20
3.17451678698614
30
0.000000000000000
11
-80.1974477958237
21
3.17618016517590
31
0.000000000000000
  0
LINE
  5
F1032E
330
F1032F
100
AcDbEntity
8
Geo
100
AcDbLine
10
-80.1974477958237
20
3.17618016517590
30
0.000000000000000
11
-80.0974477958237
21
3.17775526375089
31
0.000000000000000
  0
LINE
  5
F10330
330
F10331
100
AcDbEntity
8
Geo
100
AcDbLine
10
-80.0974477958237
20
3.17775526375089
30
0.000000000000000
11
-79.9974477958237
21
3.17924437071011
31
0.000000000000000
  0
LINE
  5
F10332
330
F10333
100
AcDbEntity
8
Geo
100
AcDbLine
10
-79.9974477958237
20
3.17924437071011
30
0.000000000000000
11
-79.8974477958237
21
3.18064967404489
31
0.000000000000000
  0
LINE
  5
F10334
330
F10335
100
AcDbEntity
8
Geo
100
AcDbLine
10
-79.8974477958237
20
3.18064967404489
30
0.000000000000000
11
-79.7974477958237
21
3.18197326151659
31
0.000000000000000
  0
LINE
  5
F10336
330
F10337
100
AcDbEntity
8
Geo
100
AcDbLine
10
-79.7974477958237
20
3.18197326151659
30
0.000000000000000
11
-79.6974477958237
21
3.18321712044894
31
0.000000000000000
  0
LINE
  5
F10338
330
F10339
100
AcDbEntity
8
Geo
100
AcDbLine
10
-79.6974477958237
20
3.18321712044894
30
0.000000000000000
11
-79.5974477958237
21
3.18438313753455
31
0.000000000000000
  0
LINE
  5
F1033A
330
F1033B
100
AcDbEntity
8
Geo
100
AcDbLine
10
-79.5974477958237
20
3.18438313753455
30
0.000000000000000
11
-79.4974477958237
21
3.18547309865499
31
0.000000000000000
  0
LINE
  5
F1033C
330
F1033D
100
AcDbEntity
8
Geo
100
AcDbLine
10
-79.4974477958237
20
3.18547309865499
30
0.000000000000000
11
-79.3974477958237
21
3.18648868871367
31
0.000000000000000
  0
LINE
  5
F1033E
330
F1033F
100
AcDbEntity
8
Geo
100
AcDbLine
10
-79.3974477958237
20
3.18648868871367
30
0.000000000000000
11
-79.2974477958237
21
3.18743149148130
31
0.000000000000000
  0
LINE
  5
F10340
330
F10341
100
AcDbEntity
8
Geo
100
AcDbLine
10
-79.2974477958237
20
3.18743149148130
30
0.000000000000000
11
-79.1974477958236
21
3.18830298945316
31
0.000000000000000
  0
LINE
  5
F10342
330
F10343
100
AcDbEntity
8
Geo
100
AcDbLine
10
-79.1974477958236
20
3.18830298945316
30
0.000000000000000
11
-79.0974477958237
21
3.18910456371782
31
0.000000000000000
  0
LINE
  5
F10344
330
F10345
100
AcDbEntity
8
Geo
100
AcDbLine
10
-79.0974477958237
20
3.18910456371782
30
0.000000000000000
11
-78.9974477958236
21
3.18983749383683
31
0.000000000000000
  0
LINE
  5
F10346
330
F10347
100
AcDbEntity
8
Geo
100
AcDbLine
10
-78.9974477958236
20
3.18983749383683
30
0.000000000000000
11
-78.8974477958237
21
3.19050295773501
31
0.000000000000000
  0
LINE
  5
F10348
330
F10349
100
AcDbEntity
8
Geo
100
AcDbLine
10
-78.8974477958237
20
3.19050295773501
30
0.000000000000000
11
-78.7974477958236
21
3.19110203160091
31
0.000000000000000
  0
LINE
  5
F1034A
330
F1034B
100
AcDbEntity
8
Geo
100
AcDbLine
10
-78.7974477958236
20
3.19110203160091
30
0.000000000000000
11
-78.6974477958236
21
3.19163568979702
31
0.000000000000000
  0
LINE
  5
F1034C
330
F1034D
100
AcDbEntity
8
Geo
100
AcDbLine
10
-78.6974477958236
20
3.19163568979702
30
0.000000000000000
11
-78.5974477958236
21
3.19210480477960
31
0.000000000000000
  0
LINE
  5
F1034E
330
F1034F
100
AcDbEntity
8
Geo
100
AcDbLine
10
-78.5974477958236
20
3.19210480477960
30
0.000000000000000
11
-78.4974477958236
21
3.19251014702760
31
0.000000000000000
  0
LINE
  5
F10350
330
F10351
100
AcDbEntity
8
Geo
100
AcDbLine
10
-78.4974477958236
20
3.19251014702760
30
0.000000000000000
11
-78.3974477958236
21
3.19285238498063
31
0.000000000000000
  0
LINE
  5
F10352
330
F10353
100
AcDbEntity
8
Geo
100
AcDbLine
10
-78.3974477958236
20
3.19285238498063
30
0.000000000000000
11
-78.2974477958236
21
3.19313208498550
31
0.000000000000000
  0
LINE
  5
F10354
330
F10355
100
AcDbEntity
8
Geo
100
AcDbLine
10
-78.2974477958236
20
3.19313208498550
30
0.000000000000000
11
-78.1974477958236
21
3.19334971125141
31
0.000000000000000
  0
LINE
  5
F10356
330
F10357
100
AcDbEntity
8
Geo
100
AcDbLine
10
-78.1974477958236
20
3.19334971125141
30
0.000000000000000
11
-78.0974477958237
21
3.19350562581337
31
0.000000000000000
  0
LINE
  5
F10358
330
F10359
100
AcDbEntity
8
Geo
100
AcDbLine
10
-96.0974477958237
20
-1.89510301839843
30
0.000000000000000
11
-95.9974477958237
21
-2.10689611532466
31
0.000000000000000
  0
LINE
  5
F1035A
330
F1035B
100
AcDbEntity
8
Geo
100
AcDbLine
10
-95.9974477958237
20
-2.10689611532466
30
0.000000000000000
11
-95.8974477958237
21
-2.27016673480559
31
0.000000000000000
  0
LINE
  5
F1035C
330
F1035D
100
AcDbEntity
8
Geo
100
AcDbLine
10
-95.8974477958237
20
-2.27016673480559
30
0.000000000000000
11
-95.7974477958237
21
-2.41787548978288
31
0.000000000000000
  0
LINE
  5
F1035E
330
F1035F
100
AcDbEntity
8
Geo
100
AcDbLine
10
-95.7974477958237
20
-2.41787548978288
30
0.000000000000000
11
-95.6974477958236
21
-2.55657512360472
31
0.000000000000000
  0
LINE
  5
F10360
330
F10361
100
AcDbEntity
8
Geo
100
AcDbLine
10
-95.6974477958236
20
-2.55657512360472
30
0.000000000000000
11
-95.5974477958237
21
-2.69260125790618
31
0.000000000000000
  0
LINE
  5
F10362
330
F10363
100
AcDbEntity
8
Geo
100
AcDbLine
10
-95.5974477958237
20
-2.69260125790618
30
0.000000000000000
11
-95.4974477958237
21
-2.82575239736608
31
0.000000000000000
  0
LINE
  5
F10364
330
F10365
100
AcDbEntity
8
Geo
100
AcDbLine
10
-95.4974477958237
20
-2.82575239736608
30
0.000000000000000
11
-95.3974477958237
21
-2.95583130538909
31
0.000000000000000
  0
LINE
  5
F10366
330
F10367
100
AcDbEntity
8
Geo
100
AcDbLine
10
-95.3974477958237
20
-2.95583130538909
30
0.000000000000000
11
-95.2974477958237
21
-3.08264529627196
31
0.000000000000000
  0
LINE
  5
F10368
330
F10369
100
AcDbEntity
8
Geo
100
AcDbLine
10
-95.2974477958237
20
-3.08264529627196
30
0.000000000000000
11
-95.1974477958236
21
-3.20600652062861
31
0.000000000000000
  0
LINE
  5
F1036A
330
F1036B
100
AcDbEntity
8
Geo
100
AcDbLine
10
-95.1974477958236
20
-3.20600652062861
30
0.000000000000000
11
-95.0974477958237
21
-3.32573224365113
31
0.000000000000000
  0
LINE
  5
F1036C
330
F1036D
100
AcDbEntity
8
Geo
100
AcDbLine
10
-95.0974477958237
20
-3.32573224365113
30
0.000000000000000
11
-94.9974477958237
21
-3.44164511579465
31
0.000000000000000
  0
LINE
  5
F1036E
330
F1036F
100
AcDbEntity
8
Geo
100
AcDbLine
10
-94.9974477958237
20
-3.44164511579465
30
0.000000000000000
11
-94.8974477958237
21
-3.55357343548492
31
0.000000000000000
  0
LINE
  5
F10370
330
F10371
100
AcDbEntity
8
Geo
100
AcDbLine
10
-94.8974477958237
20
-3.55357343548492
30
0.000000000000000
11
-94.7974477958237
21
-3.66135140345961
31
0.000000000000000
  0
LINE
  5
F10372
330
F10373
100
AcDbEntity
8
Geo
100
AcDbLine
10
-94.7974477958237
20
-3.66135140345961
30
0.000000000000000
11
-94.6974477958236
21
-3.76481936836657
31
0.000000000000000
  0
LINE
  5
F10374
330
F10375
100
AcDbEntity
8
Geo
100
AcDbLine
10
-94.6974477958236
20
-3.76481936836657
30
0.000000000000000
11
-94.5974477958237
21
-3.86382406325511
31
0.000000000000000
  0
LINE
  5
F10376
330
F10377
100
AcDbEntity
8
Geo
100
AcDbLine
10
-94.5974477958237
20
-3.86382406325511
30
0.000000000000000
11
-94.4974477958237
21
-3.95821883261013
31
0.000000000000000
  0
LINE
  5
F10378
330
F10379
100
AcDbEntity
8
Geo
100
AcDbLine
10
-94.4974477958237
20
-3.95821883261013
30
0.000000000000000
11
-94.3974477958237
21
-4.04786384959273
31
0.000000000000000
  0
LINE
  5
F1037A
330
F1037B
100
AcDbEntity
8
Geo
100
AcDbLine
10
-94.3974477958237
20
-4.04786384959273
30
0.000000000000000
11
-94.2974477958237
21
-4.13262632316553
31
0.000000000000000
  0
LINE
  5
F1037C
330
F1037D
100
AcDbEntity
8
Geo
100
AcDbLine
10
-94.2974477958237
20
-4.13262632316553
30
0.000000000000000
11
-94.1974477958236
21
-4.21238069479579
31
0.000000000000000
  0
LINE
  5
F1037E
330
F1037F
100
AcDbEntity
8
Geo
100
AcDbLine
10
-94.1974477958236
20
-4.21238069479579
30
0.000000000000000
11
-94.0974477958237
21
-4.28700882444515
31
0.000000000000000
  0
LINE
  5
F10380
330
F10381
100
AcDbEntity
8
Geo
100
AcDbLine
10
-94.0974477958237
20
-4.28700882444515
30
0.000000000000000
11
-93.9974477958237
21
-4.35640016557027
31
0.000000000000000
  0
LINE
  5
F10382
330
F10383
100
AcDbEntity
8
Geo
100
AcDbLine
10
-93.9974477958237
20
-4.35640016557027
30
0.000000000000000
11
-93.8974477958237
21
-4.42045192887527
31
0.000000000000000
  0
LINE
  5
F10384
330
F10385
100
AcDbEntity
8
Geo
100
AcDbLine
10
-93.8974477958237
20
-4.42045192887527
30
0.000000000000000
11
-93.7974477958237
21
-4.47906923457339
31
0.000000000000000
  0
LINE
  5
F10386
330
F10387
100
AcDbEntity
8
Geo
100
AcDbLine
10
-93.7974477958237
20
-4.47906923457339
30
0.000000000000000
11
-93.6974477958236
21
-4.53216525293224
31
0.000000000000000
  0
LINE
  5
F10388
330
F10389
100
AcDbEntity
8
Geo
100
AcDbLine
10
-93.6974477958236
20
-4.53216525293224
30
0.000000000000000
11
-93.5974477958237
21
-4.57966133289463
31
0.000000000000000
  0
LINE
  5
F1038A
330
F1038B
100
AcDbEntity
8
Geo
100
AcDbLine
10
-93.5974477958237
20
-4.57966133289463
30
0.000000000000000
11
-93.4974477958237
21
-4.62148711858419
31
0.000000000000000
  0
LINE
  5
F1038C
330
F1038D
100
AcDbEntity
8
Geo
100
AcDbLine
10
-93.4974477958237
20
-4.62148711858419
30
0.000000000000000
11
-93.3974477958237
21
-4.65758065352349
31
0.000000000000000
  0
LINE
  5
F1038E
330
F1038F
100
AcDbEntity
8
Geo
100
AcDbLine
10
-93.3974477958237
20
-4.65758065352349
30
0.000000000000000
11
-93.2974477958237
21
-4.68788847241006
31
0.000000000000000
  0
LINE
  5
F10390
330
F10391
100
AcDbEntity
8
Geo
100
AcDbLine
10
-93.2974477958237
20
-4.68788847241006
30
0.000000000000000
11
-93.1974477958236
21
-4.71236568031448
31
0.000000000000000
  0
LINE
  5
F10392
330
F10393
100
AcDbEntity
8
Geo
100
AcDbLine
10
-93.1974477958236
20
-4.71236568031448
30
0.000000000000000
11
-93.0974477958237
21
-4.73097601918314
31
0.000000000000000
  0
LINE
  5
F10394
330
F10395
100
AcDbEntity
8
Geo
100
AcDbLine
10
-93.0974477958237
20
-4.73097601918314
30
0.000000000000000
11
-92.9974477958237
21
-4.74369192154729
31
0.000000000000000
  0
LINE
  5
F10396
330
F10397
100
AcDbEntity
8
Geo
100
AcDbLine
10
-92.9974477958237
20
-4.74369192154729
30
0.000000000000000
11
-92.8974477958237
21
-4.75049455135868
31
0.000000000000000
  0
LINE
  5
F10398
330
F10399
100
AcDbEntity
8
Geo
100
AcDbLine
10
-84.6974477958237
20
3.24804488558585
30
0.000000000000000
11
-84.5974477958237
21
3.24667823203137
31
0.000000000000000
  0
LINE
  5
F1039A
330
F1039B
100
AcDbEntity
8
Geo
100
AcDbLine
10
-84.5974477958237
20
3.24667823203137
30
0.000000000000000
11
-84.4974477958237
21
3.23938872697508
31
0.000000000000000
  0
LINE
  5
F1039C
330
F1039D
100
AcDbEntity
8
Geo
100
AcDbLine
10
-84.4974477958237
20
3.23938872697508
30
0.000000000000000
11
-84.3974477958237
21
3.22618716835056
31
0.000000000000000
  0
LINE
  5
F1039E
330
F1039F
100
AcDbEntity
8
Geo
100
AcDbLine
10
-84.3974477958237
20
3.22618716835056
30
0.000000000000000
11
-84.2974477958237
21
3.20709311160800
31
0.000000000000000
  0
LINE
  5
F103A0
330
F103A1
100
AcDbEntity
8
Geo
100
AcDbLine
10
-84.2974477958237
20
3.20709311160800
30
0.000000000000000
11
-84.1974477958237
21
3.18213484074675
31
0.000000000000000
  0
LINE
  5
F103A2
330
F103A3
100
AcDbEntity
8
Geo
100
AcDbLine
10
-84.1974477958237
20
3.18213484074675
30
0.000000000000000
11
-84.0974477958237
21
3.15134932641831
31
0.000000000000000
  0
LINE
  5
F103A4
330
F103A5
100
AcDbEntity
8
Geo
100
AcDbLine
10
-84.0974477958237
20
3.15134932641831
30
0.000000000000000
11
-83.9974477958237
21
3.11478217116167
31
0.000000000000000
  0
LINE
  5
F103A6
330
F103A7
100
AcDbEntity
8
Geo
100
AcDbLine
10
-83.9974477958237
20
3.11478217116167
30
0.000000000000000
11
-83.8974477958237
21
3.07248754185243
31
0.000000000000000
  0
LINE
  5
F103A8
330
F103A9
100
AcDbEntity
8
Geo
100
AcDbLine
10
-83.8974477958237
20
3.07248754185243
30
0.000000000000000
11
-83.7974477958237
21
3.02452808946540
31
0.000000000000000
  0
LINE
  5
F103AA
330
F103AB
100
AcDbEntity
8
Geo
100
AcDbLine
10
-83.7974477958237
20
3.02452808946540
30
0.000000000000000
11
-83.6974477958237
21
2.97097485626987
31
0.000000000000000
  0
LINE
  5
F103AC
330
F103AD
100
AcDbEntity
8
Geo
100
AcDbLine
10
-83.6974477958237
20
2.97097485626987
30
0.000000000000000
11
-83.5974477958237
21
2.91190717059473
31
0.000000000000000
  0
LINE
  5
F103AE
330
F103AF
100
AcDbEntity
8
Geo
100
AcDbLine
10
-83.5974477958237
20
2.91190717059473
30
0.000000000000000
11
-83.4974477958237
21
2.84741252931958
31
0.000000000000000
  0
LINE
  5
F103B0
330
F103B1
100
AcDbEntity
8
Geo
100
AcDbLine
10
-83.4974477958237
20
2.84741252931958
30
0.000000000000000
11
-83.3974477958237
21
2.77758646826571
31
0.000000000000000
  0
LINE
  5
F103B2
330
F103B3
100
AcDbEntity
8
Geo
100
AcDbLine
10
-83.3974477958237
20
2.77758646826571
30
0.000000000000000
11
-83.2974477958237
21
2.70253242067901
31
0.000000000000000
  0
LINE
  5
F103B4
330
F103B5
100
AcDbEntity
8
Geo
100
AcDbLine
10
-83.2974477958237
20
2.70253242067901
30
0.000000000000000
11
-83.1974477958237
21
2.62236156401447
31
0.000000000000000
  0
LINE
  5
F103B6
330
F103B7
100
AcDbEntity
8
Geo
100
AcDbLine
10
-83.1974477958237
20
2.62236156401447
30
0.000000000000000
11
-83.0974477958237
21
2.53719265524911
31
0.000000000000000
  0
LINE
  5
F103B8
330
F103B9
100
AcDbEntity
8
Geo
100
AcDbLine
10
-83.0974477958237
20
2.53719265524911
30
0.000000000000000
11
-82.9974477958237
21
2.43601584777652
31
0.000000000000000
  0
LINE
  5
F103BA
330
F103BB
100
AcDbEntity
8
Geo
100
AcDbLine
10
-82.9974477958237
20
2.43601584777652
30
0.000000000000000
11
-82.8974477958237
21
2.33104786720535
31
0.000000000000000
  0
LINE
  5
F103BC
330
F103BD
100
AcDbEntity
8
Geo
100
AcDbLine
10
-82.8974477958237
20
2.33104786720535
30
0.000000000000000
11
-82.7974477958237
21
2.22280887384678
31
0.000000000000000
  0
LINE
  5
F103BE
330
F103BF
100
AcDbEntity
8
Geo
100
AcDbLine
10
-82.7974477958237
20
2.22280887384678
30
0.000000000000000
11
-82.6974477958236
21
2.11179964617457
31
0.000000000000000
  0
LINE
  5
F103C0
330
F103C1
100
AcDbEntity
8
Geo
100
AcDbLine
10
-82.6974477958236
20
2.11179964617457
30
0.000000000000000
11
-82.5974477958237
21
1.99850059171119
31
0.000000000000000
  0
LINE
  5
F103C2
330
F103C3
100
AcDbEntity
8
Geo
100
AcDbLine
10
-82.5974477958237
20
1.99850059171119
30
0.000000000000000
11
-82.4974477958237
21
1.88337097281980
31
0.000000000000000
  0
LINE
  5
F103C4
330
F103C5
100
AcDbEntity
8
Geo
100
AcDbLine
10
-82.4974477958237
20
1.88337097281980
30
0.000000000000000
11
-82.3974477958237
21
1.76684833287249
31
0.000000000000000
  0
LINE
  5
F103C6
330
F103C7
100
AcDbEntity
8
Geo
100
AcDbLine
10
-82.3974477958237
20
1.76684833287249
30
0.000000000000000
11
-82.2974477958237
21
1.64934810816183
31
0.000000000000000
  0
LINE
  5
F103C8
330
F103C9
100
AcDbEntity
8
Geo
100
AcDbLine
10
-82.2974477958237
20
1.64934810816183
30
0.000000000000000
11
-82.1974477958237
21
1.53126341095884
31
0.000000000000000
  0
LINE
  5
F103CA
330
F103CB
100
AcDbEntity
8
Geo
100
AcDbLine
10
-82.1974477958237
20
1.53126341095884
30
0.000000000000000
11
-82.0974477958237
21
1.41296496927879
31
0.000000000000000
  0
LINE
  5
F103CC
330
F103CD
100
AcDbEntity
8
Geo
100
AcDbLine
10
-82.0974477958237
20
1.41296496927879
30
0.000000000000000
11
-81.9974477958237
21
1.29480120918132
31
0.000000000000000
  0
LINE
  5
F103CE
330
F103CF
100
AcDbEntity
8
Geo
100
AcDbLine
10
-81.9974477958237
20
1.29480120918132
30
0.000000000000000
11
-81.8974477958237
21
1.17709846578874
31
0.000000000000000
  0
LINE
  5
F103D0
330
F103D1
100
AcDbEntity
8
Geo
100
AcDbLine
10
-81.8974477958237
20
1.17709846578874
30
0.000000000000000
11
-81.7974477958237
21
1.06016130964057
31
0.000000000000000
  0
LINE
  5
F103D2
330
F103D3
100
AcDbEntity
8
Geo
100
AcDbLine
10
-81.7974477958237
20
1.06016130964057
30
0.000000000000000
11
-81.6974477958237
21
0.944272975502241
31
0.000000000000000
  0
LINE
  5
F103D4
330
F103D5
100
AcDbEntity
8
Geo
100
AcDbLine
10
-81.6974477958237
20
0.944272975502241
30
0.000000000000000
11
-81.5974477958237
21
0.829695881297040
31
0.000000000000000
  0
LINE
  5
F103D6
330
F103D7
100
AcDbEntity
8
Geo
100
AcDbLine
10
-81.5974477958237
20
0.829695881297040
30
0.000000000000000
11
-81.4974477958237
21
0.716672225423157
31
0.000000000000000
  0
LINE
  5
F103D8
330
F103D9
100
AcDbEntity
8
Geo
100
AcDbLine
10
-81.4974477958237
20
0.716672225423157
30
0.000000000000000
11
-81.3974477958237
21
0.605424651340593
31
0.000000000000000
  0
LINE
  5
F103DA
330
F103DB
100
AcDbEntity
8
Geo
100
AcDbLine
10
-81.3974477958237
20
0.605424651340593
30
0.000000000000000
11
-81.2974477958237
21
0.496156968957010
31
0.000000000000000
  0
LINE
  5
F103DC
330
F103DD
100
AcDbEntity
8
Geo
100
AcDbLine
10
-81.2974477958237
20
0.496156968957010
30
0.000000000000000
11
-81.1974477958237
21
0.389054922998370
31
0.000000000000000
  0
LINE
  5
F103DE
330
F103DF
100
AcDbEntity
8
Geo
100
AcDbLine
10
-81.1974477958237
20
0.389054922998370
30
0.000000000000000
11
-81.0974477958237
21
0.284286999212090
31
0.000000000000000
  0
LINE
  5
F103E0
330
F103E1
100
AcDbEntity
8
Geo
100
AcDbLine
10
-81.0974477958237
20
0.284286999212090
30
0.000000000000000
11
-80.9974477958237
21
0.182005259910450
31
0.000000000000000
  0
LINE
  5
F103E2
330
F103E3
100
AcDbEntity
8
Geo
100
AcDbLine
10
-80.9974477958237
20
0.182005259910450
30
0.000000000000000
11
-80.8974477958237
21
0.0823462010145208
31
0.000000000000000
  0
LINE
  5
F103E4
330
F103E5
100
AcDbEntity
8
Geo
100
AcDbLine
10
-80.8974477958237
20
0.0823462010145208
30
0.000000000000000
11
-80.7974477958237
21
-0.0145683766016218
31
0.000000000000000
  0
LINE
  5
F103E6
330
F103E7
100
AcDbEntity
8
Geo
100
AcDbLine
10
-80.7974477958237
20
-0.0145683766016218
30
0.000000000000000
11
-80.6974477958237
21
-0.108630488044150
31
0.000000000000000
  0
LINE
  5
F103E8
330
F103E9
100
AcDbEntity
8
Geo
100
AcDbLine
10
-80.6974477958237
20
-0.108630488044150
30
0.000000000000000
11
-80.5974477958237
21
-0.199745083586519
31
0.000000000000000
  0
LINE
  5
F103EA
330
F103EB
100
AcDbEntity
8
Geo
100
AcDbLine
10
-80.5974477958237
20
-0.199745083586519
30
0.000000000000000
11
-80.4974477958237
21
-0.287829171509136
31
0.000000000000000
  0
LINE
  5
F103EC
330
F103ED
100
AcDbEntity
8
Geo
100
AcDbLine
10
-80.4974477958237
20
-0.287829171509136
30
0.000000000000000
11
-80.3974477958237
21
-0.372810949439488
31
0.000000000000000
  0
LINE
  5
F103EE
330
F103EF
100
AcDbEntity
8
Geo
100
AcDbLine
10
-80.3974477958237
20
-0.372810949439488
30
0.000000000000000
11
-80.2974477958237
21
-0.454628948518038
31
0.000000000000000
  0
LINE
  5
F103F0
330
F103F1
100
AcDbEntity
8
Geo
100
AcDbLine
10
-80.2974477958237
20
-0.454628948518038
30
0.000000000000000
11
-80.1974477958237
21
-0.533231194222525
31
0.000000000000000
  0
LINE
  5
F103F2
330
F103F3
100
AcDbEntity
8
Geo
100
AcDbLine
10
-80.1974477958237
20
-0.533231194222525
30
0.000000000000000
11
-80.0974477958237
21
-0.608574387221495
31
0.000000000000000
  0
LINE
  5
F103F4
330
F103F5
100
AcDbEntity
8
Geo
100
AcDbLine
10
-80.0974477958237
20
-0.608574387221495
30
0.000000000000000
11
-79.9974477958237
21
-0.680623107197641
31
0.000000000000000
  0
LINE
  5
F103F6
330
F103F7
100
AcDbEntity
8
Geo
100
AcDbLine
10
-79.9974477958237
20
-0.680623107197641
30
0.000000000000000
11
-79.8974477958237
21
-0.749349042182983
31
0.000000000000000
  0
LINE
  5
F103F8
330
F103F9
100
AcDbEntity
8
Geo
100
AcDbLine
10
-79.8974477958237
20
-0.749349042182983
30
0.000000000000000
11
-79.7974477958237
21
-0.814730245581147
31
0.000000000000000
  0
LINE
  5
F103FA
330
F103FB
100
AcDbEntity
8
Geo
100
AcDbLine
10
-79.7974477958237
20
-0.814730245581147
30
0.000000000000000
11
-79.6974477958237
21
-0.876750422716453
31
0.000000000000000
  0
LINE
  5
F103FC
330
F103FD
100
AcDbEntity
8
Geo
100
AcDbLine
10
-79.6974477958237
20
-0.876750422716453
30
0.000000000000000
11
-79.5974477958237
21
-0.935398248444947
31
0.000000000000000
  0
LINE
  5
F103FE
330
F103FF
100
AcDbEntity
8
Geo
100
AcDbLine
10
-79.5974477958237
20
-0.935398248444947
30
0.000000000000000
11
-79.4974477958237
21
-0.990666717087761
31
0.000000000000000
  0
LINE
  5
F10400
330
F10401
100
AcDbEntity
8
Geo
100
AcDbLine
10
-79.4974477958237
20
-0.990666717087761
30
0.000000000000000
11
-79.3974477958237
21
-1.04255252570164
31
0.000000000000000
  0
LINE
  5
F10402
330
F10403
100
AcDbEntity
8
Geo
100
AcDbLine
10
-79.3974477958237
20
-1.04255252570164
30
0.000000000000000
11
-79.2974477958237
21
-1.09105549148383
31
0.000000000000000
  0
LINE
  5
F10404
330
F10405
100
AcDbEntity
8
Geo
100
AcDbLine
10
-79.2974477958237
20
-1.09105549148383
30
0.000000000000000
11
-79.1974477958236
21
-1.13617800391750
31
0.000000000000000
  0
LINE
  5
F10406
330
F10407
100
AcDbEntity
8
Geo
100
AcDbLine
10
-79.1974477958236
20
-1.13617800391750
30
0.000000000000000
11
-79.0974477958237
21
-1.17792451209858
31
0.000000000000000
  0
LINE
  5
F10408
330
F10409
100
AcDbEntity
8
Geo
100
AcDbLine
10
-79.0974477958237
20
-1.17792451209858
30
0.000000000000000
11
-78.9974477958236
21
-1.21630104754324
31
0.000000000000000
  0
LINE
  5
F1040A
330
F1040B
100
AcDbEntity
8
Geo
100
AcDbLine
10
-78.9974477958236
20
-1.21630104754324
30
0.000000000000000
11
-78.8974477958237
21
-1.25131478265633
31
0.000000000000000
  0
LINE
  5
F1040C
330
F1040D
100
AcDbEntity
8
Geo
100
AcDbLine
10
-78.8974477958237
20
-1.25131478265633
30
0.000000000000000
11
-78.7974477958236
21
-1.28297362494338
31
0.000000000000000
  0
LINE
  5
F1040E
330
F1040F
100
AcDbEntity
8
Geo
100
AcDbLine
10
-78.7974477958236
20
-1.28297362494338
30
0.000000000000000
11
-78.6974477958236
21
-1.31128584697031
31
0.000000000000000
  0
LINE
  5
F10410
330
F10411
100
AcDbEntity
8
Geo
100
AcDbLine
10
-78.6974477958236
20
-1.31128584697031
30
0.000000000000000
11
-78.5974477958236
21
-1.33625975201455
31
0.000000000000000
  0
LINE
  5
F10412
330
F10413
100
AcDbEntity
8
Geo
100
AcDbLine
10
-78.5974477958236
20
-1.33625975201455
30
0.000000000000000
11
-78.4974477958236
21
-1.35790337530740
31
0.000000000000000
  0
LINE
  5
F10414
330
F10415
100
AcDbEntity
8
Geo
100
AcDbLine
10
-78.4974477958236
20
-1.35790337530740
30
0.000000000000000
11
-78.3974477958236
21
-1.37622422073820
31
0.000000000000000
  0
LINE
  5
F10416
330
F10417
100
AcDbEntity
8
Geo
100
AcDbLine
10
-78.3974477958236
20
-1.37622422073820
30
0.000000000000000
11
-78.2974477958236
21
-1.39122903287481
31
0.000000000000000
  0
LINE
  5
F10418
330
F10419
100
AcDbEntity
8
Geo
100
AcDbLine
10
-78.2974477958236
20
-1.39122903287481
30
0.000000000000000
11
-78.1974477958236
21
-1.40292360415085
31
0.000000000000000
  0
LINE
  5
F1041A
330
F1041B
100
AcDbEntity
8
Geo
100
AcDbLine
10
-78.1974477958236
20
-1.40292360415085
30
0.000000000000000
11
-78.0974477958237
21
-1.41131261707553
31
0.000000000000000
  0
LINE
  5
F1041C
330
F1041D
100
AcDbEntity
8
Geo
100
AcDbLine
10
-87.9974477958237
20
3.24711738045928
30
0.000000000000000
11
-87.8974477958237
21
3.24783420111838
31
0.000000000000000
  0
LINE
  5
F1041E
330
F1041F
100
AcDbEntity
8
Geo
100
AcDbLine
10
-87.8974477958237
20
3.24783420111838
30
0.000000000000000
11
-87.7974477958237
21
3.24262645794030
31
0.000000000000000
  0
LINE
  5
F10420
330
F10421
100
AcDbEntity
8
Geo
100
AcDbLine
10
-87.7974477958237
20
3.24262645794030
30
0.000000000000000
11
-87.6974477958237
21
3.23150186514766
31
0.000000000000000
  0
LINE
  5
F10422
330
F10423
100
AcDbEntity
8
Geo
100
AcDbLine
10
-87.6974477958237
20
3.23150186514766
30
0.000000000000000
11
-87.5974477958237
21
3.21447690158410
31
0.000000000000000
  0
LINE
  5
F10424
330
F10425
100
AcDbEntity
8
Geo
100
AcDbLine
10
-87.5974477958237
20
3.21447690158410
30
0.000000000000000
11
-87.4974477958237
21
3.19157678630417
31
0.000000000000000
  0
LINE
  5
F10426
330
F10427
100
AcDbEntity
8
Geo
100
AcDbLine
10
-87.4974477958237
20
3.19157678630417
30
0.000000000000000
11
-87.3974477958237
21
3.16283544121638
31
0.000000000000000
  0
LINE
  5
F10428
330
F10429
100
AcDbEntity
8
Geo
100
AcDbLine
10
-87.3974477958237
20
3.16283544121638
30
0.000000000000000
11
-87.2974477958237
21
3.12829544083472
31
0.000000000000000
  0
LINE
  5
F1042A
330
F1042B
100
AcDbEntity
8
Geo
100
AcDbLine
10
-87.2974477958237
20
3.12829544083472
30
0.000000000000000
11
-87.1974477958237
21
3.08800794921313
31
0.000000000000000
  0
LINE
  5
F1042C
330
F1042D
100
AcDbEntity
8
Geo
100
AcDbLine
10
-87.1974477958237
20
3.08800794921313
30
0.000000000000000
11
-87.0974477958237
21
3.04203264415618
31
0.000000000000000
  0
LINE
  5
F1042E
330
F1042F
100
AcDbEntity
8
Geo
100
AcDbLine
10
-87.0974477958237
20
3.04203264415618
30
0.000000000000000
11
-86.9974477958237
21
2.99043762881852
31
0.000000000000000
  0
LINE
  5
F10430
330
F10431
100
AcDbEntity
8
Geo
100
AcDbLine
10
-86.9974477958237
20
2.99043762881852
30
0.000000000000000
11
-86.8974477958237
21
2.93329933082369
31
0.000000000000000
  0
LINE
  5
F10432
330
F10433
100
AcDbEntity
8
Geo
100
AcDbLine
10
-86.8974477958237
20
2.93329933082369
30
0.000000000000000
11
-86.7974477958237
21
2.87070238905204
31
0.000000000000000
  0
LINE
  5
F10434
330
F10435
100
AcDbEntity
8
Geo
100
AcDbLine
10
-86.7974477958237
20
2.87070238905204
30
0.000000000000000
11
-86.6974477958237
21
2.80273952826524
31
0.000000000000000
  0
LINE
  5
F10436
330
F10437
100
AcDbEntity
8
Geo
100
AcDbLine
10
-86.6974477958237
20
2.80273952826524
30
0.000000000000000
11
-86.5974477958237
21
2.72951142175327
31
0.000000000000000
  0
LINE
  5
F10438
330
F10439
100
AcDbEntity
8
Geo
100
AcDbLine
10
-86.5974477958237
20
2.72951142175327
30
0.000000000000000
11
-86.4974477958237
21
2.65112654220715
31
0.000000000000000
  0
LINE
  5
F1043A
330
F1043B
100
AcDbEntity
8
Geo
100
AcDbLine
10
-86.4974477958237
20
2.65112654220715
30
0.000000000000000
11
-86.3974477958237
21
2.56770100103857
31
0.000000000000000
  0
LINE
  5
F1043C
330
F1043D
100
AcDbEntity
8
Geo
100
AcDbLine
10
-86.3974477958237
20
2.56770100103857
30
0.000000000000000
11
-86.2974477958237
21
2.47935837638415
31
0.000000000000000
  0
LINE
  5
F1043E
330
F1043F
100
AcDbEntity
8
Geo
100
AcDbLine
10
-86.2974477958237
20
2.47935837638415
30
0.000000000000000
11
-86.1974477958237
21
2.38622953004937
31
0.000000000000000
  0
LINE
  5
F10440
330
F10441
100
AcDbEntity
8
Geo
100
AcDbLine
10
-86.1974477958237
20
2.38622953004937
30
0.000000000000000
11
-86.0974477958237
21
2.28845241366315
31
0.000000000000000
  0
LINE
  5
F10442
330
F10443
100
AcDbEntity
8
Geo
100
AcDbLine
10
-86.0974477958237
20
2.28845241366315
30
0.000000000000000
11
-85.9974477958237
21
2.18617186433026
31
0.000000000000000
  0
LINE
  5
F10444
330
F10445
100
AcDbEntity
8
Geo
100
AcDbLine
10
-85.9974477958237
20
2.18617186433026
30
0.000000000000000
11
-85.8974477958237
21
2.07953939008439
31
0.000000000000000
  0
LINE
  5
F10446
330
F10447
100
AcDbEntity
8
Geo
100
AcDbLine
10
-85.8974477958237
20
2.07953939008439
30
0.000000000000000
11
-85.7974477958237
21
1.96871294545945
31
0.000000000000000
  0
LINE
  5
F10448
330
F10449
100
AcDbEntity
8
Geo
100
AcDbLine
10
-85.7974477958237
20
1.96871294545945
30
0.000000000000000
11
-85.6974477958237
21
1.85385669751176
31
0.000000000000000
  0
LINE
  5
F1044A
330
F1044B
100
AcDbEntity
8
Geo
100
AcDbLine
10
-85.6974477958237
20
1.85385669751176
30
0.000000000000000
11
-85.5974477958237
21
1.73514078263965
31
0.000000000000000
  0
LINE
  5
F1044C
330
F1044D
100
AcDbEntity
8
Geo
100
AcDbLine
10
-85.5974477958237
20
1.73514078263965
30
0.000000000000000
11
-85.4974477958237
21
1.61274105456062
31
0.000000000000000
  0
LINE
  5
F1044E
330
F1044F
100
AcDbEntity
8
Geo
100
AcDbLine
10
-85.4974477958237
20
1.61274105456062
30
0.000000000000000
11
-85.3974477958237
21
1.48683882381946
31
0.000000000000000
  0
LINE
  5
F10450
330
F10451
100
AcDbEntity
8
Geo
100
AcDbLine
10
-85.3974477958237
20
1.48683882381946
30
0.000000000000000
11
-85.2974477958237
21
1.35762058921327
31
0.000000000000000
  0
LINE
  5
F10452
330
F10453
100
AcDbEntity
8
Geo
100
AcDbLine
10
-85.2974477958237
20
1.35762058921327
30
0.000000000000000
11
-85.1974477958237
21
1.22527776153095
31
0.000000000000000
  0
LINE
  5
F10454
330
F10455
100
AcDbEntity
8
Geo
100
AcDbLine
10
-85.1974477958237
20
1.22527776153095
30
0.000000000000000
11
-85.0974477958237
21
1.09000638001677
31
0.000000000000000
  0
LINE
  5
F10456
330
F10457
100
AcDbEntity
8
Geo
100
AcDbLine
10
-85.0974477958237
20
1.09000638001677
30
0.000000000000000
11
-84.9974477958237
21
0.952006821977640
31
0.000000000000000
  0
LINE
  5
F10458
330
F10459
100
AcDbEntity
8
Geo
100
AcDbLine
10
-84.9974477958237
20
0.952006821977640
30
0.000000000000000
11
-84.8974477958237
21
0.811483505964514
31
0.000000000000000
  0
LINE
  5
F1045A
330
F1045B
100
AcDbEntity
8
Geo
100
AcDbLine
10
-84.8974477958237
20
0.811483505964514
30
0.000000000000000
11
-84.7974477958237
21
0.668644588967489
31
0.000000000000000
  0
LINE
  5
F1045C
330
F1045D
100
AcDbEntity
8
Geo
100
AcDbLine
10
-84.7974477958237
20
0.668644588967489
30
0.000000000000000
11
-84.6974477958237
21
0.523701658073129
31
0.000000000000000
  0
LINE
  5
F1045E
330
F1045F
100
AcDbEntity
8
Geo
100
AcDbLine
10
-84.6974477958237
20
0.523701658073129
30
0.000000000000000
11
-84.5974477958237
21
0.376869417040832
31
0.000000000000000
  0
LINE
  5
F10460
330
F10461
100
AcDbEntity
8
Geo
100
AcDbLine
10
-84.5974477958237
20
0.376869417040832
30
0.000000000000000
11
-84.4974477958237
21
0.228365368262433
31
0.000000000000000
  0
LINE
  5
F10462
330
F10463
100
AcDbEntity
8
Geo
100
AcDbLine
10
-84.4974477958237
20
0.228365368262433
30
0.000000000000000
11
-84.3974477958237
21
0.0784094905762277
31
0.000000000000000
  0
LINE
  5
F10464
330
F10465
100
AcDbEntity
8
Geo
100
AcDbLine
10
-84.3974477958237
20
0.0784094905762277
30
0.000000000000000
11
-84.2974477958237
21
-0.0727760865873697
31
0.000000000000000
  0
LINE
  5
F10466
330
F10467
100
AcDbEntity
8
Geo
100
AcDbLine
10
-84.2974477958237
20
-0.0727760865873697
30
0.000000000000000
11
-84.1974477958237
21
-0.224967412245842
31
0.000000000000000
  0
LINE
  5
F10468
330
F10469
100
AcDbEntity
8
Geo
100
AcDbLine
10
-84.1974477958237
20
-0.224967412245842
30
0.000000000000000
11
-84.0974477958237
21
-0.377939045602843
31
0.000000000000000
  0
LINE
  5
F1046A
330
F1046B
100
AcDbEntity
8
Geo
100
AcDbLine
10
-84.0974477958237
20
-0.377939045602843
30
0.000000000000000
11
-83.9974477958237
21
-0.531464389993331
31
0.000000000000000
  0
LINE
  5
F1046C
330
F1046D
100
AcDbEntity
8
Geo
100
AcDbLine
10
-83.9974477958237
20
-0.531464389993331
30
0.000000000000000
11
-83.8974477958237
21
-0.685316028540891
31
0.000000000000000
  0
LINE
  5
F1046E
330
F1046F
100
AcDbEntity
8
Geo
100
AcDbLine
10
-83.8974477958237
20
-0.685316028540891
30
0.000000000000000
11
-83.7974477958237
21
-0.839266061030037
31
0.000000000000000
  0
LINE
  5
F10470
330
F10471
100
AcDbEntity
8
Geo
100
AcDbLine
10
-83.7974477958237
20
-0.839266061030037
30
0.000000000000000
11
-83.6974477958237
21
-0.993086441494463
31
0.000000000000000
  0
LINE
  5
F10472
330
F10473
100
AcDbEntity
8
Geo
100
AcDbLine
10
-83.6974477958237
20
-0.993086441494463
30
0.000000000000000
11
-83.5974477958237
21
-1.14654931602124
31
0.000000000000000
  0
LINE
  5
F10474
330
F10475
100
AcDbEntity
8
Geo
100
AcDbLine
10
-83.5974477958237
20
-1.14654931602124
30
0.000000000000000
11
-83.4974477958237
21
-1.29942736027047
31
0.000000000000000
  0
LINE
  5
F10476
330
F10477
100
AcDbEntity
8
Geo
100
AcDbLine
10
-83.4974477958237
20
-1.29942736027047
30
0.000000000000000
11
-83.3974477958237
21
-1.45149411621052
31
0.000000000000000
  0
LINE
  5
F10478
330
F10479
100
AcDbEntity
8
Geo
100
AcDbLine
10
-83.3974477958237
20
-1.45149411621052
30
0.000000000000000
11
-83.2974477958237
21
-1.60252432757001
31
0.000000000000000
  0
LINE
  5
F1047A
330
F1047B
100
AcDbEntity
8
Geo
100
AcDbLine
10
-83.2974477958237
20
-1.60252432757001
30
0.000000000000000
11
-83.1974477958237
21
-1.75229427350955
31
0.000000000000000
  0
LINE
  5
F1047C
330
F1047D
100
AcDbEntity
8
Geo
100
AcDbLine
10
-83.1974477958237
20
-1.75229427350955
30
0.000000000000000
11
-83.0974477958237
21
-1.90058210001921
31
0.000000000000000
  0
LINE
  5
F1047E
330
F1047F
100
AcDbEntity
8
Geo
100
AcDbLine
10
-83.0974477958237
20
-1.90058210001921
30
0.000000000000000
11
-82.9974477958237
21
-1.88221499165960
31
0.000000000000000
  0
LINE
  5
F10480
330
F10481
100
AcDbEntity
8
Geo
100
AcDbLine
10
-82.9974477958237
20
-1.88221499165960
30
0.000000000000000
11
-82.8974477958237
21
-1.86417904440379
31
0.000000000000000
  0
LINE
  5
F10482
330
F10483
100
AcDbEntity
8
Geo
100
AcDbLine
10
-82.8974477958237
20
-1.86417904440379
30
0.000000000000000
11
-82.7974477958237
21
-1.84647612526367
31
0.000000000000000
  0
LINE
  5
F10484
330
F10485
100
AcDbEntity
8
Geo
100
AcDbLine
10
-82.7974477958237
20
-1.84647612526367
30
0.000000000000000
11
-82.6974477958236
21
-1.82910802659175
31
0.000000000000000
  0
LINE
  5
F10486
330
F10487
100
AcDbEntity
8
Geo
100
AcDbLine
10
-82.6974477958236
20
-1.82910802659175
30
0.000000000000000
11
-82.5974477958237
21
-1.81207646826673
31
0.000000000000000
  0
LINE
  5
F10488
330
F10489
100
AcDbEntity
8
Geo
100
AcDbLine
10
-82.5974477958237
20
-1.81207646826673
30
0.000000000000000
11
-82.4974477958237
21
-1.79538309984390
31
0.000000000000000
  0
LINE
  5
F1048A
330
F1048B
100
AcDbEntity
8
Geo
100
AcDbLine
10
-82.4974477958237
20
-1.79538309984390
30
0.000000000000000
11
-82.3974477958237
21
-1.77902950266954
31
0.000000000000000
  0
LINE
  5
F1048C
330
F1048D
100
AcDbEntity
8
Geo
100
AcDbLine
10
-82.3974477958237
20
-1.77902950266954
30
0.000000000000000
11
-82.2974477958237
21
-1.76301719195883
31
0.000000000000000
  0
LINE
  5
F1048E
330
F1048F
100
AcDbEntity
8
Geo
100
AcDbLine
10
-82.2974477958237
20
-1.76301719195883
30
0.000000000000000
11
-82.1974477958237
21
-1.74734761883641
31
0.000000000000000
  0
LINE
  5
F10490
330
F10491
100
AcDbEntity
8
Geo
100
AcDbLine
10
-82.1974477958237
20
-1.74734761883641
30
0.000000000000000
11
-82.0974477958237
21
-1.73202217233912
31
0.000000000000000
  0
LINE
  5
F10492
330
F10493
100
AcDbEntity
8
Geo
100
AcDbLine
10
-82.0974477958237
20
-1.73202217233912
30
0.000000000000000
11
-81.9974477958237
21
-1.71704218138013
31
0.000000000000000
  0
LINE
  5
F10494
330
F10495
100
AcDbEntity
8
Geo
100
AcDbLine
10
-81.9974477958237
20
-1.71704218138013
30
0.000000000000000
11
-81.8974477958237
21
-1.70240891667412
31
0.000000000000000
  0
LINE
  5
F10496
330
F10497
100
AcDbEntity
8
Geo
100
AcDbLine
10
-81.8974477958237
20
-1.70240891667412
30
0.000000000000000
11
-81.7974477958237
21
-1.68812359262274
31
0.000000000000000
  0
LINE
  5
F10498
330
F10499
100
AcDbEntity
8
Geo
100
AcDbLine
10
-81.7974477958237
20
-1.68812359262274
30
0.000000000000000
11
-81.6974477958237
21
-1.67418736916001
31
0.000000000000000
  0
LINE
  5
F1049A
330
F1049B
100
AcDbEntity
8
Geo
100
AcDbLine
10
-81.6974477958237
20
-1.67418736916001
30
0.000000000000000
11
-81.5974477958237
21
-1.66060135355700
31
0.000000000000000
  0
LINE
  5
F1049C
330
F1049D
100
AcDbEntity
8
Geo
100
AcDbLine
10
-81.5974477958237
20
-1.66060135355700
30
0.000000000000000
11
-81.4974477958237
21
-1.64736660218552
31
0.000000000000000
  0
LINE
  5
F1049E
330
F1049F
100
AcDbEntity
8
Geo
100
AcDbLine
10
-81.4974477958237
20
-1.64736660218552
30
0.000000000000000
11
-81.3974477958237
21
-1.63448412224021
31
0.000000000000000
  0
LINE
  5
F104A0
330
F104A1
100
AcDbEntity
8
Geo
100
AcDbLine
10
-81.3974477958237
20
-1.63448412224021
30
0.000000000000000
11
-81.2974477958237
21
-1.62195487341866
31
0.000000000000000
  0
LINE
  5
F104A2
330
F104A3
100
AcDbEntity
8
Geo
100
AcDbLine
10
-81.2974477958237
20
-1.62195487341866
30
0.000000000000000
11
-81.1974477958237
21
-1.60977976955923
31
0.000000000000000
  0
LINE
  5
F104A4
330
F104A5
100
AcDbEntity
8
Geo
100
AcDbLine
10
-81.1974477958237
20
-1.60977976955923
30
0.000000000000000
11
-81.0974477958237
21
-1.59795968023612
31
0.000000000000000
  0
LINE
  5
F104A6
330
F104A7
100
AcDbEntity
8
Geo
100
AcDbLine
10
-81.0974477958237
20
-1.59795968023612
30
0.000000000000000
11
-80.9974477958237
21
-1.58649543231135
31
0.000000000000000
  0
LINE
  5
F104A8
330
F104A9
100
AcDbEntity
8
Geo
100
AcDbLine
10
-80.9974477958237
20
-1.58649543231135
30
0.000000000000000
11
-80.8974477958237
21
-1.57538781144333
31
0.000000000000000
  0
LINE
  5
F104AA
330
F104AB
100
AcDbEntity
8
Geo
100
AcDbLine
10
-80.8974477958237
20
-1.57538781144333
30
0.000000000000000
11
-80.7974477958237
21
-1.56463756355171
31
0.000000000000000
  0
LINE
  5
F104AC
330
F104AD
100
AcDbEntity
8
Geo
100
AcDbLine
10
-80.7974477958237
20
-1.56463756355171
30
0.000000000000000
11
-80.6974477958237
21
-1.55424539623820
31
0.000000000000000
  0
LINE
  5
F104AE
330
F104AF
100
AcDbEntity
8
Geo
100
AcDbLine
10
-80.6974477958237
20
-1.55424539623820
30
0.000000000000000
11
-80.5974477958237
21
-1.54421198016306
31
0.000000000000000
  0
LINE
  5
F104B0
330
F104B1
100
AcDbEntity
8
Geo
100
AcDbLine
10
-80.5974477958237
20
-1.54421198016306
30
0.000000000000000
11
-80.4974477958237
21
-1.53453795037710
31
0.000000000000000
  0
LINE
  5
F104B2
330
F104B3
100
AcDbEntity
8
Geo
100
AcDbLine
10
-80.4974477958237
20
-1.53453795037710
30
0.000000000000000
11
-80.3974477958237
21
-1.52522390760872
31
0.000000000000000
  0
LINE
  5
F104B4
330
F104B5
100
AcDbEntity
8
Geo
100
AcDbLine
10
-80.3974477958237
20
-1.52522390760872
30
0.000000000000000
11
-80.2974477958237
21
-1.51627041950606
31
0.000000000000000
  0
LINE
  5
F104B6
330
F104B7
100
AcDbEntity
8
Geo
100
AcDbLine
10
-80.2974477958237
20
-1.51627041950606
30
0.000000000000000
11
-80.1974477958237
21
-1.50767802183380
31
0.000000000000000
  0
LINE
  5
F104B8
330
F104B9
100
AcDbEntity
8
Geo
100
AcDbLine
10
-80.1974477958237
20
-1.50767802183380
30
0.000000000000000
11
-80.0974477958237
21
-1.49944721962447
31
0.000000000000000
  0
LINE
  5
F104BA
330
F104BB
100
AcDbEntity
8
Geo
100
AcDbLine
10
-80.0974477958237
20
-1.49944721962447
30
0.000000000000000
11
-79.9974477958237
21
-1.49157848828421
31
0.000000000000000
  0
LINE
  5
F104BC
330
F104BD
100
AcDbEntity
8
Geo
100
AcDbLine
10
-79.9974477958237
20
-1.49157848828421
30
0.000000000000000
11
-79.8974477958237
21
-1.48407227465253
31
0.000000000000000
  0
LINE
  5
F104BE
330
F104BF
100
AcDbEntity
8
Geo
100
AcDbLine
10
-79.8974477958237
20
-1.48407227465253
30
0.000000000000000
11
-79.7974477958237
21
-1.47692899801624
31
0.000000000000000
  0
LINE
  5
F104C0
330
F104C1
100
AcDbEntity
8
Geo
100
AcDbLine
10
-79.7974477958237
20
-1.47692899801624
30
0.000000000000000
11
-79.6974477958237
21
-1.47014905107711
31
0.000000000000000
  0
LINE
  5
F104C2
330
F104C3
100
AcDbEntity
8
Geo
100
AcDbLine
10
-79.6974477958237
20
-1.47014905107711
30
0.000000000000000
11
-79.5974477958237
21
-1.46373280087327
31
0.000000000000000
  0
LINE
  5
F104C4
330
F104C5
100
AcDbEntity
8
Geo
100
AcDbLine
10
-79.5974477958237
20
-1.46373280087327
30
0.000000000000000
11
-79.4974477958237
21
-1.45768058965416
31
0.000000000000000
  0
LINE
  5
F104C6
330
F104C7
100
AcDbEntity
8
Geo
100
AcDbLine
10
-79.4974477958237
20
-1.45768058965416
30
0.000000000000000
11
-79.3974477958237
21
-1.45199273570897
31
0.000000000000000
  0
LINE
  5
F104C8
330
F104C9
100
AcDbEntity
8
Geo
100
AcDbLine
10
-79.3974477958237
20
-1.45199273570897
30
0.000000000000000
11
-79.2974477958237
21
-1.44666953414836
31
0.000000000000000
  0
LINE
  5
F104CA
330
F104CB
100
AcDbEntity
8
Geo
100
AcDbLine
10
-79.2974477958237
20
-1.44666953414836
30
0.000000000000000
11
-79.1974477958236
21
-1.44171125763943
31
0.000000000000000
  0
LINE
  5
F104CC
330
F104CD
100
AcDbEntity
8
Geo
100
AcDbLine
10
-79.1974477958236
20
-1.44171125763943
30
0.000000000000000
11
-79.0974477958237
21
-1.43711815709379
31
0.000000000000000
  0
LINE
  5
F104CE
330
F104CF
100
AcDbEntity
8
Geo
100
AcDbLine
10
-79.0974477958237
20
-1.43711815709379
30
0.000000000000000
11
-78.9974477958236
21
-1.43289046230874
31
0.000000000000000
  0
LINE
  5
F104D0
330
F104D1
100
AcDbEntity
8
Geo
100
AcDbLine
10
-78.9974477958236
20
-1.43289046230874
30
0.000000000000000
11
-78.8974477958237
21
-1.42902838256132
31
0.000000000000000
  0
LINE
  5
F104D2
330
F104D3
100
AcDbEntity
8
Geo
100
AcDbLine
10
-78.8974477958237
20
-1.42902838256132
30
0.000000000000000
11
-78.7974477958236
21
-1.42553210715533
31
0.000000000000000
  0
LINE
  5
F104D4
330
F104D5
100
AcDbEntity
8
Geo
100
AcDbLine
10
-78.7974477958236
20
-1.42553210715533
30
0.000000000000000
11
-78.6974477958236
21
-1.42240180592110
31
0.000000000000000
  0
LINE
  5
F104D6
330
F104D7
100
AcDbEntity
8
Geo
100
AcDbLine
10
-78.6974477958236
20
-1.42240180592110
30
0.000000000000000
11
-78.5974477958236
21
-1.41963762966808
31
0.000000000000000
  0
LINE
  5
F104D8
330
F104D9
100
AcDbEntity
8
Geo
100
AcDbLine
10
-78.5974477958236
20
-1.41963762966808
30
0.000000000000000
11
-78.4974477958236
21
-1.41723971059009
31
0.000000000000000
  0
LINE
  5
F104DA
330
F104DB
100
AcDbEntity
8
Geo
100
AcDbLine
10
-78.4974477958236
20
-1.41723971059009
30
0.000000000000000
11
-78.3974477958236
21
-1.41520816262326
31
0.000000000000000
  0
LINE
  5
F104DC
330
F104DD
100
AcDbEntity
8
Geo
100
AcDbLine
10
-78.3974477958236
20
-1.41520816262326
30
0.000000000000000
11
-78.2974477958236
21
-1.41354308175661
31
0.000000000000000
  0
LINE
  5
F104DE
330
F104DF
100
AcDbEntity
8
Geo
100
AcDbLine
10
-78.2974477958236
20
-1.41354308175661
30
0.000000000000000
11
-78.1974477958236
21
-1.41224454629513
31
0.000000000000000
  0
LINE
  5
F104E0
330
F104E1
100
AcDbEntity
8
Geo
100
AcDbLine
10
-78.1974477958236
20
-1.41224454629513
30
0.000000000000000
11
-78.0974477958237
21
-1.41131261707552
31
0.000000000000000
  0
LINE
  5
F104E2
330
F104E3
100
AcDbEntity
8
Geo
100
AcDbLine
10
-88.7974477958237
20
3.24763597899650
30
0.000000000000000
11
-88.6974477958237
21
3.24739228600236
31
0.000000000000000
  0
LINE
  5
F104E4
330
F104E5
100
AcDbEntity
8
Geo
100
AcDbLine
10
-88.6974477958237
20
3.24739228600236
30
0.000000000000000
11
-88.5974477958237
21
3.24122468377927
31
0.000000000000000
  0
LINE
  5
F104E6
330
F104E7
100
AcDbEntity
8
Geo
100
AcDbLine
10
-88.5974477958237
20
3.24122468377927
30
0.000000000000000
11
-88.4974477958237
21
3.22914230838771
31
0.000000000000000
  0
LINE
  5
F104E8
330
F104E9
100
AcDbEntity
8
Geo
100
AcDbLine
10
-88.4974477958237
20
3.22914230838771
30
0.000000000000000
11
-88.3974477958237
21
3.21116305743334
31
0.000000000000000
  0
LINE
  5
F104EA
330
F104EB
100
AcDbEntity
8
Geo
100
AcDbLine
10
-88.3974477958237
20
3.21116305743334
30
0.000000000000000
11
-88.2974477958237
21
3.18731356355528
31
0.000000000000000
  0
LINE
  5
F104EC
330
F104ED
100
AcDbEntity
8
Geo
100
AcDbLine
10
-88.2974477958237
20
3.18731356355528
30
0.000000000000000
11
-88.1974477958237
21
3.15762915497521
31
0.000000000000000
  0
LINE
  5
F104EE
330
F104EF
100
AcDbEntity
8
Geo
100
AcDbLine
10
-88.1974477958237
20
3.15762915497521
30
0.000000000000000
11
-88.0974477958237
21
3.12215380316575
31
0.000000000000000
  0
LINE
  5
F104F0
330
F104F1
100
AcDbEntity
8
Geo
100
AcDbLine
10
-88.0974477958237
20
3.12215380316575
30
0.000000000000000
11
-87.9974477958237
21
3.08094005771557
31
0.000000000000000
  0
LINE
  5
F104F2
330
F104F3
100
AcDbEntity
8
Geo
100
AcDbLine
10
-87.9974477958237
20
3.08094005771557
30
0.000000000000000
11
-87.8974477958237
21
3.03404896848777
31
0.000000000000000
  0
LINE
  5
F104F4
330
F104F5
100
AcDbEntity
8
Geo
100
AcDbLine
10
-87.8974477958237
20
3.03404896848777
30
0.000000000000000
11
-87.7974477958237
21
2.98154999518678
31
0.000000000000000
  0
LINE
  5
F104F6
330
F104F7
100
AcDbEntity
8
Geo
100
AcDbLine
10
-87.7974477958237
20
2.98154999518678
30
0.000000000000000
11
-87.6974477958237
21
2.92352090446780
31
0.000000000000000
  0
LINE
  5
F104F8
330
F104F9
100
AcDbEntity
8
Geo
100
AcDbLine
10
-87.6974477958237
20
2.92352090446780
30
0.000000000000000
11
-87.5974477958237
21
2.86004765474118
31
0.000000000000000
  0
LINE
  5
F104FA
330
F104FB
100
AcDbEntity
8
Geo
100
AcDbLine
10
-87.5974477958237
20
2.86004765474118
30
0.000000000000000
11
-87.4974477958237
21
2.79122426884235
31
0.000000000000000
  0
LINE
  5
F104FC
330
F104FD
100
AcDbEntity
8
Geo
100
AcDbLine
10
-87.4974477958237
20
2.79122426884235
30
0.000000000000000
11
-87.3974477958237
21
2.71715269475590
31
0.000000000000000
  0
LINE
  5
F104FE
330
F104FF
100
AcDbEntity
8
Geo
100
AcDbLine
10
-87.3974477958237
20
2.71715269475590
30
0.000000000000000
11
-87.2974477958237
21
2.63794265460021
31
0.000000000000000
  0
LINE
  5
F10500
330
F10501
100
AcDbEntity
8
Geo
100
AcDbLine
10
-87.2974477958237
20
2.63794265460021
30
0.000000000000000
11
-87.1974477958237
21
2.55371148209620
31
0.000000000000000
  0
LINE
  5
F10502
330
F10503
100
AcDbEntity
8
Geo
100
AcDbLine
10
-87.1974477958237
20
2.55371148209620
30
0.000000000000000
11
-87.0974477958237
21
2.46458394876105
31
0.000000000000000
  0
LINE
  5
F10504
330
F10505
100
AcDbEntity
8
Geo
100
AcDbLine
10
-87.0974477958237
20
2.46458394876105
30
0.000000000000000
11
-86.9974477958237
21
2.37069207908438
31
0.000000000000000
  0
LINE
  5
F10506
330
F10507
100
AcDbEntity
8
Geo
100
AcDbLine
10
-86.9974477958237
20
2.37069207908438
30
0.000000000000000
11
-86.8974477958237
21
2.27217495496049
31
0.000000000000000
  0
LINE
  5
F10508
330
F10509
100
AcDbEntity
8
Geo
100
AcDbLine
10
-86.8974477958237
20
2.27217495496049
30
0.000000000000000
11
-86.7974477958237
21
2.16917850966659
31
0.000000000000000
  0
LINE
  5
F1050A
330
F1050B
100
AcDbEntity
8
Geo
100
AcDbLine
10
-86.7974477958237
20
2.16917850966659
30
0.000000000000000
11
-86.6974477958237
21
2.06185531169203
31
0.000000000000000
  0
LINE
  5
F1050C
330
F1050D
100
AcDbEntity
8
Geo
100
AcDbLine
10
-86.6974477958237
20
2.06185531169203
30
0.000000000000000
11
-86.5974477958237
21
1.95036433873882
31
0.000000000000000
  0
LINE
  5
F1050E
330
F1050F
100
AcDbEntity
8
Geo
100
AcDbLine
10
-86.5974477958237
20
1.95036433873882
30
0.000000000000000
11
-86.4974477958237
21
1.83487074222815
31
0.000000000000000
  0
LINE
  5
F10510
330
F10511
100
AcDbEntity
8
Geo
100
AcDbLine
10
-86.4974477958237
20
1.83487074222815
30
0.000000000000000
11
-86.3974477958237
21
1.71554560266189
31
0.000000000000000
  0
LINE
  5
F10512
330
F10513
100
AcDbEntity
8
Geo
100
AcDbLine
10
-86.3974477958237
20
1.71554560266189
30
0.000000000000000
11
-86.2974477958237
21
1.59256567620119
31
0.000000000000000
  0
LINE
  5
F10514
330
F10515
100
AcDbEntity
8
Geo
100
AcDbLine
10
-86.2974477958237
20
1.59256567620119
30
0.000000000000000
11
-86.1974477958237
21
1.46611313283794
31
0.000000000000000
  0
LINE
  5
F10516
330
F10517
100
AcDbEntity
8
Geo
100
AcDbLine
10
-86.1974477958237
20
1.46611313283794
30
0.000000000000000
11
-86.0974477958237
21
1.33637528654649
31
0.000000000000000
  0
LINE
  5
F10518
330
F10519
100
AcDbEntity
8
Geo
100
AcDbLine
10
-86.0974477958237
20
1.33637528654649
30
0.000000000000000
11
-85.9974477958237
21
1.20354431781585
31
0.000000000000000
  0
LINE
  5
F1051A
330
F1051B
100
AcDbEntity
8
Geo
100
AcDbLine
10
-85.9974477958237
20
1.20354431781585
30
0.000000000000000
11
-85.8974477958237
21
1.06781698897290
31
0.000000000000000
  0
LINE
  5
F1051C
330
F1051D
100
AcDbEntity
8
Geo
100
AcDbLine
10
-85.8974477958237
20
1.06781698897290
30
0.000000000000000
11
-85.7974477958237
21
0.929394352718709
31
0.000000000000000
  0
LINE
  5
F1051E
330
F1051F
100
AcDbEntity
8
Geo
100
AcDbLine
10
-85.7974477958237
20
0.929394352718709
30
0.000000000000000
11
-85.6974477958237
21
0.788481454309386
31
0.000000000000000
  0
LINE
  5
F10520
330
F10521
100
AcDbEntity
8
Geo
100
AcDbLine
10
-85.6974477958237
20
0.788481454309386
30
0.000000000000000
11
-85.5974477958237
21
0.645287027822883
31
0.000000000000000
  0
LINE
  5
F10522
330
F10523
100
AcDbEntity
8
Geo
100
AcDbLine
10
-85.5974477958237
20
0.645287027822883
30
0.000000000000000
11
-85.4974477958237
21
0.500023186961475
31
0.000000000000000
  0
LINE
  5
F10524
330
F10525
100
AcDbEntity
8
Geo
100
AcDbLine
10
-85.4974477958237
20
0.500023186961475
30
0.000000000000000
11
-85.3974477958237
21
0.352905110848034
31
0.000000000000000
  0
LINE
  5
F10526
330
F10527
100
AcDbEntity
8
Geo
100
AcDbLine
10
-85.3974477958237
20
0.352905110848034
30
0.000000000000000
11
-85.2974477958237
21
0.204150725281502
31
0.000000000000000
  0
LINE
  5
F10528
330
F10529
100
AcDbEntity
8
Geo
100
AcDbLine
10
-85.2974477958237
20
0.204150725281502
30
0.000000000000000
11
-85.1974477958237
21
0.0539803799237079
31
0.000000000000000
  0
LINE
  5
F1052A
330
F1052B
100
AcDbEntity
8
Geo
100
AcDbLine
10
-85.1974477958237
20
0.0539803799237079
30
0.000000000000000
11
-85.0974477958237
21
-0.0973834781042762
31
0.000000000000000
  0
LINE
  5
F1052C
330
F1052D
100
AcDbEntity
8
Geo
100
AcDbLine
10
-85.0974477958237
20
-0.0973834781042762
30
0.000000000000000
11
-84.9974477958237
21
-0.249716633732739
31
0.000000000000000
  0
LINE
  5
F1052E
330
F1052F
100
AcDbEntity
8
Geo
100
AcDbLine
10
-84.9974477958237
20
-0.249716633732739
30
0.000000000000000
11
-84.8974477958237
21
-0.402793436072799
31
0.000000000000000
  0
LINE
  5
F10530
330
F10531
100
AcDbEntity
8
Geo
100
AcDbLine
10
-84.8974477958237
20
-0.402793436072799
30
0.000000000000000
11
-84.7974477958237
21
-0.556387132672750
31
0.000000000000000
  0
LINE
  5
F10532
330
F10533
100
AcDbEntity
8
Geo
100
AcDbLine
10
-84.7974477958237
20
-0.556387132672750
30
0.000000000000000
11
-84.6974477958237
21
-0.710270205406147
31
0.000000000000000
  0
LINE
  5
F10534
330
F10535
100
AcDbEntity
8
Geo
100
AcDbLine
10
-84.6974477958237
20
-0.710270205406147
30
0.000000000000000
11
-84.5974477958237
21
-0.864214707494078
31
0.000000000000000
  0
LINE
  5
F10536
330
F10537
100
AcDbEntity
8
Geo
100
AcDbLine
10
-84.5974477958237
20
-0.864214707494078
30
0.000000000000000
11
-84.4974477958237
21
-1.01799260116243
31
0.000000000000000
  0
LINE
  5
F10538
330
F10539
100
AcDbEntity
8
Geo
100
AcDbLine
10
-84.4974477958237
20
-1.01799260116243
30
0.000000000000000
11
-84.3974477958237
21
-1.17137609543388
31
0.000000000000000
  0
LINE
  5
F1053A
330
F1053B
100
AcDbEntity
8
Geo
100
AcDbLine
10
-84.3974477958237
20
-1.17137609543388
30
0.000000000000000
11
-84.2974477958237
21
-1.32413798355442
31
0.000000000000000
  0
LINE
  5
F1053C
330
F1053D
100
AcDbEntity
8
Geo
100
AcDbLine
10
-84.2974477958237
20
-1.32413798355442
30
0.000000000000000
11
-84.1974477958237
21
-1.47605197955431
31
0.000000000000000
  0
LINE
  5
F1053E
330
F1053F
100
AcDbEntity
8
Geo
100
AcDbLine
10
-84.1974477958237
20
-1.47605197955431
30
0.000000000000000
11
-84.0974477958237
21
-1.62689305344525
31
0.000000000000000
  0
LINE
  5
F10540
330
F10541
100
AcDbEntity
8
Geo
100
AcDbLine
10
-84.0974477958237
20
-1.62689305344525
30
0.000000000000000
11
-83.9974477958237
21
-1.77643776455693
31
0.000000000000000
  0
LINE
  5
F10542
330
F10543
100
AcDbEntity
8
Geo
100
AcDbLine
10
-83.9974477958237
20
-1.77643776455693
30
0.000000000000000
11
-83.8974477958237
21
-1.92446459251941
31
0.000000000000000
  0
LINE
  5
F10544
330
F10545
100
AcDbEntity
8
Geo
100
AcDbLine
10
-83.8974477958237
20
-1.92446459251941
30
0.000000000000000
11
-83.7974477958237
21
-2.07075426540091
31
0.000000000000000
  0
LINE
  5
F10546
330
F10547
100
AcDbEntity
8
Geo
100
AcDbLine
10
-83.7974477958237
20
-2.07075426540091
30
0.000000000000000
11
-83.6974477958237
21
-2.21509008451503
31
0.000000000000000
  0
LINE
  5
F10548
330
F10549
100
AcDbEntity
8
Geo
100
AcDbLine
10
-83.6974477958237
20
-2.21509008451503
30
0.000000000000000
11
-83.5974477958237
21
-2.35725824541620
31
0.000000000000000
  0
LINE
  5
F1054A
330
F1054B
100
AcDbEntity
8
Geo
100
AcDbLine
10
-83.5974477958237
20
-2.35725824541620
30
0.000000000000000
11
-83.4974477958237
21
-2.49704815460792
31
0.000000000000000
  0
LINE
  5
F1054C
330
F1054D
100
AcDbEntity
8
Geo
100
AcDbLine
10
-83.4974477958237
20
-2.49704815460792
30
0.000000000000000
11
-83.3974477958237
21
-2.63425274149459
31
0.000000000000000
  0
LINE
  5
F1054E
330
F1054F
100
AcDbEntity
8
Geo
100
AcDbLine
10
-83.3974477958237
20
-2.63425274149459
30
0.000000000000000
11
-83.2974477958237
21
-2.76866876511489
31
0.000000000000000
  0
LINE
  5
F10550
330
F10551
100
AcDbEntity
8
Geo
100
AcDbLine
10
-83.2974477958237
20
-2.76866876511489
30
0.000000000000000
11
-83.1974477958237
21
-2.90009711520235
31
0.000000000000000
  0
LINE
  5
F10552
330
F10553
100
AcDbEntity
8
Geo
100
AcDbLine
10
-83.1974477958237
20
-2.90009711520235
30
0.000000000000000
11
-83.0974477958237
21
-3.02834310712714
31
0.000000000000000
  0
LINE
  5
F10554
330
F10555
100
AcDbEntity
8
Geo
100
AcDbLine
10
-83.0974477958237
20
-3.02834310712714
30
0.000000000000000
11
-82.9974477958237
21
-3.16797931765031
31
0.000000000000000
  0
LINE
  5
F10556
330
F10557
100
AcDbEntity
8
Geo
100
AcDbLine
10
-82.9974477958237
20
-3.16797931765031
30
0.000000000000000
11
-82.8974477958237
21
-3.30054733229082
31
0.000000000000000
  0
LINE
  5
F10558
330
F10559
100
AcDbEntity
8
Geo
100
AcDbLine
10
-82.8974477958237
20
-3.30054733229082
30
0.000000000000000
11
-82.7974477958237
21
-3.42607335871020
31
0.000000000000000
  0
LINE
  5
F1055A
330
F1055B
100
AcDbEntity
8
Geo
100
AcDbLine
10
-82.7974477958237
20
-3.42607335871020
30
0.000000000000000
11
-82.6974477958236
21
-3.54461319352514
31
0.000000000000000
  0
LINE
  5
F1055C
330
F1055D
100
AcDbEntity
8
Geo
100
AcDbLine
10
-82.6974477958236
20
-3.54461319352514
30
0.000000000000000
11
-82.5974477958237
21
-3.65624972294052
31
0.000000000000000
  0
LINE
  5
F1055E
330
F1055F
100
AcDbEntity
8
Geo
100
AcDbLine
10
-82.5974477958237
20
-3.65624972294052
30
0.000000000000000
11
-82.4974477958237
21
-3.76109047229819
31
0.000000000000000
  0
LINE
  5
F10560
330
F10561
100
AcDbEntity
8
Geo
100
AcDbLine
10
-82.4974477958237
20
-3.76109047229819
30
0.000000000000000
11
-82.3974477958237
21
-3.85926521687142
31
0.000000000000000
  0
LINE
  5
F10562
330
F10563
100
AcDbEntity
8
Geo
100
AcDbLine
10
-82.3974477958237
20
-3.85926521687142
30
0.000000000000000
11
-82.2974477958237
21
-3.95092366447621
31
0.000000000000000
  0
LINE
  5
F10564
330
F10565
100
AcDbEntity
8
Geo
100
AcDbLine
10
-82.2974477958237
20
-3.95092366447621
30
0.000000000000000
11
-82.1974477958237
21
-4.03623321880673
31
0.000000000000000
  0
LINE
  5
F10566
330
F10567
100
AcDbEntity
8
Geo
100
AcDbLine
10
-82.1974477958237
20
-4.03623321880673
30
0.000000000000000
11
-82.0974477958237
21
-4.11537683084085
31
0.000000000000000
  0
LINE
  5
F10568
330
F10569
100
AcDbEntity
8
Geo
100
AcDbLine
10
-82.0974477958237
20
-4.11537683084085
30
0.000000000000000
11
-81.9974477958237
21
-4.18855094420463
31
0.000000000000000
  0
LINE
  5
F1056A
330
F1056B
100
AcDbEntity
8
Geo
100
AcDbLine
10
-81.9974477958237
20
-4.18855094420463
30
0.000000000000000
11
-81.8974477958237
21
-4.25596353903344
31
0.000000000000000
  0
LINE
  5
F1056C
330
F1056D
100
AcDbEntity
8
Geo
100
AcDbLine
10
-81.8974477958237
20
-4.25596353903344
30
0.000000000000000
11
-81.7974477958237
21
-4.31783227762387
31
0.000000000000000
  0
LINE
  5
F1056E
330
F1056F
100
AcDbEntity
8
Geo
100
AcDbLine
10
-81.7974477958237
20
-4.31783227762387
30
0.000000000000000
11
-81.6974477958237
21
-4.37438275403257
31
0.000000000000000
  0
LINE
  5
F10570
330
F10571
100
AcDbEntity
8
Geo
100
AcDbLine
10
-81.6974477958237
20
-4.37438275403257
30
0.000000000000000
11
-81.5974477958237
21
-4.42584684874467
31
0.000000000000000
  0
LINE
  5
F10572
330
F10573
100
AcDbEntity
8
Geo
100
AcDbLine
10
-81.5974477958237
20
-4.42584684874467
30
0.000000000000000
11
-81.4974477958237
21
-4.47246118860320
31
0.000000000000000
  0
LINE
  5
F10574
330
F10575
100
AcDbEntity
8
Geo
100
AcDbLine
10
-81.4974477958237
20
-4.47246118860320
30
0.000000000000000
11
-81.3974477958237
21
-4.51446571135784
31
0.000000000000000
  0
LINE
  5
F10576
330
F10577
100
AcDbEntity
8
Geo
100
AcDbLine
10
-81.3974477958237
20
-4.51446571135784
30
0.000000000000000
11
-81.2974477958237
21
-4.55210233345337
31
0.000000000000000
  0
LINE
  5
F10578
330
F10579
100
AcDbEntity
8
Geo
100
AcDbLine
10
-81.2974477958237
20
-4.55210233345337
30
0.000000000000000
11
-81.1974477958237
21
-4.58561371903070
31
0.000000000000000
  0
LINE
  5
F1057A
330
F1057B
100
AcDbEntity
8
Geo
100
AcDbLine
10
-81.1974477958237
20
-4.58561371903070
30
0.000000000000000
11
-81.0974477958237
21
-4.61524214755158
31
0.000000000000000
  0
LINE
  5
F1057C
330
F1057D
100
AcDbEntity
8
Geo
100
AcDbLine
10
-81.0974477958237
20
-4.61524214755158
30
0.000000000000000
11
-80.9974477958237
21
-4.64122847697734
31
0.000000000000000
  0
LINE
  5
F1057E
330
F1057F
100
AcDbEntity
8
Geo
100
AcDbLine
10
-80.9974477958237
20
-4.64122847697734
30
0.000000000000000
11
-80.8974477958237
21
-4.66381119902702
31
0.000000000000000
  0
LINE
  5
F10580
330
F10581
100
AcDbEntity
8
Geo
100
AcDbLine
10
-80.8974477958237
20
-4.66381119902702
30
0.000000000000000
11
-80.7974477958237
21
-4.68322558270590
31
0.000000000000000
  0
LINE
  5
F10582
330
F10583
100
AcDbEntity
8
Geo
100
AcDbLine
10
-80.7974477958237
20
-4.68322558270590
30
0.000000000000000
11
-80.6974477958237
21
-4.69970290202640
31
0.000000000000000
  0
LINE
  5
F10584
330
F10585
100
AcDbEntity
8
Geo
100
AcDbLine
10
-80.6974477958237
20
-4.69970290202640
30
0.000000000000000
11
-80.5974477958237
21
-4.71346974363469
31
0.000000000000000
  0
LINE
  5
F10586
330
F10587
100
AcDbEntity
8
Geo
100
AcDbLine
10
-80.5974477958237
20
-4.71346974363469
30
0.000000000000000
11
-80.4974477958237
21
-4.72474738990246
31
0.000000000000000
  0
LINE
  5
F10588
330
F10589
100
AcDbEntity
8
Geo
100
AcDbLine
10
-80.4974477958237
20
-4.72474738990246
30
0.000000000000000
11
-80.3974477958237
21
-4.73375127293980
31
0.000000000000000
  0
LINE
  5
F1058A
330
F1058B
100
AcDbEntity
8
Geo
100
AcDbLine
10
-80.3974477958237
20
-4.73375127293980
30
0.000000000000000
11
-80.2974477958237
21
-4.74069049492690
31
0.000000000000000
  0
LINE
  5
F1058C
330
F1058D
100
AcDbEntity
8
Geo
100
AcDbLine
10
-80.2974477958237
20
-4.74069049492690
30
0.000000000000000
11
-80.1974477958237
21
-4.74576741014457
31
0.000000000000000
  0
LINE
  5
F1058E
330
F1058F
100
AcDbEntity
8
Geo
100
AcDbLine
10
-80.1974477958237
20
-4.74576741014457
30
0.000000000000000
11
-80.0974477958237
21
-4.74917726410219
31
0.000000000000000
  0
LINE
  5
F10590
330
F10591
100
AcDbEntity
8
Geo
100
AcDbLine
10
-80.0974477958237
20
-4.74917726410219
30
0.000000000000000
11
-79.9974477958237
21
-4.75110788521270
31
0.000000000000000
  0
LINE
  5
F10592
330
F10593
100
AcDbEntity
8
Geo
100
AcDbLine
10
-79.9974477958237
20
-4.75110788521270
30
0.000000000000000
11
-79.8974477958237
21
-4.75173942454295
31
0.000000000000000
  0
LINE
  5
F10594
330
F10595
100
AcDbEntity
8
Geo
100
AcDbLine
10
-79.8974477958237
20
-4.75173942454295
30
0.000000000000000
11
-79.7974477958237
21
-4.75174013921114
31
0.000000000000000
  0
LINE
  5
F10596
330
F10597
100
AcDbEntity
8
Geo
100
AcDbLine
10
-92.0974477958237
20
3.24631368658950
30
0.000000000000000
11
-91.9974477958237
21
3.24815344445569
31
0.000000000000000
  0
LINE
  5
F10598
330
F10599
100
AcDbEntity
8
Geo
100
AcDbLine
10
-91.9974477958237
20
3.24815344445569
30
0.000000000000000
11
-91.8974477958237
21
3.24406816558998
31
0.000000000000000
  0
LINE
  5
F1059A
330
F1059B
100
AcDbEntity
8
Geo
100
AcDbLine
10
-91.8974477958237
20
3.24406816558998
30
0.000000000000000
11
-91.7974477958237
21
3.23406390151021
31
0.000000000000000
  0
LINE
  5
F1059C
330
F1059D
100
AcDbEntity
8
Geo
100
AcDbLine
10
-91.7974477958237
20
3.23406390151021
30
0.000000000000000
11
-91.6974477958236
21
3.21815547151866
31
0.000000000000000
  0
LINE
  5
F1059E
330
F1059F
100
AcDbEntity
8
Geo
100
AcDbLine
10
-91.6974477958236
20
3.21815547151866
30
0.000000000000000
11
-91.5974477958237
21
3.19636644075028
31
0.000000000000000
  0
LINE
  5
F105A0
330
F105A1
100
AcDbEntity
8
Geo
100
AcDbLine
10
-91.5974477958237
20
3.19636644075028
30
0.000000000000000
11
-91.4974477958237
21
3.16872908526565
31
0.000000000000000
  0
LINE
  5
F105A2
330
F105A3
100
AcDbEntity
8
Geo
100
AcDbLine
10
-91.4974477958237
20
3.16872908526565
30
0.000000000000000
11
-91.3974477958237
21
3.13528434424053
31
0.000000000000000
  0
LINE
  5
F105A4
330
F105A5
100
AcDbEntity
8
Geo
100
AcDbLine
10
-91.3974477958237
20
3.13528434424053
30
0.000000000000000
11
-91.2974477958237
21
3.09608175932270
31
0.000000000000000
  0
LINE
  5
F105A6
330
F105A7
100
AcDbEntity
8
Geo
100
AcDbLine
10
-91.2974477958237
20
3.09608175932270
30
0.000000000000000
11
-91.1974477958236
21
3.05117940124598
31
0.000000000000000
  0
LINE
  5
F105A8
330
F105A9
100
AcDbEntity
8
Geo
100
AcDbLine
10
-91.1974477958236
20
3.05117940124598
30
0.000000000000000
11
-91.0974477958237
21
3.00064378381014
31
0.000000000000000
  0
LINE
  5
F105AA
330
F105AB
100
AcDbEntity
8
Geo
100
AcDbLine
10
-91.0974477958237
20
3.00064378381014
30
0.000000000000000
11
-90.9974477958237
21
2.94454976535412
31
0.000000000000000
  0
LINE
  5
F105AC
330
F105AD
100
AcDbEntity
8
Geo
100
AcDbLine
10
-90.9974477958237
20
2.94454976535412
30
0.000000000000000
11
-90.8974477958237
21
2.88298043786845
31
0.000000000000000
  0
LINE
  5
F105AE
330
F105AF
100
AcDbEntity
8
Geo
100
AcDbLine
10
-90.8974477958237
20
2.88298043786845
30
0.000000000000000
11
-90.7974477958237
21
2.81602700391122
31
0.000000000000000
  0
LINE
  5
F105B0
330
F105B1
100
AcDbEntity
8
Geo
100
AcDbLine
10
-90.7974477958237
20
2.81602700391122
30
0.000000000000000
11
-90.6974477958237
21
2.74378864150985
31
0.000000000000000
  0
LINE
  5
F105B2
330
F105B3
100
AcDbEntity
8
Geo
100
AcDbLine
10
-90.6974477958237
20
2.74378864150985
30
0.000000000000000
11
-90.5974477958237
21
2.66637235724883
31
0.000000000000000
  0
LINE
  5
F105B4
330
F105B5
100
AcDbEntity
8
Geo
100
AcDbLine
10
-90.5974477958237
20
2.66637235724883
30
0.000000000000000
11
-90.4974477958237
21
2.58389282776098
31
0.000000000000000
  0
LINE
  5
F105B6
330
F105B7
100
AcDbEntity
8
Geo
100
AcDbLine
10
-90.4974477958237
20
2.58389282776098
30
0.000000000000000
11
-90.3974477958237
21
2.49647222985719
31
0.000000000000000
  0
LINE
  5
F105B8
330
F105B9
100
AcDbEntity
8
Geo
100
AcDbLine
10
-90.3974477958237
20
2.49647222985719
30
0.000000000000000
11
-90.2974477958237
21
2.40424005954599
31
0.000000000000000
  0
LINE
  5
F105BA
330
F105BB
100
AcDbEntity
8
Geo
100
AcDbLine
10
-90.2974477958237
20
2.40424005954599
30
0.000000000000000
11
-90.1974477958237
21
2.30733294021136
31
0.000000000000000
  0
LINE
  5
F105BC
330
F105BD
100
AcDbEntity
8
Geo
100
AcDbLine
10
-90.1974477958237
20
2.30733294021136
30
0.000000000000000
11
-90.0974477958237
21
2.20589442023270
31
0.000000000000000
  0
LINE
  5
F105BE
330
F105BF
100
AcDbEntity
8
Geo
100
AcDbLine
10
-90.0974477958237
20
2.20589442023270
30
0.000000000000000
11
-89.9974477958237
21
2.10007476034676
31
0.000000000000000
  0
LINE
  5
F105C0
330
F105C1
100
AcDbEntity
8
Geo
100
AcDbLine
10
-89.9974477958237
20
2.10007476034676
30
0.000000000000000
11
-89.8974477958237
21
1.99003071106670
31
0.000000000000000
  0
LINE
  5
F105C2
330
F105C3
100
AcDbEntity
8
Geo
100
AcDbLine
10
-89.8974477958237
20
1.99003071106670
30
0.000000000000000
11
-89.7974477958237
21
1.87592528048774
31
0.000000000000000
  0
LINE
  5
F105C4
330
F105C5
100
AcDbEntity
8
Geo
100
AcDbLine
10
-89.7974477958237
20
1.87592528048774
30
0.000000000000000
11
-89.6974477958237
21
1.75792749282347
31
0.000000000000000
  0
LINE
  5
F105C6
330
F105C7
100
AcDbEntity
8
Geo
100
AcDbLine
10
-89.6974477958237
20
1.75792749282347
30
0.000000000000000
11
-89.5974477958237
21
1.63621213803057
31
0.000000000000000
  0
LINE
  5
F105C8
330
F105C9
100
AcDbEntity
8
Geo
100
AcDbLine
10
-89.5974477958237
20
1.63621213803057
30
0.000000000000000
11
-89.4974477958237
21
1.51095951289267
31
0.000000000000000
  0
LINE
  5
F105CA
330
F105CB
100
AcDbEntity
8
Geo
100
AcDbLine
10
-89.4974477958237
20
1.51095951289267
30
0.000000000000000
11
-89.3974477958237
21
1.38235515394697
31
0.000000000000000
  0
LINE
  5
F105CC
330
F105CD
100
AcDbEntity
8
Geo
100
AcDbLine
10
-89.3974477958237
20
1.38235515394697
30
0.000000000000000
11
-89.2974477958237
21
1.25058956264925
31
0.000000000000000
  0
LINE
  5
F105CE
330
F105CF
100
AcDbEntity
8
Geo
100
AcDbLine
10
-89.2974477958237
20
1.25058956264925
30
0.000000000000000
11
-89.1974477958237
21
1.11585792318432
31
0.000000000000000
  0
LINE
  5
F105D0
330
F105D1
100
AcDbEntity
8
Geo
100
AcDbLine
10
-89.1974477958237
20
1.11585792318432
30
0.000000000000000
11
-89.0974477958237
21
0.978359813339956
31
0.000000000000000
  0
LINE
  5
F105D2
330
F105D3
100
AcDbEntity
8
Geo
100
AcDbLine
10
-89.0974477958237
20
0.978359813339956
30
0.000000000000000
11
-88.9974477958237
21
0.838298908872609
31
0.000000000000000
  0
LINE
  5
F105D4
330
F105D5
100
AcDbEntity
8
Geo
100
AcDbLine
10
-88.9974477958237
20
0.838298908872609
30
0.000000000000000
11
-88.8974477958237
21
0.695882681802801
31
0.000000000000000
  0
LINE
  5
F105D6
330
F105D7
100
AcDbEntity
8
Geo
100
AcDbLine
10
-88.8974477958237
20
0.695882681802801
30
0.000000000000000
11
-88.7974477958237
21
0.551322093087109
31
0.000000000000000
  0
LINE
  5
F105D8
330
F105D9
100
AcDbEntity
8
Geo
100
AcDbLine
10
-88.7974477958237
20
0.551322093087109
30
0.000000000000000
11
-88.6974477958237
21
0.404831280121991
31
0.000000000000000
  0
LINE
  5
F105DA
330
F105DB
100
AcDbEntity
8
Geo
100
AcDbLine
10
-88.6974477958237
20
0.404831280121991
30
0.000000000000000
11
-88.5974477958237
21
0.256627239542371
31
0.000000000000000
  0
LINE
  5
F105DC
330
F105DD
100
AcDbEntity
8
Geo
100
AcDbLine
10
-88.5974477958237
20
0.256627239542371
30
0.000000000000000
11
-88.4974477958237
21
0.106929505784823
31
0.000000000000000
  0
LINE
  5
F105DE
330
F105DF
100
AcDbEntity
8
Geo
100
AcDbLine
10
-88.4974477958237
20
0.106929505784823
30
0.000000000000000
11
-88.3974477958237
21
-0.0440401741084798
31
0.000000000000000
  0
LINE
  5
F105E0
330
F105E1
100
AcDbEntity
8
Geo
100
AcDbLine
10
-88.3974477958237
20
-0.0440401741084798
30
0.000000000000000
11
-88.2974477958237
21
-0.196058168963337
31
0.000000000000000
  0
LINE
  5
F105E2
330
F105E3
100
AcDbEntity
8
Geo
100
AcDbLine
10
-88.2974477958237
20
-0.196058168963337
30
0.000000000000000
11
-88.1974477958237
21
-0.348899294738080
31
0.000000000000000
  0
LINE
  5
F105E4
330
F105E5
100
AcDbEntity
8
Geo
100
AcDbLine
10
-88.1974477958237
20
-0.348899294738080
30
0.000000000000000
11
-88.0974477958237
21
-0.502337148088365
31
0.000000000000000
  0
LINE
  5
F105E6
330
F105E7
100
AcDbEntity
8
Geo
100
AcDbLine
10
-88.0974477958237
20
-0.502337148088365
30
0.000000000000000
11
-87.9974477958237
21
-0.656144441738133
31
0.000000000000000
  0
LINE
  5
F105E8
330
F105E9
100
AcDbEntity
8
Geo
100
AcDbLine
10
-87.9974477958237
20
-0.656144441738133
30
0.000000000000000
11
-87.8974477958237
21
-0.810093341159931
31
0.000000000000000
  0
LINE
  5
F105EA
330
F105EB
100
AcDbEntity
8
Geo
100
AcDbLine
10
-87.8974477958237
20
-0.810093341159931
30
0.000000000000000
11
-87.7974477958237
21
-0.963955802065866
31
0.000000000000000
  0
LINE
  5
F105EC
330
F105ED
100
AcDbEntity
8
Geo
100
AcDbLine
10
-87.7974477958237
20
-0.963955802065866
30
0.000000000000000
11
-87.6974477958237
21
-1.11750390820931
31
0.000000000000000
  0
LINE
  5
F105EE
330
F105EF
100
AcDbEntity
8
Geo
100
AcDbLine
10
-87.6974477958237
20
-1.11750390820931
30
0.000000000000000
11
-87.5974477958237
21
-1.27051020899688
31
0.000000000000000
  0
LINE
  5
F105F0
330
F105F1
100
AcDbEntity
8
Geo
100
AcDbLine
10
-87.5974477958237
20
-1.27051020899688
30
0.000000000000000
11
-87.4974477958237
21
-1.42274805641074
31
0.000000000000000
  0
LINE
  5
F105F2
330
F105F3
100
AcDbEntity
8
Geo
100
AcDbLine
10
-87.4974477958237
20
-1.42274805641074
30
0.000000000000000
11
-87.3974477958237
21
-1.57399194074192
31
0.000000000000000
  0
LINE
  5
F105F4
330
F105F5
100
AcDbEntity
8
Geo
100
AcDbLine
10
-87.3974477958237
20
-1.57399194074192
30
0.000000000000000
11
-87.2974477958237
21
-1.72401782463758
31
0.000000000000000
  0
LINE
  5
F105F6
330
F105F7
100
AcDbEntity
8
Geo
100
AcDbLine
10
-87.2974477958237
20
-1.72401782463758
30
0.000000000000000
11
-87.1974477958237
21
-1.87260347496721
31
0.000000000000000
  0
LINE
  5
F105F8
330
F105F9
100
AcDbEntity
8
Geo
100
AcDbLine
10
-87.1974477958237
20
-1.87260347496721
30
0.000000000000000
11
-87.0974477958237
21
-2.01952879201625
31
0.000000000000000
  0
LINE
  5
F105FA
330
F105FB
100
AcDbEntity
8
Geo
100
AcDbLine
10
-87.0974477958237
20
-2.01952879201625
30
0.000000000000000
11
-86.9974477958237
21
-2.16457613551948
31
0.000000000000000
  0
LINE
  5
F105FC
330
F105FD
100
AcDbEntity
8
Geo
100
AcDbLine
10
-86.9974477958237
20
-2.16457613551948
30
0.000000000000000
11
-86.8974477958237
21
-2.30753064705127
31
0.000000000000000
  0
LINE
  5
F105FE
330
F105FF
100
AcDbEntity
8
Geo
100
AcDbLine
10
-86.8974477958237
20
-2.30753064705127
30
0.000000000000000
11
-86.7974477958237
21
-2.44818056829503
31
0.000000000000000
  0
LINE
  5
F10600
330
F10601
100
AcDbEntity
8
Geo
100
AcDbLine
10
-86.7974477958237
20
-2.44818056829503
30
0.000000000000000
11
-86.6974477958237
21
-2.58631755472051
31
0.000000000000000
  0
LINE
  5
F10602
330
F10603
100
AcDbEntity
8
Geo
100
AcDbLine
10
-86.6974477958237
20
-2.58631755472051
30
0.000000000000000
11
-86.5974477958237
21
-2.72173698420428
31
0.000000000000000
  0
LINE
  5
F10604
330
F10605
100
AcDbEntity
8
Geo
100
AcDbLine
10
-86.5974477958237
20
-2.72173698420428
30
0.000000000000000
11
-86.4974477958237
21
-2.85423826013618
31
0.000000000000000
  0
LINE
  5
F10606
330
F10607
100
AcDbEntity
8
Geo
100
AcDbLine
10
-86.4974477958237
20
-2.85423826013618
30
0.000000000000000
11
-86.3974477958237
21
-2.98362510856278
31
0.000000000000000
  0
LINE
  5
F10608
330
F10609
100
AcDbEntity
8
Geo
100
AcDbLine
10
-86.3974477958237
20
-2.98362510856278
30
0.000000000000000
11
-86.2974477958237
21
-3.10970586892775
31
0.000000000000000
  0
LINE
  5
F1060A
330
F1060B
100
AcDbEntity
8
Geo
100
AcDbLine
10
-86.2974477958237
20
-3.10970586892775
30
0.000000000000000
11
-86.1974477958237
21
-3.23229377797833
31
0.000000000000000
  0
LINE
  5
F1060C
330
F1060D
100
AcDbEntity
8
Geo
100
AcDbLine
10
-86.1974477958237
20
-3.23229377797833
30
0.000000000000000
11
-86.0974477958237
21
-3.35120724641750
31
0.000000000000000
  0
LINE
  5
F1060E
330
F1060F
100
AcDbEntity
8
Geo
100
AcDbLine
10
-86.0974477958237
20
-3.35120724641750
30
0.000000000000000
11
-85.9974477958237
21
-3.46627012789194
31
0.000000000000000
  0
LINE
  5
F10610
330
F10611
100
AcDbEntity
8
Geo
100
AcDbLine
10
-85.9974477958237
20
-3.46627012789194
30
0.000000000000000
11
-85.8974477958237
21
-3.57731197991740
31
0.000000000000000
  0
LINE
  5
F10612
330
F10613
100
AcDbEntity
8
Geo
100
AcDbLine
10
-85.8974477958237
20
-3.57731197991740
30
0.000000000000000
11
-85.7974477958237
21
-3.68416831635484
31
0.000000000000000
  0
LINE
  5
F10614
330
F10615
100
AcDbEntity
8
Geo
100
AcDbLine
10
-85.7974477958237
20
-3.68416831635484
30
0.000000000000000
11
-85.6974477958237
21
-3.78668085106362
31
0.000000000000000
  0
LINE
  5
F10616
330
F10617
100
AcDbEntity
8
Geo
100
AcDbLine
10
-85.6974477958237
20
-3.78668085106362
30
0.000000000000000
11
-85.5974477958237
21
-3.88469773237045
31
0.000000000000000
  0
LINE
  5
F10618
330
F10619
100
AcDbEntity
8
Geo
100
AcDbLine
10
-85.5974477958237
20
-3.88469773237045
30
0.000000000000000
11
-85.4974477958237
21
-3.97807376800710
31
0.000000000000000
  0
LINE
  5
F1061A
330
F1061B
100
AcDbEntity
8
Geo
100
AcDbLine
10
-85.4974477958237
20
-3.97807376800710
30
0.000000000000000
11
-85.3974477958237
21
-4.06667064018350
31
0.000000000000000
  0
LINE
  5
F1061C
330
F1061D
100
AcDbEntity
8
Geo
100
AcDbLine
10
-85.3974477958237
20
-4.06667064018350
30
0.000000000000000
11
-85.2974477958237
21
-4.15035711047767
31
0.000000000000000
  0
LINE
  5
F1061E
330
F1061F
100
AcDbEntity
8
Geo
100
AcDbLine
10
-85.2974477958237
20
-4.15035711047767
30
0.000000000000000
11
-85.1974477958237
21
-4.22900921423904
31
0.000000000000000
  0
LINE
  5
F10620
330
F10621
100
AcDbEntity
8
Geo
100
AcDbLine
10
-85.1974477958237
20
-4.22900921423904
30
0.000000000000000
11
-85.0974477958237
21
-4.30251044421707
31
0.000000000000000
  0
LINE
  5
F10622
330
F10623
100
AcDbEntity
8
Geo
100
AcDbLine
10
-85.0974477958237
20
-4.30251044421707
30
0.000000000000000
11
-84.9974477958237
21
-4.37075192314333
31
0.000000000000000
  0
LINE
  5
F10624
330
F10625
100
AcDbEntity
8
Geo
100
AcDbLine
10
-84.9974477958237
20
-4.37075192314333
30
0.000000000000000
11
-84.8974477958237
21
-4.43363256501119
31
0.000000000000000
  0
LINE
  5
F10626
330
F10627
100
AcDbEntity
8
Geo
100
AcDbLine
10
-84.8974477958237
20
-4.43363256501119
30
0.000000000000000
11
-84.7974477958237
21
-4.49105922481442
31
0.000000000000000
  0
LINE
  5
F10628
330
F10629
100
AcDbEntity
8
Geo
100
AcDbLine
10
-84.7974477958237
20
-4.49105922481442
30
0.000000000000000
11
-84.6974477958237
21
-4.54294683652273
31
0.000000000000000
  0
LINE
  5
F1062A
330
F1062B
100
AcDbEntity
8
Geo
100
AcDbLine
10
-84.6974477958237
20
-4.54294683652273
30
0.000000000000000
11
-84.5974477958237
21
-4.58921853908999
31
0.000000000000000
  0
LINE
  5
F1062C
330
F1062D
100
AcDbEntity
8
Geo
100
AcDbLine
10
-84.5974477958237
20
-4.58921853908999
30
0.000000000000000
11
-84.4974477958237
21
-4.62980579030834
31
0.000000000000000
  0
LINE
  5
F1062E
330
F1062F
100
AcDbEntity
8
Geo
100
AcDbLine
10
-84.4974477958237
20
-4.62980579030834
30
0.000000000000000
11
-84.3974477958237
21
-4.66464846833973
31
0.000000000000000
  0
LINE
  5
F10630
330
F10631
100
AcDbEntity
8
Geo
100
AcDbLine
10
-84.3974477958237
20
-4.66464846833973
30
0.000000000000000
11
-84.2974477958237
21
-4.69369496077426
31
0.000000000000000
  0
LINE
  5
F10632
330
F10633
100
AcDbEntity
8
Geo
100
AcDbLine
10
-84.2974477958237
20
-4.69369496077426
30
0.000000000000000
11
-84.1974477958237
21
-4.71690224108359
31
0.000000000000000
  0
LINE
  5
F10634
330
F10635
100
AcDbEntity
8
Geo
100
AcDbLine
10
-84.1974477958237
20
-4.71690224108359
30
0.000000000000000
11
-84.0974477958237
21
-4.73423593235609
31
0.000000000000000
  0
LINE
  5
F10636
330
F10637
100
AcDbEntity
8
Geo
100
AcDbLine
10
-84.0974477958237
20
-4.73423593235609
30
0.000000000000000
11
-83.9974477958237
21
-4.74567035821929
31
0.000000000000000
  0
LINE
  5
F10638
330
F10639
100
AcDbEntity
8
Geo
100
AcDbLine
10
-83.9974477958237
20
-4.74567035821929
30
0.000000000000000
11
-83.8974477958237
21
-4.75118858087427
31
0.000000000000000
  0
LINE
  5
F1063A
330
F1063B
100
AcDbEntity
8
Geo
100
AcDbLine
10
-96.0974477958237
20
2.89616540748878
30
0.000000000000000
11
-95.9974477958237
21
3.10553599951086
31
0.000000000000000
  0
LINE
  5
F1063C
330
F1063D
100
AcDbEntity
8
Geo
100
AcDbLine
10
-96.0974477958237
20
-1.04718246511480
30
0.000000000000000
11
-95.9974477958237
21
-1.19594143458213
31
0.000000000000000
  0
LINE
  5
F1063E
330
F1063F
100
AcDbEntity
8
Geo
100
AcDbLine
10
-95.9974477958237
20
3.10553599951086
30
0.000000000000000
11
-95.8974477958237
21
3.14464650363099
31
0.000000000000000
  0
LINE
  5
F10640
330
F10641
100
AcDbEntity
8
Geo
100
AcDbLine
10
-95.9974477958237
20
-1.19594143458213
30
0.000000000000000
11
-95.8974477958237
21
-1.34859788978532
31
0.000000000000000
  0
LINE
  5
F10642
330
F10643
100
AcDbEntity
8
Geo
100
AcDbLine
10
-95.8974477958237
20
3.14464650363099
30
0.000000000000000
11
-95.7974477958237
21
3.13583628666188
31
0.000000000000000
  0
LINE
  5
F10644
330
F10645
100
AcDbEntity
8
Geo
100
AcDbLine
10
-95.8974477958237
20
-1.34859788978532
30
0.000000000000000
11
-95.7974477958237
21
-1.50006754522792
31
0.000000000000000
  0
LINE
  5
F10646
330
F10647
100
AcDbEntity
8
Geo
100
AcDbLine
10
-95.7974477958237
20
3.13583628666188
30
0.000000000000000
11
-95.6974477958236
21
3.10416093199117
31
0.000000000000000
  0
LINE
  5
F10648
330
F10649
100
AcDbEntity
8
Geo
100
AcDbLine
10
-95.7974477958237
20
-1.50006754522792
30
0.000000000000000
11
-95.6974477958236
21
-1.64910923980481
31
0.000000000000000
  0
LINE
  5
F1064A
330
F1064B
100
AcDbEntity
8
Geo
100
AcDbLine
10
-95.6974477958236
20
3.10416093199117
30
0.000000000000000
11
-95.5974477958237
21
3.06677383649448
31
0.000000000000000
  0
LINE
  5
F1064C
330
F1064D
100
AcDbEntity
8
Geo
100
AcDbLine
10
-95.6974477958236
20
-1.64910923980481
30
0.000000000000000
11
-95.5974477958237
21
-1.79682166279687
31
0.000000000000000
  0
LINE
  5
F1064E
330
F1064F
100
AcDbEntity
8
Geo
100
AcDbLine
10
-95.5974477958237
20
3.06677383649448
30
0.000000000000000
11
-95.4974477958237
21
3.02373038162371
31
0.000000000000000
  0
LINE
  5
F10650
330
F10651
100
AcDbEntity
8
Geo
100
AcDbLine
10
-95.5974477958237
20
-1.79682166279687
30
0.000000000000000
11
-95.4974477958237
21
-1.94298600799998
31
0.000000000000000
  0
LINE
  5
F10652
330
F10653
100
AcDbEntity
8
Geo
100
AcDbLine
10
-95.4974477958237
20
3.02373038162371
30
0.000000000000000
11
-95.3974477958237
21
2.97509432758792
31
0.000000000000000
  0
LINE
  5
F10654
330
F10655
100
AcDbEntity
8
Geo
100
AcDbLine
10
-95.4974477958237
20
-1.94298600799998
30
0.000000000000000
11
-95.3974477958237
21
-2.08738576237545
31
0.000000000000000
  0
LINE
  5
F10656
330
F10657
100
AcDbEntity
8
Geo
100
AcDbLine
10
-95.3974477958237
20
2.97509432758792
30
0.000000000000000
11
-95.2974477958237
21
2.92093771890547
31
0.000000000000000
  0
LINE
  5
F10658
330
F10659
100
AcDbEntity
8
Geo
100
AcDbLine
10
-95.3974477958237
20
-2.08738576237545
30
0.000000000000000
11
-95.2974477958237
21
-2.22980702677049
31
0.000000000000000
  0
LINE
  5
F1065A
330
F1065B
100
AcDbEntity
8
Geo
100
AcDbLine
10
-95.2974477958237
20
2.92093771890547
30
0.000000000000000
11
-95.1974477958236
21
2.86134077768453
31
0.000000000000000
  0
LINE
  5
F1065C
330
F1065D
100
AcDbEntity
8
Geo
100
AcDbLine
10
-95.2974477958237
20
-2.22980702677049
30
0.000000000000000
11
-95.1974477958236
21
-2.37003883276675
31
0.000000000000000
  0
LINE
  5
F1065E
330
F1065F
100
AcDbEntity
8
Geo
100
AcDbLine
10
-95.1974477958236
20
2.86134077768453
30
0.000000000000000
11
-95.0974477958237
21
2.79639178479017
31
0.000000000000000
  0
LINE
  5
F10660
330
F10661
100
AcDbEntity
8
Geo
100
AcDbLine
10
-95.1974477958236
20
-2.37003883276675
30
0.000000000000000
11
-95.0974477958237
21
-2.50787345518752
31
0.000000000000000
  0
LINE
  5
F10662
330
F10663
100
AcDbEntity
8
Geo
100
AcDbLine
10
-95.0974477958237
20
2.79639178479017
30
0.000000000000000
11
-94.9974477958237
21
2.72618694907411
31
0.000000000000000
  0
LINE
  5
F10664
330
F10665
100
AcDbEntity
8
Geo
100
AcDbLine
10
-95.0974477958237
20
-2.50787345518752
30
0.000000000000000
11
-94.9974477958237
21
-2.64310671980073
31
0.000000000000000
  0
LINE
  5
F10666
330
F10667
100
AcDbEntity
8
Geo
100
AcDbLine
10
-94.9974477958237
20
2.72618694907411
30
0.000000000000000
11
-94.8974477958237
21
2.65083026486060
31
0.000000000000000
  0
LINE
  5
F10668
330
F10669
100
AcDbEntity
8
Geo
100
AcDbLine
10
-94.9974477958237
20
-2.64310671980073
30
0.000000000000000
11
-94.8974477958237
21
-2.77553830576197
31
0.000000000000000
  0
LINE
  5
F1066A
330
F1066B
100
AcDbEntity
8
Geo
100
AcDbLine
10
-94.8974477958237
20
2.65083026486060
30
0.000000000000000
11
-94.7974477958237
21
2.57043335789984
31
0.000000000000000
  0
LINE
  5
F1066C
330
F1066D
100
AcDbEntity
8
Geo
100
AcDbLine
10
-94.8974477958237
20
-2.77553830576197
30
0.000000000000000
11
-94.7974477958237
21
-2.90497204234950
31
0.000000000000000
  0
LINE
  5
F1066E
330
F1066F
100
AcDbEntity
8
Geo
100
AcDbLine
10
-94.7974477958237
20
2.57043335789984
30
0.000000000000000
11
-94.6974477958236
21
2.48511532001687
31
0.000000000000000
  0
LINE
  5
F10670
330
F10671
100
AcDbEntity
8
Geo
100
AcDbLine
10
-94.7974477958237
20
-2.90497204234950
30
0.000000000000000
11
-94.6974477958236
21
-3.03121619955159
31
0.000000000000000
  0
LINE
  5
F10672
330
F10673
100
AcDbEntity
8
Geo
100
AcDbLine
10
-94.6974477958236
20
2.48511532001687
30
0.000000000000000
11
-94.5974477958237
21
2.39500253270105
31
0.000000000000000
  0
LINE
  5
F10674
330
F10675
100
AcDbEntity
8
Geo
100
AcDbLine
10
-94.6974477958236
20
-3.03121619955159
30
0.000000000000000
11
-94.5974477958237
21
-3.15408377207600
31
0.000000000000000
  0
LINE
  5
F10676
330
F10677
100
AcDbEntity
8
Geo
100
AcDbLine
10
-94.5974477958237
20
2.39500253270105
30
0.000000000000000
11
-94.4974477958237
21
2.30022847989731
31
0.000000000000000
  0
LINE
  5
F10678
330
F10679
100
AcDbEntity
8
Geo
100
AcDbLine
10
-94.5974477958237
20
-3.15408377207600
30
0.000000000000000
11
-94.4974477958237
21
-3.27339275636059
31
0.000000000000000
  0
LINE
  5
F1067A
330
F1067B
100
AcDbEntity
8
Geo
100
AcDbLine
10
-94.4974477958237
20
2.30022847989731
30
0.000000000000000
11
-94.3974477958237
21
2.20093355027659
31
0.000000000000000
  0
LINE
  5
F1067C
330
F1067D
100
AcDbEntity
8
Geo
100
AcDbLine
10
-94.4974477958237
20
-3.27339275636059
30
0.000000000000000
11
-94.3974477958237
21
-3.38896642017498
31
0.000000000000000
  0
LINE
  5
F1067E
330
F1067F
100
AcDbEntity
8
Geo
100
AcDbLine
10
-94.3974477958237
20
2.20093355027659
30
0.000000000000000
11
-94.2974477958237
21
2.09726482927827
31
0.000000000000000
  0
LINE
  5
F10680
330
F10681
100
AcDbEntity
8
Geo
100
AcDbLine
10
-94.3974477958237
20
-3.38896642017498
30
0.000000000000000
11
-94.2974477958237
21
-3.50063356441374
31
0.000000000000000
  0
LINE
  5
F10682
330
F10683
100
AcDbEntity
8
Geo
100
AcDbLine
10
-94.2974477958237
20
2.09726482927827
30
0.000000000000000
11
-94.1974477958236
21
1.98937588123277
31
0.000000000000000
  0
LINE
  5
F10684
330
F10685
100
AcDbEntity
8
Geo
100
AcDbLine
10
-94.2974477958237
20
-3.50063356441374
30
0.000000000000000
11
-94.1974477958236
21
-3.60822877669338
31
0.000000000000000
  0
LINE
  5
F10686
330
F10687
100
AcDbEntity
8
Geo
100
AcDbLine
10
-94.1974477958236
20
1.98937588123277
30
0.000000000000000
11
-94.0974477958237
21
1.87742652188687
31
0.000000000000000
  0
LINE
  5
F10688
330
F10689
100
AcDbEntity
8
Geo
100
AcDbLine
10
-94.1974477958236
20
-3.60822877669338
30
0.000000000000000
11
-94.0974477958237
21
-3.71159267637750
31
0.000000000000000
  0
LINE
  5
F1068A
330
F1068B
100
AcDbEntity
8
Geo
100
AcDbLine
10
-94.0974477958237
20
1.87742652188687
30
0.000000000000000
11
-93.9974477958237
21
1.76158258166890
31
0.000000000000000
  0
LINE
  5
F1068C
330
F1068D
100
AcDbEntity
8
Geo
100
AcDbLine
10
-94.0974477958237
20
-3.71159267637750
30
0.000000000000000
11
-93.9974477958237
21
-3.81057215066707
31
0.000000000000000
  0
LINE
  5
F1068E
330
F1068F
100
AcDbEntity
8
Geo
100
AcDbLine
10
-93.9974477958237
20
1.76158258166890
30
0.000000000000000
11
-93.8974477958237
21
1.64201566004434
31
0.000000000000000
  0
LINE
  5
F10690
330
F10691
100
AcDbEntity
8
Geo
100
AcDbLine
10
-93.9974477958237
20
-3.81057215066707
30
0.000000000000000
11
-93.8974477958237
21
-3.90502058140625
31
0.000000000000000
  0
LINE
  5
F10692
330
F10693
100
AcDbEntity
8
Geo
100
AcDbLine
10
-93.8974477958237
20
1.64201566004434
30
0.000000000000000
11
-93.7974477958237
21
1.51890287132579
31
0.000000000000000
  0
LINE
  5
F10694
330
F10695
100
AcDbEntity
8
Geo
100
AcDbLine
10
-93.8974477958237
20
-3.90502058140625
30
0.000000000000000
11
-93.7974477958237
21
-3.99479806226759
31
0.000000000000000
  0
LINE
  5
F10696
330
F10697
100
AcDbEntity
8
Geo
100
AcDbLine
10
-93.7974477958237
20
1.51890287132579
30
0.000000000000000
11
-93.6974477958236
21
1.39242658231379
31
0.000000000000000
  0
LINE
  5
F10698
330
F10699
100
AcDbEntity
8
Geo
100
AcDbLine
10
-93.7974477958237
20
-3.99479806226759
30
0.000000000000000
11
-93.6974477958236
21
-4.07977160599514
31
0.000000000000000
  0
LINE
  5
F1069A
330
F1069B
100
AcDbEntity
8
Geo
100
AcDbLine
10
-93.6974477958236
20
1.39242658231379
30
0.000000000000000
11
-93.5974477958237
21
1.26277414215711
31
0.000000000000000
  0
LINE
  5
F1069C
330
F1069D
100
AcDbEntity
8
Geo
100
AcDbLine
10
-93.6974477958236
20
-4.07977160599514
30
0.000000000000000
11
-93.5974477958237
21
-4.15981534139826
31
0.000000000000000
  0
LINE
  5
F1069E
330
F1069F
100
AcDbEntity
8
Geo
100
AcDbLine
10
-93.5974477958237
20
1.26277414215711
30
0.000000000000000
11
-93.4974477958237
21
1.13013760483275
31
0.000000000000000
  0
LINE
  5
F106A0
330
F106A1
100
AcDbEntity
8
Geo
100
AcDbLine
10
-93.5974477958237
20
-4.15981534139826
30
0.000000000000000
11
-93.4974477958237
21
-4.23481069980443
31
0.000000000000000
  0
LINE
  5
F106A2
330
F106A3
100
AcDbEntity
8
Geo
100
AcDbLine
10
-93.4974477958237
20
1.13013760483275
30
0.000000000000000
11
-93.3974477958237
21
0.994713444656643
31
0.000000000000000
  0
LINE
  5
F106A4
330
F106A5
100
AcDbEntity
8
Geo
100
AcDbLine
10
-93.4974477958237
20
-4.23481069980443
30
0.000000000000000
11
-93.3974477958237
21
-4.30464659069488
31
0.000000000000000
  0
LINE
  5
F106A6
330
F106A7
100
AcDbEntity
8
Geo
100
AcDbLine
10
-93.3974477958237
20
0.994713444656643
30
0.000000000000000
11
-93.2974477958237
21
0.856702265246519
31
0.000000000000000
  0
LINE
  5
F106A8
330
F106A9
100
AcDbEntity
8
Geo
100
AcDbLine
10
-93.3974477958237
20
-4.30464659069488
30
0.000000000000000
11
-93.2974477958237
21
-4.36921956626278
31
0.000000000000000
  0
LINE
  5
F106AA
330
F106AB
100
AcDbEntity
8
Geo
100
AcDbLine
10
-93.2974477958237
20
0.856702265246519
30
0.000000000000000
11
-93.1974477958236
21
0.716308502368059
31
0.000000000000000
  0
LINE
  5
F106AC
330
F106AD
100
AcDbEntity
8
Geo
100
AcDbLine
10
-93.2974477958237
20
-4.36921956626278
30
0.000000000000000
11
-93.1974477958236
21
-4.42843397465037
31
0.000000000000000
  0
LINE
  5
F106AE
330
F106AF
100
AcDbEntity
8
Geo
100
AcDbLine
10
-93.1974477958236
20
0.716308502368059
30
0.000000000000000
11
-93.0974477958237
21
0.573740121104478
31
0.000000000000000
  0
LINE
  5
F106B0
330
F106B1
100
AcDbEntity
8
Geo
100
AcDbLine
10
-93.1974477958236
20
-4.42843397465037
30
0.000000000000000
11
-93.0974477958237
21
-4.48220210163792
31
0.000000000000000
  0
LINE
  5
F106B2
330
F106B3
100
AcDbEntity
8
Geo
100
AcDbLine
10
-93.0974477958237
20
0.573740121104478
30
0.000000000000000
11
-92.9974477958237
21
0.429208307798145
31
0.000000000000000
  0
LINE
  5
F106B4
330
F106B5
100
AcDbEntity
8
Geo
100
AcDbLine
10
-93.0974477958237
20
-4.48220210163792
30
0.000000000000000
11
-92.9974477958237
21
-4.53044430057463
31
0.000000000000000
  0
LINE
  5
F106B6
330
F106B7
100
AcDbEntity
8
Geo
100
AcDbLine
10
-92.9974477958237
20
0.429208307798145
30
0.000000000000000
11
-92.8974477958237
21
0.282927157220547
31
0.000000000000000
  0
LINE
  5
F106B8
330
F106B9
100
AcDbEntity
8
Geo
100
AcDbLine
10
-92.9974477958237
20
-4.53044430057463
30
0.000000000000000
11
-92.8974477958237
21
-4.57308911035917
31
0.000000000000000
  0
LINE
  5
F106BA
330
F106BB
100
AcDbEntity
8
Geo
100
AcDbLine
10
-92.8974477958237
20
0.282927157220547
30
0.000000000000000
11
-92.7974477958237
21
0.135113355434004
31
0.000000000000000
  0
LINE
  5
F106BC
330
F106BD
100
AcDbEntity
8
Geo
100
AcDbLine
10
-92.8974477958237
20
-4.57308911035917
30
0.000000000000000
11
-92.7974477958237
21
-4.61007336129488
31
0.000000000000000
  0
LINE
  5
F106BE
330
F106BF
100
AcDbEntity
8
Geo
100
AcDbLine
10
-92.7974477958237
20
0.135113355434004
30
0.000000000000000
11
-92.6974477958236
21
-0.0140141411850799
31
0.000000000000000
  0
LINE
  5
F106C0
330
F106C1
100
AcDbEntity
8
Geo
100
AcDbLine
10
-92.7974477958237
20
-4.61007336129488
30
0.000000000000000
11
-92.6974477958236
21
-4.64134226866292
31
0.000000000000000
  0
LINE
  5
F106C2
330
F106C3
100
AcDbEntity
8
Geo
100
AcDbLine
10
-92.6974477958236
20
-0.0140141411850799
30
0.000000000000000
11
-92.5974477958237
21
-0.164234430286000
31
0.000000000000000
  0
LINE
  5
F106C4
330
F106C5
100
AcDbEntity
8
Geo
100
AcDbLine
10
-92.6974477958236
20
-4.64134226866292
30
0.000000000000000
11
-92.5974477958237
21
-4.66684951387486
31
0.000000000000000
  0
LINE
  5
F106C6
330
F106C7
100
AcDbEntity
8
Geo
100
AcDbLine
10
-92.5974477958237
20
-0.164234430286000
30
0.000000000000000
11
-92.4974477958236
21
-0.315324990766088
31
0.000000000000000
  0
LINE
  5
F106C8
330
F106C9
100
AcDbEntity
8
Geo
100
AcDbLine
10
-92.5974477958237
20
-4.66684951387486
30
0.000000000000000
11
-92.4974477958236
21
-4.68655731308428
31
0.000000000000000
  0
LINE
  5
F106CA
330
F106CB
100
AcDbEntity
8
Geo
100
AcDbLine
10
-92.4974477958236
20
-0.315324990766088
30
0.000000000000000
11
-92.3974477958237
21
-0.467062012390905
31
0.000000000000000
  0
LINE
  5
F106CC
330
F106CD
100
AcDbEntity
8
Geo
100
AcDbLine
10
-92.4974477958236
20
-4.68655731308428
30
0.000000000000000
11
-92.3974477958237
21
-4.70043647315599
31
0.000000000000000
  0
LINE
  5
F106CE
330
F106CF
100
AcDbEntity
8
Geo
100
AcDbLine
10
-92.3974477958237
20
-0.467062012390905
30
0.000000000000000
11
-92.2974477958237
21
-0.619220727324031
31
0.000000000000000
  0
LINE
  5
F106D0
330
F106D1
100
AcDbEntity
8
Geo
100
AcDbLine
10
-92.3974477958237
20
-4.70043647315599
30
0.000000000000000
11
-92.2974477958237
21
-4.70846643490970
31
0.000000000000000
  0
LINE
  5
F106D2
330
F106D3
100
AcDbEntity
8
Geo
100
AcDbLine
10
-92.2974477958237
20
-0.619220727324031
30
0.000000000000000
11
-92.1974477958236
21
-0.771575743075340
31
0.000000000000000
  0
LINE
  5
F106D4
330
F106D5
100
AcDbEntity
8
Geo
100
AcDbLine
10
-92.1974477958236
20
-0.771575743075340
30
0.000000000000000
11
-92.0974477958237
21
-0.923901376374581
31
0.000000000000000
  0
LINE
  5
F106D6
330
F106D7
100
AcDbEntity
8
Geo
100
AcDbLine
10
-92.1974477958236
20
3.20715502515211
30
0.000000000000000
11
-92.0974477958237
21
3.20345958798567
31
0.000000000000000
  0
LINE
  5
F106D8
330
F106D9
100
AcDbEntity
8
Geo
100
AcDbLine
10
-92.0974477958237
20
-0.923901376374581
30
0.000000000000000
11
-91.9974477958237
21
-1.07597198747569
31
0.000000000000000
  0
LINE
  5
F106DA
330
F106DB
100
AcDbEntity
8
Geo
100
AcDbLine
10
-92.0974477958237
20
3.20345958798567
30
0.000000000000000
11
-91.9974477958237
21
3.19390531903398
31
0.000000000000000
  0
LINE
  5
F106DC
330
F106DD
100
AcDbEntity
8
Geo
100
AcDbLine
10
-91.9974477958237
20
-1.07597198747569
30
0.000000000000000
11
-91.8974477958237
21
-1.22756231439662
31
0.000000000000000
  0
LINE
  5
F106DE
330
F106DF
100
AcDbEntity
8
Geo
100
AcDbLine
10
-91.9974477958237
20
3.19390531903398
30
0.000000000000000
11
-91.8974477958237
21
3.17850637102217
31
0.000000000000000
  0
LINE
  5
F106E0
330
F106E1
100
AcDbEntity
8
Geo
100
AcDbLine
10
-91.8974477958237
20
-1.22756231439662
30
0.000000000000000
11
-91.7974477958237
21
-1.37844780659962
31
0.000000000000000
  0
LINE
  5
F106E2
330
F106E3
100
AcDbEntity
8
Geo
100
AcDbLine
10
-91.8974477958237
20
3.17850637102217
30
0.000000000000000
11
-91.7974477958237
21
3.15728555439026
31
0.000000000000000
  0
LINE
  5
F106E4
330
F106E5
100
AcDbEntity
8
Geo
100
AcDbLine
10
-91.7974477958237
20
-1.37844780659962
30
0.000000000000000
11
-91.6974477958236
21
-1.52840495761759
31
0.000000000000000
  0
LINE
  5
F106E6
330
F106E7
100
AcDbEntity
8
Geo
100
AcDbLine
10
-91.7974477958237
20
3.15728555439026
30
0.000000000000000
11
-91.6974477958236
21
3.13027430350402
31
0.000000000000000
  0
LINE
  5
F106E8
330
F106E9
100
AcDbEntity
8
Geo
100
AcDbLine
10
-91.6974477958236
20
-1.52840495761759
30
0.000000000000000
11
-91.5974477958237
21
-1.67721163613394
31
0.000000000000000
  0
LINE
  5
F106EA
330
F106EB
100
AcDbEntity
8
Geo
100
AcDbLine
10
-91.6974477958236
20
3.13027430350402
30
0.000000000000000
11
-91.5974477958237
21
3.09751263009135
31
0.000000000000000
  0
LINE
  5
F106EC
330
F106ED
100
AcDbEntity
8
Geo
100
AcDbLine
10
-91.5974477958237
20
-1.67721163613394
30
0.000000000000000
11
-91.4974477958237
21
-1.82464741502536
31
0.000000000000000
  0
LINE
  5
F106EE
330
F106EF
100
AcDbEntity
8
Geo
100
AcDbLine
10
-91.5974477958237
20
3.09751263009135
30
0.000000000000000
11
-91.4974477958237
21
3.05904906397293
31
0.000000000000000
  0
LINE
  5
F106F0
330
F106F1
100
AcDbEntity
8
Geo
100
AcDbLine
10
-91.4974477958237
20
-1.82464741502536
30
0.000000000000000
11
-91.3974477958237
21
-1.97049389788024
31
0.000000000000000
  0
LINE
  5
F106F2
330
F106F3
100
AcDbEntity
8
Geo
100
AcDbLine
10
-91.4974477958237
20
3.05904906397293
30
0.000000000000000
11
-91.3974477958237
21
3.01494058117509
31
0.000000000000000
  0
LINE
  5
F106F4
330
F106F5
100
AcDbEntity
8
Geo
100
AcDbLine
10
-91.3974477958237
20
-1.97049389788024
30
0.000000000000000
11
-91.2974477958237
21
-2.11453504250894
31
0.000000000000000
  0
LINE
  5
F106F6
330
F106F7
100
AcDbEntity
8
Geo
100
AcDbLine
10
-91.3974477958237
20
3.01494058117509
30
0.000000000000000
11
-91.2974477958237
21
2.96525251953126
31
0.000000000000000
  0
LINE
  5
F106F8
330
F106F9
100
AcDbEntity
8
Geo
100
AcDbLine
10
-91.2974477958237
20
-2.11453504250894
30
0.000000000000000
11
-91.1974477958236
21
-2.25655748096679
31
0.000000000000000
  0
LINE
  5
F106FA
330
F106FB
100
AcDbEntity
8
Geo
100
AcDbLine
10
-91.2974477958237
20
2.96525251953126
30
0.000000000000000
11
-91.1974477958236
21
2.91005848189719
31
0.000000000000000
  0
LINE
  5
F106FC
330
F106FD
100
AcDbEntity
8
Geo
100
AcDbLine
10
-91.1974477958236
20
-2.25655748096679
30
0.000000000000000
11
-91.0974477958237
21
-2.39635083561573
31
0.000000000000000
  0
LINE
  5
F106FE
330
F106FF
100
AcDbEntity
8
Geo
100
AcDbLine
10
-91.1974477958236
20
2.91005848189719
30
0.000000000000000
11
-91.0974477958237
21
2.84944022712307
31
0.000000000000000
  0
LINE
  5
F10700
330
F10701
100
AcDbEntity
8
Geo
100
AcDbLine
10
-91.0974477958237
20
-2.39635083561573
30
0.000000000000000
11
-90.9974477958237
21
-2.53370803075642
31
0.000000000000000
  0
LINE
  5
F10702
330
F10703
100
AcDbEntity
8
Geo
100
AcDbLine
10
-91.0974477958237
20
2.84944022712307
30
0.000000000000000
11
-90.9974477958237
21
2.78348754894433
31
0.000000000000000
  0
LINE
  5
F10704
330
F10705
100
AcDbEntity
8
Geo
100
AcDbLine
10
-90.9974477958237
20
-2.53370803075642
30
0.000000000000000
11
-90.8974477958237
21
-2.66842559936915
31
0.000000000000000
  0
LINE
  5
F10706
330
F10707
100
AcDbEntity
8
Geo
100
AcDbLine
10
-90.9974477958237
20
2.78348754894433
30
0.000000000000000
11
-90.8974477958237
21
2.71229814297026
31
0.000000000000000
  0
LINE
  5
F10708
330
F10709
100
AcDbEntity
8
Geo
100
AcDbLine
10
-90.8974477958237
20
-2.66842559936915
30
0.000000000000000
11
-90.7974477958237
21
-2.80030398450928
31
0.000000000000000
  0
LINE
  5
F1070A
330
F1070B
100
AcDbEntity
8
Geo
100
AcDbLine
10
-90.8974477958237
20
2.71229814297026
30
0.000000000000000
11
-90.7974477958237
21
2.63597746196767
31
0.000000000000000
  0
LINE
  5
F1070C
330
F1070D
100
AcDbEntity
8
Geo
100
AcDbLine
10
-90.7974477958237
20
-2.80030398450928
30
0.000000000000000
11
-90.6974477958237
21
-2.92914783491063
31
0.000000000000000
  0
LINE
  5
F1070E
330
F1070F
100
AcDbEntity
8
Geo
100
AcDbLine
10
-90.7974477958237
20
2.63597746196767
30
0.000000000000000
11
-90.6974477958237
21
2.55463855965383
31
0.000000000000000
  0
LINE
  5
F10710
330
F10711
100
AcDbEntity
8
Geo
100
AcDbLine
10
-90.6974477958237
20
-2.92914783491063
30
0.000000000000000
11
-90.5974477958237
21
-3.05476629435908
31
0.000000000000000
  0
LINE
  5
F10712
330
F10713
100
AcDbEntity
8
Geo
100
AcDbLine
10
-90.6974477958237
20
2.55463855965383
30
0.000000000000000
11
-90.5974477958237
21
2.46840192323019
31
0.000000000000000
  0
LINE
  5
F10714
330
F10715
100
AcDbEntity
8
Geo
100
AcDbLine
10
-90.5974477958237
20
-3.05476629435908
30
0.000000000000000
11
-90.4974477958237
21
-3.17697328440757
31
0.000000000000000
  0
LINE
  5
F10716
330
F10717
100
AcDbEntity
8
Geo
100
AcDbLine
10
-90.5974477958237
20
2.46840192323019
30
0.000000000000000
11
-90.4974477958237
21
2.37739529490481
31
0.000000000000000
  0
LINE
  5
F10718
330
F10719
100
AcDbEntity
8
Geo
100
AcDbLine
10
-90.4974477958237
20
-3.17697328440757
30
0.000000000000000
11
-90.3974477958237
21
-3.29558778001387
31
0.000000000000000
  0
LINE
  5
F1071A
330
F1071B
100
AcDbEntity
8
Geo
100
AcDbLine
10
-90.4974477958237
20
2.37739529490481
30
0.000000000000000
11
-90.3974477958237
21
2.28175348266806
31
0.000000000000000
  0
LINE
  5
F1071C
330
F1071D
100
AcDbEntity
8
Geo
100
AcDbLine
10
-90.3974477958237
20
-3.29558778001387
30
0.000000000000000
11
-90.2974477958237
21
-3.41043407769269
31
0.000000000000000
  0
LINE
  5
F1071E
330
F1071F
100
AcDbEntity
8
Geo
100
AcDbLine
10
-90.3974477958237
20
2.28175348266806
30
0.000000000000000
11
-90.2974477958237
21
2.18161816060169
31
0.000000000000000
  0
LINE
  5
F10720
330
F10721
100
AcDbEntity
8
Geo
100
AcDbLine
10
-90.2974477958237
20
-3.41043407769269
30
0.000000000000000
11
-90.1974477958237
21
-3.52134205578503
31
0.000000000000000
  0
LINE
  5
F10722
330
F10723
100
AcDbEntity
8
Geo
100
AcDbLine
10
-90.2974477958237
20
2.18161816060169
30
0.000000000000000
11
-90.1974477958237
21
2.07713765901726
31
0.000000000000000
  0
LINE
  5
F10724
330
F10725
100
AcDbEntity
8
Geo
100
AcDbLine
10
-90.1974477958237
20
-3.52134205578503
30
0.000000000000000
11
-90.0974477958237
21
-3.62814742645916
31
0.000000000000000
  0
LINE
  5
F10726
330
F10727
100
AcDbEntity
8
Geo
100
AcDbLine
10
-90.1974477958237
20
2.07713765901726
30
0.000000000000000
11
-90.0974477958237
21
1.96846674473461
31
0.000000000000000
  0
LINE
  5
F10728
330
F10729
100
AcDbEntity
8
Geo
100
AcDbLine
10
-90.0974477958237
20
-3.62814742645916
30
0.000000000000000
11
-89.9974477958237
21
-3.73069197906992
31
0.000000000000000
  0
LINE
  5
F1072A
330
F1072B
100
AcDbEntity
8
Geo
100
AcDbLine
10
-90.0974477958237
20
1.96846674473461
30
0.000000000000000
11
-89.9974477958237
21
1.85576639182600
31
0.000000000000000
  0
LINE
  5
F1072C
330
F1072D
100
AcDbEntity
8
Geo
100
AcDbLine
10
-89.9974477958237
20
-3.73069197906992
30
0.000000000000000
11
-89.8974477958237
21
-3.82882381451596
31
0.000000000000000
  0
LINE
  5
F1072E
330
F1072F
100
AcDbEntity
8
Geo
100
AcDbLine
10
-89.9974477958237
20
1.85576639182600
30
0.000000000000000
11
-89.8974477958237
21
1.73920354316547
31
0.000000000000000
  0
LINE
  5
F10730
330
F10731
100
AcDbEntity
8
Geo
100
AcDbLine
10
-89.8974477958237
20
-3.82882381451596
30
0.000000000000000
11
-89.7974477958237
21
-3.92239757024764
31
0.000000000000000
  0
LINE
  5
F10732
330
F10733
100
AcDbEntity
8
Geo
100
AcDbLine
10
-89.8974477958237
20
1.73920354316547
30
0.000000000000000
11
-89.7974477958237
21
1.61895086313657
31
0.000000000000000
  0
LINE
  5
F10734
330
F10735
100
AcDbEntity
8
Geo
100
AcDbLine
10
-89.7974477958237
20
-3.92239757024764
30
0.000000000000000
11
-89.6974477958237
21
-4.01127463559239
31
0.000000000000000
  0
LINE
  5
F10736
330
F10737
100
AcDbEntity
8
Geo
100
AcDbLine
10
-89.7974477958237
20
1.61895086313657
30
0.000000000000000
11
-89.6974477958237
21
1.49518648186485
31
0.000000000000000
  0
LINE
  5
F10738
330
F10739
100
AcDbEntity
8
Geo
100
AcDbLine
10
-89.6974477958237
20
-4.01127463559239
30
0.000000000000000
11
-89.5974477958237
21
-4.09532335707850
31
0.000000000000000
  0
LINE
  5
F1073A
330
F1073B
100
AcDbEntity
8
Geo
100
AcDbLine
10
-89.6974477958237
20
1.49518648186485
30
0.000000000000000
11
-89.5974477958237
21
1.36809373135398
31
0.000000000000000
  0
LINE
  5
F1073C
330
F1073D
100
AcDbEntity
8
Geo
100
AcDbLine
10
-89.5974477958237
20
-4.09532335707850
30
0.000000000000000
11
-89.4974477958237
21
-4.17441923345320
31
0.000000000000000
  0
LINE
  5
F1073E
330
F1073F
100
AcDbEntity
8
Geo
100
AcDbLine
10
-89.5974477958237
20
1.36809373135398
30
0.000000000000000
11
-89.4974477958237
21
1.23786087391630
31
0.000000000000000
  0
LINE
  5
F10740
330
F10741
100
AcDbEntity
8
Geo
100
AcDbLine
10
-89.4974477958237
20
-4.17441923345320
30
0.000000000000000
11
-89.3974477958237
21
-4.24844510010622
31
0.000000000000000
  0
LINE
  5
F10742
330
F10743
100
AcDbEntity
8
Geo
100
AcDbLine
10
-89.4974477958237
20
1.23786087391630
30
0.000000000000000
11
-89.3974477958237
21
1.10468082330009
31
0.000000000000000
  0
LINE
  5
F10744
330
F10745
100
AcDbEntity
8
Geo
100
AcDbLine
10
-89.3974477958237
20
-4.24844510010622
30
0.000000000000000
11
-89.2974477958237
21
-4.31729130262554
31
0.000000000000000
  0
LINE
  5
F10746
330
F10747
100
AcDbEntity
8
Geo
100
AcDbLine
10
-89.3974477958237
20
1.10468082330009
30
0.000000000000000
11
-89.2974477958237
21
0.968750858926766
31
0.000000000000000
  0
LINE
  5
F10748
330
F10749
100
AcDbEntity
8
Geo
100
AcDbLine
10
-89.2974477958237
20
-4.31729130262554
30
0.000000000000000
11
-89.1974477958237
21
-4.38085585922835
31
0.000000000000000
  0
LINE
  5
F1074A
330
F1074B
100
AcDbEntity
8
Geo
100
AcDbLine
10
-89.2974477958237
20
0.968750858926766
30
0.000000000000000
11
-89.1974477958237
21
0.830272333661098
31
0.000000000000000
  0
LINE
  5
F1074C
330
F1074D
100
AcDbEntity
8
Geo
100
AcDbLine
10
-89.1974477958237
20
-4.38085585922835
30
0.000000000000000
11
-89.0974477958237
21
-4.43904461182647
31
0.000000000000000
  0
LINE
  5
F1074E
330
F1074F
100
AcDbEntity
8
Geo
100
AcDbLine
10
-89.1974477958237
20
0.830272333661098
30
0.000000000000000
11
-89.0974477958237
21
0.689450375547525
31
0.000000000000000
  0
LINE
  5
F10750
330
F10751
100
AcDbEntity
8
Geo
100
AcDbLine
10
-89.0974477958237
20
-4.43904461182647
30
0.000000000000000
11
-88.9974477958237
21
-4.49177136550263
31
0.000000000000000
  0
LINE
  5
F10752
330
F10753
100
AcDbEntity
8
Geo
100
AcDbLine
10
-89.0974477958237
20
0.689450375547525
30
0.000000000000000
11
-88.9974477958237
21
0.546493583954264
31
0.000000000000000
  0
LINE
  5
F10754
330
F10755
100
AcDbEntity
8
Geo
100
AcDbLine
10
-88.9974477958237
20
-4.49177136550263
30
0.000000000000000
11
-88.8974477958237
21
-4.53895801619088
31
0.000000000000000
  0
LINE
  5
F10756
330
F10757
100
AcDbEntity
8
Geo
100
AcDbLine
10
-88.9974477958237
20
0.546493583954264
30
0.000000000000000
11
-88.8974477958237
21
0.401613720575356
31
0.000000000000000
  0
LINE
  5
F10758
330
F10759
100
AcDbEntity
8
Geo
100
AcDbLine
10
-88.8974477958237
20
-4.53895801619088
30
0.000000000000000
11
-88.7974477958237
21
-4.58053466637201
31
0.000000000000000
  0
LINE
  5
F1075A
330
F1075B
100
AcDbEntity
8
Geo
100
AcDbLine
10
-88.8974477958237
20
0.401613720575356
30
0.000000000000000
11
-88.7974477958237
21
0.255025395748371
31
0.000000000000000
  0
LINE
  5
F1075C
330
F1075D
100
AcDbEntity
8
Geo
100
AcDbLine
10
-88.7974477958237
20
-4.58053466637201
30
0.000000000000000
11
-88.6974477958237
21
-4.61643972861267
31
0.000000000000000
  0
LINE
  5
F1075E
330
F1075F
100
AcDbEntity
8
Geo
100
AcDbLine
10
-88.7974477958237
20
0.255025395748371
30
0.000000000000000
11
-88.6974477958237
21
0.106945750552414
31
0.000000000000000
  0
LINE
  5
F10760
330
F10761
100
AcDbEntity
8
Geo
100
AcDbLine
10
-88.6974477958237
20
-4.61643972861267
30
0.000000000000000
11
-88.5974477958237
21
-4.64662001679472
31
0.000000000000000
  0
LINE
  5
F10762
330
F10763
100
AcDbEntity
8
Geo
100
AcDbLine
10
-88.6974477958237
20
0.106945750552414
30
0.000000000000000
11
-88.5974477958237
21
-0.0424058648426473
31
0.000000000000000
  0
LINE
  5
F10764
330
F10765
100
AcDbEntity
8
Geo
100
AcDbLine
10
-88.5974477958237
20
-4.64662001679472
30
0.000000000000000
11
-88.4974477958237
21
-4.67103082489979
31
0.000000000000000
  0
LINE
  5
F10766
330
F10767
100
AcDbEntity
8
Geo
100
AcDbLine
10
-88.5974477958237
20
-0.0424058648426473
30
0.000000000000000
11
-88.4974477958237
21
-0.192808216099279
31
0.000000000000000
  0
LINE
  5
F10768
330
F10769
100
AcDbEntity
8
Geo
100
AcDbLine
10
-88.4974477958237
20
-4.67103082489979
30
0.000000000000000
11
-88.3974477958237
21
-4.68963599323222
31
0.000000000000000
  0
LINE
  5
F1076A
330
F1076B
100
AcDbEntity
8
Geo
100
AcDbLine
10
-88.4974477958237
20
-0.192808216099279
30
0.000000000000000
11
-88.3974477958237
21
-0.344038512426400
31
0.000000000000000
  0
LINE
  5
F1076C
330
F1076D
100
AcDbEntity
8
Geo
100
AcDbLine
10
-88.3974477958237
20
-4.68963599323222
30
0.000000000000000
11
-88.2974477958237
21
-4.70240796198236
31
0.000000000000000
  0
LINE
  5
F1076E
330
F1076F
100
AcDbEntity
8
Geo
100
AcDbLine
10
-88.3974477958237
20
-0.344038512426400
30
0.000000000000000
11
-88.2974477958237
21
-0.495872736599053
31
0.000000000000000
  0
LINE
  5
F10770
330
F10771
100
AcDbEntity
8
Geo
100
AcDbLine
10
-88.2974477958237
20
-4.70240796198236
30
0.000000000000000
11
-88.1974477958237
21
-4.70932781205089
31
0.000000000000000
  0
LINE
  5
F10772
330
F10773
100
AcDbEntity
8
Geo
100
AcDbLine
10
-88.2974477958237
20
-0.495872736599053
30
0.000000000000000
11
-88.1974477958237
21
-0.648085976794822
31
0.000000000000000
  0
LINE
  5
F10774
330
F10775
100
AcDbEntity
8
Geo
100
AcDbLine
10
-88.1974477958237
20
-0.648085976794822
30
0.000000000000000
11
-88.0974477958237
21
-0.800452759755389
31
0.000000000000000
  0
LINE
  5
F10776
330
F10777
100
AcDbEntity
8
Geo
100
AcDbLine
10
-88.0974477958237
20
3.20690501465137
30
0.000000000000000
11
-87.9974477958237
21
3.20209856018320
31
0.000000000000000
  0
LINE
  5
F10778
330
F10779
100
AcDbEntity
8
Geo
100
AcDbLine
10
-88.0974477958237
20
-0.800452759755389
30
0.000000000000000
11
-87.9974477958237
21
-0.952747384779752
31
0.000000000000000
  0
LINE
  5
F1077A
330
F1077B
100
AcDbEntity
8
Geo
100
AcDbLine
10
-87.9974477958237
20
3.20209856018320
30
0.000000000000000
11
-87.8974477958237
21
3.19143529001834
31
0.000000000000000
  0
LINE
  5
F1077C
330
F1077D
100
AcDbEntity
8
Geo
100
AcDbLine
10
-87.9974477958237
20
-0.952747384779752
30
0.000000000000000
11
-87.8974477958237
21
-1.10474425805436
31
0.000000000000000
  0
LINE
  5
F1077E
330
F1077F
100
AcDbEntity
8
Geo
100
AcDbLine
10
-87.8974477958237
20
3.19143529001834
30
0.000000000000000
11
-87.7974477958237
21
3.17493099964388
31
0.000000000000000
  0
LINE
  5
F10780
330
F10781
100
AcDbEntity
8
Geo
100
AcDbLine
10
-87.8974477958237
20
-1.10474425805436
30
0.000000000000000
11
-87.7974477958237
21
-1.25621822682491
31
0.000000000000000
  0
LINE
  5
F10782
330
F10783
100
AcDbEntity
8
Geo
100
AcDbLine
10
-87.7974477958237
20
3.17493099964388
30
0.000000000000000
11
-87.6974477958237
21
3.15261013684189
31
0.000000000000000
  0
LINE
  5
F10784
330
F10785
100
AcDbEntity
8
Geo
100
AcDbLine
10
-87.7974477958237
20
-1.25621822682491
30
0.000000000000000
11
-87.6974477958237
21
-1.40694491291480
31
0.000000000000000
  0
LINE
  5
F10786
330
F10787
100
AcDbEntity
8
Geo
100
AcDbLine
10
-87.6974477958237
20
3.15261013684189
30
0.000000000000000
11
-87.5974477958237
21
3.12450576547500
31
0.000000000000000
  0
LINE
  5
F10788
330
F10789
100
AcDbEntity
8
Geo
100
AcDbLine
10
-87.6974477958237
20
-1.40694491291480
30
0.000000000000000
11
-87.5974477958237
21
-1.55670104509622
31
0.000000000000000
  0
LINE
  5
F1078A
330
F1078B
100
AcDbEntity
8
Geo
100
AcDbLine
10
-87.5974477958237
20
3.12450576547500
30
0.000000000000000
11
-87.4974477958237
21
3.09065951650895
31
0.000000000000000
  0
LINE
  5
F1078C
330
F1078D
100
AcDbEntity
8
Geo
100
AcDbLine
10
-87.5974477958237
20
-1.55670104509622
30
0.000000000000000
11
-87.4974477958237
21
-1.70526478982149
31
0.000000000000000
  0
LINE
  5
F1078E
330
F1078F
100
AcDbEntity
8
Geo
100
AcDbLine
10
-87.4974477958237
20
3.09065951650895
30
0.000000000000000
11
-87.3974477958237
21
3.05112152634464
31
0.000000000000000
  0
LINE
  5
F10790
330
F10791
100
AcDbEntity
8
Geo
100
AcDbLine
10
-87.4974477958237
20
-1.70526478982149
30
0.000000000000000
11
-87.3974477958237
21
-1.85241607982478
31
0.000000000000000
  0
LINE
  5
F10792
330
F10793
100
AcDbEntity
8
Geo
100
AcDbLine
10
-87.3974477958237
20
3.05112152634464
30
0.000000000000000
11
-87.2974477958237
21
3.00595036255123
31
0.000000000000000
  0
LINE
  5
F10794
330
F10795
100
AcDbEntity
8
Geo
100
AcDbLine
10
-87.3974477958237
20
-1.85241607982478
30
0.000000000000000
11
-87.2974477958237
21
-1.99793694010747
31
0.000000000000000
  0
LINE
  5
F10796
330
F10797
100
AcDbEntity
8
Geo
100
AcDbLine
10
-87.2974477958237
20
3.00595036255123
30
0.000000000000000
11
-87.1974477958237
21
2.95521293711003
31
0.000000000000000
  0
LINE
  5
F10798
330
F10799
100
AcDbEntity
8
Geo
100
AcDbLine
10
-87.2974477958237
20
-1.99793694010747
30
0.000000000000000
11
-87.1974477958237
21
-2.14161181082418
31
0.000000000000000
  0
LINE
  5
F1079A
330
F1079B
100
AcDbEntity
8
Geo
100
AcDbLine
10
-87.1974477958237
20
2.95521293711003
30
0.000000000000000
11
-87.0974477958237
21
2.89898440729787
31
0.000000000000000
  0
LINE
  5
F1079C
330
F1079D
100
AcDbEntity
8
Geo
100
AcDbLine
10
-87.1974477958237
20
-2.14161181082418
30
0.000000000000000
11
-87.0974477958237
21
-2.28322786659128
31
0.000000000000000
  0
LINE
  5
F1079E
330
F1079F
100
AcDbEntity
8
Geo
100
AcDbLine
10
-87.0974477958237
20
2.89898440729787
30
0.000000000000000
11
-86.9974477958237
21
2.83734806435678
31
0.000000000000000
  0
LINE
  5
F107A0
330
F107A1
100
AcDbEntity
8
Geo
100
AcDbLine
10
-87.0974477958237
20
-2.28322786659128
30
0.000000000000000
11
-86.9974477958237
21
-2.42257533174481
31
0.000000000000000
  0
LINE
  5
F107A2
330
F107A3
100
AcDbEntity
8
Geo
100
AcDbLine
10
-86.9974477958237
20
2.83734806435678
30
0.000000000000000
11
-86.8974477958237
21
2.77039521011474
31
0.000000000000000
  0
LINE
  5
F107A4
330
F107A5
100
AcDbEntity
8
Geo
100
AcDbLine
10
-86.9974477958237
20
-2.42257533174481
30
0.000000000000000
11
-86.8974477958237
21
-2.55944779108090
31
0.000000000000000
  0
LINE
  5
F107A6
330
F107A7
100
AcDbEntity
8
Geo
100
AcDbLine
10
-86.8974477958237
20
2.77039521011474
30
0.000000000000000
11
-86.7974477958237
21
2.69822502174044
31
0.000000000000000
  0
LINE
  5
F107A8
330
F107A9
100
AcDbEntity
8
Geo
100
AcDbLine
10
-86.8974477958237
20
-2.55944779108090
30
0.000000000000000
11
-86.7974477958237
21
-2.69364249561832
31
0.000000000000000
  0
LINE
  5
F107AA
330
F107AB
100
AcDbEntity
8
Geo
100
AcDbLine
10
-86.7974477958237
20
2.69822502174044
30
0.000000000000000
11
-86.6974477958237
21
2.62094440483228
31
0.000000000000000
  0
LINE
  5
F107AC
330
F107AD
100
AcDbEntity
8
Geo
100
AcDbLine
10
-86.7974477958237
20
-2.69364249561832
30
0.000000000000000
11
-86.6974477958237
21
-2.82496066293023
31
0.000000000000000
  0
LINE
  5
F107AE
330
F107AF
100
AcDbEntity
8
Geo
100
AcDbLine
10
-86.6974477958237
20
2.62094440483228
30
0.000000000000000
11
-86.5974477958237
21
2.53866783505923
31
0.000000000000000
  0
LINE
  5
F107B0
330
F107B1
100
AcDbEntity
8
Geo
100
AcDbLine
10
-86.6974477958237
20
-2.82496066293023
30
0.000000000000000
11
-86.5974477958237
21
-2.95320777160035
31
0.000000000000000
  0
LINE
  5
F107B2
330
F107B3
100
AcDbEntity
8
Geo
100
AcDbLine
10
-86.5974477958237
20
2.53866783505923
30
0.000000000000000
11
-86.4974477958237
21
2.45151718858822
31
0.000000000000000
  0
LINE
  5
F107B4
330
F107B5
100
AcDbEntity
8
Geo
100
AcDbLine
10
-86.5974477958237
20
-2.95320777160035
30
0.000000000000000
11
-86.4974477958237
21
-3.07819384936724
31
0.000000000000000
  0
LINE
  5
F107B6
330
F107B7
100
AcDbEntity
8
Geo
100
AcDbLine
10
-86.4974477958237
20
2.45151718858822
30
0.000000000000000
11
-86.3974477958237
21
2.35962156154912
31
0.000000000000000
  0
LINE
  5
F107B8
330
F107B9
100
AcDbEntity
8
Geo
100
AcDbLine
10
-86.4974477958237
20
-3.07819384936724
30
0.000000000000000
11
-86.3974477958237
21
-3.19973375452994
31
0.000000000000000
  0
LINE
  5
F107BA
330
F107BB
100
AcDbEntity
8
Geo
100
AcDbLine
10
-86.3974477958237
20
2.35962156154912
30
0.000000000000000
11
-86.2974477958237
21
2.26311707880484
31
0.000000000000000
  0
LINE
  5
F107BC
330
F107BD
100
AcDbEntity
8
Geo
100
AcDbLine
10
-86.3974477958237
20
-3.19973375452994
30
0.000000000000000
11
-86.2974477958237
21
-3.31764745019811
31
0.000000000000000
  0
LINE
  5
F107BE
330
F107BF
100
AcDbEntity
8
Geo
100
AcDbLine
10
-86.2974477958237
20
2.26311707880484
30
0.000000000000000
11
-86.1974477958237
21
2.16214669230974
31
0.000000000000000
  0
LINE
  5
F107C0
330
F107C1
100
AcDbEntity
8
Geo
100
AcDbLine
10
-86.2974477958237
20
-3.31764745019811
30
0.000000000000000
11
-86.1974477958237
21
-3.43176027098042
31
0.000000000000000
  0
LINE
  5
F107C2
330
F107C3
100
AcDbEntity
8
Geo
100
AcDbLine
10
-86.1974477958237
20
2.16214669230974
30
0.000000000000000
11
-86.0974477958237
21
2.05685996935513
31
0.000000000000000
  0
LINE
  5
F107C4
330
F107C5
100
AcDbEntity
8
Geo
100
AcDbLine
10
-86.1974477958237
20
-3.43176027098042
30
0.000000000000000
11
-86.0974477958237
21
-3.54190318171618
31
0.000000000000000
  0
LINE
  5
F107C6
330
F107C7
100
AcDbEntity
8
Geo
100
AcDbLine
10
-86.0974477958237
20
2.05685996935513
30
0.000000000000000
11
-85.9974477958237
21
1.94741287101543
31
0.000000000000000
  0
LINE
  5
F107C8
330
F107C9
100
AcDbEntity
8
Geo
100
AcDbLine
10
-86.0974477958237
20
-3.54190318171618
30
0.000000000000000
11
-85.9974477958237
21
-3.64791302786683
31
0.000000000000000
  0
LINE
  5
F107CA
330
F107CB
100
AcDbEntity
8
Geo
100
AcDbLine
10
-85.9974477958237
20
1.94741287101543
30
0.000000000000000
11
-85.8974477958237
21
1.83396752112326
31
0.000000000000000
  0
LINE
  5
F107CC
330
F107CD
100
AcDbEntity
8
Geo
100
AcDbLine
10
-85.9974477958237
20
-3.64791302786683
30
0.000000000000000
11
-85.8974477958237
21
-3.74963277719660
31
0.000000000000000
  0
LINE
  5
F107CE
330
F107CF
100
AcDbEntity
8
Geo
100
AcDbLine
10
-85.8974477958237
20
1.83396752112326
30
0.000000000000000
11
-85.7974477958237
21
1.71669196611565
31
0.000000000000000
  0
LINE
  5
F107D0
330
F107D1
100
AcDbEntity
8
Geo
100
AcDbLine
10
-85.8974477958237
20
-3.74963277719660
30
0.000000000000000
11
-85.7974477958237
21
-3.84691175238405
31
0.000000000000000
  0
LINE
  5
F107D2
330
F107D3
100
AcDbEntity
8
Geo
100
AcDbLine
10
-85.7974477958237
20
1.71669196611565
30
0.000000000000000
11
-85.6974477958237
21
1.59575992610703
31
0.000000000000000
  0
LINE
  5
F107D4
330
F107D5
100
AcDbEntity
8
Geo
100
AcDbLine
10
-85.7974477958237
20
-3.84691175238405
30
0.000000000000000
11
-85.6974477958237
21
-3.93960585422026
31
0.000000000000000
  0
LINE
  5
F107D6
330
F107D7
100
AcDbEntity
8
Geo
100
AcDbLine
10
-85.6974477958237
20
1.59575992610703
30
0.000000000000000
11
-85.5974477958237
21
1.47135053755797
31
0.000000000000000
  0
LINE
  5
F107D8
330
F107D9
100
AcDbEntity
8
Geo
100
AcDbLine
10
-85.6974477958237
20
-3.93960585422026
30
0.000000000000000
11
-85.5974477958237
21
-4.02757777506272
31
0.000000000000000
  0
LINE
  5
F107DA
330
F107DB
100
AcDbEntity
8
Geo
100
AcDbLine
10
-85.5974477958237
20
1.47135053755797
30
0.000000000000000
11
-85.4974477958237
21
1.34364808792048
31
0.000000000000000
  0
LINE
  5
F107DC
330
F107DD
100
AcDbEntity
8
Geo
100
AcDbLine
10
-85.5974477958237
20
-4.02757777506272
30
0.000000000000000
11
-85.4974477958237
21
-4.11069720222901
31
0.000000000000000
  0
LINE
  5
F107DE
330
F107DF
100
AcDbEntity
8
Geo
100
AcDbLine
10
-85.4974477958237
20
1.34364808792048
30
0.000000000000000
11
-85.3974477958237
21
1.21284174265336
31
0.000000000000000
  0
LINE
  5
F107E0
330
F107E1
100
AcDbEntity
8
Geo
100
AcDbLine
10
-85.4974477958237
20
-4.11069720222901
30
0.000000000000000
11
-85.3974477958237
21
-4.18884101102871
31
0.000000000000000
  0
LINE
  5
F107E2
330
F107E3
100
AcDbEntity
8
Geo
100
AcDbLine
10
-85.3974477958237
20
1.21284174265336
30
0.000000000000000
11
-85.2974477958237
21
1.07912526501163
31
0.000000000000000
  0
LINE
  5
F107E4
330
F107E5
100
AcDbEntity
8
Geo
100
AcDbLine
10
-85.3974477958237
20
-4.18884101102871
30
0.000000000000000
11
-85.2974477958237
21
-4.26189344714793
31
0.000000000000000
  0
LINE
  5
F107E6
330
F107E7
100
AcDbEntity
8
Geo
100
AcDbLine
10
-85.2974477958237
20
1.07912526501163
30
0.000000000000000
11
-85.1974477958237
21
0.942696729025269
31
0.000000000000000
  0
LINE
  5
F107E8
330
F107E9
100
AcDbEntity
8
Geo
100
AcDbLine
10
-85.2974477958237
20
-4.26189344714793
30
0.000000000000000
11
-85.1974477958237
21
-4.32974629811593
31
0.000000000000000
  0
LINE
  5
F107EA
330
F107EB
100
AcDbEntity
8
Geo
100
AcDbLine
10
-85.1974477958237
20
0.942696729025269
30
0.000000000000000
11
-85.0974477958237
21
0.803758226092496
31
0.000000000000000
  0
LINE
  5
F107EC
330
F107ED
100
AcDbEntity
8
Geo
100
AcDbLine
10
-85.1974477958237
20
-4.32974629811593
30
0.000000000000000
11
-85.0974477958237
21
-4.39229905360012
31
0.000000000000000
  0
LINE
  5
F107EE
330
F107EF
100
AcDbEntity
8
Geo
100
AcDbLine
10
-85.0974477958237
20
0.803758226092496
30
0.000000000000000
11
-84.9974477958237
21
0.662515565622019
31
0.000000000000000
  0
LINE
  5
F107F0
330
F107F1
100
AcDbEntity
8
Geo
100
AcDbLine
10
-85.0974477958237
20
-4.39229905360012
30
0.000000000000000
11
-84.9974477958237
21
-4.44945905429193
31
0.000000000000000
  0
LINE
  5
F107F2
330
F107F3
100
AcDbEntity
8
Geo
100
AcDbLine
10
-84.9974477958237
20
0.662515565622019
30
0.000000000000000
11
-84.8974477958237
21
0.519177970167858
31
0.000000000000000
  0
LINE
  5
F107F4
330
F107F5
100
AcDbEntity
8
Geo
100
AcDbLine
10
-84.9974477958237
20
-4.44945905429193
30
0.000000000000000
11
-84.8974477958237
21
-4.50114162916282
31
0.000000000000000
  0
LINE
  5
F107F6
330
F107F7
100
AcDbEntity
8
Geo
100
AcDbLine
10
-84.8974477958237
20
0.519177970167858
30
0.000000000000000
11
-84.7974477958237
21
0.373957765508280
31
0.000000000000000
  0
LINE
  5
F107F8
330
F107F9
100
AcDbEntity
8
Geo
100
AcDbLine
10
-84.8974477958237
20
-4.50114162916282
30
0.000000000000000
11
-84.7974477958237
21
-4.54727022088744
31
0.000000000000000
  0
LINE
  5
F107FA
330
F107FB
100
AcDbEntity
8
Geo
100
AcDbLine
10
-84.7974477958237
20
0.373957765508280
30
0.000000000000000
11
-84.6974477958237
21
0.227070066127908
31
0.000000000000000
  0
LINE
  5
F107FC
330
F107FD
100
AcDbEntity
8
Geo
100
AcDbLine
10
-84.7974477958237
20
-4.54727022088744
30
0.000000000000000
11
-84.6974477958237
21
-4.58777649924782
31
0.000000000000000
  0
LINE
  5
F107FE
330
F107FF
100
AcDbEntity
8
Geo
100
AcDbLine
10
-84.6974477958237
20
0.227070066127908
30
0.000000000000000
11
-84.5974477958237
21
0.0787324565689633
31
0.000000000000000
  0
LINE
  5
F10800
330
F10801
100
AcDbEntity
8
Geo
100
AcDbLine
10
-84.6974477958237
20
-4.58777649924782
30
0.000000000000000
11
-84.5974477958237
21
-4.62260046235090
31
0.000000000000000
  0
LINE
  5
F10802
330
F10803
100
AcDbEntity
8
Geo
100
AcDbLine
10
-84.5974477958237
20
0.0787324565689633
30
0.000000000000000
11
-84.4974477958237
21
-0.0708353308764432
31
0.000000000000000
  0
LINE
  5
F10804
330
F10805
100
AcDbEntity
8
Geo
100
AcDbLine
10
-84.5974477958237
20
-4.62260046235090
30
0.000000000000000
11
-84.4974477958237
21
-4.65169052550916
31
0.000000000000000
  0
LINE
  5
F10806
330
F10807
100
AcDbEntity
8
Geo
100
AcDbLine
10
-84.4974477958237
20
-0.0708353308764432
30
0.000000000000000
11
-84.3974477958237
21
-0.221411741655426
31
0.000000000000000
  0
LINE
  5
F10808
330
F10809
100
AcDbEntity
8
Geo
100
AcDbLine
10
-84.4974477958237
20
-4.65169052550916
30
0.000000000000000
11
-84.3974477958237
21
-4.67500359765302
31
0.000000000000000
  0
LINE
  5
F1080A
330
F1080B
100
AcDbEntity
8
Geo
100
AcDbLine
10
-84.3974477958237
20
-0.221411741655426
30
0.000000000000000
11
-84.2974477958237
21
-0.372773727142774
31
0.000000000000000
  0
LINE
  5
F1080C
330
F1080D
100
AcDbEntity
8
Geo
100
AcDbLine
10
-84.3974477958237
20
-4.67500359765302
30
0.000000000000000
11
-84.2974477958237
21
-4.69250514516156
31
0.000000000000000
  0
LINE
  5
F1080E
330
F1080F
100
AcDbEntity
8
Geo
100
AcDbLine
10
-84.2974477958237
20
-0.372773727142774
30
0.000000000000000
11
-84.1974477958237
21
-0.524697075042571
31
0.000000000000000
  0
LINE
  5
F10810
330
F10811
100
AcDbEntity
8
Geo
100
AcDbLine
10
-84.2974477958237
20
-4.69250514516156
30
0.000000000000000
11
-84.1974477958237
21
-4.70416924301709
31
0.000000000000000
  0
LINE
  5
F10812
330
F10813
100
AcDbEntity
8
Geo
100
AcDbLine
10
-84.1974477958237
20
-0.524697075042571
30
0.000000000000000
11
-84.0974477958237
21
-0.676956741513544
31
0.000000000000000
  0
LINE
  5
F10814
330
F10815
100
AcDbEntity
8
Geo
100
AcDbLine
10
-84.1974477958237
20
-4.70416924301709
30
0.000000000000000
11
-84.0974477958237
21
-4.70997861320789
31
0.000000000000000
  0
LINE
  5
F10816
330
F10817
100
AcDbEntity
8
Geo
100
AcDbLine
10
-84.0974477958237
20
-0.676956741513544
30
0.000000000000000
11
-83.9974477958237
21
-0.829327184526199
31
0.000000000000000
  0
LINE
  5
F10818
330
F10819
100
AcDbEntity
8
Geo
100
AcDbLine
10
-83.9974477958237
20
3.20644437189981
30
0.000000000000000
11
-83.8974477958237
21
3.20052715587255
31
0.000000000000000
  0
LINE
  5
F1081A
330
F1081B
100
AcDbEntity
8
Geo
100
AcDbLine
10
-83.9974477958237
20
-0.829327184526199
30
0.000000000000000
11
-83.8974477958237
21
-0.981582697957906
31
0.000000000000000
  0
LINE
  5
F1081C
330
F1081D
100
AcDbEntity
8
Geo
100
AcDbLine
10
-83.8974477958237
20
3.20052715587255
30
0.000000000000000
11
-83.7974477958237
21
3.18875545186758
31
0.000000000000000
  0
LINE
  5
F1081E
330
F1081F
100
AcDbEntity
8
Geo
100
AcDbLine
10
-83.8974477958237
20
-0.981582697957906
30
0.000000000000000
11
-83.7974477958237
21
-1.13349774593106
31
0.000000000000000
  0
LINE
  5
F10820
330
F10821
100
AcDbEntity
8
Geo
100
AcDbLine
10
-83.7974477958237
20
3.18875545186758
30
0.000000000000000
11
-83.6974477958237
21
3.17114669729349
31
0.000000000000000
  0
LINE
  5
F10822
330
F10823
100
AcDbEntity
8
Geo
100
AcDbLine
10
-83.7974477958237
20
-1.13349774593106
30
0.000000000000000
11
-83.6974477958237
21
-1.28484729689906
31
0.000000000000000
  0
LINE
  5
F10824
330
F10825
100
AcDbEntity
8
Geo
100
AcDbLine
10
-83.6974477958237
20
3.17114669729349
30
0.000000000000000
11
-83.5974477958237
21
3.14772697597361
31
0.000000000000000
  0
LINE
  5
F10826
330
F10827
100
AcDbEntity
8
Geo
100
AcDbLine
10
-83.6974477958237
20
-1.28484729689906
30
0.000000000000000
11
-83.5974477958237
21
-1.43540715698522
31
0.000000000000000
  0
LINE
  5
F10828
330
F10829
100
AcDbEntity
8
Geo
100
AcDbLine
10
-83.5974477958237
20
3.14772697597361
30
0.000000000000000
11
-83.4974477958237
21
3.11853097950815
31
0.000000000000000
  0
LINE
  5
F1082A
330
F1082B
100
AcDbEntity
8
Geo
100
AcDbLine
10
-83.5974477958237
20
-1.43540715698522
30
0.000000000000000
11
-83.4974477958237
21
-1.58495430208086
31
0.000000000000000
  0
LINE
  5
F1082C
330
F1082D
100
AcDbEntity
8
Geo
100
AcDbLine
10
-83.4974477958237
20
3.11853097950815
30
0.000000000000000
11
-83.3974477958237
21
3.08360195588556
31
0.000000000000000
  0
LINE
  5
F1082E
330
F1082F
100
AcDbEntity
8
Geo
100
AcDbLine
10
-83.4974477958237
20
-1.58495430208086
30
0.000000000000000
11
-83.3974477958237
21
-1.73326720821056
31
0.000000000000000
  0
LINE
  5
F10830
330
F10831
100
AcDbEntity
8
Geo
100
AcDbLine
10
-83.3974477958237
20
3.08360195588556
30
0.000000000000000
11
-83.2974477958237
21
3.04299164541933
31
0.000000000000000
  0
LINE
  5
F10832
330
F10833
100
AcDbEntity
8
Geo
100
AcDbLine
10
-83.3974477958237
20
-1.73326720821056
30
0.000000000000000
11
-83.2974477958237
21
-1.88012617967537
31
0.000000000000000
  0
LINE
  5
F10834
330
F10835
100
AcDbEntity
8
Geo
100
AcDbLine
10
-83.2974477958237
20
3.04299164541933
30
0.000000000000000
11
-83.1974477958237
21
2.99676020410517
31
0.000000000000000
  0
LINE
  5
F10836
330
F10837
100
AcDbEntity
8
Geo
100
AcDbLine
10
-83.2974477958237
20
-1.88012617967537
30
0.000000000000000
11
-83.1974477958237
21
-2.02531367448771
31
0.000000000000000
  0
LINE
  5
F10838
330
F10839
100
AcDbEntity
8
Geo
100
AcDbLine
10
-83.1974477958237
20
2.99676020410517
30
0.000000000000000
11
-83.0974477958237
21
2.94497611451196
31
0.000000000000000
  0
LINE
  5
F1083A
330
F1083B
100
AcDbEntity
8
Geo
100
AcDbLine
10
-83.1974477958237
20
-2.02531367448771
30
0.000000000000000
11
-83.0974477958237
21
-2.16861462661598
31
0.000000000000000
  0
LINE
  5
F1083C
330
F1083D
100
AcDbEntity
8
Geo
100
AcDbLine
10
-96.0974477958237
20
-0.751740139211137
30
0.000000000000000
11
-96.0974477958237
21
-0.751740139211137
31
0.000000000000000
  0
LINE
  5
F1083E
330
F1083F
100
AcDbEntity
8
Geo
100
AcDbLine
10
-96.0974477958237
20
-0.751740139211137
30
0.000000000000000
11
-96.0974477958237
21
-0.751740139211137
31
0.000000000000000
  0
LINE
  5
F10840
330
F10841
100
AcDbEntity
8
Geo
100
AcDbLine
10
-97.0974477958237
20
-0.751740139211137
30
0.000000000000000
11
-96.7974477958237
21
-0.751740139211137
31
0.000000000000000
  0
LINE
  5
F10842
330
F10843
100
AcDbEntity
8
Geo
100
AcDbLine
10
-96.6699477958237
20
-0.751740139211137
30
0.000000000000000
11
-96.5849477958237
21
-0.751740139211137
31
0.000000000000000
  0
LINE
  5
F10844
330
F10845
100
AcDbEntity
8
Geo
100
AcDbLine
10
-96.3724477958237
20
-0.751740139211137
30
0.000000000000000
11
-95.9474477958236
21
-0.751740139211137
31
0.000000000000000
  0
LINE
  5
F10846
330
F10847
100
AcDbEntity
8
Geo
100
AcDbLine
10
-95.8199477958237
20
-0.751740139211137
30
0.000000000000000
11
-95.7349477958237
21
-0.751740139211137
31
0.000000000000000
  0
LINE
  5
F10848
330
F10849
100
AcDbEntity
8
Geo
100
AcDbLine
10
-95.5224477958237
20
-0.751740139211137
30
0.000000000000000
11
-95.0974477958237
21
-0.751740139211137
31
0.000000000000000
  0
LINE
  5
F1084A
330
F1084B
100
AcDbEntity
8
Geo
100
AcDbLine
10
-32.0974477958237
20
2.24825986078886
30
0.000000000000000
11
-32.0974477958237
21
-0.751740139211137
31
0.000000000000000
  0
LINE
  5
F1084C
330
F1084D
100
AcDbEntity
8
Geo
100
AcDbLine
10
-95.9684238119938
20
-0.751740139211137
30
0.000000000000000
11
-96.0972650439294
21
-4.44127029020039
31
0.000000000000000
  0
ARC
  5
F1084E
330
F1084F
100
AcDbEntity
8
Geo
100
AcDbCircle
10
-95.7974477958237
20
-4.45174013921114
30
0.000000000000000
 40
0.300000000000001
100
AcDbArc
 50
178.000000000000
 51
270.000000000000
  0
LINE
  5
F10850
330
F10851
100
AcDbEntity
8
Geo
100
AcDbLine
10
-95.7974477958237
20
-4.75174013921114
30
0.000000000000000
11
-78.0974477958237
21
-4.75174013921114
31
0.000000000000000
  0
LINE
  5
F10852
330
F10853
100
AcDbEntity
8
Geo
100
AcDbLine
10
-78.0974477958237
20
-4.75174013921114
30
0.000000000000000
11
-78.0974477958237
21
-4.45174013921114
31
0.000000000000000
  0
LINE
  5
F10854
330
F10855
100
AcDbEntity
8
Geo
100
AcDbLine
10
-78.0974477958237
20
-4.45174013921114
30
0.000000000000000
11
-72.0974477958237
21
-4.45174013921114
31
0.000000000000000
  0
LINE
  5
F10856
330
F10857
100
AcDbEntity
8
Geo
100
AcDbLine
10
-72.0974477958237
20
-4.45174013921114
30
0.000000000000000
11
-72.0974477958237
21
-4.75174013921114
31
0.000000000000000
  0
LINE
  5
F10858
330
F10859
100
AcDbEntity
8
Geo
100
AcDbLine
10
-72.0974477958237
20
-4.75174013921114
30
0.000000000000000
11
-33.0974477958237
21
-4.75174013921114
31
0.000000000000000
  0
LINE
  5
F1085A
330
F1085B
100
AcDbEntity
8
Geo
100
AcDbLine
10
-33.0974477958237
20
-4.75174013921114
30
0.000000000000000
11
-32.0974477958237
21
-3.75174013921114
31
0.000000000000000
  0
LINE
  5
F1085C
330
F1085D
100
AcDbEntity
8
Geo
100
AcDbLine
10
-95.7974477958237
20
3.24825986078886
30
0.000000000000000
11
-95.7974477958237
21
-4.75174013921114
31
0.000000000000000
  0
LINE
  5
F1085E
330
F1085F
100
AcDbEntity
8
Geo
100
AcDbLine
10
-95.7974477958237
20
3.24825986078886
30
0.000000000000000
11
-95.7974477958237
21
-4.75174013921114
31
0.000000000000000
  0
LINE
  5
F10860
330
F10861
100
AcDbEntity
8
Geo
100
AcDbLine
10
-78.0974477958237
20
3.24825986078886
30
0.000000000000000
11
-78.0974477958237
21
-4.75174013921114
31
0.000000000000000
  0
LINE
  5
F10862
330
F10863
100
AcDbEntity
8
Geo
100
AcDbLine
10
-78.0974477958237
20
2.94825986078886
30
0.000000000000000
11
-78.0974477958237
21
-4.45174013921114
31
0.000000000000000
  0
LINE
  5
F10864
330
F10865
100
AcDbEntity
8
Geo
100
AcDbLine
10
-72.0974477958237
20
2.94825986078886
30
0.000000000000000
11
-72.0974477958237
21
-4.45174013921114
31
0.000000000000000
  0
LINE
  5
F10866
330
F10867
100
AcDbEntity
8
Geo
100
AcDbLine
10
-72.0974477958237
20
2.94825986078886
30
0.000000000000000
11
-72.0974477958237
21
-4.45174013921114
31
0.000000000000000
  0
LINE
  5
F10868
330
F10869
100
AcDbEntity
8
Geo
100
AcDbLine
10
-33.0974477958237
20
3.24825986078886
30
0.000000000000000
11
-33.0974477958237
21
-4.75174013921114
31
0.000000000000000
  0
LINE
  5
F1086A
330
F1086B
100
AcDbEntity
8
Geo
100
AcDbLine
10
-32.0974477958237
20
2.24825986078886
30
0.000000000000000
11
-32.0974477958237
21
-3.75174013921114
31
0.000000000000000
  0
LWPOLYLINE
  5
F1086C
330
F1086D
100
AcDbEntity
8
Rahmen
100
AcDbPolyline
90
   4
70
   1
43
   0.0
 10
-125.554794657213
 20
102.947763502622
 10
134.436920725246
 20
102.947763502622
 10
134.436920725246
 20
-102.898459986901
 10
-125.554794657213
 20
-102.898459986901
  0
TEXT
  5
F1086E
330
F1086F
 100
AcDbEntity
8
Text
100
AcDbText
10
-124.621251693541
20
-102.398459986901
30
0.000000000000000
40
1.00000000000000
1
ISBESketcher
100
AcDbText
  0
LWPOLYLINE
  5
F10870
330
F10871
100
AcDbEntity
8
Rahmen
100
AcDbPolyline
90
   4
70
   1
43
   0.0
 10
94.4501637813248
 20
-99.9422406019415
 10
134.436920725246
 20
-99.9422406019415
 10
134.436920725246
 20
-102.898459986901
 10
94.4501637813248
 20
-102.898459986901
  0
TEXT
  5
F10872
330
F10873
 100
AcDbEntity
8
Text
100
AcDbText
10
95.5000000000000
20
-102.027952469726
30
0.000000000000000
40
0.750000000000000
1
Created by:
100
AcDbText
  0
TEXT
  5
F10874
330
F10875
 100
AcDbEntity
8
Text
100
AcDbText
10
120.555118825685
20
-102.027952469726
30
0.000000000000000
40
0.750000000000000
1
nsarkol
100
AcDbText
  0
LWPOLYLINE
  5
F10876
330
F10877
100
AcDbEntity
8
Rahmen
100
AcDbPolyline
90
   4
70
   1
43
   0.0
 10
54.4634068374040
 20
-99.9422406019415
 10
94.4501637813248
 20
-99.9422406019415
 10
94.4501637813248
 20
-102.898459986901
 10
54.4634068374040
 20
-102.898459986901
  0
TEXT
  5
F10878
330
F10879
 100
AcDbEntity
8
Text
100
AcDbText
10
55.5000000000000
20
-102.027952469726
30
0.000000000000000
40
0.750000000000000
1
Created for:
100
AcDbText
  0
TEXT
  5
F1087A
330
F1087B
 100
AcDbEntity
8
Text
100
AcDbText
10
0.000000000000000
20
0.250000000000000
30
0.000000000000000
40
0.750000000000000
1

100
AcDbText
  0
LWPOLYLINE
  5
F1087C
330
F1087D
100
AcDbEntity
8
Rahmen
100
AcDbPolyline
90
   4
70
   1
43
   0.0
 10
121.056138245957
 20
-96.9860212169824
 10
134.436920725246
 20
-96.9860212169824
 10
134.436920725246
 20
-99.9422406019415
 10
121.056138245957
 20
-99.9422406019415
  0
TEXT
  5
F1087E
330
F1087F
 100
AcDbEntity
8
Text
100
AcDbText
10
122.166666666667
20
-99.0279524697261
30
0.000000000000000
40
0.750000000000000
1
Pages
100
AcDbText
  0
TEXT
  5
F10880
330
F10881
 100
AcDbEntity
8
Text
100
AcDbText
10
0.000000000000000
20
0.250000000000000
30
0.000000000000000
40
0.750000000000000
1

100
AcDbText
  0
LWPOLYLINE
  5
F10882
330
F10883
100
AcDbEntity
8
Rahmen
100
AcDbPolyline
90
   4
70
   1
43
   0.0
 10
121.056138245957
 20
-93.8742113380780
 10
134.436920725246
 20
-93.8742113380780
 10
134.436920725246
 20
-96.9860212169824
 10
121.056138245957
 20
-96.9860212169824
  0
TEXT
  5
F10884
330
F10885
 100
AcDbEntity
8
Text
100
AcDbText
10
122.166666666667
20
-96.0279524697261
30
0.000000000000000
40
0.750000000000000
1
Page
100
AcDbText
  0
TEXT
  5
F10886
330
F10887
 100
AcDbEntity
8
Text
100
AcDbText
10
0.000000000000000
20
0.250000000000000
30
0.000000000000000
40
0.750000000000000
1

100
AcDbText
  0
LWPOLYLINE
  5
F10888
330
F10889
100
AcDbEntity
8
Rahmen
100
AcDbPolyline
90
   4
70
   1
43
   0.0
 10
54.4634068374040
 20
-93.8742113380780
 10
121.056138245957
 20
-93.8742113380780
 10
121.056138245957
 20
-99.9422406019415
 10
54.4634068374040
 20
-99.9422406019415
  0
TEXT
  5
F1088A
330
F1088B
 100
AcDbEntity
8
Text
100
AcDbText
10
55.5000000000000
20
-96.0279524697261
30
0.000000000000000
40
0.750000000000000
1
Date:
100
AcDbText
  0
TEXT
  5
F1088C
330
F1088D
 100
AcDbEntity
8
Text
100
AcDbText
10
84.9549091953468
20
-99.0279524697261
30
0.000000000000000
40
0.750000000000000
1
05.07.2016
100
AcDbText
  0
LWPOLYLINE
  5
F1088E
330
F1088F
100
AcDbEntity
8
Rahmen
100
AcDbPolyline
90
   4
70
   1
43
   0.0
 10
54.4634068374040
 20
-87.9617725681598
 10
134.436920725246
 20
-87.9617725681598
 10
134.436920725246
 20
-93.8742113380780
 10
54.4634068374040
 20
-93.8742113380780
  0
TEXT
  5
F10890
330
F10891
 100
AcDbEntity
8
Text
100
AcDbText
10
0.000000000000000
20
0.500000000000000
30
0.000000000000000
40
1.50000000000000
1

100
AcDbText
  0
TEXT
  5
F10892
330
F10893
 100
AcDbEntity
8
Text
100
AcDbText
10
65.6379633731622
20
-92.6561145697901
30
0.000000000000000
40
2.50000000000000
1
VHVTR 4 080 064 08 03 030 L
100
AcDbText
  0
LWPOLYLINE
  5
F10894
330
F10895
100
AcDbEntity
8
Rahmen
100
AcDbPolyline
90
   4
70
   1
43
   0.0
 10
94.4501637813248
 20
-82.0493337982415
 10
134.436920725246
 20
-82.0493337982415
 10
134.436920725246
 20
-87.9617725681598
 10
94.4501637813248
 20
-87.9617725681598
  0
TEXT
  5
F10896
330
F10897
 100
AcDbEntity
8
Text
100
AcDbText
10
95.5000000000000
20
-84.0279524697261
30
0.000000000000000
40
0.750000000000000
1
Work piece material:
100
AcDbText
  0
TEXT
  5
F10898
330
F10899
 100
AcDbEntity
8
Text
100
AcDbText
10
0.000000000000000
20
0.250000000000000
30
0.000000000000000
40
0.750000000000000
1

100
AcDbText
  0
LWPOLYLINE
  5
F1089A
330
F1089B
100
AcDbEntity
8
Rahmen
100
AcDbPolyline
90
   4
70
   1
43
   0.0
 10
54.4634068374040
 20
-82.0493337982415
 10
94.4501637813248
 20
-82.0493337982415
 10
94.4501637813248
 20
-87.9617725681598
 10
54.4634068374040
 20
-87.9617725681598
  0
TEXT
  5
F1089C
330
F1089D
 100
AcDbEntity
8
Text
100
AcDbText
10
55.5000000000000
20
-84.0279524697261
30
0.000000000000000
40
0.750000000000000
1
Tool material:
100
AcDbText
  0
TEXT
  5
F1089E
330
F1089F
 100
AcDbEntity
8
Text
100
AcDbText
10
0.000000000000000
20
0.250000000000000
30
0.000000000000000
40
0.750000000000000
1

100
AcDbText
  0
LWPOLYLINE
  5
F108A0
330
F108A1
100
AcDbEntity
8
Rahmen
100
AcDbPolyline
90
   4
70
   1
43
   0.0
 10
94.4501637813248
 20
-79.0931144132824
 10
134.436920725246
 20
-79.0931144132824
 10
134.436920725246
 20
-82.0493337982415
 10
94.4501637813248
 20
-82.0493337982415
  0
TEXT
  5
F108A2
330
F108A3
 100
AcDbEntity
8
Text
100
AcDbText
10
0.000000000000000
20
0.500000000000000
30
0.000000000000000
40
1.50000000000000
1

100
AcDbText
  0
TEXT
  5
F108A4
330
F108A5
 100
AcDbEntity
8
Text
100
AcDbText
10
0.000000000000000
20
0.250000000000000
30
0.000000000000000
40
0.750000000000000
1

100
AcDbText
  0
LWPOLYLINE
  5
F108A6
330
F108A7
100
AcDbEntity
8
Rahmen
100
AcDbPolyline
90
   4
70
   1
43
   0.0
 10
54.4634068374040
 20
-79.0931144132824
 10
94.4501637813248
 20
-79.0931144132824
 10
94.4501637813248
 20
-82.0493337982415
 10
54.4634068374040
 20
-82.0493337982415
  0
TEXT
  5
F108A8
330
F108A9
 100
AcDbEntity
8
Text
100
AcDbText
10
55.5000000000000
20
-81.0279524697261
30
0.000000000000000
40
0.750000000000000
1
Scale:
100
AcDbText
  0
TEXT
  5
F108AA
330
F108AB
 100
AcDbEntity
8
Text
100
AcDbText
10
81.3330712954109
20
-81.0279524697261
30
0.000000000000000
40
0.750000000000000
1
3 : 1
100
AcDbText
0
VIEWPORT
5
294
102
{ACAD_XDICTIONARY
360
58A
102
}
330
25D
100
AcDbEntity
67
1
8
0
60
1
100
AcDbViewport
10
0.0
20
0.0
30
0.0
40
10.0
41
10.0
68
-1
69
1
12
0.0
22
0.0
13
0.0
23
0.0
14
1.0
24
1.0
15
0.0
25
0.0
16
0.0
26
0.0
36
1.0
17
0.0
27
0.0
37
0.0
42
0.0
43
0.0
44
0.0
45
10.0
50
0.0
51
0.0000000000007958
72
100
90
32800
1

281
0
71
0
74
0
110
0.0
120
0.0
130
0.0
111
1.0
121
0.0
131
0.0
112
0.0
122
1.0
132
0.0
79
0
146
0.0
1001
VD_INVISIBLE_NOT_FOR_READ
1000
VD_INVISIBLE_NOT_FOR_READ
0
VIEWPORT
5
295
102
{ACAD_XDICTIONARY
360
58C
102
}
330
25D
100
AcDbEntity
67
1
8
0
60
1
100
AcDbViewport
10
0.0
20
0.0
30
0.0
40
10.0
41
10.0
68
0
69
2
12
0.0
22
0.0
13
0.0
23
0.0
14
1.0
24
1.0
15
0.0
25
0.0
16
0.0
26
0.0
36
1.0
17
0.0
27
0.0
37
0.0
42
0.0
43
0.0
44
0.0
45
10.0
50
0.0
51
0.0000000000007958
72
100
90
163872
1

281
0
71
0
74
0
110
0.0
120
0.0
130
0.0
111
1.0
121
0.0
131
0.0
112
0.0
122
1.0
132
0.0
79
0
146
0.0
1001
VD_INVISIBLE_NOT_FOR_READ
1000
VD_INVISIBLE_NOT_FOR_READ
0
ENDSEC
0
SECTION
2
OBJECTS
0
DICTIONARY
5
13
330
0
100
AcDbDictionary
281
1
3
ACAD_COLOR
350
FA7
3
ACAD_GROUP
350
14
3
ACAD_LAYOUT
350
FCF
3
ACAD_MATERIAL
350
F7A
3
ACAD_MLEADERSTYLE
350
FCD
3
ACAD_MLINESTYLE
350
16
3
ACAD_PLOTSETTINGS
350
17
3
ACAD_PLOTSTYLENAME
350
18
3
ACAD_SCALELIST
350
FAB
3
ACAD_TABLESTYLE
350
FA8
3
ACAD_VISUALSTYLE
350
F93
3
ACDB_RECOMPOSE_DATA
350
107E
3
AcDbVariableDictionary
350
FF0
3
DWGPROPS
350
107F
0
DICTIONARY
5
F10019
330
F10018
100
AcDbDictionary
280
1
281
1
3
ACAD_MTEXT_2008_RT
360
F1001A
0
DICTIONARY
5
F1001E
330
F1001D
100
AcDbDictionary
280
1
281
1
3
ACAD_MTEXT_2008_RT
360
F1001F
0
DICTIONARY
5
F10028
330
F10027
100
AcDbDictionary
280
1
281
1
3
ACAD_MTEXT_2008_RT
360
F10029
0
DICTIONARY
5
F1002D
330
F1002C
100
AcDbDictionary
280
1
281
1
3
ACAD_MTEXT_2008_RT
360
F1002E
0
DICTIONARY
5
F10005
330
F10004
100
AcDbDictionary
280
1
281
1
3
ACAD_MTEXT_2008_RT
360
F10006
0
DICTIONARY
5
F1000F
330
F1000E
100
AcDbDictionary
280
1
281
1
3
ACAD_MTEXT_2008_RT
360
F10010
0
DICTIONARY
5
F1000A
330
F10009
100
AcDbDictionary
280
1
281
1
3
ACAD_MTEXT_2008_RT
360
F1000B
0
DICTIONARY
5
F10014
330
F10013
100
AcDbDictionary
280
1
281
1
3
ACAD_MTEXT_2008_RT
360
F10015
0
DICTIONARY
5
F10023
330
F10022
100
AcDbDictionary
280
1
281
1
3
ACAD_MTEXT_2008_RT
360
F10024
0
DICTIONARY
5
FA7
102
{ACAD_REACTORS
330
13
102
}
330
13
100
AcDbDictionary
281
1
0
DICTIONARY
5
14
330
13
100
AcDbDictionary
281
1
0
DICTIONARY
5
FCF
102
{ACAD_REACTORS
330
13
102
}
330
13
100
AcDbDictionary
281
1
3
Layout1
350
FD1
3
Model
350
FD0
0
DICTIONARY
5
F7A
102
{ACAD_REACTORS
330
13
102
}
330
13
100
AcDbDictionary
281
1
3
ByBlock
350
F83
3
ByLayer
350
F7B
3
Global
350
F8B
0
DICTIONARY
5
FCD
102
{ACAD_REACTORS
330
13
102
}
330
13
100
AcDbDictionary
281
1
3
Standard
350
FCE
0
DICTIONARY
5
16
330
13
100
AcDbDictionary
281
1
3
Standard
350
FAA
0
DICTIONARY
5
17
102
{ACAD_REACTORS
330
13
102
}
330
13
100
AcDbDictionary
281
1
0
ACDBDICTIONARYWDFLT
5
18
102
{ACAD_REACTORS
330
13
102
}
330
13
100
AcDbDictionary
281
1
3
Normal
350
19
100
AcDbDictionaryWithDefault
340
19
0
DICTIONARY
5
FAB
102
{ACAD_REACTORS
330
13
102
}
330
13
100
AcDbDictionary
281
1
3
A0
350
FAC
3
A1
350
FAD
3
A2
350
FAE
3
A3
350
FAF
3
A4
350
FB0
3
A5
350
FB1
3
A6
350
FB2
3
A7
350
FB3
3
A8
350
FB4
3
A9
350
FB5
3
B0
350
FB6
3
B1
350
FB7
3
B2
350
FB8
3
B3
350
FB9
3
B4
350
FBA
3
B5
350
FBB
3
B6
350
FBC
3
B7
350
FBD
3
B8
350
FBE
3
B9
350
FBF
3
C0
350
FC0
3
C1
350
FC1
3
C2
350
FC2
3
C3
350
FC3
3
C4
350
FC4
3
C5
350
FC5
3
C6
350
FC6
3
C7
350
FC7
3
C8
350
FC8
3
C9
350
FC9
3
D0
350
FCA
3
D1
350
FCB
3
D2
350
FCC
0
DICTIONARY
5
FA8
102
{ACAD_REACTORS
330
13
102
}
330
13
100
AcDbDictionary
281
1
3
Standard
350
FA9
0
DICTIONARY
5
F93
102
{ACAD_REACTORS
330
13
102
}
330
13
100
AcDbDictionary
281
1
3
2dWireframe
350
F99
3
3D Hidden
350
F9B
3
3dWireframe
350
F9A
3
Basic
350
F98
3
Brighten
350
F9F
3
ColorChange
350
FA3
3
Conceptual
350
F9C
3
Dim
350
F9E
3
EdgeColorOff
350
FA6
3
Facepattern
350
FA2
3
Flat
350
F94
3
FlatWithEdges
350
F95
3
Gouraud
350
F96
3
GouraudWithEdges
350
F97
3
JitterOff
350
FA4
3
Linepattern
350
FA1
3
OverhangOff
350
FA5
3
Realistic
350
F9D
3
Thicken
350
FA0
0
XRECORD
5
107E
102
{ACAD_REACTORS
330
13
102
}
330
13
100
AcDbXrecord
280
1
90
1
330
FA9
330
F10018
330
F1001D
330
F10027
330
F1002C
330
F10004
330
F1000E
330
F10009
330
F10013
330
F10022
0
XRECORD
5
F1001A
102
{ACAD_REACTORS
330
F10019
102
}
330
F10019
100
AcDbXrecord
280
1
40
48458.0
1
24
0
XRECORD
5
F1001F
102
{ACAD_REACTORS
330
F1001E
102
}
330
F1001E
100
AcDbXrecord
280
1
40
48458.0
1
40
0
XRECORD
5
F10029
102
{ACAD_REACTORS
330
F10028
102
}
330
F10028
100
AcDbXrecord
280
1
40
48458.0
1
18
0
XRECORD
5
F1002E
102
{ACAD_REACTORS
330
F1002D
102
}
330
F1002D
100
AcDbXrecord
280
1
40
48458.0
1
64
0
XRECORD
5
F10006
102
{ACAD_REACTORS
330
F10005
102
}
330
F10005
100
AcDbXrecord
280
1
40
48458.0
1
2°
0
XRECORD
5
F10010
102
{ACAD_REACTORS
330
F1000F
102
}
330
F1000F
100
AcDbXrecord
280
1
40
48458.0
1
R0.3
0
XRECORD
5
F1000B
102
{ACAD_REACTORS
330
F1000A
102
}
330
F1000A
100
AcDbXrecord
280
1
40
48458.0
1
8
0
XRECORD
5
F10015
102
{ACAD_REACTORS
330
F10014
102
}
330
F10014
100
AcDbXrecord
280
1
40
48458.0
1
7.4
0
LAYOUT
5
FD1
102
{ACAD_XDICTIONARY
360
10A9
102
}
102
{ACAD_REACTORS
330
FCF
102
}
330
FCF
100
AcDbPlotSettings
1

2
Microsoft XPS Document Writer
4

6

40
0.0
41
0.0
42
0.0
43
0.0
44
0.0
45
0.0
46
0.0
47
0.0
48
0.0
49
0.0
140
0.0
141
0.0
142
1.0
143
1.0
70
688
72
0
73
0
74
5
7

75
16
147
1.0
148
0.0
149
0.0
100
AcDbLayout
1
Layout1
70
1
71
1
10
0.0
20
0.0
11
12.0
21
9.0
12
0.0
22
0.0
32
0.0
14
1.000000000000000E+20
24
1.000000000000000E+20
34
1.000000000000000E+20
15
-1.000000000000000E+20
25
-1.000000000000000E+20
35
-1.000000000000000E+20
146
0.0
13
0.0
23
0.0
33
0.0
16
1.0
26
0.0
36
0.0
17
0.0
27
1.0
37
0.0
76
0
330
25D
0
LAYOUT
5
FD0
102
{ACAD_XDICTIONARY
360
10A7
102
}
102
{ACAD_REACTORS
330
FCF
102
}
330
FCF
100
AcDbPlotSettings
1

2
Microsoft XPS Document Writer
4

6

40
0.0
41
0.0
42
0.0
43
0.0
44
0.0
45
0.0
46
0.0
47
0.0
48
0.0
49
0.0
140
0.0
141
0.0
142
1.0
143
1.0
70
1712
72
0
73
0
74
0
7

75
0
147
1.0
148
0.0
149
0.0
100
AcDbLayout
1
Model
70
1
71
0
10
0.0
20
0.0
11
12.0
21
9.0
12
0.0
22
0.0
32
0.0
14
0.0
24
0.0
34
0.0
15
0.0
25
0.0
35
0.0
146
0.0
13
0.0
23
0.0
33
0.0
16
1.0
26
0.0
36
0.0
17
0.0
27
1.0
37
0.0
76
0
330
261
331
26B
0
MATERIAL
5
F83
102
{ACAD_XDICTIONARY
360
F84
102
}
102
{ACAD_REACTORS
330
F7A
102
}
330
F7A
100
AcDbMaterial
1
ByBlock
72
0
43
0.0208333333333333
43
0.0
43
0.0
43
0.0
43
0.0
43
0.0208333333333333
43
0.0
43
0.0
43
0.0
43
0.0
43
1.0
43
0.0
43
0.0
43
0.0
43
0.0
43
1.0
77
0
47
0.0208333333333333
47
0.0
47
0.0
47
0.0
47
0.0
47
0.0208333333333333
47
0.0
47
0.0
47
0.0
47
0.0
47
1.0
47
0.0
47
0.0
47
0.0
47
0.0
47
1.0
171
0
49
0.0208333333333333
49
0.0
49
0.0
49
0.0
49
0.0
49
0.0208333333333333
49
0.0
49
0.0
49
0.0
49
0.0
49
1.0
49
0.0
49
0.0
49
0.0
49
0.0
49
1.0
175
0
142
0.0208333333333333
142
0.0
142
0.0
142
0.0
142
0.0
142
0.0208333333333333
142
0.0
142
0.0
142
0.0
142
0.0
142
1.0
142
0.0
142
0.0
142
0.0
142
0.0
142
1.0
179
0
144
0.0208333333333333
144
0.0
144
0.0
144
0.0
144
0.0
144
0.0208333333333333
144
0.0
144
0.0
144
0.0
144
0.0
144
1.0
144
0.0
144
0.0
144
0.0
144
0.0
144
1.0
147
0.0208333333333333
147
0.0
147
0.0
147
0.0
147
0.0
147
0.0208333333333333
147
0.0
147
0.0
147
0.0
147
0.0
147
1.0
147
0.0
147
0.0
147
0.0
147
0.0
147
1.0
0
MATERIAL
5
F7B
102
{ACAD_XDICTIONARY
360
F7C
102
}
102
{ACAD_REACTORS
330
F7A
102
}
330
F7A
100
AcDbMaterial
1
ByLayer
72
0
43
0.0208333333333333
43
0.0
43
0.0
43
0.0
43
0.0
43
0.0208333333333333
43
0.0
43
0.0
43
0.0
43
0.0
43
1.0
43
0.0
43
0.0
43
0.0
43
0.0
43
1.0
77
0
47
0.0208333333333333
47
0.0
47
0.0
47
0.0
47
0.0
47
0.0208333333333333
47
0.0
47
0.0
47
0.0
47
0.0
47
1.0
47
0.0
47
0.0
47
0.0
47
0.0
47
1.0
171
0
49
0.0208333333333333
49
0.0
49
0.0
49
0.0
49
0.0
49
0.0208333333333333
49
0.0
49
0.0
49
0.0
49
0.0
49
1.0
49
0.0
49
0.0
49
0.0
49
0.0
49
1.0
175
0
142
0.0208333333333333
142
0.0
142
0.0
142
0.0
142
0.0
142
0.0208333333333333
142
0.0
142
0.0
142
0.0
142
0.0
142
1.0
142
0.0
142
0.0
142
0.0
142
0.0
142
1.0
179
0
144
0.0208333333333333
144
0.0
144
0.0
144
0.0
144
0.0
144
0.0208333333333333
144
0.0
144
0.0
144
0.0
144
0.0
144
1.0
144
0.0
144
0.0
144
0.0
144
0.0
144
1.0
147
0.0208333333333333
147
0.0
147
0.0
147
0.0
147
0.0
147
0.0208333333333333
147
0.0
147
0.0
147
0.0
147
0.0
147
1.0
147
0.0
147
0.0
147
0.0
147
0.0
147
1.0
0
MATERIAL
5
F8B
102
{ACAD_XDICTIONARY
360
F8C
102
}
102
{ACAD_REACTORS
330
F7A
102
}
330
F7A
100
AcDbMaterial
1
Global
72
0
43
0.0208333333333333
43
0.0
43
0.0
43
0.0
43
0.0
43
0.0208333333333333
43
0.0
43
0.0
43
0.0
43
0.0
43
1.0
43
0.0
43
0.0
43
0.0
43
0.0
43
1.0
77
0
47
0.0208333333333333
47
0.0
47
0.0
47
0.0
47
0.0
47
0.0208333333333333
47
0.0
47
0.0
47
0.0
47
0.0
47
1.0
47
0.0
47
0.0
47
0.0
47
0.0
47
1.0
171
0
49
0.0208333333333333
49
0.0
49
0.0
49
0.0
49
0.0
49
0.0208333333333333
49
0.0
49
0.0
49
0.0
49
0.0
49
1.0
49
0.0
49
0.0
49
0.0
49
0.0
49
1.0
175
0
142
0.0208333333333333
142
0.0
142
0.0
142
0.0
142
0.0
142
0.0208333333333333
142
0.0
142
0.0
142
0.0
142
0.0
142
1.0
142
0.0
142
0.0
142
0.0
142
0.0
142
1.0
179
0
144
0.0208333333333333
144
0.0
144
0.0
144
0.0
144
0.0
144
0.0208333333333333
144
0.0
144
0.0
144
0.0
144
0.0
144
1.0
144
0.0
144
0.0
144
0.0
144
0.0
144
1.0
147
0.0208333333333333
147
0.0
147
0.0
147
0.0
147
0.0
147
0.0208333333333333
147
0.0
147
0.0
147
0.0
147
0.0
147
1.0
147
0.0
147
0.0
147
0.0
147
0.0
147
1.0
0
MLEADERSTYLE
5
FCE
102
{ACAD_REACTORS
330
FCD
102
}
330
FCD
100
AcDbMLeaderStyle
170
2
171
1
172
0
90
2
40
0.0
41
0.0
173
1
91
-1056964608
340
256
92
-2
290
1
42
0.09
291
1
43
0.36
3
Standard
44
0.18
300

342
253
174
1
178
6
175
1
176
0
93
-1056964608
45
0.18
292
0
297
0
46
0.18
94
-1056964608
47
1.0
49
1.0
140
1.0
293
1
141
0.0
294
1
177
0
142
1.0
295
0
296
0
143
0.125
1001
ACAD_MLEADERVER
1070
2
0
MLINESTYLE
5
FAA
102
{ACAD_REACTORS
330
16
102
}
330
16
100
AcDbMlineStyle
2
STANDARD
70
0
3

62
256
51
90.0
52
90.0
71
2
49
0.5
62
256
6
BYLAYER
49
-0.5
62
256
6
BYLAYER
0
ACDBPLACEHOLDER
5
19
102
{ACAD_REACTORS
330
18
102
}
330
18
0
SCALE
5
FAC
102
{ACAD_REACTORS
330
FAB
102
}
330
FAB
100
AcDbScale
70
0
300
1:1
140
1.0
141
1.0
290
1
0
SCALE
5
FAD
102
{ACAD_REACTORS
330
FAB
102
}
330
FAB
100
AcDbScale
70
0
300
1:2
140
1.0
141
2.0
290
0
0
SCALE
5
FAE
102
{ACAD_REACTORS
330
FAB
102
}
330
FAB
100
AcDbScale
70
0
300
1:4
140
1.0
141
4.0
290
0
0
SCALE
5
FAF
102
{ACAD_REACTORS
330
FAB
102
}
330
FAB
100
AcDbScale
70
0
300
1:5
140
1.0
141
5.0
290
0
0
SCALE
5
FB0
102
{ACAD_REACTORS
330
FAB
102
}
330
FAB
100
AcDbScale
70
0
300
1:8
140
1.0
141
8.0
290
0
0
SCALE
5
FB1
102
{ACAD_REACTORS
330
FAB
102
}
330
FAB
100
AcDbScale
70
0
300
1:10
140
1.0
141
10.0
290
0
0
SCALE
5
FB2
102
{ACAD_REACTORS
330
FAB
102
}
330
FAB
100
AcDbScale
70
0
300
1:16
140
1.0
141
16.0
290
0
0
SCALE
5
FB3
102
{ACAD_REACTORS
330
FAB
102
}
330
FAB
100
AcDbScale
70
0
300
1:20
140
1.0
141
20.0
290
0
0
SCALE
5
FB4
102
{ACAD_REACTORS
330
FAB
102
}
330
FAB
100
AcDbScale
70
0
300
1:30
140
1.0
141
30.0
290
0
0
SCALE
5
FB5
102
{ACAD_REACTORS
330
FAB
102
}
330
FAB
100
AcDbScale
70
0
300
1:40
140
1.0
141
40.0
290
0
0
SCALE
5
FB6
102
{ACAD_REACTORS
330
FAB
102
}
330
FAB
100
AcDbScale
70
0
300
1:50
140
1.0
141
50.0
290
0
0
SCALE
5
FB7
102
{ACAD_REACTORS
330
FAB
102
}
330
FAB
100
AcDbScale
70
0
300
1:100
140
1.0
141
100.0
290
0
0
SCALE
5
FB8
102
{ACAD_REACTORS
330
FAB
102
}
330
FAB
100
AcDbScale
70
0
300
2:1
140
2.0
141
1.0
290
0
0
SCALE
5
FB9
102
{ACAD_REACTORS
330
FAB
102
}
330
FAB
100
AcDbScale
70
0
300
4:1
140
4.0
141
1.0
290
0
0
SCALE
5
FBA
102
{ACAD_REACTORS
330
FAB
102
}
330
FAB
100
AcDbScale
70
0
300
8:1
140
8.0
141
1.0
290
0
0
SCALE
5
FBB
102
{ACAD_REACTORS
330
FAB
102
}
330
FAB
100
AcDbScale
70
0
300
10:1
140
10.0
141
1.0
290
0
0
SCALE
5
FBC
102
{ACAD_REACTORS
330
FAB
102
}
330
FAB
100
AcDbScale
70
0
300
100:1
140
100.0
141
1.0
290
0
0
SCALE
5
FBD
102
{ACAD_REACTORS
330
FAB
102
}
330
FAB
100
AcDbScale
70
0
300
1/128" = 1'-0"
140
0.0078125
141
12.0
290
0
0
SCALE
5
FBE
102
{ACAD_REACTORS
330
FAB
102
}
330
FAB
100
AcDbScale
70
0
300
1/64" = 1'-0"
140
0.015625
141
12.0
290
0
0
SCALE
5
FBF
102
{ACAD_REACTORS
330
FAB
102
}
330
FAB
100
AcDbScale
70
0
300
1/32" = 1'-0"
140
0.03125
141
12.0
290
0
0
SCALE
5
FC0
102
{ACAD_REACTORS
330
FAB
102
}
330
FAB
100
AcDbScale
70
0
300
1/16" = 1'-0"
140
0.0625
141
12.0
290
0
0
SCALE
5
FC1
102
{ACAD_REACTORS
330
FAB
102
}
330
FAB
100
AcDbScale
70
0
300
3/32" = 1'-0"
140
0.09375
141
12.0
290
0
0
SCALE
5
FC2
102
{ACAD_REACTORS
330
FAB
102
}
330
FAB
100
AcDbScale
70
0
300
1/8" = 1'-0"
140
0.125
141
12.0
290
0
0
SCALE
5
FC3
102
{ACAD_REACTORS
330
FAB
102
}
330
FAB
100
AcDbScale
70
0
300
3/16" = 1'-0"
140
0.1875
141
12.0
290
0
0
SCALE
5
FC4
102
{ACAD_REACTORS
330
FAB
102
}
330
FAB
100
AcDbScale
70
0
300
1/4" = 1'-0"
140
0.25
141
12.0
290
0
0
SCALE
5
FC5
102
{ACAD_REACTORS
330
FAB
102
}
330
FAB
100
AcDbScale
70
0
300
3/8" = 1'-0"
140
0.375
141
12.0
290
0
0
SCALE
5
FC6
102
{ACAD_REACTORS
330
FAB
102
}
330
FAB
100
AcDbScale
70
0
300
1/2" = 1'-0"
140
0.5
141
12.0
290
0
0
SCALE
5
FC7
102
{ACAD_REACTORS
330
FAB
102
}
330
FAB
100
AcDbScale
70
0
300
3/4" = 1'-0"
140
0.75
141
12.0
290
0
0
SCALE
5
FC8
102
{ACAD_REACTORS
330
FAB
102
}
330
FAB
100
AcDbScale
70
0
300
1" = 1'-0"
140
1.0
141
12.0
290
0
0
SCALE
5
FC9
102
{ACAD_REACTORS
330
FAB
102
}
330
FAB
100
AcDbScale
70
0
300
1-1/2" = 1'-0"
140
1.5
141
12.0
290
0
0
SCALE
5
FCA
102
{ACAD_REACTORS
330
FAB
102
}
330
FAB
100
AcDbScale
70
0
300
3" = 1'-0"
140
3.0
141
12.0
290
0
0
SCALE
5
FCB
102
{ACAD_REACTORS
330
FAB
102
}
330
FAB
100
AcDbScale
70
0
300
6" = 1'-0"
140
6.0
141
12.0
290
0
0
SCALE
5
FCC
102
{ACAD_REACTORS
330
FAB
102
}
330
FAB
100
AcDbScale
70
0
300
1'-0" = 1'-0"
140
12.0
141
12.0
290
0
0
TABLESTYLE
5
FA9
102
{ACAD_XDICTIONARY
360
FF8
102
}
102
{ACAD_REACTORS
330
FA8
102
}
330
FA8
100
AcDbTableStyle
3
Standard
70
0
71
0
40
0.06
41
0.06
280
0
281
0
7
Standard
140
0.18
170
2
62
0
63
7
283
0
274
-2
284
1
64
0
275
-2
285
1
65
0
276
-2
286
1
66
0
277
-2
287
1
67
0
278
-2
288
1
68
0
279
-2
289
1
69
0
7
Standard
140
0.25
170
5
62
0
63
7
283
0
274
-2
284
1
64
0
275
-2
285
1
65
0
276
-2
286
1
66
0
277
-2
287
1
67
0
278
-2
288
1
68
0
279
-2
289
1
69
0
7
Standard
140
0.18
170
5
62
0
63
7
283
0
274
-2
284
1
64
0
275
-2
285
1
65
0
276
-2
286
1
66
0
277
-2
287
1
67
0
278
-2
288
1
68
0
279
-2
289
1
69
0
0
VISUALSTYLE
5
F99
102
{ACAD_XDICTIONARY
360
108A
102
}
102
{ACAD_REACTORS
330
F93
102
}
330
F93
100
AcDbVisualStyle
2

70
4
71
0
72
2
73
0
90
0
40
-0.6
41
-30.0
62
5
63
7
74
1
91
4
64
7
65
257
75
1
175
1
42
1.0
92
0
66
257
43
1.0
76
1
77
6
78
2
67
7
79
5
170
0
171
0
290
0
174
0
93
1
44
0.0
173
0
291
0
45
0.0
1001
ACAD
1000
AcDbSavedByObjectVersion
1070
0
0
VISUALSTYLE
5
F9B
102
{ACAD_XDICTIONARY
360
108E
102
}
102
{ACAD_REACTORS
330
F93
102
}
330
F93
100
AcDbVisualStyle
2

70
6
71
1
72
2
73
2
90
0
40
-0.6
41
-30.0
62
5
63
7
74
2
91
2
64
7
65
257
75
2
175
1
42
179.0
92
0
66
257
43
1.0
76
1
77
6
78
2
67
7
79
3
170
0
171
0
290
0
174
0
93
1
44
0.0
173
0
291
0
45
0.0
1001
ACAD
1000
AcDbSavedByObjectVersion
1070
0
0
VISUALSTYLE
5
F9A
102
{ACAD_XDICTIONARY
360
108C
102
}
102
{ACAD_REACTORS
330
F93
102
}
330
F93
100
AcDbVisualStyle
2

70
5
71
0
72
2
73
0
90
0
40
-0.6
41
-30.0
62
5
63
7
74
1
91
4
64
7
65
257
75
1
175
1
42
1.0
92
0
66
257
43
1.0
76
1
77
6
78
2
67
7
79
5
170
0
171
0
290
0
174
0
93
1
44
0.0
173
0
291
0
45
0.0
1001
ACAD
1000
AcDbSavedByObjectVersion
1070
0
0
VISUALSTYLE
5
F98
102
{ACAD_XDICTIONARY
360
1088
102
}
102
{ACAD_REACTORS
330
F93
102
}
330
F93
100
AcDbVisualStyle
2

70
7
71
1
72
0
73
1
90
0
40
-0.6
41
-30.0
62
5
63
7
74
0
91
4
64
7
65
257
75
1
175
1
42
1.0
92
8
66
7
43
1.0
76
1
77
6
78
2
67
7
79
5
170
0
171
0
290
0
174
0
93
1
44
0.0
173
0
291
1
45
0.0
1001
ACAD
1000
AcDbSavedByObjectVersion
1070
0
0
VISUALSTYLE
5
F9F
102
{ACAD_XDICTIONARY
360
1096
102
}
102
{ACAD_REACTORS
330
F93
102
}
330
F93
100
AcDbVisualStyle
2

70
12
71
2
72
2
73
0
90
0
40
-0.6
41
-30.0
62
5
63
7
74
1
91
4
64
7
65
257
75
1
175
1
42
1.0
92
8
66
7
43
1.0
76
1
77
6
78
2
67
7
79
5
170
0
171
0
290
0
174
0
93
1
44
50.0
173
0
291
1
45
0.0
1001
ACAD
1000
AcDbSavedByObjectVersion
1070
0
0
VISUALSTYLE
5
FA3
102
{ACAD_XDICTIONARY
360
109E
102
}
102
{ACAD_REACTORS
330
F93
102
}
330
F93
100
AcDbVisualStyle
2

70
16
71
2
72
2
73
3
90
0
40
-0.6
41
-30.0
62
5
63
8
74
1
91
4
64
7
65
257
75
1
175
1
42
1.0
92
8
66
8
43
1.0
76
1
77
6
78
2
67
7
79
5
170
0
171
0
290
0
174
0
93
1
44
0.0
173
0
291
1
45
0.0
1001
ACAD
1000
AcDbSavedByObjectVersion
1070
0
0
VISUALSTYLE
5
F9C
102
{ACAD_XDICTIONARY
360
1090
102
}
102
{ACAD_REACTORS
330
F93
102
}
330
F93
100
AcDbVisualStyle
2

70
9
71
3
72
2
73
0
90
0
40
-0.6
41
-30.0
62
5
63
7
74
2
91
2
64
7
65
257
75
1
175
1
42
179.0
92
8
66
7
43
1.0
76
1
77
6
78
2
67
7
79
3
170
0
171
0
290
0
174
0
93
1
44
0.0
173
0
291
0
45
0.0
1001
ACAD
1000
AcDbSavedByObjectVersion
1070
0
0
VISUALSTYLE
5
F9E
102
{ACAD_XDICTIONARY
360
1094
102
}
102
{ACAD_REACTORS
330
F93
102
}
330
F93
100
AcDbVisualStyle
2

70
11
71
2
72
2
73
0
90
0
40
-0.6
41
-30.0
62
5
63
7
74
1
91
4
64
7
65
257
75
1
175
1
42
1.0
92
8
66
7
43
1.0
76
1
77
6
78
2
67
7
79
5
170
0
171
0
290
0
174
0
93
1
44
-50.0
173
0
291
1
45
0.0
1001
ACAD
1000
AcDbSavedByObjectVersion
1070
0
0
VISUALSTYLE
5
FA6
102
{ACAD_XDICTIONARY
360
10A4
102
}
102
{ACAD_REACTORS
330
F93
102
}
330
F93
100
AcDbVisualStyle
2

70
22
71
2
72
2
73
0
90
0
40
-0.6
41
-30.0
62
5
63
7
74
1
91
4
64
7
65
257
75
1
175
1
42
1.0
92
8
66
7
43
1.0
76
1
77
6
78
2
67
7
79
5
170
0
171
0
290
0
174
0
93
1
44
0.0
173
0
291
1
45
0.0
1001
ACAD
1000
AcDbSavedByObjectVersion
1070
0
0
VISUALSTYLE
5
FA2
102
{ACAD_XDICTIONARY
360
109C
102
}
102
{ACAD_REACTORS
330
F93
102
}
330
F93
100
AcDbVisualStyle
2

70
15
71
2
72
2
73
0
90
0
40
-0.6
41
-30.0
62
5
63
7
74
1
91
4
64
7
65
257
75
1
175
1
42
1.0
92
8
66
7
43
1.0
76
1
77
6
78
2
67
7
79
5
170
0
171
0
290
0
174
0
93
1
44
0.0
173
0
291
1
45
0.0
1001
ACAD
1000
AcDbSavedByObjectVersion
1070
0
0
VISUALSTYLE
5
F94
102
{ACAD_XDICTIONARY
360
1080
102
}
102
{ACAD_REACTORS
330
F93
102
}
330
F93
100
AcDbVisualStyle
2

70
0
71
2
72
1
73
1
90
2
40
-0.6
41
30.0
62
5
63
7
74
0
91
4
64
7
65
257
75
1
175
1
42
1.0
92
8
66
7
43
1.0
76
1
77
6
78
2
67
7
79
5
170
0
171
0
290
0
174
0
93
13
44
0.0
173
0
291
1
45
0.0
1001
ACAD
1000
AcDbSavedByObjectVersion
1070
0
0
VISUALSTYLE
5
F95
102
{ACAD_XDICTIONARY
360
1082
102
}
102
{ACAD_REACTORS
330
F93
102
}
330
F93
100
AcDbVisualStyle
2

70
1
71
2
72
1
73
1
90
2
40
-0.6
41
30.0
62
5
63
7
74
1
91
4
64
7
65
257
75
1
175
1
42
1.0
92
0
66
257
43
1.0
76
1
77
6
78
2
67
7
79
5
170
0
171
0
290
0
174
0
93
13
44
0.0
173
0
291
1
45
0.0
1001
ACAD
1000
AcDbSavedByObjectVersion
1070
0
0
VISUALSTYLE
5
F96
102
{ACAD_XDICTIONARY
360
1084
102
}
102
{ACAD_REACTORS
330
F93
102
}
330
F93
100
AcDbVisualStyle
2

70
2
71
2
72
2
73
1
90
2
40
-0.6
41
30.0
62
5
63
7
74
0
91
4
64
7
65
257
75
1
175
1
42
1.0
92
0
66
7
43
1.0
76
1
77
6
78
2
67
7
79
5
170
0
171
0
290
0
174
0
93
13
44
0.0
173
0
291
1
45
0.0
1001
ACAD
1000
AcDbSavedByObjectVersion
1070
0
0
VISUALSTYLE
5
F97
102
{ACAD_XDICTIONARY
360
1086
102
}
102
{ACAD_REACTORS
330
F93
102
}
330
F93
100
AcDbVisualStyle
2

70
3
71
2
72
2
73
1
90
2
40
-0.6
41
30.0
62
5
63
7
74
1
91
4
64
7
65
257
75
1
175
1
42
1.0
92
0
66
257
43
1.0
76
1
77
6
78
2
67
7
79
5
170
0
171
0
290
0
174
0
93
13
44
0.0
173
0
291
1
45
0.0
1001
ACAD
1000
AcDbSavedByObjectVersion
1070
0
0
VISUALSTYLE
5
FA4
102
{ACAD_XDICTIONARY
360
10A0
102
}
102
{ACAD_REACTORS
330
F93
102
}
330
F93
100
AcDbVisualStyle
2

70
20
71
2
72
2
73
0
90
0
40
-0.6
41
-30.0
62
5
63
7
74
1
91
4
64
7
65
257
75
1
175
1
42
1.0
92
10
66
7
43
1.0
76
1
77
6
78
2
67
7
79
5
170
0
171
0
290
0
174
0
93
1
44
0.0
173
0
291
1
45
0.0
1001
ACAD
1000
AcDbSavedByObjectVersion
1070
0
0
VISUALSTYLE
5
FA1
102
{ACAD_XDICTIONARY
360
109A
102
}
102
{ACAD_REACTORS
330
F93
102
}
330
F93
100
AcDbVisualStyle
2

70
14
71
2
72
2
73
0
90
0
40
-0.6
41
-30.0
62
5
63
7
74
1
91
4
64
7
65
257
75
7
175
7
42
1.0
92
8
66
7
43
1.0
76
1
77
6
78
2
67
7
79
5
170
0
171
0
290
0
174
0
93
1
44
0.0
173
0
291
1
45
0.0
1001
ACAD
1000
AcDbSavedByObjectVersion
1070
0
0
VISUALSTYLE
5
FA5
102
{ACAD_XDICTIONARY
360
10A2
102
}
102
{ACAD_REACTORS
330
F93
102
}
330
F93
100
AcDbVisualStyle
2

70
21
71
2
72
2
73
0
90
0
40
-0.6
41
-30.0
62
5
63
7
74
1
91
4
64
7
65
257
75
1
175
1
42
1.0
92
9
66
7
43
1.0
76
1
77
6
78
2
67
7
79
5
170
0
171
0
290
0
174
0
93
1
44
0.0
173
0
291
1
45
0.0
1001
ACAD
1000
AcDbSavedByObjectVersion
1070
0
0
VISUALSTYLE
5
F9D
102
{ACAD_XDICTIONARY
360
1092
102
}
102
{ACAD_REACTORS
330
F93
102
}
330
F93
100
AcDbVisualStyle
2

70
8
71
2
72
2
73
0
90
0
40
-0.6
41
-30.0
62
5
63
7
74
1
91
0
64
7
65
257
75
1
175
1
42
1.0
92
8
66
8
43
1.0
76
1
77
6
78
2
67
7
79
5
170
0
171
0
290
0
174
0
93
13
44
0.0
173
0
291
0
45
0.0
1001
ACAD
1000
AcDbSavedByObjectVersion
1070
0
0
VISUALSTYLE
5
FA0
102
{ACAD_XDICTIONARY
360
1098
102
}
102
{ACAD_REACTORS
330
F93
102
}
330
F93
100
AcDbVisualStyle
2

70
13
71
2
72
2
73
0
90
0
40
-0.6
41
-30.0
62
5
63
7
74
1
91
4
64
7
65
257
75
1
175
1
42
1.0
92
12
66
7
43
1.0
76
1
77
6
78
2
67
7
79
5
170
0
171
0
290
0
174
0
93
1
44
0.0
173
0
291
1
45
0.0
1001
ACAD
1000
AcDbSavedByObjectVersion
1070
0
0
DICTIONARYVAR
5
FF3
102
{ACAD_REACTORS
330
FF0
102
}
330
FF0
100
DictionaryVariables
280
0
1
1:1
0
DICTIONARYVAR
5
FF2
102
{ACAD_REACTORS
330
FF0
102
}
330
FF0
100
DictionaryVariables
280
0
1
STANDARD
0
DICTIONARYVAR
5
FF1
102
{ACAD_REACTORS
330
FF0
102
}
330
FF0
100
DictionaryVariables
280
0
1
STANDARD
0
DICTIONARYVAR
5
FF6
102
{ACAD_REACTORS
330
FF0
102
}
330
FF0
100
DictionaryVariables
280
0
1
1
0
DICTIONARYVAR
5
FF5
102
{ACAD_REACTORS
330
FF0
102
}
330
FF0
100
DictionaryVariables
280
0
1
0
0
DICTIONARYVAR
5
FF4
102
{ACAD_REACTORS
330
FF0
102
}
330
FF0
100
DictionaryVariables
280
0
1
127
0
DICTIONARYVAR
5
1078
102
{ACAD_REACTORS
330
FF0
102
}
330
FF0
100
DictionaryVariables
280
0
1
2
0
DICTIONARY
5
10A9
330
FD1
100
AcDbDictionary
280
1
281
1
3
ACAD_XREC_ROUNDTRIP
360
10AA
0
DICTIONARY
5
10A7
330
FD0
100
AcDbDictionary
280
1
281
1
3
ACAD_XREC_ROUNDTRIP
360
10A8
0
DICTIONARY
5
F84
330
F83
100
AcDbDictionary
280
1
281
1
3
ACAD_XREC_ROUNDTRIP
360
FFF
3
BUMPTILE
360
F86
3
DIFFUSETILE
360
F85
3
OPACITYTILE
360
F89
3
REFLECTIONTILE
360
F88
3
REFRACTIONTILE
360
F8A
3
SPECULARTILE
360
F87
0
DICTIONARY
5
F7C
330
F7B
100
AcDbDictionary
280
1
281
1
3
ACAD_XREC_ROUNDTRIP
360
FFE
3
BUMPTILE
360
F7E
3
DIFFUSETILE
360
F7D
3
OPACITYTILE
360
F81
3
REFLECTIONTILE
360
F80
3
REFRACTIONTILE
360
F82
3
SPECULARTILE
360
F7F
0
DICTIONARY
5
F8C
330
F8B
100
AcDbDictionary
280
1
281
1
3
ACAD_XREC_ROUNDTRIP
360
1000
3
BUMPTILE
360
F8E
3
DIFFUSETILE
360
F8D
3
OPACITYTILE
360
F91
3
REFLECTIONTILE
360
F90
3
REFRACTIONTILE
360
F92
3
SPECULARTILE
360
F8F
0
DICTIONARY
5
FF8
330
FA9
100
AcDbDictionary
280
1
281
1
3
ACAD_ROUNDTRIP_2008_TABLESTYLE_CELLSTYLEMAP
360
1079
3
ACAD_XREC_ROUNDTRIP
360
10A6
0
DICTIONARY
5
108A
330
F99
100
AcDbDictionary
280
1
281
1
3
ACAD_XREC_ROUNDTRIP
360
108B
0
DICTIONARY
5
108E
330
F9B
100
AcDbDictionary
280
1
281
1
3
ACAD_XREC_ROUNDTRIP
360
108F
0
DICTIONARY
5
108C
330
F9A
100
AcDbDictionary
280
1
281
1
3
ACAD_XREC_ROUNDTRIP
360
108D
0
DICTIONARY
5
1088
330
F98
100
AcDbDictionary
280
1
281
1
3
ACAD_XREC_ROUNDTRIP
360
1089
0
DICTIONARY
5
1096
330
F9F
100
AcDbDictionary
280
1
281
1
3
ACAD_XREC_ROUNDTRIP
360
1097
0
DICTIONARY
5
109E
330
FA3
100
AcDbDictionary
280
1
281
1
3
ACAD_XREC_ROUNDTRIP
360
109F
0
DICTIONARY
5
1090
330
F9C
100
AcDbDictionary
280
1
281
1
3
ACAD_XREC_ROUNDTRIP
360
1091
0
DICTIONARY
5
1094
330
F9E
100
AcDbDictionary
280
1
281
1
3
ACAD_XREC_ROUNDTRIP
360
1095
0
DICTIONARY
5
10A4
330
FA6
100
AcDbDictionary
280
1
281
1
3
ACAD_XREC_ROUNDTRIP
360
10A5
0
DICTIONARY
5
109C
330
FA2
100
AcDbDictionary
280
1
281
1
3
ACAD_XREC_ROUNDTRIP
360
109D
0
DICTIONARY
5
1080
330
F94
100
AcDbDictionary
280
1
281
1
3
ACAD_XREC_ROUNDTRIP
360
1081
0
DICTIONARY
5
1082
330
F95
100
AcDbDictionary
280
1
281
1
3
ACAD_XREC_ROUNDTRIP
360
1083
0
DICTIONARY
5
1084
330
F96
100
AcDbDictionary
280
1
281
1
3
ACAD_XREC_ROUNDTRIP
360
1085
0
DICTIONARY
5
1086
330
F97
100
AcDbDictionary
280
1
281
1
3
ACAD_XREC_ROUNDTRIP
360
1087
0
DICTIONARY
5
10A0
330
FA4
100
AcDbDictionary
280
1
281
1
3
ACAD_XREC_ROUNDTRIP
360
10A1
0
DICTIONARY
5
109A
330
FA1
100
AcDbDictionary
280
1
281
1
3
ACAD_XREC_ROUNDTRIP
360
109B
0
DICTIONARY
5
10A2
330
FA5
100
AcDbDictionary
280
1
281
1
3
ACAD_XREC_ROUNDTRIP
360
10A3
0
DICTIONARY
5
1092
330
F9D
100
AcDbDictionary
280
1
281
1
3
ACAD_XREC_ROUNDTRIP
360
1093
0
DICTIONARY
5
1098
330
FA0
100
AcDbDictionary
280
1
281
1
3
ACAD_XREC_ROUNDTRIP
360
1099
0
XRECORD
5
10AA
102
{ACAD_REACTORS
330
10A9
102
}
330
10A9
100
AcDbXrecord
280
1
102
SHADEPLOT
70
0
102
SHADEPLOTRESLEVEL
70
2
102
SHADEPLOTCUSTOMDPI
70
300
0
XRECORD
5
10A8
102
{ACAD_REACTORS
330
10A7
102
}
330
10A7
100
AcDbXrecord
280
1
102
SHADEPLOT
70
0
102
SHADEPLOTRESLEVEL
70
2
102
SHADEPLOTCUSTOMDPI
70
300
0
XRECORD
5
FFF
102
{ACAD_REACTORS
330
F84
102
}
330
F84
100
AcDbXrecord
280
1
102
MATERIAL
148
0.0
149
0.0
149
0.0
93
0
94
127
282
0
72
0
77
0
171
0
175
0
179
0
273
0
0
XRECORD
5
F86
102
{ACAD_REACTORS
330
F84
102
}
330
F84
100
AcDbXrecord
280
1
270
1
271
1
0
XRECORD
5
F85
102
{ACAD_REACTORS
330
F84
102
}
330
F84
100
AcDbXrecord
280
1
270
1
271
1
0
XRECORD
5
F89
102
{ACAD_REACTORS
330
F84
102
}
330
F84
100
AcDbXrecord
280
1
270
1
271
1
0
XRECORD
5
F88
102
{ACAD_REACTORS
330
F84
102
}
330
F84
100
AcDbXrecord
280
1
270
1
271
1
0
XRECORD
5
F8A
102
{ACAD_REACTORS
330
F84
102
}
330
F84
100
AcDbXrecord
280
1
270
1
271
1
0
XRECORD
5
F87
102
{ACAD_REACTORS
330
F84
102
}
330
F84
100
AcDbXrecord
280
1
270
1
271
1
0
XRECORD
5
FFE
102
{ACAD_REACTORS
330
F7C
102
}
330
F7C
100
AcDbXrecord
280
1
102
MATERIAL
148
0.0
149
0.0
149
0.0
93
0
94
127
282
0
72
0
77
0
171
0
175
0
179
0
273
0
0
XRECORD
5
F7E
102
{ACAD_REACTORS
330
F7C
102
}
330
F7C
100
AcDbXrecord
280
1
270
1
271
1
0
XRECORD
5
F7D
102
{ACAD_REACTORS
330
F7C
102
}
330
F7C
100
AcDbXrecord
280
1
270
1
271
1
0
XRECORD
5
F81
102
{ACAD_REACTORS
330
F7C
102
}
330
F7C
100
AcDbXrecord
280
1
270
1
271
1
0
XRECORD
5
F80
102
{ACAD_REACTORS
330
F7C
102
}
330
F7C
100
AcDbXrecord
280
1
270
1
271
1
0
XRECORD
5
F82
102
{ACAD_REACTORS
330
F7C
102
}
330
F7C
100
AcDbXrecord
280
1
270
1
271
1
0
XRECORD
5
F7F
102
{ACAD_REACTORS
330
F7C
102
}
330
F7C
100
AcDbXrecord
280
1
270
1
271
1
0
XRECORD
5
1000
102
{ACAD_REACTORS
330
F8C
102
}
330
F8C
100
AcDbXrecord
280
1
102
MATERIAL
148
0.0
149
0.0
149
0.0
93
0
94
127
282
0
72
0
77
0
171
0
175
0
179
0
273
0
0
XRECORD
5
F8E
102
{ACAD_REACTORS
330
F8C
102
}
330
F8C
100
AcDbXrecord
280
1
270
1
271
1
0
XRECORD
5
F8D
102
{ACAD_REACTORS
330
F8C
102
}
330
F8C
100
AcDbXrecord
280
1
270
1
271
1
0
XRECORD
5
F91
102
{ACAD_REACTORS
330
F8C
102
}
330
F8C
100
AcDbXrecord
280
1
270
1
271
1
0
XRECORD
5
F90
102
{ACAD_REACTORS
330
F8C
102
}
330
F8C
100
AcDbXrecord
280
1
270
1
271
1
0
XRECORD
5
F92
102
{ACAD_REACTORS
330
F8C
102
}
330
F8C
100
AcDbXrecord
280
1
270
1
271
1
0
XRECORD
5
F8F
102
{ACAD_REACTORS
330
F8C
102
}
330
F8C
100
AcDbXrecord
280
1
270
1
271
1
0
CELLSTYLEMAP
5
1079
102
{ACAD_REACTORS
330
FF8
102
}
330
FF8
100
AcDbCellStyleMap
90
3
300
CELLSTYLE
1
TABLEFORMAT_BEGIN
90
5
170
1
91
0
92
32768
62
257
93
1
300
CONTENTFORMAT
1
CONTENTFORMAT_BEGIN
90
0
91
0
92
512
93
0
300

40
0.0
140
1.0
94
5
62
0
340
253
144
0.25
309
CONTENTFORMAT_END
171
1
301
MARGIN
1
CELLMARGIN_BEGIN
40
0.06
40
0.06
40
0.06
40
0.06
40
0.18
40
0.18
309
CELLMARGIN_END
94
6
95
1
302
GRIDFORMAT
1
GRIDFORMAT_BEGIN
90
0
91
1
62
0
92
-2
340
0
93
0
40
0.045
309
GRIDFORMAT_END
95
2
302
GRIDFORMAT
1
GRIDFORMAT_BEGIN
90
0
91
1
62
0
92
-2
340
0
93
0
40
0.045
309
GRIDFORMAT_END
95
4
302
GRIDFORMAT
1
GRIDFORMAT_BEGIN
90
0
91
1
62
0
92
-2
340
0
93
0
40
0.045
309
GRIDFORMAT_END
95
8
302
GRIDFORMAT
1
GRIDFORMAT_BEGIN
90
0
91
1
62
0
92
-2
340
0
93
0
40
0.045
309
GRIDFORMAT_END
95
16
302
GRIDFORMAT
1
GRIDFORMAT_BEGIN
90
0
91
1
62
0
92
-2
340
0
93
0
40
0.045
309
GRIDFORMAT_END
95
32
302
GRIDFORMAT
1
GRIDFORMAT_BEGIN
90
0
91
1
62
0
92
-2
340
0
93
0
40
0.045
309
GRIDFORMAT_END
309
TABLEFORMAT_END
1
CELLSTYLE_BEGIN
90
1
91
1
300
_TITLE
309
CELLSTYLE_END
300
CELLSTYLE
1
TABLEFORMAT_BEGIN
90
5
170
1
91
0
92
0
62
257
93
1
300
CONTENTFORMAT
1
CONTENTFORMAT_BEGIN
90
0
91
0
92
512
93
0
300

40
0.0
140
1.0
94
5
62
0
340
253
144
0.18
309
CONTENTFORMAT_END
171
1
301
MARGIN
1
CELLMARGIN_BEGIN
40
0.06
40
0.06
40
0.06
40
0.06
40
0.18
40
0.18
309
CELLMARGIN_END
94
6
95
1
302
GRIDFORMAT
1
GRIDFORMAT_BEGIN
90
0
91
1
62
0
92
-2
340
0
93
0
40
0.045
309
GRIDFORMAT_END
95
2
302
GRIDFORMAT
1
GRIDFORMAT_BEGIN
90
0
91
1
62
0
92
-2
340
0
93
0
40
0.045
309
GRIDFORMAT_END
95
4
302
GRIDFORMAT
1
GRIDFORMAT_BEGIN
90
0
91
1
62
0
92
-2
340
0
93
0
40
0.045
309
GRIDFORMAT_END
95
8
302
GRIDFORMAT
1
GRIDFORMAT_BEGIN
90
0
91
1
62
0
92
-2
340
0
93
0
40
0.045
309
GRIDFORMAT_END
95
16
302
GRIDFORMAT
1
GRIDFORMAT_BEGIN
90
0
91
1
62
0
92
-2
340
0
93
0
40
0.045
309
GRIDFORMAT_END
95
32
302
GRIDFORMAT
1
GRIDFORMAT_BEGIN
90
0
91
1
62
0
92
-2
340
0
93
0
40
0.045
309
GRIDFORMAT_END
309
TABLEFORMAT_END
1
CELLSTYLE_BEGIN
90
2
91
1
300
_HEADER
309
CELLSTYLE_END
300
CELLSTYLE
1
TABLEFORMAT_BEGIN
90
5
170
1
91
0
92
0
62
257
93
1
300
CONTENTFORMAT
1
CONTENTFORMAT_BEGIN
90
0
91
0
92
512
93
0
300

40
0.0
140
1.0
94
2
62
0
340
253
144
0.18
309
CONTENTFORMAT_END
171
1
301
MARGIN
1
CELLMARGIN_BEGIN
40
0.06
40
0.06
40
0.06
40
0.06
40
0.18
40
0.18
309
CELLMARGIN_END
94
6
95
1
302
GRIDFORMAT
1
GRIDFORMAT_BEGIN
90
0
91
1
62
0
92
-2
340
0
93
0
40
0.045
309
GRIDFORMAT_END
95
2
302
GRIDFORMAT
1
GRIDFORMAT_BEGIN
90
0
91
1
62
0
92
-2
340
0
93
0
40
0.045
309
GRIDFORMAT_END
95
4
302
GRIDFORMAT
1
GRIDFORMAT_BEGIN
90
0
91
1
62
0
92
-2
340
0
93
0
40
0.045
309
GRIDFORMAT_END
95
8
302
GRIDFORMAT
1
GRIDFORMAT_BEGIN
90
0
91
1
62
0
92
-2
340
0
93
0
40
0.045
309
GRIDFORMAT_END
95
16
302
GRIDFORMAT
1
GRIDFORMAT_BEGIN
90
0
91
1
62
0
92
-2
340
0
93
0
40
0.045
309
GRIDFORMAT_END
95
32
302
GRIDFORMAT
1
GRIDFORMAT_BEGIN
90
0
91
1
62
0
92
-2
340
0
93
0
40
0.045
309
GRIDFORMAT_END
309
TABLEFORMAT_END
1
CELLSTYLE_BEGIN
90
3
91
2
300
_DATA
309
CELLSTYLE_END
0
XRECORD
5
10A6
102
{ACAD_REACTORS
330
FF8
102
}
330
FF8
100
AcDbXrecord
280
1
102
ACAD_ROUNDTRIP_PRE2007_TABLESTYLE
90
512
91
0
1

92
512
93
0
2

94
512
95
0
3

0
XRECORD
5
108B
102
{ACAD_REACTORS
330
108A
102
}
330
108A
100
AcDbXrecord
280
1
102
RTVSPropertyOp0
70
1
102
RTVSPropertyOp1
70
1
102
RTVSPropertyOp2
70
1
102
RTVSPropertyOp3
70
1
102
RTVSPropertyOp4
70
1
102
RTVSPropertyOp5
70
1
102
RTVSPropertyOp6
70
1
102
RTVSPropertyOp7
70
1
102
RTVSPropertyOp8
70
1
102
RTVSPropertyOp9
70
1
102
RTVSPropertyOp10
70
1
102
RTVSPropertyOp11
70
1
102
RTVSPropertyOp12
70
1
102
RTVSPropertyOp13
70
1
102
RTVSPropertyOp14
70
1
102
RTVSPropertyOp15
70
1
102
RTVSPropertyOp16
70
1
102
RTVSPropertyOp17
70
1
102
RTVSPropertyOp18
70
1
102
RTVSPropertyOp19
70
1
102
RTVSPropertyOp20
70
1
102
RTVSPropertyOp21
70
1
102
RTVSPropertyOp22
70
1
102
RTVSPropertyOp23
70
1
102
RTVSPropertyOp24
70
1
102
RTVSPropertyOp25
70
1
102
RTVSPropertyOp26
70
1
102
RTVSPropertyOp27
70
1
0
XRECORD
5
108F
102
{ACAD_REACTORS
330
108E
102
}
330
108E
100
AcDbXrecord
280
1
102
RTVSPropertyOp0
70
1
102
RTVSPropertyOp1
70
1
102
RTVSPropertyOp2
70
1
102
RTVSPropertyOp3
70
1
102
RTVSPropertyOp4
70
1
102
RTVSPropertyOp5
70
1
102
RTVSPropertyOp6
70
1
102
RTVSPropertyOp7
70
1
102
RTVSPropertyOp8
70
1
102
RTVSPropertyOp9
70
1
102
RTVSPropertyOp10
70
1
102
RTVSPropertyOp11
70
1
102
RTVSPropertyOp12
70
1
102
RTVSPropertyOp13
70
1
102
RTVSPropertyOp14
70
1
102
RTVSPropertyOp15
70
1
102
RTVSPropertyOp16
70
1
102
RTVSPropertyOp17
70
1
102
RTVSPropertyOp18
70
1
102
RTVSPropertyOp19
70
1
102
RTVSPropertyOp20
70
1
102
RTVSPropertyOp21
70
1
102
RTVSPropertyOp22
70
1
102
RTVSPropertyOp23
70
1
102
RTVSPropertyOp24
70
1
102
RTVSPropertyOp25
70
1
102
RTVSPropertyOp26
70
1
102
RTVSPropertyOp27
70
1
0
XRECORD
5
108D
102
{ACAD_REACTORS
330
108C
102
}
330
108C
100
AcDbXrecord
280
1
102
RTVSPropertyOp0
70
1
102
RTVSPropertyOp1
70
1
102
RTVSPropertyOp2
70
1
102
RTVSPropertyOp3
70
1
102
RTVSPropertyOp4
70
1
102
RTVSPropertyOp5
70
1
102
RTVSPropertyOp6
70
1
102
RTVSPropertyOp7
70
1
102
RTVSPropertyOp8
70
1
102
RTVSPropertyOp9
70
1
102
RTVSPropertyOp10
70
1
102
RTVSPropertyOp11
70
1
102
RTVSPropertyOp12
70
1
102
RTVSPropertyOp13
70
1
102
RTVSPropertyOp14
70
1
102
RTVSPropertyOp15
70
1
102
RTVSPropertyOp16
70
1
102
RTVSPropertyOp17
70
1
102
RTVSPropertyOp18
70
1
102
RTVSPropertyOp19
70
1
102
RTVSPropertyOp20
70
1
102
RTVSPropertyOp21
70
1
102
RTVSPropertyOp22
70
1
102
RTVSPropertyOp23
70
1
102
RTVSPropertyOp24
70
1
102
RTVSPropertyOp25
70
1
102
RTVSPropertyOp26
70
1
102
RTVSPropertyOp27
70
1
0
XRECORD
5
1089
102
{ACAD_REACTORS
330
1088
102
}
330
1088
100
AcDbXrecord
280
1
102
RTVSPropertyOp0
70
1
102
RTVSPropertyOp1
70
1
102
RTVSPropertyOp2
70
1
102
RTVSPropertyOp3
70
1
102
RTVSPropertyOp4
70
1
102
RTVSPropertyOp5
70
1
102
RTVSPropertyOp6
70
1
102
RTVSPropertyOp7
70
1
102
RTVSPropertyOp8
70
1
102
RTVSPropertyOp9
70
1
102
RTVSPropertyOp10
70
1
102
RTVSPropertyOp11
70
1
102
RTVSPropertyOp12
70
1
102
RTVSPropertyOp13
70
1
102
RTVSPropertyOp14
70
1
102
RTVSPropertyOp15
70
1
102
RTVSPropertyOp16
70
1
102
RTVSPropertyOp17
70
1
102
RTVSPropertyOp18
70
1
102
RTVSPropertyOp19
70
1
102
RTVSPropertyOp20
70
1
102
RTVSPropertyOp21
70
1
102
RTVSPropertyOp22
70
1
102
RTVSPropertyOp23
70
1
102
RTVSPropertyOp24
70
1
102
RTVSPropertyOp25
70
1
102
RTVSPropertyOp26
70
1
102
RTVSPropertyOp27
70
1
0
XRECORD
5
1097
102
{ACAD_REACTORS
330
1096
102
}
330
1096
100
AcDbXrecord
280
1
102
RTVSPropertyOp0
70
1
102
RTVSPropertyOp1
70
1
102
RTVSPropertyOp2
70
1
102
RTVSPropertyOp3
70
1
102
RTVSPropertyOp4
70
1
102
RTVSPropertyOp5
70
1
102
RTVSPropertyOp6
70
1
102
RTVSPropertyOp7
70
1
102
RTVSPropertyOp8
70
1
102
RTVSPropertyOp9
70
1
102
RTVSPropertyOp10
70
1
102
RTVSPropertyOp11
70
1
102
RTVSPropertyOp12
70
1
102
RTVSPropertyOp13
70
1
102
RTVSPropertyOp14
70
1
102
RTVSPropertyOp15
70
1
102
RTVSPropertyOp16
70
1
102
RTVSPropertyOp17
70
1
102
RTVSPropertyOp18
70
1
102
RTVSPropertyOp19
70
1
102
RTVSPropertyOp20
70
1
102
RTVSPropertyOp21
70
1
102
RTVSPropertyOp22
70
1
102
RTVSPropertyOp23
70
1
102
RTVSPropertyOp24
70
1
102
RTVSPropertyOp25
70
1
102
RTVSPropertyOp26
70
1
102
RTVSPropertyOp27
70
1
0
XRECORD
5
109F
102
{ACAD_REACTORS
330
109E
102
}
330
109E
100
AcDbXrecord
280
1
102
RTVSPropertyOp0
70
1
102
RTVSPropertyOp1
70
1
102
RTVSPropertyOp2
70
1
102
RTVSPropertyOp3
70
1
102
RTVSPropertyOp4
70
1
102
RTVSPropertyOp5
70
1
102
RTVSPropertyOp6
70
1
102
RTVSPropertyOp7
70
1
102
RTVSPropertyOp8
70
1
102
RTVSPropertyOp9
70
1
102
RTVSPropertyOp10
70
1
102
RTVSPropertyOp11
70
1
102
RTVSPropertyOp12
70
1
102
RTVSPropertyOp13
70
1
102
RTVSPropertyOp14
70
1
102
RTVSPropertyOp15
70
1
102
RTVSPropertyOp16
70
1
102
RTVSPropertyOp17
70
1
102
RTVSPropertyOp18
70
1
102
RTVSPropertyOp19
70
1
102
RTVSPropertyOp20
70
1
102
RTVSPropertyOp21
70
1
102
RTVSPropertyOp22
70
1
102
RTVSPropertyOp23
70
1
102
RTVSPropertyOp24
70
1
102
RTVSPropertyOp25
70
1
102
RTVSPropertyOp26
70
1
102
RTVSPropertyOp27
70
1
0
XRECORD
5
1091
102
{ACAD_REACTORS
330
1090
102
}
330
1090
100
AcDbXrecord
280
1
102
RTVSPropertyOp0
70
1
102
RTVSPropertyOp1
70
1
102
RTVSPropertyOp2
70
1
102
RTVSPropertyOp3
70
1
102
RTVSPropertyOp4
70
1
102
RTVSPropertyOp5
70
1
102
RTVSPropertyOp6
70
1
102
RTVSPropertyOp7
70
1
102
RTVSPropertyOp8
70
1
102
RTVSPropertyOp9
70
1
102
RTVSPropertyOp10
70
1
102
RTVSPropertyOp11
70
1
102
RTVSPropertyOp12
70
1
102
RTVSPropertyOp13
70
1
102
RTVSPropertyOp14
70
1
102
RTVSPropertyOp15
70
1
102
RTVSPropertyOp16
70
1
102
RTVSPropertyOp17
70
1
102
RTVSPropertyOp18
70
1
102
RTVSPropertyOp19
70
1
102
RTVSPropertyOp20
70
1
102
RTVSPropertyOp21
70
1
102
RTVSPropertyOp22
70
1
102
RTVSPropertyOp23
70
1
102
RTVSPropertyOp24
70
1
102
RTVSPropertyOp25
70
1
102
RTVSPropertyOp26
70
1
102
RTVSPropertyOp27
70
1
0
XRECORD
5
1095
102
{ACAD_REACTORS
330
1094
102
}
330
1094
100
AcDbXrecord
280
1
102
RTVSPropertyOp0
70
1
102
RTVSPropertyOp1
70
1
102
RTVSPropertyOp2
70
1
102
RTVSPropertyOp3
70
1
102
RTVSPropertyOp4
70
1
102
RTVSPropertyOp5
70
1
102
RTVSPropertyOp6
70
1
102
RTVSPropertyOp7
70
1
102
RTVSPropertyOp8
70
1
102
RTVSPropertyOp9
70
1
102
RTVSPropertyOp10
70
1
102
RTVSPropertyOp11
70
1
102
RTVSPropertyOp12
70
1
102
RTVSPropertyOp13
70
1
102
RTVSPropertyOp14
70
1
102
RTVSPropertyOp15
70
1
102
RTVSPropertyOp16
70
1
102
RTVSPropertyOp17
70
1
102
RTVSPropertyOp18
70
1
102
RTVSPropertyOp19
70
1
102
RTVSPropertyOp20
70
1
102
RTVSPropertyOp21
70
1
102
RTVSPropertyOp22
70
1
102
RTVSPropertyOp23
70
1
102
RTVSPropertyOp24
70
1
102
RTVSPropertyOp25
70
1
102
RTVSPropertyOp26
70
1
102
RTVSPropertyOp27
70
1
0
XRECORD
5
10A5
102
{ACAD_REACTORS
330
10A4
102
}
330
10A4
100
AcDbXrecord
280
1
102
RTVSPropertyOp0
70
0
102
RTVSPropertyOp1
70
0
102
RTVSPropertyOp2
70
0
102
RTVSPropertyOp3
70
0
102
RTVSPropertyOp4
70
0
102
RTVSPropertyOp5
70
0
102
RTVSPropertyOp6
70
0
102
RTVSPropertyOp7
70
0
102
RTVSPropertyOp8
70
0
102
RTVSPropertyOp9
70
0
102
RTVSPropertyOp10
70
0
102
RTVSPropertyOp11
70
0
102
RTVSPropertyOp12
70
0
102
RTVSPropertyOp13
70
0
102
RTVSPropertyOp14
70
2
102
RTVSPropertyOp15
70
0
102
RTVSPropertyOp16
70
0
102
RTVSPropertyOp17
70
0
102
RTVSPropertyOp18
70
0
102
RTVSPropertyOp19
70
0
102
RTVSPropertyOp20
70
0
102
RTVSPropertyOp21
70
0
102
RTVSPropertyOp22
70
0
102
RTVSPropertyOp23
70
0
102
RTVSPropertyOp24
70
0
102
RTVSPropertyOp25
70
0
102
RTVSPropertyOp26
70
0
102
RTVSPropertyOp27
70
0
0
XRECORD
5
109D
102
{ACAD_REACTORS
330
109C
102
}
330
109C
100
AcDbXrecord
280
1
102
RTVSPropertyOp0
70
1
102
RTVSPropertyOp1
70
1
102
RTVSPropertyOp2
70
1
102
RTVSPropertyOp3
70
1
102
RTVSPropertyOp4
70
1
102
RTVSPropertyOp5
70
1
102
RTVSPropertyOp6
70
1
102
RTVSPropertyOp7
70
1
102
RTVSPropertyOp8
70
1
102
RTVSPropertyOp9
70
1
102
RTVSPropertyOp10
70
1
102
RTVSPropertyOp11
70
1
102
RTVSPropertyOp12
70
1
102
RTVSPropertyOp13
70
1
102
RTVSPropertyOp14
70
1
102
RTVSPropertyOp15
70
1
102
RTVSPropertyOp16
70
1
102
RTVSPropertyOp17
70
1
102
RTVSPropertyOp18
70
1
102
RTVSPropertyOp19
70
1
102
RTVSPropertyOp20
70
1
102
RTVSPropertyOp21
70
1
102
RTVSPropertyOp22
70
1
102
RTVSPropertyOp23
70
1
102
RTVSPropertyOp24
70
1
102
RTVSPropertyOp25
70
1
102
RTVSPropertyOp26
70
1
102
RTVSPropertyOp27
70
1
0
XRECORD
5
1081
102
{ACAD_REACTORS
330
1080
102
}
330
1080
100
AcDbXrecord
280
1
102
RTVSPropertyOp0
70
1
102
RTVSPropertyOp1
70
1
102
RTVSPropertyOp2
70
1
102
RTVSPropertyOp3
70
1
102
RTVSPropertyOp4
70
1
102
RTVSPropertyOp5
70
1
102
RTVSPropertyOp6
70
1
102
RTVSPropertyOp7
70
1
102
RTVSPropertyOp8
70
1
102
RTVSPropertyOp9
70
1
102
RTVSPropertyOp10
70
1
102
RTVSPropertyOp11
70
1
102
RTVSPropertyOp12
70
1
102
RTVSPropertyOp13
70
1
102
RTVSPropertyOp14
70
1
102
RTVSPropertyOp15
70
1
102
RTVSPropertyOp16
70
1
102
RTVSPropertyOp17
70
1
102
RTVSPropertyOp18
70
1
102
RTVSPropertyOp19
70
1
102
RTVSPropertyOp20
70
1
102
RTVSPropertyOp21
70
1
102
RTVSPropertyOp22
70
1
102
RTVSPropertyOp23
70
1
102
RTVSPropertyOp24
70
1
102
RTVSPropertyOp25
70
1
102
RTVSPropertyOp26
70
1
102
RTVSPropertyOp27
70
1
0
XRECORD
5
1083
102
{ACAD_REACTORS
330
1082
102
}
330
1082
100
AcDbXrecord
280
1
102
RTVSPropertyOp0
70
1
102
RTVSPropertyOp1
70
1
102
RTVSPropertyOp2
70
1
102
RTVSPropertyOp3
70
1
102
RTVSPropertyOp4
70
1
102
RTVSPropertyOp5
70
1
102
RTVSPropertyOp6
70
1
102
RTVSPropertyOp7
70
1
102
RTVSPropertyOp8
70
1
102
RTVSPropertyOp9
70
1
102
RTVSPropertyOp10
70
1
102
RTVSPropertyOp11
70
1
102
RTVSPropertyOp12
70
1
102
RTVSPropertyOp13
70
1
102
RTVSPropertyOp14
70
1
102
RTVSPropertyOp15
70
1
102
RTVSPropertyOp16
70
1
102
RTVSPropertyOp17
70
1
102
RTVSPropertyOp18
70
1
102
RTVSPropertyOp19
70
1
102
RTVSPropertyOp20
70
1
102
RTVSPropertyOp21
70
1
102
RTVSPropertyOp22
70
1
102
RTVSPropertyOp23
70
1
102
RTVSPropertyOp24
70
1
102
RTVSPropertyOp25
70
1
102
RTVSPropertyOp26
70
1
102
RTVSPropertyOp27
70
1
0
XRECORD
5
1085
102
{ACAD_REACTORS
330
1084
102
}
330
1084
100
AcDbXrecord
280
1
102
RTVSPropertyOp0
70
1
102
RTVSPropertyOp1
70
1
102
RTVSPropertyOp2
70
1
102
RTVSPropertyOp3
70
1
102
RTVSPropertyOp4
70
1
102
RTVSPropertyOp5
70
1
102
RTVSPropertyOp6
70
1
102
RTVSPropertyOp7
70
1
102
RTVSPropertyOp8
70
1
102
RTVSPropertyOp9
70
1
102
RTVSPropertyOp10
70
1
102
RTVSPropertyOp11
70
1
102
RTVSPropertyOp12
70
1
102
RTVSPropertyOp13
70
1
102
RTVSPropertyOp14
70
1
102
RTVSPropertyOp15
70
1
102
RTVSPropertyOp16
70
1
102
RTVSPropertyOp17
70
1
102
RTVSPropertyOp18
70
1
102
RTVSPropertyOp19
70
1
102
RTVSPropertyOp20
70
1
102
RTVSPropertyOp21
70
1
102
RTVSPropertyOp22
70
1
102
RTVSPropertyOp23
70
1
102
RTVSPropertyOp24
70
1
102
RTVSPropertyOp25
70
1
102
RTVSPropertyOp26
70
1
102
RTVSPropertyOp27
70
1
0
XRECORD
5
1087
102
{ACAD_REACTORS
330
1086
102
}
330
1086
100
AcDbXrecord
280
1
102
RTVSPropertyOp0
70
1
102
RTVSPropertyOp1
70
1
102
RTVSPropertyOp2
70
1
102
RTVSPropertyOp3
70
1
102
RTVSPropertyOp4
70
1
102
RTVSPropertyOp5
70
1
102
RTVSPropertyOp6
70
1
102
RTVSPropertyOp7
70
1
102
RTVSPropertyOp8
70
1
102
RTVSPropertyOp9
70
1
102
RTVSPropertyOp10
70
1
102
RTVSPropertyOp11
70
1
102
RTVSPropertyOp12
70
1
102
RTVSPropertyOp13
70
1
102
RTVSPropertyOp14
70
1
102
RTVSPropertyOp15
70
1
102
RTVSPropertyOp16
70
1
102
RTVSPropertyOp17
70
1
102
RTVSPropertyOp18
70
1
102
RTVSPropertyOp19
70
1
102
RTVSPropertyOp20
70
1
102
RTVSPropertyOp21
70
1
102
RTVSPropertyOp22
70
1
102
RTVSPropertyOp23
70
1
102
RTVSPropertyOp24
70
1
102
RTVSPropertyOp25
70
1
102
RTVSPropertyOp26
70
1
102
RTVSPropertyOp27
70
1
0
XRECORD
5
10A1
102
{ACAD_REACTORS
330
10A0
102
}
330
10A0
100
AcDbXrecord
280
1
102
RTVSPropertyOp0
70
0
102
RTVSPropertyOp1
70
0
102
RTVSPropertyOp2
70
0
102
RTVSPropertyOp3
70
0
102
RTVSPropertyOp4
70
0
102
RTVSPropertyOp5
70
0
102
RTVSPropertyOp6
70
0
102
RTVSPropertyOp7
70
0
102
RTVSPropertyOp8
70
0
102
RTVSPropertyOp9
70
0
102
RTVSPropertyOp10
70
0
102
RTVSPropertyOp11
70
0
102
RTVSPropertyOp12
70
0
102
RTVSPropertyOp13
70
0
102
RTVSPropertyOp14
70
2
102
RTVSPropertyOp15
70
0
102
RTVSPropertyOp16
70
0
102
RTVSPropertyOp17
70
0
102
RTVSPropertyOp18
70
0
102
RTVSPropertyOp19
70
0
102
RTVSPropertyOp20
70
0
102
RTVSPropertyOp21
70
0
102
RTVSPropertyOp22
70
0
102
RTVSPropertyOp23
70
0
102
RTVSPropertyOp24
70
0
102
RTVSPropertyOp25
70
0
102
RTVSPropertyOp26
70
0
102
RTVSPropertyOp27
70
0
0
XRECORD
5
109B
102
{ACAD_REACTORS
330
109A
102
}
330
109A
100
AcDbXrecord
280
1
102
RTVSPropertyOp0
70
1
102
RTVSPropertyOp1
70
1
102
RTVSPropertyOp2
70
1
102
RTVSPropertyOp3
70
1
102
RTVSPropertyOp4
70
1
102
RTVSPropertyOp5
70
1
102
RTVSPropertyOp6
70
1
102
RTVSPropertyOp7
70
1
102
RTVSPropertyOp8
70
1
102
RTVSPropertyOp9
70
1
102
RTVSPropertyOp10
70
1
102
RTVSPropertyOp11
70
1
102
RTVSPropertyOp12
70
1
102
RTVSPropertyOp13
70
1
102
RTVSPropertyOp14
70
1
102
RTVSPropertyOp15
70
1
102
RTVSPropertyOp16
70
1
102
RTVSPropertyOp17
70
1
102
RTVSPropertyOp18
70
1
102
RTVSPropertyOp19
70
1
102
RTVSPropertyOp20
70
1
102
RTVSPropertyOp21
70
1
102
RTVSPropertyOp22
70
1
102
RTVSPropertyOp23
70
1
102
RTVSPropertyOp24
70
1
102
RTVSPropertyOp25
70
1
102
RTVSPropertyOp26
70
1
102
RTVSPropertyOp27
70
1
0
XRECORD
5
10A3
102
{ACAD_REACTORS
330
10A2
102
}
330
10A2
100
AcDbXrecord
280
1
102
RTVSPropertyOp0
70
0
102
RTVSPropertyOp1
70
0
102
RTVSPropertyOp2
70
0
102
RTVSPropertyOp3
70
0
102
RTVSPropertyOp4
70
0
102
RTVSPropertyOp5
70
0
102
RTVSPropertyOp6
70
0
102
RTVSPropertyOp7
70
0
102
RTVSPropertyOp8
70
0
102
RTVSPropertyOp9
70
0
102
RTVSPropertyOp10
70
0
102
RTVSPropertyOp11
70
0
102
RTVSPropertyOp12
70
0
102
RTVSPropertyOp13
70
0
102
RTVSPropertyOp14
70
2
102
RTVSPropertyOp15
70
0
102
RTVSPropertyOp16
70
0
102
RTVSPropertyOp17
70
0
102
RTVSPropertyOp18
70
0
102
RTVSPropertyOp19
70
0
102
RTVSPropertyOp20
70
0
102
RTVSPropertyOp21
70
0
102
RTVSPropertyOp22
70
0
102
RTVSPropertyOp23
70
0
102
RTVSPropertyOp24
70
0
102
RTVSPropertyOp25
70
0
102
RTVSPropertyOp26
70
0
102
RTVSPropertyOp27
70
0
0
XRECORD
5
1093
102
{ACAD_REACTORS
330
1092
102
}
330
1092
100
AcDbXrecord
280
1
102
RTVSPropertyOp0
70
1
102
RTVSPropertyOp1
70
1
102
RTVSPropertyOp2
70
1
102
RTVSPropertyOp3
70
1
102
RTVSPropertyOp4
70
1
102
RTVSPropertyOp5
70
1
102
RTVSPropertyOp6
70
1
102
RTVSPropertyOp7
70
1
102
RTVSPropertyOp8
70
1
102
RTVSPropertyOp9
70
1
102
RTVSPropertyOp10
70
1
102
RTVSPropertyOp11
70
1
102
RTVSPropertyOp12
70
1
102
RTVSPropertyOp13
70
1
102
RTVSPropertyOp14
70
1
102
RTVSPropertyOp15
70
1
102
RTVSPropertyOp16
70
1
102
RTVSPropertyOp17
70
1
102
RTVSPropertyOp18
70
1
102
RTVSPropertyOp19
70
1
102
RTVSPropertyOp20
70
1
102
RTVSPropertyOp21
70
1
102
RTVSPropertyOp22
70
1
102
RTVSPropertyOp23
70
1
102
RTVSPropertyOp24
70
1
102
RTVSPropertyOp25
70
1
102
RTVSPropertyOp26
70
1
102
RTVSPropertyOp27
70
1
0
XRECORD
5
1099
102
{ACAD_REACTORS
330
1098
102
}
330
1098
100
AcDbXrecord
280
1
102
RTVSPropertyOp0
70
1
102
RTVSPropertyOp1
70
1
102
RTVSPropertyOp2
70
1
102
RTVSPropertyOp3
70
1
102
RTVSPropertyOp4
70
1
102
RTVSPropertyOp5
70
1
102
RTVSPropertyOp6
70
1
102
RTVSPropertyOp7
70
1
102
RTVSPropertyOp8
70
1
102
RTVSPropertyOp9
70
1
102
RTVSPropertyOp10
70
1
102
RTVSPropertyOp11
70
1
102
RTVSPropertyOp12
70
1
102
RTVSPropertyOp13
70
1
102
RTVSPropertyOp14
70
1
102
RTVSPropertyOp15
70
1
102
RTVSPropertyOp16
70
1
102
RTVSPropertyOp17
70
1
102
RTVSPropertyOp18
70
1
102
RTVSPropertyOp19
70
1
102
RTVSPropertyOp20
70
1
102
RTVSPropertyOp21
70
1
102
RTVSPropertyOp22
70
1
102
RTVSPropertyOp23
70
1
102
RTVSPropertyOp24
70
1
102
RTVSPropertyOp25
70
1
102
RTVSPropertyOp26
70
1
102
RTVSPropertyOp27
70
1
0
ENDSEC
0
EOF
