0
SECTION
2
HEADER
9
$ACADVER
1
AC1015
9
$ACADMAINTVER
70
20
9
$DWGCODEPAGE
3
ANSI_1252
9
$INSBASE
10
0.0
20
0.0
30
0.0
9
$EXTMIN
10
-150.000000000000
20
-105.000000000000
30
0.0
9
$EXTMAX
10
150.000000000000
20
105.000000000000
30
0.0
9
$LIMMIN
10
0.0
20
0.0
9
$LIMMAX
10
12.0
20
9.0
9
$ORTHOMODE
70
0
9
$REGENMODE
70
1
9
$FILLMODE
70
1
9
$QTEXTMODE
70
0
9
$MIRRTEXT
70
1
9
$LTSCALE
40
1.0
9
$ATTMODE
70
1
9
$TEXTSIZE
40
0.2
9
$TRACEWID
40
0.05
9
$TEXTSTYLE
7
Standard
9
$CLAYER
8
0
9
$CELTYPE
6
ByLayer
9
$CECOLOR
62
256
9
$CELTSCALE
40
1.0
9
$DISPSILH
70
0
9
$DIMSCALE
40
1.0
9
$DIMASZ
40
2.5
9
$DIMEXO
40
0.625
9
$DIMDLI
40
0.38
9
$DIMRND
40
0.0
9
$DIMDLE
40
0.0
9
$DIMEXE
40
1.25
9
$DIMTP
40
0.0
9
$DIMTM
40
0.000000001
9
$DIMTXT
40
2.5
9
$DIMCEN
40
0.09
9
$DIMTSZ
40
0.0
9
$DIMTOL
70
1
9
$DIMLIM
70
0
9
$DIMTIH
70
0
9
$DIMTOH
70
0
9
$DIMSE1
70
0
9
$DIMSE2
70
0
9
$DIMTAD
70
1
9
$DIMZIN
70
0
9
$DIMBLK
1
VDDIM_DEFAULT
9
$DIMASO
70
1
9
$DIMSHO
70
1
9
$DIMPOST
1

9
$DIMAPOST
1

9
$DIMALT
70
0
9
$DIMALTD
70
2
9
$DIMALTF
40
25.4
9
$DIMLFAC
40
1.00000000000000
9
$DIMTOFL
70
0
9
$DIMTVP
40
0.0
9
$DIMTIX
70
0
9
$DIMSOXD
70
0
9
$DIMSAH
70
0
9
$DIMBLK1
1

9
$DIMBLK2
1

9
$DIMSTYLE
2
BEM-ISBE
9
$DIMCLRD
70
0
9
$DIMCLRE
70
0
9
$DIMCLRT
70
0
9
$DIMTFAC
40
0.5
9
$DIMGAP
40
0.625
9
$DIMJUST
70
0
9
$DIMSD1
70
0
9
$DIMSD2
70
0
9
$DIMTOLJ
70
1
9
$DIMTZIN
70
0
9
$DIMALTZ
70
0
9
$DIMALTTZ
70
0
9
$DIMUPT
70
0
9
$DIMDEC
70
3
9
$DIMTDEC
70
3
9
$DIMALTU
70
2
9
$DIMALTTD
70
2
9
$DIMTXSTY
7
Standard
9
$DIMAUNIT
70
0
9
$DIMADEC
70
3
9
$DIMALTRND
40
0.0
9
$DIMAZIN
70
0
9
$DIMDSEP
70
46
9
$DIMATFIT
70
3
9
$DIMFRAC
70
0
9
$DIMLDRBLK
1

9
$DIMLUNIT
70
2
9
$DIMLWD
70
-2
9
$DIMLWE
70
-2
9
$DIMTMOVE
70
0
9
$LUNITS
70
2
9
$LUPREC
70
4
9
$SKETCHINC
40
0.1
9
$FILLETRAD
40
0.5
9
$AUNITS
70
0
9
$AUPREC
70
0
9
$MENU
1
.
9
$ELEVATION
40
0.0
9
$PELEVATION
40
0.0
9
$THICKNESS
40
0.0
9
$LIMCHECK
70
0
9
$CHAMFERA
40
0.5
9
$CHAMFERB
40
0.5
9
$CHAMFERC
40
1.0
9
$CHAMFERD
40
0.0
9
$SKPOLY
70
0
9
$TDCREATE
40
0.0
9
$TDUCREATE
40
0.0
9
$TDUPDATE
40
0.0
9
$TDUUPDATE
40
0.0
9
$TDINDWG
40
0.0
9
$TDUSRTIMER
40
0.0
9
$USRTIMER
70
1
9
$ANGBASE
50
0.0
9
$ANGDIR
70
0
9
$PDMODE
70
0
9
$PDSIZE
40
0.0
9
$PLINEWID
40
0.0
9
$SPLFRAME
70
0
9
$SPLINETYPE
70
6
9
$SPLINESEGS
70
8
9
$HANDSEED
5
10AB
9
$SURFTAB1
70
6
9
$SURFTAB2
70
6
9
$SURFTYPE
70
6
9
$SURFU
70
6
9
$SURFV
70
6
9
$UCSBASE
2

9
$UCSNAME
2

9
$UCSORG
10
0.0
20
0.0
30
0.0
9
$UCSXDIR
10
1.0
20
0.0
30
0.0
9
$UCSYDIR
10
0.0
20
1.0
30
0.0
9
$UCSORTHOREF
2

9
$UCSORTHOVIEW
70
0
9
$UCSORGTOP
10
0.0
20
0.0
30
0.0
9
$UCSORGBOTTOM
10
0.0
20
0.0
30
0.0
9
$UCSORGLEFT
10
0.0
20
0.0
30
0.0
9
$UCSORGRIGHT
10
0.0
20
0.0
30
0.0
9
$UCSORGFRONT
10
0.0
20
0.0
30
0.0
9
$UCSORGBACK
10
0.0
20
0.0
30
0.0
9
$PUCSBASE
2

9
$PUCSNAME
2

9
$PUCSORG
10
0.0
20
0.0
30
0.0
9
$PUCSXDIR
10
1.0
20
0.0
30
0.0
9
$PUCSYDIR
10
0.0
20
1.0
30
0.0
9
$PUCSORTHOREF
2

9
$PUCSORTHOVIEW
70
0
9
$PUCSORGTOP
10
0.0
20
0.0
30
0.0
9
$PUCSORGBOTTOM
10
0.0
20
0.0
30
0.0
9
$PUCSORGLEFT
10
0.0
20
0.0
30
0.0
9
$PUCSORGRIGHT
10
0.0
20
0.0
30
0.0
9
$PUCSORGFRONT
10
0.0
20
0.0
30
0.0
9
$PUCSORGBACK
10
0.0
20
0.0
30
0.0
9
$USERI1
70
0
9
$USERI2
70
0
9
$USERI3
70
0
9
$USERI4
70
0
9
$USERI5
70
0
9
$USERR1
40
0.0
9
$USERR2
40
0.0
9
$USERR3
40
0.0
9
$USERR4
40
0.0
9
$USERR5
40
0.0
9
$WORLDVIEW
70
1
9
$SHADEDGE
70
3
9
$SHADEDIF
70
70
9
$TILEMODE
70
1
9
$MAXACTVP
70
64
9
$PINSBASE
10
0.0
20
0.0
30
0.0
9
$PLIMCHECK
70
0
9
$PEXTMIN
10
1.000000000000000E+20
20
1.000000000000000E+20
30
1.000000000000000E+20
9
$PEXTMAX
10
-1.000000000000000E+20
20
-1.000000000000000E+20
30
-1.000000000000000E+20
9
$PLIMMIN
10
0.0
20
0.0
9
$PLIMMAX
10
12.0
20
9.0
9
$UNITMODE
70
0
9
$VISRETAIN
70
1
9
$PLINEGEN
70
0
9
$PSLTSCALE
70
1
9
$TREEDEPTH
70
3020
9
$CMLSTYLE
2
Standard
9
$CMLJUST
70
0
9
$CMLSCALE
40
1.0
9
$PROXYGRAPHICS
70
1
9
$MEASUREMENT
70
0
9
$CELWEIGHT
370
-1
9
$ENDCAPS
280
0
9
$JOINSTYLE
280
0
9
$LWDISPLAY
290
0
9
$INSUNITS
70
4
9
$HYPERLINKBASE
1

9
$STYLESHEET
1

9
$XEDIT
290
1
9
$CEPSNTYPE
380
0
9
$PSTYLEMODE
290
0
9
$FINGERPRINTGUID
2
{FAEB1C30-E019-11D5-929B-00C0DF256EC4}
9
$VERSIONGUID
2
{04C5C4E4-4947-4D90-8812-D401569E61F7}
9
$EXTNAMES
290
1
9
$PSVPSCALE
40
0.0
9
$OLESTARTUP
290
0
0
ENDSEC
0
SECTION
2
CLASSES
0
CLASS
1
ACDBDICTIONARYWDFLT
2
AcDbDictionaryWithDefault
3
ObjectDBX Classes
90
0
280
0
281
0
0
CLASS
1
ACDBPLACEHOLDER
2
AcDbPlaceHolder
3
ObjectDBX Classes
90
0
280
0
281
0
0
CLASS
1
LAYOUT
2
AcDbLayout
3
ObjectDBX Classes
90
0
280
0
281
0
0
CLASS
1
MATERIAL
2
AcDbMaterial
3
ObjectDBX Classes
90
1153
280
0
281
0
0
CLASS
1
VISUALSTYLE
2
AcDbVisualStyle
3
ObjectDBX Classes
90
4095
280
0
281
0
0
CLASS
1
TABLESTYLE
2
AcDbTableStyle
3
ObjectDBX Classes
90
4095
280
0
281
0
0
CLASS
1
SCALE
2
AcDbScale
3
ObjectDBX Classes
90
1153
280
0
281
0
0
CLASS
1
MLEADERSTYLE
2
AcDbMLeaderStyle
3
ACDB_MLEADERSTYLE_CLASS
90
4095
280
0
281
0
0
CLASS
1
DICTIONARYVAR
2
AcDbDictionaryVar
3
ObjectDBX Classes
90
0
280
0
281
0
0
CLASS
1
CELLSTYLEMAP
2
AcDbCellStyleMap
3
ObjectDBX Classes
90
1152
280
0
281
0
0
ENDSEC
0
SECTION
2
TABLES
0
TABLE
2
VPORT
5
24A
330
0
100
AcDbSymbolTable
70
1
0
VPORT
5
26B
330
24A
100
AcDbSymbolTableRecord
100
AcDbViewportTableRecord
2
*Active
70
0
10
0.0
20
0.0
11
1.0
21
1.0
12
0.000000000000000
22
0.000000000000000
13
0.0
23
0.0
14
10.0
24
10.0
15
10.0
25
10.0
16
0.0
26
0.0
36
1.0
17
0.0
27
0.0
37
0.0
40
210.000000000000
41
1.42857142857143
42
1.0
43
0.0
44
0.0
50
0.0
51
0.0000000000007958
71
0
72
100
73
1
74
3
75
0
76
0
77
0
78
1
281
0
65
1
110
0.0
120
0.0
130
0.0
111
1.0
121
0.0
131
0.0
112
0.0
122
1.0
132
0.0
79
0
146
0.0
0
ENDTAB
0
TABLE
2
LTYPE
5
247
330
0
100
AcDbSymbolTable
70
25
0
LTYPE
5
256
330
247
100
AcDbSymbolTableRecord
100
AcDbLinetypeTableRecord
2
ByBlock
70
0
3

72
65
73
0
40
0.0
0
LTYPE
5
257
330
247
100
AcDbSymbolTableRecord
100
AcDbLinetypeTableRecord
2
ByLayer
70
0
3

72
65
73
0
40
0.0
0
LTYPE
5
258
330
247
100
AcDbSymbolTableRecord
100
AcDbLinetypeTableRecord
2
Continuous
70
0
3
Solid line
72
65
73
0
40
0.0
0
LTYPE
5
273
330
247
100
AcDbSymbolTableRecord
100
AcDbLinetypeTableRecord
2
CENTER
70
0
3
Center ____ _ ____ _ ____ _ ____ _ ____ _ ____
72
65
73
4
40
2.0
49
1.25
74
0
49
-0.25
74
0
49
0.25
74
0
49
-0.25
74
0
0
LTYPE
5
274
330
247
100
AcDbSymbolTableRecord
100
AcDbLinetypeTableRecord
2
DASHDOT
70
0
3
Dashdot __ . __ . __ . __ . __ . __ . __ . __
72
65
73
4
40
1.0
49
0.5
74
0
49
-0.25
74
0
49
0.0
74
0
49
-0.25
74
0
0
LTYPE
5
275
330
247
100
AcDbSymbolTableRecord
100
AcDbLinetypeTableRecord
2
DASHED
70
0
3
Dashed __ __ __ __ __ __ __ __ __ __ __ __ __ _
72
65
73
2
40
0.75
49
0.5
74
0
49
-0.25
74
0
0
LTYPE
5
276
330
247
100
AcDbSymbolTableRecord
100
AcDbLinetypeTableRecord
2
HIDDEN
70
0
3
Hidden __ __ __ __ __ __ __ __ __ __ __ __ __ __
72
65
73
2
40
0.375
49
0.25
74
0
49
-0.125
74
0
0
LTYPE
5
277
330
247
100
AcDbSymbolTableRecord
100
AcDbLinetypeTableRecord
2
HIDDEN2
70
0
3
Hidden2 _ _ _ _ _ _ _ _ _ _ _ _ _ _ _ _ _
72
65
73
2
40
0.1875
49
0.125
74
0
49
-0.0625
74
0
0
LTYPE
5
278
330
247
100
AcDbSymbolTableRecord
100
AcDbLinetypeTableRecord
2
BORDER
70
0
3
Border __ __ . __ __ . __ __ . __ __ . __ __ .
72
65
73
6
40
1.75
49
0.5
74
0
49
-0.25
74
0
49
0.5
74
0
49
-0.25
74
0
49
0.0
74
0
49
-0.25
74
0
0
LTYPE
5
279
330
247
100
AcDbSymbolTableRecord
100
AcDbLinetypeTableRecord
2
BORDER2
70
0
3
Border2 __.__.__.__.__.__.__.__.__.__.__.
72
65
73
6
40
0.875
49
0.25
74
0
49
-0.125
74
0
49
0.25
74
0
49
-0.125
74
0
49
0.0
74
0
49
-0.125
74
0
0
LTYPE
5
27A
330
247
100
AcDbSymbolTableRecord
100
AcDbLinetypeTableRecord
2
BORDERX2
70
0
3
Borderx2  ____  ____  .  ____  ____  .  ___
72
65
73
6
40
3.5
49
1.0
74
0
49
-0.5
74
0
49
1.0
74
0
49
-0.5
74
0
49
0.0
74
0
49
-0.5
74
0
0
LTYPE
5
27B
330
247
100
AcDbSymbolTableRecord
100
AcDbLinetypeTableRecord
2
CENTER2
70
0
3
Center2  ___ _ ___ _ ___ _ ___ _ ___ _ ___
72
65
73
4
40
1.125
49
0.75
74
0
49
-0.125
74
0
49
0.125
74
0
49
-0.125
74
0
0
LTYPE
5
27C
330
247
100
AcDbSymbolTableRecord
100
AcDbLinetypeTableRecord
2
CENTERX2
70
0
3
Centerx2  ________  __  ________  __  _____
72
65
73
4
40
4.0
49
2.5
74
0
49
-0.5
74
0
49
0.5
74
0
49
-0.5
74
0
0
LTYPE
5
27D
330
247
100
AcDbSymbolTableRecord
100
AcDbLinetypeTableRecord
2
DASHDOT2
70
0
3
Dashdot2  _._._._._._._._._._._._._._._.
72
65
73
4
40
0.5
49
0.25
74
0
49
-0.125
74
0
49
0.0
74
0
49
-0.125
74
0
0
LTYPE
5
27E
330
247
100
AcDbSymbolTableRecord
100
AcDbLinetypeTableRecord
2
DASHDOTX2
70
0
3
Dashdotx2 ____  .  ____  .  ____  .  ___
72
65
73
4
40
2.0
49
1.0
74
0
49
-0.5
74
0
49
0.0
74
0
49
-0.5
74
0
0
LTYPE
5
27F
330
247
100
AcDbSymbolTableRecord
100
AcDbLinetypeTableRecord
2
DASHED2
70
0
3
Dashed2 _ _ _ _ _ _ _ _ _ _ _ _ _ _ _ _ _
72
65
73
2
40
0.375
49
0.25
74
0
49
-0.125
74
0
0
LTYPE
5
280
330
247
100
AcDbSymbolTableRecord
100
AcDbLinetypeTableRecord
2
DASHEDX2
70
0
3
Dashedx2 ____  ____  ____  ____  ____  ___
72
65
73
2
40
1.5
49
1.0
74
0
49
-0.5
74
0
0
LTYPE
5
281
330
247
100
AcDbSymbolTableRecord
100
AcDbLinetypeTableRecord
2
DIVIDE
70
0
3
Divide ____ . . ____ . . ____ . . ____ . . ____
72
65
73
6
40
1.25
49
0.5
74
0
49
-0.25
74
0
49
0.0
74
0
49
-0.25
74
0
49
0.0
74
0
49
-0.25
74
0
0
LTYPE
5
282
330
247
100
AcDbSymbolTableRecord
100
AcDbLinetypeTableRecord
2
DIVIDE2
70
0
3
Divide2 __..__..__..__..__..__..__..__.._
72
65
73
6
40
0.625
49
0.25
74
0
49
-0.125
74
0
49
0.0
74
0
49
-0.125
74
0
49
0.0
74
0
49
-0.125
74
0
0
LTYPE
5
283
330
247
100
AcDbSymbolTableRecord
100
AcDbLinetypeTableRecord
2
DIVIDEX2
70
0
3
Dividex2 ________  .  .  ________  .  .  _
72
65
73
6
40
2.5
49
1.0
74
0
49
-0.5
74
0
49
0.0
74
0
49
-0.5
74
0
49
0.0
74
0
49
-0.5
74
0
0
LTYPE
5
284
330
247
100
AcDbSymbolTableRecord
100
AcDbLinetypeTableRecord
2
DOT
70
0
3
Dot . . . . . . . . . . . . . . . . . . . . . . . .
72
65
73
2
40
0.25
49
0.0
74
0
49
-0.25
74
0
0
LTYPE
5
285
330
247
100
AcDbSymbolTableRecord
100
AcDbLinetypeTableRecord
2
DOT2
70
0
3
Dot2 ........................................
72
65
73
2
40
0.125
49
0.0
74
0
49
-0.125
74
0
0
LTYPE
5
286
330
247
100
AcDbSymbolTableRecord
100
AcDbLinetypeTableRecord
2
DOTX2
70
0
3
Dotx2 .  .  .  .  .  .  .  .  .  .  .  .  .  .
72
65
73
2
40
0.5
49
0.0
74
0
49
-0.5
74
0
0
LTYPE
5
287
330
247
100
AcDbSymbolTableRecord
100
AcDbLinetypeTableRecord
2
HIDDENX2
70
0
3
Hiddenx2 ____ ____ ____ ____ ____ ____ ____
72
65
73
2
40
0.75
49
0.5
74
0
49
-0.25
74
0
0
LTYPE
5
288
330
247
100
AcDbSymbolTableRecord
100
AcDbLinetypeTableRecord
2
PHANTOM
70
0
3
Phantom ______  __  __  ______  __  __  ______
72
65
73
6
40
2.5
49
1.25
74
0
49
-0.25
74
0
49
0.25
74
0
49
-0.25
74
0
49
0.25
74
0
49
-0.25
74
0
0
LTYPE
5
289
330
247
100
AcDbSymbolTableRecord
100
AcDbLinetypeTableRecord
2
PHANTOM2
70
0
3
Phantom2 ___ _ _ ___ _ _ ___ _ _ ___ _ _
72
65
73
6
40
1.25
49
0.625
74
0
49
-0.125
74
0
49
0.125
74
0
49
-0.125
74
0
49
0.125
74
0
49
-0.125
74
0
0
LTYPE
5
28A
330
247
100
AcDbSymbolTableRecord
100
AcDbLinetypeTableRecord
2
PHANTOMX2
70
0
3
Phantomx2 ____________    ____    ____   _
72
65
73
6
40
5.0
49
2.5
74
0
49
-0.5
74
0
49
0.5
74
0
49
-0.5
74
0
49
0.5
74
0
49
-0.5
74
0
0
ENDTAB
0
TABLE
2
LAYER
5
244
330
0
100
AcDbSymbolTable
70
6
0
LAYER
5
252
330
244
100
AcDbSymbolTableRecord
100
AcDbLayerTableRecord
2
0
70
0
62
7
6
Continuous
370
0
390
251
0
LAYER
5
23F
330
244
100
AcDbSymbolTableRecord
100
AcDbLayerTableRecord
2
Bemassung
70
0
 62
   7
6
Continuous
370
0
390
251
0
LAYER
5
240
330
244
100
AcDbSymbolTableRecord
100
AcDbLayerTableRecord
2
Rahmen
70
0
 62
   7
6
Continuous
370
0
390
251
0
LAYER
5
241
330
244
100
AcDbSymbolTableRecord
100
AcDbLayerTableRecord
2
Geo
70
0
 62
   7
6
Continuous
370
0
390
251
0
LAYER
5
33A
330
244
100
AcDbSymbolTableRecord
100
AcDbLayerTableRecord
2
Defpoints
70
0
62
7
6
Continuous
290
0
370
-3
390
251
0
LAYER
5
57E
330
244
100
AcDbSymbolTableRecord
100
AcDbLayerTableRecord
2
Text
70
0
 62
   7
6
Continuous
370
0
390
251
1001
AcAecLayerStandard
1000

1000

0
ENDTAB
0
TABLE
2
STYLE
5
245
330
0
100
AcDbSymbolTable
70
2
0
STYLE
5
253
330
245
100
AcDbSymbolTableRecord
100
AcDbTextStyleTableRecord
2
Standard
70
0
40
0.0
41
1.0
50
0.0
71
0
42
0.2
3
Arial
4

1001
ACAD
1000
Arial
1071
0
0
STYLE
5
132
330
245
100
AcDbSymbolTableRecord
100
AcDbTextStyleTableRecord
2
Beschriftung
70
0
40
0.0
41
1.0
50
0.0
71
0
42
0.2
3
Arial
4

1001
ACAD
1000
Arial
1071
0
1001
AcadAnnotative
1000
AnnotativeData
1070
1
1070
1
0
ENDTAB
0
TABLE
2
VIEW
5
248
330
0
100
AcDbSymbolTable
70
0
0
ENDTAB
0
TABLE
2
UCS
5
249
330
0
100
AcDbSymbolTable
70
0
0
ENDTAB
0
TABLE
2
APPID
5
24B
330
0
100
AcDbSymbolTable
70
13
0
APPID
5
254
330
24B
100
AcDbSymbolTableRecord
100
AcDbRegAppTableRecord
2
ACAD
70
0
0
APPID
5
26C
330
24B
100
AcDbSymbolTableRecord
100
AcDbRegAppTableRecord
2
VD_INVISIBLE_NOT_FOR_READ
70
0
0
APPID
5
26D
330
24B
100
AcDbSymbolTableRecord
100
AcDbRegAppTableRecord
2
VD_TEMPHATCH
70
0
0
APPID
5
26E
330
24B
100
AcDbSymbolTableRecord
100
AcDbRegAppTableRecord
2
VDEXTRAPARAM
70
0
0
APPID
5
26F
330
24B
100
AcDbSymbolTableRecord
100
AcDbRegAppTableRecord
2
PE_URL
70
0
0
APPID
5
270
330
24B
100
AcDbSymbolTableRecord
100
AcDbRegAppTableRecord
2
VD_UNKNOWN
70
0
0
APPID
5
28F
330
24B
100
AcDbSymbolTableRecord
100
AcDbRegAppTableRecord
2
AcadAnnotative
70
0
0
APPID
5
290
330
24B
100
AcDbSymbolTableRecord
100
AcDbRegAppTableRecord
2
ACAD_DSTYLE_DIMJAG
70
0
0
APPID
5
291
330
24B
100
AcDbSymbolTableRecord
100
AcDbRegAppTableRecord
2
ACAD_DSTYLE_DIMTALN
70
0
0
APPID
5
293
330
24B
100
AcDbSymbolTableRecord
100
AcDbRegAppTableRecord
2
ACAD_PSEXT
70
0
0
APPID
5
42A
330
24B
100
AcDbSymbolTableRecord
100
AcDbRegAppTableRecord
2
ACAD_MLEADERVER
70
0
0
APPID
5
532
330
24B
100
AcDbSymbolTableRecord
100
AcDbRegAppTableRecord
2
ACAD_EXEMPT_FROM_CAD_STANDARDS
70
0
0
APPID
5
57F
330
24B
100
AcDbSymbolTableRecord
100
AcDbRegAppTableRecord
2
AcAecLayerStandard
70
0
0
ENDTAB
0
TABLE
2
DIMSTYLE
5
24C
330
0
100
AcDbSymbolTable
70
3
100
AcDbDimStyleTable
71
2
340
27
340
269
0
DIMSTYLE
105
269
330
24C
100
AcDbSymbolTableRecord
100
AcDbDimStyleTableRecord
2
Standard
70
0
172
1
174
1
288
1
340
253
342
23C
0
DIMSTYLE
105
137
330
24C
100
AcDbSymbolTableRecord
100
AcDbDimStyleTableRecord
2
Beschriftung
70
0
41
2.5
42
0.625
44
1.25
73
0
74
0
77
1
140
2.5
147
0.625
172
1
174
1
271
2
288
1
340
253
342
23C
1001
AcadAnnotative
1000
AnnotativeData
1070
1
1070
1
1001
ACAD_DSTYLE_DIMJAG
1070
388
1040
1.5
1001
ACAD_DSTYLE_DIMTALN
1070
392
1070
0
0
DIMSTYLE
105
27
102
{ACAD_REACTORS
330
F1000D
330
F10012
330
F1001C
330
F10021
330
F10003
330
F10008
330
F10017
102
}
330
24C
100
AcDbSymbolTableRecord
100
AcDbDimStyleTableRecord
2
BEM-ISBE
70
0
41
2.5
42
0.625
44
1.25
48
0.000000001
71
1
73
0
74
0
77
1
140
2.5
144
1.00000000000000
146
0.5
147
0.625
171
 3
172
 1
179
 3
271
 3
272
 3
274
 3
340
253
342
23C
1001
ACAD_DSTYLE_DIMJAG
1070
388
1040
1.5
1001
ACAD_DSTYLE_DIMTALN
1070
392
1070
1
0
ENDTAB
0
TABLE
2
BLOCK_RECORD
5
243
330
0
100
AcDbSymbolTable
70
5
0
BLOCK_RECORD
5
261
330
243
100
AcDbSymbolTableRecord
100
AcDbBlockTableRecord
2
*Model_Space
340
FD0
0
BLOCK_RECORD
5
25D
330
243
100
AcDbSymbolTableRecord
100
AcDbBlockTableRecord
2
*Paper_Space
340
FD1
0
BLOCK_RECORD
5
265
330
243
100
AcDbSymbolTableRecord
100
AcDbBlockTableRecord
2
*Paper_Space0
340
0
0
BLOCK_RECORD
5
23C
330
243
100
AcDbSymbolTableRecord
100
AcDbBlockTableRecord
2
VDDIM_DEFAULT
340
0
102
{BLKREFS
102
}
0
BLOCK_RECORD
5
23E
330
243
100
AcDbSymbolTableRecord
100
AcDbBlockTableRecord
2
VDDIM_NONE
340
0
0
BLOCK_RECORD
5
F1000C
330
243
100
AcDbSymbolTableRecord
100
AcDbBlockTableRecord
2
*D5
340
0
0
BLOCK_RECORD
5
F10011
330
243
100
AcDbSymbolTableRecord
100
AcDbBlockTableRecord
2
*D6
340
0
0
BLOCK_RECORD
5
F1001B
330
243
100
AcDbSymbolTableRecord
100
AcDbBlockTableRecord
2
*D8
340
0
0
BLOCK_RECORD
5
F10020
330
243
100
AcDbSymbolTableRecord
100
AcDbBlockTableRecord
2
*D9
340
0
0
BLOCK_RECORD
5
F10002
330
243
100
AcDbSymbolTableRecord
100
AcDbBlockTableRecord
2
*D3
340
0
0
BLOCK_RECORD
5
F10007
330
243
100
AcDbSymbolTableRecord
100
AcDbBlockTableRecord
2
*D4
340
0
0
BLOCK_RECORD
5
F10016
330
243
100
AcDbSymbolTableRecord
100
AcDbBlockTableRecord
2
*D7
340
0
0
ENDTAB
0
ENDSEC
0
SECTION
2
BLOCKS
0
BLOCK
5
262
330
261
100
AcDbEntity
8
0
100
AcDbBlockBegin
2
*Model_Space
70
0
10
0.0
20
0.0
30
0.0
3
*Model_Space
1

0
ENDBLK
5
263
330
261
100
AcDbEntity
8
0
100
AcDbBlockEnd
0
BLOCK
5
25E
330
25D
100
AcDbEntity
67
1
8
0
100
AcDbBlockBegin
2
*Paper_Space
70
0
10
0.0
20
0.0
30
0.0
3
*Paper_Space
1

0
ENDBLK
5
25F
330
25D
100
AcDbEntity
67
1
8
0
100
AcDbBlockEnd
0
BLOCK
5
266
330
265
100
AcDbEntity
8
0
100
AcDbBlockBegin
2
*Paper_Space0
70
0
10
0.0
20
0.0
30
0.0
3
*Paper_Space0
1

0
VIEWPORT
5
296
102
{ACAD_XDICTIONARY
360
58E
102
}
330
265
100
AcDbEntity
8
0
60
1
100
AcDbViewport
10
0.0
20
0.0
30
0.0
40
10.0
41
10.0
69
0
12
0.0
22
0.0
13
0.0
23
0.0
14
1.0
24
1.0
15
0.0
25
0.0
16
0.0
26
0.0
36
1.0
17
0.0
27
0.0
37
0.0
42
0.0
43
0.0
44
0.0
45
10.0
50
0.0
51
0.0000000000007958
72
100
90
163872
1

281
0
71
0
74
0
110
0.0
120
0.0
130
0.0
111
1.0
121
0.0
131
0.0
112
0.0
122
1.0
132
0.0
79
0
146
0.0
1001
VD_INVISIBLE_NOT_FOR_READ
1000
VD_INVISIBLE_NOT_FOR_READ
0
VIEWPORT
5
297
102
{ACAD_XDICTIONARY
360
590
102
}
330
265
100
AcDbEntity
8
0
60
1
100
AcDbViewport
10
0.0
20
0.0
30
0.0
40
10.0
41
10.0
69
0
12
0.0
22
0.0
13
0.0
23
0.0
14
1.0
24
1.0
15
0.0
25
0.0
16
0.0
26
0.0
36
1.0
17
0.0
27
0.0
37
0.0
42
0.0
43
0.0
44
0.0
45
10.0
50
0.0
51
0.0000000000007958
72
100
90
163872
1

281
0
71
0
74
0
110
0.0
120
0.0
130
0.0
111
1.0
121
0.0
131
0.0
112
0.0
122
1.0
132
0.0
79
0
146
0.0
1001
VD_INVISIBLE_NOT_FOR_READ
1000
VD_INVISIBLE_NOT_FOR_READ
0
ENDBLK
5
267
330
265
100
AcDbEntity
8
0
100
AcDbBlockEnd
0
BLOCK
5
28B
330
23C
100
AcDbEntity
8
0
100
AcDbBlockBegin
2
VDDIM_DEFAULT
70
0
10
0.0
20
0.0
30
0.0
3
VDDIM_DEFAULT
1

0
LWPOLYLINE
5
23D
330
23C
100
AcDbEntity
8
0
6
Continuous
62
0
100
AcDbPolyline
90
4
70
0
43
0.0
10
0.0
20
0.0
10
-1.0
20
-0.1665
10
-1.0
20
0.1665
10
0.0
20
0.0
1001
VDEXTRAPARAM
1071
1
1071
0
1071
0
1040
1.0
1000

1000

1040
0.0
1040
0.0
0
HATCH
5
292
330
23C
100
AcDbEntity
8
0
6
Continuous
62
0
100
AcDbHatch
10
0.0
20
0.0
30
0.0
210
0.0
220
0.0
230
1.0
2
SOLID
70
1
71
0
91
1
92
2
72
0
73
1
93
3
10
0.0
20
0.0
10
-1.0
20
-0.1665
10
-1.0
20
0.1665
97
0
75
0
76
1
98
1
10
0.0
20
0.0
1001
VDEXTRAPARAM
1071
1
1071
0
1071
0
1040
1.0
1000

1000

1040
0.0
1040
0.0
1001
VD_TEMPHATCH
1000
VD_TEMPHATCH
0
ENDBLK
5
28C
330
23C
100
AcDbEntity
8
0
100
AcDbBlockEnd
0
BLOCK
5
28D
330
23E
100
AcDbEntity
8
0
100
AcDbBlockBegin
2
VDDIM_NONE
70
0
10
0.0
20
0.0
30
0.0
3
VDDIM_NONE
1

0
ENDBLK
5
28E
330
23E
100
AcDbEntity
8
0
100
AcDbBlockEnd
  0
BLOCK
  5
F10025
330
F1000C
100
AcDbEntity
  8
0
100
AcDbBlockBegin
  2
*D5
 70
     1
 10
0.0
 20
0.0
 30
0.0
  3
*D5
  1

  0
LINE
  5
F10026
330
F1000C
100
AcDbEntity
  8
Bemassung
 62
     0
370
    -2
100
AcDbLine
10
-54.9379652605459
20
-10.6203473945409
30
0.000000000000000
11
-54.9379652605459
21
39.3796526054591
31
0.000000000000000
  0
LINE
  5
F10027
330
F1000C
100
AcDbEntity
  8
Bemassung
 62
     0
370
    -2
100
AcDbLine
10
25.0620347394541
20
17.1296526054591
30
0.000000000000000
11
25.0620347394541
21
29.3796526054591
31
0.000000000000000
  0
LINE
  5
F10028
330
F1000C
100
AcDbEntity
  8
Bemassung
 62
     0
370
    -2
100
AcDbLine
10
-54.9379652605459
20
27.3796526054591
30
0.000000000000000
11
25.0620347394541
21
27.3796526054591
31
0.000000000000000
  0
INSERT
  5
F10029
330
F1000C
100
AcDbEntity
  8
Bemassung
 62
     0
370
    -2
100
AcDbBlockReference
  2
VDDIM_DEFAULT
10
-54.9379652605459
20
27.3796526054591
30
0.000000000000000
 41
2.50000000000000
 42
2.50000000000000
 43
2.50000000000000
 50
180.000000000000
  0
INSERT
  5
F1002A
330
F1000C
100
AcDbEntity
  8
Bemassung
 62
     0
370
    -2
100
AcDbBlockReference
  2
VDDIM_DEFAULT
10
25.0620347394541
20
27.3796526054591
30
0.000000000000000
 41
2.50000000000000
 42
2.50000000000000
 43
2.50000000000000
  0
MTEXT
  5
F1002B
102
{ACAD_XDICTIONARY
360
F1000F
102
}
330
F1000C
100
AcDbEntity
  8
Bemassung
 62
     0
100
AcDbMText
10
-14.9379652605459
20
28.0463192721257
30
0.000000000000000
 40
2.50000000000000
 41
0.0
 71
     8
 72
     1
  1
\A1;80
 11
1.00000000000000
 21
0.000000000000000
 31
0.0
 73
     1
 44
1.0
1001
ACAD
1000
MTEXTBEGIN
1070
73
1070
1
1070
44
1040
1.0
1070
74
1070
0
1000
MTEXTEND
  0
POINT
  5
F1002C
330
F1000C
100
AcDbEntity
  8
Bemassung
 62
     0
100
AcDbPoint
10
-54.9379652605459
20
-10.6203473945409
30
0.000000000000000
  0
POINT
  5
F1002D
330
F1000C
100
AcDbEntity
  8
Bemassung
 62
     0
100
AcDbPoint
10
25.0620347394541
20
17.1296526054591
30
0.000000000000000
  0
ENDBLK
  5
F1002E
330
F1000C
100
AcDbEntity
  8
0
100
AcDbBlockEnd
  0
BLOCK
  5
F1002F
330
F10011
100
AcDbEntity
  8
0
100
AcDbBlockBegin
  2
*D6
 70
     1
 10
0.0
 20
0.0
 30
0.0
  3
*D6
  1

  0
LINE
  5
F10030
330
F10011
100
AcDbEntity
  8
Bemassung
 62
     0
370
    -2
100
AcDbLine
10
25.0620347394541
20
17.3796526054591
30
0.000000000000000
11
25.0620347394541
21
27.8796526054591
31
0.000000000000000
  0
LINE
  5
F10031
330
F10011
100
AcDbEntity
  8
Bemassung
 62
     0
370
    -2
100
AcDbLine
10
75.0620347394541
20
17.1796526054591
30
0.000000000000000
11
75.0620347394541
21
39.3796526054591
31
0.000000000000000
  0
LINE
  5
F10032
330
F10011
100
AcDbEntity
  8
Bemassung
 62
     0
370
    -2
100
AcDbLine
10
25.0620347394541
20
25.8796526054591
30
0.000000000000000
11
75.0620347394541
21
25.8796526054591
31
0.000000000000000
  0
INSERT
  5
F10033
330
F10011
100
AcDbEntity
  8
Bemassung
 62
     0
370
    -2
100
AcDbBlockReference
  2
VDDIM_DEFAULT
10
25.0620347394541
20
25.8796526054591
30
0.000000000000000
 41
2.50000000000000
 42
2.50000000000000
 43
2.50000000000000
 50
180.000000000000
  0
INSERT
  5
F10034
330
F10011
100
AcDbEntity
  8
Bemassung
 62
     0
370
    -2
100
AcDbBlockReference
  2
VDDIM_DEFAULT
10
75.0620347394541
20
25.8796526054591
30
0.000000000000000
 41
2.50000000000000
 42
2.50000000000000
 43
2.50000000000000
  0
MTEXT
  5
F10035
102
{ACAD_XDICTIONARY
360
F10014
102
}
330
F10011
100
AcDbEntity
  8
Bemassung
 62
     0
100
AcDbMText
10
49.8525176386743
20
26.5463192721257
30
0.000000000000000
 40
2.50000000000000
 41
0.0
 71
     8
 72
     1
  1
\A1;50
 11
1.00000000000000
 21
0.000000000000000
 31
0.0
 73
     1
 44
1.0
1001
ACAD
1000
MTEXTBEGIN
1070
73
1070
1
1070
44
1040
1.0
1070
74
1070
0
1000
MTEXTEND
  0
POINT
  5
F10036
330
F10011
100
AcDbEntity
  8
Bemassung
 62
     0
100
AcDbPoint
10
25.0620347394541
20
17.3796526054591
30
0.000000000000000
  0
POINT
  5
F10037
330
F10011
100
AcDbEntity
  8
Bemassung
 62
     0
100
AcDbPoint
10
75.0620347394541
20
17.1796526054591
30
0.000000000000000
  0
ENDBLK
  5
F10038
330
F10011
100
AcDbEntity
  8
0
100
AcDbBlockEnd
  0
BLOCK
  5
F10039
330
F1001B
100
AcDbEntity
  8
0
100
AcDbBlockBegin
  2
*D8
 70
     1
 10
0.0
 20
0.0
 30
0.0
  3
*D8
  1

  0
LINE
  5
F1003A
330
F1001B
100
AcDbEntity
  8
Bemassung
 62
     0
370
    -2
100
AcDbLine
10
-30.9379652605459
20
1.62965260545906
30
0.000000000000000
11
-30.9379652605459
21
-10.6203473945409
31
0.000000000000000
  0
LINE
  5
F1003B
330
F1001B
100
AcDbEntity
  8
Bemassung
 62
     0
370
    -2
100
AcDbLine
10
-54.9379652605459
20
-10.6203473945409
30
0.000000000000000
11
-54.9379652605459
21
39.3796526054591
31
0.000000000000000
  0
LINE
  5
F1003C
330
F1001B
100
AcDbEntity
  8
Bemassung
 62
     0
370
    -2
100
AcDbLine
10
-30.9379652605459
20
-8.62034739454094
30
0.000000000000000
11
-54.9379652605459
21
-8.62034739454094
31
0.000000000000000
  0
INSERT
  5
F1003D
330
F1001B
100
AcDbEntity
  8
Bemassung
 62
     0
370
    -2
100
AcDbBlockReference
  2
VDDIM_DEFAULT
10
-30.9379652605459
20
-8.62034739454094
30
0.000000000000000
 41
2.50000000000000
 42
2.50000000000000
 43
2.50000000000000
  0
INSERT
  5
F1003E
330
F1001B
100
AcDbEntity
  8
Bemassung
 62
     0
370
    -2
100
AcDbBlockReference
  2
VDDIM_DEFAULT
10
-54.9379652605459
20
-8.62034739454094
30
0.000000000000000
 41
2.50000000000000
 42
2.50000000000000
 43
2.50000000000000
 50
180.000000000000
  0
MTEXT
  5
F1003F
102
{ACAD_XDICTIONARY
360
F1001E
102
}
330
F1001B
100
AcDbEntity
  8
Bemassung
 62
     0
100
AcDbMText
10
-42.9379652605459
20
-7.95368072787428
30
0.000000000000000
 40
2.50000000000000
 41
0.0
 71
     8
 72
     1
  1
\A1;24
 11
1.00000000000000
 21
0.000000000000000
 31
0.0
 73
     1
 44
1.0
1001
ACAD
1000
MTEXTBEGIN
1070
73
1070
1
1070
44
1040
1.0
1070
74
1070
0
1000
MTEXTEND
  0
POINT
  5
F10040
330
F1001B
100
AcDbEntity
  8
Bemassung
 62
     0
100
AcDbPoint
10
-30.9379652605459
20
1.62965260545906
30
0.000000000000000
  0
POINT
  5
F10041
330
F1001B
100
AcDbEntity
  8
Bemassung
 62
     0
100
AcDbPoint
10
-54.9379652605459
20
-10.6203473945409
30
0.000000000000000
  0
ENDBLK
  5
F10042
330
F1001B
100
AcDbEntity
  8
0
100
AcDbBlockEnd
  0
BLOCK
  5
F10043
330
F10020
100
AcDbEntity
  8
0
100
AcDbBlockBegin
  2
*D9
 70
     1
 10
0.0
 20
0.0
 30
0.0
  3
*D9
  1

  0
LINE
  5
F10044
330
F10020
100
AcDbEntity
  8
Bemassung
 62
     0
370
    -2
100
AcDbLine
10
75.0620347394541
20
17.1796526054591
30
0.000000000000000
11
75.0620347394541
21
39.3796526054591
31
0.000000000000000
  0
LINE
  5
F10045
330
F10020
100
AcDbEntity
  8
Bemassung
 62
     0
370
    -2
100
AcDbLine
10
-54.9379652605459
20
-10.6203473945409
30
0.000000000000000
11
-54.9379652605459
21
39.3796526054591
31
0.000000000000000
  0
LINE
  5
F10046
330
F10020
100
AcDbEntity
  8
Bemassung
 62
     0
370
    -2
100
AcDbLine
10
75.0620347394541
20
37.3796526054591
30
0.000000000000000
11
-54.9379652605459
21
37.3796526054591
31
0.000000000000000
  0
INSERT
  5
F10047
330
F10020
100
AcDbEntity
  8
Bemassung
 62
     0
370
    -2
100
AcDbBlockReference
  2
VDDIM_DEFAULT
10
75.0620347394541
20
37.3796526054591
30
0.000000000000000
 41
2.50000000000000
 42
2.50000000000000
 43
2.50000000000000
  0
INSERT
  5
F10048
330
F10020
100
AcDbEntity
  8
Bemassung
 62
     0
370
    -2
100
AcDbBlockReference
  2
VDDIM_DEFAULT
10
-54.9379652605459
20
37.3796526054591
30
0.000000000000000
 41
2.50000000000000
 42
2.50000000000000
 43
2.50000000000000
 50
180.000000000000
  0
MTEXT
  5
F10049
102
{ACAD_XDICTIONARY
360
F10023
102
}
330
F10020
100
AcDbEntity
  8
Bemassung
 62
     0
100
AcDbMText
10
10.4516129032258
20
38.0463192721257
30
0.000000000000000
 40
2.50000000000000
 41
0.0
 71
     8
 72
     1
  1
\A1;130
 11
1.00000000000000
 21
0.000000000000000
 31
0.0
 73
     1
 44
1.0
1001
ACAD
1000
MTEXTBEGIN
1070
73
1070
1
1070
44
1040
1.0
1070
74
1070
0
1000
MTEXTEND
  0
POINT
  5
F1004A
330
F10020
100
AcDbEntity
  8
Bemassung
 62
     0
100
AcDbPoint
10
75.0620347394541
20
17.1796526054591
30
0.000000000000000
  0
POINT
  5
F1004B
330
F10020
100
AcDbEntity
  8
Bemassung
 62
     0
100
AcDbPoint
10
-54.9379652605459
20
-10.6203473945409
30
0.000000000000000
  0
ENDBLK
  5
F1004C
330
F10020
100
AcDbEntity
  8
0
100
AcDbBlockEnd
  0
BLOCK
  5
F1004D
330
F10002
100
AcDbEntity
  8
0
100
AcDbBlockBegin
  2
*D3
 70
     1
 10
0.0
 20
0.0
 30
0.0
  3
*D3
  1

  0
LINE
  5
F1004E
330
F10002
100
AcDbEntity
  8
Bemassung
 62
     0
370
    -2
100
AcDbLine
10
-54.9379652605459
20
1.37965260545906
30
0.000000000000000
11
-66.9379652605459
21
1.37965260545906
31
0.000000000000000
  0
LINE
  5
F1004F
330
F10002
100
AcDbEntity
  8
Bemassung
 62
     0
370
    -2
100
AcDbLine
10
-54.9379652605459
20
17.3796526054591
30
0.000000000000000
11
-66.9379652605459
21
17.3796526054591
31
0.000000000000000
  0
LINE
  5
F10050
330
F10002
100
AcDbEntity
  8
Bemassung
 62
     0
370
    -2
100
AcDbLine
10
-64.9379652605459
20
1.37965260545906
30
0.000000000000000
11
-64.9379652605459
21
17.3796526054591
31
0.000000000000000
  0
INSERT
  5
F10051
330
F10002
100
AcDbEntity
  8
Bemassung
 62
     0
370
    -2
100
AcDbBlockReference
  2
VDDIM_DEFAULT
10
-64.9379652605459
20
1.37965260545906
30
0.000000000000000
 41
2.50000000000000
 42
2.50000000000000
 43
2.50000000000000
 50
270.000000000000
  0
INSERT
  5
F10052
330
F10002
100
AcDbEntity
  8
Bemassung
 62
     0
370
    -2
100
AcDbBlockReference
  2
VDDIM_DEFAULT
10
-64.9379652605459
20
17.3796526054591
30
0.000000000000000
 41
2.50000000000000
 42
2.50000000000000
 43
2.50000000000000
 50
90.0000000000000
  0
MTEXT
  5
F10053
102
{ACAD_XDICTIONARY
360
F10005
102
}
330
F10002
100
AcDbEntity
  8
Bemassung
 62
     0
100
AcDbMText
10
-65.6046319272126
20
9.37965260545906
30
0.000000000000000
 40
2.50000000000000
 41
0.0
 71
     8
 72
     1
  1
\A1;16
 11
6.12323399573677e-017
 21
1.00000000000000
 31
0.0
 73
     1
 44
1.0
1001
ACAD
1000
MTEXTBEGIN
1070
73
1070
1
1070
44
1040
1.0
1070
74
1070
0
1000
MTEXTEND
  0
POINT
  5
F10054
330
F10002
100
AcDbEntity
  8
Bemassung
 62
     0
100
AcDbPoint
10
-54.9379652605459
20
1.37965260545906
30
0.000000000000000
  0
POINT
  5
F10055
330
F10002
100
AcDbEntity
  8
Bemassung
 62
     0
100
AcDbPoint
10
-54.9379652605459
20
17.3796526054591
30
0.000000000000000
  0
ENDBLK
  5
F10056
330
F10002
100
AcDbEntity
  8
0
100
AcDbBlockEnd
  0
BLOCK
  5
F10057
330
F10007
100
AcDbEntity
  8
0
100
AcDbBlockBegin
  2
*D4
 70
     1
 10
0.0
 20
0.0
 30
0.0
  3
*D4
  1

  0
LINE
  5
F10058
330
F10007
100
AcDbEntity
  8
Bemassung
 62
     0
370
    -2
100
AcDbLine
10
-30.9379652605459
20
1.62965260545906
30
0.000000000000000
11
-3.93796526054592
21
1.62965260545906
31
0.000000000000000
  0
LINE
  5
F10059
330
F10007
100
AcDbEntity
  8
Bemassung
 62
     0
370
    -2
100
AcDbLine
10
-30.9379652605459
20
17.1296526054591
30
0.000000000000000
11
-3.93796526054592
21
17.1296526054591
31
0.000000000000000
  0
LINE
  5
F1005A
330
F10007
100
AcDbEntity
  8
Bemassung
 62
     0
370
    -2
100
AcDbLine
10
-5.93796526054592
20
-11.2555831265509
30
0.000000000000000
11
-5.93796526054592
21
17.1296526054591
31
0.000000000000000
  0
INSERT
  5
F1005B
330
F10007
100
AcDbEntity
  8
Bemassung
 62
     0
370
    -2
100
AcDbBlockReference
  2
VDDIM_DEFAULT
10
-5.93796526054592
20
1.62965260545906
30
0.000000000000000
 41
2.50000000000000
 42
2.50000000000000
 43
2.50000000000000
 50
270.000000000000
  0
INSERT
  5
F1005C
330
F10007
100
AcDbEntity
  8
Bemassung
 62
     0
370
    -2
100
AcDbBlockReference
  2
VDDIM_DEFAULT
10
-5.93796526054592
20
17.1296526054591
30
0.000000000000000
 41
2.50000000000000
 42
2.50000000000000
 43
2.50000000000000
 50
90.0000000000000
  0
MTEXT
  5
F1005D
102
{ACAD_XDICTIONARY
360
F1000A
102
}
330
F10007
100
AcDbEntity
  8
Bemassung
 62
     0
100
AcDbMText
10
-6.60463192721259
20
-0.535980148883340
30
0.000000000000000
 40
2.50000000000000
 41
0.0
 71
     8
 72
     1
  1
\A1;15.5
 11
6.12323399573677e-017
 21
1.00000000000000
 31
0.0
 73
     1
 44
1.0
1001
ACAD
1000
MTEXTBEGIN
1070
73
1070
1
1070
44
1040
1.0
1070
74
1070
0
1000
MTEXTEND
  0
POINT
  5
F1005E
330
F10007
100
AcDbEntity
  8
Bemassung
 62
     0
100
AcDbPoint
10
-30.9379652605459
20
1.62965260545906
30
0.000000000000000
  0
POINT
  5
F1005F
330
F10007
100
AcDbEntity
  8
Bemassung
 62
     0
100
AcDbPoint
10
-30.9379652605459
20
17.1296526054591
30
0.000000000000000
  0
ENDBLK
  5
F10060
330
F10007
100
AcDbEntity
  8
0
100
AcDbBlockEnd
  0
BLOCK
  5
F10061
330
F10016
100
AcDbEntity
  8
0
100
AcDbBlockBegin
  2
*D7
 70
     1
 10
0.0
 20
0.0
 30
0.0
  3
*D7
  1

  0
LINE
  5
F10062
330
F10016
100
AcDbEntity
  8
Bemassung
 62
     0
370
    -2
100
AcDbLine
10
74.8620347394541
20
1.37965260545906
30
0.000000000000000
11
94.3953680727874
21
1.37965260545906
31
0.000000000000000
  0
LINE
  5
F10063
330
F10016
100
AcDbEntity
  8
Bemassung
 62
     0
370
    -2
100
AcDbLine
10
74.8620347394541
20
17.3796526054591
30
0.000000000000000
11
94.3953680727874
21
17.3796526054591
31
0.000000000000000
  0
LINE
  5
F10064
330
F10016
100
AcDbEntity
  8
Bemassung
 62
     0
370
    -2
100
AcDbLine
10
92.3953680727874
20
1.37965260545906
30
0.000000000000000
11
92.3953680727874
21
17.3796526054591
31
0.000000000000000
  0
INSERT
  5
F10065
330
F10016
100
AcDbEntity
  8
Bemassung
 62
     0
370
    -2
100
AcDbBlockReference
  2
VDDIM_DEFAULT
10
92.3953680727874
20
1.37965260545906
30
0.000000000000000
 41
2.50000000000000
 42
2.50000000000000
 43
2.50000000000000
 50
270.000000000000
  0
INSERT
  5
F10066
330
F10016
100
AcDbEntity
  8
Bemassung
 62
     0
370
    -2
100
AcDbBlockReference
  2
VDDIM_DEFAULT
10
92.3953680727874
20
17.3796526054591
30
0.000000000000000
 41
2.50000000000000
 42
2.50000000000000
 43
2.50000000000000
 50
90.0000000000000
  0
MTEXT
  5
F10067
330
F10016
100
AcDbEntity
  8
Bemassung
 62
     0
100
AcDbMText
10
91.7287014061207
20
8.30769230769231
30
0.000000000000000
 40
2.50000000000000
 41
0.0
 71
     8
 72
     1
  1
\A1;16 h5
 11
6.12323399573677e-017
 21
1.00000000000000
 31
0.0
 73
     1
 44
1.0
  0
POINT
  5
F10068
330
F10016
100
AcDbEntity
  8
Bemassung
 62
     0
100
AcDbPoint
10
74.8620347394541
20
1.37965260545906
30
0.000000000000000
  0
POINT
  5
F10069
330
F10016
100
AcDbEntity
  8
Bemassung
 62
     0
100
AcDbPoint
10
74.8620347394541
20
17.3796526054591
30
0.000000000000000
  0
ENDBLK
  5
F1006A
330
F10016
100
AcDbEntity
  8
0
100
AcDbBlockEnd
0
ENDSEC
0
SECTION
2
ENTITIES
  0
DIMENSION
  5
F1000D
330
261
100
AcDbEntity
  8
Bemassung
100
AcDbDimension
  2
*D5
10
25.0620347394541
20
27.3796526054591
30
0.000000000000000
11
-14.9379652605459
21
28.0463192721257
31
0.000000000000000
 70
32
 1
<>
 71
     8
  3
BEM-ISBE
100
AcDbAlignedDimension
13
-54.9379652605459
23
-10.6203473945409
33
0.000000000000000
14
25.0620347394541
24
17.1296526054591
34
0.000000000000000
100
AcDbRotatedDimension
1001
ACAD
1000
DSTYLE
1002
{
1070
284
1070
8
1070
78
1070
8
1070
144
1040
1.00000000000000
1070
147
1040
0.625
1070
 72
1070
 0
1070
 71
1070
 0
1002
}
  0
DIMENSION
  5
F10012
330
261
100
AcDbEntity
  8
Bemassung
100
AcDbDimension
  2
*D6
10
75.0620347394541
20
25.8796526054591
30
0.000000000000000
11
49.8525176386743
21
26.5463192721257
31
0.000000000000000
 70
32
 1
<>
 71
     8
  3
BEM-ISBE
100
AcDbAlignedDimension
13
25.0620347394541
23
17.3796526054591
33
0.000000000000000
14
75.0620347394541
24
17.1796526054591
34
0.000000000000000
100
AcDbRotatedDimension
1001
ACAD
1000
DSTYLE
1002
{
1070
284
1070
8
1070
78
1070
8
1070
144
1040
1.00000000000000
1070
147
1040
0.625
1070
 72
1070
 0
1070
 71
1070
 0
1002
}
  0
DIMENSION
  5
F1001C
330
261
100
AcDbEntity
  8
Bemassung
100
AcDbDimension
  2
*D8
10
-54.9379652605459
20
-8.62034739454094
30
0.000000000000000
11
-42.9379652605459
21
-7.95368072787428
31
0.000000000000000
 70
32
 1
<>
 71
     8
  3
BEM-ISBE
100
AcDbAlignedDimension
13
-30.9379652605459
23
1.62965260545906
33
0.000000000000000
14
-54.9379652605459
24
-10.6203473945409
34
0.000000000000000
100
AcDbRotatedDimension
1001
ACAD
1000
DSTYLE
1002
{
1070
284
1070
8
1070
78
1070
8
1070
144
1040
1.00000000000000
1070
147
1040
0.625
1070
 72
1070
 0
1070
 71
1070
 0
1002
}
  0
DIMENSION
  5
F10021
330
261
100
AcDbEntity
  8
Bemassung
100
AcDbDimension
  2
*D9
10
-54.9379652605459
20
37.3796526054591
30
0.000000000000000
11
10.4516129032258
21
38.0463192721257
31
0.000000000000000
 70
32
 1
<>
 71
     8
  3
BEM-ISBE
100
AcDbAlignedDimension
13
75.0620347394541
23
17.1796526054591
33
0.000000000000000
14
-54.9379652605459
24
-10.6203473945409
34
0.000000000000000
100
AcDbRotatedDimension
1001
ACAD
1000
DSTYLE
1002
{
1070
284
1070
8
1070
78
1070
8
1070
144
1040
1.00000000000000
1070
147
1040
0.625
1070
 72
1070
 0
1070
 71
1070
 0
1002
}
  0
DIMENSION
  5
F10003
330
261
100
AcDbEntity
  8
Bemassung
100
AcDbDimension
  2
*D3
10
-64.9379652605459
20
17.3796526054591
30
0.000000000000000
11
-65.6046319272126
21
9.37965260545906
31
0.000000000000000
 70
32
 1
Ø<>
 71
     8
  3
BEM-ISBE
100
AcDbAlignedDimension
13
-54.9379652605459
23
1.37965260545906
33
0.000000000000000
14
-54.9379652605459
24
17.3796526054591
34
0.000000000000000
50
90.0000000000000
100
AcDbRotatedDimension
1001
ACAD
1000
DSTYLE
1002
{
1070
284
1070
8
1070
78
1070
8
1070
144
1040
1.00000000000000
1070
147
1040
0.625
1070
 72
1070
 0
1070
 71
1070
 0
1002
}
  0
DIMENSION
  5
F10008
330
261
100
AcDbEntity
  8
Bemassung
100
AcDbDimension
  2
*D4
10
-5.93796526054592
20
17.1296526054591
30
0.000000000000000
11
-6.60463192721259
21
-0.535980148883340
31
0.000000000000000
 70
32
 1
Ø<>
 71
     8
  3
BEM-ISBE
100
AcDbAlignedDimension
13
-30.9379652605459
23
1.62965260545906
33
0.000000000000000
14
-30.9379652605459
24
17.1296526054591
34
0.000000000000000
50
90.0000000000000
100
AcDbRotatedDimension
1001
ACAD
1000
DSTYLE
1002
{
1070
284
1070
8
1070
78
1070
8
1070
144
1040
1.00000000000000
1070
147
1040
0.625
1070
 72
1070
 0
1070
 71
1070
 0
1002
}
  0
DIMENSION
  5
F10017
330
261
100
AcDbEntity
  8
Bemassung
100
AcDbDimension
  2
*D7
10
92.3953680727874
20
17.3796526054591
30
0.000000000000000
11
91.7287014061207
21
8.30769230769231
31
0.000000000000000
 70
32
 1
Ø<> h5
 71
     8
  3
BEM-ISBE
100
AcDbAlignedDimension
13
74.8620347394541
23
1.37965260545906
33
0.000000000000000
14
74.8620347394541
24
17.3796526054591
34
0.000000000000000
50
90.0000000000000
100
AcDbRotatedDimension
1001
ACAD
1000
DSTYLE
1002
{
1070
284
1070
8
1070
78
1070
8
1070
144
1040
1.00000000000000
1070
147
1040
0.625
1070
 72
1070
 0
1070
 71
1070
 0
1002
}
  0
LINE
  5
F1006B
330
F1006C
100
AcDbEntity
8
Geo
100
AcDbLine
10
-54.9379652605459
20
9.37965260545906
30
0.000000000000000
11
-54.9379652605459
21
17.3796526054591
31
0.000000000000000
  0
LINE
  5
F1006D
330
F1006E
100
AcDbEntity
8
Geo
100
AcDbLine
10
-54.9379652605459
20
17.3796526054591
30
0.000000000000000
11
-30.9379652605459
21
17.3796526054591
31
0.000000000000000
  0
LINE
  5
F1006F
330
F10070
100
AcDbEntity
8
Geo
100
AcDbLine
10
-30.9379652605459
20
17.3796526054591
30
0.000000000000000
11
-30.9379652605459
21
17.1296526054591
31
0.000000000000000
  0
LINE
  5
F10071
330
F10072
100
AcDbEntity
8
Geo
100
AcDbLine
10
-30.9379652605459
20
17.1296526054591
30
0.000000000000000
11
25.0620347394541
21
17.1296526054591
31
0.000000000000000
  0
LINE
  5
F10073
330
F10074
100
AcDbEntity
8
Geo
100
AcDbLine
10
25.0620347394541
20
17.1296526054591
30
0.000000000000000
11
25.0620347394541
21
17.3796526054591
31
0.000000000000000
  0
LINE
  5
F10075
330
F10076
100
AcDbEntity
8
Geo
100
AcDbLine
10
25.0620347394541
20
17.3796526054591
30
0.000000000000000
11
74.8620347394541
21
17.3796526054591
31
0.000000000000000
  0
LINE
  5
F10077
330
F10078
100
AcDbEntity
8
Geo
100
AcDbLine
10
74.8620347394541
20
17.3796526054591
30
0.000000000000000
11
75.0620347394541
21
17.1796526054591
31
0.000000000000000
  0
LINE
  5
F10079
330
F1007A
100
AcDbEntity
8
Geo
100
AcDbLine
10
-37.4379652605459
20
17.3795589756321
30
0.000000000000000
11
-37.3379652605459
21
17.3795914301034
31
0.000000000000000
  0
LINE
  5
F1007B
330
F1007C
100
AcDbEntity
8
Geo
100
AcDbLine
10
-37.3379652605459
20
17.3795914301034
30
0.000000000000000
11
-37.2379652605459
21
17.3790115518633
31
0.000000000000000
  0
LINE
  5
F1007D
330
F1007E
100
AcDbEntity
8
Geo
100
AcDbLine
10
-37.2379652605459
20
17.3790115518633
30
0.000000000000000
11
-37.1379652605459
21
17.3778193852970
31
0.000000000000000
  0
LINE
  5
F1007F
330
F10080
100
AcDbEntity
8
Geo
100
AcDbLine
10
-37.1379652605459
20
17.3778193852970
30
0.000000000000000
11
-37.0379652605459
21
17.3760150216557
31
0.000000000000000
  0
LINE
  5
F10081
330
F10082
100
AcDbEntity
8
Geo
100
AcDbLine
10
-37.0379652605459
20
17.3760150216557
30
0.000000000000000
11
-36.9379652605459
21
17.3735985990491
31
0.000000000000000
  0
LINE
  5
F10083
330
F10084
100
AcDbEntity
8
Geo
100
AcDbLine
10
-36.9379652605459
20
17.3735985990491
30
0.000000000000000
11
-36.8379652605459
21
17.3705703024355
31
0.000000000000000
  0
LINE
  5
F10085
330
F10086
100
AcDbEntity
8
Geo
100
AcDbLine
10
-36.8379652605459
20
17.3705703024355
30
0.000000000000000
11
-36.7379652605459
21
17.3669303636073
31
0.000000000000000
  0
LINE
  5
F10087
330
F10088
100
AcDbEntity
8
Geo
100
AcDbLine
10
-36.7379652605459
20
17.3669303636073
30
0.000000000000000
11
-36.6379652605459
21
17.3626790611733
31
0.000000000000000
  0
LINE
  5
F10089
330
F1008A
100
AcDbEntity
8
Geo
100
AcDbLine
10
-36.6379652605459
20
17.3626790611733
30
0.000000000000000
11
-36.5379652605459
21
17.3578167205376
31
0.000000000000000
  0
LINE
  5
F1008B
330
F1008C
100
AcDbEntity
8
Geo
100
AcDbLine
10
-36.5379652605459
20
17.3578167205376
30
0.000000000000000
11
-36.4379652605459
21
17.3523437138742
31
0.000000000000000
  0
LINE
  5
F1008D
330
F1008E
100
AcDbEntity
8
Geo
100
AcDbLine
10
-36.4379652605459
20
17.3523437138742
30
0.000000000000000
11
-36.3379652605459
21
17.3462604600989
31
0.000000000000000
  0
LINE
  5
F1008F
330
F10090
100
AcDbEntity
8
Geo
100
AcDbLine
10
-36.3379652605459
20
17.3462604600989
30
0.000000000000000
11
-36.2379652605459
21
17.3395674248372
31
0.000000000000000
  0
LINE
  5
F10091
330
F10092
100
AcDbEntity
8
Geo
100
AcDbLine
10
-36.2379652605459
20
17.3395674248372
30
0.000000000000000
11
-36.1379652605459
21
17.3322651203885
31
0.000000000000000
  0
LINE
  5
F10093
330
F10094
100
AcDbEntity
8
Geo
100
AcDbLine
10
-36.1379652605459
20
17.3322651203885
30
0.000000000000000
11
-36.0379652605459
21
17.3243541056873
31
0.000000000000000
  0
LINE
  5
F10095
330
F10096
100
AcDbEntity
8
Geo
100
AcDbLine
10
-36.0379652605459
20
17.3243541056873
30
0.000000000000000
11
-35.9379652605459
21
17.3158349862596
31
0.000000000000000
  0
LINE
  5
F10097
330
F10098
100
AcDbEntity
8
Geo
100
AcDbLine
10
-35.9379652605459
20
17.3158349862596
30
0.000000000000000
11
-35.8379652605459
21
17.3067084141774
31
0.000000000000000
  0
LINE
  5
F10099
330
F1009A
100
AcDbEntity
8
Geo
100
AcDbLine
10
-35.8379652605459
20
17.3067084141774
30
0.000000000000000
11
-35.7379652605459
21
17.2969750880085
31
0.000000000000000
  0
LINE
  5
F1009B
330
F1009C
100
AcDbEntity
8
Geo
100
AcDbLine
10
-35.7379652605459
20
17.2969750880085
30
0.000000000000000
11
-35.6379652605459
21
17.2866357527627
31
0.000000000000000
  0
LINE
  5
F1009D
330
F1009E
100
AcDbEntity
8
Geo
100
AcDbLine
10
-35.6379652605459
20
17.2866357527627
30
0.000000000000000
11
-35.5379652605459
21
17.2756911998352
31
0.000000000000000
  0
LINE
  5
F1009F
330
F100A0
100
AcDbEntity
8
Geo
100
AcDbLine
10
-35.5379652605459
20
17.2756911998352
30
0.000000000000000
11
-35.4379652605459
21
17.2641422669459
31
0.000000000000000
  0
LINE
  5
F100A1
330
F100A2
100
AcDbEntity
8
Geo
100
AcDbLine
10
-35.4379652605459
20
17.2641422669459
30
0.000000000000000
11
-35.3379652605459
21
17.2519898380753
31
0.000000000000000
  0
LINE
  5
F100A3
330
F100A4
100
AcDbEntity
8
Geo
100
AcDbLine
10
-35.3379652605459
20
17.2519898380753
30
0.000000000000000
11
-35.2379652605459
21
17.2392348433967
31
0.000000000000000
  0
LINE
  5
F100A5
330
F100A6
100
AcDbEntity
8
Geo
100
AcDbLine
10
-35.2379652605459
20
17.2392348433967
30
0.000000000000000
11
-35.1379652605459
21
17.2258782592051
31
0.000000000000000
  0
LINE
  5
F100A7
330
F100A8
100
AcDbEntity
8
Geo
100
AcDbLine
10
-35.1379652605459
20
17.2258782592051
30
0.000000000000000
11
-35.0379652605459
21
17.2119211078425
31
0.000000000000000
  0
LINE
  5
F100A9
330
F100AA
100
AcDbEntity
8
Geo
100
AcDbLine
10
-35.0379652605459
20
17.2119211078425
30
0.000000000000000
11
-34.9379652605459
21
17.1973644576196
31
0.000000000000000
  0
LINE
  5
F100AB
330
F100AC
100
AcDbEntity
8
Geo
100
AcDbLine
10
-34.9379652605459
20
17.1973644576196
30
0.000000000000000
11
-34.8379652605459
21
17.1822094227341
31
0.000000000000000
  0
LINE
  5
F100AD
330
F100AE
100
AcDbEntity
8
Geo
100
AcDbLine
10
-34.8379652605459
20
17.1822094227341
30
0.000000000000000
11
-34.7379652605459
21
17.1664571631853
31
0.000000000000000
  0
LINE
  5
F100AF
330
F100B0
100
AcDbEntity
8
Geo
100
AcDbLine
10
-34.7379652605459
20
17.1664571631853
30
0.000000000000000
11
-34.6379652605459
21
17.1501088846853
31
0.000000000000000
  0
LINE
  5
F100B1
330
F100B2
100
AcDbEntity
8
Geo
100
AcDbLine
10
-34.6379652605459
20
17.1501088846853
30
0.000000000000000
11
-34.5379652605459
21
17.1331658385670
31
0.000000000000000
  0
LINE
  5
F100B3
330
F100B4
100
AcDbEntity
8
Geo
100
AcDbLine
10
-34.5379652605459
20
17.1331658385670
30
0.000000000000000
11
-34.4379652605459
21
17.1156293216880
31
0.000000000000000
  0
LINE
  5
F100B5
330
F100B6
100
AcDbEntity
8
Geo
100
AcDbLine
10
-34.4379652605459
20
17.1156293216880
30
0.000000000000000
11
-34.3379652605459
21
17.0975006763314
31
0.000000000000000
  0
LINE
  5
F100B7
330
F100B8
100
AcDbEntity
8
Geo
100
AcDbLine
10
-34.3379652605459
20
17.0975006763314
30
0.000000000000000
11
-34.2379652605459
21
17.0787812901030
31
0.000000000000000
  0
LINE
  5
F100B9
330
F100BA
100
AcDbEntity
8
Geo
100
AcDbLine
10
-34.2379652605459
20
17.0787812901030
30
0.000000000000000
11
-34.1379652605459
21
17.0594725958256
31
0.000000000000000
  0
LINE
  5
F100BB
330
F100BC
100
AcDbEntity
8
Geo
100
AcDbLine
10
-34.1379652605459
20
17.0594725958256
30
0.000000000000000
11
-34.0379652605459
21
17.0395760714283
31
0.000000000000000
  0
LINE
  5
F100BD
330
F100BE
100
AcDbEntity
8
Geo
100
AcDbLine
10
-34.0379652605459
20
17.0395760714283
30
0.000000000000000
11
-33.9379652605459
21
17.0190932398347
31
0.000000000000000
  0
LINE
  5
F100BF
330
F100C0
100
AcDbEntity
8
Geo
100
AcDbLine
10
-33.9379652605459
20
17.0190932398347
30
0.000000000000000
11
-33.8379652605459
21
16.9980256688449
31
0.000000000000000
  0
LINE
  5
F100C1
330
F100C2
100
AcDbEntity
8
Geo
100
AcDbLine
10
-33.8379652605459
20
16.9980256688449
30
0.000000000000000
11
-33.7379652605459
21
16.9763749710169
31
0.000000000000000
  0
LINE
  5
F100C3
330
F100C4
100
AcDbEntity
8
Geo
100
AcDbLine
10
-33.7379652605459
20
16.9763749710169
30
0.000000000000000
11
-33.6379652605459
21
16.9541428035420
31
0.000000000000000
  0
LINE
  5
F100C5
330
F100C6
100
AcDbEntity
8
Geo
100
AcDbLine
10
-33.6379652605459
20
16.9541428035420
30
0.000000000000000
11
-33.5379652605459
21
16.9313308681187
31
0.000000000000000
  0
LINE
  5
F100C7
330
F100C8
100
AcDbEntity
8
Geo
100
AcDbLine
10
-33.5379652605459
20
16.9313308681187
30
0.000000000000000
11
-33.4379652605459
21
16.9079409108221
31
0.000000000000000
  0
LINE
  5
F100C9
330
F100CA
100
AcDbEntity
8
Geo
100
AcDbLine
10
-33.4379652605459
20
16.9079409108221
30
0.000000000000000
11
-33.3379652605459
21
16.8839747219705
31
0.000000000000000
  0
LINE
  5
F100CB
330
F100CC
100
AcDbEntity
8
Geo
100
AcDbLine
10
-33.3379652605459
20
16.8839747219705
30
0.000000000000000
11
-33.2379652605459
21
16.8594341359879
31
0.000000000000000
  0
LINE
  5
F100CD
330
F100CE
100
AcDbEntity
8
Geo
100
AcDbLine
10
-33.2379652605459
20
16.8594341359879
30
0.000000000000000
11
-33.1379652605459
21
16.8343210312643
31
0.000000000000000
  0
LINE
  5
F100CF
330
F100D0
100
AcDbEntity
8
Geo
100
AcDbLine
10
-33.1379652605459
20
16.8343210312643
30
0.000000000000000
11
-33.0379652605459
21
16.8086373300113
31
0.000000000000000
  0
LINE
  5
F100D1
330
F100D2
100
AcDbEntity
8
Geo
100
AcDbLine
10
-33.0379652605459
20
16.8086373300113
30
0.000000000000000
11
-32.9379652605459
21
16.7823849981151
31
0.000000000000000
  0
LINE
  5
F100D3
330
F100D4
100
AcDbEntity
8
Geo
100
AcDbLine
10
-32.9379652605459
20
16.7823849981151
30
0.000000000000000
11
-32.8379652605459
21
16.7555660449864
31
0.000000000000000
  0
LINE
  5
F100D5
330
F100D6
100
AcDbEntity
8
Geo
100
AcDbLine
10
-32.8379652605459
20
16.7555660449864
30
0.000000000000000
11
-32.7379652605459
21
16.7281825234062
31
0.000000000000000
  0
LINE
  5
F100D7
330
F100D8
100
AcDbEntity
8
Geo
100
AcDbLine
10
-32.7379652605459
20
16.7281825234062
30
0.000000000000000
11
-32.6379652605459
21
16.7002365293686
31
0.000000000000000
  0
LINE
  5
F100D9
330
F100DA
100
AcDbEntity
8
Geo
100
AcDbLine
10
-32.6379652605459
20
16.7002365293686
30
0.000000000000000
11
-32.5379652605459
21
16.6717302019210
31
0.000000000000000
  0
LINE
  5
F100DB
330
F100DC
100
AcDbEntity
8
Geo
100
AcDbLine
10
-32.5379652605459
20
16.6717302019210
30
0.000000000000000
11
-32.4379652605459
21
16.6426657229994
31
0.000000000000000
  0
LINE
  5
F100DD
330
F100DE
100
AcDbEntity
8
Geo
100
AcDbLine
10
-32.4379652605459
20
16.6426657229994
30
0.000000000000000
11
-32.3379652605459
21
16.6130453172625
31
0.000000000000000
  0
LINE
  5
F100DF
330
F100E0
100
AcDbEntity
8
Geo
100
AcDbLine
10
-32.3379652605459
20
16.6130453172625
30
0.000000000000000
11
-32.2379652605459
21
16.5828712519203
31
0.000000000000000
  0
LINE
  5
F100E1
330
F100E2
100
AcDbEntity
8
Geo
100
AcDbLine
10
-32.2379652605459
20
16.5828712519203
30
0.000000000000000
11
-32.1379652605459
21
16.5521458365616
31
0.000000000000000
  0
LINE
  5
F100E3
330
F100E4
100
AcDbEntity
8
Geo
100
AcDbLine
10
-32.1379652605459
20
16.5521458365616
30
0.000000000000000
11
-32.0379652605459
21
16.5208714229763
31
0.000000000000000
  0
LINE
  5
F100E5
330
F100E6
100
AcDbEntity
8
Geo
100
AcDbLine
10
-32.0379652605459
20
16.5208714229763
30
0.000000000000000
11
-31.9379652605459
21
16.4890504049761
31
0.000000000000000
  0
LINE
  5
F100E7
330
F100E8
100
AcDbEntity
8
Geo
100
AcDbLine
10
-31.9379652605459
20
16.4890504049761
30
0.000000000000000
11
-31.8379652605459
21
16.4566852182109
31
0.000000000000000
  0
LINE
  5
F100E9
330
F100EA
100
AcDbEntity
8
Geo
100
AcDbLine
10
-31.8379652605459
20
16.4566852182109
30
0.000000000000000
11
-31.7379652605459
21
16.4237783399824
31
0.000000000000000
  0
LINE
  5
F100EB
330
F100EC
100
AcDbEntity
8
Geo
100
AcDbLine
10
-31.7379652605459
20
16.4237783399824
30
0.000000000000000
11
-31.6379652605459
21
16.3903322890547
31
0.000000000000000
  0
LINE
  5
F100ED
330
F100EE
100
AcDbEntity
8
Geo
100
AcDbLine
10
-31.6379652605459
20
16.3903322890547
30
0.000000000000000
11
-31.5379652605459
21
16.3563496254613
31
0.000000000000000
  0
LINE
  5
F100EF
330
F100F0
100
AcDbEntity
8
Geo
100
AcDbLine
10
-31.5379652605459
20
16.3563496254613
30
0.000000000000000
11
-31.4379652605459
21
16.3218329503090
31
0.000000000000000
  0
LINE
  5
F100F1
330
F100F2
100
AcDbEntity
8
Geo
100
AcDbLine
10
-31.4379652605459
20
16.3218329503090
30
0.000000000000000
11
-31.3379652605459
21
16.2867849055792
31
0.000000000000000
  0
LINE
  5
F100F3
330
F100F4
100
AcDbEntity
8
Geo
100
AcDbLine
10
-31.3379652605459
20
16.2867849055792
30
0.000000000000000
11
-31.2379652605459
21
16.2512081739256
31
0.000000000000000
  0
LINE
  5
F100F5
330
F100F6
100
AcDbEntity
8
Geo
100
AcDbLine
10
-31.2379652605459
20
16.2512081739256
30
0.000000000000000
11
-31.1379652605459
21
16.2151054784684
31
0.000000000000000
  0
LINE
  5
F100F7
330
F100F8
100
AcDbEntity
8
Geo
100
AcDbLine
10
-31.1379652605459
20
16.2151054784684
30
0.000000000000000
11
-31.0379652605459
21
16.1784795825865
31
0.000000000000000
  0
LINE
  5
F100F9
330
F100FA
100
AcDbEntity
8
Geo
100
AcDbLine
10
-31.0379652605459
20
16.1784795825865
30
0.000000000000000
11
-30.9379652605459
21
16.1413332897056
31
0.000000000000000
  0
LINE
  5
F100FB
330
F100FC
100
AcDbEntity
8
Geo
100
AcDbLine
10
-30.9379652605459
20
16.1413332897056
30
0.000000000000000
11
-30.8379652605459
21
15.8257080000667
31
0.000000000000000
  0
LINE
  5
F100FD
330
F100FE
100
AcDbEntity
8
Geo
100
AcDbLine
10
-30.8379652605459
20
15.8257080000667
30
0.000000000000000
11
-30.7379652605459
21
15.6029228907826
31
0.000000000000000
  0
LINE
  5
F100FF
330
F10100
100
AcDbEntity
8
Geo
100
AcDbLine
10
-30.7379652605459
20
15.6029228907826
30
0.000000000000000
11
-30.6379652605459
21
15.2385212025665
31
0.000000000000000
  0
LINE
  5
F10101
330
F10102
100
AcDbEntity
8
Geo
100
AcDbLine
10
-30.6379652605459
20
15.2385212025665
30
0.000000000000000
11
-30.5379652605459
21
14.7005959794886
31
0.000000000000000
  0
LINE
  5
F10103
330
F10104
100
AcDbEntity
8
Geo
100
AcDbLine
10
-30.5379652605459
20
14.7005959794886
30
0.000000000000000
11
-30.4379652605459
21
13.9527169993941
31
0.000000000000000
  0
LINE
  5
F10105
330
F10106
100
AcDbEntity
8
Geo
100
AcDbLine
10
-30.4379652605459
20
13.9527169993941
30
0.000000000000000
11
-30.3379652605459
21
12.9605398306878
31
0.000000000000000
  0
LINE
  5
F10107
330
F10108
100
AcDbEntity
8
Geo
100
AcDbLine
10
-30.3379652605459
20
12.9605398306878
30
0.000000000000000
11
-30.2379652605459
21
11.7012636037928
31
0.000000000000000
  0
LINE
  5
F10109
330
F1010A
100
AcDbEntity
8
Geo
100
AcDbLine
10
-30.2379652605459
20
11.7012636037928
30
0.000000000000000
11
-30.1379652605459
21
10.1759981503653
31
0.000000000000000
  0
LINE
  5
F1010B
330
F1010C
100
AcDbEntity
8
Geo
100
AcDbLine
10
-30.1379652605459
20
10.1759981503653
30
0.000000000000000
11
-30.0379652605459
21
8.42426903341294
31
0.000000000000000
  0
LINE
  5
F1010D
330
F1010E
100
AcDbEntity
8
Geo
100
AcDbLine
10
-30.0379652605459
20
8.42426903341294
30
0.000000000000000
11
-29.9379652605459
21
6.53856986382876
31
0.000000000000000
  0
LINE
  5
F1010F
330
F10110
100
AcDbEntity
8
Geo
100
AcDbLine
10
-54.9379652605459
20
17.3796526054591
30
0.000000000000000
11
-54.8379652605459
21
17.3793464367622
31
0.000000000000000
  0
LINE
  5
F10111
330
F10112
100
AcDbEntity
8
Geo
100
AcDbLine
10
-54.8379652605459
20
17.3793464367622
30
0.000000000000000
11
-54.7379652605459
21
17.3784279541063
31
0.000000000000000
  0
LINE
  5
F10113
330
F10114
100
AcDbEntity
8
Geo
100
AcDbLine
10
-54.7379652605459
20
17.3784279541063
30
0.000000000000000
11
-54.6379652605459
21
17.3768972277941
31
0.000000000000000
  0
LINE
  5
F10115
330
F10116
100
AcDbEntity
8
Geo
100
AcDbLine
10
-54.6379652605459
20
17.3768972277941
30
0.000000000000000
11
-54.5379652605459
21
17.3747543749907
31
0.000000000000000
  0
LINE
  5
F10117
330
F10118
100
AcDbEntity
8
Geo
100
AcDbLine
10
-54.5379652605459
20
17.3747543749907
30
0.000000000000000
11
-54.4379652605459
21
17.3719995597146
31
0.000000000000000
  0
LINE
  5
F10119
330
F1011A
100
AcDbEntity
8
Geo
100
AcDbLine
10
-54.4379652605459
20
17.3719995597146
30
0.000000000000000
11
-54.3379652605459
21
17.3686329928256
31
0.000000000000000
  0
LINE
  5
F1011B
330
F1011C
100
AcDbEntity
8
Geo
100
AcDbLine
10
-54.3379652605459
20
17.3686329928256
30
0.000000000000000
11
-54.2379652605459
21
17.3646549320079
31
0.000000000000000
  0
LINE
  5
F1011D
330
F1011E
100
AcDbEntity
8
Geo
100
AcDbLine
10
-54.2379652605459
20
17.3646549320079
30
0.000000000000000
11
-54.1379652605459
21
17.3600656817509
31
0.000000000000000
  0
LINE
  5
F1011F
330
F10120
100
AcDbEntity
8
Geo
100
AcDbLine
10
-54.1379652605459
20
17.3600656817509
30
0.000000000000000
11
-54.0379652605459
21
17.3548655933258
31
0.000000000000000
  0
LINE
  5
F10121
330
F10122
100
AcDbEntity
8
Geo
100
AcDbLine
10
-54.0379652605459
20
17.3548655933258
30
0.000000000000000
11
-53.9379652605459
21
17.3490550647587
31
0.000000000000000
  0
LINE
  5
F10123
330
F10124
100
AcDbEntity
8
Geo
100
AcDbLine
10
-53.9379652605459
20
17.3490550647587
30
0.000000000000000
11
-53.8379652605459
21
17.3426345408001
31
0.000000000000000
  0
LINE
  5
F10125
330
F10126
100
AcDbEntity
8
Geo
100
AcDbLine
10
-53.8379652605459
20
17.3426345408001
30
0.000000000000000
11
-53.7379652605459
21
17.3356045128909
31
0.000000000000000
  0
LINE
  5
F10127
330
F10128
100
AcDbEntity
8
Geo
100
AcDbLine
10
-53.7379652605459
20
17.3356045128909
30
0.000000000000000
11
-53.6379652605459
21
17.3279655191246
31
0.000000000000000
  0
LINE
  5
F10129
330
F1012A
100
AcDbEntity
8
Geo
100
AcDbLine
10
-53.6379652605459
20
17.3279655191246
30
0.000000000000000
11
-53.5379652605459
21
17.3197181442065
31
0.000000000000000
  0
LINE
  5
F1012B
330
F1012C
100
AcDbEntity
8
Geo
100
AcDbLine
10
-53.5379652605459
20
17.3197181442065
30
0.000000000000000
11
-53.4379652605459
21
17.3108630194086
31
0.000000000000000
  0
LINE
  5
F1012D
330
F1012E
100
AcDbEntity
8
Geo
100
AcDbLine
10
-53.4379652605459
20
17.3108630194086
30
0.000000000000000
11
-53.3379652605459
21
17.3014008225214
31
0.000000000000000
  0
LINE
  5
F1012F
330
F10130
100
AcDbEntity
8
Geo
100
AcDbLine
10
-53.3379652605459
20
17.3014008225214
30
0.000000000000000
11
-53.2379652605459
21
17.2913322778019
31
0.000000000000000
  0
LINE
  5
F10131
330
F10132
100
AcDbEntity
8
Geo
100
AcDbLine
10
-53.2379652605459
20
17.2913322778019
30
0.000000000000000
11
-53.1379652605459
21
17.2806581559186
31
0.000000000000000
  0
LINE
  5
F10133
330
F10134
100
AcDbEntity
8
Geo
100
AcDbLine
10
-53.1379652605459
20
17.2806581559186
30
0.000000000000000
11
-53.0379652605459
21
17.2693792738919
31
0.000000000000000
  0
LINE
  5
F10135
330
F10136
100
AcDbEntity
8
Geo
100
AcDbLine
10
-53.0379652605459
20
17.2693792738919
30
0.000000000000000
11
-52.9379652605459
21
17.2574964950319
31
0.000000000000000
  0
LINE
  5
F10137
330
F10138
100
AcDbEntity
8
Geo
100
AcDbLine
10
-52.9379652605459
20
17.2574964950319
30
0.000000000000000
11
-52.8379652605459
21
17.2450107288724
31
0.000000000000000
  0
LINE
  5
F10139
330
F1013A
100
AcDbEntity
8
Geo
100
AcDbLine
10
-52.8379652605459
20
17.2450107288724
30
0.000000000000000
11
-52.7379652605459
21
17.2319229311011
31
0.000000000000000
  0
LINE
  5
F1013B
330
F1013C
100
AcDbEntity
8
Geo
100
AcDbLine
10
-52.7379652605459
20
17.2319229311011
30
0.000000000000000
11
-52.6379652605459
21
17.2182341034864
31
0.000000000000000
  0
LINE
  5
F1013D
330
F1013E
100
AcDbEntity
8
Geo
100
AcDbLine
10
-52.6379652605459
20
17.2182341034864
30
0.000000000000000
11
-52.5379652605459
21
17.2039452938011
31
0.000000000000000
  0
LINE
  5
F1013F
330
F10140
100
AcDbEntity
8
Geo
100
AcDbLine
10
-52.5379652605459
20
17.2039452938011
30
0.000000000000000
11
-52.4379652605459
21
17.1890575957416
31
0.000000000000000
  0
LINE
  5
F10141
330
F10142
100
AcDbEntity
8
Geo
100
AcDbLine
10
-52.4379652605459
20
17.1890575957416
30
0.000000000000000
11
-52.3379652605459
21
17.1735721488448
31
0.000000000000000
  0
LINE
  5
F10143
330
F10144
100
AcDbEntity
8
Geo
100
AcDbLine
10
-52.3379652605459
20
17.1735721488448
30
0.000000000000000
11
-52.2379652605459
21
17.1574901384003
31
0.000000000000000
  0
LINE
  5
F10145
330
F10146
100
AcDbEntity
8
Geo
100
AcDbLine
10
-52.2379652605459
20
17.1574901384003
30
0.000000000000000
11
-52.1379652605459
21
17.1408127953604
31
0.000000000000000
  0
LINE
  5
F10147
330
F10148
100
AcDbEntity
8
Geo
100
AcDbLine
10
-52.1379652605459
20
17.1408127953604
30
0.000000000000000
11
-52.0379652605459
21
17.1235413962449
31
0.000000000000000
  0
LINE
  5
F10149
330
F1014A
100
AcDbEntity
8
Geo
100
AcDbLine
10
-52.0379652605459
20
17.1235413962449
30
0.000000000000000
11
-51.9379652605459
21
17.1056772630445
31
0.000000000000000
  0
LINE
  5
F1014B
330
F1014C
100
AcDbEntity
8
Geo
100
AcDbLine
10
-51.9379652605459
20
17.1056772630445
30
0.000000000000000
11
-51.8379652605459
21
17.0872217631187
31
0.000000000000000
  0
LINE
  5
F1014D
330
F1014E
100
AcDbEntity
8
Geo
100
AcDbLine
10
-51.8379652605459
20
17.0872217631187
30
0.000000000000000
11
-51.7379652605459
21
17.0681763090915
31
0.000000000000000
  0
LINE
  5
F1014F
330
F10150
100
AcDbEntity
8
Geo
100
AcDbLine
10
-51.7379652605459
20
17.0681763090915
30
0.000000000000000
11
-51.6379652605459
21
17.0485423587435
31
0.000000000000000
  0
LINE
  5
F10151
330
F10152
100
AcDbEntity
8
Geo
100
AcDbLine
10
-51.6379652605459
20
17.0485423587435
30
0.000000000000000
11
-51.5379652605459
21
17.0283214148999
31
0.000000000000000
  0
LINE
  5
F10153
330
F10154
100
AcDbEntity
8
Geo
100
AcDbLine
10
-51.5379652605459
20
17.0283214148999
30
0.000000000000000
11
-51.4379652605459
21
17.0075150253157
31
0.000000000000000
  0
LINE
  5
F10155
330
F10156
100
AcDbEntity
8
Geo
100
AcDbLine
10
-51.4379652605459
20
17.0075150253157
30
0.000000000000000
11
-51.3379652605459
21
16.9861247825572
31
0.000000000000000
  0
LINE
  5
F10157
330
F10158
100
AcDbEntity
8
Geo
100
AcDbLine
10
-51.3379652605459
20
16.9861247825572
30
0.000000000000000
11
-51.2379652605459
21
16.9641523238800
31
0.000000000000000
  0
LINE
  5
F10159
330
F1015A
100
AcDbEntity
8
Geo
100
AcDbLine
10
-51.2379652605459
20
16.9641523238800
30
0.000000000000000
11
-51.1379652605459
21
16.9415993311040
31
0.000000000000000
  0
LINE
  5
F1015B
330
F1015C
100
AcDbEntity
8
Geo
100
AcDbLine
10
-51.1379652605459
20
16.9415993311040
30
0.000000000000000
11
-51.0379652605459
21
16.9184675304843
31
0.000000000000000
  0
LINE
  5
F1015D
330
F1015E
100
AcDbEntity
8
Geo
100
AcDbLine
10
-51.0379652605459
20
16.9184675304843
30
0.000000000000000
11
-50.9379652605459
21
16.8947586925791
31
0.000000000000000
  0
LINE
  5
F1015F
330
F10160
100
AcDbEntity
8
Geo
100
AcDbLine
10
-50.9379652605459
20
16.8947586925791
30
0.000000000000000
11
-50.8379652605459
21
16.8704746321144
31
0.000000000000000
  0
LINE
  5
F10161
330
F10162
100
AcDbEntity
8
Geo
100
AcDbLine
10
-50.8379652605459
20
16.8704746321144
30
0.000000000000000
11
-50.7379652605459
21
16.8456172078451
31
0.000000000000000
  0
LINE
  5
F10163
330
F10164
100
AcDbEntity
8
Geo
100
AcDbLine
10
-50.7379652605459
20
16.8456172078451
30
0.000000000000000
11
-50.6379652605459
21
16.8201883224125
31
0.000000000000000
  0
LINE
  5
F10165
330
F10166
100
AcDbEntity
8
Geo
100
AcDbLine
10
-50.6379652605459
20
16.8201883224125
30
0.000000000000000
11
-50.5379652605459
21
16.7941899221987
31
0.000000000000000
  0
LINE
  5
F10167
330
F10168
100
AcDbEntity
8
Geo
100
AcDbLine
10
-50.5379652605459
20
16.7941899221987
30
0.000000000000000
11
-50.4379652605459
21
16.7676239971777
31
0.000000000000000
  0
LINE
  5
F10169
330
F1016A
100
AcDbEntity
8
Geo
100
AcDbLine
10
-50.4379652605459
20
16.7676239971777
30
0.000000000000000
11
-50.3379652605459
21
16.7404925807634
31
0.000000000000000
  0
LINE
  5
F1016B
330
F1016C
100
AcDbEntity
8
Geo
100
AcDbLine
10
-50.3379652605459
20
16.7404925807634
30
0.000000000000000
11
-50.2379652605459
21
16.7127977496532
31
0.000000000000000
  0
LINE
  5
F1016D
330
F1016E
100
AcDbEntity
8
Geo
100
AcDbLine
10
-50.2379652605459
20
16.7127977496532
30
0.000000000000000
11
-50.1379652605459
21
16.6845416236697
31
0.000000000000000
  0
LINE
  5
F1016F
330
F10170
100
AcDbEntity
8
Geo
100
AcDbLine
10
-50.1379652605459
20
16.6845416236697
30
0.000000000000000
11
-50.0379652605459
21
16.6557263655984
31
0.000000000000000
  0
LINE
  5
F10171
330
F10172
100
AcDbEntity
8
Geo
100
AcDbLine
10
-50.0379652605459
20
16.6557263655984
30
0.000000000000000
11
-49.9379652605459
21
16.6263541810216
31
0.000000000000000
  0
LINE
  5
F10173
330
F10174
100
AcDbEntity
8
Geo
100
AcDbLine
10
-49.9379652605459
20
16.6263541810216
30
0.000000000000000
11
-49.8379652605459
21
16.5964273181502
31
0.000000000000000
  0
LINE
  5
F10175
330
F10176
100
AcDbEntity
8
Geo
100
AcDbLine
10
-49.8379652605459
20
16.5964273181502
30
0.000000000000000
11
-49.7379652605459
21
16.5659480676515
31
0.000000000000000
  0
LINE
  5
F10177
330
F10178
100
AcDbEntity
8
Geo
100
AcDbLine
10
-49.7379652605459
20
16.5659480676515
30
0.000000000000000
11
-49.6379652605459
21
16.5349187624735
31
0.000000000000000
  0
LINE
  5
F10179
330
F1017A
100
AcDbEntity
8
Geo
100
AcDbLine
10
-49.6379652605459
20
16.5349187624735
30
0.000000000000000
11
-49.5379652605459
21
16.5033417776666
31
0.000000000000000
  0
LINE
  5
F1017B
330
F1017C
100
AcDbEntity
8
Geo
100
AcDbLine
10
-49.5379652605459
20
16.5033417776666
30
0.000000000000000
11
-49.4379652605459
21
16.4712195302020
31
0.000000000000000
  0
LINE
  5
F1017D
330
F1017E
100
AcDbEntity
8
Geo
100
AcDbLine
10
-49.4379652605459
20
16.4712195302020
30
0.000000000000000
11
-49.3379652605459
21
16.4385544787863
31
0.000000000000000
  0
LINE
  5
F1017F
330
F10180
100
AcDbEntity
8
Geo
100
AcDbLine
10
-49.3379652605459
20
16.4385544787863
30
0.000000000000000
11
-49.2379652605459
21
16.4053491236736
31
0.000000000000000
  0
LINE
  5
F10181
330
F10182
100
AcDbEntity
8
Geo
100
AcDbLine
10
-49.2379652605459
20
16.4053491236736
30
0.000000000000000
11
-49.1379652605459
21
16.3716060064739
31
0.000000000000000
  0
LINE
  5
F10183
330
F10184
100
AcDbEntity
8
Geo
100
AcDbLine
10
-49.1379652605459
20
16.3716060064739
30
0.000000000000000
11
-49.0379652605459
21
16.3373277099588
31
0.000000000000000
  0
LINE
  5
F10185
330
F10186
100
AcDbEntity
8
Geo
100
AcDbLine
10
-49.0379652605459
20
16.3373277099588
30
0.000000000000000
11
-48.9379652605459
21
16.3025168578637
31
0.000000000000000
  0
LINE
  5
F10187
330
F10188
100
AcDbEntity
8
Geo
100
AcDbLine
10
-48.9379652605459
20
16.3025168578637
30
0.000000000000000
11
-48.8379652605459
21
16.2671761146869
31
0.000000000000000
  0
LINE
  5
F10189
330
F1018A
100
AcDbEntity
8
Geo
100
AcDbLine
10
-48.8379652605459
20
16.2671761146869
30
0.000000000000000
11
-48.7379652605459
21
16.2313081854856
31
0.000000000000000
  0
LINE
  5
F1018B
330
F1018C
100
AcDbEntity
8
Geo
100
AcDbLine
10
-48.7379652605459
20
16.2313081854856
30
0.000000000000000
11
-48.6379652605459
21
16.1949158156692
31
0.000000000000000
  0
LINE
  5
F1018D
330
F1018E
100
AcDbEntity
8
Geo
100
AcDbLine
10
-48.6379652605459
20
16.1949158156692
30
0.000000000000000
11
-48.5379652605459
21
16.1580017907887
31
0.000000000000000
  0
LINE
  5
F1018F
330
F10190
100
AcDbEntity
8
Geo
100
AcDbLine
10
-48.5379652605459
20
16.1580017907887
30
0.000000000000000
11
-48.4379652605459
21
16.1205689363240
31
0.000000000000000
  0
LINE
  5
F10191
330
F10192
100
AcDbEntity
8
Geo
100
AcDbLine
10
-48.4379652605459
20
16.1205689363240
30
0.000000000000000
11
-48.3379652605459
21
16.0826201174670
31
0.000000000000000
  0
LINE
  5
F10193
330
F10194
100
AcDbEntity
8
Geo
100
AcDbLine
10
-48.3379652605459
20
16.0826201174670
30
0.000000000000000
11
-48.2379652605459
21
16.0441582389029
31
0.000000000000000
  0
LINE
  5
F10195
330
F10196
100
AcDbEntity
8
Geo
100
AcDbLine
10
-48.2379652605459
20
16.0441582389029
30
0.000000000000000
11
-48.1379652605459
21
16.0051862445874
31
0.000000000000000
  0
LINE
  5
F10197
330
F10198
100
AcDbEntity
8
Geo
100
AcDbLine
10
-48.1379652605459
20
16.0051862445874
30
0.000000000000000
11
-48.0379652605459
21
15.9657071175219
31
0.000000000000000
  0
LINE
  5
F10199
330
F1019A
100
AcDbEntity
8
Geo
100
AcDbLine
10
-48.0379652605459
20
15.9657071175219
30
0.000000000000000
11
-47.9379652605459
21
15.9257238795244
31
0.000000000000000
  0
LINE
  5
F1019B
330
F1019C
100
AcDbEntity
8
Geo
100
AcDbLine
10
-47.9379652605459
20
15.9257238795244
30
0.000000000000000
11
-47.8379652605459
21
15.8852395909989
31
0.000000000000000
  0
LINE
  5
F1019D
330
F1019E
100
AcDbEntity
8
Geo
100
AcDbLine
10
-47.8379652605459
20
15.8852395909989
30
0.000000000000000
11
-47.7379652605459
21
15.8442573507010
31
0.000000000000000
  0
LINE
  5
F1019F
330
F101A0
100
AcDbEntity
8
Geo
100
AcDbLine
10
-47.7379652605459
20
15.8442573507010
30
0.000000000000000
11
-47.6379652605459
21
15.8027802955004
31
0.000000000000000
  0
LINE
  5
F101A1
330
F101A2
100
AcDbEntity
8
Geo
100
AcDbLine
10
-47.6379652605459
20
15.8027802955004
30
0.000000000000000
11
-47.5379652605459
21
15.7608116001410
31
0.000000000000000
  0
LINE
  5
F101A3
330
F101A4
100
AcDbEntity
8
Geo
100
AcDbLine
10
-47.5379652605459
20
15.7608116001410
30
0.000000000000000
11
-47.4379652605459
21
15.7183544769981
31
0.000000000000000
  0
LINE
  5
F101A5
330
F101A6
100
AcDbEntity
8
Geo
100
AcDbLine
10
-47.4379652605459
20
15.7183544769981
30
0.000000000000000
11
-47.3379652605459
21
15.6754121758322
31
0.000000000000000
  0
LINE
  5
F101A7
330
F101A8
100
AcDbEntity
8
Geo
100
AcDbLine
10
-47.3379652605459
20
15.6754121758322
30
0.000000000000000
11
-47.2379652605459
21
15.6319879835404
31
0.000000000000000
  0
LINE
  5
F101A9
330
F101AA
100
AcDbEntity
8
Geo
100
AcDbLine
10
-47.2379652605459
20
15.6319879835404
30
0.000000000000000
11
-47.1379652605459
21
15.5880852239048
31
0.000000000000000
  0
LINE
  5
F101AB
330
F101AC
100
AcDbEntity
8
Geo
100
AcDbLine
10
-47.1379652605459
20
15.5880852239048
30
0.000000000000000
11
-47.0379652605459
21
15.5437072573380
31
0.000000000000000
  0
LINE
  5
F101AD
330
F101AE
100
AcDbEntity
8
Geo
100
AcDbLine
10
-47.0379652605459
20
15.5437072573380
30
0.000000000000000
11
-46.9379652605459
21
15.4988574806261
31
0.000000000000000
  0
LINE
  5
F101AF
330
F101B0
100
AcDbEntity
8
Geo
100
AcDbLine
10
-46.9379652605459
20
15.4988574806261
30
0.000000000000000
11
-46.8379652605459
21
15.4535393266686
31
0.000000000000000
  0
LINE
  5
F101B1
330
F101B2
100
AcDbEntity
8
Geo
100
AcDbLine
10
-46.8379652605459
20
15.4535393266686
30
0.000000000000000
11
-46.7379652605459
21
15.4077562642154
31
0.000000000000000
  0
LINE
  5
F101B3
330
F101B4
100
AcDbEntity
8
Geo
100
AcDbLine
10
-46.7379652605459
20
15.4077562642154
30
0.000000000000000
11
-46.6379652605459
21
15.3615117976017
31
0.000000000000000
  0
LINE
  5
F101B5
330
F101B6
100
AcDbEntity
8
Geo
100
AcDbLine
10
-46.6379652605459
20
15.3615117976017
30
0.000000000000000
11
-46.5379652605459
21
15.3148094664795
31
0.000000000000000
  0
LINE
  5
F101B7
330
F101B8
100
AcDbEntity
8
Geo
100
AcDbLine
10
-46.5379652605459
20
15.3148094664795
30
0.000000000000000
11
-46.4379652605459
21
15.2676528455468
31
0.000000000000000
  0
LINE
  5
F101B9
330
F101BA
100
AcDbEntity
8
Geo
100
AcDbLine
10
-46.4379652605459
20
15.2676528455468
30
0.000000000000000
11
-46.3379652605459
21
15.2200455442740
31
0.000000000000000
  0
LINE
  5
F101BB
330
F101BC
100
AcDbEntity
8
Geo
100
AcDbLine
10
-46.3379652605459
20
15.2200455442740
30
0.000000000000000
11
-46.2379652605459
21
15.1719912066272
31
0.000000000000000
  0
LINE
  5
F101BD
330
F101BE
100
AcDbEntity
8
Geo
100
AcDbLine
10
-46.2379652605459
20
15.1719912066272
30
0.000000000000000
11
-46.1379652605459
21
15.1234935107901
31
0.000000000000000
  0
LINE
  5
F101BF
330
F101C0
100
AcDbEntity
8
Geo
100
AcDbLine
10
-46.1379652605459
20
15.1234935107901
30
0.000000000000000
11
-46.0379652605459
21
15.0745561688816
31
0.000000000000000
  0
LINE
  5
F101C1
330
F101C2
100
AcDbEntity
8
Geo
100
AcDbLine
10
-46.0379652605459
20
15.0745561688816
30
0.000000000000000
11
-45.9379652605459
21
15.0251829266725
31
0.000000000000000
  0
LINE
  5
F101C3
330
F101C4
100
AcDbEntity
8
Geo
100
AcDbLine
10
-45.9379652605459
20
15.0251829266725
30
0.000000000000000
11
-45.8379652605459
21
14.9753775632978
31
0.000000000000000
  0
LINE
  5
F101C5
330
F101C6
100
AcDbEntity
8
Geo
100
AcDbLine
10
-45.8379652605459
20
14.9753775632978
30
0.000000000000000
11
-45.7379652605459
21
14.9251438909686
31
0.000000000000000
  0
LINE
  5
F101C7
330
F101C8
100
AcDbEntity
8
Geo
100
AcDbLine
10
-45.7379652605459
20
14.9251438909686
30
0.000000000000000
11
-45.6379652605459
21
14.8744857546792
31
0.000000000000000
  0
LINE
  5
F101C9
330
F101CA
100
AcDbEntity
8
Geo
100
AcDbLine
10
-45.6379652605459
20
14.8744857546792
30
0.000000000000000
11
-45.5379652605459
21
14.8234070319135
31
0.000000000000000
  0
LINE
  5
F101CB
330
F101CC
100
AcDbEntity
8
Geo
100
AcDbLine
10
-45.5379652605459
20
14.8234070319135
30
0.000000000000000
11
-45.4379652605459
21
14.7719116323481
31
0.000000000000000
  0
LINE
  5
F101CD
330
F101CE
100
AcDbEntity
8
Geo
100
AcDbLine
10
-45.4379652605459
20
14.7719116323481
30
0.000000000000000
11
-45.3379652605459
21
14.7200034975528
31
0.000000000000000
  0
LINE
  5
F101CF
330
F101D0
100
AcDbEntity
8
Geo
100
AcDbLine
10
-45.3379652605459
20
14.7200034975528
30
0.000000000000000
11
-45.2379652605459
21
14.6676866006891
31
0.000000000000000
  0
LINE
  5
F101D1
330
F101D2
100
AcDbEntity
8
Geo
100
AcDbLine
10
-45.2379652605459
20
14.6676866006891
30
0.000000000000000
11
-45.1379652605459
21
14.6149649462060
31
0.000000000000000
  0
LINE
  5
F101D3
330
F101D4
100
AcDbEntity
8
Geo
100
AcDbLine
10
-45.1379652605459
20
14.6149649462060
30
0.000000000000000
11
-45.0379652605459
21
14.5618425695337
31
0.000000000000000
  0
LINE
  5
F101D5
330
F101D6
100
AcDbEntity
8
Geo
100
AcDbLine
10
-45.0379652605459
20
14.5618425695337
30
0.000000000000000
11
-44.9379652605459
21
14.5083235367742
31
0.000000000000000
  0
LINE
  5
F101D7
330
F101D8
100
AcDbEntity
8
Geo
100
AcDbLine
10
-44.9379652605459
20
14.5083235367742
30
0.000000000000000
11
-44.8379652605459
21
14.4544119443907
31
0.000000000000000
  0
LINE
  5
F101D9
330
F101DA
100
AcDbEntity
8
Geo
100
AcDbLine
10
-44.8379652605459
20
14.4544119443907
30
0.000000000000000
11
-44.7379652605459
21
14.4001119188938
31
0.000000000000000
  0
LINE
  5
F101DB
330
F101DC
100
AcDbEntity
8
Geo
100
AcDbLine
10
-44.7379652605459
20
14.4001119188938
30
0.000000000000000
11
-44.6379652605459
21
14.3454276165254
31
0.000000000000000
  0
LINE
  5
F101DD
330
F101DE
100
AcDbEntity
8
Geo
100
AcDbLine
10
-44.6379652605459
20
14.3454276165254
30
0.000000000000000
11
-44.5379652605459
21
14.2903632229410
31
0.000000000000000
  0
LINE
  5
F101DF
330
F101E0
100
AcDbEntity
8
Geo
100
AcDbLine
10
-44.5379652605459
20
14.2903632229410
30
0.000000000000000
11
-44.4379652605459
21
14.2349229528889
31
0.000000000000000
  0
LINE
  5
F101E1
330
F101E2
100
AcDbEntity
8
Geo
100
AcDbLine
10
-44.4379652605459
20
14.2349229528889
30
0.000000000000000
11
-44.3379652605459
21
14.1791110498880
31
0.000000000000000
  0
LINE
  5
F101E3
330
F101E4
100
AcDbEntity
8
Geo
100
AcDbLine
10
-44.3379652605459
20
14.1791110498880
30
0.000000000000000
11
-44.2379652605459
21
14.1229317859026
31
0.000000000000000
  0
LINE
  5
F101E5
330
F101E6
100
AcDbEntity
8
Geo
100
AcDbLine
10
-44.2379652605459
20
14.1229317859026
30
0.000000000000000
11
-44.1379652605459
21
14.0663894610158
31
0.000000000000000
  0
LINE
  5
F101E7
330
F101E8
100
AcDbEntity
8
Geo
100
AcDbLine
10
-44.1379652605459
20
14.0663894610158
30
0.000000000000000
11
-44.0379652605459
21
14.0094884031000
31
0.000000000000000
  0
LINE
  5
F101E9
330
F101EA
100
AcDbEntity
8
Geo
100
AcDbLine
10
-44.0379652605459
20
14.0094884031000
30
0.000000000000000
11
-43.9379652605459
21
13.9522329674860
31
0.000000000000000
  0
LINE
  5
F101EB
330
F101EC
100
AcDbEntity
8
Geo
100
AcDbLine
10
-43.9379652605459
20
13.9522329674860
30
0.000000000000000
11
-43.8379652605459
21
13.8946275366293
31
0.000000000000000
  0
LINE
  5
F101ED
330
F101EE
100
AcDbEntity
8
Geo
100
AcDbLine
10
-43.8379652605459
20
13.8946275366293
30
0.000000000000000
11
-43.7379652605459
21
13.8366765197747
31
0.000000000000000
  0
LINE
  5
F101EF
330
F101F0
100
AcDbEntity
8
Geo
100
AcDbLine
10
-43.7379652605459
20
13.8366765197747
30
0.000000000000000
11
-43.6379652605459
21
13.7783843526192
31
0.000000000000000
  0
LINE
  5
F101F1
330
F101F2
100
AcDbEntity
8
Geo
100
AcDbLine
10
-43.6379652605459
20
13.7783843526192
30
0.000000000000000
11
-43.5379652605459
21
13.7197554969719
31
0.000000000000000
  0
LINE
  5
F101F3
330
F101F4
100
AcDbEntity
8
Geo
100
AcDbLine
10
-43.5379652605459
20
13.7197554969719
30
0.000000000000000
11
-43.4379652605460
21
13.6607944404130
31
0.000000000000000
  0
LINE
  5
F101F5
330
F101F6
100
AcDbEntity
8
Geo
100
AcDbLine
10
-43.4379652605460
20
13.6607944404130
30
0.000000000000000
11
-43.3379652605460
21
13.6015056959498
31
0.000000000000000
  0
LINE
  5
F101F7
330
F101F8
100
AcDbEntity
8
Geo
100
AcDbLine
10
-43.3379652605460
20
13.6015056959498
30
0.000000000000000
11
-43.2379652605459
21
13.5418938016718
31
0.000000000000000
  0
LINE
  5
F101F9
330
F101FA
100
AcDbEntity
8
Geo
100
AcDbLine
10
-43.2379652605459
20
13.5418938016718
30
0.000000000000000
11
-43.1379652605459
21
13.4819633204031
31
0.000000000000000
  0
LINE
  5
F101FB
330
F101FC
100
AcDbEntity
8
Geo
100
AcDbLine
10
-43.1379652605459
20
13.4819633204031
30
0.000000000000000
11
-43.0379652605459
21
13.4217188393528
31
0.000000000000000
  0
LINE
  5
F101FD
330
F101FE
100
AcDbEntity
8
Geo
100
AcDbLine
10
-43.0379652605459
20
13.4217188393528
30
0.000000000000000
11
-42.9379652605460
21
13.3611649697647
31
0.000000000000000
  0
LINE
  5
F101FF
330
F10200
100
AcDbEntity
8
Geo
100
AcDbLine
10
-42.9379652605460
20
13.3611649697647
30
0.000000000000000
11
-42.8379652605460
21
13.3003063465634
31
0.000000000000000
  0
LINE
  5
F10201
330
F10202
100
AcDbEntity
8
Geo
100
AcDbLine
10
-42.8379652605460
20
13.3003063465634
30
0.000000000000000
11
-42.7379652605459
21
13.2391476280005
31
0.000000000000000
  0
LINE
  5
F10203
330
F10204
100
AcDbEntity
8
Geo
100
AcDbLine
10
-42.7379652605459
20
13.2391476280005
30
0.000000000000000
11
-42.6379652605460
21
13.1776934952971
31
0.000000000000000
  0
LINE
  5
F10205
330
F10206
100
AcDbEntity
8
Geo
100
AcDbLine
10
-42.6379652605460
20
13.1776934952971
30
0.000000000000000
11
-42.5379652605460
21
13.1159486522862
31
0.000000000000000
  0
LINE
  5
F10207
330
F10208
100
AcDbEntity
8
Geo
100
AcDbLine
10
-42.5379652605460
20
13.1159486522862
30
0.000000000000000
11
-42.4379652605460
21
13.0539178250523
31
0.000000000000000
  0
LINE
  5
F10209
330
F1020A
100
AcDbEntity
8
Geo
100
AcDbLine
10
-42.4379652605460
20
13.0539178250523
30
0.000000000000000
11
-42.3379652605460
21
12.9916057615699
31
0.000000000000000
  0
LINE
  5
F1020B
330
F1020C
100
AcDbEntity
8
Geo
100
AcDbLine
10
-42.3379652605460
20
12.9916057615699
30
0.000000000000000
11
-42.2379652605459
21
12.9290172313397
31
0.000000000000000
  0
LINE
  5
F1020D
330
F1020E
100
AcDbEntity
8
Geo
100
AcDbLine
10
-42.2379652605459
20
12.9290172313397
30
0.000000000000000
11
-42.1379652605460
21
12.8661570250239
31
0.000000000000000
  0
LINE
  5
F1020F
330
F10210
100
AcDbEntity
8
Geo
100
AcDbLine
10
-42.1379652605460
20
12.8661570250239
30
0.000000000000000
11
-42.0379652605460
21
12.8030299540793
31
0.000000000000000
  0
LINE
  5
F10211
330
F10212
100
AcDbEntity
8
Geo
100
AcDbLine
10
-42.0379652605460
20
12.8030299540793
30
0.000000000000000
11
-41.9379652605460
21
12.7396408503894
31
0.000000000000000
  0
LINE
  5
F10213
330
F10214
100
AcDbEntity
8
Geo
100
AcDbLine
10
-41.9379652605460
20
12.7396408503894
30
0.000000000000000
11
-41.8379652605460
21
12.6759945658937
31
0.000000000000000
  0
LINE
  5
F10215
330
F10216
100
AcDbEntity
8
Geo
100
AcDbLine
10
-41.8379652605460
20
12.6759945658937
30
0.000000000000000
11
-41.7379652605460
21
12.6120959722175
31
0.000000000000000
  0
LINE
  5
F10217
330
F10218
100
AcDbEntity
8
Geo
100
AcDbLine
10
-41.7379652605460
20
12.6120959722175
30
0.000000000000000
11
-41.6379652605460
21
12.5479499602979
31
0.000000000000000
  0
LINE
  5
F10219
330
F1021A
100
AcDbEntity
8
Geo
100
AcDbLine
10
-41.6379652605460
20
12.5479499602979
30
0.000000000000000
11
-41.5379652605460
21
12.4835614400101
31
0.000000000000000
  0
LINE
  5
F1021B
330
F1021C
100
AcDbEntity
8
Geo
100
AcDbLine
10
-41.5379652605460
20
12.4835614400101
30
0.000000000000000
11
-41.4379652605460
21
12.4189353397916
31
0.000000000000000
  0
LINE
  5
F1021D
330
F1021E
100
AcDbEntity
8
Geo
100
AcDbLine
10
-41.4379652605460
20
12.4189353397916
30
0.000000000000000
11
-41.3379652605460
21
12.3540766062645
31
0.000000000000000
  0
LINE
  5
F1021F
330
F10220
100
AcDbEntity
8
Geo
100
AcDbLine
10
-41.3379652605460
20
12.3540766062645
30
0.000000000000000
11
-41.2379652605460
21
12.2889902038573
31
0.000000000000000
  0
LINE
  5
F10221
330
F10222
100
AcDbEntity
8
Geo
100
AcDbLine
10
-41.2379652605460
20
12.2889902038573
30
0.000000000000000
11
-41.1379652605460
21
12.2236811144248
31
0.000000000000000
  0
LINE
  5
F10223
330
F10224
100
AcDbEntity
8
Geo
100
AcDbLine
10
-41.1379652605460
20
12.2236811144248
30
0.000000000000000
11
-41.0379652605460
21
12.1581543368666
31
0.000000000000000
  0
LINE
  5
F10225
330
F10226
100
AcDbEntity
8
Geo
100
AcDbLine
10
-41.0379652605460
20
12.1581543368666
30
0.000000000000000
11
-40.9379652605460
21
12.0924148867448
31
0.000000000000000
  0
LINE
  5
F10227
330
F10228
100
AcDbEntity
8
Geo
100
AcDbLine
10
-40.9379652605460
20
12.0924148867448
30
0.000000000000000
11
-40.8379652605460
21
12.0264677958999
31
0.000000000000000
  0
LINE
  5
F10229
330
F1022A
100
AcDbEntity
8
Geo
100
AcDbLine
10
-40.8379652605460
20
12.0264677958999
30
0.000000000000000
11
-40.7379652605460
21
11.9603181120655
31
0.000000000000000
  0
LINE
  5
F1022B
330
F1022C
100
AcDbEntity
8
Geo
100
AcDbLine
10
-40.7379652605460
20
11.9603181120655
30
0.000000000000000
11
-40.6379652605460
21
11.8939708984823
31
0.000000000000000
  0
LINE
  5
F1022D
330
F1022E
100
AcDbEntity
8
Geo
100
AcDbLine
10
-40.6379652605460
20
11.8939708984823
30
0.000000000000000
11
-40.5379652605460
21
11.8274312335102
31
0.000000000000000
  0
LINE
  5
F1022F
330
F10230
100
AcDbEntity
8
Geo
100
AcDbLine
10
-40.5379652605460
20
11.8274312335102
30
0.000000000000000
11
-40.4379652605460
21
11.7607042102400
31
0.000000000000000
  0
LINE
  5
F10231
330
F10232
100
AcDbEntity
8
Geo
100
AcDbLine
10
-40.4379652605460
20
11.7607042102400
30
0.000000000000000
11
-40.3379652605460
21
11.6937949361029
31
0.000000000000000
  0
LINE
  5
F10233
330
F10234
100
AcDbEntity
8
Geo
100
AcDbLine
10
-40.3379652605460
20
11.6937949361029
30
0.000000000000000
11
-40.2379652605460
21
11.6267085324804
31
0.000000000000000
  0
LINE
  5
F10235
330
F10236
100
AcDbEntity
8
Geo
100
AcDbLine
10
-40.2379652605460
20
11.6267085324804
30
0.000000000000000
11
-40.1379652605460
21
11.5594501343117
31
0.000000000000000
  0
LINE
  5
F10237
330
F10238
100
AcDbEntity
8
Geo
100
AcDbLine
10
-40.1379652605460
20
11.5594501343117
30
0.000000000000000
11
-40.0379652605460
21
11.4920248897007
31
0.000000000000000
  0
LINE
  5
F10239
330
F1023A
100
AcDbEntity
8
Geo
100
AcDbLine
10
-40.0379652605460
20
11.4920248897007
30
0.000000000000000
11
-39.9379652605460
21
11.4244379595223
31
0.000000000000000
  0
LINE
  5
F1023B
330
F1023C
100
AcDbEntity
8
Geo
100
AcDbLine
10
-39.9379652605460
20
11.4244379595223
30
0.000000000000000
11
-39.8379652605460
21
11.3566945170271
31
0.000000000000000
  0
LINE
  5
F1023D
330
F1023E
100
AcDbEntity
8
Geo
100
AcDbLine
10
-39.8379652605460
20
11.3566945170271
30
0.000000000000000
11
-39.7379652605460
21
11.2887997474454
31
0.000000000000000
  0
LINE
  5
F1023F
330
F10240
100
AcDbEntity
8
Geo
100
AcDbLine
10
-39.7379652605460
20
11.2887997474454
30
0.000000000000000
11
-39.6379652605460
21
11.2207588475906
31
0.000000000000000
  0
LINE
  5
F10241
330
F10242
100
AcDbEntity
8
Geo
100
AcDbLine
10
-39.6379652605460
20
11.2207588475906
30
0.000000000000000
11
-39.5379652605460
21
11.1525770254610
31
0.000000000000000
  0
LINE
  5
F10243
330
F10244
100
AcDbEntity
8
Geo
100
AcDbLine
10
-39.5379652605460
20
11.1525770254610
30
0.000000000000000
11
-39.4379652605460
21
11.0842594998416
31
0.000000000000000
  0
LINE
  5
F10245
330
F10246
100
AcDbEntity
8
Geo
100
AcDbLine
10
-39.4379652605460
20
11.0842594998416
30
0.000000000000000
11
-39.3379652605460
21
11.0158114999043
31
0.000000000000000
  0
LINE
  5
F10247
330
F10248
100
AcDbEntity
8
Geo
100
AcDbLine
10
-39.3379652605460
20
11.0158114999043
30
0.000000000000000
11
-39.2379652605460
21
10.9472382648078
31
0.000000000000000
  0
LINE
  5
F10249
330
F1024A
100
AcDbEntity
8
Geo
100
AcDbLine
10
-39.2379652605460
20
10.9472382648078
30
0.000000000000000
11
-39.1379652605460
21
10.8785450432967
31
0.000000000000000
  0
LINE
  5
F1024B
330
F1024C
100
AcDbEntity
8
Geo
100
AcDbLine
10
-39.1379652605460
20
10.8785450432967
30
0.000000000000000
11
-39.0379652605460
21
10.8097370932994
31
0.000000000000000
  0
LINE
  5
F1024D
330
F1024E
100
AcDbEntity
8
Geo
100
AcDbLine
10
-39.0379652605460
20
10.8097370932994
30
0.000000000000000
11
-38.9379652605460
21
10.7408196815262
31
0.000000000000000
  0
LINE
  5
F1024F
330
F10250
100
AcDbEntity
8
Geo
100
AcDbLine
10
-38.9379652605460
20
10.7408196815262
30
0.000000000000000
11
-38.8379652605460
21
10.6717980830654
31
0.000000000000000
  0
LINE
  5
F10251
330
F10252
100
AcDbEntity
8
Geo
100
AcDbLine
10
-38.8379652605460
20
10.6717980830654
30
0.000000000000000
11
-38.7379652605460
21
10.6026775809804
31
0.000000000000000
  0
LINE
  5
F10253
330
F10254
100
AcDbEntity
8
Geo
100
AcDbLine
10
-38.7379652605460
20
10.6026775809804
30
0.000000000000000
11
-38.6379652605460
21
10.5334634659046
31
0.000000000000000
  0
LINE
  5
F10255
330
F10256
100
AcDbEntity
8
Geo
100
AcDbLine
10
-38.6379652605460
20
10.5334634659046
30
0.000000000000000
11
-38.5379652605460
21
10.4641610356369
31
0.000000000000000
  0
LINE
  5
F10257
330
F10258
100
AcDbEntity
8
Geo
100
AcDbLine
10
-38.5379652605460
20
10.4641610356369
30
0.000000000000000
11
-38.4379652605460
21
10.3947755947360
31
0.000000000000000
  0
LINE
  5
F10259
330
F1025A
100
AcDbEntity
8
Geo
100
AcDbLine
10
-38.4379652605460
20
10.3947755947360
30
0.000000000000000
11
-38.3379652605460
21
10.3253124541144
31
0.000000000000000
  0
LINE
  5
F1025B
330
F1025C
100
AcDbEntity
8
Geo
100
AcDbLine
10
-38.3379652605460
20
10.3253124541144
30
0.000000000000000
11
-38.2379652605460
21
10.2557769306319
31
0.000000000000000
  0
LINE
  5
F1025D
330
F1025E
100
AcDbEntity
8
Geo
100
AcDbLine
10
-38.2379652605460
20
10.2557769306319
30
0.000000000000000
11
-38.1379652605460
21
10.1861743466886
31
0.000000000000000
  0
LINE
  5
F1025F
330
F10260
100
AcDbEntity
8
Geo
100
AcDbLine
10
-38.1379652605460
20
10.1861743466886
30
0.000000000000000
11
-38.0379652605460
21
10.1165100298178
31
0.000000000000000
  0
LINE
  5
F10261
330
F10262
100
AcDbEntity
8
Geo
100
AcDbLine
10
-38.0379652605460
20
10.1165100298178
30
0.000000000000000
11
-37.9379652605460
21
10.0467893122775
31
0.000000000000000
  0
LINE
  5
F10263
330
F10264
100
AcDbEntity
8
Geo
100
AcDbLine
10
-37.9379652605460
20
10.0467893122775
30
0.000000000000000
11
-37.8379652605460
21
9.97701753064325
31
0.000000000000000
  0
LINE
  5
F10265
330
F10266
100
AcDbEntity
8
Geo
100
AcDbLine
10
-37.8379652605460
20
9.97701753064325
30
0.000000000000000
11
-37.7379652605459
21
9.90720002539879
31
0.000000000000000
  0
LINE
  5
F10267
330
F10268
100
AcDbEntity
8
Geo
100
AcDbLine
10
-37.7379652605459
20
9.90720002539879
30
0.000000000000000
11
-37.6379652605459
21
9.83734214052780
31
0.000000000000000
  0
LINE
  5
F10269
330
F1026A
100
AcDbEntity
8
Geo
100
AcDbLine
10
-37.6379652605459
20
9.83734214052780
30
0.000000000000000
11
-37.5379652605459
21
9.76744922310469
31
0.000000000000000
  0
LINE
  5
F1026B
330
F1026C
100
AcDbEntity
8
Geo
100
AcDbLine
10
-37.5379652605459
20
9.76744922310469
30
0.000000000000000
11
-37.4379652605459
21
9.69752662288530
31
0.000000000000000
  0
LINE
  5
F1026D
330
F1026E
100
AcDbEntity
8
Geo
100
AcDbLine
10
-37.4379652605459
20
9.69752662288530
30
0.000000000000000
11
-37.3379652605459
21
9.62757969189748
31
0.000000000000000
  0
LINE
  5
F1026F
330
F10270
100
AcDbEntity
8
Geo
100
AcDbLine
10
-37.3379652605459
20
9.62757969189748
30
0.000000000000000
11
-37.2379652605459
21
9.55761378403142
31
0.000000000000000
  0
LINE
  5
F10271
330
F10272
100
AcDbEntity
8
Geo
100
AcDbLine
10
-37.2379652605459
20
9.55761378403142
30
0.000000000000000
11
-37.1379652605459
21
9.48763425462983
31
0.000000000000000
  0
LINE
  5
F10273
330
F10274
100
AcDbEntity
8
Geo
100
AcDbLine
10
-37.1379652605459
20
9.48763425462983
30
0.000000000000000
11
-37.0379652605459
21
9.41764646007803
31
0.000000000000000
  0
LINE
  5
F10275
330
F10276
100
AcDbEntity
8
Geo
100
AcDbLine
10
-37.0379652605459
20
9.41764646007803
30
0.000000000000000
11
-36.9379652605459
21
9.34765575739399
31
0.000000000000000
  0
LINE
  5
F10277
330
F10278
100
AcDbEntity
8
Geo
100
AcDbLine
10
-36.9379652605459
20
9.34765575739399
30
0.000000000000000
11
-36.8379652605459
21
9.27766750381827
31
0.000000000000000
  0
LINE
  5
F10279
330
F1027A
100
AcDbEntity
8
Geo
100
AcDbLine
10
-36.8379652605459
20
9.27766750381827
30
0.000000000000000
11
-36.7379652605459
21
9.20768705640397
31
0.000000000000000
  0
LINE
  5
F1027B
330
F1027C
100
AcDbEntity
8
Geo
100
AcDbLine
10
-36.7379652605459
20
9.20768705640397
30
0.000000000000000
11
-36.6379652605459
21
9.13771977160668
31
0.000000000000000
  0
LINE
  5
F1027D
330
F1027E
100
AcDbEntity
8
Geo
100
AcDbLine
10
-36.6379652605459
20
9.13771977160668
30
0.000000000000000
11
-36.5379652605459
21
9.06777100487452
31
0.000000000000000
  0
LINE
  5
F1027F
330
F10280
100
AcDbEntity
8
Geo
100
AcDbLine
10
-36.5379652605459
20
9.06777100487452
30
0.000000000000000
11
-36.4379652605459
21
8.99784611023816
31
0.000000000000000
  0
LINE
  5
F10281
330
F10282
100
AcDbEntity
8
Geo
100
AcDbLine
10
-36.4379652605459
20
8.99784611023816
30
0.000000000000000
11
-36.3379652605459
21
8.92795043990109
31
0.000000000000000
  0
LINE
  5
F10283
330
F10284
100
AcDbEntity
8
Geo
100
AcDbLine
10
-36.3379652605459
20
8.92795043990109
30
0.000000000000000
11
-36.2379652605459
21
8.85808934382986
31
0.000000000000000
  0
LINE
  5
F10285
330
F10286
100
AcDbEntity
8
Geo
100
AcDbLine
10
-36.2379652605459
20
8.85808934382986
30
0.000000000000000
11
-36.1379652605459
21
8.78826816934468
31
0.000000000000000
  0
LINE
  5
F10287
330
F10288
100
AcDbEntity
8
Geo
100
AcDbLine
10
-36.1379652605459
20
8.78826816934468
30
0.000000000000000
11
-36.0379652605459
21
8.71849226071004
31
0.000000000000000
  0
LINE
  5
F10289
330
F1028A
100
AcDbEntity
8
Geo
100
AcDbLine
10
-36.0379652605459
20
8.71849226071004
30
0.000000000000000
11
-35.9379652605459
21
8.64876695872570
31
0.000000000000000
  0
LINE
  5
F1028B
330
F1028C
100
AcDbEntity
8
Geo
100
AcDbLine
10
-35.9379652605459
20
8.64876695872570
30
0.000000000000000
11
-35.8379652605459
21
8.57909760031787
31
0.000000000000000
  0
LINE
  5
F1028D
330
F1028E
100
AcDbEntity
8
Geo
100
AcDbLine
10
-35.8379652605459
20
8.57909760031787
30
0.000000000000000
11
-35.7379652605459
21
8.50948951813072
31
0.000000000000000
  0
LINE
  5
F1028F
330
F10290
100
AcDbEntity
8
Geo
100
AcDbLine
10
-35.7379652605459
20
8.50948951813072
30
0.000000000000000
11
-35.6379652605459
21
8.43994804011820
31
0.000000000000000
  0
LINE
  5
F10291
330
F10292
100
AcDbEntity
8
Geo
100
AcDbLine
10
-35.6379652605459
20
8.43994804011820
30
0.000000000000000
11
-35.5379652605459
21
8.37047848913625
31
0.000000000000000
  0
LINE
  5
F10293
330
F10294
100
AcDbEntity
8
Geo
100
AcDbLine
10
-35.5379652605459
20
8.37047848913625
30
0.000000000000000
11
-35.4379652605459
21
8.30108618253533
31
0.000000000000000
  0
LINE
  5
F10295
330
F10296
100
AcDbEntity
8
Geo
100
AcDbLine
10
-35.4379652605459
20
8.30108618253533
30
0.000000000000000
11
-35.3379652605459
21
8.23177643175346
31
0.000000000000000
  0
LINE
  5
F10297
330
F10298
100
AcDbEntity
8
Geo
100
AcDbLine
10
-35.3379652605459
20
8.23177643175346
30
0.000000000000000
11
-35.2379652605459
21
8.16255454190967
31
0.000000000000000
  0
LINE
  5
F10299
330
F1029A
100
AcDbEntity
8
Geo
100
AcDbLine
10
-35.2379652605459
20
8.16255454190967
30
0.000000000000000
11
-35.1379652605459
21
8.09342581139792
31
0.000000000000000
  0
LINE
  5
F1029B
330
F1029C
100
AcDbEntity
8
Geo
100
AcDbLine
10
-35.1379652605459
20
8.09342581139792
30
0.000000000000000
11
-35.0379652605459
21
8.02439553148153
31
0.000000000000000
  0
LINE
  5
F1029D
330
F1029E
100
AcDbEntity
8
Geo
100
AcDbLine
10
-35.0379652605459
20
8.02439553148153
30
0.000000000000000
11
-34.9379652605459
21
7.95546898588821
31
0.000000000000000
  0
LINE
  5
F1029F
330
F102A0
100
AcDbEntity
8
Geo
100
AcDbLine
10
-34.9379652605459
20
7.95546898588821
30
0.000000000000000
11
-34.8379652605459
21
7.88665145040563
31
0.000000000000000
  0
LINE
  5
F102A1
330
F102A2
100
AcDbEntity
8
Geo
100
AcDbLine
10
-34.8379652605459
20
7.88665145040563
30
0.000000000000000
11
-34.7379652605459
21
7.81794819247758
31
0.000000000000000
  0
LINE
  5
F102A3
330
F102A4
100
AcDbEntity
8
Geo
100
AcDbLine
10
-34.7379652605459
20
7.81794819247758
30
0.000000000000000
11
-34.6379652605459
21
7.74936447080080
31
0.000000000000000
  0
LINE
  5
F102A5
330
F102A6
100
AcDbEntity
8
Geo
100
AcDbLine
10
-34.6379652605459
20
7.74936447080080
30
0.000000000000000
11
-34.5379652605459
21
7.68090553492245
31
0.000000000000000
  0
LINE
  5
F102A7
330
F102A8
100
AcDbEntity
8
Geo
100
AcDbLine
10
-34.5379652605459
20
7.68090553492245
30
0.000000000000000
11
-34.4379652605459
21
7.61257662483835
31
0.000000000000000
  0
LINE
  5
F102A9
330
F102AA
100
AcDbEntity
8
Geo
100
AcDbLine
10
-34.4379652605459
20
7.61257662483835
30
0.000000000000000
11
-34.3379652605459
21
7.54438297059182
31
0.000000000000000
  0
LINE
  5
F102AB
330
F102AC
100
AcDbEntity
8
Geo
100
AcDbLine
10
-34.3379652605459
20
7.54438297059182
30
0.000000000000000
11
-34.2379652605459
21
7.47632979187343
31
0.000000000000000
  0
LINE
  5
F102AD
330
F102AE
100
AcDbEntity
8
Geo
100
AcDbLine
10
-34.2379652605459
20
7.47632979187343
30
0.000000000000000
11
-34.1379652605459
21
7.40842229762145
31
0.000000000000000
  0
LINE
  5
F102AF
330
F102B0
100
AcDbEntity
8
Geo
100
AcDbLine
10
-34.1379652605459
20
7.40842229762145
30
0.000000000000000
11
-34.0379652605459
21
7.34066568562313
31
0.000000000000000
  0
LINE
  5
F102B1
330
F102B2
100
AcDbEntity
8
Geo
100
AcDbLine
10
-34.0379652605459
20
7.34066568562313
30
0.000000000000000
11
-33.9379652605459
21
7.27306514211687
31
0.000000000000000
  0
LINE
  5
F102B3
330
F102B4
100
AcDbEntity
8
Geo
100
AcDbLine
10
-33.9379652605459
20
7.27306514211687
30
0.000000000000000
11
-33.8379652605459
21
7.20562584139525
31
0.000000000000000
  0
LINE
  5
F102B5
330
F102B6
100
AcDbEntity
8
Geo
100
AcDbLine
10
-33.8379652605459
20
7.20562584139525
30
0.000000000000000
11
-33.7379652605459
21
7.13835294540897
31
0.000000000000000
  0
LINE
  5
F102B7
330
F102B8
100
AcDbEntity
8
Geo
100
AcDbLine
10
-33.7379652605459
20
7.13835294540897
30
0.000000000000000
11
-33.6379652605459
21
7.07125160337177
31
0.000000000000000
  0
LINE
  5
F102B9
330
F102BA
100
AcDbEntity
8
Geo
100
AcDbLine
10
-33.6379652605459
20
7.07125160337177
30
0.000000000000000
11
-33.5379652605459
21
7.00432695136625
31
0.000000000000000
  0
LINE
  5
F102BB
330
F102BC
100
AcDbEntity
8
Geo
100
AcDbLine
10
-33.5379652605459
20
7.00432695136625
30
0.000000000000000
11
-33.4379652605459
21
6.93758411195078
31
0.000000000000000
  0
LINE
  5
F102BD
330
F102BE
100
AcDbEntity
8
Geo
100
AcDbLine
10
-33.4379652605459
20
6.93758411195078
30
0.000000000000000
11
-33.3379652605459
21
6.87102819376742
31
0.000000000000000
  0
LINE
  5
F102BF
330
F102C0
100
AcDbEntity
8
Geo
100
AcDbLine
10
-33.3379652605459
20
6.87102819376742
30
0.000000000000000
11
-33.2379652605459
21
6.80466429115084
31
0.000000000000000
  0
LINE
  5
F102C1
330
F102C2
100
AcDbEntity
8
Geo
100
AcDbLine
10
-33.2379652605459
20
6.80466429115084
30
0.000000000000000
11
-33.1379652605459
21
6.73849748373844
31
0.000000000000000
  0
LINE
  5
F102C3
330
F102C4
100
AcDbEntity
8
Geo
100
AcDbLine
10
-33.1379652605459
20
6.73849748373844
30
0.000000000000000
11
-33.0379652605459
21
6.67253283608152
31
0.000000000000000
  0
LINE
  5
F102C5
330
F102C6
100
AcDbEntity
8
Geo
100
AcDbLine
10
-33.0379652605459
20
6.67253283608152
30
0.000000000000000
11
-32.9379652605459
21
6.60677539725764
31
0.000000000000000
  0
LINE
  5
F102C7
330
F102C8
100
AcDbEntity
8
Geo
100
AcDbLine
10
-32.9379652605459
20
6.60677539725764
30
0.000000000000000
11
-32.8379652605459
21
6.54123020048414
31
0.000000000000000
  0
LINE
  5
F102C9
330
F102CA
100
AcDbEntity
8
Geo
100
AcDbLine
10
-32.8379652605459
20
6.54123020048414
30
0.000000000000000
11
-32.7379652605459
21
6.47590226273288
31
0.000000000000000
  0
LINE
  5
F102CB
330
F102CC
100
AcDbEntity
8
Geo
100
AcDbLine
10
-32.7379652605459
20
6.47590226273288
30
0.000000000000000
11
-32.6379652605459
21
6.41079658434626
31
0.000000000000000
  0
LINE
  5
F102CD
330
F102CE
100
AcDbEntity
8
Geo
100
AcDbLine
10
-32.6379652605459
20
6.41079658434626
30
0.000000000000000
11
-32.5379652605459
21
6.34591814865446
31
0.000000000000000
  0
LINE
  5
F102CF
330
F102D0
100
AcDbEntity
8
Geo
100
AcDbLine
10
-32.5379652605459
20
6.34591814865446
30
0.000000000000000
11
-32.4379652605459
21
6.28127192159401
31
0.000000000000000
  0
LINE
  5
F102D1
330
F102D2
100
AcDbEntity
8
Geo
100
AcDbLine
10
-32.4379652605459
20
6.28127192159401
30
0.000000000000000
11
-32.3379652605459
21
6.21686285132767
31
0.000000000000000
  0
LINE
  5
F102D3
330
F102D4
100
AcDbEntity
8
Geo
100
AcDbLine
10
-32.3379652605459
20
6.21686285132767
30
0.000000000000000
11
-32.2379652605459
21
6.15269586786573
31
0.000000000000000
  0
LINE
  5
F102D5
330
F102D6
100
AcDbEntity
8
Geo
100
AcDbLine
10
-32.2379652605459
20
6.15269586786573
30
0.000000000000000
11
-32.1379652605459
21
6.08877588268862
31
0.000000000000000
  0
LINE
  5
F102D7
330
F102D8
100
AcDbEntity
8
Geo
100
AcDbLine
10
-32.1379652605459
20
6.08877588268862
30
0.000000000000000
11
-32.0379652605459
21
6.02510778837098
31
0.000000000000000
  0
LINE
  5
F102D9
330
F102DA
100
AcDbEntity
8
Geo
100
AcDbLine
10
-32.0379652605459
20
6.02510778837098
30
0.000000000000000
11
-31.9379652605459
21
5.96169645820717
31
0.000000000000000
  0
LINE
  5
F102DB
330
F102DC
100
AcDbEntity
8
Geo
100
AcDbLine
10
-31.9379652605459
20
5.96169645820717
30
0.000000000000000
11
-31.8379652605459
21
5.89854674583828
31
0.000000000000000
  0
LINE
  5
F102DD
330
F102DE
100
AcDbEntity
8
Geo
100
AcDbLine
10
-31.8379652605459
20
5.89854674583828
30
0.000000000000000
11
-31.7379652605459
21
5.83566348488059
31
0.000000000000000
  0
LINE
  5
F102DF
330
F102E0
100
AcDbEntity
8
Geo
100
AcDbLine
10
-31.7379652605459
20
5.83566348488059
30
0.000000000000000
11
-31.6379652605459
21
5.77305148855563
31
0.000000000000000
  0
LINE
  5
F102E1
330
F102E2
100
AcDbEntity
8
Geo
100
AcDbLine
10
-31.6379652605459
20
5.77305148855563
30
0.000000000000000
11
-31.5379652605459
21
5.71071554932171
31
0.000000000000000
  0
LINE
  5
F102E3
330
F102E4
100
AcDbEntity
8
Geo
100
AcDbLine
10
-31.5379652605459
20
5.71071554932171
30
0.000000000000000
11
-31.4379652605459
21
5.64866043850717
31
0.000000000000000
  0
LINE
  5
F102E5
330
F102E6
100
AcDbEntity
8
Geo
100
AcDbLine
10
-31.4379652605459
20
5.64866043850717
30
0.000000000000000
11
-31.3379652605459
21
5.58689090594510
31
0.000000000000000
  0
LINE
  5
F102E7
330
F102E8
100
AcDbEntity
8
Geo
100
AcDbLine
10
-31.3379652605459
20
5.58689090594510
30
0.000000000000000
11
-31.2379652605459
21
5.52541167960982
31
0.000000000000000
  0
LINE
  5
F102E9
330
F102EA
100
AcDbEntity
8
Geo
100
AcDbLine
10
-31.2379652605459
20
5.52541167960982
30
0.000000000000000
11
-31.1379652605459
21
5.46422746525501
31
0.000000000000000
  0
LINE
  5
F102EB
330
F102EC
100
AcDbEntity
8
Geo
100
AcDbLine
10
-31.1379652605459
20
5.46422746525501
30
0.000000000000000
11
-31.0379652605459
21
5.40334294605343
31
0.000000000000000
  0
LINE
  5
F102ED
330
F102EE
100
AcDbEntity
8
Geo
100
AcDbLine
10
-31.0379652605459
20
5.40334294605343
30
0.000000000000000
11
-30.9379652605459
21
5.34276278223863
31
0.000000000000000
  0
LINE
  5
F102EF
330
F102F0
100
AcDbEntity
8
Geo
100
AcDbLine
10
-30.9379652605459
20
5.34276278223863
30
0.000000000000000
11
-30.8379652605459
21
5.48729857156279
31
0.000000000000000
  0
LINE
  5
F102F1
330
F102F2
100
AcDbEntity
8
Geo
100
AcDbLine
10
-30.8379652605459
20
5.48729857156279
30
0.000000000000000
11
-30.7379652605459
21
5.52454090648567
31
0.000000000000000
  0
LINE
  5
F102F3
330
F102F4
100
AcDbEntity
8
Geo
100
AcDbLine
10
-30.7379652605459
20
5.52454090648567
30
0.000000000000000
11
-30.6379652605459
21
5.58082174004961
31
0.000000000000000
  0
LINE
  5
F102F5
330
F102F6
100
AcDbEntity
8
Geo
100
AcDbLine
10
-30.6379652605459
20
5.58082174004961
30
0.000000000000000
11
-30.5379652605459
21
5.65640523553410
31
0.000000000000000
  0
LINE
  5
F102F7
330
F102F8
100
AcDbEntity
8
Geo
100
AcDbLine
10
-30.5379652605459
20
5.65640523553410
30
0.000000000000000
11
-30.4379652605459
21
5.75163386484691
31
0.000000000000000
  0
LINE
  5
F102F9
330
F102FA
100
AcDbEntity
8
Geo
100
AcDbLine
10
-30.4379652605459
20
5.75163386484691
30
0.000000000000000
11
-30.3379652605459
21
5.86691933857885
31
0.000000000000000
  0
LINE
  5
F102FB
330
F102FC
100
AcDbEntity
8
Geo
100
AcDbLine
10
-30.3379652605459
20
5.86691933857885
30
0.000000000000000
11
-30.2379652605459
21
6.00273108674752
31
0.000000000000000
  0
LINE
  5
F102FD
330
F102FE
100
AcDbEntity
8
Geo
100
AcDbLine
10
-30.2379652605459
20
6.00273108674752
30
0.000000000000000
11
-30.1379652605459
21
6.15958218863204
31
0.000000000000000
  0
LINE
  5
F102FF
330
F10300
100
AcDbEntity
8
Geo
100
AcDbLine
10
-30.1379652605459
20
6.15958218863204
30
0.000000000000000
11
-30.0379652605459
21
6.33801264230127
31
0.000000000000000
  0
LINE
  5
F10301
330
F10302
100
AcDbEntity
8
Geo
100
AcDbLine
10
-30.0379652605459
20
6.33801264230127
30
0.000000000000000
11
-29.9379652605459
21
6.53856986382876
31
0.000000000000000
  0
LINE
  5
F10303
330
F10304
100
AcDbEntity
8
Geo
100
AcDbLine
10
-54.9379652605459
20
16.1640373747104
30
0.000000000000000
11
-54.8379652605459
21
16.1266886595200
31
0.000000000000000
  0
LINE
  5
F10305
330
F10306
100
AcDbEntity
8
Geo
100
AcDbLine
10
-54.8379652605459
20
16.1266886595200
30
0.000000000000000
11
-54.7379652605459
21
16.0888235115204
31
0.000000000000000
  0
LINE
  5
F10307
330
F10308
100
AcDbEntity
8
Geo
100
AcDbLine
10
-54.7379652605459
20
16.0888235115204
30
0.000000000000000
11
-54.6379652605459
21
16.0504448289924
31
0.000000000000000
  0
LINE
  5
F10309
330
F1030A
100
AcDbEntity
8
Geo
100
AcDbLine
10
-54.6379652605459
20
16.0504448289924
30
0.000000000000000
11
-54.5379652605459
21
16.0115555495238
31
0.000000000000000
  0
LINE
  5
F1030B
330
F1030C
100
AcDbEntity
8
Geo
100
AcDbLine
10
-54.5379652605459
20
16.0115555495238
30
0.000000000000000
11
-54.4379652605459
21
15.9721586497846
31
0.000000000000000
  0
LINE
  5
F1030D
330
F1030E
100
AcDbEntity
8
Geo
100
AcDbLine
10
-54.4379652605459
20
15.9721586497846
30
0.000000000000000
11
-54.3379652605459
21
15.9322571452992
31
0.000000000000000
  0
LINE
  5
F1030F
330
F10310
100
AcDbEntity
8
Geo
100
AcDbLine
10
-54.3379652605459
20
15.9322571452992
30
0.000000000000000
11
-54.2379652605459
21
15.8918540902154
31
0.000000000000000
  0
LINE
  5
F10311
330
F10312
100
AcDbEntity
8
Geo
100
AcDbLine
10
-54.2379652605459
20
15.8918540902154
30
0.000000000000000
11
-54.1379652605459
21
15.8509525770711
31
0.000000000000000
  0
LINE
  5
F10313
330
F10314
100
AcDbEntity
8
Geo
100
AcDbLine
10
-54.1379652605459
20
15.8509525770711
30
0.000000000000000
11
-54.0379652605459
21
15.8095557365568
31
0.000000000000000
  0
LINE
  5
F10315
330
F10316
100
AcDbEntity
8
Geo
100
AcDbLine
10
-54.0379652605459
20
15.8095557365568
30
0.000000000000000
11
-53.9379652605459
21
15.7676667372769
31
0.000000000000000
  0
LINE
  5
F10317
330
F10318
100
AcDbEntity
8
Geo
100
AcDbLine
10
-53.9379652605459
20
15.7676667372769
30
0.000000000000000
11
-53.8379652605459
21
15.7252887855063
31
0.000000000000000
  0
LINE
  5
F10319
330
F1031A
100
AcDbEntity
8
Geo
100
AcDbLine
10
-53.8379652605459
20
15.7252887855063
30
0.000000000000000
11
-53.7379652605459
21
15.6824251249456
31
0.000000000000000
  0
LINE
  5
F1031B
330
F1031C
100
AcDbEntity
8
Geo
100
AcDbLine
10
-53.7379652605459
20
15.6824251249456
30
0.000000000000000
11
-53.6379652605459
21
15.6390790364726
31
0.000000000000000
  0
LINE
  5
F1031D
330
F1031E
100
AcDbEntity
8
Geo
100
AcDbLine
10
-53.6379652605459
20
15.6390790364726
30
0.000000000000000
11
-53.5379652605459
21
15.5952538378913
31
0.000000000000000
  0
LINE
  5
F1031F
330
F10320
100
AcDbEntity
8
Geo
100
AcDbLine
10
-53.5379652605459
20
15.5952538378913
30
0.000000000000000
11
-53.4379652605459
21
15.5509528836774
31
0.000000000000000
  0
LINE
  5
F10321
330
F10322
100
AcDbEntity
8
Geo
100
AcDbLine
10
-53.4379652605459
20
15.5509528836774
30
0.000000000000000
11
-53.3379652605459
21
15.5061795647225
31
0.000000000000000
  0
LINE
  5
F10323
330
F10324
100
AcDbEntity
8
Geo
100
AcDbLine
10
-53.3379652605459
20
15.5061795647225
30
0.000000000000000
11
-53.2379652605459
21
15.4609373080737
31
0.000000000000000
  0
LINE
  5
F10325
330
F10326
100
AcDbEntity
8
Geo
100
AcDbLine
10
-53.2379652605459
20
15.4609373080737
30
0.000000000000000
11
-53.1379652605459
21
15.4152295766716
31
0.000000000000000
  0
LINE
  5
F10327
330
F10328
100
AcDbEntity
8
Geo
100
AcDbLine
10
-53.1379652605459
20
15.4152295766716
30
0.000000000000000
11
-53.0379652605459
21
15.3690598690855
31
0.000000000000000
  0
LINE
  5
F10329
330
F1032A
100
AcDbEntity
8
Geo
100
AcDbLine
10
-53.0379652605459
20
15.3690598690855
30
0.000000000000000
11
-52.9379652605459
21
15.3224317192451
31
0.000000000000000
  0
LINE
  5
F1032B
330
F1032C
100
AcDbEntity
8
Geo
100
AcDbLine
10
-52.9379652605459
20
15.3224317192451
30
0.000000000000000
11
-52.8379652605459
21
15.2753486961704
31
0.000000000000000
  0
LINE
  5
F1032D
330
F1032E
100
AcDbEntity
8
Geo
100
AcDbLine
10
-52.8379652605459
20
15.2753486961704
30
0.000000000000000
11
-52.7379652605459
21
15.2278144036983
31
0.000000000000000
  0
LINE
  5
F1032F
330
F10330
100
AcDbEntity
8
Geo
100
AcDbLine
10
-52.7379652605459
20
15.2278144036983
30
0.000000000000000
11
-52.6379652605459
21
15.1798324802070
31
0.000000000000000
  0
LINE
  5
F10331
330
F10332
100
AcDbEntity
8
Geo
100
AcDbLine
10
-52.6379652605459
20
15.1798324802070
30
0.000000000000000
11
-52.5379652605459
21
15.1314065983371
31
0.000000000000000
  0
LINE
  5
F10333
330
F10334
100
AcDbEntity
8
Geo
100
AcDbLine
10
-52.5379652605459
20
15.1314065983371
30
0.000000000000000
11
-52.4379652605459
21
15.0825404647111
31
0.000000000000000
  0
LINE
  5
F10335
330
F10336
100
AcDbEntity
8
Geo
100
AcDbLine
10
-52.4379652605459
20
15.0825404647111
30
0.000000000000000
11
-52.3379652605459
21
15.0332378196489
31
0.000000000000000
  0
LINE
  5
F10337
330
F10338
100
AcDbEntity
8
Geo
100
AcDbLine
10
-52.3379652605459
20
15.0332378196489
30
0.000000000000000
11
-52.2379652605459
21
14.9835024368823
31
0.000000000000000
  0
LINE
  5
F10339
330
F1033A
100
AcDbEntity
8
Geo
100
AcDbLine
10
-52.2379652605459
20
14.9835024368823
30
0.000000000000000
11
-52.1379652605459
21
14.9333381232655
31
0.000000000000000
  0
LINE
  5
F1033B
330
F1033C
100
AcDbEntity
8
Geo
100
AcDbLine
10
-52.1379652605459
20
14.9333381232655
30
0.000000000000000
11
-52.0379652605459
21
14.8827487184842
31
0.000000000000000
  0
LINE
  5
F1033D
330
F1033E
100
AcDbEntity
8
Geo
100
AcDbLine
10
-52.0379652605459
20
14.8827487184842
30
0.000000000000000
11
-51.9379652605459
21
14.8317380947615
31
0.000000000000000
  0
LINE
  5
F1033F
330
F10340
100
AcDbEntity
8
Geo
100
AcDbLine
10
-51.9379652605459
20
14.8317380947615
30
0.000000000000000
11
-51.8379652605459
21
14.7803101565614
31
0.000000000000000
  0
LINE
  5
F10341
330
F10342
100
AcDbEntity
8
Geo
100
AcDbLine
10
-51.8379652605459
20
14.7803101565614
30
0.000000000000000
11
-51.7379652605459
21
14.7284688402900
31
0.000000000000000
  0
LINE
  5
F10343
330
F10344
100
AcDbEntity
8
Geo
100
AcDbLine
10
-51.7379652605459
20
14.7284688402900
30
0.000000000000000
11
-51.6379652605459
21
14.6762181139946
31
0.000000000000000
  0
LINE
  5
F10345
330
F10346
100
AcDbEntity
8
Geo
100
AcDbLine
10
-51.6379652605459
20
14.6762181139946
30
0.000000000000000
11
-51.5379652605459
21
14.6235619770591
31
0.000000000000000
  0
LINE
  5
F10347
330
F10348
100
AcDbEntity
8
Geo
100
AcDbLine
10
-51.5379652605459
20
14.6235619770591
30
0.000000000000000
11
-51.4379652605459
21
14.5705044598990
31
0.000000000000000
  0
LINE
  5
F10349
330
F1034A
100
AcDbEntity
8
Geo
100
AcDbLine
10
-51.4379652605459
20
14.5705044598990
30
0.000000000000000
11
-51.3379652605459
21
14.5170496236518
31
0.000000000000000
  0
LINE
  5
F1034B
330
F1034C
100
AcDbEntity
8
Geo
100
AcDbLine
10
-51.3379652605459
20
14.5170496236518
30
0.000000000000000
11
-51.2379652605459
21
14.4632015598669
31
0.000000000000000
  0
LINE
  5
F1034D
330
F1034E
100
AcDbEntity
8
Geo
100
AcDbLine
10
-51.2379652605459
20
14.4632015598669
30
0.000000000000000
11
-51.1379652605459
21
14.4089643901924
31
0.000000000000000
  0
LINE
  5
F1034F
330
F10350
100
AcDbEntity
8
Geo
100
AcDbLine
10
-51.1379652605459
20
14.4089643901924
30
0.000000000000000
11
-51.0379652605459
21
14.3543422660589
31
0.000000000000000
  0
LINE
  5
F10351
330
F10352
100
AcDbEntity
8
Geo
100
AcDbLine
10
-51.0379652605459
20
14.3543422660589
30
0.000000000000000
11
-50.9379652605459
21
14.2993393683628
31
0.000000000000000
  0
LINE
  5
F10353
330
F10354
100
AcDbEntity
8
Geo
100
AcDbLine
10
-50.9379652605459
20
14.2993393683628
30
0.000000000000000
11
-50.8379652605459
21
14.2439599071453
31
0.000000000000000
  0
LINE
  5
F10355
330
F10356
100
AcDbEntity
8
Geo
100
AcDbLine
10
-50.8379652605459
20
14.2439599071453
30
0.000000000000000
11
-50.7379652605459
21
14.1882081212708
31
0.000000000000000
  0
LINE
  5
F10357
330
F10358
100
AcDbEntity
8
Geo
100
AcDbLine
10
-50.7379652605459
20
14.1882081212708
30
0.000000000000000
11
-50.6379652605459
21
14.1320882781023
31
0.000000000000000
  0
LINE
  5
F10359
330
F1035A
100
AcDbEntity
8
Geo
100
AcDbLine
10
-50.6379652605459
20
14.1320882781023
30
0.000000000000000
11
-50.5379652605459
21
14.0756046731745
31
0.000000000000000
  0
LINE
  5
F1035B
330
F1035C
100
AcDbEntity
8
Geo
100
AcDbLine
10
-50.5379652605459
20
14.0756046731745
30
0.000000000000000
11
-50.4379652605459
21
14.0187616298654
31
0.000000000000000
  0
LINE
  5
F1035D
330
F1035E
100
AcDbEntity
8
Geo
100
AcDbLine
10
-50.4379652605459
20
14.0187616298654
30
0.000000000000000
11
-50.3379652605459
21
13.9615634990651
31
0.000000000000000
  0
LINE
  5
F1035F
330
F10360
100
AcDbEntity
8
Geo
100
AcDbLine
10
-50.3379652605459
20
13.9615634990651
30
0.000000000000000
11
-50.2379652605459
21
13.9040146588429
31
0.000000000000000
  0
LINE
  5
F10361
330
F10362
100
AcDbEntity
8
Geo
100
AcDbLine
10
-50.2379652605459
20
13.9040146588429
30
0.000000000000000
11
-50.1379652605459
21
13.8461195141122
31
0.000000000000000
  0
LINE
  5
F10363
330
F10364
100
AcDbEntity
8
Geo
100
AcDbLine
10
-50.1379652605459
20
13.8461195141122
30
0.000000000000000
11
-50.0379652605459
21
13.7878824962932
31
0.000000000000000
  0
LINE
  5
F10365
330
F10366
100
AcDbEntity
8
Geo
100
AcDbLine
10
-50.0379652605459
20
13.7878824962932
30
0.000000000000000
11
-49.9379652605459
21
13.7293080629738
31
0.000000000000000
  0
LINE
  5
F10367
330
F10368
100
AcDbEntity
8
Geo
100
AcDbLine
10
-49.9379652605459
20
13.7293080629738
30
0.000000000000000
11
-49.8379652605459
21
13.6704006975686
31
0.000000000000000
  0
LINE
  5
F10369
330
F1036A
100
AcDbEntity
8
Geo
100
AcDbLine
10
-49.8379652605459
20
13.6704006975686
30
0.000000000000000
11
-49.7379652605459
21
13.6111649089753
31
0.000000000000000
  0
LINE
  5
F1036B
330
F1036C
100
AcDbEntity
8
Geo
100
AcDbLine
10
-49.7379652605459
20
13.6111649089753
30
0.000000000000000
11
-49.6379652605459
21
13.5516052312301
31
0.000000000000000
  0
LINE
  5
F1036D
330
F1036E
100
AcDbEntity
8
Geo
100
AcDbLine
10
-49.6379652605459
20
13.5516052312301
30
0.000000000000000
11
-49.5379652605459
21
13.4917262231602
31
0.000000000000000
  0
LINE
  5
F1036F
330
F10370
100
AcDbEntity
8
Geo
100
AcDbLine
10
-49.5379652605459
20
13.4917262231602
30
0.000000000000000
11
-49.4379652605459
21
13.4315324680350
31
0.000000000000000
  0
LINE
  5
F10371
330
F10372
100
AcDbEntity
8
Geo
100
AcDbLine
10
-49.4379652605459
20
13.4315324680350
30
0.000000000000000
11
-49.3379652605459
21
13.3710285732154
31
0.000000000000000
  0
LINE
  5
F10373
330
F10374
100
AcDbEntity
8
Geo
100
AcDbLine
10
-49.3379652605459
20
13.3710285732154
30
0.000000000000000
11
-49.2379652605459
21
13.3102191698010
31
0.000000000000000
  0
LINE
  5
F10375
330
F10376
100
AcDbEntity
8
Geo
100
AcDbLine
10
-49.2379652605459
20
13.3102191698010
30
0.000000000000000
11
-49.1379652605459
21
13.2491089122759
31
0.000000000000000
  0
LINE
  5
F10377
330
F10378
100
AcDbEntity
8
Geo
100
AcDbLine
10
-49.1379652605459
20
13.2491089122759
30
0.000000000000000
11
-49.0379652605459
21
13.1877024781521
31
0.000000000000000
  0
LINE
  5
F10379
330
F1037A
100
AcDbEntity
8
Geo
100
AcDbLine
10
-49.0379652605459
20
13.1877024781521
30
0.000000000000000
11
-48.9379652605459
21
13.1260045676114
31
0.000000000000000
  0
LINE
  5
F1037B
330
F1037C
100
AcDbEntity
8
Geo
100
AcDbLine
10
-48.9379652605459
20
13.1260045676114
30
0.000000000000000
11
-48.8379652605459
21
13.0640199031461
31
0.000000000000000
  0
LINE
  5
F1037D
330
F1037E
100
AcDbEntity
8
Geo
100
AcDbLine
10
-48.8379652605459
20
13.0640199031461
30
0.000000000000000
11
-48.7379652605459
21
13.0017532291972
31
0.000000000000000
  0
LINE
  5
F1037F
330
F10380
100
AcDbEntity
8
Geo
100
AcDbLine
10
-48.7379652605459
20
13.0017532291972
30
0.000000000000000
11
-48.6379652605459
21
12.9392093117912
31
0.000000000000000
  0
LINE
  5
F10381
330
F10382
100
AcDbEntity
8
Geo
100
AcDbLine
10
-48.6379652605459
20
12.9392093117912
30
0.000000000000000
11
-48.5379652605459
21
12.8763929381758
31
0.000000000000000
  0
LINE
  5
F10383
330
F10384
100
AcDbEntity
8
Geo
100
AcDbLine
10
-48.5379652605459
20
12.8763929381758
30
0.000000000000000
11
-48.4379652605459
21
12.8133089164525
31
0.000000000000000
  0
LINE
  5
F10385
330
F10386
100
AcDbEntity
8
Geo
100
AcDbLine
10
-48.4379652605459
20
12.8133089164525
30
0.000000000000000
11
-48.3379652605459
21
12.7499620752097
31
0.000000000000000
  0
LINE
  5
F10387
330
F10388
100
AcDbEntity
8
Geo
100
AcDbLine
10
-48.3379652605459
20
12.7499620752097
30
0.000000000000000
11
-48.2379652605459
21
12.6863572631522
31
0.000000000000000
  0
LINE
  5
F10389
330
F1038A
100
AcDbEntity
8
Geo
100
AcDbLine
10
-48.2379652605459
20
12.6863572631522
30
0.000000000000000
11
-48.1379652605459
21
12.6224993487307
31
0.000000000000000
  0
LINE
  5
F1038B
330
F1038C
100
AcDbEntity
8
Geo
100
AcDbLine
10
-48.1379652605459
20
12.6224993487307
30
0.000000000000000
11
-48.0379652605459
21
12.5583932197688
31
0.000000000000000
  0
LINE
  5
F1038D
330
F1038E
100
AcDbEntity
8
Geo
100
AcDbLine
10
-48.0379652605459
20
12.5583932197688
30
0.000000000000000
11
-47.9379652605459
21
12.4940437830890
31
0.000000000000000
  0
LINE
  5
F1038F
330
F10390
100
AcDbEntity
8
Geo
100
AcDbLine
10
-47.9379652605459
20
12.4940437830890
30
0.000000000000000
11
-47.8379652605459
21
12.4294559641370
31
0.000000000000000
  0
LINE
  5
F10391
330
F10392
100
AcDbEntity
8
Geo
100
AcDbLine
10
-47.8379652605459
20
12.4294559641370
30
0.000000000000000
11
-47.7379652605459
21
12.3646347066051
31
0.000000000000000
  0
LINE
  5
F10393
330
F10394
100
AcDbEntity
8
Geo
100
AcDbLine
10
-47.7379652605459
20
12.3646347066051
30
0.000000000000000
11
-47.6379652605459
21
12.2995849720531
31
0.000000000000000
  0
LINE
  5
F10395
330
F10396
100
AcDbEntity
8
Geo
100
AcDbLine
10
-47.6379652605459
20
12.2995849720531
30
0.000000000000000
11
-47.5379652605459
21
12.2343117395291
31
0.000000000000000
  0
LINE
  5
F10397
330
F10398
100
AcDbEntity
8
Geo
100
AcDbLine
10
-47.5379652605459
20
12.2343117395291
30
0.000000000000000
11
-47.4379652605459
21
12.1688200051884
31
0.000000000000000
  0
LINE
  5
F10399
330
F1039A
100
AcDbEntity
8
Geo
100
AcDbLine
10
-47.4379652605459
20
12.1688200051884
30
0.000000000000000
11
-47.3379652605459
21
12.1031147819106
31
0.000000000000000
  0
LINE
  5
F1039B
330
F1039C
100
AcDbEntity
8
Geo
100
AcDbLine
10
-47.3379652605459
20
12.1031147819106
30
0.000000000000000
11
-47.2379652605459
21
12.0372010989164
31
0.000000000000000
  0
LINE
  5
F1039D
330
F1039E
100
AcDbEntity
8
Geo
100
AcDbLine
10
-47.2379652605459
20
12.0372010989164
30
0.000000000000000
11
-47.1379652605459
21
11.9710840013824
31
0.000000000000000
  0
LINE
  5
F1039F
330
F103A0
100
AcDbEntity
8
Geo
100
AcDbLine
10
-47.1379652605459
20
11.9710840013824
30
0.000000000000000
11
-47.0379652605459
21
11.9047685500550
31
0.000000000000000
  0
LINE
  5
F103A1
330
F103A2
100
AcDbEntity
8
Geo
100
AcDbLine
10
-47.0379652605459
20
11.9047685500550
30
0.000000000000000
11
-46.9379652605459
21
11.8382598208630
31
0.000000000000000
  0
LINE
  5
F103A3
330
F103A4
100
AcDbEntity
8
Geo
100
AcDbLine
10
-46.9379652605459
20
11.8382598208630
30
0.000000000000000
11
-46.8379652605459
21
11.7715629045292
31
0.000000000000000
  0
LINE
  5
F103A5
330
F103A6
100
AcDbEntity
8
Geo
100
AcDbLine
10
-46.8379652605459
20
11.7715629045292
30
0.000000000000000
11
-46.7379652605459
21
11.7046829061806
31
0.000000000000000
  0
LINE
  5
F103A7
330
F103A8
100
AcDbEntity
8
Geo
100
AcDbLine
10
-46.7379652605459
20
11.7046829061806
30
0.000000000000000
11
-46.6379652605459
21
11.6376249449576
31
0.000000000000000
  0
LINE
  5
F103A9
330
F103AA
100
AcDbEntity
8
Geo
100
AcDbLine
10
-46.6379652605459
20
11.6376249449576
30
0.000000000000000
11
-46.5379652605459
21
11.5703941536224
31
0.000000000000000
  0
LINE
  5
F103AB
330
F103AC
100
AcDbEntity
8
Geo
100
AcDbLine
10
-46.5379652605459
20
11.5703941536224
30
0.000000000000000
11
-46.4379652605459
21
11.5029956781659
31
0.000000000000000
  0
LINE
  5
F103AD
330
F103AE
100
AcDbEntity
8
Geo
100
AcDbLine
10
-46.4379652605459
20
11.5029956781659
30
0.000000000000000
11
-46.3379652605459
21
11.4354346774140
31
0.000000000000000
  0
LINE
  5
F103AF
330
F103B0
100
AcDbEntity
8
Geo
100
AcDbLine
10
-46.3379652605459
20
11.4354346774140
30
0.000000000000000
11
-46.2379652605459
21
11.3677163226327
31
0.000000000000000
  0
LINE
  5
F103B1
330
F103B2
100
AcDbEntity
8
Geo
100
AcDbLine
10
-46.2379652605459
20
11.3677163226327
30
0.000000000000000
11
-46.1379652605459
21
11.2998457971318
31
0.000000000000000
  0
LINE
  5
F103B3
330
F103B4
100
AcDbEntity
8
Geo
100
AcDbLine
10
-46.1379652605459
20
11.2998457971318
30
0.000000000000000
11
-46.0379652605459
21
11.2318282958692
31
0.000000000000000
  0
LINE
  5
F103B5
330
F103B6
100
AcDbEntity
8
Geo
100
AcDbLine
10
-46.0379652605459
20
11.2318282958692
30
0.000000000000000
11
-45.9379652605459
21
11.1636690250522
31
0.000000000000000
  0
LINE
  5
F103B7
330
F103B8
100
AcDbEntity
8
Geo
100
AcDbLine
10
-45.9379652605459
20
11.1636690250522
30
0.000000000000000
11
-45.8379652605459
21
11.0953732017396
31
0.000000000000000
  0
LINE
  5
F103B9
330
F103BA
100
AcDbEntity
8
Geo
100
AcDbLine
10
-45.8379652605459
20
11.0953732017396
30
0.000000000000000
11
-45.7379652605459
21
11.0269460534421
31
0.000000000000000
  0
LINE
  5
F103BB
330
F103BC
100
AcDbEntity
8
Geo
100
AcDbLine
10
-45.7379652605459
20
11.0269460534421
30
0.000000000000000
11
-45.6379652605459
21
10.9583928177226
31
0.000000000000000
  0
LINE
  5
F103BD
330
F103BE
100
AcDbEntity
8
Geo
100
AcDbLine
10
-45.6379652605459
20
10.9583928177226
30
0.000000000000000
11
-45.5379652605459
21
10.8897187417947
31
0.000000000000000
  0
LINE
  5
F103BF
330
F103C0
100
AcDbEntity
8
Geo
100
AcDbLine
10
-45.5379652605459
20
10.8897187417947
30
0.000000000000000
11
-45.4379652605459
21
10.8209290821215
31
0.000000000000000
  0
LINE
  5
F103C1
330
F103C2
100
AcDbEntity
8
Geo
100
AcDbLine
10
-45.4379652605459
20
10.8209290821215
30
0.000000000000000
11
-45.3379652605459
21
10.7520291040131
31
0.000000000000000
  0
LINE
  5
F103C3
330
F103C4
100
AcDbEntity
8
Geo
100
AcDbLine
10
-45.3379652605459
20
10.7520291040131
30
0.000000000000000
11
-45.2379652605459
21
10.6830240812236
31
0.000000000000000
  0
LINE
  5
F103C5
330
F103C6
100
AcDbEntity
8
Geo
100
AcDbLine
10
-45.2379652605459
20
10.6830240812236
30
0.000000000000000
11
-45.1379652605459
21
10.6139192955476
31
0.000000000000000
  0
LINE
  5
F103C7
330
F103C8
100
AcDbEntity
8
Geo
100
AcDbLine
10
-45.1379652605459
20
10.6139192955476
30
0.000000000000000
11
-45.0379652605459
21
10.5447200364156
31
0.000000000000000
  0
LINE
  5
F103C9
330
F103CA
100
AcDbEntity
8
Geo
100
AcDbLine
10
-45.0379652605459
20
10.5447200364156
30
0.000000000000000
11
-44.9379652605459
21
10.4754316004892
31
0.000000000000000
  0
LINE
  5
F103CB
330
F103CC
100
AcDbEntity
8
Geo
100
AcDbLine
10
-44.9379652605459
20
10.4754316004892
30
0.000000000000000
11
-44.8379652605459
21
10.4060592912561
31
0.000000000000000
  0
LINE
  5
F103CD
330
F103CE
100
AcDbEntity
8
Geo
100
AcDbLine
10
-44.8379652605459
20
10.4060592912561
30
0.000000000000000
11
-44.7379652605459
21
10.3366084186237
31
0.000000000000000
  0
LINE
  5
F103CF
330
F103D0
100
AcDbEntity
8
Geo
100
AcDbLine
10
-44.7379652605459
20
10.3366084186237
30
0.000000000000000
11
-44.6379652605459
21
10.2670842985126
31
0.000000000000000
  0
LINE
  5
F103D1
330
F103D2
100
AcDbEntity
8
Geo
100
AcDbLine
10
-44.6379652605459
20
10.2670842985126
30
0.000000000000000
11
-44.5379652605459
21
10.1974922524503
31
0.000000000000000
  0
LINE
  5
F103D3
330
F103D4
100
AcDbEntity
8
Geo
100
AcDbLine
10
-44.5379652605459
20
10.1974922524503
30
0.000000000000000
11
-44.4379652605459
21
10.1278376071633
31
0.000000000000000
  0
LINE
  5
F103D5
330
F103D6
100
AcDbEntity
8
Geo
100
AcDbLine
10
-44.4379652605459
20
10.1278376071633
30
0.000000000000000
11
-44.3379652605459
21
10.0581256941695
31
0.000000000000000
  0
LINE
  5
F103D7
330
F103D8
100
AcDbEntity
8
Geo
100
AcDbLine
10
-44.3379652605459
20
10.0581256941695
30
0.000000000000000
11
-44.2379652605459
21
9.98836184937029
31
0.000000000000000
  0
LINE
  5
F103D9
330
F103DA
100
AcDbEntity
8
Geo
100
AcDbLine
10
-44.2379652605459
20
9.98836184937029
30
0.000000000000000
11
-44.1379652605459
21
9.91855141264212
31
0.000000000000000
  0
LINE
  5
F103DB
330
F103DC
100
AcDbEntity
8
Geo
100
AcDbLine
10
-44.1379652605459
20
9.91855141264212
30
0.000000000000000
11
-44.0379652605459
21
9.84869972742757
31
0.000000000000000
  0
LINE
  5
F103DD
330
F103DE
100
AcDbEntity
8
Geo
100
AcDbLine
10
-44.0379652605459
20
9.84869972742757
30
0.000000000000000
11
-43.9379652605459
21
9.77881214032648
31
0.000000000000000
  0
LINE
  5
F103DF
330
F103E0
100
AcDbEntity
8
Geo
100
AcDbLine
10
-43.9379652605459
20
9.77881214032648
30
0.000000000000000
11
-43.8379652605459
21
9.70889400068673
31
0.000000000000000
  0
LINE
  5
F103E1
330
F103E2
100
AcDbEntity
8
Geo
100
AcDbLine
10
-43.8379652605459
20
9.70889400068673
30
0.000000000000000
11
-43.7379652605459
21
9.63895066019475
31
0.000000000000000
  0
LINE
  5
F103E3
330
F103E4
100
AcDbEntity
8
Geo
100
AcDbLine
10
-43.7379652605459
20
9.63895066019475
30
0.000000000000000
11
-43.6379652605459
21
9.56898747246589
31
0.000000000000000
  0
LINE
  5
F103E5
330
F103E6
100
AcDbEntity
8
Geo
100
AcDbLine
10
-43.6379652605459
20
9.56898747246589
30
0.000000000000000
11
-43.5379652605459
21
9.49900979263464
31
0.000000000000000
  0
LINE
  5
F103E7
330
F103E8
100
AcDbEntity
8
Geo
100
AcDbLine
10
-43.5379652605459
20
9.49900979263464
30
0.000000000000000
11
-43.4379652605460
21
9.42902297694478
31
0.000000000000000
  0
LINE
  5
F103E9
330
F103EA
100
AcDbEntity
8
Geo
100
AcDbLine
10
-43.4379652605460
20
9.42902297694478
30
0.000000000000000
11
-43.3379652605460
21
9.35903238233935
31
0.000000000000000
  0
LINE
  5
F103EB
330
F103EC
100
AcDbEntity
8
Geo
100
AcDbLine
10
-43.3379652605460
20
9.35903238233935
30
0.000000000000000
11
-43.2379652605459
21
9.28904336605063
31
0.000000000000000
  0
LINE
  5
F103ED
330
F103EE
100
AcDbEntity
8
Geo
100
AcDbLine
10
-43.2379652605459
20
9.28904336605063
30
0.000000000000000
11
-43.1379652605459
21
9.21906128519009
31
0.000000000000000
  0
LINE
  5
F103EF
330
F103F0
100
AcDbEntity
8
Geo
100
AcDbLine
10
-43.1379652605459
20
9.21906128519009
30
0.000000000000000
11
-43.0379652605459
21
9.14909149633837
31
0.000000000000000
  0
LINE
  5
F103F1
330
F103F2
100
AcDbEntity
8
Geo
100
AcDbLine
10
-43.0379652605459
20
9.14909149633837
30
0.000000000000000
11
-42.9379652605460
21
9.07913935513524
31
0.000000000000000
  0
LINE
  5
F103F3
330
F103F4
100
AcDbEntity
8
Geo
100
AcDbLine
10
-42.9379652605460
20
9.07913935513524
30
0.000000000000000
11
-42.8379652605460
21
9.00921021586967
31
0.000000000000000
  0
LINE
  5
F103F5
330
F103F6
100
AcDbEntity
8
Geo
100
AcDbLine
10
-42.8379652605460
20
9.00921021586967
30
0.000000000000000
11
-42.7379652605459
21
8.93930943107002
31
0.000000000000000
  0
LINE
  5
F103F7
330
F103F8
100
AcDbEntity
8
Geo
100
AcDbLine
10
-42.7379652605459
20
8.93930943107002
30
0.000000000000000
11
-42.6379652605460
21
8.86944235109434
31
0.000000000000000
  0
LINE
  5
F103F9
330
F103FA
100
AcDbEntity
8
Geo
100
AcDbLine
10
-42.6379652605460
20
8.86944235109434
30
0.000000000000000
11
-42.5379652605460
21
8.79961432372085
31
0.000000000000000
  0
LINE
  5
F103FB
330
F103FC
100
AcDbEntity
8
Geo
100
AcDbLine
10
-42.5379652605460
20
8.79961432372085
30
0.000000000000000
11
-42.4379652605460
21
8.72983069373857
31
0.000000000000000
  0
LINE
  5
F103FD
330
F103FE
100
AcDbEntity
8
Geo
100
AcDbLine
10
-42.4379652605460
20
8.72983069373857
30
0.000000000000000
11
-42.3379652605460
21
8.66009680253828
31
0.000000000000000
  0
LINE
  5
F103FF
330
F10400
100
AcDbEntity
8
Geo
100
AcDbLine
10
-42.3379652605460
20
8.66009680253828
30
0.000000000000000
11
-42.2379652605459
21
8.59041798770362
31
0.000000000000000
  0
LINE
  5
F10401
330
F10402
100
AcDbEntity
8
Geo
100
AcDbLine
10
-42.2379652605459
20
8.59041798770362
30
0.000000000000000
11
-42.1379652605460
21
8.52079958260257
31
0.000000000000000
  0
LINE
  5
F10403
330
F10404
100
AcDbEntity
8
Geo
100
AcDbLine
10
-42.1379652605460
20
8.52079958260257
30
0.000000000000000
11
-42.0379652605460
21
8.45124691597924
31
0.000000000000000
  0
LINE
  5
F10405
330
F10406
100
AcDbEntity
8
Geo
100
AcDbLine
10
-42.0379652605460
20
8.45124691597924
30
0.000000000000000
11
-41.9379652605460
21
8.38176531154594
31
0.000000000000000
  0
LINE
  5
F10407
330
F10408
100
AcDbEntity
8
Geo
100
AcDbLine
10
-41.9379652605460
20
8.38176531154594
30
0.000000000000000
11
-41.8379652605460
21
8.31236008757575
31
0.000000000000000
  0
LINE
  5
F10409
330
F1040A
100
AcDbEntity
8
Geo
100
AcDbLine
10
-41.8379652605460
20
8.31236008757575
30
0.000000000000000
11
-41.7379652605460
21
8.24303655649541
31
0.000000000000000
  0
LINE
  5
F1040B
330
F1040C
100
AcDbEntity
8
Geo
100
AcDbLine
10
-41.7379652605460
20
8.24303655649541
30
0.000000000000000
11
-41.6379652605460
21
8.17380002447872
31
0.000000000000000
  0
LINE
  5
F1040D
330
F1040E
100
AcDbEntity
8
Geo
100
AcDbLine
10
-41.6379652605460
20
8.17380002447872
30
0.000000000000000
11
-41.5379652605460
21
8.10465579104037
31
0.000000000000000
  0
LINE
  5
F1040F
330
F10410
100
AcDbEntity
8
Geo
100
AcDbLine
10
-41.5379652605460
20
8.10465579104037
30
0.000000000000000
11
-41.4379652605460
21
8.03560914863032
31
0.000000000000000
  0
LINE
  5
F10411
330
F10412
100
AcDbEntity
8
Geo
100
AcDbLine
10
-41.4379652605460
20
8.03560914863032
30
0.000000000000000
11
-41.3379652605460
21
7.96666538222872
31
0.000000000000000
  0
LINE
  5
F10413
330
F10414
100
AcDbEntity
8
Geo
100
AcDbLine
10
-41.3379652605460
20
7.96666538222872
30
0.000000000000000
11
-41.2379652605460
21
7.89782976894133
31
0.000000000000000
  0
LINE
  5
F10415
330
F10416
100
AcDbEntity
8
Geo
100
AcDbLine
10
-41.2379652605460
20
7.89782976894133
30
0.000000000000000
11
-41.1379652605460
21
7.82910757759567
31
0.000000000000000
  0
LINE
  5
F10417
330
F10418
100
AcDbEntity
8
Geo
100
AcDbLine
10
-41.1379652605460
20
7.82910757759567
30
0.000000000000000
11
-41.0379652605460
21
7.76050406833768
31
0.000000000000000
  0
LINE
  5
F10419
330
F1041A
100
AcDbEntity
8
Geo
100
AcDbLine
10
-41.0379652605460
20
7.76050406833768
30
0.000000000000000
11
-40.9379652605460
21
7.69202449222911
31
0.000000000000000
  0
LINE
  5
F1041B
330
F1041C
100
AcDbEntity
8
Geo
100
AcDbLine
10
-40.9379652605460
20
7.69202449222911
30
0.000000000000000
11
-40.8379652605460
21
7.62367409084561
31
0.000000000000000
  0
LINE
  5
F1041D
330
F1041E
100
AcDbEntity
8
Geo
100
AcDbLine
10
-40.8379652605460
20
7.62367409084561
30
0.000000000000000
11
-40.7379652605460
21
7.55545809587551
31
0.000000000000000
  0
LINE
  5
F1041F
330
F10420
100
AcDbEntity
8
Geo
100
AcDbLine
10
-40.7379652605460
20
7.55545809587551
30
0.000000000000000
11
-40.6379652605460
21
7.48738172871938
31
0.000000000000000
  0
LINE
  5
F10421
330
F10422
100
AcDbEntity
8
Geo
100
AcDbLine
10
-40.6379652605460
20
7.48738172871938
30
0.000000000000000
11
-40.5379652605460
21
7.41945020009038
31
0.000000000000000
  0
LINE
  5
F10423
330
F10424
100
AcDbEntity
8
Geo
100
AcDbLine
10
-40.5379652605460
20
7.41945020009038
30
0.000000000000000
11
-40.4379652605460
21
7.35166870961541
31
0.000000000000000
  0
LINE
  5
F10425
330
F10426
100
AcDbEntity
8
Geo
100
AcDbLine
10
-40.4379652605460
20
7.35166870961541
30
0.000000000000000
11
-40.3379652605460
21
7.28404244543713
31
0.000000000000000
  0
LINE
  5
F10427
330
F10428
100
AcDbEntity
8
Geo
100
AcDbLine
10
-40.3379652605460
20
7.28404244543713
30
0.000000000000000
11
-40.2379652605460
21
7.21657658381681
31
0.000000000000000
  0
LINE
  5
F10429
330
F1042A
100
AcDbEntity
8
Geo
100
AcDbLine
10
-40.2379652605460
20
7.21657658381681
30
0.000000000000000
11
-40.1379652605460
21
7.14927628873821
31
0.000000000000000
  0
LINE
  5
F1042B
330
F1042C
100
AcDbEntity
8
Geo
100
AcDbLine
10
-40.1379652605460
20
7.14927628873821
30
0.000000000000000
11
-40.0379652605460
21
7.08214671151224
31
0.000000000000000
  0
LINE
  5
F1042D
330
F1042E
100
AcDbEntity
8
Geo
100
AcDbLine
10
-40.0379652605460
20
7.08214671151224
30
0.000000000000000
11
-39.9379652605460
21
7.01519299038268
31
0.000000000000000
  0
LINE
  5
F1042F
330
F10430
100
AcDbEntity
8
Geo
100
AcDbLine
10
-39.9379652605460
20
7.01519299038268
30
0.000000000000000
11
-39.8379652605460
21
6.94842025013292
31
0.000000000000000
  0
LINE
  5
F10431
330
F10432
100
AcDbEntity
8
Geo
100
AcDbLine
10
-39.8379652605460
20
6.94842025013292
30
0.000000000000000
11
-39.7379652605460
21
6.88183360169369
31
0.000000000000000
  0
LINE
  5
F10433
330
F10434
100
AcDbEntity
8
Geo
100
AcDbLine
10
-39.7379652605460
20
6.88183360169369
30
0.000000000000000
11
-39.6379652605460
21
6.81543814175182
31
0.000000000000000
  0
LINE
  5
F10435
330
F10436
100
AcDbEntity
8
Geo
100
AcDbLine
10
-39.6379652605460
20
6.81543814175182
30
0.000000000000000
11
-39.5379652605460
21
6.74923895236019
31
0.000000000000000
  0
LINE
  5
F10437
330
F10438
100
AcDbEntity
8
Geo
100
AcDbLine
10
-39.5379652605460
20
6.74923895236019
30
0.000000000000000
11
-39.4379652605460
21
6.68324110054868
31
0.000000000000000
  0
LINE
  5
F10439
330
F1043A
100
AcDbEntity
8
Geo
100
AcDbLine
10
-39.4379652605460
20
6.68324110054868
30
0.000000000000000
11
-39.3379652605460
21
6.61744963793636
31
0.000000000000000
  0
LINE
  5
F1043B
330
F1043C
100
AcDbEntity
8
Geo
100
AcDbLine
10
-39.3379652605460
20
6.61744963793636
30
0.000000000000000
11
-39.2379652605460
21
6.55186960034483
31
0.000000000000000
  0
LINE
  5
F1043D
330
F1043E
100
AcDbEntity
8
Geo
100
AcDbLine
10
-39.2379652605460
20
6.55186960034483
30
0.000000000000000
11
-39.1379652605460
21
6.48650600741274
31
0.000000000000000
  0
LINE
  5
F1043F
330
F10440
100
AcDbEntity
8
Geo
100
AcDbLine
10
-39.1379652605460
20
6.48650600741274
30
0.000000000000000
11
-39.0379652605460
21
6.42136386221163
31
0.000000000000000
  0
LINE
  5
F10441
330
F10442
100
AcDbEntity
8
Geo
100
AcDbLine
10
-39.0379652605460
20
6.42136386221163
30
0.000000000000000
11
-38.9379652605460
21
6.35644815086290
31
0.000000000000000
  0
LINE
  5
F10443
330
F10444
100
AcDbEntity
8
Geo
100
AcDbLine
10
-38.9379652605460
20
6.35644815086290
30
0.000000000000000
11
-38.8379652605460
21
6.29176384215626
31
0.000000000000000
  0
LINE
  5
F10445
330
F10446
100
AcDbEntity
8
Geo
100
AcDbLine
10
-38.8379652605460
20
6.29176384215626
30
0.000000000000000
11
-38.7379652605460
21
6.22731588716932
31
0.000000000000000
  0
LINE
  5
F10447
330
F10448
100
AcDbEntity
8
Geo
100
AcDbLine
10
-38.7379652605460
20
6.22731588716932
30
0.000000000000000
11
-38.6379652605460
21
6.16310921888869
31
0.000000000000000
  0
LINE
  5
F10449
330
F1044A
100
AcDbEntity
8
Geo
100
AcDbLine
10
-38.6379652605460
20
6.16310921888869
30
0.000000000000000
11
-38.5379652605460
21
6.09914875183236
31
0.000000000000000
  0
LINE
  5
F1044B
330
F1044C
100
AcDbEntity
8
Geo
100
AcDbLine
10
-38.5379652605460
20
6.09914875183236
30
0.000000000000000
11
-38.4379652605460
21
6.03543938167354
31
0.000000000000000
  0
LINE
  5
F1044D
330
F1044E
100
AcDbEntity
8
Geo
100
AcDbLine
10
-38.4379652605460
20
6.03543938167354
30
0.000000000000000
11
-38.3379652605460
21
5.97198598486595
31
0.000000000000000
  0
LINE
  5
F1044F
330
F10450
100
AcDbEntity
8
Geo
100
AcDbLine
10
-38.3379652605460
20
5.97198598486595
30
0.000000000000000
11
-38.2379652605460
21
5.90879341827052
31
0.000000000000000
  0
LINE
  5
F10451
330
F10452
100
AcDbEntity
8
Geo
100
AcDbLine
10
-38.2379652605460
20
5.90879341827052
30
0.000000000000000
11
-38.1379652605460
21
5.84586651878372
31
0.000000000000000
  0
LINE
  5
F10453
330
F10454
100
AcDbEntity
8
Geo
100
AcDbLine
10
-38.1379652605460
20
5.84586651878372
30
0.000000000000000
11
-38.0379652605460
21
5.78321010296723
31
0.000000000000000
  0
LINE
  5
F10455
330
F10456
100
AcDbEntity
8
Geo
100
AcDbLine
10
-38.0379652605460
20
5.78321010296723
30
0.000000000000000
11
-37.9379652605460
21
5.72082896667936
31
0.000000000000000
  0
LINE
  5
F10457
330
F10458
100
AcDbEntity
8
Geo
100
AcDbLine
10
-37.9379652605460
20
5.72082896667936
30
0.000000000000000
11
-37.8379652605460
21
5.65872788470791
31
0.000000000000000
  0
LINE
  5
F10459
330
F1045A
100
AcDbEntity
8
Geo
100
AcDbLine
10
-37.8379652605460
20
5.65872788470791
30
0.000000000000000
11
-37.7379652605459
21
5.59691161040471
31
0.000000000000000
  0
LINE
  5
F1045B
330
F1045C
100
AcDbEntity
8
Geo
100
AcDbLine
10
-37.7379652605459
20
5.59691161040471
30
0.000000000000000
11
-37.6379652605459
21
5.53538487532181
31
0.000000000000000
  0
LINE
  5
F1045D
330
F1045E
100
AcDbEntity
8
Geo
100
AcDbLine
10
-37.6379652605459
20
5.53538487532181
30
0.000000000000000
11
-37.5379652605459
21
5.47415238884927
31
0.000000000000000
  0
LINE
  5
F1045F
330
F10460
100
AcDbEntity
8
Geo
100
AcDbLine
10
-37.5379652605459
20
5.47415238884927
30
0.000000000000000
11
-37.4379652605459
21
5.41321883785476
31
0.000000000000000
  0
LINE
  5
F10461
330
F10462
100
AcDbEntity
8
Geo
100
AcDbLine
10
-37.4379652605459
20
5.41321883785476
30
0.000000000000000
11
-37.3379652605459
21
5.35258888632473
31
0.000000000000000
  0
LINE
  5
F10463
330
F10464
100
AcDbEntity
8
Geo
100
AcDbLine
10
-37.3379652605459
20
5.35258888632473
30
0.000000000000000
11
-37.2379652605459
21
5.29226717500751
31
0.000000000000000
  0
LINE
  5
F10465
330
F10466
100
AcDbEntity
8
Geo
100
AcDbLine
10
-37.2379652605459
20
5.29226717500751
30
0.000000000000000
11
-37.1379652605459
21
5.23225832105803
31
0.000000000000000
  0
LINE
  5
F10467
330
F10468
100
AcDbEntity
8
Geo
100
AcDbLine
10
-37.1379652605459
20
5.23225832105803
30
0.000000000000000
11
-37.0379652605459
21
5.17256691768445
31
0.000000000000000
  0
LINE
  5
F10469
330
F1046A
100
AcDbEntity
8
Geo
100
AcDbLine
10
-37.0379652605459
20
5.17256691768445
30
0.000000000000000
11
-36.9379652605459
21
5.11319753379656
31
0.000000000000000
  0
LINE
  5
F1046B
330
F1046C
100
AcDbEntity
8
Geo
100
AcDbLine
10
-36.9379652605459
20
5.11319753379656
30
0.000000000000000
11
-36.8379652605459
21
5.05415471365609
31
0.000000000000000
  0
LINE
  5
F1046D
330
F1046E
100
AcDbEntity
8
Geo
100
AcDbLine
10
-36.8379652605459
20
5.05415471365609
30
0.000000000000000
11
-36.7379652605459
21
4.99544297652887
31
0.000000000000000
  0
LINE
  5
F1046F
330
F10470
100
AcDbEntity
8
Geo
100
AcDbLine
10
-36.7379652605459
20
4.99544297652887
30
0.000000000000000
11
-36.6379652605459
21
4.93706681633890
31
0.000000000000000
  0
LINE
  5
F10471
330
F10472
100
AcDbEntity
8
Geo
100
AcDbLine
10
-36.6379652605459
20
4.93706681633890
30
0.000000000000000
11
-36.5379652605459
21
4.87903070132442
31
0.000000000000000
  0
LINE
  5
F10473
330
F10474
100
AcDbEntity
8
Geo
100
AcDbLine
10
-36.5379652605459
20
4.87903070132442
30
0.000000000000000
11
-36.4379652605459
21
4.82133907369584
31
0.000000000000000
  0
LINE
  5
F10475
330
F10476
100
AcDbEntity
8
Geo
100
AcDbLine
10
-36.4379652605459
20
4.82133907369584
30
0.000000000000000
11
-36.3379652605459
21
4.76399634929579
31
0.000000000000000
  0
LINE
  5
F10477
330
F10478
100
AcDbEntity
8
Geo
100
AcDbLine
10
-36.3379652605459
20
4.76399634929579
30
0.000000000000000
11
-36.2379652605459
21
4.70700691726106
31
0.000000000000000
  0
LINE
  5
F10479
330
F1047A
100
AcDbEntity
8
Geo
100
AcDbLine
10
-36.2379652605459
20
4.70700691726106
30
0.000000000000000
11
-36.1379652605459
21
4.65037513968668
31
0.000000000000000
  0
LINE
  5
F1047B
330
F1047C
100
AcDbEntity
8
Geo
100
AcDbLine
10
-36.1379652605459
20
4.65037513968668
30
0.000000000000000
11
-36.0379652605459
21
4.59410535129205
31
0.000000000000000
  0
LINE
  5
F1047D
330
F1047E
100
AcDbEntity
8
Geo
100
AcDbLine
10
-36.0379652605459
20
4.59410535129205
30
0.000000000000000
11
-35.9379652605459
21
4.53820185908911
31
0.000000000000000
  0
LINE
  5
F1047F
330
F10480
100
AcDbEntity
8
Geo
100
AcDbLine
10
-35.9379652605459
20
4.53820185908911
30
0.000000000000000
11
-35.8379652605459
21
4.48266894205270
31
0.000000000000000
  0
LINE
  5
F10481
330
F10482
100
AcDbEntity
8
Geo
100
AcDbLine
10
-35.8379652605459
20
4.48266894205270
30
0.000000000000000
11
-35.7379652605459
21
4.42751085079304
31
0.000000000000000
  0
LINE
  5
F10483
330
F10484
100
AcDbEntity
8
Geo
100
AcDbLine
10
-35.7379652605459
20
4.42751085079304
30
0.000000000000000
11
-35.6379652605459
21
4.37273180723035
31
0.000000000000000
  0
LINE
  5
F10485
330
F10486
100
AcDbEntity
8
Geo
100
AcDbLine
10
-35.6379652605459
20
4.37273180723035
30
0.000000000000000
11
-35.5379652605459
21
4.31833600427173
31
0.000000000000000
  0
LINE
  5
F10487
330
F10488
100
AcDbEntity
8
Geo
100
AcDbLine
10
-35.5379652605459
20
4.31833600427173
30
0.000000000000000
11
-35.4379652605459
21
4.26432760549020
31
0.000000000000000
  0
LINE
  5
F10489
330
F1048A
100
AcDbEntity
8
Geo
100
AcDbLine
10
-35.4379652605459
20
4.26432760549020
30
0.000000000000000
11
-35.3379652605459
21
4.21071074480604
31
0.000000000000000
  0
LINE
  5
F1048B
330
F1048C
100
AcDbEntity
8
Geo
100
AcDbLine
10
-35.3379652605459
20
4.21071074480604
30
0.000000000000000
11
-35.2379652605459
21
4.15748952617034
31
0.000000000000000
  0
LINE
  5
F1048D
330
F1048E
100
AcDbEntity
8
Geo
100
AcDbLine
10
-35.2379652605459
20
4.15748952617034
30
0.000000000000000
11
-35.1379652605459
21
4.10466802325089
31
0.000000000000000
  0
LINE
  5
F1048F
330
F10490
100
AcDbEntity
8
Geo
100
AcDbLine
10
-35.1379652605459
20
4.10466802325089
30
0.000000000000000
11
-35.0379652605459
21
4.05225027912036
31
0.000000000000000
  0
LINE
  5
F10491
330
F10492
100
AcDbEntity
8
Geo
100
AcDbLine
10
-35.0379652605459
20
4.05225027912036
30
0.000000000000000
11
-34.9379652605459
21
4.00024030594686
31
0.000000000000000
  0
LINE
  5
F10493
330
F10494
100
AcDbEntity
8
Geo
100
AcDbLine
10
-34.9379652605459
20
4.00024030594686
30
0.000000000000000
11
-34.8379652605459
21
3.94864208468682
31
0.000000000000000
  0
LINE
  5
F10495
330
F10496
100
AcDbEntity
8
Geo
100
AcDbLine
10
-34.8379652605459
20
3.94864208468682
30
0.000000000000000
11
-34.7379652605459
21
3.89745956478028
31
0.000000000000000
  0
LINE
  5
F10497
330
F10498
100
AcDbEntity
8
Geo
100
AcDbLine
10
-34.7379652605459
20
3.89745956478028
30
0.000000000000000
11
-34.6379652605459
21
3.84669666384860
31
0.000000000000000
  0
LINE
  5
F10499
330
F1049A
100
AcDbEntity
8
Geo
100
AcDbLine
10
-34.6379652605459
20
3.84669666384860
30
0.000000000000000
11
-34.5379652605459
21
3.79635726739458
31
0.000000000000000
  0
LINE
  5
F1049B
330
F1049C
100
AcDbEntity
8
Geo
100
AcDbLine
10
-34.5379652605459
20
3.79635726739458
30
0.000000000000000
11
-34.4379652605459
21
3.74644522850507
31
0.000000000000000
  0
LINE
  5
F1049D
330
F1049E
100
AcDbEntity
8
Geo
100
AcDbLine
10
-34.4379652605459
20
3.74644522850507
30
0.000000000000000
11
-34.3379652605459
21
3.69696436755606
31
0.000000000000000
  0
LINE
  5
F1049F
330
F104A0
100
AcDbEntity
8
Geo
100
AcDbLine
10
-34.3379652605459
20
3.69696436755606
30
0.000000000000000
11
-34.2379652605459
21
3.64791847192022
31
0.000000000000000
  0
LINE
  5
F104A1
330
F104A2
100
AcDbEntity
8
Geo
100
AcDbLine
10
-34.2379652605459
20
3.64791847192022
30
0.000000000000000
11
-34.1379652605459
21
3.59931129567705
31
0.000000000000000
  0
LINE
  5
F104A3
330
F104A4
100
AcDbEntity
8
Geo
100
AcDbLine
10
-34.1379652605459
20
3.59931129567705
30
0.000000000000000
11
-34.0379652605459
21
3.55114655932549
31
0.000000000000000
  0
LINE
  5
F104A5
330
F104A6
100
AcDbEntity
8
Geo
100
AcDbLine
10
-34.0379652605459
20
3.55114655932549
30
0.000000000000000
11
-33.9379652605459
21
3.50342794949918
31
0.000000000000000
  0
LINE
  5
F104A7
330
F104A8
100
AcDbEntity
8
Geo
100
AcDbLine
10
-33.9379652605459
20
3.50342794949918
30
0.000000000000000
11
-33.8379652605459
21
3.45615911868428
31
0.000000000000000
  0
LINE
  5
F104A9
330
F104AA
100
AcDbEntity
8
Geo
100
AcDbLine
10
-33.8379652605459
20
3.45615911868428
30
0.000000000000000
11
-33.7379652605459
21
3.40934368493986
31
0.000000000000000
  0
LINE
  5
F104AB
330
F104AC
100
AcDbEntity
8
Geo
100
AcDbLine
10
-33.7379652605459
20
3.40934368493986
30
0.000000000000000
11
-33.6379652605459
21
3.36298523162101
31
0.000000000000000
  0
LINE
  5
F104AD
330
F104AE
100
AcDbEntity
8
Geo
100
AcDbLine
10
-33.6379652605459
20
3.36298523162101
30
0.000000000000000
11
-33.5379652605459
21
3.31708730710455
31
0.000000000000000
  0
LINE
  5
F104AF
330
F104B0
100
AcDbEntity
8
Geo
100
AcDbLine
10
-33.5379652605459
20
3.31708730710455
30
0.000000000000000
11
-33.4379652605459
21
3.27165342451741
31
0.000000000000000
  0
LINE
  5
F104B1
330
F104B2
100
AcDbEntity
8
Geo
100
AcDbLine
10
-33.4379652605459
20
3.27165342451741
30
0.000000000000000
11
-33.3379652605459
21
3.22668706146774
31
0.000000000000000
  0
LINE
  5
F104B3
330
F104B4
100
AcDbEntity
8
Geo
100
AcDbLine
10
-33.3379652605459
20
3.22668706146774
30
0.000000000000000
11
-33.2379652605459
21
3.18219165977874
31
0.000000000000000
  0
LINE
  5
F104B5
330
F104B6
100
AcDbEntity
8
Geo
100
AcDbLine
10
-33.2379652605459
20
3.18219165977874
30
0.000000000000000
11
-33.1379652605459
21
3.13817062522520
31
0.000000000000000
  0
LINE
  5
F104B7
330
F104B8
100
AcDbEntity
8
Geo
100
AcDbLine
10
-33.1379652605459
20
3.13817062522520
30
0.000000000000000
11
-33.0379652605459
21
3.09462732727282
31
0.000000000000000
  0
LINE
  5
F104B9
330
F104BA
100
AcDbEntity
8
Geo
100
AcDbLine
10
-33.0379652605459
20
3.09462732727282
30
0.000000000000000
11
-32.9379652605459
21
3.05156509882028
31
0.000000000000000
  0
LINE
  5
F104BB
330
F104BC
100
AcDbEntity
8
Geo
100
AcDbLine
10
-32.9379652605459
20
3.05156509882028
30
0.000000000000000
11
-32.8379652605459
21
3.00898723594419
31
0.000000000000000
  0
LINE
  5
F104BD
330
F104BE
100
AcDbEntity
8
Geo
100
AcDbLine
10
-32.8379652605459
20
3.00898723594419
30
0.000000000000000
11
-32.7379652605459
21
2.96689699764675
31
0.000000000000000
  0
LINE
  5
F104BF
330
F104C0
100
AcDbEntity
8
Geo
100
AcDbLine
10
-32.7379652605459
20
2.96689699764675
30
0.000000000000000
11
-32.6379652605459
21
2.92529760560630
31
0.000000000000000
  0
LINE
  5
F104C1
330
F104C2
100
AcDbEntity
8
Geo
100
AcDbLine
10
-32.6379652605459
20
2.92529760560630
30
0.000000000000000
11
-32.5379652605459
21
2.88419224393076
31
0.000000000000000
  0
LINE
  5
F104C3
330
F104C4
100
AcDbEntity
8
Geo
100
AcDbLine
10
-32.5379652605459
20
2.88419224393076
30
0.000000000000000
11
-32.4379652605459
21
2.84358405891389
31
0.000000000000000
  0
LINE
  5
F104C5
330
F104C6
100
AcDbEntity
8
Geo
100
AcDbLine
10
-32.4379652605459
20
2.84358405891389
30
0.000000000000000
11
-32.3379652605459
21
2.80347615879445
31
0.000000000000000
  0
LINE
  5
F104C7
330
F104C8
100
AcDbEntity
8
Geo
100
AcDbLine
10
-32.3379652605459
20
2.80347615879445
30
0.000000000000000
11
-32.2379652605459
21
2.76387161351833
31
0.000000000000000
  0
LINE
  5
F104C9
330
F104CA
100
AcDbEntity
8
Geo
100
AcDbLine
10
-32.2379652605459
20
2.76387161351833
30
0.000000000000000
11
-32.1379652605459
21
2.72477345450353
31
0.000000000000000
  0
LINE
  5
F104CB
330
F104CC
100
AcDbEntity
8
Geo
100
AcDbLine
10
-32.1379652605459
20
2.72477345450353
30
0.000000000000000
11
-32.0379652605459
21
2.68618467440815
31
0.000000000000000
  0
LINE
  5
F104CD
330
F104CE
100
AcDbEntity
8
Geo
100
AcDbLine
10
-32.0379652605459
20
2.68618467440815
30
0.000000000000000
11
-31.9379652605459
21
2.64810822690132
31
0.000000000000000
  0
LINE
  5
F104CF
330
F104D0
100
AcDbEntity
8
Geo
100
AcDbLine
10
-31.9379652605459
20
2.64810822690132
30
0.000000000000000
11
-31.8379652605459
21
2.61054702643712
31
0.000000000000000
  0
LINE
  5
F104D1
330
F104D2
100
AcDbEntity
8
Geo
100
AcDbLine
10
-31.8379652605459
20
2.61054702643712
30
0.000000000000000
11
-31.7379652605459
21
2.57350394803149
31
0.000000000000000
  0
LINE
  5
F104D3
330
F104D4
100
AcDbEntity
8
Geo
100
AcDbLine
10
-31.7379652605459
20
2.57350394803149
30
0.000000000000000
11
-31.6379652605459
21
2.53698182704221
31
0.000000000000000
  0
LINE
  5
F104D5
330
F104D6
100
AcDbEntity
8
Geo
100
AcDbLine
10
-31.6379652605459
20
2.53698182704221
30
0.000000000000000
11
-31.5379652605459
21
2.50098345895181
31
0.000000000000000
  0
LINE
  5
F104D7
330
F104D8
100
AcDbEntity
8
Geo
100
AcDbLine
10
-31.5379652605459
20
2.50098345895181
30
0.000000000000000
11
-31.4379652605459
21
2.46551159915366
31
0.000000000000000
  0
LINE
  5
F104D9
330
F104DA
100
AcDbEntity
8
Geo
100
AcDbLine
10
-31.4379652605459
20
2.46551159915366
30
0.000000000000000
11
-31.3379652605459
21
2.43056896274103
31
0.000000000000000
  0
LINE
  5
F104DB
330
F104DC
100
AcDbEntity
8
Geo
100
AcDbLine
10
-31.3379652605459
20
2.43056896274103
30
0.000000000000000
11
-31.2379652605459
21
2.39615822429929
31
0.000000000000000
  0
LINE
  5
F104DD
330
F104DE
100
AcDbEntity
8
Geo
100
AcDbLine
10
-31.2379652605459
20
2.39615822429929
30
0.000000000000000
11
-31.1379652605459
21
2.36228201770118
31
0.000000000000000
  0
LINE
  5
F104DF
330
F104E0
100
AcDbEntity
8
Geo
100
AcDbLine
10
-31.1379652605459
20
2.36228201770118
30
0.000000000000000
11
-31.0379652605459
21
2.32894293590519
31
0.000000000000000
  0
LINE
  5
F104E1
330
F104E2
100
AcDbEntity
8
Geo
100
AcDbLine
10
-31.0379652605459
20
2.32894293590519
30
0.000000000000000
11
-30.9379652605459
21
2.29614353075716
31
0.000000000000000
  0
LINE
  5
F104E3
330
F104E4
100
AcDbEntity
8
Geo
100
AcDbLine
10
-30.9379652605459
20
2.29614353075716
30
0.000000000000000
11
-30.8379652605459
21
2.43061465760068
31
0.000000000000000
  0
LINE
  5
F104E5
330
F104E6
100
AcDbEntity
8
Geo
100
AcDbLine
10
-30.8379652605459
20
2.43061465760068
30
0.000000000000000
11
-30.7379652605459
21
2.26801056069610
31
0.000000000000000
  0
LINE
  5
F104E7
330
F104E8
100
AcDbEntity
8
Geo
100
AcDbLine
10
-30.7379652605459
20
2.26801056069610
30
0.000000000000000
11
-30.6379652605459
21
2.05680060864679
31
0.000000000000000
  0
LINE
  5
F104E9
330
F104EA
100
AcDbEntity
8
Geo
100
AcDbLine
10
-30.6379652605459
20
2.05680060864679
30
0.000000000000000
11
-30.5379652605459
21
1.83937085986841
31
0.000000000000000
  0
LINE
  5
F104EB
330
F104EC
100
AcDbEntity
8
Geo
100
AcDbLine
10
-30.5379652605459
20
1.83937085986841
30
0.000000000000000
11
-30.4379652605459
21
1.67443177223529
31
0.000000000000000
  0
LINE
  5
F104ED
330
F104EE
100
AcDbEntity
8
Geo
100
AcDbLine
10
-30.4379652605459
20
1.67443177223529
30
0.000000000000000
11
-30.3379652605459
21
1.62965260545906
31
0.000000000000000
  0
LINE
  5
F104EF
330
F104F0
100
AcDbEntity
8
Geo
100
AcDbLine
10
-54.9379652605459
20
5.37965260545903
30
0.000000000000000
11
-54.8379652605459
21
5.31919253893776
31
0.000000000000000
  0
LINE
  5
F104F1
330
F104F2
100
AcDbEntity
8
Geo
100
AcDbLine
10
-54.8379652605459
20
5.31919253893776
30
0.000000000000000
11
-54.7379652605459
21
5.25904326885834
31
0.000000000000000
  0
LINE
  5
F104F3
330
F104F4
100
AcDbEntity
8
Geo
100
AcDbLine
10
-54.7379652605459
20
5.25904326885834
30
0.000000000000000
11
-54.6379652605459
21
5.19920939917668
31
0.000000000000000
  0
LINE
  5
F104F5
330
F104F6
100
AcDbEntity
8
Geo
100
AcDbLine
10
-54.6379652605459
20
5.19920939917668
30
0.000000000000000
11
-54.5379652605459
21
5.13969550970725
31
0.000000000000000
  0
LINE
  5
F104F7
330
F104F8
100
AcDbEntity
8
Geo
100
AcDbLine
10
-54.5379652605459
20
5.13969550970725
30
0.000000000000000
11
-54.4379652605459
21
5.08050615577255
31
0.000000000000000
  0
LINE
  5
F104F9
330
F104FA
100
AcDbEntity
8
Geo
100
AcDbLine
10
-54.4379652605459
20
5.08050615577255
30
0.000000000000000
11
-54.3379652605459
21
5.02164586785442
31
0.000000000000000
  0
LINE
  5
F104FB
330
F104FC
100
AcDbEntity
8
Geo
100
AcDbLine
10
-54.3379652605459
20
5.02164586785442
30
0.000000000000000
11
-54.2379652605459
21
4.96311915124728
31
0.000000000000000
  0
LINE
  5
F104FD
330
F104FE
100
AcDbEntity
8
Geo
100
AcDbLine
10
-54.2379652605459
20
4.96311915124728
30
0.000000000000000
11
-54.1379652605459
21
4.90493048571325
31
0.000000000000000
  0
LINE
  5
F104FF
330
F10500
100
AcDbEntity
8
Geo
100
AcDbLine
10
-54.1379652605459
20
4.90493048571325
30
0.000000000000000
11
-54.0379652605459
21
4.84708432513933
31
0.000000000000000
  0
LINE
  5
F10501
330
F10502
100
AcDbEntity
8
Geo
100
AcDbLine
10
-54.0379652605459
20
4.84708432513933
30
0.000000000000000
11
-53.9379652605459
21
4.78958509719641
31
0.000000000000000
  0
LINE
  5
F10503
330
F10504
100
AcDbEntity
8
Geo
100
AcDbLine
10
-53.9379652605459
20
4.78958509719641
30
0.000000000000000
11
-53.8379652605459
21
4.73243720300041
31
0.000000000000000
  0
LINE
  5
F10505
330
F10506
100
AcDbEntity
8
Geo
100
AcDbLine
10
-53.8379652605459
20
4.73243720300041
30
0.000000000000000
11
-53.7379652605459
21
4.67564501677541
31
0.000000000000000
  0
LINE
  5
F10507
330
F10508
100
AcDbEntity
8
Geo
100
AcDbLine
10
-53.7379652605459
20
4.67564501677541
30
0.000000000000000
11
-53.6379652605459
21
4.61921288551882
31
0.000000000000000
  0
LINE
  5
F10509
330
F1050A
100
AcDbEntity
8
Geo
100
AcDbLine
10
-53.6379652605459
20
4.61921288551882
30
0.000000000000000
11
-53.5379652605459
21
4.56314512866866
31
0.000000000000000
  0
LINE
  5
F1050B
330
F1050C
100
AcDbEntity
8
Geo
100
AcDbLine
10
-53.5379652605459
20
4.56314512866866
30
0.000000000000000
11
-53.4379652605459
21
4.50744603777294
31
0.000000000000000
  0
LINE
  5
F1050D
330
F1050E
100
AcDbEntity
8
Geo
100
AcDbLine
10
-53.4379652605459
20
4.50744603777294
30
0.000000000000000
11
-53.3379652605459
21
4.45211987616119
31
0.000000000000000
  0
LINE
  5
F1050F
330
F10510
100
AcDbEntity
8
Geo
100
AcDbLine
10
-53.3379652605459
20
4.45211987616119
30
0.000000000000000
11
-53.2379652605459
21
4.39717087861811
31
0.000000000000000
  0
LINE
  5
F10511
330
F10512
100
AcDbEntity
8
Geo
100
AcDbLine
10
-53.2379652605459
20
4.39717087861811
30
0.000000000000000
11
-53.1379652605459
21
4.34260325105943
31
0.000000000000000
  0
LINE
  5
F10513
330
F10514
100
AcDbEntity
8
Geo
100
AcDbLine
10
-53.1379652605459
20
4.34260325105943
30
0.000000000000000
11
-53.0379652605459
21
4.28842117021002
31
0.000000000000000
  0
LINE
  5
F10515
330
F10516
100
AcDbEntity
8
Geo
100
AcDbLine
10
-53.0379652605459
20
4.28842117021002
30
0.000000000000000
11
-52.9379652605459
21
4.23462878328415
31
0.000000000000000
  0
LINE
  5
F10517
330
F10518
100
AcDbEntity
8
Geo
100
AcDbLine
10
-52.9379652605459
20
4.23462878328415
30
0.000000000000000
11
-52.8379652605459
21
4.18123020766807
31
0.000000000000000
  0
LINE
  5
F10519
330
F1051A
100
AcDbEntity
8
Geo
100
AcDbLine
10
-52.8379652605459
20
4.18123020766807
30
0.000000000000000
11
-52.7379652605459
21
4.12822953060485
31
0.000000000000000
  0
LINE
  5
F1051B
330
F1051C
100
AcDbEntity
8
Geo
100
AcDbLine
10
-52.7379652605459
20
4.12822953060485
30
0.000000000000000
11
-52.6379652605459
21
4.07563080888156
31
0.000000000000000
  0
LINE
  5
F1051D
330
F1051E
100
AcDbEntity
8
Geo
100
AcDbLine
10
-52.6379652605459
20
4.07563080888156
30
0.000000000000000
11
-52.5379652605459
21
4.02343806851872
31
0.000000000000000
  0
LINE
  5
F1051F
330
F10520
100
AcDbEntity
8
Geo
100
AcDbLine
10
-52.5379652605459
20
4.02343806851872
30
0.000000000000000
11
-52.4379652605459
21
3.97165530446216
31
0.000000000000000
  0
LINE
  5
F10521
330
F10522
100
AcDbEntity
8
Geo
100
AcDbLine
10
-52.4379652605459
20
3.97165530446216
30
0.000000000000000
11
-52.3379652605459
21
3.92028648027721
31
0.000000000000000
  0
LINE
  5
F10523
330
F10524
100
AcDbEntity
8
Geo
100
AcDbLine
10
-52.3379652605459
20
3.92028648027721
30
0.000000000000000
11
-52.2379652605459
21
3.86933552784538
31
0.000000000000000
  0
LINE
  5
F10525
330
F10526
100
AcDbEntity
8
Geo
100
AcDbLine
10
-52.2379652605459
20
3.86933552784538
30
0.000000000000000
11
-52.1379652605459
21
3.81880634706334
31
0.000000000000000
  0
LINE
  5
F10527
330
F10528
100
AcDbEntity
8
Geo
100
AcDbLine
10
-52.1379652605459
20
3.81880634706334
30
0.000000000000000
11
-52.0379652605459
21
3.76870280554444
31
0.000000000000000
  0
LINE
  5
F10529
330
F1052A
100
AcDbEntity
8
Geo
100
AcDbLine
10
-52.0379652605459
20
3.76870280554444
30
0.000000000000000
11
-51.9379652605459
21
3.71902873832271
31
0.000000000000000
  0
LINE
  5
F1052B
330
F1052C
100
AcDbEntity
8
Geo
100
AcDbLine
10
-51.9379652605459
20
3.71902873832271
30
0.000000000000000
11
-51.8379652605459
21
3.66978794755923
31
0.000000000000000
  0
LINE
  5
F1052D
330
F1052E
100
AcDbEntity
8
Geo
100
AcDbLine
10
-51.8379652605459
20
3.66978794755923
30
0.000000000000000
11
-51.7379652605459
21
3.62098420225120
31
0.000000000000000
  0
LINE
  5
F1052F
330
F10530
100
AcDbEntity
8
Geo
100
AcDbLine
10
-51.7379652605459
20
3.62098420225120
30
0.000000000000000
11
-51.6379652605459
21
3.57262123794339
31
0.000000000000000
  0
LINE
  5
F10531
330
F10532
100
AcDbEntity
8
Geo
100
AcDbLine
10
-51.6379652605459
20
3.57262123794339
30
0.000000000000000
11
-51.5379652605459
21
3.52470275644225
31
0.000000000000000
  0
LINE
  5
F10533
330
F10534
100
AcDbEntity
8
Geo
100
AcDbLine
10
-51.5379652605459
20
3.52470275644225
30
0.000000000000000
11
-51.4379652605459
21
3.47723242553253
31
0.000000000000000
  0
LINE
  5
F10535
330
F10536
100
AcDbEntity
8
Geo
100
AcDbLine
10
-51.4379652605459
20
3.47723242553253
30
0.000000000000000
11
-51.3379652605459
21
3.43021387869657
31
0.000000000000000
  0
LINE
  5
F10537
330
F10538
100
AcDbEntity
8
Geo
100
AcDbLine
10
-51.3379652605459
20
3.43021387869657
30
0.000000000000000
11
-51.2379652605459
21
3.38365071483618
31
0.000000000000000
  0
LINE
  5
F10539
330
F1053A
100
AcDbEntity
8
Geo
100
AcDbLine
10
-51.2379652605459
20
3.38365071483618
30
0.000000000000000
11
-51.1379652605459
21
3.33754649799715
31
0.000000000000000
  0
LINE
  5
F1053B
330
F1053C
100
AcDbEntity
8
Geo
100
AcDbLine
10
-51.1379652605459
20
3.33754649799715
30
0.000000000000000
11
-51.0379652605459
21
3.29190475709649
31
0.000000000000000
  0
LINE
  5
F1053D
330
F1053E
100
AcDbEntity
8
Geo
100
AcDbLine
10
-51.0379652605459
20
3.29190475709649
30
0.000000000000000
11
-50.9379652605459
21
3.24672898565228
31
0.000000000000000
  0
LINE
  5
F1053F
330
F10540
100
AcDbEntity
8
Geo
100
AcDbLine
10
-50.9379652605459
20
3.24672898565228
30
0.000000000000000
11
-50.8379652605459
21
3.20202264151628
31
0.000000000000000
  0
LINE
  5
F10541
330
F10542
100
AcDbEntity
8
Geo
100
AcDbLine
10
-50.8379652605459
20
3.20202264151628
30
0.000000000000000
11
-50.7379652605459
21
3.15778914660928
31
0.000000000000000
  0
LINE
  5
F10543
330
F10544
100
AcDbEntity
8
Geo
100
AcDbLine
10
-50.7379652605459
20
3.15778914660928
30
0.000000000000000
11
-50.6379652605459
21
3.11403188665916
31
0.000000000000000
  0
LINE
  5
F10545
330
F10546
100
AcDbEntity
8
Geo
100
AcDbLine
10
-50.6379652605459
20
3.11403188665916
30
0.000000000000000
11
-50.5379652605459
21
3.07075421094172
31
0.000000000000000
  0
LINE
  5
F10547
330
F10548
100
AcDbEntity
8
Geo
100
AcDbLine
10
-50.5379652605459
20
3.07075421094172
30
0.000000000000000
11
-50.4379652605459
21
3.02795943202436
31
0.000000000000000
  0
LINE
  5
F10549
330
F1054A
100
AcDbEntity
8
Geo
100
AcDbLine
10
-50.4379652605459
20
3.02795943202436
30
0.000000000000000
11
-50.3379652605459
21
2.98565082551251
31
0.000000000000000
  0
LINE
  5
F1054B
330
F1054C
100
AcDbEntity
8
Geo
100
AcDbLine
10
-50.3379652605459
20
2.98565082551251
30
0.000000000000000
11
-50.2379652605459
21
2.94383162979890
31
0.000000000000000
  0
LINE
  5
F1054D
330
F1054E
100
AcDbEntity
8
Geo
100
AcDbLine
10
-50.2379652605459
20
2.94383162979890
30
0.000000000000000
11
-50.1379652605459
21
2.90250504581569
31
0.000000000000000
  0
LINE
  5
F1054F
330
F10550
100
AcDbEntity
8
Geo
100
AcDbLine
10
-50.1379652605459
20
2.90250504581569
30
0.000000000000000
11
-50.0379652605459
21
2.86167423678947
31
0.000000000000000
  0
LINE
  5
F10551
330
F10552
100
AcDbEntity
8
Geo
100
AcDbLine
10
-50.0379652605459
20
2.86167423678947
30
0.000000000000000
11
-49.9379652605459
21
2.82134232799914
31
0.000000000000000
  0
LINE
  5
F10553
330
F10554
100
AcDbEntity
8
Geo
100
AcDbLine
10
-49.9379652605459
20
2.82134232799914
30
0.000000000000000
11
-49.8379652605459
21
2.78151240653669
31
0.000000000000000
  0
LINE
  5
F10555
330
F10556
100
AcDbEntity
8
Geo
100
AcDbLine
10
-49.8379652605459
20
2.78151240653669
30
0.000000000000000
11
-49.7379652605459
21
2.74218752107091
31
0.000000000000000
  0
LINE
  5
F10557
330
F10558
100
AcDbEntity
8
Geo
100
AcDbLine
10
-49.7379652605459
20
2.74218752107091
30
0.000000000000000
11
-49.6379652605459
21
2.70337068161403
31
0.000000000000000
  0
LINE
  5
F10559
330
F1055A
100
AcDbEntity
8
Geo
100
AcDbLine
10
-49.6379652605459
20
2.70337068161403
30
0.000000000000000
11
-49.5379652605459
21
2.66506485929134
31
0.000000000000000
  0
LINE
  5
F1055B
330
F1055C
100
AcDbEntity
8
Geo
100
AcDbLine
10
-49.5379652605459
20
2.66506485929134
30
0.000000000000000
11
-49.4379652605459
21
2.62727298611377
31
0.000000000000000
  0
LINE
  5
F1055D
330
F1055E
100
AcDbEntity
8
Geo
100
AcDbLine
10
-49.4379652605459
20
2.62727298611377
30
0.000000000000000
11
-49.3379652605459
21
2.58999795475346
31
0.000000000000000
  0
LINE
  5
F1055F
330
F10560
100
AcDbEntity
8
Geo
100
AcDbLine
10
-49.3379652605459
20
2.58999795475346
30
0.000000000000000
11
-49.2379652605459
21
2.55324261832235
31
0.000000000000000
  0
LINE
  5
F10561
330
F10562
100
AcDbEntity
8
Geo
100
AcDbLine
10
-49.2379652605459
20
2.55324261832235
30
0.000000000000000
11
-49.1379652605459
21
2.51700979015381
31
0.000000000000000
  0
LINE
  5
F10563
330
F10564
100
AcDbEntity
8
Geo
100
AcDbLine
10
-49.1379652605459
20
2.51700979015381
30
0.000000000000000
11
-49.0379652605459
21
2.48130224358729
31
0.000000000000000
  0
LINE
  5
F10565
330
F10566
100
AcDbEntity
8
Geo
100
AcDbLine
10
-49.0379652605459
20
2.48130224358729
30
0.000000000000000
11
-48.9379652605459
21
2.44612271175603
31
0.000000000000000
  0
LINE
  5
F10567
330
F10568
100
AcDbEntity
8
Geo
100
AcDbLine
10
-48.9379652605459
20
2.44612271175603
30
0.000000000000000
11
-48.8379652605459
21
2.41147388737788
31
0.000000000000000
  0
LINE
  5
F10569
330
F1056A
100
AcDbEntity
8
Geo
100
AcDbLine
10
-48.8379652605459
20
2.41147388737788
30
0.000000000000000
11
-48.7379652605459
21
2.37735842254921
31
0.000000000000000
  0
LINE
  5
F1056B
330
F1056C
100
AcDbEntity
8
Geo
100
AcDbLine
10
-48.7379652605459
20
2.37735842254921
30
0.000000000000000
11
-48.6379652605459
21
2.34377892854187
31
0.000000000000000
  0
LINE
  5
F1056D
330
F1056E
100
AcDbEntity
8
Geo
100
AcDbLine
10
-48.6379652605459
20
2.34377892854187
30
0.000000000000000
11
-48.5379652605459
21
2.31073797560332
31
0.000000000000000
  0
LINE
  5
F1056F
330
F10570
100
AcDbEntity
8
Geo
100
AcDbLine
10
-48.5379652605459
20
2.31073797560332
30
0.000000000000000
11
-48.4379652605459
21
2.27823809275996
31
0.000000000000000
  0
LINE
  5
F10571
330
F10572
100
AcDbEntity
8
Geo
100
AcDbLine
10
-48.4379652605459
20
2.27823809275996
30
0.000000000000000
11
-48.3379652605459
21
2.24628176762348
31
0.000000000000000
  0
LINE
  5
F10573
330
F10574
100
AcDbEntity
8
Geo
100
AcDbLine
10
-48.3379652605459
20
2.24628176762348
30
0.000000000000000
11
-48.2379652605459
21
2.21487144620048
31
0.000000000000000
  0
LINE
  5
F10575
330
F10576
100
AcDbEntity
8
Geo
100
AcDbLine
10
-48.2379652605459
20
2.21487144620048
30
0.000000000000000
11
-48.1379652605459
21
2.18400953270525
31
0.000000000000000
  0
LINE
  5
F10577
330
F10578
100
AcDbEntity
8
Geo
100
AcDbLine
10
-48.1379652605459
20
2.18400953270525
30
0.000000000000000
11
-48.0379652605459
21
2.15369838937576
31
0.000000000000000
  0
LINE
  5
F10579
330
F1057A
100
AcDbEntity
8
Geo
100
AcDbLine
10
-48.0379652605459
20
2.15369838937576
30
0.000000000000000
11
-47.9379652605459
21
2.12394033629283
31
0.000000000000000
  0
LINE
  5
F1057B
330
F1057C
100
AcDbEntity
8
Geo
100
AcDbLine
10
-47.9379652605459
20
2.12394033629283
30
0.000000000000000
11
-47.8379652605459
21
2.09473765120252
31
0.000000000000000
  0
LINE
  5
F1057D
330
F1057E
100
AcDbEntity
8
Geo
100
AcDbLine
10
-47.8379652605459
20
2.09473765120252
30
0.000000000000000
11
-47.7379652605459
21
2.06609256934186
31
0.000000000000000
  0
LINE
  5
F1057F
330
F10580
100
AcDbEntity
8
Geo
100
AcDbLine
10
-47.7379652605459
20
2.06609256934186
30
0.000000000000000
11
-47.6379652605459
21
2.03800728326770
31
0.000000000000000
  0
LINE
  5
F10581
330
F10582
100
AcDbEntity
8
Geo
100
AcDbLine
10
-47.6379652605459
20
2.03800728326770
30
0.000000000000000
11
-47.5379652605459
21
2.01048394268888
31
0.000000000000000
  0
LINE
  5
F10583
330
F10584
100
AcDbEntity
8
Geo
100
AcDbLine
10
-47.5379652605459
20
2.01048394268888
30
0.000000000000000
11
-47.4379652605459
21
1.98352465430174
31
0.000000000000000
  0
LINE
  5
F10585
330
F10586
100
AcDbEntity
8
Geo
100
AcDbLine
10
-47.4379652605459
20
1.98352465430174
30
0.000000000000000
11
-47.3379652605459
21
1.95713148162883
31
0.000000000000000
  0
LINE
  5
F10587
330
F10588
100
AcDbEntity
8
Geo
100
AcDbLine
10
-47.3379652605459
20
1.95713148162883
30
0.000000000000000
11
-47.2379652605459
21
1.93130644486098
31
0.000000000000000
  0
LINE
  5
F10589
330
F1058A
100
AcDbEntity
8
Geo
100
AcDbLine
10
-47.2379652605459
20
1.93130644486098
30
0.000000000000000
11
-47.1379652605459
21
1.90605152070263
31
0.000000000000000
  0
LINE
  5
F1058B
330
F1058C
100
AcDbEntity
8
Geo
100
AcDbLine
10
-47.1379652605459
20
1.90605152070263
30
0.000000000000000
11
-47.0379652605459
21
1.88136864222061
31
0.000000000000000
  0
LINE
  5
F1058D
330
F1058E
100
AcDbEntity
8
Geo
100
AcDbLine
10
-47.0379652605459
20
1.88136864222061
30
0.000000000000000
11
-46.9379652605459
21
1.85725969869609
31
0.000000000000000
  0
LINE
  5
F1058F
330
F10590
100
AcDbEntity
8
Geo
100
AcDbLine
10
-46.9379652605459
20
1.85725969869609
30
0.000000000000000
11
-46.8379652605459
21
1.83372653548002
31
0.000000000000000
  0
LINE
  5
F10591
330
F10592
100
AcDbEntity
8
Geo
100
AcDbLine
10
-46.8379652605459
20
1.83372653548002
30
0.000000000000000
11
-46.7379652605459
21
1.81077095385190
31
0.000000000000000
  0
LINE
  5
F10593
330
F10594
100
AcDbEntity
8
Geo
100
AcDbLine
10
-46.7379652605459
20
1.81077095385190
30
0.000000000000000
11
-46.6379652605459
21
1.78839471088185
31
0.000000000000000
  0
LINE
  5
F10595
330
F10596
100
AcDbEntity
8
Geo
100
AcDbLine
10
-46.6379652605459
20
1.78839471088185
30
0.000000000000000
11
-46.5379652605459
21
1.76659951929614
31
0.000000000000000
  0
LINE
  5
F10597
330
F10598
100
AcDbEntity
8
Geo
100
AcDbLine
10
-46.5379652605459
20
1.76659951929614
30
0.000000000000000
11
-46.4379652605459
21
1.74538704734615
31
0.000000000000000
  0
LINE
  5
F10599
330
F1059A
100
AcDbEntity
8
Geo
100
AcDbLine
10
-46.4379652605459
20
1.74538704734615
30
0.000000000000000
11
-46.3379652605459
21
1.72475891868059
31
0.000000000000000
  0
LINE
  5
F1059B
330
F1059C
100
AcDbEntity
8
Geo
100
AcDbLine
10
-46.3379652605459
20
1.72475891868059
30
0.000000000000000
11
-46.2379652605459
21
1.70471671222127
31
0.000000000000000
  0
LINE
  5
F1059D
330
F1059E
100
AcDbEntity
8
Geo
100
AcDbLine
10
-46.2379652605459
20
1.70471671222127
30
0.000000000000000
11
-46.1379652605459
21
1.68526196204226
31
0.000000000000000
  0
LINE
  5
F1059F
330
F105A0
100
AcDbEntity
8
Geo
100
AcDbLine
10
-46.1379652605459
20
1.68526196204226
30
0.000000000000000
11
-46.0379652605459
21
1.66639615725244
31
0.000000000000000
  0
LINE
  5
F105A1
330
F105A2
100
AcDbEntity
8
Geo
100
AcDbLine
10
-46.0379652605459
20
1.66639615725244
30
0.000000000000000
11
-45.9379652605459
21
1.64812074188152
31
0.000000000000000
  0
LINE
  5
F105A3
330
F105A4
100
AcDbEntity
8
Geo
100
AcDbLine
10
-45.9379652605459
20
1.64812074188152
30
0.000000000000000
11
-45.8379652605459
21
1.63043711476953
31
0.000000000000000
  0
LINE
  5
F105A5
330
F105A6
100
AcDbEntity
8
Geo
100
AcDbLine
10
-45.8379652605459
20
1.63043711476953
30
0.000000000000000
11
-45.7379652605459
21
1.61334662945973
31
0.000000000000000
  0
LINE
  5
F105A7
330
F105A8
100
AcDbEntity
8
Geo
100
AcDbLine
10
-45.7379652605459
20
1.61334662945973
30
0.000000000000000
11
-45.6379652605459
21
1.59685059409503
31
0.000000000000000
  0
LINE
  5
F105A9
330
F105AA
100
AcDbEntity
8
Geo
100
AcDbLine
10
-45.6379652605459
20
1.59685059409503
30
0.000000000000000
11
-45.5379652605459
21
1.58095027131785
31
0.000000000000000
  0
LINE
  5
F105AB
330
F105AC
100
AcDbEntity
8
Geo
100
AcDbLine
10
-45.5379652605459
20
1.58095027131785
30
0.000000000000000
11
-45.4379652605459
21
1.56564687817346
31
0.000000000000000
  0
LINE
  5
F105AD
330
F105AE
100
AcDbEntity
8
Geo
100
AcDbLine
10
-45.4379652605459
20
1.56564687817346
30
0.000000000000000
11
-45.3379652605459
21
1.55094158601685
31
0.000000000000000
  0
LINE
  5
F105AF
330
F105B0
100
AcDbEntity
8
Geo
100
AcDbLine
10
-45.3379652605459
20
1.55094158601685
30
0.000000000000000
11
-45.2379652605459
21
1.53683552042304
31
0.000000000000000
  0
LINE
  5
F105B1
330
F105B2
100
AcDbEntity
8
Geo
100
AcDbLine
10
-45.2379652605459
20
1.53683552042304
30
0.000000000000000
11
-45.1379652605459
21
1.52332976110097
31
0.000000000000000
  0
LINE
  5
F105B3
330
F105B4
100
AcDbEntity
8
Geo
100
AcDbLine
10
-45.1379652605459
20
1.52332976110097
30
0.000000000000000
11
-45.0379652605459
21
1.51042534181082
31
0.000000000000000
  0
LINE
  5
F105B5
330
F105B6
100
AcDbEntity
8
Geo
100
AcDbLine
10
-45.0379652605459
20
1.51042534181082
30
0.000000000000000
11
-44.9379652605459
21
1.49812325028491
31
0.000000000000000
  0
LINE
  5
F105B7
330
F105B8
100
AcDbEntity
8
Geo
100
AcDbLine
10
-44.9379652605459
20
1.49812325028491
30
0.000000000000000
11
-44.8379652605459
21
1.48642442815206
31
0.000000000000000
  0
LINE
  5
F105B9
330
F105BA
100
AcDbEntity
8
Geo
100
AcDbLine
10
-44.8379652605459
20
1.48642442815206
30
0.000000000000000
11
-44.7379652605459
21
1.47532977086556
31
0.000000000000000
  0
LINE
  5
F105BB
330
F105BC
100
AcDbEntity
8
Geo
100
AcDbLine
10
-44.7379652605459
20
1.47532977086556
30
0.000000000000000
11
-44.6379652605459
21
1.46484012763459
31
0.000000000000000
  0
LINE
  5
F105BD
330
F105BE
100
AcDbEntity
8
Geo
100
AcDbLine
10
-44.6379652605459
20
1.46484012763459
30
0.000000000000000
11
-44.5379652605459
21
1.45495630135926
31
0.000000000000000
  0
LINE
  5
F105BF
330
F105C0
100
AcDbEntity
8
Geo
100
AcDbLine
10
-44.5379652605459
20
1.45495630135926
30
0.000000000000000
11
-44.4379652605459
21
1.44567904856912
31
0.000000000000000
  0
LINE
  5
F105C1
330
F105C2
100
AcDbEntity
8
Geo
100
AcDbLine
10
-44.4379652605459
20
1.44567904856912
30
0.000000000000000
11
-44.3379652605459
21
1.43700907936527
31
0.000000000000000
  0
LINE
  5
F105C3
330
F105C4
100
AcDbEntity
8
Geo
100
AcDbLine
10
-44.3379652605459
20
1.43700907936527
30
0.000000000000000
11
-44.2379652605459
21
1.42894705736600
31
0.000000000000000
  0
LINE
  5
F105C5
330
F105C6
100
AcDbEntity
8
Geo
100
AcDbLine
10
-44.2379652605459
20
1.42894705736600
30
0.000000000000000
11
-44.1379652605459
21
1.42149359965601
31
0.000000000000000
  0
LINE
  5
F105C7
330
F105C8
100
AcDbEntity
8
Geo
100
AcDbLine
10
-44.1379652605459
20
1.42149359965601
30
0.000000000000000
11
-44.0379652605459
21
1.41464927673915
31
0.000000000000000
  0
LINE
  5
F105C9
330
F105CA
100
AcDbEntity
8
Geo
100
AcDbLine
10
-44.0379652605459
20
1.41464927673915
30
0.000000000000000
11
-43.9379652605459
21
1.40841461249479
31
0.000000000000000
  0
LINE
  5
F105CB
330
F105CC
100
AcDbEntity
8
Geo
100
AcDbLine
10
-43.9379652605459
20
1.40841461249479
30
0.000000000000000
11
-43.8379652605459
21
1.40279008413767
31
0.000000000000000
  0
LINE
  5
F105CD
330
F105CE
100
AcDbEntity
8
Geo
100
AcDbLine
10
-43.8379652605459
20
1.40279008413767
30
0.000000000000000
11
-43.7379652605459
21
1.39777612218142
31
0.000000000000000
  0
LINE
  5
F105CF
330
F105D0
100
AcDbEntity
8
Geo
100
AcDbLine
10
-43.7379652605459
20
1.39777612218142
30
0.000000000000000
11
-43.6379652605459
21
1.39337311040561
31
0.000000000000000
  0
LINE
  5
F105D1
330
F105D2
100
AcDbEntity
8
Geo
100
AcDbLine
10
-43.6379652605459
20
1.39337311040561
30
0.000000000000000
11
-43.5379652605459
21
1.38958138582631
31
0.000000000000000
  0
LINE
  5
F105D3
330
F105D4
100
AcDbEntity
8
Geo
100
AcDbLine
10
-43.5379652605459
20
1.38958138582631
30
0.000000000000000
11
-43.4379652605460
21
1.38640123867039
31
0.000000000000000
  0
LINE
  5
F105D5
330
F105D6
100
AcDbEntity
8
Geo
100
AcDbLine
10
-43.4379652605460
20
1.38640123867039
30
0.000000000000000
11
-43.3379652605460
21
1.38383291235320
31
0.000000000000000
  0
LINE
  5
F105D7
330
F105D8
100
AcDbEntity
8
Geo
100
AcDbLine
10
-43.3379652605460
20
1.38383291235320
30
0.000000000000000
11
-43.2379652605459
21
1.38187660346003
31
0.000000000000000
  0
LINE
  5
F105D9
330
F105DA
100
AcDbEntity
8
Geo
100
AcDbLine
10
-43.2379652605459
20
1.38187660346003
30
0.000000000000000
11
-43.1379652605459
21
1.38053246173103
31
0.000000000000000
  0
LINE
  5
F105DB
330
F105DC
100
AcDbEntity
8
Geo
100
AcDbLine
10
-43.1379652605459
20
1.38053246173103
30
0.000000000000000
11
-43.0379652605459
21
1.37980059004971
31
0.000000000000000
  0
LINE
  5
F105DD
330
F105DE
100
AcDbEntity
8
Geo
100
AcDbLine
10
-54.9379652605459
20
2.31607186258765
30
0.000000000000000
11
-54.8379652605459
21
2.28348386100945
31
0.000000000000000
  0
LINE
  5
F105DF
330
F105E0
100
AcDbEntity
8
Geo
100
AcDbLine
10
-54.8379652605459
20
2.28348386100945
30
0.000000000000000
11
-54.7379652605459
21
2.25143901561562
31
0.000000000000000
  0
LINE
  5
F105E1
330
F105E2
100
AcDbEntity
8
Geo
100
AcDbLine
10
-54.7379652605459
20
2.25143901561562
30
0.000000000000000
11
-54.6379652605459
21
2.21993977918831
31
0.000000000000000
  0
LINE
  5
F105E3
330
F105E4
100
AcDbEntity
8
Geo
100
AcDbLine
10
-54.6379652605459
20
2.21993977918831
30
0.000000000000000
11
-54.5379652605459
21
2.18898856274754
31
0.000000000000000
  0
LINE
  5
F105E5
330
F105E6
100
AcDbEntity
8
Geo
100
AcDbLine
10
-54.5379652605459
20
2.18898856274754
30
0.000000000000000
11
-54.4379652605459
21
2.15858773536672
31
0.000000000000000
  0
LINE
  5
F105E7
330
F105E8
100
AcDbEntity
8
Geo
100
AcDbLine
10
-54.4379652605459
20
2.15858773536672
30
0.000000000000000
11
-54.3379652605459
21
2.12873962399128
31
0.000000000000000
  0
LINE
  5
F105E9
330
F105EA
100
AcDbEntity
8
Geo
100
AcDbLine
10
-54.3379652605459
20
2.12873962399128
30
0.000000000000000
11
-54.2379652605459
21
2.09944651326056
31
0.000000000000000
  0
LINE
  5
F105EB
330
F105EC
100
AcDbEntity
8
Geo
100
AcDbLine
10
-54.2379652605459
20
2.09944651326056
30
0.000000000000000
11
-54.1379652605459
21
2.07071064533295
31
0.000000000000000
  0
LINE
  5
F105ED
330
F105EE
100
AcDbEntity
8
Geo
100
AcDbLine
10
-54.1379652605459
20
2.07071064533295
30
0.000000000000000
11
-54.0379652605459
21
2.04253421971425
31
0.000000000000000
  0
LINE
  5
F105EF
330
F105F0
100
AcDbEntity
8
Geo
100
AcDbLine
10
-54.0379652605459
20
2.04253421971425
30
0.000000000000000
11
-53.9379652605459
21
2.01491939308934
31
0.000000000000000
  0
LINE
  5
F105F1
330
F105F2
100
AcDbEntity
8
Geo
100
AcDbLine
10
-53.9379652605459
20
2.01491939308934
30
0.000000000000000
11
-53.8379652605459
21
1.98786827915709
31
0.000000000000000
  0
LINE
  5
F105F3
330
F105F4
100
AcDbEntity
8
Geo
100
AcDbLine
10
-53.8379652605459
20
1.98786827915709
30
0.000000000000000
11
-53.7379652605459
21
1.96138294846859
31
0.000000000000000
  0
LINE
  5
F105F5
330
F105F6
100
AcDbEntity
8
Geo
100
AcDbLine
10
-53.7379652605459
20
1.96138294846859
30
0.000000000000000
11
-53.6379652605459
21
1.93546542826861
31
0.000000000000000
  0
LINE
  5
F105F7
330
F105F8
100
AcDbEntity
8
Geo
100
AcDbLine
10
-53.6379652605459
20
1.93546542826861
30
0.000000000000000
11
-53.5379652605459
21
1.91011770234052
31
0.000000000000000
  0
LINE
  5
F105F9
330
F105FA
100
AcDbEntity
8
Geo
100
AcDbLine
10
-53.5379652605459
20
1.91011770234052
30
0.000000000000000
11
-53.4379652605459
21
1.88534171085437
31
0.000000000000000
  0
LINE
  5
F105FB
330
F105FC
100
AcDbEntity
8
Geo
100
AcDbLine
10
-53.4379652605459
20
1.88534171085437
30
0.000000000000000
11
-53.3379652605459
21
1.86113935021840
31
0.000000000000000
  0
LINE
  5
F105FD
330
F105FE
100
AcDbEntity
8
Geo
100
AcDbLine
10
-53.3379652605459
20
1.86113935021840
30
0.000000000000000
11
-53.2379652605459
21
1.83751247293394
31
0.000000000000000
  0
LINE
  5
F105FF
330
F10600
100
AcDbEntity
8
Geo
100
AcDbLine
10
-53.2379652605459
20
1.83751247293394
30
0.000000000000000
11
-53.1379652605459
21
1.81446288745352
31
0.000000000000000
  0
LINE
  5
F10601
330
F10602
100
AcDbEntity
8
Geo
100
AcDbLine
10
-53.1379652605459
20
1.81446288745352
30
0.000000000000000
11
-53.0379652605459
21
1.79199235804255
31
0.000000000000000
  0
LINE
  5
F10603
330
F10604
100
AcDbEntity
8
Geo
100
AcDbLine
10
-53.0379652605459
20
1.79199235804255
30
0.000000000000000
11
-52.9379652605459
21
1.77010260464420
31
0.000000000000000
  0
LINE
  5
F10605
330
F10606
100
AcDbEntity
8
Geo
100
AcDbLine
10
-52.9379652605459
20
1.77010260464420
30
0.000000000000000
11
-52.8379652605459
21
1.74879530274779
31
0.000000000000000
  0
LINE
  5
F10607
330
F10608
100
AcDbEntity
8
Geo
100
AcDbLine
10
-52.8379652605459
20
1.74879530274779
30
0.000000000000000
11
-52.7379652605459
21
1.72807208326053
31
0.000000000000000
  0
LINE
  5
F10609
330
F1060A
100
AcDbEntity
8
Geo
100
AcDbLine
10
-52.7379652605459
20
1.72807208326053
30
0.000000000000000
11
-52.6379652605459
21
1.70793453238269
31
0.000000000000000
  0
LINE
  5
F1060B
330
F1060C
100
AcDbEntity
8
Geo
100
AcDbLine
10
-52.6379652605459
20
1.70793453238269
30
0.000000000000000
11
-52.5379652605459
21
1.68838419148622
31
0.000000000000000
  0
LINE
  5
F1060D
330
F1060E
100
AcDbEntity
8
Geo
100
AcDbLine
10
-52.5379652605459
20
1.68838419148622
30
0.000000000000000
11
-52.4379652605459
21
1.66942255699669
31
0.000000000000000
  0
LINE
  5
F1060F
330
F10610
100
AcDbEntity
8
Geo
100
AcDbLine
10
-52.4379652605459
20
1.66942255699669
30
0.000000000000000
11
-52.3379652605459
21
1.65105108027885
31
0.000000000000000
  0
LINE
  5
F10611
330
F10612
100
AcDbEntity
8
Geo
100
AcDbLine
10
-52.3379652605459
20
1.65105108027885
30
0.000000000000000
11
-52.2379652605459
21
1.63327116752547
31
0.000000000000000
  0
LINE
  5
F10613
330
F10614
100
AcDbEntity
8
Geo
100
AcDbLine
10
-52.2379652605459
20
1.63327116752547
30
0.000000000000000
11
-52.1379652605459
21
1.61608417964973
31
0.000000000000000
  0
LINE
  5
F10615
330
F10616
100
AcDbEntity
8
Geo
100
AcDbLine
10
-52.1379652605459
20
1.61608417964973
30
0.000000000000000
11
-52.0379652605459
21
1.59949143218105
31
0.000000000000000
  0
LINE
  5
F10617
330
F10618
100
AcDbEntity
8
Geo
100
AcDbLine
10
-52.0379652605459
20
1.59949143218105
30
0.000000000000000
11
-51.9379652605459
21
1.58349419516438
31
0.000000000000000
  0
LINE
  5
F10619
330
F1061A
100
AcDbEntity
8
Geo
100
AcDbLine
10
-51.9379652605459
20
1.58349419516438
30
0.000000000000000
11
-51.8379652605459
21
1.56809369306305
31
0.000000000000000
  0
LINE
  5
F1061B
330
F1061C
100
AcDbEntity
8
Geo
100
AcDbLine
10
-51.8379652605459
20
1.56809369306305
30
0.000000000000000
11
-51.7379652605459
21
1.55329110466496
31
0.000000000000000
  0
LINE
  5
F1061D
330
F1061E
100
AcDbEntity
8
Geo
100
AcDbLine
10
-51.7379652605459
20
1.55329110466496
30
0.000000000000000
11
-51.6379652605459
21
1.53908756299241
31
0.000000000000000
  0
LINE
  5
F1061F
330
F10620
100
AcDbEntity
8
Geo
100
AcDbLine
10
-51.6379652605459
20
1.53908756299241
30
0.000000000000000
11
-51.5379652605459
21
1.52548415521537
31
0.000000000000000
  0
LINE
  5
F10621
330
F10622
100
AcDbEntity
8
Geo
100
AcDbLine
10
-51.5379652605459
20
1.52548415521537
30
0.000000000000000
11
-51.4379652605459
21
1.51248192256824
31
0.000000000000000
  0
LINE
  5
F10623
330
F10624
100
AcDbEntity
8
Geo
100
AcDbLine
10
-51.4379652605459
20
1.51248192256824
30
0.000000000000000
11
-51.3379652605459
21
1.50008186027018
31
0.000000000000000
  0
LINE
  5
F10625
330
F10626
100
AcDbEntity
8
Geo
100
AcDbLine
10
-51.3379652605459
20
1.50008186027018
30
0.000000000000000
11
-51.2379652605459
21
1.48828491744891
31
0.000000000000000
  0
LINE
  5
F10627
330
F10628
100
AcDbEntity
8
Geo
100
AcDbLine
10
-51.2379652605459
20
1.48828491744891
30
0.000000000000000
11
-51.1379652605459
21
1.47709199706810
31
0.000000000000000
  0
LINE
  5
F10629
330
F1062A
100
AcDbEntity
8
Geo
100
AcDbLine
10
-51.1379652605459
20
1.47709199706810
30
0.000000000000000
11
-51.0379652605459
21
1.46650395585820
31
0.000000000000000
  0
LINE
  5
F1062B
330
F1062C
100
AcDbEntity
8
Geo
100
AcDbLine
10
-51.0379652605459
20
1.46650395585820
30
0.000000000000000
11
-50.9379652605459
21
1.45652160425090
31
0.000000000000000
  0
LINE
  5
F1062D
330
F1062E
100
AcDbEntity
8
Geo
100
AcDbLine
10
-50.9379652605459
20
1.45652160425090
30
0.000000000000000
11
-50.8379652605459
21
1.44714570631711
31
0.000000000000000
  0
LINE
  5
F1062F
330
F10630
100
AcDbEntity
8
Geo
100
AcDbLine
10
-50.8379652605459
20
1.44714570631711
30
0.000000000000000
11
-50.7379652605459
21
1.43837697970844
31
0.000000000000000
  0
LINE
  5
F10631
330
F10632
100
AcDbEntity
8
Geo
100
AcDbLine
10
-50.7379652605459
20
1.43837697970844
30
0.000000000000000
11
-50.6379652605459
21
1.43021609560228
31
0.000000000000000
  0
LINE
  5
F10633
330
F10634
100
AcDbEntity
8
Geo
100
AcDbLine
10
-50.6379652605459
20
1.43021609560228
30
0.000000000000000
11
-50.5379652605459
21
1.42266367865045
31
0.000000000000000
  0
LINE
  5
F10635
330
F10636
100
AcDbEntity
8
Geo
100
AcDbLine
10
-50.5379652605459
20
1.42266367865045
30
0.000000000000000
11
-50.4379652605459
21
1.41572030693137
31
0.000000000000000
  0
LINE
  5
F10637
330
F10638
100
AcDbEntity
8
Geo
100
AcDbLine
10
-50.4379652605459
20
1.41572030693137
30
0.000000000000000
11
-50.3379652605459
21
1.40938651190580
31
0.000000000000000
  0
LINE
  5
F10639
330
F1063A
100
AcDbEntity
8
Geo
100
AcDbLine
10
-50.3379652605459
20
1.40938651190580
30
0.000000000000000
11
-50.2379652605459
21
1.40366277837618
31
0.000000000000000
  0
LINE
  5
F1063B
330
F1063C
100
AcDbEntity
8
Geo
100
AcDbLine
10
-50.2379652605459
20
1.40366277837618
30
0.000000000000000
11
-50.1379652605459
21
1.39854954444952
31
0.000000000000000
  0
LINE
  5
F1063D
330
F1063E
100
AcDbEntity
8
Geo
100
AcDbLine
10
-50.1379652605459
20
1.39854954444952
30
0.000000000000000
11
-50.0379652605459
21
1.39404720150387
31
0.000000000000000
  0
LINE
  5
F1063F
330
F10640
100
AcDbEntity
8
Geo
100
AcDbLine
10
-50.0379652605459
20
1.39404720150387
30
0.000000000000000
11
-49.9379652605459
21
1.39015609415834
31
0.000000000000000
  0
LINE
  5
F10641
330
F10642
100
AcDbEntity
8
Geo
100
AcDbLine
10
-49.9379652605459
20
1.39015609415834
30
0.000000000000000
11
-49.8379652605459
21
1.38687652024675
31
0.000000000000000
  0
LINE
  5
F10643
330
F10644
100
AcDbEntity
8
Geo
100
AcDbLine
10
-49.8379652605459
20
1.38687652024675
30
0.000000000000000
11
-49.7379652605459
21
1.38420873079482
31
0.000000000000000
  0
LINE
  5
F10645
330
F10646
100
AcDbEntity
8
Geo
100
AcDbLine
10
-49.7379652605459
20
1.38420873079482
30
0.000000000000000
11
-49.6379652605459
21
1.38215293000095
31
0.000000000000000
  0
LINE
  5
F10647
330
F10648
100
AcDbEntity
8
Geo
100
AcDbLine
10
-49.6379652605459
20
1.38215293000095
30
0.000000000000000
11
-49.5379652605459
21
1.38070927522060
31
0.000000000000000
  0
LINE
  5
F10649
330
F1064A
100
AcDbEntity
8
Geo
100
AcDbLine
10
-49.5379652605459
20
1.38070927522060
30
0.000000000000000
11
-49.4379652605459
21
1.37987787695425
31
0.000000000000000
  0
LINE
  5
F1064B
330
F1064C
100
AcDbEntity
8
Geo
100
AcDbLine
10
-31.0379652605459
20
17.3796059280746
30
0.000000000000000
11
-30.9379652605459
21
17.3795388497569
31
0.000000000000000
  0
LINE
  5
F1064D
330
F1064E
100
AcDbEntity
8
Geo
100
AcDbLine
10
-30.9379652605459
20
17.3795388497569
30
0.000000000000000
11
-30.8379652605459
21
17.1296266602186
31
0.000000000000000
  0
LINE
  5
F1064F
330
F10650
100
AcDbEntity
8
Geo
100
AcDbLine
10
-30.8379652605459
20
17.1296266602186
30
0.000000000000000
11
-30.7379652605459
21
17.1296526054591
31
0.000000000000000
  0
LINE
  5
F10651
330
F10652
100
AcDbEntity
8
Geo
100
AcDbLine
10
-54.9379652605459
20
17.3779161236824
30
0.000000000000000
11
-54.8379652605459
21
17.3775238630275
31
0.000000000000000
  0
LINE
  5
F10653
330
F10654
100
AcDbEntity
8
Geo
100
AcDbLine
10
-54.9379652605459
20
5.37199216102784
30
0.000000000000000
11
-54.8379652605459
21
5.31158862359159
31
0.000000000000000
  0
LINE
  5
F10655
330
F10656
100
AcDbEntity
8
Geo
100
AcDbLine
10
-54.8379652605459
20
17.3775238630275
30
0.000000000000000
11
-54.7379652605459
21
17.3765194279175
31
0.000000000000000
  0
LINE
  5
F10657
330
F10658
100
AcDbEntity
8
Geo
100
AcDbLine
10
-54.8379652605459
20
5.31158862359159
30
0.000000000000000
11
-54.7379652605459
21
5.25149646461741
31
0.000000000000000
  0
LINE
  5
F10659
330
F1065A
100
AcDbEntity
8
Geo
100
AcDbLine
10
-54.7379652605459
20
17.3765194279175
30
0.000000000000000
11
-54.6379652605459
21
17.3749028952338
31
0.000000000000000
  0
LINE
  5
F1065B
330
F1065C
100
AcDbEntity
8
Geo
100
AcDbLine
10
-54.7379652605459
20
5.25149646461741
30
0.000000000000000
11
-54.6379652605459
21
5.19172028368979
31
0.000000000000000
  0
LINE
  5
F1065D
330
F1065E
100
AcDbEntity
8
Geo
100
AcDbLine
10
-54.6379652605459
20
17.3749028952338
30
0.000000000000000
11
-54.5379652605459
21
17.3726743887095
31
0.000000000000000
  0
LINE
  5
F1065F
330
F10660
100
AcDbEntity
8
Geo
100
AcDbLine
10
-54.6379652605459
20
5.19172028368979
30
0.000000000000000
11
-54.5379652605459
21
5.13226465620759
31
0.000000000000000
  0
LINE
  5
F10661
330
F10662
100
AcDbEntity
8
Geo
100
AcDbLine
10
-54.5379652605459
20
17.3726743887095
30
0.000000000000000
11
-54.4379652605459
21
17.3698340789192
31
0.000000000000000
  0
LINE
  5
F10663
330
F10664
100
AcDbEntity
8
Geo
100
AcDbLine
10
-54.5379652605459
20
5.13226465620759
30
0.000000000000000
11
-54.4379652605459
21
5.07313413303380
31
0.000000000000000
  0
LINE
  5
F10665
330
F10666
100
AcDbEntity
8
Geo
100
AcDbLine
10
-54.4379652605459
20
17.3698340789192
30
0.000000000000000
11
-54.3379652605459
21
17.3663821832666
31
0.000000000000000
  0
LINE
  5
F10667
330
F10668
100
AcDbEntity
8
Geo
100
AcDbLine
10
-54.4379652605459
20
5.07313413303380
30
0.000000000000000
11
-54.3379652605459
21
5.01433324014722
31
0.000000000000000
  0
LINE
  5
F10669
330
F1066A
100
AcDbEntity
8
Geo
100
AcDbLine
10
-54.3379652605459
20
17.3663821832666
30
0.000000000000000
11
-54.2379652605459
21
17.3623189659671
31
0.000000000000000
  0
LINE
  5
F1066B
330
F1066C
100
AcDbEntity
8
Geo
100
AcDbLine
10
-54.3379652605459
20
5.01433324014722
30
0.000000000000000
11
-54.2379652605459
21
4.95586647829606
31
0.000000000000000
  0
LINE
  5
F1066D
330
F1066E
100
AcDbEntity
8
Geo
100
AcDbLine
10
-54.2379652605459
20
17.3623189659671
30
0.000000000000000
11
-54.1379652605459
21
17.3576447380282
31
0.000000000000000
  0
LINE
  5
F1066F
330
F10670
100
AcDbEntity
8
Geo
100
AcDbLine
10
-54.2379652605459
20
4.95586647829606
30
0.000000000000000
11
-54.1379652605459
21
4.89773832265338
31
0.000000000000000
  0
LINE
  5
F10671
330
F10672
100
AcDbEntity
8
Geo
100
AcDbLine
10
-54.1379652605459
20
17.3576447380282
30
0.000000000000000
11
-54.0379652605459
21
17.3523598572256
31
0.000000000000000
  0
LINE
  5
F10673
330
F10674
100
AcDbEntity
8
Geo
100
AcDbLine
10
-54.1379652605459
20
4.89773832265338
30
0.000000000000000
11
-54.0379652605459
21
4.83995322247460
31
0.000000000000000
  0
LINE
  5
F10675
330
F10676
100
AcDbEntity
8
Geo
100
AcDbLine
10
-54.0379652605459
20
17.3523598572256
30
0.000000000000000
11
-53.9379652605459
21
17.3464647280755
31
0.000000000000000
  0
LINE
  5
F10677
330
F10678
100
AcDbEntity
8
Geo
100
AcDbLine
10
-54.0379652605459
20
4.83995322247460
30
0.000000000000000
11
-53.9379652605459
21
4.78251560075691
31
0.000000000000000
  0
LINE
  5
F10679
330
F1067A
100
AcDbEntity
8
Geo
100
AcDbLine
10
-53.9379652605459
20
17.3464647280755
30
0.000000000000000
11
-53.8379652605459
21
17.3399598018038
31
0.000000000000000
  0
LINE
  5
F1067B
330
F1067C
100
AcDbEntity
8
Geo
100
AcDbLine
10
-53.9379652605459
20
4.78251560075691
30
0.000000000000000
11
-53.8379652605459
21
4.72542985390078
31
0.000000000000000
  0
LINE
  5
F1067D
330
F1067E
100
AcDbEntity
8
Geo
100
AcDbLine
10
-53.8379652605459
20
17.3399598018038
30
0.000000000000000
11
-53.7379652605459
21
17.3328455763119
31
0.000000000000000
  0
LINE
  5
F1067F
330
F10680
100
AcDbEntity
8
Geo
100
AcDbLine
10
-53.8379652605459
20
4.72542985390078
30
0.000000000000000
11
-53.7379652605459
21
4.66870035137338
31
0.000000000000000
  0
LINE
  5
F10681
330
F10682
100
AcDbEntity
8
Geo
100
AcDbLine
10
-53.7379652605459
20
17.3328455763119
30
0.000000000000000
11
-53.6379652605459
21
17.3251225961379
31
0.000000000000000
  0
LINE
  5
F10683
330
F10684
100
AcDbEntity
8
Geo
100
AcDbLine
10
-53.7379652605459
20
4.66870035137338
30
0.000000000000000
11
-53.6379652605459
21
4.61233143537418
31
0.000000000000000
  0
LINE
  5
F10685
330
F10686
100
AcDbEntity
8
Geo
100
AcDbLine
10
-53.6379652605459
20
17.3251225961379
30
0.000000000000000
11
-53.5379652605459
21
17.3167914524156
31
0.000000000000000
  0
LINE
  5
F10687
330
F10688
100
AcDbEntity
8
Geo
100
AcDbLine
10
-53.6379652605459
20
4.61233143537418
30
0.000000000000000
11
-53.5379652605459
21
4.55632742050256
31
0.000000000000000
  0
LINE
  5
F10689
330
F1068A
100
AcDbEntity
8
Geo
100
AcDbLine
10
-53.5379652605459
20
17.3167914524156
30
0.000000000000000
11
-53.4379652605459
21
17.3078527828288
31
0.000000000000000
  0
LINE
  5
F1068B
330
F1068C
100
AcDbEntity
8
Geo
100
AcDbLine
10
-53.5379652605459
20
4.55632742050256
30
0.000000000000000
11
-53.4379652605459
21
4.50069259342760
31
0.000000000000000
  0
LINE
  5
F1068D
330
F1068E
100
AcDbEntity
8
Geo
100
AcDbLine
10
-53.4379652605459
20
17.3078527828288
30
0.000000000000000
11
-53.3379652605459
21
17.2983072715628
31
0.000000000000000
  0
LINE
  5
F1068F
330
F10690
100
AcDbEntity
8
Geo
100
AcDbLine
10
-53.4379652605459
20
4.50069259342760
30
0.000000000000000
11
-53.3379652605459
21
4.44543121255992
31
0.000000000000000
  0
LINE
  5
F10691
330
F10692
100
AcDbEntity
8
Geo
100
AcDbLine
10
-53.3379652605459
20
17.2983072715628
30
0.000000000000000
11
-53.2379652605459
21
17.2881556492516
31
0.000000000000000
  0
LINE
  5
F10693
330
F10694
100
AcDbEntity
8
Geo
100
AcDbLine
10
-53.3379652605459
20
4.44543121255992
30
0.000000000000000
11
-53.2379652605459
21
4.39054750772576
31
0.000000000000000
  0
LINE
  5
F10695
330
F10696
100
AcDbEntity
8
Geo
100
AcDbLine
10
-53.2379652605459
20
17.2881556492516
30
0.000000000000000
11
-53.1379652605459
21
17.2773986929227
31
0.000000000000000
  0
LINE
  5
F10697
330
F10698
100
AcDbEntity
8
Geo
100
AcDbLine
10
-53.2379652605459
20
4.39054750772576
30
0.000000000000000
11
-53.1379652605459
21
4.33604567984321
31
0.000000000000000
  0
LINE
  5
F10699
330
F1069A
100
AcDbEntity
8
Geo
100
AcDbLine
10
-53.1379652605459
20
17.2773986929227
30
0.000000000000000
11
-53.0379652605459
21
17.2660372259367
31
0.000000000000000
  0
LINE
  5
F1069B
330
F1069C
100
AcDbEntity
8
Geo
100
AcDbLine
10
-53.1379652605459
20
4.33604567984321
30
0.000000000000000
11
-53.0379652605459
21
4.28192990060069
31
0.000000000000000
  0
LINE
  5
F1069D
330
F1069E
100
AcDbEntity
8
Geo
100
AcDbLine
10
-53.0379652605459
20
17.2660372259367
30
0.000000000000000
11
-52.9379652605459
21
17.2540721179251
31
0.000000000000000
  0
LINE
  5
F1069F
330
F106A0
100
AcDbEntity
8
Geo
100
AcDbLine
10
-53.0379652605459
20
4.28192990060069
30
0.000000000000000
11
-52.9379652605459
21
4.22820431213760
31
0.000000000000000
  0
LINE
  5
F106A1
330
F106A2
100
AcDbEntity
8
Geo
100
AcDbLine
10
-52.9379652605459
20
17.2540721179251
30
0.000000000000000
11
-52.8379652605459
21
17.2415042847232
31
0.000000000000000
  0
LINE
  5
F106A3
330
F106A4
100
AcDbEntity
8
Geo
100
AcDbLine
10
-52.9379652605459
20
4.22820431213760
30
0.000000000000000
11
-52.8379652605459
21
4.17487302672729
31
0.000000000000000
  0
LINE
  5
F106A5
330
F106A6
100
AcDbEntity
8
Geo
100
AcDbLine
10
-52.8379652605459
20
17.2415042847232
30
0.000000000000000
11
-52.7379652605459
21
17.2283346883004
31
0.000000000000000
  0
LINE
  5
F106A7
330
F106A8
100
AcDbEntity
8
Geo
100
AcDbLine
10
-52.8379652605459
20
4.17487302672729
30
0.000000000000000
11
-52.7379652605459
21
4.12194012646229
31
0.000000000000000
  0
LINE
  5
F106A9
330
F106AA
100
AcDbEntity
8
Geo
100
AcDbLine
10
-52.7379652605459
20
17.2283346883004
30
0.000000000000000
11
-52.6379652605459
21
17.2145643366862
31
0.000000000000000
  0
LINE
  5
F106AB
330
F106AC
100
AcDbEntity
8
Geo
100
AcDbLine
10
-52.7379652605459
20
4.12194012646229
30
0.000000000000000
11
-52.6379652605459
21
4.06940966294189
31
0.000000000000000
  0
LINE
  5
F106AD
330
F106AE
100
AcDbEntity
8
Geo
100
AcDbLine
10
-52.6379652605459
20
17.2145643366862
30
0.000000000000000
11
-52.5379652605459
21
17.2001942838932
31
0.000000000000000
  0
LINE
  5
F106AF
330
F106B0
100
AcDbEntity
8
Geo
100
AcDbLine
10
-52.6379652605459
20
4.06940966294189
30
0.000000000000000
11
-52.5379652605459
21
4.01728565696197
31
0.000000000000000
  0
LINE
  5
F106B1
330
F106B2
100
AcDbEntity
8
Geo
100
AcDbLine
10
-52.5379652605459
20
17.2001942838932
30
0.000000000000000
11
-52.4379652605459
21
17.1852256298365
31
0.000000000000000
  0
LINE
  5
F106B3
330
F106B4
100
AcDbEntity
8
Geo
100
AcDbLine
10
-52.5379652605459
20
4.01728565696197
30
0.000000000000000
11
-52.4379652605459
21
3.96557209820728
31
0.000000000000000
  0
LINE
  5
F106B5
330
F106B6
100
AcDbEntity
8
Geo
100
AcDbLine
10
-52.4379652605459
20
17.1852256298365
30
0.000000000000000
11
-52.3379652605459
21
17.1696595202494
31
0.000000000000000
  0
LINE
  5
F106B7
330
F106B8
100
AcDbEntity
8
Geo
100
AcDbLine
10
-52.4379652605459
20
3.96557209820728
30
0.000000000000000
11
-52.3379652605459
21
3.91427294494605
31
0.000000000000000
  0
LINE
  5
F106B9
330
F106BA
100
AcDbEntity
8
Geo
100
AcDbLine
10
-52.3379652605459
20
17.1696595202494
30
0.000000000000000
11
-52.2379652605459
21
17.1534971465959
31
0.000000000000000
  0
LINE
  5
F106BB
330
F106BC
100
AcDbEntity
8
Geo
100
AcDbLine
10
-52.3379652605459
20
3.91427294494605
30
0.000000000000000
11
-52.2379652605459
21
3.86339212372700
31
0.000000000000000
  0
LINE
  5
F106BD
330
F106BE
100
AcDbEntity
8
Geo
100
AcDbLine
10
-52.2379652605459
20
17.1534971465959
30
0.000000000000000
11
-52.1379652605459
21
17.1367397459791
31
0.000000000000000
  0
LINE
  5
F106BF
330
F106C0
100
AcDbEntity
8
Geo
100
AcDbLine
10
-52.2379652605459
20
3.86339212372700
30
0.000000000000000
11
-52.1379652605459
21
3.81293352907882
31
0.000000000000000
  0
LINE
  5
F106C1
330
F106C2
100
AcDbEntity
8
Geo
100
AcDbLine
10
-52.1379652605459
20
17.1367397459791
30
0.000000000000000
11
-52.0379652605459
21
17.1193886010469
31
0.000000000000000
  0
LINE
  5
F106C3
330
F106C4
100
AcDbEntity
8
Geo
100
AcDbLine
10
-52.1379652605459
20
3.81293352907882
30
0.000000000000000
11
-52.0379652605459
21
3.76290102321204
31
0.000000000000000
  0
LINE
  5
F106C5
330
F106C6
100
AcDbEntity
8
Geo
100
AcDbLine
10
-52.0379652605459
20
17.1193886010469
30
0.000000000000000
11
-51.9379652605459
21
17.1014450398936
31
0.000000000000000
  0
LINE
  5
F106C7
330
F106C8
100
AcDbEntity
8
Geo
100
AcDbLine
10
-52.0379652605459
20
3.76290102321204
30
0.000000000000000
11
-51.9379652605459
21
3.71329843572345
31
0.000000000000000
  0
LINE
  5
F106C9
330
F106CA
100
AcDbEntity
8
Geo
100
AcDbLine
10
-51.9379652605459
20
17.1014450398936
30
0.000000000000000
11
-51.8379652605459
21
17.0829104359586
31
0.000000000000000
  0
LINE
  5
F106CB
330
F106CC
100
AcDbEntity
8
Geo
100
AcDbLine
10
-51.9379652605459
20
3.71329843572345
30
0.000000000000000
11
-51.8379652605459
21
3.66412956330294
31
0.000000000000000
  0
LINE
  5
F106CD
330
F106CE
100
AcDbEntity
8
Geo
100
AcDbLine
10
-51.8379652605459
20
17.0829104359586
30
0.000000000000000
11
-51.7379652605459
21
17.0637862079205
31
0.000000000000000
  0
LINE
  5
F106CF
330
F106D0
100
AcDbEntity
8
Geo
100
AcDbLine
10
-51.8379652605459
20
3.66412956330294
30
0.000000000000000
11
-51.7379652605459
21
3.61539816944291
31
0.000000000000000
  0
LINE
  5
F106D1
330
F106D2
100
AcDbEntity
8
Geo
100
AcDbLine
10
-51.7379652605459
20
17.0637862079205
30
0.000000000000000
11
-51.6379652605459
21
17.0440738195895
31
0.000000000000000
  0
LINE
  5
F106D3
330
F106D4
100
AcDbEntity
8
Geo
100
AcDbLine
10
-51.7379652605459
20
3.61539816944291
30
0.000000000000000
11
-51.6379652605459
21
3.56710798415020
31
0.000000000000000
  0
LINE
  5
F106D5
330
F106D6
100
AcDbEntity
8
Geo
100
AcDbLine
10
-51.6379652605459
20
17.0440738195895
30
0.000000000000000
11
-51.5379652605459
21
17.0237747797946
31
0.000000000000000
  0
LINE
  5
F106D7
330
F106D8
100
AcDbEntity
8
Geo
100
AcDbLine
10
-51.6379652605459
20
3.56710798415020
30
0.000000000000000
11
-51.5379652605459
21
3.51926270366059
31
0.000000000000000
  0
LINE
  5
F106D9
330
F106DA
100
AcDbEntity
8
Geo
100
AcDbLine
10
-51.5379652605459
20
17.0237747797946
30
0.000000000000000
11
-51.4379652605459
21
17.0028906422684
31
0.000000000000000
  0
LINE
  5
F106DB
330
F106DC
100
AcDbEntity
8
Geo
100
AcDbLine
10
-51.5379652605459
20
3.51926270366059
30
0.000000000000000
11
-51.4379652605459
21
3.47186599015587
31
0.000000000000000
  0
LINE
  5
F106DD
330
F106DE
100
AcDbEntity
8
Geo
100
AcDbLine
10
-51.4379652605459
20
17.0028906422684
30
0.000000000000000
11
-51.3379652605459
21
16.9814230055283
31
0.000000000000000
  0
LINE
  5
F106DF
330
F106E0
100
AcDbEntity
8
Geo
100
AcDbLine
10
-51.4379652605459
20
3.47186599015587
30
0.000000000000000
11
-51.3379652605459
21
3.42492147148354
31
0.000000000000000
  0
LINE
  5
F106E1
330
F106E2
100
AcDbEntity
8
Geo
100
AcDbLine
10
-51.3379652605459
20
16.9814230055283
30
0.000000000000000
11
-51.2379652605459
21
16.9593735127537
31
0.000000000000000
  0
LINE
  5
F106E3
330
F106E4
100
AcDbEntity
8
Geo
100
AcDbLine
10
-51.3379652605459
20
3.42492147148354
30
0.000000000000000
11
-51.2379652605459
21
3.37843274087913
31
0.000000000000000
  0
LINE
  5
F106E5
330
F106E6
100
AcDbEntity
8
Geo
100
AcDbLine
10
-51.2379652605459
20
16.9593735127537
30
0.000000000000000
11
-51.1379652605459
21
16.9367438516609
31
0.000000000000000
  0
LINE
  5
F106E7
330
F106E8
100
AcDbEntity
8
Geo
100
AcDbLine
10
-51.2379652605459
20
3.37843274087913
30
0.000000000000000
11
-51.1379652605459
21
3.33240335669116
31
0.000000000000000
  0
LINE
  5
F106E9
330
F106EA
100
AcDbEntity
8
Geo
100
AcDbLine
10
-51.1379652605459
20
16.9367438516609
30
0.000000000000000
11
-51.0379652605459
21
16.9135357543733
31
0.000000000000000
  0
LINE
  5
F106EB
330
F106EC
100
AcDbEntity
8
Geo
100
AcDbLine
10
-51.1379652605459
20
3.33240335669116
30
0.000000000000000
11
-51.0379652605459
21
3.28683684210877
31
0.000000000000000
  0
LINE
  5
F106ED
330
F106EE
100
AcDbEntity
8
Geo
100
AcDbLine
10
-51.0379652605459
20
16.9135357543733
30
0.000000000000000
11
-50.9379652605459
21
16.8897509972891
31
0.000000000000000
  0
LINE
  5
F106EF
330
F106F0
100
AcDbEntity
8
Geo
100
AcDbLine
10
-51.0379652605459
20
3.28683684210877
30
0.000000000000000
11
-50.9379652605459
21
3.24173668489207
31
0.000000000000000
  0
LINE
  5
F106F1
330
F106F2
100
AcDbEntity
8
Geo
100
AcDbLine
10
-50.9379652605459
20
16.8897509972891
30
0.000000000000000
11
-50.8379652605459
21
16.8653914009454
31
0.000000000000000
  0
LINE
  5
F106F3
330
F106F4
100
AcDbEntity
8
Geo
100
AcDbLine
10
-50.9379652605459
20
3.24173668489207
30
0.000000000000000
11
-50.8379652605459
21
3.19710633710513
31
0.000000000000000
  0
LINE
  5
F106F5
330
F106F6
100
AcDbEntity
8
Geo
100
AcDbLine
10
-50.8379652605459
20
16.8653914009454
30
0.000000000000000
11
-50.7379652605459
21
16.8404588298786
31
0.000000000000000
  0
LINE
  5
F106F7
330
F106F8
100
AcDbEntity
8
Geo
100
AcDbLine
10
-50.8379652605459
20
3.19710633710513
30
0.000000000000000
11
-50.7379652605459
21
3.15294921485182
31
0.000000000000000
  0
LINE
  5
F106F9
330
F106FA
100
AcDbEntity
8
Geo
100
AcDbLine
10
-50.7379652605459
20
16.8404588298786
30
0.000000000000000
11
-50.6379652605459
21
16.8149551924819
31
0.000000000000000
  0
LINE
  5
F106FB
330
F106FC
100
AcDbEntity
8
Geo
100
AcDbLine
10
-50.7379652605459
20
3.15294921485182
30
0.000000000000000
11
-50.6379652605459
21
3.10926869801429
31
0.000000000000000
  0
LINE
  5
F106FD
330
F106FE
100
AcDbEntity
8
Geo
100
AcDbLine
10
-50.6379652605459
20
16.8149551924819
30
0.000000000000000
11
-50.5379652605459
21
16.7888824408591
31
0.000000000000000
  0
LINE
  5
F106FF
330
F10700
100
AcDbEntity
8
Geo
100
AcDbLine
10
-50.6379652605459
20
3.10926869801429
30
0.000000000000000
11
-50.5379652605459
21
3.06606812999425
31
0.000000000000000
  0
LINE
  5
F10701
330
F10702
100
AcDbEntity
8
Geo
100
AcDbLine
10
-50.5379652605459
20
16.7888824408591
30
0.000000000000000
11
-50.4379652605459
21
16.7622425706754
31
0.000000000000000
  0
LINE
  5
F10703
330
F10704
100
AcDbEntity
8
Geo
100
AcDbLine
10
-50.5379652605459
20
3.06606812999425
30
0.000000000000000
11
-50.4379652605459
21
3.02335081745713
31
0.000000000000000
  0
LINE
  5
F10705
330
F10706
100
AcDbEntity
8
Geo
100
AcDbLine
10
-50.4379652605459
20
16.7622425706754
30
0.000000000000000
11
-50.3379652605459
21
16.7350376210044
31
0.000000000000000
  0
LINE
  5
F10707
330
F10708
100
AcDbEntity
8
Geo
100
AcDbLine
10
-50.4379652605459
20
3.02335081745713
30
0.000000000000000
11
-50.3379652605459
21
2.98112003007888
31
0.000000000000000
  0
LINE
  5
F10709
330
F1070A
100
AcDbEntity
8
Geo
100
AcDbLine
10
-50.3379652605459
20
16.7350376210044
30
0.000000000000000
11
-50.2379652605459
21
16.7072696741720
31
0.000000000000000
  0
LINE
  5
F1070B
330
F1070C
100
AcDbEntity
8
Geo
100
AcDbLine
10
-50.3379652605459
20
2.98112003007888
30
0.000000000000000
11
-50.2379652605459
21
2.93937900029581
31
0.000000000000000
  0
LINE
  5
F1070D
330
F1070E
100
AcDbEntity
8
Geo
100
AcDbLine
10
-50.2379652605459
20
16.7072696741720
30
0.000000000000000
11
-50.1379652605459
21
16.6789408555973
31
0.000000000000000
  0
LINE
  5
F1070F
330
F10710
100
AcDbEntity
8
Geo
100
AcDbLine
10
-50.2379652605459
20
2.93937900029581
30
0.000000000000000
11
-50.1379652605459
21
2.89813092305709
31
0.000000000000000
  0
LINE
  5
F10711
330
F10712
100
AcDbEntity
8
Geo
100
AcDbLine
10
-50.1379652605459
20
16.6789408555973
30
0.000000000000000
11
-50.0379652605459
21
16.6500533336296
31
0.000000000000000
  0
LINE
  5
F10713
330
F10714
100
AcDbEntity
8
Geo
100
AcDbLine
10
-50.1379652605459
20
2.89813092305709
30
0.000000000000000
11
-50.0379652605459
21
2.85737895558022
31
0.000000000000000
  0
LINE
  5
F10715
330
F10716
100
AcDbEntity
8
Geo
100
AcDbLine
10
-50.0379652605459
20
16.6500533336296
30
0.000000000000000
11
-49.9379652605459
21
16.6206093193827
31
0.000000000000000
  0
LINE
  5
F10717
330
F10718
100
AcDbEntity
8
Geo
100
AcDbLine
10
-50.0379652605459
20
2.85737895558022
30
0.000000000000000
11
-49.9379652605459
21
2.81712621710940
31
0.000000000000000
  0
LINE
  5
F10719
330
F1071A
100
AcDbEntity
8
Geo
100
AcDbLine
10
-49.9379652605459
20
16.6206093193827
30
0.000000000000000
11
-49.8379652605459
21
16.5906110665655
31
0.000000000000000
  0
LINE
  5
F1071B
330
F1071C
100
AcDbEntity
8
Geo
100
AcDbLine
10
-49.9379652605459
20
2.81712621710940
30
0.000000000000000
11
-49.8379652605459
21
2.77737578867676
31
0.000000000000000
  0
LINE
  5
F1071D
330
F1071E
100
AcDbEntity
8
Geo
100
AcDbLine
10
-49.8379652605459
20
16.5906110665655
30
0.000000000000000
11
-49.7379652605459
21
16.5600608713094
31
0.000000000000000
  0
LINE
  5
F1071F
330
F10720
100
AcDbEntity
8
Geo
100
AcDbLine
10
-49.8379652605459
20
2.77737578867676
30
0.000000000000000
11
-49.7379652605459
21
2.73813071286651
31
0.000000000000000
  0
LINE
  5
F10721
330
F10722
100
AcDbEntity
8
Geo
100
AcDbLine
10
-49.7379652605459
20
16.5600608713094
30
0.000000000000000
11
-49.6379652605459
21
16.5289610719927
31
0.000000000000000
  0
LINE
  5
F10723
330
F10724
100
AcDbEntity
8
Geo
100
AcDbLine
10
-49.7379652605459
20
2.73813071286651
30
0.000000000000000
11
-49.6379652605459
21
2.69939399358209
31
0.000000000000000
  0
LINE
  5
F10725
330
F10726
100
AcDbEntity
8
Geo
100
AcDbLine
10
-49.6379652605459
20
16.5289610719927
30
0.000000000000000
11
-49.5379652605459
21
16.4973140490619
31
0.000000000000000
  0
LINE
  5
F10727
330
F10728
100
AcDbEntity
8
Geo
100
AcDbLine
10
-49.6379652605459
20
2.69939399358209
30
0.000000000000000
11
-49.5379652605459
21
2.66116859581620
31
0.000000000000000
  0
LINE
  5
F10729
330
F1072A
100
AcDbEntity
8
Geo
100
AcDbLine
10
-49.5379652605459
20
16.4973140490619
30
0.000000000000000
11
-49.4379652605459
21
16.4651222248488
31
0.000000000000000
  0
LINE
  5
F1072B
330
F1072C
100
AcDbEntity
8
Geo
100
AcDbLine
10
-49.5379652605459
20
2.66116859581620
30
0.000000000000000
11
-49.4379652605459
21
2.62345744542391
31
0.000000000000000
  0
LINE
  5
F1072D
330
F1072E
100
AcDbEntity
8
Geo
100
AcDbLine
10
-49.4379652605459
20
16.4651222248488
30
0.000000000000000
11
-49.3379652605459
21
16.4323880633856
31
0.000000000000000
  0
LINE
  5
F1072F
330
F10730
100
AcDbEntity
8
Geo
100
AcDbLine
10
-49.4379652605459
20
2.62345744542391
30
0.000000000000000
11
-49.3379652605459
21
2.58626342889866
31
0.000000000000000
  0
LINE
  5
F10731
330
F10732
100
AcDbEntity
8
Geo
100
AcDbLine
10
-49.3379652605459
20
16.4323880633856
30
0.000000000000000
11
-49.2379652605459
21
16.3991140702162
31
0.000000000000000
  0
LINE
  5
F10733
330
F10734
100
AcDbEntity
8
Geo
100
AcDbLine
10
-49.3379652605459
20
2.58626342889866
30
0.000000000000000
11
-49.2379652605459
21
2.54958939315134
31
0.000000000000000
  0
LINE
  5
F10735
330
F10736
100
AcDbEntity
8
Geo
100
AcDbLine
10
-49.2379652605459
20
16.3991140702162
30
0.000000000000000
11
-49.1379652605459
21
16.3653027922044
31
0.000000000000000
  0
LINE
  5
F10737
330
F10738
100
AcDbEntity
8
Geo
100
AcDbLine
10
-49.2379652605459
20
2.54958939315134
30
0.000000000000000
11
-49.1379652605459
21
2.51343814529238
31
0.000000000000000
  0
LINE
  5
F10739
330
F1073A
100
AcDbEntity
8
Geo
100
AcDbLine
10
-49.1379652605459
20
16.3653027922044
30
0.000000000000000
11
-49.0379652605459
21
16.3309568173389
31
0.000000000000000
  0
LINE
  5
F1073B
330
F1073C
100
AcDbEntity
8
Geo
100
AcDbLine
10
-49.1379652605459
20
2.51343814529238
30
0.000000000000000
11
-49.0379652605459
21
2.47781245241690
31
0.000000000000000
  0
LINE
  5
F1073D
330
F1073E
100
AcDbEntity
8
Geo
100
AcDbLine
10
-49.0379652605459
20
16.3309568173389
30
0.000000000000000
11
-48.9379652605459
21
16.2960787745354
31
0.000000000000000
  0
LINE
  5
F1073F
330
F10740
100
AcDbEntity
8
Geo
100
AcDbLine
10
-49.0379652605459
20
2.47781245241690
30
0.000000000000000
11
-48.9379652605459
21
2.44271504139290
31
0.000000000000000
  0
LINE
  5
F10741
330
F10742
100
AcDbEntity
8
Geo
100
AcDbLine
10
-48.9379652605459
20
16.2960787745354
30
0.000000000000000
11
-48.8379652605459
21
16.2606713334350
31
0.000000000000000
  0
LINE
  5
F10743
330
F10744
100
AcDbEntity
8
Geo
100
AcDbLine
10
-48.9379652605459
20
2.44271504139290
30
0.000000000000000
11
-48.8379652605459
21
2.40814859865251
31
0.000000000000000
  0
LINE
  5
F10745
330
F10746
100
AcDbEntity
8
Geo
100
AcDbLine
10
-48.8379652605459
20
16.2606713334350
30
0.000000000000000
11
-48.7379652605459
21
16.2247372042003
31
0.000000000000000
  0
LINE
  5
F10747
330
F10748
100
AcDbEntity
8
Geo
100
AcDbLine
10
-48.8379652605459
20
2.40814859865251
30
0.000000000000000
11
-48.7379652605459
21
2.37411576998641
31
0.000000000000000
  0
LINE
  5
F10749
330
F1074A
100
AcDbEntity
8
Geo
100
AcDbLine
10
-48.7379652605459
20
16.2247372042003
30
0.000000000000000
11
-48.6379652605459
21
16.1882791373076
31
0.000000000000000
  0
LINE
  5
F1074B
330
F1074C
100
AcDbEntity
8
Geo
100
AcDbLine
10
-48.7379652605459
20
2.37411576998641
30
0.000000000000000
11
-48.6379652605459
21
2.34061916034132
31
0.000000000000000
  0
LINE
  5
F1074D
330
F1074E
100
AcDbEntity
8
Geo
100
AcDbLine
10
-48.6379652605459
20
16.1882791373076
30
0.000000000000000
11
-48.5379652605459
21
16.1512999233367
31
0.000000000000000
  0
LINE
  5
F1074F
330
F10750
100
AcDbEntity
8
Geo
100
AcDbLine
10
-48.6379652605459
20
2.34061916034132
30
0.000000000000000
11
-48.5379652605459
21
2.30766133362057
31
0.000000000000000
  0
LINE
  5
F10751
330
F10752
100
AcDbEntity
8
Geo
100
AcDbLine
10
-48.5379652605459
20
16.1512999233367
30
0.000000000000000
11
-48.4379652605459
21
16.1138023927570
31
0.000000000000000
  0
LINE
  5
F10753
330
F10754
100
AcDbEntity
8
Geo
100
AcDbLine
10
-48.5379652605459
20
2.30766133362057
30
0.000000000000000
11
-48.4379652605459
21
2.27524481248786
31
0.000000000000000
  0
LINE
  5
F10755
330
F10756
100
AcDbEntity
8
Geo
100
AcDbLine
10
-48.4379652605459
20
16.1138023927570
30
0.000000000000000
11
-48.3379652605459
21
16.0757894157111
31
0.000000000000000
  0
LINE
  5
F10757
330
F10758
100
AcDbEntity
8
Geo
100
AcDbLine
10
-48.4379652605459
20
2.27524481248786
30
0.000000000000000
11
-48.3379652605459
21
2.24337207817421
31
0.000000000000000
  0
LINE
  5
F10759
330
F1075A
100
AcDbEntity
8
Geo
100
AcDbLine
10
-48.3379652605459
20
16.0757894157111
30
0.000000000000000
11
-48.2379652605459
21
16.0372639017947
31
0.000000000000000
  0
LINE
  5
F1075B
330
F1075C
100
AcDbEntity
8
Geo
100
AcDbLine
10
-48.3379652605459
20
2.24337207817421
30
0.000000000000000
11
-48.2379652605459
21
2.21204557028800
31
0.000000000000000
  0
LINE
  5
F1075D
330
F1075E
100
AcDbEntity
8
Geo
100
AcDbLine
10
-48.2379652605459
20
16.0372639017947
30
0.000000000000000
11
-48.1379652605459
21
15.9982287998346
31
0.000000000000000
  0
LINE
  5
F1075F
330
F10760
100
AcDbEntity
8
Geo
100
AcDbLine
10
-48.2379652605459
20
2.21204557028800
30
0.000000000000000
11
-48.1379652605459
21
2.18126768662825
31
0.000000000000000
  0
LINE
  5
F10761
330
F10762
100
AcDbEntity
8
Geo
100
AcDbLine
10
-48.1379652605459
20
15.9982287998346
30
0.000000000000000
11
-48.0379652605459
21
15.9586870976623
31
0.000000000000000
  0
LINE
  5
F10763
330
F10764
100
AcDbEntity
8
Geo
100
AcDbLine
10
-48.1379652605459
20
2.18126768662825
30
0.000000000000000
11
-48.0379652605459
21
2.15104078300109
31
0.000000000000000
  0
LINE
  5
F10765
330
F10766
100
AcDbEntity
8
Geo
100
AcDbLine
10
-48.0379652605459
20
15.9586870976623
30
0.000000000000000
11
-47.9379652605459
21
15.9186418218857
31
0.000000000000000
  0
LINE
  5
F10767
330
F10768
100
AcDbEntity
8
Geo
100
AcDbLine
10
-48.0379652605459
20
2.15104078300109
30
0.000000000000000
11
-47.9379652605459
21
2.12136717303946
31
0.000000000000000
  0
LINE
  5
F10769
330
F1076A
100
AcDbEntity
8
Geo
100
AcDbLine
10
-47.9379652605459
20
15.9186418218857
30
0.000000000000000
11
-47.8379652605459
21
15.8780960376572
31
0.000000000000000
  0
LINE
  5
F1076B
330
F1076C
100
AcDbEntity
8
Geo
100
AcDbLine
10
-47.9379652605459
20
2.12136717303946
30
0.000000000000000
11
-47.8379652605459
21
2.09224912802597
31
0.000000000000000
  0
LINE
  5
F1076D
330
F1076E
100
AcDbEntity
8
Geo
100
AcDbLine
10
-47.8379652605459
20
15.8780960376572
30
0.000000000000000
11
-47.7379652605459
21
15.8370528484393
31
0.000000000000000
  0
LINE
  5
F1076F
330
F10770
100
AcDbEntity
8
Geo
100
AcDbLine
10
-47.8379652605459
20
2.09224912802597
30
0.000000000000000
11
-47.7379652605459
21
2.06368887671911
31
0.000000000000000
  0
LINE
  5
F10771
330
F10772
100
AcDbEntity
8
Geo
100
AcDbLine
10
-47.7379652605459
20
15.8370528484393
30
0.000000000000000
11
-47.6379652605459
21
15.7955153957670
31
0.000000000000000
  0
LINE
  5
F10773
330
F10774
100
AcDbEntity
8
Geo
100
AcDbLine
10
-47.7379652605459
20
2.06368887671911
30
0.000000000000000
11
-47.6379652605459
21
2.03568860518259
31
0.000000000000000
  0
LINE
  5
F10775
330
F10776
100
AcDbEntity
8
Geo
100
AcDbLine
10
-47.6379652605459
20
15.7955153957670
30
0.000000000000000
11
-47.5379652605459
21
15.7534868590072
31
0.000000000000000
  0
LINE
  5
F10777
330
F10778
100
AcDbEntity
8
Geo
100
AcDbLine
10
-47.6379652605459
20
2.03568860518259
30
0.000000000000000
11
-47.5379652605459
21
2.00825045661808
31
0.000000000000000
  0
LINE
  5
F10779
330
F1077A
100
AcDbEntity
8
Geo
100
AcDbLine
10
-47.5379652605459
20
15.7534868590072
30
0.000000000000000
11
-47.4379652605459
21
15.7109704551155
31
0.000000000000000
  0
LINE
  5
F1077B
330
F1077C
100
AcDbEntity
8
Geo
100
AcDbLine
10
-47.5379652605459
20
2.00825045661808
30
0.000000000000000
11
-47.4379652605459
21
1.98137653120114
31
0.000000000000000
  0
LINE
  5
F1077D
330
F1077E
100
AcDbEntity
8
Geo
100
AcDbLine
10
-47.4379652605459
20
15.7109704551155
30
0.000000000000000
11
-47.3379652605459
21
15.6679694383898
31
0.000000000000000
  0
LINE
  5
F1077F
330
F10780
100
AcDbEntity
8
Geo
100
AcDbLine
10
-47.4379652605459
20
1.98137653120114
30
0.000000000000000
11
-47.3379652605459
21
1.95506888592043
31
0.000000000000000
  0
LINE
  5
F10781
330
F10782
100
AcDbEntity
8
Geo
100
AcDbLine
10
-47.3379652605459
20
15.6679694383898
30
0.000000000000000
11
-47.2379652605459
21
15.6244871002216
31
0.000000000000000
  0
LINE
  5
F10783
330
F10784
100
AcDbEntity
8
Geo
100
AcDbLine
10
-47.3379652605459
20
1.95506888592043
30
0.000000000000000
11
-47.2379652605459
21
1.92932953442034
31
0.000000000000000
  0
LINE
  5
F10785
330
F10786
100
AcDbEntity
8
Geo
100
AcDbLine
10
-47.2379652605459
20
15.6244871002216
30
0.000000000000000
11
-47.1379652605459
21
15.5805267688434
31
0.000000000000000
  0
LINE
  5
F10787
330
F10788
100
AcDbEntity
8
Geo
100
AcDbLine
10
-47.2379652605459
20
1.92932953442034
30
0.000000000000000
11
-47.1379652605459
21
1.90416044684678
31
0.000000000000000
  0
LINE
  5
F10789
330
F1078A
100
AcDbEntity
8
Geo
100
AcDbLine
10
-47.1379652605459
20
15.5805267688434
30
0.000000000000000
11
-47.0379652605459
21
15.5360918090747
31
0.000000000000000
  0
LINE
  5
F1078B
330
F1078C
100
AcDbEntity
8
Geo
100
AcDbLine
10
-47.1379652605459
20
1.90416044684678
30
0.000000000000000
11
-47.0379652605459
21
1.87956354969645
31
0.000000000000000
  0
LINE
  5
F1078D
330
F1078E
100
AcDbEntity
8
Geo
100
AcDbLine
10
-47.0379652605459
20
15.5360918090747
30
0.000000000000000
11
-46.9379652605459
21
15.4911856220638
31
0.000000000000000
  0
LINE
  5
F1078F
330
F10790
100
AcDbEntity
8
Geo
100
AcDbLine
10
-47.0379652605459
20
1.87956354969645
30
0.000000000000000
11
-46.9379652605459
21
1.85554072566933
31
0.000000000000000
  0
LINE
  5
F10791
330
F10792
100
AcDbEntity
8
Geo
100
AcDbLine
10
-46.9379652605459
20
15.4911856220638
30
0.000000000000000
11
-46.8379652605459
21
15.4458116450280
31
0.000000000000000
  0
LINE
  5
F10793
330
F10794
100
AcDbEntity
8
Geo
100
AcDbLine
10
-46.9379652605459
20
1.85554072566933
30
0.000000000000000
11
-46.8379652605459
21
1.83209381352460
31
0.000000000000000
  0
LINE
  5
F10795
330
F10796
100
AcDbEntity
8
Geo
100
AcDbLine
10
-46.8379652605459
20
15.4458116450280
30
0.000000000000000
11
-46.7379652605459
21
15.3999733509902
31
0.000000000000000
  0
LINE
  5
F10797
330
F10798
100
AcDbEntity
8
Geo
100
AcDbLine
10
-46.8379652605459
20
1.83209381352460
30
0.000000000000000
11
-46.7379652605459
21
1.80922460793990
31
0.000000000000000
  0
LINE
  5
F10799
330
F1079A
100
AcDbEntity
8
Geo
100
AcDbLine
10
-46.7379652605459
20
15.3999733509902
30
0.000000000000000
11
-46.6379652605459
21
15.3536742485129
31
0.000000000000000
  0
LINE
  5
F1079B
330
F1079C
100
AcDbEntity
8
Geo
100
AcDbLine
10
-46.7379652605459
20
1.80922460793990
30
0.000000000000000
11
-46.6379652605459
21
1.78693485937394
31
0.000000000000000
  0
LINE
  5
F1079D
330
F1079E
100
AcDbEntity
8
Geo
100
AcDbLine
10
-46.6379652605459
20
15.3536742485129
30
0.000000000000000
11
-46.5379652605459
21
15.3069178814302
31
0.000000000000000
  0
LINE
  5
F1079F
330
F107A0
100
AcDbEntity
8
Geo
100
AcDbLine
10
-46.6379652605459
20
1.78693485937394
30
0.000000000000000
11
-46.5379652605459
21
1.76522627393254
31
0.000000000000000
  0
LINE
  5
F107A1
330
F107A2
100
AcDbEntity
8
Geo
100
AcDbLine
10
-46.5379652605459
20
15.3069178814302
30
0.000000000000000
11
-46.4379652605459
21
15.2597078285760
31
0.000000000000000
  0
LINE
  5
F107A3
330
F107A4
100
AcDbEntity
8
Geo
100
AcDbLine
10
-46.5379652605459
20
1.76522627393254
30
0.000000000000000
11
-46.4379652605459
21
1.74410051323804
31
0.000000000000000
  0
LINE
  5
F107A5
330
F107A6
100
AcDbEntity
8
Geo
100
AcDbLine
10
-46.4379652605459
20
15.2597078285760
30
0.000000000000000
11
-46.3379652605459
21
15.2120477035106
31
0.000000000000000
  0
LINE
  5
F107A7
330
F107A8
100
AcDbEntity
8
Geo
100
AcDbLine
10
-46.4379652605459
20
1.74410051323804
30
0.000000000000000
11
-46.3379652605459
21
1.72355919430209
31
0.000000000000000
  0
LINE
  5
F107A9
330
F107AA
100
AcDbEntity
8
Geo
100
AcDbLine
10
-46.3379652605459
20
15.2120477035106
30
0.000000000000000
11
-46.2379652605459
21
15.1639411542433
31
0.000000000000000
  0
LINE
  5
F107AB
330
F107AC
100
AcDbEntity
8
Geo
100
AcDbLine
10
-46.3379652605459
20
1.72355919430209
30
0.000000000000000
11
-46.2379652605459
21
1.70360388940190
31
0.000000000000000
  0
LINE
  5
F107AD
330
F107AE
100
AcDbEntity
8
Geo
100
AcDbLine
10
-46.2379652605459
20
15.1639411542433
30
0.000000000000000
11
-46.1379652605459
21
15.1153918629543
31
0.000000000000000
  0
LINE
  5
F107AF
330
F107B0
100
AcDbEntity
8
Geo
100
AcDbLine
10
-46.2379652605459
20
1.70360388940190
30
0.000000000000000
11
-46.1379652605459
21
1.68423612595989
31
0.000000000000000
  0
LINE
  5
F107B1
330
F107B2
100
AcDbEntity
8
Geo
100
AcDbLine
10
-46.1379652605459
20
15.1153918629543
30
0.000000000000000
11
-46.0379652605459
21
15.0664035457116
31
0.000000000000000
  0
LINE
  5
F107B3
330
F107B4
100
AcDbEntity
8
Geo
100
AcDbLine
10
-46.1379652605459
20
1.68423612595989
30
0.000000000000000
11
-46.0379652605459
21
1.66545738642679
31
0.000000000000000
  0
LINE
  5
F107B5
330
F107B6
100
AcDbEntity
8
Geo
100
AcDbLine
10
-46.0379652605459
20
15.0664035457116
30
0.000000000000000
11
-45.9379652605459
21
15.0169799521877
31
0.000000000000000
  0
LINE
  5
F107B7
330
F107B8
100
AcDbEntity
8
Geo
100
AcDbLine
10
-46.0379652605459
20
1.66545738642679
30
0.000000000000000
11
-45.9379652605459
21
1.64726910816816
31
0.000000000000000
  0
LINE
  5
F107B9
330
F107BA
100
AcDbEntity
8
Geo
100
AcDbLine
10
-45.9379652605459
20
15.0169799521877
30
0.000000000000000
11
-45.8379652605459
21
14.9671248653719
31
0.000000000000000
  0
LINE
  5
F107BB
330
F107BC
100
AcDbEntity
8
Geo
100
AcDbLine
10
-45.9379652605459
20
1.64726910816816
30
0.000000000000000
11
-45.8379652605459
21
1.62967268335434
31
0.000000000000000
  0
LINE
  5
F107BD
330
F107BE
100
AcDbEntity
8
Geo
100
AcDbLine
10
-45.8379652605459
20
14.9671248653719
30
0.000000000000000
11
-45.7379652605459
21
14.9168421012809
31
0.000000000000000
  0
LINE
  5
F107BF
330
F107C0
100
AcDbEntity
8
Geo
100
AcDbLine
10
-45.8379652605459
20
1.62967268335434
30
0.000000000000000
11
-45.7379652605459
21
1.61266945885397
31
0.000000000000000
  0
LINE
  5
F107C1
330
F107C2
100
AcDbEntity
8
Geo
100
AcDbLine
10
-45.7379652605459
20
14.9168421012809
30
0.000000000000000
11
-45.6379652605459
21
14.8661355086667
31
0.000000000000000
  0
LINE
  5
F107C3
330
F107C4
100
AcDbEntity
8
Geo
100
AcDbLine
10
-45.7379652605459
20
1.61266945885397
30
0.000000000000000
11
-45.6379652605459
21
1.59626073613081
31
0.000000000000000
  0
LINE
  5
F107C5
330
F107C6
100
AcDbEntity
8
Geo
100
AcDbLine
10
-45.6379652605459
20
14.8661355086667
30
0.000000000000000
11
-45.5379652605459
21
14.8150089687223
31
0.000000000000000
  0
LINE
  5
F107C7
330
F107C8
100
AcDbEntity
8
Geo
100
AcDbLine
10
-45.6379652605459
20
1.59626073613081
30
0.000000000000000
11
-45.5379652605459
21
1.58044777114418
31
0.000000000000000
  0
LINE
  5
F107C9
330
F107CA
100
AcDbEntity
8
Geo
100
AcDbLine
10
-45.5379652605459
20
14.8150089687223
30
0.000000000000000
11
-45.4379652605459
21
14.7634663947842
31
0.000000000000000
  0
LINE
  5
F107CB
330
F107CC
100
AcDbEntity
8
Geo
100
AcDbLine
10
-45.5379652605459
20
1.58044777114418
30
0.000000000000000
11
-45.4379652605459
21
1.56523177425279
31
0.000000000000000
  0
LINE
  5
F107CD
330
F107CE
100
AcDbEntity
8
Geo
100
AcDbLine
10
-45.4379652605459
20
14.7634663947842
30
0.000000000000000
11
-45.3379652605459
21
14.7115117320330
31
0.000000000000000
  0
LINE
  5
F107CF
330
F107D0
100
AcDbEntity
8
Geo
100
AcDbLine
10
-45.4379652605459
20
1.56523177425279
30
0.000000000000000
11
-45.3379652605459
21
1.55061391012213
31
0.000000000000000
  0
LINE
  5
F107D1
330
F107D2
100
AcDbEntity
8
Geo
100
AcDbLine
10
-45.3379652605459
20
14.7115117320330
30
0.000000000000000
11
-45.2379652605459
21
14.6591489571916
31
0.000000000000000
  0
LINE
  5
F107D3
330
F107D4
100
AcDbEntity
8
Geo
100
AcDbLine
10
-45.3379652605459
20
1.55061391012213
30
0.000000000000000
11
-45.2379652605459
21
1.53659529763531
31
0.000000000000000
  0
LINE
  5
F107D5
330
F107D6
100
AcDbEntity
8
Geo
100
AcDbLine
10
-45.2379652605459
20
14.6591489571916
30
0.000000000000000
11
-45.1379652605459
21
14.6063820782206
31
0.000000000000000
  0
LINE
  5
F107D7
330
F107D8
100
AcDbEntity
8
Geo
100
AcDbLine
10
-45.2379652605459
20
1.53659529763531
30
0.000000000000000
11
-45.1379652605459
21
1.52317700980740
31
0.000000000000000
  0
LINE
  5
F107D9
330
F107DA
100
AcDbEntity
8
Geo
100
AcDbLine
10
-45.1379652605459
20
14.6063820782206
30
0.000000000000000
11
-45.0379652605459
21
14.5532151340117
31
0.000000000000000
  0
LINE
  5
F107DB
330
F107DC
100
AcDbEntity
8
Geo
100
AcDbLine
10
-45.1379652605459
20
1.52317700980740
30
0.000000000000000
11
-45.0379652605459
21
1.51036007370332
31
0.000000000000000
  0
LINE
  5
F107DD
330
F107DE
100
AcDbEntity
8
Geo
100
AcDbLine
10
-45.0379652605459
20
14.5532151340117
30
0.000000000000000
11
-44.9379652605459
21
14.4996521940784
31
0.000000000000000
  0
LINE
  5
F107DF
330
F107E0
100
AcDbEntity
8
Geo
100
AcDbLine
10
-45.0379652605459
20
1.51036007370332
30
0.000000000000000
11
-44.9379652605459
21
1.49814547035925
31
0.000000000000000
  0
LINE
  5
F107E1
330
F107E2
100
AcDbEntity
8
Geo
100
AcDbLine
10
-44.9379652605459
20
14.4996521940784
30
0.000000000000000
11
-44.8379652605459
21
14.4456973582445
31
0.000000000000000
  0
LINE
  5
F107E3
330
F107E4
100
AcDbEntity
8
Geo
100
AcDbLine
10
-44.9379652605459
20
1.49814547035925
30
0.000000000000000
11
-44.8379652605459
21
1.48653413470746
31
0.000000000000000
  0
LINE
  5
F107E5
330
F107E6
100
AcDbEntity
8
Geo
100
AcDbLine
10
-44.8379652605459
20
14.4456973582445
30
0.000000000000000
11
-44.7379652605459
21
14.3913547563306
31
0.000000000000000
  0
LINE
  5
F107E7
330
F107E8
100
AcDbEntity
8
Geo
100
AcDbLine
10
-44.8379652605459
20
1.48653413470746
30
0.000000000000000
11
-44.7379652605459
21
1.47552695550484
31
0.000000000000000
  0
LINE
  5
F107E9
330
F107EA
100
AcDbEntity
8
Geo
100
AcDbLine
10
-44.7379652605459
20
14.3913547563306
30
0.000000000000000
11
-44.6379652605459
21
14.3366285478374
31
0.000000000000000
  0
LINE
  5
F107EB
330
F107EC
100
AcDbEntity
8
Geo
100
AcDbLine
10
-44.7379652605459
20
1.47552695550484
30
0.000000000000000
11
-44.6379652605459
21
1.46512477526482
31
0.000000000000000
  0
LINE
  5
F107ED
330
F107EE
100
AcDbEntity
8
Geo
100
AcDbLine
10
-44.6379652605459
20
14.3366285478374
30
0.000000000000000
11
-44.5379652605459
21
14.2815229216280
31
0.000000000000000
  0
LINE
  5
F107EF
330
F107F0
100
AcDbEntity
8
Geo
100
AcDbLine
10
-44.6379652605459
20
1.46512477526482
30
0.000000000000000
11
-44.5379652605459
21
1.45532839019289
31
0.000000000000000
  0
LINE
  5
F107F1
330
F107F2
100
AcDbEntity
8
Geo
100
AcDbLine
10
-44.5379652605459
20
14.2815229216280
30
0.000000000000000
11
-44.4379652605459
21
14.2260420956069
31
0.000000000000000
  0
LINE
  5
F107F3
330
F107F4
100
AcDbEntity
8
Geo
100
AcDbLine
10
-44.5379652605459
20
1.45532839019289
30
0.000000000000000
11
-44.4379652605459
21
1.44613855012566
31
0.000000000000000
  0
LINE
  5
F107F5
330
F107F6
100
AcDbEntity
8
Geo
100
AcDbLine
10
-44.4379652605459
20
14.2260420956069
30
0.000000000000000
11
-44.3379652605459
21
14.1701903163970
31
0.000000000000000
  0
LINE
  5
F107F7
330
F107F8
100
AcDbEntity
8
Geo
100
AcDbLine
10
-44.4379652605459
20
1.44613855012566
30
0.000000000000000
11
-44.3379652605459
21
1.43755595847347
31
0.000000000000000
  0
LINE
  5
F107F9
330
F107FA
100
AcDbEntity
8
Geo
100
AcDbLine
10
-44.3379652605459
20
14.1701903163970
30
0.000000000000000
11
-44.2379652605459
21
14.1139718590150
31
0.000000000000000
  0
LINE
  5
F107FB
330
F107FC
100
AcDbEntity
8
Geo
100
AcDbLine
10
-44.3379652605459
20
1.43755595847347
30
0.000000000000000
11
-44.2379652605459
21
1.42958127216654
31
0.000000000000000
  0
LINE
  5
F107FD
330
F107FE
100
AcDbEntity
8
Geo
100
AcDbLine
10
-44.2379652605459
20
14.1139718590150
30
0.000000000000000
11
-44.1379652605459
21
14.0573910265439
31
0.000000000000000
  0
LINE
  5
F107FF
330
F10800
100
AcDbEntity
8
Geo
100
AcDbLine
10
-44.2379652605459
20
1.42958127216654
30
0.000000000000000
11
-44.1379652605459
21
1.42221510160471
31
0.000000000000000
  0
LINE
  5
F10801
330
F10802
100
AcDbEntity
8
Geo
100
AcDbLine
10
-44.1379652605459
20
14.0573910265439
30
0.000000000000000
11
-44.0379652605459
21
14.0004521498036
31
0.000000000000000
  0
LINE
  5
F10803
330
F10804
100
AcDbEntity
8
Geo
100
AcDbLine
10
-44.1379652605459
20
1.42221510160471
30
0.000000000000000
11
-44.0379652605459
21
1.41545801061069
31
0.000000000000000
  0
LINE
  5
F10805
330
F10806
100
AcDbEntity
8
Geo
100
AcDbLine
10
-44.0379652605459
20
14.0004521498036
30
0.000000000000000
11
-43.9379652605459
21
13.9431595870195
31
0.000000000000000
  0
LINE
  5
F10807
330
F10808
100
AcDbEntity
8
Geo
100
AcDbLine
10
-44.0379652605459
20
1.41545801061069
30
0.000000000000000
11
-43.9379652605459
21
1.40931051638691
31
0.000000000000000
  0
LINE
  5
F10809
330
F1080A
100
AcDbEntity
8
Geo
100
AcDbLine
10
-43.9379652605459
20
13.9431595870195
30
0.000000000000000
11
-43.8379652605459
21
13.8855177234889
31
0.000000000000000
  0
LINE
  5
F1080B
330
F1080C
100
AcDbEntity
8
Geo
100
AcDbLine
10
-43.9379652605459
20
1.40931051638691
30
0.000000000000000
11
-43.8379652605459
21
1.40377308947595
31
0.000000000000000
  0
LINE
  5
F1080D
330
F1080E
100
AcDbEntity
8
Geo
100
AcDbLine
10
-43.8379652605459
20
13.8855177234889
30
0.000000000000000
11
-43.7379652605459
21
13.8275309712454
31
0.000000000000000
  0
LINE
  5
F1080F
330
F10810
100
AcDbEntity
8
Geo
100
AcDbLine
10
-43.8379652605459
20
1.40377308947595
30
0.000000000000000
11
-43.7379652605459
21
1.39884615372450
31
0.000000000000000
  0
LINE
  5
F10811
330
F10812
100
AcDbEntity
8
Geo
100
AcDbLine
10
-43.7379652605459
20
13.8275309712454
30
0.000000000000000
11
-43.6379652605459
21
13.7692037687212
31
0.000000000000000
  0
LINE
  5
F10813
330
F10814
100
AcDbEntity
8
Geo
100
AcDbLine
10
-43.7379652605459
20
1.39884615372450
30
0.000000000000000
11
-43.6379652605459
21
1.39453008625093
31
0.000000000000000
  0
LINE
  5
F10815
330
F10816
100
AcDbEntity
8
Geo
100
AcDbLine
10
-43.6379652605459
20
13.7692037687212
30
0.000000000000000
11
-43.5379652605459
21
13.7105405804070
31
0.000000000000000
  0
LINE
  5
F10817
330
F10818
100
AcDbEntity
8
Geo
100
AcDbLine
10
-43.6379652605459
20
1.39453008625093
30
0.000000000000000
11
-43.5379652605459
21
1.39082521741644
31
0.000000000000000
  0
LINE
  5
F10819
330
F1081A
100
AcDbEntity
8
Geo
100
AcDbLine
10
-43.5379652605459
20
13.7105405804070
30
0.000000000000000
11
-43.4379652605460
21
13.6515458965109
31
0.000000000000000
  0
LINE
  5
F1081B
330
F1081C
100
AcDbEntity
8
Geo
100
AcDbLine
10
-43.5379652605459
20
1.39082521741644
30
0.000000000000000
11
-43.4379652605460
21
1.38773183079974
31
0.000000000000000
  0
LINE
  5
F1081D
330
F1081E
100
AcDbEntity
8
Geo
100
AcDbLine
10
-43.4379652605460
20
13.6515458965109
30
0.000000000000000
11
-43.3379652605460
21
13.5922242326142
31
0.000000000000000
  0
LINE
  5
F1081F
330
F10820
100
AcDbEntity
8
Geo
100
AcDbLine
10
-43.4379652605460
20
1.38773183079974
30
0.000000000000000
11
-43.3379652605460
21
1.38525016317536
31
0.000000000000000
  0
LINE
  5
F10821
330
F10822
100
AcDbEntity
8
Geo
100
AcDbLine
10
-43.3379652605460
20
13.5922242326142
30
0.000000000000000
11
-43.2379652605459
21
13.5325801293261
31
0.000000000000000
  0
LINE
  5
F10823
330
F10824
100
AcDbEntity
8
Geo
100
AcDbLine
10
-43.3379652605460
20
1.38525016317536
30
0.000000000000000
11
-43.2379652605459
21
1.38338040449555
31
0.000000000000000
  0
LINE
  5
F10825
330
F10826
100
AcDbEntity
8
Geo
100
AcDbLine
10
-43.2379652605459
20
13.5325801293261
30
0.000000000000000
11
-43.1379652605459
21
13.4726181519360
31
0.000000000000000
  0
LINE
  5
F10827
330
F10828
100
AcDbEntity
8
Geo
100
AcDbLine
10
-43.2379652605459
20
1.38338040449555
30
0.000000000000000
11
-43.1379652605459
21
1.38212269787570
31
0.000000000000000
  0
LINE
  5
F10829
330
F1082A
100
AcDbEntity
8
Geo
100
AcDbLine
10
-43.1379652605459
20
13.4726181519360
30
0.000000000000000
11
-43.0379652605459
21
13.4123428900638
31
0.000000000000000
  0
LINE
  5
F1082B
330
F1082C
100
AcDbEntity
8
Geo
100
AcDbLine
10
-43.1379652605459
20
1.38212269787570
30
0.000000000000000
11
-43.0379652605459
21
1.38147713958340
31
0.000000000000000
  0
LINE
  5
F1082D
330
F1082E
100
AcDbEntity
8
Geo
100
AcDbLine
10
-43.0379652605459
20
13.4123428900638
30
0.000000000000000
11
-42.9379652605460
21
13.3517589573094
31
0.000000000000000
  0
LINE
  5
F1082F
330
F10830
100
AcDbEntity
8
Geo
100
AcDbLine
10
-42.9379652605460
20
13.3517589573094
30
0.000000000000000
11
-42.8379652605460
21
13.2908709908985
31
0.000000000000000
  0
LINE
  5
F10831
330
F10832
100
AcDbEntity
8
Geo
100
AcDbLine
10
-42.8379652605460
20
13.2908709908985
30
0.000000000000000
11
-42.7379652605459
21
13.2296836513285
31
0.000000000000000
  0
LINE
  5
F10833
330
F10834
100
AcDbEntity
8
Geo
100
AcDbLine
10
-42.7379652605459
20
13.2296836513285
30
0.000000000000000
11
-42.6379652605460
21
13.1682016220114
31
0.000000000000000
  0
LINE
  5
F10835
330
F10836
100
AcDbEntity
8
Geo
100
AcDbLine
10
-42.6379652605460
20
13.1682016220114
30
0.000000000000000
11
-42.5379652605460
21
13.1064296089154
31
0.000000000000000
  0
LINE
  5
F10837
330
F10838
100
AcDbEntity
8
Geo
100
AcDbLine
10
-42.5379652605460
20
13.1064296089154
30
0.000000000000000
11
-42.4379652605460
21
13.0443723402048
31
0.000000000000000
  0
LINE
  5
F10839
330
F1083A
100
AcDbEntity
8
Geo
100
AcDbLine
10
-42.4379652605460
20
13.0443723402048
30
0.000000000000000
11
-42.3379652605460
21
12.9820345658777
31
0.000000000000000
  0
LINE
  5
F1083B
330
F1083C
100
AcDbEntity
8
Geo
100
AcDbLine
10
-42.3379652605460
20
12.9820345658777
30
0.000000000000000
11
-42.2379652605459
21
12.9194210574030
31
0.000000000000000
  0
LINE
  5
F1083D
330
F1083E
100
AcDbEntity
8
Geo
100
AcDbLine
10
-42.2379652605459
20
12.9194210574030
30
0.000000000000000
11
-42.1379652605460
21
12.8565366073547
31
0.000000000000000
  0
LINE
  5
F1083F
330
F10840
100
AcDbEntity
8
Geo
100
AcDbLine
10
-42.1379652605460
20
12.8565366073547
30
0.000000000000000
11
-42.0379652605460
21
12.7933860290453
31
0.000000000000000
  0
LINE
  5
F10841
330
F10842
100
AcDbEntity
8
Geo
100
AcDbLine
10
-42.0379652605460
20
12.7933860290453
30
0.000000000000000
11
-41.9379652605460
21
12.7299741561576
31
0.000000000000000
  0
LINE
  5
F10843
330
F10844
100
AcDbEntity
8
Geo
100
AcDbLine
10
-41.9379652605460
20
12.7299741561576
30
0.000000000000000
11
-41.8379652605460
21
12.6663058423739
31
0.000000000000000
  0
LINE
  5
F10845
330
F10846
100
AcDbEntity
8
Geo
100
AcDbLine
10
-41.8379652605460
20
12.6663058423739
30
0.000000000000000
11
-41.7379652605460
21
12.6023859610056
31
0.000000000000000
  0
LINE
  5
F10847
330
F10848
100
AcDbEntity
8
Geo
100
AcDbLine
10
-41.7379652605460
20
12.6023859610056
30
0.000000000000000
11
-41.6379652605460
21
12.5382194046193
31
0.000000000000000
  0
LINE
  5
F10849
330
F1084A
100
AcDbEntity
8
Geo
100
AcDbLine
10
-41.6379652605460
20
12.5382194046193
30
0.000000000000000
11
-41.5379652605460
21
12.4738110846628
31
0.000000000000000
  0
LINE
  5
F1084B
330
F1084C
100
AcDbEntity
8
Geo
100
AcDbLine
10
-41.5379652605460
20
12.4738110846628
30
0.000000000000000
11
-41.4379652605460
21
12.4091659310888
31
0.000000000000000
  0
LINE
  5
F1084D
330
F1084E
100
AcDbEntity
8
Geo
100
AcDbLine
10
-41.4379652605460
20
12.4091659310888
30
0.000000000000000
11
-41.3379652605460
21
12.3442888919781
31
0.000000000000000
  0
LINE
  5
F1084F
330
F10850
100
AcDbEntity
8
Geo
100
AcDbLine
10
-41.3379652605460
20
12.3442888919781
30
0.000000000000000
11
-41.2379652605460
21
12.2791849331603
31
0.000000000000000
  0
LINE
  5
F10851
330
F10852
100
AcDbEntity
8
Geo
100
AcDbLine
10
-41.2379652605460
20
12.2791849331603
30
0.000000000000000
11
-41.1379652605460
21
12.2138590378338
31
0.000000000000000
  0
LINE
  5
F10853
330
F10854
100
AcDbEntity
8
Geo
100
AcDbLine
10
-41.1379652605460
20
12.2138590378338
30
0.000000000000000
11
-41.0379652605460
21
12.1483162061848
31
0.000000000000000
  0
LINE
  5
F10855
330
F10856
100
AcDbEntity
8
Geo
100
AcDbLine
10
-41.0379652605460
20
12.1483162061848
30
0.000000000000000
11
-40.9379652605460
21
12.0825614550041
31
0.000000000000000
  0
LINE
  5
F10857
330
F10858
100
AcDbEntity
8
Geo
100
AcDbLine
10
-40.9379652605460
20
12.0825614550041
30
0.000000000000000
11
-40.8379652605460
21
12.0165998173033
31
0.000000000000000
  0
LINE
  5
F10859
330
F1085A
100
AcDbEntity
8
Geo
100
AcDbLine
10
-40.8379652605460
20
12.0165998173033
30
0.000000000000000
11
-40.7379652605460
21
11.9504363419296
31
0.000000000000000
  0
LINE
  5
F1085B
330
F1085C
100
AcDbEntity
8
Geo
100
AcDbLine
10
-40.7379652605460
20
11.9504363419296
30
0.000000000000000
11
-40.6379652605460
21
11.8840760931792
31
0.000000000000000
  0
LINE
  5
F1085D
330
F1085E
100
AcDbEntity
8
Geo
100
AcDbLine
10
-40.6379652605460
20
11.8840760931792
30
0.000000000000000
11
-40.5379652605460
21
11.8175241504099
31
0.000000000000000
  0
LINE
  5
F1085F
330
F10860
100
AcDbEntity
8
Geo
100
AcDbLine
10
-40.5379652605460
20
11.8175241504099
30
0.000000000000000
11
-40.4379652605460
21
11.7507856076521
31
0.000000000000000
  0
LINE
  5
F10861
330
F10862
100
AcDbEntity
8
Geo
100
AcDbLine
10
-40.4379652605460
20
11.7507856076521
30
0.000000000000000
11
-40.3379652605460
21
11.6838655732190
31
0.000000000000000
  0
LINE
  5
F10863
330
F10864
100
AcDbEntity
8
Geo
100
AcDbLine
10
-40.3379652605460
20
11.6838655732190
30
0.000000000000000
11
-40.2379652605460
21
11.6167691693153
31
0.000000000000000
  0
LINE
  5
F10865
330
F10866
100
AcDbEntity
8
Geo
100
AcDbLine
10
-40.2379652605460
20
11.6167691693153
30
0.000000000000000
11
-40.1379652605460
21
11.5495015316459
31
0.000000000000000
  0
LINE
  5
F10867
330
F10868
100
AcDbEntity
8
Geo
100
AcDbLine
10
-40.1379652605460
20
11.5495015316459
30
0.000000000000000
11
-40.0379652605460
21
11.4820678090220
31
0.000000000000000
  0
LINE
  5
F10869
330
F1086A
100
AcDbEntity
8
Geo
100
AcDbLine
10
-40.0379652605460
20
11.4820678090220
30
0.000000000000000
11
-39.9379652605460
21
11.4144731629672
31
0.000000000000000
  0
LINE
  5
F1086B
330
F1086C
100
AcDbEntity
8
Geo
100
AcDbLine
10
-39.9379652605460
20
11.4144731629672
30
0.000000000000000
11
-39.8379652605460
21
11.3467227673229
31
0.000000000000000
  0
LINE
  5
F1086D
330
F1086E
100
AcDbEntity
8
Geo
100
AcDbLine
10
-39.8379652605460
20
11.3467227673229
30
0.000000000000000
11
-39.7379652605460
21
11.2788218078514
31
0.000000000000000
  0
LINE
  5
F1086F
330
F10870
100
AcDbEntity
8
Geo
100
AcDbLine
10
-39.7379652605460
20
11.2788218078514
30
0.000000000000000
11
-39.6379652605460
21
11.2107754818400
31
0.000000000000000
  0
LINE
  5
F10871
330
F10872
100
AcDbEntity
8
Geo
100
AcDbLine
10
-39.6379652605460
20
11.2107754818400
30
0.000000000000000
11
-39.5379652605460
21
11.1425889977024
31
0.000000000000000
  0
LINE
  5
F10873
330
F10874
100
AcDbEntity
8
Geo
100
AcDbLine
10
-39.5379652605460
20
11.1425889977024
30
0.000000000000000
11
-39.4379652605460
21
11.0742675745803
31
0.000000000000000
  0
LINE
  5
F10875
330
F10876
100
AcDbEntity
8
Geo
100
AcDbLine
10
-39.4379652605460
20
11.0742675745803
30
0.000000000000000
11
-39.3379652605460
21
11.0058164419439
31
0.000000000000000
  0
LINE
  5
F10877
330
F10878
100
AcDbEntity
8
Geo
100
AcDbLine
10
-39.3379652605460
20
11.0058164419439
30
0.000000000000000
11
-39.2379652605460
21
10.9372408391919
31
0.000000000000000
  0
LINE
  5
F10879
330
F1087A
100
AcDbEntity
8
Geo
100
AcDbLine
10
-39.2379652605460
20
10.9372408391919
30
0.000000000000000
11
-39.1379652605460
21
10.8685460152500
31
0.000000000000000
  0
LINE
  5
F1087B
330
F1087C
100
AcDbEntity
8
Geo
100
AcDbLine
10
-39.1379652605460
20
10.8685460152500
30
0.000000000000000
11
-39.0379652605460
21
10.7997372281692
31
0.000000000000000
  0
LINE
  5
F1087D
330
F1087E
100
AcDbEntity
8
Geo
100
AcDbLine
10
-39.0379652605460
20
10.7997372281692
30
0.000000000000000
11
-38.9379652605460
21
10.7308197447239
31
0.000000000000000
  0
LINE
  5
F1087F
330
F10880
100
AcDbEntity
8
Geo
100
AcDbLine
10
-38.9379652605460
20
10.7308197447239
30
0.000000000000000
11
-38.8379652605460
21
10.6617988400079
31
0.000000000000000
  0
LINE
  5
F10881
330
F10882
100
AcDbEntity
8
Geo
100
AcDbLine
10
-38.8379652605460
20
10.6617988400079
30
0.000000000000000
11
-38.7379652605460
21
10.5926797970315
31
0.000000000000000
  0
LINE
  5
F10883
330
F10884
100
AcDbEntity
8
Geo
100
AcDbLine
10
-38.7379652605460
20
10.5926797970315
30
0.000000000000000
11
-38.6379652605460
21
10.5234679063165
31
0.000000000000000
  0
LINE
  5
F10885
330
F10886
100
AcDbEntity
8
Geo
100
AcDbLine
10
-38.6379652605460
20
10.5234679063165
30
0.000000000000000
11
-38.5379652605460
21
10.4541684654914
31
0.000000000000000
  0
LINE
  5
F10887
330
F10888
100
AcDbEntity
8
Geo
100
AcDbLine
10
-38.5379652605460
20
10.4541684654914
30
0.000000000000000
11
-38.4379652605460
21
10.3847867788861
31
0.000000000000000
  0
LINE
  5
F10889
330
F1088A
100
AcDbEntity
8
Geo
100
AcDbLine
10
-38.4379652605460
20
10.3847867788861
30
0.000000000000000
11
-38.3379652605460
21
10.3153281571259
31
0.000000000000000
  0
LINE
  5
F1088B
330
F1088C
100
AcDbEntity
8
Geo
100
AcDbLine
10
-38.3379652605460
20
10.3153281571259
30
0.000000000000000
11
-38.2379652605460
21
10.2457979167245
31
0.000000000000000
  0
LINE
  5
F1088D
330
F1088E
100
AcDbEntity
8
Geo
100
AcDbLine
10
-38.2379652605460
20
10.2457979167245
30
0.000000000000000
11
-38.1379652605460
21
10.1762013796778
31
0.000000000000000
  0
LINE
  5
F1088F
330
F10890
100
AcDbEntity
8
Geo
100
AcDbLine
10
-38.1379652605460
20
10.1762013796778
30
0.000000000000000
11
-38.0379652605460
21
10.1065438730561
31
0.000000000000000
  0
LINE
  5
F10891
330
F10892
100
AcDbEntity
8
Geo
100
AcDbLine
10
-38.0379652605460
20
10.1065438730561
30
0.000000000000000
11
-37.9379652605460
21
10.0368307285963
31
0.000000000000000
  0
LINE
  5
F10893
330
F10894
100
AcDbEntity
8
Geo
100
AcDbLine
10
-37.9379652605460
20
10.0368307285963
30
0.000000000000000
11
-37.8379652605460
21
9.96706728229412
31
0.000000000000000
  0
LINE
  5
F10895
330
F10896
100
AcDbEntity
8
Geo
100
AcDbLine
10
-37.8379652605460
20
9.96706728229412
30
0.000000000000000
11
-37.7379652605459
21
9.89725887399540
31
0.000000000000000
  0
LINE
  5
F10897
330
F10898
100
AcDbEntity
8
Geo
100
AcDbLine
10
-37.7379652605459
20
9.89725887399540
30
0.000000000000000
11
-37.6379652605459
21
9.82741084698749
31
0.000000000000000
  0
LINE
  5
F10899
330
F1089A
100
AcDbEntity
8
Geo
100
AcDbLine
10
-37.6379652605459
20
9.82741084698749
30
0.000000000000000
11
-37.5379652605459
21
9.75752854759025
31
0.000000000000000
  0
LINE
  5
F1089B
330
F1089C
100
AcDbEntity
8
Geo
100
AcDbLine
10
-37.5379652605459
20
9.75752854759025
30
0.000000000000000
11
-37.4379652605459
21
9.68761732474681
31
0.000000000000000
  0
LINE
  5
F1089D
330
F1089E
100
AcDbEntity
8
Geo
100
AcDbLine
10
-37.4379652605459
20
9.68761732474681
30
0.000000000000000
11
-37.3379652605459
21
9.61768252961418
31
0.000000000000000
  0
LINE
  5
F1089F
330
F108A0
100
AcDbEntity
8
Geo
100
AcDbLine
10
-37.3379652605459
20
9.61768252961418
30
0.000000000000000
11
-37.2379652605459
21
9.54772951515361
31
0.000000000000000
  0
LINE
  5
F108A1
330
F108A2
100
AcDbEntity
8
Geo
100
AcDbLine
10
-37.2379652605459
20
9.54772951515361
30
0.000000000000000
11
-37.1379652605459
21
9.47776363572094
31
0.000000000000000
  0
LINE
  5
F108A3
330
F108A4
100
AcDbEntity
8
Geo
100
AcDbLine
10
-37.1379652605459
20
9.47776363572094
30
0.000000000000000
11
-37.0379652605459
21
9.40779024665671
31
0.000000000000000
  0
LINE
  5
F108A5
330
F108A6
100
AcDbEntity
8
Geo
100
AcDbLine
10
-37.0379652605459
20
9.40779024665671
30
0.000000000000000
11
-36.9379652605459
21
9.33781470387623
31
0.000000000000000
  0
LINE
  5
F108A7
330
F108A8
100
AcDbEntity
8
Geo
100
AcDbLine
10
-36.9379652605459
20
9.33781470387623
30
0.000000000000000
11
-36.8379652605459
21
9.26784236345971
31
0.000000000000000
  0
LINE
  5
F108A9
330
F108AA
100
AcDbEntity
8
Geo
100
AcDbLine
10
-36.8379652605459
20
9.26784236345971
30
0.000000000000000
11
-36.7379652605459
21
9.19787858124221
31
0.000000000000000
  0
LINE
  5
F108AB
330
F108AC
100
AcDbEntity
8
Geo
100
AcDbLine
10
-36.7379652605459
20
9.19787858124221
30
0.000000000000000
11
-36.6379652605459
21
9.12792871240374
31
0.000000000000000
  0
LINE
  5
F108AD
330
F108AE
100
AcDbEntity
8
Geo
100
AcDbLine
10
-36.6379652605459
20
9.12792871240374
30
0.000000000000000
11
-36.5379652605459
21
9.05799811105935
31
0.000000000000000
  0
LINE
  5
F108AF
330
F108B0
100
AcDbEntity
8
Geo
100
AcDbLine
10
-36.5379652605459
20
9.05799811105935
30
0.000000000000000
11
-36.4379652605459
21
8.98809212984931
31
0.000000000000000
  0
LINE
  5
F108B1
330
F108B2
100
AcDbEntity
8
Geo
100
AcDbLine
10
-36.4379652605459
20
8.98809212984931
30
0.000000000000000
11
-36.3379652605459
21
8.91821611952942
31
0.000000000000000
  0
LINE
  5
F108B3
330
F108B4
100
AcDbEntity
8
Geo
100
AcDbLine
10
-36.3379652605459
20
8.91821611952942
30
0.000000000000000
11
-36.2379652605459
21
8.84837542856143
31
0.000000000000000
  0
LINE
  5
F108B5
330
F108B6
100
AcDbEntity
8
Geo
100
AcDbLine
10
-36.2379652605459
20
8.84837542856143
30
0.000000000000000
11
-36.1379652605459
21
8.77857540270367
31
0.000000000000000
  0
LINE
  5
F108B7
330
F108B8
100
AcDbEntity
8
Geo
100
AcDbLine
10
-36.1379652605459
20
8.77857540270367
30
0.000000000000000
11
-36.0379652605459
21
8.70882138460188
31
0.000000000000000
  0
LINE
  5
F108B9
330
F108BA
100
AcDbEntity
8
Geo
100
AcDbLine
10
-36.0379652605459
20
8.70882138460188
30
0.000000000000000
11
-35.9379652605459
21
8.63911871338028
31
0.000000000000000
  0
LINE
  5
F108BB
330
F108BC
100
AcDbEntity
8
Geo
100
AcDbLine
10
-35.9379652605459
20
8.63911871338028
30
0.000000000000000
11
-35.8379652605459
21
8.56947272423287
31
0.000000000000000
  0
LINE
  5
F108BD
330
F108BE
100
AcDbEntity
8
Geo
100
AcDbLine
10
-35.8379652605459
20
8.56947272423287
30
0.000000000000000
11
-35.7379652605459
21
8.49988874801508
31
0.000000000000000
  0
LINE
  5
F108BF
330
F108C0
100
AcDbEntity
8
Geo
100
AcDbLine
10
-35.7379652605459
20
8.49988874801508
30
0.000000000000000
11
-35.6379652605459
21
8.43037211083574
31
0.000000000000000
  0
LINE
  5
F108C1
330
F108C2
100
AcDbEntity
8
Geo
100
AcDbLine
10
-35.6379652605459
20
8.43037211083574
30
0.000000000000000
11
-35.5379652605459
21
8.36092813364941
31
0.000000000000000
  0
LINE
  5
F108C3
330
F108C4
100
AcDbEntity
8
Geo
100
AcDbLine
10
-35.5379652605459
20
8.36092813364941
30
0.000000000000000
11
-35.4379652605459
21
8.29156213184909
31
0.000000000000000
  0
LINE
  5
F108C5
330
F108C6
100
AcDbEntity
8
Geo
100
AcDbLine
10
-35.4379652605459
20
8.29156213184909
30
0.000000000000000
11
-35.3379652605459
21
8.22227941485938
31
0.000000000000000
  0
LINE
  5
F108C7
330
F108C8
100
AcDbEntity
8
Geo
100
AcDbLine
10
-35.3379652605459
20
8.22227941485938
30
0.000000000000000
11
-35.2379652605459
21
8.15308528573006
31
0.000000000000000
  0
LINE
  5
F108C9
330
F108CA
100
AcDbEntity
8
Geo
100
AcDbLine
10
-35.2379652605459
20
8.15308528573006
30
0.000000000000000
11
-35.1379652605459
21
8.08398504073023
31
0.000000000000000
  0
LINE
  5
F108CB
330
F108CC
100
AcDbEntity
8
Geo
100
AcDbLine
10
-35.1379652605459
20
8.08398504073023
30
0.000000000000000
11
-35.0379652605459
21
8.01498396894287
31
0.000000000000000
  0
LINE
  5
F108CD
330
F108CE
100
AcDbEntity
8
Geo
100
AcDbLine
10
-35.0379652605459
20
8.01498396894287
30
0.000000000000000
11
-34.9379652605459
21
7.94608735186005
31
0.000000000000000
  0
LINE
  5
F108CF
330
F108D0
100
AcDbEntity
8
Geo
100
AcDbLine
10
-34.9379652605459
20
7.94608735186005
30
0.000000000000000
11
-34.8379652605459
21
7.87730046297864
31
0.000000000000000
  0
LINE
  5
F108D1
330
F108D2
100
AcDbEntity
8
Geo
100
AcDbLine
10
-34.8379652605459
20
7.87730046297864
30
0.000000000000000
11
-34.7379652605459
21
7.80862856739666
31
0.000000000000000
  0
LINE
  5
F108D3
330
F108D4
100
AcDbEntity
8
Geo
100
AcDbLine
10
-34.7379652605459
20
7.80862856739666
30
0.000000000000000
11
-34.6379652605459
21
7.74007692141032
31
0.000000000000000
  0
LINE
  5
F108D5
330
F108D6
100
AcDbEntity
8
Geo
100
AcDbLine
10
-34.6379652605459
20
7.74007692141032
30
0.000000000000000
11
-34.5379652605459
21
7.67165077211164
31
0.000000000000000
  0
LINE
  5
F108D7
330
F108D8
100
AcDbEntity
8
Geo
100
AcDbLine
10
-34.5379652605459
20
7.67165077211164
30
0.000000000000000
11
-34.4379652605459
21
7.60335535698686
31
0.000000000000000
  0
LINE
  5
F108D9
330
F108DA
100
AcDbEntity
8
Geo
100
AcDbLine
10
-34.4379652605459
20
7.60335535698686
30
0.000000000000000
11
-34.3379652605459
21
7.53519590351555
31
0.000000000000000
  0
LINE
  5
F108DB
330
F108DC
100
AcDbEntity
8
Geo
100
AcDbLine
10
-34.3379652605459
20
7.53519590351555
30
0.000000000000000
11
-34.2379652605459
21
7.46717762877048
31
0.000000000000000
  0
LINE
  5
F108DD
330
F108DE
100
AcDbEntity
8
Geo
100
AcDbLine
10
-34.2379652605459
20
7.46717762877048
30
0.000000000000000
11
-34.1379652605459
21
7.39930573901827
31
0.000000000000000
  0
LINE
  5
F108DF
330
F108E0
100
AcDbEntity
8
Geo
100
AcDbLine
10
-34.1379652605459
20
7.39930573901827
30
0.000000000000000
11
-34.0379652605459
21
7.33158542932093
31
0.000000000000000
  0
LINE
  5
F108E1
330
F108E2
100
AcDbEntity
8
Geo
100
AcDbLine
10
-34.0379652605459
20
7.33158542932093
30
0.000000000000000
11
-33.9379652605459
21
7.26402188313823
31
0.000000000000000
  0
LINE
  5
F108E3
330
F108E4
100
AcDbEntity
8
Geo
100
AcDbLine
10
-33.9379652605459
20
7.26402188313823
30
0.000000000000000
11
-33.8379652605459
21
7.19662027193086
31
0.000000000000000
  0
LINE
  5
F108E5
330
F108E6
100
AcDbEntity
8
Geo
100
AcDbLine
10
-33.8379652605459
20
7.19662027193086
30
0.000000000000000
11
-33.7379652605459
21
7.12938575476470
31
0.000000000000000
  0
LINE
  5
F108E7
330
F108E8
100
AcDbEntity
8
Geo
100
AcDbLine
10
-33.7379652605459
20
7.12938575476470
30
0.000000000000000
11
-33.6379652605459
21
7.06232347791589
31
0.000000000000000
  0
LINE
  5
F108E9
330
F108EA
100
AcDbEntity
8
Geo
100
AcDbLine
10
-33.6379652605459
20
7.06232347791589
30
0.000000000000000
11
-33.5379652605459
21
6.99543857447689
31
0.000000000000000
  0
LINE
  5
F108EB
330
F108EC
100
AcDbEntity
8
Geo
100
AcDbLine
10
-33.5379652605459
20
6.99543857447689
30
0.000000000000000
11
-33.4379652605459
21
6.92873616396364
31
0.000000000000000
  0
LINE
  5
F108ED
330
F108EE
100
AcDbEntity
8
Geo
100
AcDbLine
10
-33.4379652605459
20
6.92873616396364
30
0.000000000000000
11
-33.3379652605459
21
6.86222135192367
31
0.000000000000000
  0
LINE
  5
F108EF
330
F108F0
100
AcDbEntity
8
Geo
100
AcDbLine
10
-33.3379652605459
20
6.86222135192367
30
0.000000000000000
11
-33.2379652605459
21
6.79589922954530
31
0.000000000000000
  0
LINE
  5
F108F1
330
F108F2
100
AcDbEntity
8
Geo
100
AcDbLine
10
-33.2379652605459
20
6.79589922954530
30
0.000000000000000
11
-33.1379652605459
21
6.72977487326799
31
0.000000000000000
  0
LINE
  5
F108F3
330
F108F4
100
AcDbEntity
8
Geo
100
AcDbLine
10
-33.1379652605459
20
6.72977487326799
30
0.000000000000000
11
-33.0379652605459
21
6.66385334439373
31
0.000000000000000
  0
LINE
  5
F108F5
330
F108F6
100
AcDbEntity
8
Geo
100
AcDbLine
10
-33.0379652605459
20
6.66385334439373
30
0.000000000000000
11
-32.9379652605459
21
6.59813968869967
31
0.000000000000000
  0
LINE
  5
F108F7
330
F108F8
100
AcDbEntity
8
Geo
100
AcDbLine
10
-32.9379652605459
20
6.59813968869967
30
0.000000000000000
11
-32.8379652605459
21
6.53263893605190
31
0.000000000000000
  0
LINE
  5
F108F9
330
F108FA
100
AcDbEntity
8
Geo
100
AcDbLine
10
-32.8379652605459
20
6.53263893605190
30
0.000000000000000
11
-32.7379652605459
21
6.46735610002044
31
0.000000000000000
  0
LINE
  5
F108FB
330
F108FC
100
AcDbEntity
8
Geo
100
AcDbLine
10
-32.7379652605459
20
6.46735610002044
30
0.000000000000000
11
-32.6379652605459
21
6.40229617749548
31
0.000000000000000
  0
LINE
  5
F108FD
330
F108FE
100
AcDbEntity
8
Geo
100
AcDbLine
10
-32.6379652605459
20
6.40229617749548
30
0.000000000000000
11
-32.5379652605459
21
6.33746414830497
31
0.000000000000000
  0
LINE
  5
F108FF
330
F10900
100
AcDbEntity
8
Geo
100
AcDbLine
10
-32.5379652605459
20
6.33746414830497
30
0.000000000000000
11
-32.4379652605459
21
6.27286497483337
31
0.000000000000000
  0
LINE
  5
F10901
330
F10902
100
AcDbEntity
8
Geo
100
AcDbLine
10
-32.4379652605459
20
6.27286497483337
30
0.000000000000000
11
-32.3379652605459
21
6.20850360164187
31
0.000000000000000
  0
LINE
  5
F10903
330
F10904
100
AcDbEntity
8
Geo
100
AcDbLine
10
-32.3379652605459
20
6.20850360164187
30
0.000000000000000
11
-32.2379652605459
21
6.14438495508992
31
0.000000000000000
  0
LINE
  5
F10905
330
F10906
100
AcDbEntity
8
Geo
100
AcDbLine
10
-32.2379652605459
20
6.14438495508992
30
0.000000000000000
11
-32.1379652605459
21
6.08051394295813
31
0.000000000000000
  0
LINE
  5
F10907
330
F10908
100
AcDbEntity
8
Geo
100
AcDbLine
10
-32.1379652605459
20
6.08051394295813
30
0.000000000000000
11
-32.0379652605459
21
6.01689545407264
31
0.000000000000000
  0
LINE
  5
F10909
330
F1090A
100
AcDbEntity
8
Geo
100
AcDbLine
10
-32.0379652605459
20
6.01689545407264
30
0.000000000000000
11
-31.9379652605459
21
5.95353435793090
31
0.000000000000000
  0
LINE
  5
F1090B
330
F1090C
100
AcDbEntity
8
Geo
100
AcDbLine
10
-31.9379652605459
20
5.95353435793090
30
0.000000000000000
11
-31.8379652605459
21
5.89043550432898
31
0.000000000000000
  0
LINE
  5
F1090D
330
F1090E
100
AcDbEntity
8
Geo
100
AcDbLine
10
-31.8379652605459
20
5.89043550432898
30
0.000000000000000
11
-31.7379652605459
21
5.82760372299033
31
0.000000000000000
  0
LINE
  5
F1090F
330
F10910
100
AcDbEntity
8
Geo
100
AcDbLine
10
-31.7379652605459
20
5.82760372299033
30
0.000000000000000
11
-31.6379652605459
21
5.76504382319609
31
0.000000000000000
  0
LINE
  5
F10911
330
F10912
100
AcDbEntity
8
Geo
100
AcDbLine
10
-31.6379652605459
20
5.76504382319609
30
0.000000000000000
11
-31.5379652605459
21
5.70276059341703
31
0.000000000000000
  0
LINE
  5
F10913
330
F10914
100
AcDbEntity
8
Geo
100
AcDbLine
10
-31.5379652605459
20
5.70276059341703
30
0.000000000000000
11
-31.4379652605459
21
5.64075880094695
31
0.000000000000000
  0
LINE
  5
F10915
330
F10916
100
AcDbEntity
8
Geo
100
AcDbLine
10
-31.4379652605459
20
5.64075880094695
30
0.000000000000000
11
-31.3379652605459
21
5.57904319153787
31
0.000000000000000
  0
LINE
  5
F10917
330
F10918
100
AcDbEntity
8
Geo
100
AcDbLine
10
-31.3379652605459
20
5.57904319153787
30
0.000000000000000
11
-31.2379652605459
21
5.51761848903671
31
0.000000000000000
  0
LINE
  5
F10919
330
F1091A
100
AcDbEntity
8
Geo
100
AcDbLine
10
-31.2379652605459
20
5.51761848903671
30
0.000000000000000
11
-31.1379652605459
21
5.45648939502376
31
0.000000000000000
  0
LINE
  5
F1091B
330
F1091C
100
AcDbEntity
8
Geo
100
AcDbLine
10
-31.1379652605459
20
5.45648939502376
30
0.000000000000000
11
-31.0379652605459
21
5.39566058845277
31
0.000000000000000
  0
LINE
  5
F1091D
330
F1091E
100
AcDbEntity
8
Geo
100
AcDbLine
10
-54.9379652605459
20
9.37965260545906
30
0.000000000000000
11
-54.9379652605459
21
9.37965260545906
31
0.000000000000000
  0
LINE
  5
F1091F
330
F10920
100
AcDbEntity
8
Geo
100
AcDbLine
10
-54.9379652605459
20
9.37965260545906
30
0.000000000000000
11
-54.9379652605459
21
9.37965260545906
31
0.000000000000000
  0
LINE
  5
F10921
330
F10922
100
AcDbEntity
8
Geo
100
AcDbLine
10
75.0620347394541
20
17.1796526054591
30
0.000000000000000
11
75.0620347394541
21
9.37965260545906
31
0.000000000000000
  0
LINE
  5
F10923
330
F10924
100
AcDbEntity
8
Geo
100
AcDbLine
10
-54.9379652605459
20
9.37965260545906
30
0.000000000000000
11
-54.9379652605459
21
1.37965260545906
31
0.000000000000000
  0
LINE
  5
F10925
330
F10926
100
AcDbEntity
8
Geo
100
AcDbLine
10
-54.9379652605459
20
1.37965260545906
30
0.000000000000000
11
-30.9379652605459
21
1.37965260545906
31
0.000000000000000
  0
LINE
  5
F10927
330
F10928
100
AcDbEntity
8
Geo
100
AcDbLine
10
-30.9379652605459
20
1.37965260545906
30
0.000000000000000
11
-30.9379652605459
21
1.62965260545906
31
0.000000000000000
  0
LINE
  5
F10929
330
F1092A
100
AcDbEntity
8
Geo
100
AcDbLine
10
-30.9379652605459
20
1.62965260545906
30
0.000000000000000
11
25.0620347394541
21
1.62965260545906
31
0.000000000000000
  0
LINE
  5
F1092B
330
F1092C
100
AcDbEntity
8
Geo
100
AcDbLine
10
25.0620347394541
20
1.62965260545906
30
0.000000000000000
11
25.0620347394541
21
1.37965260545906
31
0.000000000000000
  0
LINE
  5
F1092D
330
F1092E
100
AcDbEntity
8
Geo
100
AcDbLine
10
25.0620347394541
20
1.37965260545906
30
0.000000000000000
11
74.8620347394541
21
1.37965260545906
31
0.000000000000000
  0
LINE
  5
F1092F
330
F10930
100
AcDbEntity
8
Geo
100
AcDbLine
10
74.8620347394541
20
1.37965260545906
30
0.000000000000000
11
75.0620347394541
21
1.57965260545906
31
0.000000000000000
  0
LINE
  5
F10931
330
F10932
100
AcDbEntity
8
Geo
100
AcDbLine
10
-54.9379652605459
20
17.3796526054591
30
0.000000000000000
11
-54.9379652605459
21
1.37965260545906
31
0.000000000000000
  0
LINE
  5
F10933
330
F10934
100
AcDbEntity
8
Geo
100
AcDbLine
10
-30.9379652605459
20
17.3796526054591
30
0.000000000000000
11
-30.9379652605459
21
1.37965260545906
31
0.000000000000000
  0
LINE
  5
F10935
330
F10936
100
AcDbEntity
8
Geo
100
AcDbLine
10
-30.9379652605459
20
17.1296526054591
30
0.000000000000000
11
-30.9379652605459
21
1.62965260545906
31
0.000000000000000
  0
LINE
  5
F10937
330
F10938
100
AcDbEntity
8
Geo
100
AcDbLine
10
25.0620347394541
20
17.1296526054591
30
0.000000000000000
11
25.0620347394541
21
1.62965260545906
31
0.000000000000000
  0
LINE
  5
F10939
330
F1093A
100
AcDbEntity
8
Geo
100
AcDbLine
10
74.8620347394541
20
17.3796526054591
30
0.000000000000000
11
74.8620347394541
21
1.37965260545906
31
0.000000000000000
  0
LINE
  5
F1093B
330
F1093C
100
AcDbEntity
8
Geo
100
AcDbLine
10
75.0620347394541
20
17.1796526054591
30
0.000000000000000
11
75.0620347394541
21
1.57965260545906
31
0.000000000000000
  0
LWPOLYLINE
  5
F1093D
330
F1093E
100
AcDbEntity
8
Rahmen
100
AcDbPolyline
90
   4
70
   1
43
   0.0
 10
-170.977667493797
 20
108.000000000000
 10
-170.977667493797
 20
108.000000000000
 10
-170.977667493797
 20
108.000000000000
 10
-170.977667493797
 20
108.000000000000
  0
TEXT
  5
F1093F
330
F10940
 100
AcDbEntity
8
Text
100
AcDbText
10
-170.977667493797
20
108.500000000000
30
0.000000000000000
40
1.00000000000000
1
 -       
100
AcDbText
  0
LWPOLYLINE
  5
F10941
330
F10942
100
AcDbEntity
8
Rahmen
100
AcDbPolyline
90
   4
70
   1
43
   0.0
 10
-125.687344913151
 20
102.908188585608
 10
134.263027295285
 20
102.908188585608
 10
134.263027295285
 20
-103.176178660050
 10
-125.687344913151
 20
-103.176178660050
  0
TEXT
  5
F10943
330
F10944
 100
AcDbEntity
8
Text
100
AcDbText
10
-124.615384615385
20
-102.676178660050
30
0.000000000000000
40
1.00000000000000
1
ISBESketcher
100
AcDbText
  0
LWPOLYLINE
  5
F10945
330
F10946
100
AcDbEntity
8
Rahmen
100
AcDbPolyline
90
   4
70
   1
43
   0.0
 10
94.3325062034740
 20
-100.228287841191
 10
134.263027295285
 20
-100.228287841191
 10
134.263027295285
 20
-103.176178660050
 10
94.3325062034740
 20
-103.176178660050
  0
TEXT
  5
F10947
330
F10948
 100
AcDbEntity
8
Text
100
AcDbText
10
95.4044665012407
20
-101.228287841191
30
0.000000000000000
40
0.750000000000000
1
Created by:
100
AcDbText
  0
TEXT
  5
F10949
330
F1094A
 100
AcDbEntity
8
Text
100
AcDbText
10
118.987593052109
20
-101.228287841191
30
0.000000000000000
40
0.750000000000000
1
nsarkol
100
AcDbText
  0
LWPOLYLINE
  5
F1094B
330
F1094C
100
AcDbEntity
8
Rahmen
100
AcDbPolyline
90
   4
70
   1
43
   0.0
 10
54.4019851116625
 20
-100.228287841191
 10
94.3325062034740
 20
-100.228287841191
 10
94.3325062034740
 20
-103.176178660050
 10
54.4019851116625
 20
-103.176178660050
  0
TEXT
  5
F1094D
330
F1094E
 100
AcDbEntity
8
Text
100
AcDbText
10
55.4739454094293
20
-101.228287841191
30
0.000000000000000
40
0.750000000000000
1
Created for:
100
AcDbText
  0
TEXT
  5
F1094F
330
F10950
 100
AcDbEntity
8
Text
100
AcDbText
10
82.2729528535980
20
-102.568238213400
30
0.000000000000000
40
0.750000000000000
1

100
AcDbText
  0
LWPOLYLINE
  5
F10951
330
F10952
100
AcDbEntity
8
Rahmen
100
AcDbPolyline
90
   4
70
   1
43
   0.0
 10
121.131513647643
 20
-97.0124069478908
 10
134.263027295285
 20
-97.0124069478908
 10
134.263027295285
 20
-100.228287841191
 10
121.131513647643
 20
-100.228287841191
  0
TEXT
  5
F10953
330
F10954
 100
AcDbEntity
8
Text
100
AcDbText
10
121.935483870968
20
-98.0124069478908
30
0.000000000000000
40
0.750000000000000
1
Pages
100
AcDbText
  0
TEXT
  5
F10955
330
F10956
 100
AcDbEntity
8
Text
100
AcDbText
10
132.119106699752
20
-99.3523573200993
30
0.000000000000000
40
0.750000000000000
1

100
AcDbText
  0
LWPOLYLINE
  5
F10957
330
F10958
100
AcDbEntity
8
Rahmen
100
AcDbPolyline
90
   4
70
   1
43
   0.0
 10
121.131513647643
 20
-94.0645161290323
 10
134.263027295285
 20
-94.0645161290323
 10
134.263027295285
 20
-97.0124069478908
 10
121.131513647643
 20
-97.0124069478908
  0
TEXT
  5
F10959
330
F1095A
 100
AcDbEntity
8
Text
100
AcDbText
10
121.935483870968
20
-95.0645161290323
30
0.000000000000000
40
0.750000000000000
1
Page
100
AcDbText
  0
TEXT
  5
F1095B
330
F1095C
 100
AcDbEntity
8
Text
100
AcDbText
10
132.119106699752
20
-96.4044665012407
30
0.000000000000000
40
0.750000000000000
1

100
AcDbText
  0
LWPOLYLINE
  5
F1095D
330
F1095E
100
AcDbEntity
8
Rahmen
100
AcDbPolyline
90
   4
70
   1
43
   0.0
 10
54.4019851116625
 20
-94.0645161290323
 10
121.131513647643
 20
-94.0645161290323
 10
121.131513647643
 20
-100.228287841191
 10
54.4019851116625
 20
-100.228287841191
  0
TEXT
  5
F1095F
330
F10960
 100
AcDbEntity
8
Text
100
AcDbText
10
55.4739454094293
20
-95.0645161290323
30
0.000000000000000
40
0.750000000000000
1
Date:
100
AcDbText
  0
TEXT
  5
F10961
330
F10962
 100
AcDbEntity
8
Text
100
AcDbText
10
82.8089330024814
20
-98.0124069478908
30
0.000000000000000
40
0.750000000000000
1
05.07.2016
100
AcDbText
  0
LWPOLYLINE
  5
F10963
330
F10964
100
AcDbEntity
8
Rahmen
100
AcDbPolyline
90
   4
70
   1
43
   0.0
 10
54.4019851116625
 20
-88.1687344913151
 10
134.263027295285
 20
-88.1687344913151
 10
134.263027295285
 20
-94.0645161290323
 10
54.4019851116625
 20
-94.0645161290323
  0
TEXT
  5
F10965
330
F10966
 100
AcDbEntity
8
Text
100
AcDbText
10
-170.977667493797
20
106.000000000000
30
0.000000000000000
40
1.50000000000000
1

100
AcDbText
  0
TEXT
  5
F10967
330
F10968
 100
AcDbEntity
8
Text
100
AcDbText
10
70.4813895781638
20
-91.7700578990902
30
0.000000000000000
40
2.50000000000000
1
VHLA31601001615L080
100
AcDbText
  0
LWPOLYLINE
  5
F10969
330
F1096A
100
AcDbEntity
8
Rahmen
100
AcDbPolyline
90
   4
70
   1
43
   0.0
 10
94.3325062034740
 20
-82.0049627791563
 10
134.263027295285
 20
-82.0049627791563
 10
134.263027295285
 20
-88.1687344913151
 10
94.3325062034740
 20
-88.1687344913151
  0
TEXT
  5
F1096B
330
F1096C
 100
AcDbEntity
8
Text
100
AcDbText
10
95.4044665012407
20
-83.0049627791563
30
0.000000000000000
40
0.750000000000000
1
Work piece material:
100
AcDbText
  0
TEXT
  5
F1096D
330
F1096E
 100
AcDbEntity
8
Text
100
AcDbText
10
114.163771712159
20
-87.5607940446650
30
0.000000000000000
40
0.750000000000000
1

100
AcDbText
  0
LWPOLYLINE
  5
F1096F
330
F10970
100
AcDbEntity
8
Rahmen
100
AcDbPolyline
90
   4
70
   1
43
   0.0
 10
54.4019851116625
 20
-82.0049627791563
 10
94.3325062034740
 20
-82.0049627791563
 10
94.3325062034740
 20
-88.1687344913151
 10
54.4019851116625
 20
-88.1687344913151
  0
TEXT
  5
F10971
330
F10972
 100
AcDbEntity
8
Text
100
AcDbText
10
55.4739454094293
20
-83.0049627791563
30
0.000000000000000
40
0.750000000000000
1
Tool material:
100
AcDbText
  0
TEXT
  5
F10973
330
F10974
 100
AcDbEntity
8
Text
100
AcDbText
10
74.2332506203474
20
-87.5607940446650
30
0.000000000000000
40
0.750000000000000
1

100
AcDbText
  0
LWPOLYLINE
  5
F10975
330
F10976
100
AcDbEntity
8
Rahmen
100
AcDbPolyline
90
   4
70
   1
43
   0.0
 10
94.3325062034740
 20
-79.0570719602978
 10
134.263027295285
 20
-79.0570719602978
 10
134.263027295285
 20
-82.0049627791563
 10
94.3325062034740
 20
-82.0049627791563
  0
TEXT
  5
F10977
330
F10978
 100
AcDbEntity
8
Text
100
AcDbText
10
-170.977667493797
20
106.000000000000
30
0.000000000000000
40
1.50000000000000
1

100
AcDbText
  0
TEXT
  5
F10979
330
F1097A
 100
AcDbEntity
8
Text
100
AcDbText
10
114.163771712159
20
-81.3970223325062
30
0.000000000000000
40
0.750000000000000
1

100
AcDbText
  0
LWPOLYLINE
  5
F1097B
330
F1097C
100
AcDbEntity
8
Rahmen
100
AcDbPolyline
90
   4
70
   1
43
   0.0
 10
54.4019851116625
 20
-79.0570719602978
 10
94.3325062034740
 20
-79.0570719602978
 10
94.3325062034740
 20
-82.0049627791563
 10
54.4019851116625
 20
-82.0049627791563
  0
TEXT
  5
F1097D
330
F1097E
 100
AcDbEntity
8
Text
100
AcDbText
10
55.4739454094293
20
-80.0570719602978
30
0.000000000000000
40
0.750000000000000
1
Scale:
100
AcDbText
  0
TEXT
  5
F1097F
330
F10980
 100
AcDbEntity
8
Text
100
AcDbText
10
80.3970223325062
20
-80.0570719602978
30
0.000000000000000
40
0.750000000000000
1
1 : 1
100
AcDbText
0
VIEWPORT
5
294
102
{ACAD_XDICTIONARY
360
58A
102
}
330
25D
100
AcDbEntity
67
1
8
0
60
1
100
AcDbViewport
10
0.0
20
0.0
30
0.0
40
10.0
41
10.0
68
-1
69
1
12
0.0
22
0.0
13
0.0
23
0.0
14
1.0
24
1.0
15
0.0
25
0.0
16
0.0
26
0.0
36
1.0
17
0.0
27
0.0
37
0.0
42
0.0
43
0.0
44
0.0
45
10.0
50
0.0
51
0.0000000000007958
72
100
90
32800
1

281
0
71
0
74
0
110
0.0
120
0.0
130
0.0
111
1.0
121
0.0
131
0.0
112
0.0
122
1.0
132
0.0
79
0
146
0.0
1001
VD_INVISIBLE_NOT_FOR_READ
1000
VD_INVISIBLE_NOT_FOR_READ
0
VIEWPORT
5
295
102
{ACAD_XDICTIONARY
360
58C
102
}
330
25D
100
AcDbEntity
67
1
8
0
60
1
100
AcDbViewport
10
0.0
20
0.0
30
0.0
40
10.0
41
10.0
68
0
69
2
12
0.0
22
0.0
13
0.0
23
0.0
14
1.0
24
1.0
15
0.0
25
0.0
16
0.0
26
0.0
36
1.0
17
0.0
27
0.0
37
0.0
42
0.0
43
0.0
44
0.0
45
10.0
50
0.0
51
0.0000000000007958
72
100
90
163872
1

281
0
71
0
74
0
110
0.0
120
0.0
130
0.0
111
1.0
121
0.0
131
0.0
112
0.0
122
1.0
132
0.0
79
0
146
0.0
1001
VD_INVISIBLE_NOT_FOR_READ
1000
VD_INVISIBLE_NOT_FOR_READ
0
ENDSEC
0
SECTION
2
OBJECTS
0
DICTIONARY
5
13
330
0
100
AcDbDictionary
281
1
3
ACAD_COLOR
350
FA7
3
ACAD_GROUP
350
14
3
ACAD_LAYOUT
350
FCF
3
ACAD_MATERIAL
350
F7A
3
ACAD_MLEADERSTYLE
350
FCD
3
ACAD_MLINESTYLE
350
16
3
ACAD_PLOTSETTINGS
350
17
3
ACAD_PLOTSTYLENAME
350
18
3
ACAD_SCALELIST
350
FAB
3
ACAD_TABLESTYLE
350
FA8
3
ACAD_VISUALSTYLE
350
F93
3
ACDB_RECOMPOSE_DATA
350
107E
3
AcDbVariableDictionary
350
FF0
3
DWGPROPS
350
107F
0
DICTIONARY
5
F1000F
330
F1000E
100
AcDbDictionary
280
1
281
1
3
ACAD_MTEXT_2008_RT
360
F10010
0
DICTIONARY
5
F10014
330
F10013
100
AcDbDictionary
280
1
281
1
3
ACAD_MTEXT_2008_RT
360
F10015
0
DICTIONARY
5
F1001E
330
F1001D
100
AcDbDictionary
280
1
281
1
3
ACAD_MTEXT_2008_RT
360
F1001F
0
DICTIONARY
5
F10023
330
F10022
100
AcDbDictionary
280
1
281
1
3
ACAD_MTEXT_2008_RT
360
F10024
0
DICTIONARY
5
F10005
330
F10004
100
AcDbDictionary
280
1
281
1
3
ACAD_MTEXT_2008_RT
360
F10006
0
DICTIONARY
5
F1000A
330
F10009
100
AcDbDictionary
280
1
281
1
3
ACAD_MTEXT_2008_RT
360
F1000B
0
DICTIONARY
5
F10019
330
F10018
100
AcDbDictionary
280
1
281
1
3
ACAD_MTEXT_2008_RT
360
F1001A
0
DICTIONARY
5
FA7
102
{ACAD_REACTORS
330
13
102
}
330
13
100
AcDbDictionary
281
1
0
DICTIONARY
5
14
330
13
100
AcDbDictionary
281
1
0
DICTIONARY
5
FCF
102
{ACAD_REACTORS
330
13
102
}
330
13
100
AcDbDictionary
281
1
3
Layout1
350
FD1
3
Model
350
FD0
0
DICTIONARY
5
F7A
102
{ACAD_REACTORS
330
13
102
}
330
13
100
AcDbDictionary
281
1
3
ByBlock
350
F83
3
ByLayer
350
F7B
3
Global
350
F8B
0
DICTIONARY
5
FCD
102
{ACAD_REACTORS
330
13
102
}
330
13
100
AcDbDictionary
281
1
3
Standard
350
FCE
0
DICTIONARY
5
16
330
13
100
AcDbDictionary
281
1
3
Standard
350
FAA
0
DICTIONARY
5
17
102
{ACAD_REACTORS
330
13
102
}
330
13
100
AcDbDictionary
281
1
0
ACDBDICTIONARYWDFLT
5
18
102
{ACAD_REACTORS
330
13
102
}
330
13
100
AcDbDictionary
281
1
3
Normal
350
19
100
AcDbDictionaryWithDefault
340
19
0
DICTIONARY
5
FAB
102
{ACAD_REACTORS
330
13
102
}
330
13
100
AcDbDictionary
281
1
3
A0
350
FAC
3
A1
350
FAD
3
A2
350
FAE
3
A3
350
FAF
3
A4
350
FB0
3
A5
350
FB1
3
A6
350
FB2
3
A7
350
FB3
3
A8
350
FB4
3
A9
350
FB5
3
B0
350
FB6
3
B1
350
FB7
3
B2
350
FB8
3
B3
350
FB9
3
B4
350
FBA
3
B5
350
FBB
3
B6
350
FBC
3
B7
350
FBD
3
B8
350
FBE
3
B9
350
FBF
3
C0
350
FC0
3
C1
350
FC1
3
C2
350
FC2
3
C3
350
FC3
3
C4
350
FC4
3
C5
350
FC5
3
C6
350
FC6
3
C7
350
FC7
3
C8
350
FC8
3
C9
350
FC9
3
D0
350
FCA
3
D1
350
FCB
3
D2
350
FCC
0
DICTIONARY
5
FA8
102
{ACAD_REACTORS
330
13
102
}
330
13
100
AcDbDictionary
281
1
3
Standard
350
FA9
0
DICTIONARY
5
F93
102
{ACAD_REACTORS
330
13
102
}
330
13
100
AcDbDictionary
281
1
3
2dWireframe
350
F99
3
3D Hidden
350
F9B
3
3dWireframe
350
F9A
3
Basic
350
F98
3
Brighten
350
F9F
3
ColorChange
350
FA3
3
Conceptual
350
F9C
3
Dim
350
F9E
3
EdgeColorOff
350
FA6
3
Facepattern
350
FA2
3
Flat
350
F94
3
FlatWithEdges
350
F95
3
Gouraud
350
F96
3
GouraudWithEdges
350
F97
3
JitterOff
350
FA4
3
Linepattern
350
FA1
3
OverhangOff
350
FA5
3
Realistic
350
F9D
3
Thicken
350
FA0
0
XRECORD
5
107E
102
{ACAD_REACTORS
330
13
102
}
330
13
100
AcDbXrecord
280
1
90
1
330
FA9
330
F1000E
330
F10013
330
F1001D
330
F10022
330
F10004
330
F10009
330
F10018
0
DICTIONARY
5
FF0
102
{ACAD_REACTORS
330
13
102
}
330
13
100
AcDbDictionary
281
1
3
CANNOSCALE
350
FF3
3
CMLEADERSTYLE
350
FF2
3
CTABLESTYLE
350
FF1
3
DIMASSOC
350
FF6
3
INDEXCTL
350
FF5
3
SORTENTS
350
FF4
3
XCLIPFRAME
350
1078
0
XRECORD
5
107F
102
{ACAD_REACTORS
330
13
102
}
330
13
100
AcDbXrecord
280
1
1
DWGPROPS COOKIE
2

3

4

6

7

8

9

300
=
301
=
302
=
303
=
304
=
305
=
306
=
307
=
308
=
309
=
40
0.0
41
0.0
42
0.0
1

90
0
0
XRECORD
5
F10010
102
{ACAD_REACTORS
330
F1000F
102
}
330
F1000F
100
AcDbXrecord
280
1
40
48458.0
1
\A1;80
0
XRECORD
5
F10015
102
{ACAD_REACTORS
330
F10014
102
}
330
F10014
100
AcDbXrecord
280
1
40
48458.0
1
\A1;50
0
XRECORD
5
F1001F
102
{ACAD_REACTORS
330
F1001E
102
}
330
F1001E
100
AcDbXrecord
280
1
40
48458.0
1
\A1;24
0
XRECORD
5
F10024
102
{ACAD_REACTORS
330
F10023
102
}
330
F10023
100
AcDbXrecord
280
1
40
48458.0
1
\A1;130
0
XRECORD
5
F10006
102
{ACAD_REACTORS
330
F10005
102
}
330
F10005
100
AcDbXrecord
280
1
40
48458.0
1
\A1;16
0
XRECORD
5
F1000B
102
{ACAD_REACTORS
330
F1000A
102
}
330
F1000A
100
AcDbXrecord
280
1
40
48458.0
1
\A1;15.5
0
LAYOUT
5
FD1
102
{ACAD_XDICTIONARY
360
10A9
102
}
102
{ACAD_REACTORS
330
FCF
102
}
330
FCF
100
AcDbPlotSettings
1

2
Microsoft XPS Document Writer
4

6

40
0.0
41
0.0
42
0.0
43
0.0
44
0.0
45
0.0
46
0.0
47
0.0
48
0.0
49
0.0
140
0.0
141
0.0
142
1.0
143
1.0
70
688
72
0
73
0
74
5
7

75
16
147
1.0
148
0.0
149
0.0
100
AcDbLayout
1
Layout1
70
1
71
1
10
0.0
20
0.0
11
12.0
21
9.0
12
0.0
22
0.0
32
0.0
14
1.000000000000000E+20
24
1.000000000000000E+20
34
1.000000000000000E+20
15
-1.000000000000000E+20
25
-1.000000000000000E+20
35
-1.000000000000000E+20
146
0.0
13
0.0
23
0.0
33
0.0
16
1.0
26
0.0
36
0.0
17
0.0
27
1.0
37
0.0
76
0
330
25D
0
LAYOUT
5
FD0
102
{ACAD_XDICTIONARY
360
10A7
102
}
102
{ACAD_REACTORS
330
FCF
102
}
330
FCF
100
AcDbPlotSettings
1

2
Microsoft XPS Document Writer
4

6

40
0.0
41
0.0
42
0.0
43
0.0
44
0.0
45
0.0
46
0.0
47
0.0
48
0.0
49
0.0
140
0.0
141
0.0
142
1.0
143
1.0
70
1712
72
0
73
0
74
0
7

75
0
147
1.0
148
0.0
149
0.0
100
AcDbLayout
1
Model
70
1
71
0
10
0.0
20
0.0
11
12.0
21
9.0
12
0.0
22
0.0
32
0.0
14
0.0
24
0.0
34
0.0
15
0.0
25
0.0
35
0.0
146
0.0
13
0.0
23
0.0
33
0.0
16
1.0
26
0.0
36
0.0
17
0.0
27
1.0
37
0.0
76
0
330
261
331
26B
0
MATERIAL
5
F83
102
{ACAD_XDICTIONARY
360
F84
102
}
102
{ACAD_REACTORS
330
F7A
102
}
330
F7A
100
AcDbMaterial
1
ByBlock
72
0
43
0.0208333333333333
43
0.0
43
0.0
43
0.0
43
0.0
43
0.0208333333333333
43
0.0
43
0.0
43
0.0
43
0.0
43
1.0
43
0.0
43
0.0
43
0.0
43
0.0
43
1.0
77
0
47
0.0208333333333333
47
0.0
47
0.0
47
0.0
47
0.0
47
0.0208333333333333
47
0.0
47
0.0
47
0.0
47
0.0
47
1.0
47
0.0
47
0.0
47
0.0
47
0.0
47
1.0
171
0
49
0.0208333333333333
49
0.0
49
0.0
49
0.0
49
0.0
49
0.0208333333333333
49
0.0
49
0.0
49
0.0
49
0.0
49
1.0
49
0.0
49
0.0
49
0.0
49
0.0
49
1.0
175
0
142
0.0208333333333333
142
0.0
142
0.0
142
0.0
142
0.0
142
0.0208333333333333
142
0.0
142
0.0
142
0.0
142
0.0
142
1.0
142
0.0
142
0.0
142
0.0
142
0.0
142
1.0
179
0
144
0.0208333333333333
144
0.0
144
0.0
144
0.0
144
0.0
144
0.0208333333333333
144
0.0
144
0.0
144
0.0
144
0.0
144
1.0
144
0.0
144
0.0
144
0.0
144
0.0
144
1.0
147
0.0208333333333333
147
0.0
147
0.0
147
0.0
147
0.0
147
0.0208333333333333
147
0.0
147
0.0
147
0.0
147
0.0
147
1.0
147
0.0
147
0.0
147
0.0
147
0.0
147
1.0
0
MATERIAL
5
F7B
102
{ACAD_XDICTIONARY
360
F7C
102
}
102
{ACAD_REACTORS
330
F7A
102
}
330
F7A
100
AcDbMaterial
1
ByLayer
72
0
43
0.0208333333333333
43
0.0
43
0.0
43
0.0
43
0.0
43
0.0208333333333333
43
0.0
43
0.0
43
0.0
43
0.0
43
1.0
43
0.0
43
0.0
43
0.0
43
0.0
43
1.0
77
0
47
0.0208333333333333
47
0.0
47
0.0
47
0.0
47
0.0
47
0.0208333333333333
47
0.0
47
0.0
47
0.0
47
0.0
47
1.0
47
0.0
47
0.0
47
0.0
47
0.0
47
1.0
171
0
49
0.0208333333333333
49
0.0
49
0.0
49
0.0
49
0.0
49
0.0208333333333333
49
0.0
49
0.0
49
0.0
49
0.0
49
1.0
49
0.0
49
0.0
49
0.0
49
0.0
49
1.0
175
0
142
0.0208333333333333
142
0.0
142
0.0
142
0.0
142
0.0
142
0.0208333333333333
142
0.0
142
0.0
142
0.0
142
0.0
142
1.0
142
0.0
142
0.0
142
0.0
142
0.0
142
1.0
179
0
144
0.0208333333333333
144
0.0
144
0.0
144
0.0
144
0.0
144
0.0208333333333333
144
0.0
144
0.0
144
0.0
144
0.0
144
1.0
144
0.0
144
0.0
144
0.0
144
0.0
144
1.0
147
0.0208333333333333
147
0.0
147
0.0
147
0.0
147
0.0
147
0.0208333333333333
147
0.0
147
0.0
147
0.0
147
0.0
147
1.0
147
0.0
147
0.0
147
0.0
147
0.0
147
1.0
0
MATERIAL
5
F8B
102
{ACAD_XDICTIONARY
360
F8C
102
}
102
{ACAD_REACTORS
330
F7A
102
}
330
F7A
100
AcDbMaterial
1
Global
72
0
43
0.0208333333333333
43
0.0
43
0.0
43
0.0
43
0.0
43
0.0208333333333333
43
0.0
43
0.0
43
0.0
43
0.0
43
1.0
43
0.0
43
0.0
43
0.0
43
0.0
43
1.0
77
0
47
0.0208333333333333
47
0.0
47
0.0
47
0.0
47
0.0
47
0.0208333333333333
47
0.0
47
0.0
47
0.0
47
0.0
47
1.0
47
0.0
47
0.0
47
0.0
47
0.0
47
1.0
171
0
49
0.0208333333333333
49
0.0
49
0.0
49
0.0
49
0.0
49
0.0208333333333333
49
0.0
49
0.0
49
0.0
49
0.0
49
1.0
49
0.0
49
0.0
49
0.0
49
0.0
49
1.0
175
0
142
0.0208333333333333
142
0.0
142
0.0
142
0.0
142
0.0
142
0.0208333333333333
142
0.0
142
0.0
142
0.0
142
0.0
142
1.0
142
0.0
142
0.0
142
0.0
142
0.0
142
1.0
179
0
144
0.0208333333333333
144
0.0
144
0.0
144
0.0
144
0.0
144
0.0208333333333333
144
0.0
144
0.0
144
0.0
144
0.0
144
1.0
144
0.0
144
0.0
144
0.0
144
0.0
144
1.0
147
0.0208333333333333
147
0.0
147
0.0
147
0.0
147
0.0
147
0.0208333333333333
147
0.0
147
0.0
147
0.0
147
0.0
147
1.0
147
0.0
147
0.0
147
0.0
147
0.0
147
1.0
0
MLEADERSTYLE
5
FCE
102
{ACAD_REACTORS
330
FCD
102
}
330
FCD
100
AcDbMLeaderStyle
170
2
171
1
172
0
90
2
40
0.0
41
0.0
173
1
91
-1056964608
340
256
92
-2
290
1
42
0.09
291
1
43
0.36
3
Standard
44
0.18
300

342
253
174
1
178
6
175
1
176
0
93
-1056964608
45
0.18
292
0
297
0
46
0.18
94
-1056964608
47
1.0
49
1.0
140
1.0
293
1
141
0.0
294
1
177
0
142
1.0
295
0
296
0
143
0.125
1001
ACAD_MLEADERVER
1070
2
0
MLINESTYLE
5
FAA
102
{ACAD_REACTORS
330
16
102
}
330
16
100
AcDbMlineStyle
2
STANDARD
70
0
3

62
256
51
90.0
52
90.0
71
2
49
0.5
62
256
6
BYLAYER
49
-0.5
62
256
6
BYLAYER
0
ACDBPLACEHOLDER
5
19
102
{ACAD_REACTORS
330
18
102
}
330
18
0
SCALE
5
FAC
102
{ACAD_REACTORS
330
FAB
102
}
330
FAB
100
AcDbScale
70
0
300
1:1
140
1.0
141
1.0
290
1
0
SCALE
5
FAD
102
{ACAD_REACTORS
330
FAB
102
}
330
FAB
100
AcDbScale
70
0
300
1:2
140
1.0
141
2.0
290
0
0
SCALE
5
FAE
102
{ACAD_REACTORS
330
FAB
102
}
330
FAB
100
AcDbScale
70
0
300
1:4
140
1.0
141
4.0
290
0
0
SCALE
5
FAF
102
{ACAD_REACTORS
330
FAB
102
}
330
FAB
100
AcDbScale
70
0
300
1:5
140
1.0
141
5.0
290
0
0
SCALE
5
FB0
102
{ACAD_REACTORS
330
FAB
102
}
330
FAB
100
AcDbScale
70
0
300
1:8
140
1.0
141
8.0
290
0
0
SCALE
5
FB1
102
{ACAD_REACTORS
330
FAB
102
}
330
FAB
100
AcDbScale
70
0
300
1:10
140
1.0
141
10.0
290
0
0
SCALE
5
FB2
102
{ACAD_REACTORS
330
FAB
102
}
330
FAB
100
AcDbScale
70
0
300
1:16
140
1.0
141
16.0
290
0
0
SCALE
5
FB3
102
{ACAD_REACTORS
330
FAB
102
}
330
FAB
100
AcDbScale
70
0
300
1:20
140
1.0
141
20.0
290
0
0
SCALE
5
FB4
102
{ACAD_REACTORS
330
FAB
102
}
330
FAB
100
AcDbScale
70
0
300
1:30
140
1.0
141
30.0
290
0
0
SCALE
5
FB5
102
{ACAD_REACTORS
330
FAB
102
}
330
FAB
100
AcDbScale
70
0
300
1:40
140
1.0
141
40.0
290
0
0
SCALE
5
FB6
102
{ACAD_REACTORS
330
FAB
102
}
330
FAB
100
AcDbScale
70
0
300
1:50
140
1.0
141
50.0
290
0
0
SCALE
5
FB7
102
{ACAD_REACTORS
330
FAB
102
}
330
FAB
100
AcDbScale
70
0
300
1:100
140
1.0
141
100.0
290
0
0
SCALE
5
FB8
102
{ACAD_REACTORS
330
FAB
102
}
330
FAB
100
AcDbScale
70
0
300
2:1
140
2.0
141
1.0
290
0
0
SCALE
5
FB9
102
{ACAD_REACTORS
330
FAB
102
}
330
FAB
100
AcDbScale
70
0
300
4:1
140
4.0
141
1.0
290
0
0
SCALE
5
FBA
102
{ACAD_REACTORS
330
FAB
102
}
330
FAB
100
AcDbScale
70
0
300
8:1
140
8.0
141
1.0
290
0
0
SCALE
5
FBB
102
{ACAD_REACTORS
330
FAB
102
}
330
FAB
100
AcDbScale
70
0
300
10:1
140
10.0
141
1.0
290
0
0
SCALE
5
FBC
102
{ACAD_REACTORS
330
FAB
102
}
330
FAB
100
AcDbScale
70
0
300
100:1
140
100.0
141
1.0
290
0
0
SCALE
5
FBD
102
{ACAD_REACTORS
330
FAB
102
}
330
FAB
100
AcDbScale
70
0
300
1/128" = 1'-0"
140
0.0078125
141
12.0
290
0
0
SCALE
5
FBE
102
{ACAD_REACTORS
330
FAB
102
}
330
FAB
100
AcDbScale
70
0
300
1/64" = 1'-0"
140
0.015625
141
12.0
290
0
0
SCALE
5
FBF
102
{ACAD_REACTORS
330
FAB
102
}
330
FAB
100
AcDbScale
70
0
300
1/32" = 1'-0"
140
0.03125
141
12.0
290
0
0
SCALE
5
FC0
102
{ACAD_REACTORS
330
FAB
102
}
330
FAB
100
AcDbScale
70
0
300
1/16" = 1'-0"
140
0.0625
141
12.0
290
0
0
SCALE
5
FC1
102
{ACAD_REACTORS
330
FAB
102
}
330
FAB
100
AcDbScale
70
0
300
3/32" = 1'-0"
140
0.09375
141
12.0
290
0
0
SCALE
5
FC2
102
{ACAD_REACTORS
330
FAB
102
}
330
FAB
100
AcDbScale
70
0
300
1/8" = 1'-0"
140
0.125
141
12.0
290
0
0
SCALE
5
FC3
102
{ACAD_REACTORS
330
FAB
102
}
330
FAB
100
AcDbScale
70
0
300
3/16" = 1'-0"
140
0.1875
141
12.0
290
0
0
SCALE
5
FC4
102
{ACAD_REACTORS
330
FAB
102
}
330
FAB
100
AcDbScale
70
0
300
1/4" = 1'-0"
140
0.25
141
12.0
290
0
0
SCALE
5
FC5
102
{ACAD_REACTORS
330
FAB
102
}
330
FAB
100
AcDbScale
70
0
300
3/8" = 1'-0"
140
0.375
141
12.0
290
0
0
SCALE
5
FC6
102
{ACAD_REACTORS
330
FAB
102
}
330
FAB
100
AcDbScale
70
0
300
1/2" = 1'-0"
140
0.5
141
12.0
290
0
0
SCALE
5
FC7
102
{ACAD_REACTORS
330
FAB
102
}
330
FAB
100
AcDbScale
70
0
300
3/4" = 1'-0"
140
0.75
141
12.0
290
0
0
SCALE
5
FC8
102
{ACAD_REACTORS
330
FAB
102
}
330
FAB
100
AcDbScale
70
0
300
1" = 1'-0"
140
1.0
141
12.0
290
0
0
SCALE
5
FC9
102
{ACAD_REACTORS
330
FAB
102
}
330
FAB
100
AcDbScale
70
0
300
1-1/2" = 1'-0"
140
1.5
141
12.0
290
0
0
SCALE
5
FCA
102
{ACAD_REACTORS
330
FAB
102
}
330
FAB
100
AcDbScale
70
0
300
3" = 1'-0"
140
3.0
141
12.0
290
0
0
SCALE
5
FCB
102
{ACAD_REACTORS
330
FAB
102
}
330
FAB
100
AcDbScale
70
0
300
6" = 1'-0"
140
6.0
141
12.0
290
0
0
SCALE
5
FCC
102
{ACAD_REACTORS
330
FAB
102
}
330
FAB
100
AcDbScale
70
0
300
1'-0" = 1'-0"
140
12.0
141
12.0
290
0
0
TABLESTYLE
5
FA9
102
{ACAD_XDICTIONARY
360
FF8
102
}
102
{ACAD_REACTORS
330
FA8
102
}
330
FA8
100
AcDbTableStyle
3
Standard
70
0
71
0
40
0.06
41
0.06
280
0
281
0
7
Standard
140
0.18
170
2
62
0
63
7
283
0
274
-2
284
1
64
0
275
-2
285
1
65
0
276
-2
286
1
66
0
277
-2
287
1
67
0
278
-2
288
1
68
0
279
-2
289
1
69
0
7
Standard
140
0.25
170
5
62
0
63
7
283
0
274
-2
284
1
64
0
275
-2
285
1
65
0
276
-2
286
1
66
0
277
-2
287
1
67
0
278
-2
288
1
68
0
279
-2
289
1
69
0
7
Standard
140
0.18
170
5
62
0
63
7
283
0
274
-2
284
1
64
0
275
-2
285
1
65
0
276
-2
286
1
66
0
277
-2
287
1
67
0
278
-2
288
1
68
0
279
-2
289
1
69
0
0
VISUALSTYLE
5
F99
102
{ACAD_XDICTIONARY
360
108A
102
}
102
{ACAD_REACTORS
330
F93
102
}
330
F93
100
AcDbVisualStyle
2

70
4
71
0
72
2
73
0
90
0
40
-0.6
41
-30.0
62
5
63
7
74
1
91
4
64
7
65
257
75
1
175
1
42
1.0
92
0
66
257
43
1.0
76
1
77
6
78
2
67
7
79
5
170
0
171
0
290
0
174
0
93
1
44
0.0
173
0
291
0
45
0.0
1001
ACAD
1000
AcDbSavedByObjectVersion
1070
0
0
VISUALSTYLE
5
F9B
102
{ACAD_XDICTIONARY
360
108E
102
}
102
{ACAD_REACTORS
330
F93
102
}
330
F93
100
AcDbVisualStyle
2

70
6
71
1
72
2
73
2
90
0
40
-0.6
41
-30.0
62
5
63
7
74
2
91
2
64
7
65
257
75
2
175
1
42
179.0
92
0
66
257
43
1.0
76
1
77
6
78
2
67
7
79
3
170
0
171
0
290
0
174
0
93
1
44
0.0
173
0
291
0
45
0.0
1001
ACAD
1000
AcDbSavedByObjectVersion
1070
0
0
VISUALSTYLE
5
F9A
102
{ACAD_XDICTIONARY
360
108C
102
}
102
{ACAD_REACTORS
330
F93
102
}
330
F93
100
AcDbVisualStyle
2

70
5
71
0
72
2
73
0
90
0
40
-0.6
41
-30.0
62
5
63
7
74
1
91
4
64
7
65
257
75
1
175
1
42
1.0
92
0
66
257
43
1.0
76
1
77
6
78
2
67
7
79
5
170
0
171
0
290
0
174
0
93
1
44
0.0
173
0
291
0
45
0.0
1001
ACAD
1000
AcDbSavedByObjectVersion
1070
0
0
VISUALSTYLE
5
F98
102
{ACAD_XDICTIONARY
360
1088
102
}
102
{ACAD_REACTORS
330
F93
102
}
330
F93
100
AcDbVisualStyle
2

70
7
71
1
72
0
73
1
90
0
40
-0.6
41
-30.0
62
5
63
7
74
0
91
4
64
7
65
257
75
1
175
1
42
1.0
92
8
66
7
43
1.0
76
1
77
6
78
2
67
7
79
5
170
0
171
0
290
0
174
0
93
1
44
0.0
173
0
291
1
45
0.0
1001
ACAD
1000
AcDbSavedByObjectVersion
1070
0
0
VISUALSTYLE
5
F9F
102
{ACAD_XDICTIONARY
360
1096
102
}
102
{ACAD_REACTORS
330
F93
102
}
330
F93
100
AcDbVisualStyle
2

70
12
71
2
72
2
73
0
90
0
40
-0.6
41
-30.0
62
5
63
7
74
1
91
4
64
7
65
257
75
1
175
1
42
1.0
92
8
66
7
43
1.0
76
1
77
6
78
2
67
7
79
5
170
0
171
0
290
0
174
0
93
1
44
50.0
173
0
291
1
45
0.0
1001
ACAD
1000
AcDbSavedByObjectVersion
1070
0
0
VISUALSTYLE
5
FA3
102
{ACAD_XDICTIONARY
360
109E
102
}
102
{ACAD_REACTORS
330
F93
102
}
330
F93
100
AcDbVisualStyle
2

70
16
71
2
72
2
73
3
90
0
40
-0.6
41
-30.0
62
5
63
8
74
1
91
4
64
7
65
257
75
1
175
1
42
1.0
92
8
66
8
43
1.0
76
1
77
6
78
2
67
7
79
5
170
0
171
0
290
0
174
0
93
1
44
0.0
173
0
291
1
45
0.0
1001
ACAD
1000
AcDbSavedByObjectVersion
1070
0
0
VISUALSTYLE
5
F9C
102
{ACAD_XDICTIONARY
360
1090
102
}
102
{ACAD_REACTORS
330
F93
102
}
330
F93
100
AcDbVisualStyle
2

70
9
71
3
72
2
73
0
90
0
40
-0.6
41
-30.0
62
5
63
7
74
2
91
2
64
7
65
257
75
1
175
1
42
179.0
92
8
66
7
43
1.0
76
1
77
6
78
2
67
7
79
3
170
0
171
0
290
0
174
0
93
1
44
0.0
173
0
291
0
45
0.0
1001
ACAD
1000
AcDbSavedByObjectVersion
1070
0
0
VISUALSTYLE
5
F9E
102
{ACAD_XDICTIONARY
360
1094
102
}
102
{ACAD_REACTORS
330
F93
102
}
330
F93
100
AcDbVisualStyle
2

70
11
71
2
72
2
73
0
90
0
40
-0.6
41
-30.0
62
5
63
7
74
1
91
4
64
7
65
257
75
1
175
1
42
1.0
92
8
66
7
43
1.0
76
1
77
6
78
2
67
7
79
5
170
0
171
0
290
0
174
0
93
1
44
-50.0
173
0
291
1
45
0.0
1001
ACAD
1000
AcDbSavedByObjectVersion
1070
0
0
VISUALSTYLE
5
FA6
102
{ACAD_XDICTIONARY
360
10A4
102
}
102
{ACAD_REACTORS
330
F93
102
}
330
F93
100
AcDbVisualStyle
2

70
22
71
2
72
2
73
0
90
0
40
-0.6
41
-30.0
62
5
63
7
74
1
91
4
64
7
65
257
75
1
175
1
42
1.0
92
8
66
7
43
1.0
76
1
77
6
78
2
67
7
79
5
170
0
171
0
290
0
174
0
93
1
44
0.0
173
0
291
1
45
0.0
1001
ACAD
1000
AcDbSavedByObjectVersion
1070
0
0
VISUALSTYLE
5
FA2
102
{ACAD_XDICTIONARY
360
109C
102
}
102
{ACAD_REACTORS
330
F93
102
}
330
F93
100
AcDbVisualStyle
2

70
15
71
2
72
2
73
0
90
0
40
-0.6
41
-30.0
62
5
63
7
74
1
91
4
64
7
65
257
75
1
175
1
42
1.0
92
8
66
7
43
1.0
76
1
77
6
78
2
67
7
79
5
170
0
171
0
290
0
174
0
93
1
44
0.0
173
0
291
1
45
0.0
1001
ACAD
1000
AcDbSavedByObjectVersion
1070
0
0
VISUALSTYLE
5
F94
102
{ACAD_XDICTIONARY
360
1080
102
}
102
{ACAD_REACTORS
330
F93
102
}
330
F93
100
AcDbVisualStyle
2

70
0
71
2
72
1
73
1
90
2
40
-0.6
41
30.0
62
5
63
7
74
0
91
4
64
7
65
257
75
1
175
1
42
1.0
92
8
66
7
43
1.0
76
1
77
6
78
2
67
7
79
5
170
0
171
0
290
0
174
0
93
13
44
0.0
173
0
291
1
45
0.0
1001
ACAD
1000
AcDbSavedByObjectVersion
1070
0
0
VISUALSTYLE
5
F95
102
{ACAD_XDICTIONARY
360
1082
102
}
102
{ACAD_REACTORS
330
F93
102
}
330
F93
100
AcDbVisualStyle
2

70
1
71
2
72
1
73
1
90
2
40
-0.6
41
30.0
62
5
63
7
74
1
91
4
64
7
65
257
75
1
175
1
42
1.0
92
0
66
257
43
1.0
76
1
77
6
78
2
67
7
79
5
170
0
171
0
290
0
174
0
93
13
44
0.0
173
0
291
1
45
0.0
1001
ACAD
1000
AcDbSavedByObjectVersion
1070
0
0
VISUALSTYLE
5
F96
102
{ACAD_XDICTIONARY
360
1084
102
}
102
{ACAD_REACTORS
330
F93
102
}
330
F93
100
AcDbVisualStyle
2

70
2
71
2
72
2
73
1
90
2
40
-0.6
41
30.0
62
5
63
7
74
0
91
4
64
7
65
257
75
1
175
1
42
1.0
92
0
66
7
43
1.0
76
1
77
6
78
2
67
7
79
5
170
0
171
0
290
0
174
0
93
13
44
0.0
173
0
291
1
45
0.0
1001
ACAD
1000
AcDbSavedByObjectVersion
1070
0
0
VISUALSTYLE
5
F97
102
{ACAD_XDICTIONARY
360
1086
102
}
102
{ACAD_REACTORS
330
F93
102
}
330
F93
100
AcDbVisualStyle
2

70
3
71
2
72
2
73
1
90
2
40
-0.6
41
30.0
62
5
63
7
74
1
91
4
64
7
65
257
75
1
175
1
42
1.0
92
0
66
257
43
1.0
76
1
77
6
78
2
67
7
79
5
170
0
171
0
290
0
174
0
93
13
44
0.0
173
0
291
1
45
0.0
1001
ACAD
1000
AcDbSavedByObjectVersion
1070
0
0
VISUALSTYLE
5
FA4
102
{ACAD_XDICTIONARY
360
10A0
102
}
102
{ACAD_REACTORS
330
F93
102
}
330
F93
100
AcDbVisualStyle
2

70
20
71
2
72
2
73
0
90
0
40
-0.6
41
-30.0
62
5
63
7
74
1
91
4
64
7
65
257
75
1
175
1
42
1.0
92
10
66
7
43
1.0
76
1
77
6
78
2
67
7
79
5
170
0
171
0
290
0
174
0
93
1
44
0.0
173
0
291
1
45
0.0
1001
ACAD
1000
AcDbSavedByObjectVersion
1070
0
0
VISUALSTYLE
5
FA1
102
{ACAD_XDICTIONARY
360
109A
102
}
102
{ACAD_REACTORS
330
F93
102
}
330
F93
100
AcDbVisualStyle
2

70
14
71
2
72
2
73
0
90
0
40
-0.6
41
-30.0
62
5
63
7
74
1
91
4
64
7
65
257
75
7
175
7
42
1.0
92
8
66
7
43
1.0
76
1
77
6
78
2
67
7
79
5
170
0
171
0
290
0
174
0
93
1
44
0.0
173
0
291
1
45
0.0
1001
ACAD
1000
AcDbSavedByObjectVersion
1070
0
0
VISUALSTYLE
5
FA5
102
{ACAD_XDICTIONARY
360
10A2
102
}
102
{ACAD_REACTORS
330
F93
102
}
330
F93
100
AcDbVisualStyle
2

70
21
71
2
72
2
73
0
90
0
40
-0.6
41
-30.0
62
5
63
7
74
1
91
4
64
7
65
257
75
1
175
1
42
1.0
92
9
66
7
43
1.0
76
1
77
6
78
2
67
7
79
5
170
0
171
0
290
0
174
0
93
1
44
0.0
173
0
291
1
45
0.0
1001
ACAD
1000
AcDbSavedByObjectVersion
1070
0
0
VISUALSTYLE
5
F9D
102
{ACAD_XDICTIONARY
360
1092
102
}
102
{ACAD_REACTORS
330
F93
102
}
330
F93
100
AcDbVisualStyle
2

70
8
71
2
72
2
73
0
90
0
40
-0.6
41
-30.0
62
5
63
7
74
1
91
0
64
7
65
257
75
1
175
1
42
1.0
92
8
66
8
43
1.0
76
1
77
6
78
2
67
7
79
5
170
0
171
0
290
0
174
0
93
13
44
0.0
173
0
291
0
45
0.0
1001
ACAD
1000
AcDbSavedByObjectVersion
1070
0
0
VISUALSTYLE
5
FA0
102
{ACAD_XDICTIONARY
360
1098
102
}
102
{ACAD_REACTORS
330
F93
102
}
330
F93
100
AcDbVisualStyle
2

70
13
71
2
72
2
73
0
90
0
40
-0.6
41
-30.0
62
5
63
7
74
1
91
4
64
7
65
257
75
1
175
1
42
1.0
92
12
66
7
43
1.0
76
1
77
6
78
2
67
7
79
5
170
0
171
0
290
0
174
0
93
1
44
0.0
173
0
291
1
45
0.0
1001
ACAD
1000
AcDbSavedByObjectVersion
1070
0
0
DICTIONARYVAR
5
FF3
102
{ACAD_REACTORS
330
FF0
102
}
330
FF0
100
DictionaryVariables
280
0
1
1:1
0
DICTIONARYVAR
5
FF2
102
{ACAD_REACTORS
330
FF0
102
}
330
FF0
100
DictionaryVariables
280
0
1
STANDARD
0
DICTIONARYVAR
5
FF1
102
{ACAD_REACTORS
330
FF0
102
}
330
FF0
100
DictionaryVariables
280
0
1
STANDARD
0
DICTIONARYVAR
5
FF6
102
{ACAD_REACTORS
330
FF0
102
}
330
FF0
100
DictionaryVariables
280
0
1
1
0
DICTIONARYVAR
5
FF5
102
{ACAD_REACTORS
330
FF0
102
}
330
FF0
100
DictionaryVariables
280
0
1
0
0
DICTIONARYVAR
5
FF4
102
{ACAD_REACTORS
330
FF0
102
}
330
FF0
100
DictionaryVariables
280
0
1
127
0
DICTIONARYVAR
5
1078
102
{ACAD_REACTORS
330
FF0
102
}
330
FF0
100
DictionaryVariables
280
0
1
2
0
DICTIONARY
5
10A9
330
FD1
100
AcDbDictionary
280
1
281
1
3
ACAD_XREC_ROUNDTRIP
360
10AA
0
DICTIONARY
5
10A7
330
FD0
100
AcDbDictionary
280
1
281
1
3
ACAD_XREC_ROUNDTRIP
360
10A8
0
DICTIONARY
5
F84
330
F83
100
AcDbDictionary
280
1
281
1
3
ACAD_XREC_ROUNDTRIP
360
FFF
3
BUMPTILE
360
F86
3
DIFFUSETILE
360
F85
3
OPACITYTILE
360
F89
3
REFLECTIONTILE
360
F88
3
REFRACTIONTILE
360
F8A
3
SPECULARTILE
360
F87
0
DICTIONARY
5
F7C
330
F7B
100
AcDbDictionary
280
1
281
1
3
ACAD_XREC_ROUNDTRIP
360
FFE
3
BUMPTILE
360
F7E
3
DIFFUSETILE
360
F7D
3
OPACITYTILE
360
F81
3
REFLECTIONTILE
360
F80
3
REFRACTIONTILE
360
F82
3
SPECULARTILE
360
F7F
0
DICTIONARY
5
F8C
330
F8B
100
AcDbDictionary
280
1
281
1
3
ACAD_XREC_ROUNDTRIP
360
1000
3
BUMPTILE
360
F8E
3
DIFFUSETILE
360
F8D
3
OPACITYTILE
360
F91
3
REFLECTIONTILE
360
F90
3
REFRACTIONTILE
360
F92
3
SPECULARTILE
360
F8F
0
DICTIONARY
5
FF8
330
FA9
100
AcDbDictionary
280
1
281
1
3
ACAD_ROUNDTRIP_2008_TABLESTYLE_CELLSTYLEMAP
360
1079
3
ACAD_XREC_ROUNDTRIP
360
10A6
0
DICTIONARY
5
108A
330
F99
100
AcDbDictionary
280
1
281
1
3
ACAD_XREC_ROUNDTRIP
360
108B
0
DICTIONARY
5
108E
330
F9B
100
AcDbDictionary
280
1
281
1
3
ACAD_XREC_ROUNDTRIP
360
108F
0
DICTIONARY
5
108C
330
F9A
100
AcDbDictionary
280
1
281
1
3
ACAD_XREC_ROUNDTRIP
360
108D
0
DICTIONARY
5
1088
330
F98
100
AcDbDictionary
280
1
281
1
3
ACAD_XREC_ROUNDTRIP
360
1089
0
DICTIONARY
5
1096
330
F9F
100
AcDbDictionary
280
1
281
1
3
ACAD_XREC_ROUNDTRIP
360
1097
0
DICTIONARY
5
109E
330
FA3
100
AcDbDictionary
280
1
281
1
3
ACAD_XREC_ROUNDTRIP
360
109F
0
DICTIONARY
5
1090
330
F9C
100
AcDbDictionary
280
1
281
1
3
ACAD_XREC_ROUNDTRIP
360
1091
0
DICTIONARY
5
1094
330
F9E
100
AcDbDictionary
280
1
281
1
3
ACAD_XREC_ROUNDTRIP
360
1095
0
DICTIONARY
5
10A4
330
FA6
100
AcDbDictionary
280
1
281
1
3
ACAD_XREC_ROUNDTRIP
360
10A5
0
DICTIONARY
5
109C
330
FA2
100
AcDbDictionary
280
1
281
1
3
ACAD_XREC_ROUNDTRIP
360
109D
0
DICTIONARY
5
1080
330
F94
100
AcDbDictionary
280
1
281
1
3
ACAD_XREC_ROUNDTRIP
360
1081
0
DICTIONARY
5
1082
330
F95
100
AcDbDictionary
280
1
281
1
3
ACAD_XREC_ROUNDTRIP
360
1083
0
DICTIONARY
5
1084
330
F96
100
AcDbDictionary
280
1
281
1
3
ACAD_XREC_ROUNDTRIP
360
1085
0
DICTIONARY
5
1086
330
F97
100
AcDbDictionary
280
1
281
1
3
ACAD_XREC_ROUNDTRIP
360
1087
0
DICTIONARY
5
10A0
330
FA4
100
AcDbDictionary
280
1
281
1
3
ACAD_XREC_ROUNDTRIP
360
10A1
0
DICTIONARY
5
109A
330
FA1
100
AcDbDictionary
280
1
281
1
3
ACAD_XREC_ROUNDTRIP
360
109B
0
DICTIONARY
5
10A2
330
FA5
100
AcDbDictionary
280
1
281
1
3
ACAD_XREC_ROUNDTRIP
360
10A3
0
DICTIONARY
5
1092
330
F9D
100
AcDbDictionary
280
1
281
1
3
ACAD_XREC_ROUNDTRIP
360
1093
0
DICTIONARY
5
1098
330
FA0
100
AcDbDictionary
280
1
281
1
3
ACAD_XREC_ROUNDTRIP
360
1099
0
XRECORD
5
10AA
102
{ACAD_REACTORS
330
10A9
102
}
330
10A9
100
AcDbXrecord
280
1
102
SHADEPLOT
70
0
102
SHADEPLOTRESLEVEL
70
2
102
SHADEPLOTCUSTOMDPI
70
300
0
XRECORD
5
10A8
102
{ACAD_REACTORS
330
10A7
102
}
330
10A7
100
AcDbXrecord
280
1
102
SHADEPLOT
70
0
102
SHADEPLOTRESLEVEL
70
2
102
SHADEPLOTCUSTOMDPI
70
300
0
XRECORD
5
FFF
102
{ACAD_REACTORS
330
F84
102
}
330
F84
100
AcDbXrecord
280
1
102
MATERIAL
148
0.0
149
0.0
149
0.0
93
0
94
127
282
0
72
0
77
0
171
0
175
0
179
0
273
0
0
XRECORD
5
F86
102
{ACAD_REACTORS
330
F84
102
}
330
F84
100
AcDbXrecord
280
1
270
1
271
1
0
XRECORD
5
F85
102
{ACAD_REACTORS
330
F84
102
}
330
F84
100
AcDbXrecord
280
1
270
1
271
1
0
XRECORD
5
F89
102
{ACAD_REACTORS
330
F84
102
}
330
F84
100
AcDbXrecord
280
1
270
1
271
1
0
XRECORD
5
F88
102
{ACAD_REACTORS
330
F84
102
}
330
F84
100
AcDbXrecord
280
1
270
1
271
1
0
XRECORD
5
F8A
102
{ACAD_REACTORS
330
F84
102
}
330
F84
100
AcDbXrecord
280
1
270
1
271
1
0
XRECORD
5
F87
102
{ACAD_REACTORS
330
F84
102
}
330
F84
100
AcDbXrecord
280
1
270
1
271
1
0
XRECORD
5
FFE
102
{ACAD_REACTORS
330
F7C
102
}
330
F7C
100
AcDbXrecord
280
1
102
MATERIAL
148
0.0
149
0.0
149
0.0
93
0
94
127
282
0
72
0
77
0
171
0
175
0
179
0
273
0
0
XRECORD
5
F7E
102
{ACAD_REACTORS
330
F7C
102
}
330
F7C
100
AcDbXrecord
280
1
270
1
271
1
0
XRECORD
5
F7D
102
{ACAD_REACTORS
330
F7C
102
}
330
F7C
100
AcDbXrecord
280
1
270
1
271
1
0
XRECORD
5
F81
102
{ACAD_REACTORS
330
F7C
102
}
330
F7C
100
AcDbXrecord
280
1
270
1
271
1
0
XRECORD
5
F80
102
{ACAD_REACTORS
330
F7C
102
}
330
F7C
100
AcDbXrecord
280
1
270
1
271
1
0
XRECORD
5
F82
102
{ACAD_REACTORS
330
F7C
102
}
330
F7C
100
AcDbXrecord
280
1
270
1
271
1
0
XRECORD
5
F7F
102
{ACAD_REACTORS
330
F7C
102
}
330
F7C
100
AcDbXrecord
280
1
270
1
271
1
0
XRECORD
5
1000
102
{ACAD_REACTORS
330
F8C
102
}
330
F8C
100
AcDbXrecord
280
1
102
MATERIAL
148
0.0
149
0.0
149
0.0
93
0
94
127
282
0
72
0
77
0
171
0
175
0
179
0
273
0
0
XRECORD
5
F8E
102
{ACAD_REACTORS
330
F8C
102
}
330
F8C
100
AcDbXrecord
280
1
270
1
271
1
0
XRECORD
5
F8D
102
{ACAD_REACTORS
330
F8C
102
}
330
F8C
100
AcDbXrecord
280
1
270
1
271
1
0
XRECORD
5
F91
102
{ACAD_REACTORS
330
F8C
102
}
330
F8C
100
AcDbXrecord
280
1
270
1
271
1
0
XRECORD
5
F90
102
{ACAD_REACTORS
330
F8C
102
}
330
F8C
100
AcDbXrecord
280
1
270
1
271
1
0
XRECORD
5
F92
102
{ACAD_REACTORS
330
F8C
102
}
330
F8C
100
AcDbXrecord
280
1
270
1
271
1
0
XRECORD
5
F8F
102
{ACAD_REACTORS
330
F8C
102
}
330
F8C
100
AcDbXrecord
280
1
270
1
271
1
0
CELLSTYLEMAP
5
1079
102
{ACAD_REACTORS
330
FF8
102
}
330
FF8
100
AcDbCellStyleMap
90
3
300
CELLSTYLE
1
TABLEFORMAT_BEGIN
90
5
170
1
91
0
92
32768
62
257
93
1
300
CONTENTFORMAT
1
CONTENTFORMAT_BEGIN
90
0
91
0
92
512
93
0
300

40
0.0
140
1.0
94
5
62
0
340
253
144
0.25
309
CONTENTFORMAT_END
171
1
301
MARGIN
1
CELLMARGIN_BEGIN
40
0.06
40
0.06
40
0.06
40
0.06
40
0.18
40
0.18
309
CELLMARGIN_END
94
6
95
1
302
GRIDFORMAT
1
GRIDFORMAT_BEGIN
90
0
91
1
62
0
92
-2
340
0
93
0
40
0.045
309
GRIDFORMAT_END
95
2
302
GRIDFORMAT
1
GRIDFORMAT_BEGIN
90
0
91
1
62
0
92
-2
340
0
93
0
40
0.045
309
GRIDFORMAT_END
95
4
302
GRIDFORMAT
1
GRIDFORMAT_BEGIN
90
0
91
1
62
0
92
-2
340
0
93
0
40
0.045
309
GRIDFORMAT_END
95
8
302
GRIDFORMAT
1
GRIDFORMAT_BEGIN
90
0
91
1
62
0
92
-2
340
0
93
0
40
0.045
309
GRIDFORMAT_END
95
16
302
GRIDFORMAT
1
GRIDFORMAT_BEGIN
90
0
91
1
62
0
92
-2
340
0
93
0
40
0.045
309
GRIDFORMAT_END
95
32
302
GRIDFORMAT
1
GRIDFORMAT_BEGIN
90
0
91
1
62
0
92
-2
340
0
93
0
40
0.045
309
GRIDFORMAT_END
309
TABLEFORMAT_END
1
CELLSTYLE_BEGIN
90
1
91
1
300
_TITLE
309
CELLSTYLE_END
300
CELLSTYLE
1
TABLEFORMAT_BEGIN
90
5
170
1
91
0
92
0
62
257
93
1
300
CONTENTFORMAT
1
CONTENTFORMAT_BEGIN
90
0
91
0
92
512
93
0
300

40
0.0
140
1.0
94
5
62
0
340
253
144
0.18
309
CONTENTFORMAT_END
171
1
301
MARGIN
1
CELLMARGIN_BEGIN
40
0.06
40
0.06
40
0.06
40
0.06
40
0.18
40
0.18
309
CELLMARGIN_END
94
6
95
1
302
GRIDFORMAT
1
GRIDFORMAT_BEGIN
90
0
91
1
62
0
92
-2
340
0
93
0
40
0.045
309
GRIDFORMAT_END
95
2
302
GRIDFORMAT
1
GRIDFORMAT_BEGIN
90
0
91
1
62
0
92
-2
340
0
93
0
40
0.045
309
GRIDFORMAT_END
95
4
302
GRIDFORMAT
1
GRIDFORMAT_BEGIN
90
0
91
1
62
0
92
-2
340
0
93
0
40
0.045
309
GRIDFORMAT_END
95
8
302
GRIDFORMAT
1
GRIDFORMAT_BEGIN
90
0
91
1
62
0
92
-2
340
0
93
0
40
0.045
309
GRIDFORMAT_END
95
16
302
GRIDFORMAT
1
GRIDFORMAT_BEGIN
90
0
91
1
62
0
92
-2
340
0
93
0
40
0.045
309
GRIDFORMAT_END
95
32
302
GRIDFORMAT
1
GRIDFORMAT_BEGIN
90
0
91
1
62
0
92
-2
340
0
93
0
40
0.045
309
GRIDFORMAT_END
309
TABLEFORMAT_END
1
CELLSTYLE_BEGIN
90
2
91
1
300
_HEADER
309
CELLSTYLE_END
300
CELLSTYLE
1
TABLEFORMAT_BEGIN
90
5
170
1
91
0
92
0
62
257
93
1
300
CONTENTFORMAT
1
CONTENTFORMAT_BEGIN
90
0
91
0
92
512
93
0
300

40
0.0
140
1.0
94
2
62
0
340
253
144
0.18
309
CONTENTFORMAT_END
171
1
301
MARGIN
1
CELLMARGIN_BEGIN
40
0.06
40
0.06
40
0.06
40
0.06
40
0.18
40
0.18
309
CELLMARGIN_END
94
6
95
1
302
GRIDFORMAT
1
GRIDFORMAT_BEGIN
90
0
91
1
62
0
92
-2
340
0
93
0
40
0.045
309
GRIDFORMAT_END
95
2
302
GRIDFORMAT
1
GRIDFORMAT_BEGIN
90
0
91
1
62
0
92
-2
340
0
93
0
40
0.045
309
GRIDFORMAT_END
95
4
302
GRIDFORMAT
1
GRIDFORMAT_BEGIN
90
0
91
1
62
0
92
-2
340
0
93
0
40
0.045
309
GRIDFORMAT_END
95
8
302
GRIDFORMAT
1
GRIDFORMAT_BEGIN
90
0
91
1
62
0
92
-2
340
0
93
0
40
0.045
309
GRIDFORMAT_END
95
16
302
GRIDFORMAT
1
GRIDFORMAT_BEGIN
90
0
91
1
62
0
92
-2
340
0
93
0
40
0.045
309
GRIDFORMAT_END
95
32
302
GRIDFORMAT
1
GRIDFORMAT_BEGIN
90
0
91
1
62
0
92
-2
340
0
93
0
40
0.045
309
GRIDFORMAT_END
309
TABLEFORMAT_END
1
CELLSTYLE_BEGIN
90
3
91
2
300
_DATA
309
CELLSTYLE_END
0
XRECORD
5
10A6
102
{ACAD_REACTORS
330
FF8
102
}
330
FF8
100
AcDbXrecord
280
1
102
ACAD_ROUNDTRIP_PRE2007_TABLESTYLE
90
512
91
0
1

92
512
93
0
2

94
512
95
0
3

0
XRECORD
5
108B
102
{ACAD_REACTORS
330
108A
102
}
330
108A
100
AcDbXrecord
280
1
102
RTVSPropertyOp0
70
1
102
RTVSPropertyOp1
70
1
102
RTVSPropertyOp2
70
1
102
RTVSPropertyOp3
70
1
102
RTVSPropertyOp4
70
1
102
RTVSPropertyOp5
70
1
102
RTVSPropertyOp6
70
1
102
RTVSPropertyOp7
70
1
102
RTVSPropertyOp8
70
1
102
RTVSPropertyOp9
70
1
102
RTVSPropertyOp10
70
1
102
RTVSPropertyOp11
70
1
102
RTVSPropertyOp12
70
1
102
RTVSPropertyOp13
70
1
102
RTVSPropertyOp14
70
1
102
RTVSPropertyOp15
70
1
102
RTVSPropertyOp16
70
1
102
RTVSPropertyOp17
70
1
102
RTVSPropertyOp18
70
1
102
RTVSPropertyOp19
70
1
102
RTVSPropertyOp20
70
1
102
RTVSPropertyOp21
70
1
102
RTVSPropertyOp22
70
1
102
RTVSPropertyOp23
70
1
102
RTVSPropertyOp24
70
1
102
RTVSPropertyOp25
70
1
102
RTVSPropertyOp26
70
1
102
RTVSPropertyOp27
70
1
0
XRECORD
5
108F
102
{ACAD_REACTORS
330
108E
102
}
330
108E
100
AcDbXrecord
280
1
102
RTVSPropertyOp0
70
1
102
RTVSPropertyOp1
70
1
102
RTVSPropertyOp2
70
1
102
RTVSPropertyOp3
70
1
102
RTVSPropertyOp4
70
1
102
RTVSPropertyOp5
70
1
102
RTVSPropertyOp6
70
1
102
RTVSPropertyOp7
70
1
102
RTVSPropertyOp8
70
1
102
RTVSPropertyOp9
70
1
102
RTVSPropertyOp10
70
1
102
RTVSPropertyOp11
70
1
102
RTVSPropertyOp12
70
1
102
RTVSPropertyOp13
70
1
102
RTVSPropertyOp14
70
1
102
RTVSPropertyOp15
70
1
102
RTVSPropertyOp16
70
1
102
RTVSPropertyOp17
70
1
102
RTVSPropertyOp18
70
1
102
RTVSPropertyOp19
70
1
102
RTVSPropertyOp20
70
1
102
RTVSPropertyOp21
70
1
102
RTVSPropertyOp22
70
1
102
RTVSPropertyOp23
70
1
102
RTVSPropertyOp24
70
1
102
RTVSPropertyOp25
70
1
102
RTVSPropertyOp26
70
1
102
RTVSPropertyOp27
70
1
0
XRECORD
5
108D
102
{ACAD_REACTORS
330
108C
102
}
330
108C
100
AcDbXrecord
280
1
102
RTVSPropertyOp0
70
1
102
RTVSPropertyOp1
70
1
102
RTVSPropertyOp2
70
1
102
RTVSPropertyOp3
70
1
102
RTVSPropertyOp4
70
1
102
RTVSPropertyOp5
70
1
102
RTVSPropertyOp6
70
1
102
RTVSPropertyOp7
70
1
102
RTVSPropertyOp8
70
1
102
RTVSPropertyOp9
70
1
102
RTVSPropertyOp10
70
1
102
RTVSPropertyOp11
70
1
102
RTVSPropertyOp12
70
1
102
RTVSPropertyOp13
70
1
102
RTVSPropertyOp14
70
1
102
RTVSPropertyOp15
70
1
102
RTVSPropertyOp16
70
1
102
RTVSPropertyOp17
70
1
102
RTVSPropertyOp18
70
1
102
RTVSPropertyOp19
70
1
102
RTVSPropertyOp20
70
1
102
RTVSPropertyOp21
70
1
102
RTVSPropertyOp22
70
1
102
RTVSPropertyOp23
70
1
102
RTVSPropertyOp24
70
1
102
RTVSPropertyOp25
70
1
102
RTVSPropertyOp26
70
1
102
RTVSPropertyOp27
70
1
0
XRECORD
5
1089
102
{ACAD_REACTORS
330
1088
102
}
330
1088
100
AcDbXrecord
280
1
102
RTVSPropertyOp0
70
1
102
RTVSPropertyOp1
70
1
102
RTVSPropertyOp2
70
1
102
RTVSPropertyOp3
70
1
102
RTVSPropertyOp4
70
1
102
RTVSPropertyOp5
70
1
102
RTVSPropertyOp6
70
1
102
RTVSPropertyOp7
70
1
102
RTVSPropertyOp8
70
1
102
RTVSPropertyOp9
70
1
102
RTVSPropertyOp10
70
1
102
RTVSPropertyOp11
70
1
102
RTVSPropertyOp12
70
1
102
RTVSPropertyOp13
70
1
102
RTVSPropertyOp14
70
1
102
RTVSPropertyOp15
70
1
102
RTVSPropertyOp16
70
1
102
RTVSPropertyOp17
70
1
102
RTVSPropertyOp18
70
1
102
RTVSPropertyOp19
70
1
102
RTVSPropertyOp20
70
1
102
RTVSPropertyOp21
70
1
102
RTVSPropertyOp22
70
1
102
RTVSPropertyOp23
70
1
102
RTVSPropertyOp24
70
1
102
RTVSPropertyOp25
70
1
102
RTVSPropertyOp26
70
1
102
RTVSPropertyOp27
70
1
0
XRECORD
5
1097
102
{ACAD_REACTORS
330
1096
102
}
330
1096
100
AcDbXrecord
280
1
102
RTVSPropertyOp0
70
1
102
RTVSPropertyOp1
70
1
102
RTVSPropertyOp2
70
1
102
RTVSPropertyOp3
70
1
102
RTVSPropertyOp4
70
1
102
RTVSPropertyOp5
70
1
102
RTVSPropertyOp6
70
1
102
RTVSPropertyOp7
70
1
102
RTVSPropertyOp8
70
1
102
RTVSPropertyOp9
70
1
102
RTVSPropertyOp10
70
1
102
RTVSPropertyOp11
70
1
102
RTVSPropertyOp12
70
1
102
RTVSPropertyOp13
70
1
102
RTVSPropertyOp14
70
1
102
RTVSPropertyOp15
70
1
102
RTVSPropertyOp16
70
1
102
RTVSPropertyOp17
70
1
102
RTVSPropertyOp18
70
1
102
RTVSPropertyOp19
70
1
102
RTVSPropertyOp20
70
1
102
RTVSPropertyOp21
70
1
102
RTVSPropertyOp22
70
1
102
RTVSPropertyOp23
70
1
102
RTVSPropertyOp24
70
1
102
RTVSPropertyOp25
70
1
102
RTVSPropertyOp26
70
1
102
RTVSPropertyOp27
70
1
0
XRECORD
5
109F
102
{ACAD_REACTORS
330
109E
102
}
330
109E
100
AcDbXrecord
280
1
102
RTVSPropertyOp0
70
1
102
RTVSPropertyOp1
70
1
102
RTVSPropertyOp2
70
1
102
RTVSPropertyOp3
70
1
102
RTVSPropertyOp4
70
1
102
RTVSPropertyOp5
70
1
102
RTVSPropertyOp6
70
1
102
RTVSPropertyOp7
70
1
102
RTVSPropertyOp8
70
1
102
RTVSPropertyOp9
70
1
102
RTVSPropertyOp10
70
1
102
RTVSPropertyOp11
70
1
102
RTVSPropertyOp12
70
1
102
RTVSPropertyOp13
70
1
102
RTVSPropertyOp14
70
1
102
RTVSPropertyOp15
70
1
102
RTVSPropertyOp16
70
1
102
RTVSPropertyOp17
70
1
102
RTVSPropertyOp18
70
1
102
RTVSPropertyOp19
70
1
102
RTVSPropertyOp20
70
1
102
RTVSPropertyOp21
70
1
102
RTVSPropertyOp22
70
1
102
RTVSPropertyOp23
70
1
102
RTVSPropertyOp24
70
1
102
RTVSPropertyOp25
70
1
102
RTVSPropertyOp26
70
1
102
RTVSPropertyOp27
70
1
0
XRECORD
5
1091
102
{ACAD_REACTORS
330
1090
102
}
330
1090
100
AcDbXrecord
280
1
102
RTVSPropertyOp0
70
1
102
RTVSPropertyOp1
70
1
102
RTVSPropertyOp2
70
1
102
RTVSPropertyOp3
70
1
102
RTVSPropertyOp4
70
1
102
RTVSPropertyOp5
70
1
102
RTVSPropertyOp6
70
1
102
RTVSPropertyOp7
70
1
102
RTVSPropertyOp8
70
1
102
RTVSPropertyOp9
70
1
102
RTVSPropertyOp10
70
1
102
RTVSPropertyOp11
70
1
102
RTVSPropertyOp12
70
1
102
RTVSPropertyOp13
70
1
102
RTVSPropertyOp14
70
1
102
RTVSPropertyOp15
70
1
102
RTVSPropertyOp16
70
1
102
RTVSPropertyOp17
70
1
102
RTVSPropertyOp18
70
1
102
RTVSPropertyOp19
70
1
102
RTVSPropertyOp20
70
1
102
RTVSPropertyOp21
70
1
102
RTVSPropertyOp22
70
1
102
RTVSPropertyOp23
70
1
102
RTVSPropertyOp24
70
1
102
RTVSPropertyOp25
70
1
102
RTVSPropertyOp26
70
1
102
RTVSPropertyOp27
70
1
0
XRECORD
5
1095
102
{ACAD_REACTORS
330
1094
102
}
330
1094
100
AcDbXrecord
280
1
102
RTVSPropertyOp0
70
1
102
RTVSPropertyOp1
70
1
102
RTVSPropertyOp2
70
1
102
RTVSPropertyOp3
70
1
102
RTVSPropertyOp4
70
1
102
RTVSPropertyOp5
70
1
102
RTVSPropertyOp6
70
1
102
RTVSPropertyOp7
70
1
102
RTVSPropertyOp8
70
1
102
RTVSPropertyOp9
70
1
102
RTVSPropertyOp10
70
1
102
RTVSPropertyOp11
70
1
102
RTVSPropertyOp12
70
1
102
RTVSPropertyOp13
70
1
102
RTVSPropertyOp14
70
1
102
RTVSPropertyOp15
70
1
102
RTVSPropertyOp16
70
1
102
RTVSPropertyOp17
70
1
102
RTVSPropertyOp18
70
1
102
RTVSPropertyOp19
70
1
102
RTVSPropertyOp20
70
1
102
RTVSPropertyOp21
70
1
102
RTVSPropertyOp22
70
1
102
RTVSPropertyOp23
70
1
102
RTVSPropertyOp24
70
1
102
RTVSPropertyOp25
70
1
102
RTVSPropertyOp26
70
1
102
RTVSPropertyOp27
70
1
0
XRECORD
5
10A5
102
{ACAD_REACTORS
330
10A4
102
}
330
10A4
100
AcDbXrecord
280
1
102
RTVSPropertyOp0
70
0
102
RTVSPropertyOp1
70
0
102
RTVSPropertyOp2
70
0
102
RTVSPropertyOp3
70
0
102
RTVSPropertyOp4
70
0
102
RTVSPropertyOp5
70
0
102
RTVSPropertyOp6
70
0
102
RTVSPropertyOp7
70
0
102
RTVSPropertyOp8
70
0
102
RTVSPropertyOp9
70
0
102
RTVSPropertyOp10
70
0
102
RTVSPropertyOp11
70
0
102
RTVSPropertyOp12
70
0
102
RTVSPropertyOp13
70
0
102
RTVSPropertyOp14
70
2
102
RTVSPropertyOp15
70
0
102
RTVSPropertyOp16
70
0
102
RTVSPropertyOp17
70
0
102
RTVSPropertyOp18
70
0
102
RTVSPropertyOp19
70
0
102
RTVSPropertyOp20
70
0
102
RTVSPropertyOp21
70
0
102
RTVSPropertyOp22
70
0
102
RTVSPropertyOp23
70
0
102
RTVSPropertyOp24
70
0
102
RTVSPropertyOp25
70
0
102
RTVSPropertyOp26
70
0
102
RTVSPropertyOp27
70
0
0
XRECORD
5
109D
102
{ACAD_REACTORS
330
109C
102
}
330
109C
100
AcDbXrecord
280
1
102
RTVSPropertyOp0
70
1
102
RTVSPropertyOp1
70
1
102
RTVSPropertyOp2
70
1
102
RTVSPropertyOp3
70
1
102
RTVSPropertyOp4
70
1
102
RTVSPropertyOp5
70
1
102
RTVSPropertyOp6
70
1
102
RTVSPropertyOp7
70
1
102
RTVSPropertyOp8
70
1
102
RTVSPropertyOp9
70
1
102
RTVSPropertyOp10
70
1
102
RTVSPropertyOp11
70
1
102
RTVSPropertyOp12
70
1
102
RTVSPropertyOp13
70
1
102
RTVSPropertyOp14
70
1
102
RTVSPropertyOp15
70
1
102
RTVSPropertyOp16
70
1
102
RTVSPropertyOp17
70
1
102
RTVSPropertyOp18
70
1
102
RTVSPropertyOp19
70
1
102
RTVSPropertyOp20
70
1
102
RTVSPropertyOp21
70
1
102
RTVSPropertyOp22
70
1
102
RTVSPropertyOp23
70
1
102
RTVSPropertyOp24
70
1
102
RTVSPropertyOp25
70
1
102
RTVSPropertyOp26
70
1
102
RTVSPropertyOp27
70
1
0
XRECORD
5
1081
102
{ACAD_REACTORS
330
1080
102
}
330
1080
100
AcDbXrecord
280
1
102
RTVSPropertyOp0
70
1
102
RTVSPropertyOp1
70
1
102
RTVSPropertyOp2
70
1
102
RTVSPropertyOp3
70
1
102
RTVSPropertyOp4
70
1
102
RTVSPropertyOp5
70
1
102
RTVSPropertyOp6
70
1
102
RTVSPropertyOp7
70
1
102
RTVSPropertyOp8
70
1
102
RTVSPropertyOp9
70
1
102
RTVSPropertyOp10
70
1
102
RTVSPropertyOp11
70
1
102
RTVSPropertyOp12
70
1
102
RTVSPropertyOp13
70
1
102
RTVSPropertyOp14
70
1
102
RTVSPropertyOp15
70
1
102
RTVSPropertyOp16
70
1
102
RTVSPropertyOp17
70
1
102
RTVSPropertyOp18
70
1
102
RTVSPropertyOp19
70
1
102
RTVSPropertyOp20
70
1
102
RTVSPropertyOp21
70
1
102
RTVSPropertyOp22
70
1
102
RTVSPropertyOp23
70
1
102
RTVSPropertyOp24
70
1
102
RTVSPropertyOp25
70
1
102
RTVSPropertyOp26
70
1
102
RTVSPropertyOp27
70
1
0
XRECORD
5
1083
102
{ACAD_REACTORS
330
1082
102
}
330
1082
100
AcDbXrecord
280
1
102
RTVSPropertyOp0
70
1
102
RTVSPropertyOp1
70
1
102
RTVSPropertyOp2
70
1
102
RTVSPropertyOp3
70
1
102
RTVSPropertyOp4
70
1
102
RTVSPropertyOp5
70
1
102
RTVSPropertyOp6
70
1
102
RTVSPropertyOp7
70
1
102
RTVSPropertyOp8
70
1
102
RTVSPropertyOp9
70
1
102
RTVSPropertyOp10
70
1
102
RTVSPropertyOp11
70
1
102
RTVSPropertyOp12
70
1
102
RTVSPropertyOp13
70
1
102
RTVSPropertyOp14
70
1
102
RTVSPropertyOp15
70
1
102
RTVSPropertyOp16
70
1
102
RTVSPropertyOp17
70
1
102
RTVSPropertyOp18
70
1
102
RTVSPropertyOp19
70
1
102
RTVSPropertyOp20
70
1
102
RTVSPropertyOp21
70
1
102
RTVSPropertyOp22
70
1
102
RTVSPropertyOp23
70
1
102
RTVSPropertyOp24
70
1
102
RTVSPropertyOp25
70
1
102
RTVSPropertyOp26
70
1
102
RTVSPropertyOp27
70
1
0
XRECORD
5
1085
102
{ACAD_REACTORS
330
1084
102
}
330
1084
100
AcDbXrecord
280
1
102
RTVSPropertyOp0
70
1
102
RTVSPropertyOp1
70
1
102
RTVSPropertyOp2
70
1
102
RTVSPropertyOp3
70
1
102
RTVSPropertyOp4
70
1
102
RTVSPropertyOp5
70
1
102
RTVSPropertyOp6
70
1
102
RTVSPropertyOp7
70
1
102
RTVSPropertyOp8
70
1
102
RTVSPropertyOp9
70
1
102
RTVSPropertyOp10
70
1
102
RTVSPropertyOp11
70
1
102
RTVSPropertyOp12
70
1
102
RTVSPropertyOp13
70
1
102
RTVSPropertyOp14
70
1
102
RTVSPropertyOp15
70
1
102
RTVSPropertyOp16
70
1
102
RTVSPropertyOp17
70
1
102
RTVSPropertyOp18
70
1
102
RTVSPropertyOp19
70
1
102
RTVSPropertyOp20
70
1
102
RTVSPropertyOp21
70
1
102
RTVSPropertyOp22
70
1
102
RTVSPropertyOp23
70
1
102
RTVSPropertyOp24
70
1
102
RTVSPropertyOp25
70
1
102
RTVSPropertyOp26
70
1
102
RTVSPropertyOp27
70
1
0
XRECORD
5
1087
102
{ACAD_REACTORS
330
1086
102
}
330
1086
100
AcDbXrecord
280
1
102
RTVSPropertyOp0
70
1
102
RTVSPropertyOp1
70
1
102
RTVSPropertyOp2
70
1
102
RTVSPropertyOp3
70
1
102
RTVSPropertyOp4
70
1
102
RTVSPropertyOp5
70
1
102
RTVSPropertyOp6
70
1
102
RTVSPropertyOp7
70
1
102
RTVSPropertyOp8
70
1
102
RTVSPropertyOp9
70
1
102
RTVSPropertyOp10
70
1
102
RTVSPropertyOp11
70
1
102
RTVSPropertyOp12
70
1
102
RTVSPropertyOp13
70
1
102
RTVSPropertyOp14
70
1
102
RTVSPropertyOp15
70
1
102
RTVSPropertyOp16
70
1
102
RTVSPropertyOp17
70
1
102
RTVSPropertyOp18
70
1
102
RTVSPropertyOp19
70
1
102
RTVSPropertyOp20
70
1
102
RTVSPropertyOp21
70
1
102
RTVSPropertyOp22
70
1
102
RTVSPropertyOp23
70
1
102
RTVSPropertyOp24
70
1
102
RTVSPropertyOp25
70
1
102
RTVSPropertyOp26
70
1
102
RTVSPropertyOp27
70
1
0
XRECORD
5
10A1
102
{ACAD_REACTORS
330
10A0
102
}
330
10A0
100
AcDbXrecord
280
1
102
RTVSPropertyOp0
70
0
102
RTVSPropertyOp1
70
0
102
RTVSPropertyOp2
70
0
102
RTVSPropertyOp3
70
0
102
RTVSPropertyOp4
70
0
102
RTVSPropertyOp5
70
0
102
RTVSPropertyOp6
70
0
102
RTVSPropertyOp7
70
0
102
RTVSPropertyOp8
70
0
102
RTVSPropertyOp9
70
0
102
RTVSPropertyOp10
70
0
102
RTVSPropertyOp11
70
0
102
RTVSPropertyOp12
70
0
102
RTVSPropertyOp13
70
0
102
RTVSPropertyOp14
70
2
102
RTVSPropertyOp15
70
0
102
RTVSPropertyOp16
70
0
102
RTVSPropertyOp17
70
0
102
RTVSPropertyOp18
70
0
102
RTVSPropertyOp19
70
0
102
RTVSPropertyOp20
70
0
102
RTVSPropertyOp21
70
0
102
RTVSPropertyOp22
70
0
102
RTVSPropertyOp23
70
0
102
RTVSPropertyOp24
70
0
102
RTVSPropertyOp25
70
0
102
RTVSPropertyOp26
70
0
102
RTVSPropertyOp27
70
0
0
XRECORD
5
109B
102
{ACAD_REACTORS
330
109A
102
}
330
109A
100
AcDbXrecord
280
1
102
RTVSPropertyOp0
70
1
102
RTVSPropertyOp1
70
1
102
RTVSPropertyOp2
70
1
102
RTVSPropertyOp3
70
1
102
RTVSPropertyOp4
70
1
102
RTVSPropertyOp5
70
1
102
RTVSPropertyOp6
70
1
102
RTVSPropertyOp7
70
1
102
RTVSPropertyOp8
70
1
102
RTVSPropertyOp9
70
1
102
RTVSPropertyOp10
70
1
102
RTVSPropertyOp11
70
1
102
RTVSPropertyOp12
70
1
102
RTVSPropertyOp13
70
1
102
RTVSPropertyOp14
70
1
102
RTVSPropertyOp15
70
1
102
RTVSPropertyOp16
70
1
102
RTVSPropertyOp17
70
1
102
RTVSPropertyOp18
70
1
102
RTVSPropertyOp19
70
1
102
RTVSPropertyOp20
70
1
102
RTVSPropertyOp21
70
1
102
RTVSPropertyOp22
70
1
102
RTVSPropertyOp23
70
1
102
RTVSPropertyOp24
70
1
102
RTVSPropertyOp25
70
1
102
RTVSPropertyOp26
70
1
102
RTVSPropertyOp27
70
1
0
XRECORD
5
10A3
102
{ACAD_REACTORS
330
10A2
102
}
330
10A2
100
AcDbXrecord
280
1
102
RTVSPropertyOp0
70
0
102
RTVSPropertyOp1
70
0
102
RTVSPropertyOp2
70
0
102
RTVSPropertyOp3
70
0
102
RTVSPropertyOp4
70
0
102
RTVSPropertyOp5
70
0
102
RTVSPropertyOp6
70
0
102
RTVSPropertyOp7
70
0
102
RTVSPropertyOp8
70
0
102
RTVSPropertyOp9
70
0
102
RTVSPropertyOp10
70
0
102
RTVSPropertyOp11
70
0
102
RTVSPropertyOp12
70
0
102
RTVSPropertyOp13
70
0
102
RTVSPropertyOp14
70
2
102
RTVSPropertyOp15
70
0
102
RTVSPropertyOp16
70
0
102
RTVSPropertyOp17
70
0
102
RTVSPropertyOp18
70
0
102
RTVSPropertyOp19
70
0
102
RTVSPropertyOp20
70
0
102
RTVSPropertyOp21
70
0
102
RTVSPropertyOp22
70
0
102
RTVSPropertyOp23
70
0
102
RTVSPropertyOp24
70
0
102
RTVSPropertyOp25
70
0
102
RTVSPropertyOp26
70
0
102
RTVSPropertyOp27
70
0
0
XRECORD
5
1093
102
{ACAD_REACTORS
330
1092
102
}
330
1092
100
AcDbXrecord
280
1
102
RTVSPropertyOp0
70
1
102
RTVSPropertyOp1
70
1
102
RTVSPropertyOp2
70
1
102
RTVSPropertyOp3
70
1
102
RTVSPropertyOp4
70
1
102
RTVSPropertyOp5
70
1
102
RTVSPropertyOp6
70
1
102
RTVSPropertyOp7
70
1
102
RTVSPropertyOp8
70
1
102
RTVSPropertyOp9
70
1
102
RTVSPropertyOp10
70
1
102
RTVSPropertyOp11
70
1
102
RTVSPropertyOp12
70
1
102
RTVSPropertyOp13
70
1
102
RTVSPropertyOp14
70
1
102
RTVSPropertyOp15
70
1
102
RTVSPropertyOp16
70
1
102
RTVSPropertyOp17
70
1
102
RTVSPropertyOp18
70
1
102
RTVSPropertyOp19
70
1
102
RTVSPropertyOp20
70
1
102
RTVSPropertyOp21
70
1
102
RTVSPropertyOp22
70
1
102
RTVSPropertyOp23
70
1
102
RTVSPropertyOp24
70
1
102
RTVSPropertyOp25
70
1
102
RTVSPropertyOp26
70
1
102
RTVSPropertyOp27
70
1
0
XRECORD
5
1099
102
{ACAD_REACTORS
330
1098
102
}
330
1098
100
AcDbXrecord
280
1
102
RTVSPropertyOp0
70
1
102
RTVSPropertyOp1
70
1
102
RTVSPropertyOp2
70
1
102
RTVSPropertyOp3
70
1
102
RTVSPropertyOp4
70
1
102
RTVSPropertyOp5
70
1
102
RTVSPropertyOp6
70
1
102
RTVSPropertyOp7
70
1
102
RTVSPropertyOp8
70
1
102
RTVSPropertyOp9
70
1
102
RTVSPropertyOp10
70
1
102
RTVSPropertyOp11
70
1
102
RTVSPropertyOp12
70
1
102
RTVSPropertyOp13
70
1
102
RTVSPropertyOp14
70
1
102
RTVSPropertyOp15
70
1
102
RTVSPropertyOp16
70
1
102
RTVSPropertyOp17
70
1
102
RTVSPropertyOp18
70
1
102
RTVSPropertyOp19
70
1
102
RTVSPropertyOp20
70
1
102
RTVSPropertyOp21
70
1
102
RTVSPropertyOp22
70
1
102
RTVSPropertyOp23
70
1
102
RTVSPropertyOp24
70
1
102
RTVSPropertyOp25
70
1
102
RTVSPropertyOp26
70
1
102
RTVSPropertyOp27
70
1
0
ENDSEC
0
EOF
