0
SECTION
2
HEADER
9
$ACADVER
1
AC1015
9
$ACADMAINTVER
70
20
9
$DWGCODEPAGE
3
ANSI_1252
9
$INSBASE
10
0.0
20
0.0
30
0.0
9
$EXTMIN
10
-150.000000000000
20
-105.000000000000
30
0.0
9
$EXTMAX
10
150.000000000000
20
105.000000000000
30
0.0
9
$LIMMIN
10
0.0
20
0.0
9
$LIMMAX
10
12.0
20
9.0
9
$ORTHOMODE
70
0
9
$REGENMODE
70
1
9
$FILLMODE
70
1
9
$QTEXTMODE
70
0
9
$MIRRTEXT
70
1
9
$LTSCALE
40
1.0
9
$ATTMODE
70
1
9
$TEXTSIZE
40
0.2
9
$TRACEWID
40
0.05
9
$TEXTSTYLE
7
Standard
9
$CLAYER
8
0
9
$CELTYPE
6
ByLayer
9
$CECOLOR
62
256
9
$CELTSCALE
40
1.0
9
$DISPSILH
70
0
9
$DIMSCALE
40
1.0
9
$DIMASZ
40
2.5
9
$DIMEXO
40
0.625
9
$DIMDLI
40
0.38
9
$DIMRND
40
0.0
9
$DIMDLE
40
0.0
9
$DIMEXE
40
1.25
9
$DIMTP
40
0.0
9
$DIMTM
40
0.000000001
9
$DIMTXT
40
2.5
9
$DIMCEN
40
0.09
9
$DIMTSZ
40
0.0
9
$DIMTOL
70
1
9
$DIMLIM
70
0
9
$DIMTIH
70
0
9
$DIMTOH
70
0
9
$DIMSE1
70
0
9
$DIMSE2
70
0
9
$DIMTAD
70
1
9
$DIMZIN
70
0
9
$DIMBLK
1
VDDIM_DEFAULT
9
$DIMASO
70
1
9
$DIMSHO
70
1
9
$DIMPOST
1

9
$DIMAPOST
1

9
$DIMALT
70
0
9
$DIMALTD
70
2
9
$DIMALTF
40
25.4
9
$DIMLFAC
40
1.00000000000000
9
$DIMTOFL
70
0
9
$DIMTVP
40
0.0
9
$DIMTIX
70
0
9
$DIMSOXD
70
0
9
$DIMSAH
70
0
9
$DIMBLK1
1

9
$DIMBLK2
1

9
$DIMSTYLE
2
BEM-ISBE
9
$DIMCLRD
70
0
9
$DIMCLRE
70
0
9
$DIMCLRT
70
0
9
$DIMTFAC
40
0.5
9
$DIMGAP
40
0.625
9
$DIMJUST
70
0
9
$DIMSD1
70
0
9
$DIMSD2
70
0
9
$DIMTOLJ
70
1
9
$DIMTZIN
70
0
9
$DIMALTZ
70
0
9
$DIMALTTZ
70
0
9
$DIMUPT
70
0
9
$DIMDEC
70
3
9
$DIMTDEC
70
3
9
$DIMALTU
70
2
9
$DIMALTTD
70
2
9
$DIMTXSTY
7
Standard
9
$DIMAUNIT
70
0
9
$DIMADEC
70
3
9
$DIMALTRND
40
0.0
9
$DIMAZIN
70
0
9
$DIMDSEP
70
46
9
$DIMATFIT
70
3
9
$DIMFRAC
70
0
9
$DIMLDRBLK
1

9
$DIMLUNIT
70
2
9
$DIMLWD
70
-2
9
$DIMLWE
70
-2
9
$DIMTMOVE
70
0
9
$LUNITS
70
2
9
$LUPREC
70
4
9
$SKETCHINC
40
0.1
9
$FILLETRAD
40
0.5
9
$AUNITS
70
0
9
$AUPREC
70
0
9
$MENU
1
.
9
$ELEVATION
40
0.0
9
$PELEVATION
40
0.0
9
$THICKNESS
40
0.0
9
$LIMCHECK
70
0
9
$CHAMFERA
40
0.5
9
$CHAMFERB
40
0.5
9
$CHAMFERC
40
1.0
9
$CHAMFERD
40
0.0
9
$SKPOLY
70
0
9
$TDCREATE
40
0.0
9
$TDUCREATE
40
0.0
9
$TDUPDATE
40
0.0
9
$TDUUPDATE
40
0.0
9
$TDINDWG
40
0.0
9
$TDUSRTIMER
40
0.0
9
$USRTIMER
70
1
9
$ANGBASE
50
0.0
9
$ANGDIR
70
0
9
$PDMODE
70
0
9
$PDSIZE
40
0.0
9
$PLINEWID
40
0.0
9
$SPLFRAME
70
0
9
$SPLINETYPE
70
6
9
$SPLINESEGS
70
8
9
$HANDSEED
5
10AB
9
$SURFTAB1
70
6
9
$SURFTAB2
70
6
9
$SURFTYPE
70
6
9
$SURFU
70
6
9
$SURFV
70
6
9
$UCSBASE
2

9
$UCSNAME
2

9
$UCSORG
10
0.0
20
0.0
30
0.0
9
$UCSXDIR
10
1.0
20
0.0
30
0.0
9
$UCSYDIR
10
0.0
20
1.0
30
0.0
9
$UCSORTHOREF
2

9
$UCSORTHOVIEW
70
0
9
$UCSORGTOP
10
0.0
20
0.0
30
0.0
9
$UCSORGBOTTOM
10
0.0
20
0.0
30
0.0
9
$UCSORGLEFT
10
0.0
20
0.0
30
0.0
9
$UCSORGRIGHT
10
0.0
20
0.0
30
0.0
9
$UCSORGFRONT
10
0.0
20
0.0
30
0.0
9
$UCSORGBACK
10
0.0
20
0.0
30
0.0
9
$PUCSBASE
2

9
$PUCSNAME
2

9
$PUCSORG
10
0.0
20
0.0
30
0.0
9
$PUCSXDIR
10
1.0
20
0.0
30
0.0
9
$PUCSYDIR
10
0.0
20
1.0
30
0.0
9
$PUCSORTHOREF
2

9
$PUCSORTHOVIEW
70
0
9
$PUCSORGTOP
10
0.0
20
0.0
30
0.0
9
$PUCSORGBOTTOM
10
0.0
20
0.0
30
0.0
9
$PUCSORGLEFT
10
0.0
20
0.0
30
0.0
9
$PUCSORGRIGHT
10
0.0
20
0.0
30
0.0
9
$PUCSORGFRONT
10
0.0
20
0.0
30
0.0
9
$PUCSORGBACK
10
0.0
20
0.0
30
0.0
9
$USERI1
70
0
9
$USERI2
70
0
9
$USERI3
70
0
9
$USERI4
70
0
9
$USERI5
70
0
9
$USERR1
40
0.0
9
$USERR2
40
0.0
9
$USERR3
40
0.0
9
$USERR4
40
0.0
9
$USERR5
40
0.0
9
$WORLDVIEW
70
1
9
$SHADEDGE
70
3
9
$SHADEDIF
70
70
9
$TILEMODE
70
1
9
$MAXACTVP
70
64
9
$PINSBASE
10
0.0
20
0.0
30
0.0
9
$PLIMCHECK
70
0
9
$PEXTMIN
10
1.000000000000000E+20
20
1.000000000000000E+20
30
1.000000000000000E+20
9
$PEXTMAX
10
-1.000000000000000E+20
20
-1.000000000000000E+20
30
-1.000000000000000E+20
9
$PLIMMIN
10
0.0
20
0.0
9
$PLIMMAX
10
12.0
20
9.0
9
$UNITMODE
70
0
9
$VISRETAIN
70
1
9
$PLINEGEN
70
0
9
$PSLTSCALE
70
1
9
$TREEDEPTH
70
3020
9
$CMLSTYLE
2
Standard
9
$CMLJUST
70
0
9
$CMLSCALE
40
1.0
9
$PROXYGRAPHICS
70
1
9
$MEASUREMENT
70
0
9
$CELWEIGHT
370
-1
9
$ENDCAPS
280
0
9
$JOINSTYLE
280
0
9
$LWDISPLAY
290
0
9
$INSUNITS
70
4
9
$HYPERLINKBASE
1

9
$STYLESHEET
1

9
$XEDIT
290
1
9
$CEPSNTYPE
380
0
9
$PSTYLEMODE
290
0
9
$FINGERPRINTGUID
2
{FAEB1C30-E019-11D5-929B-00C0DF256EC4}
9
$VERSIONGUID
2
{04C5C4E4-4947-4D90-8812-D401569E61F7}
9
$EXTNAMES
290
1
9
$PSVPSCALE
40
0.0
9
$OLESTARTUP
290
0
0
ENDSEC
0
SECTION
2
TABLES
0
TABLE
2
VPORT
5
24A
330
0
100
AcDbSymbolTable
70
1
0
VPORT
5
26B
330
24A
100
AcDbSymbolTableRecord
100
AcDbViewportTableRecord
2
*Active
70
0
10
0.0
20
0.0
11
1.0
21
1.0
12
0.000000000000000
22
0.000000000000000
13
0.0
23
0.0
14
10.0
24
10.0
15
10.0
25
10.0
16
0.0
26
0.0
36
1.0
17
0.0
27
0.0
37
0.0
40
210.000000000000
41
1.42857142857143
42
1.0
43
0.0
44
0.0
50
0.0
51
0.0000000000007958
71
0
72
100
73
1
74
3
75
0
76
0
77
0
78
1
281
0
65
1
110
0.0
120
0.0
130
0.0
111
1.0
121
0.0
131
0.0
112
0.0
122
1.0
132
0.0
79
0
146
0.0
0
ENDTAB
0
TABLE
2
LTYPE
5
247
330
0
100
AcDbSymbolTable
70
25
0
LTYPE
5
256
330
247
100
AcDbSymbolTableRecord
100
AcDbLinetypeTableRecord
2
ByBlock
70
0
3

72
65
73
0
40
0.0
0
LTYPE
5
257
330
247
100
AcDbSymbolTableRecord
100
AcDbLinetypeTableRecord
2
ByLayer
70
0
3

72
65
73
0
40
0.0
0
LTYPE
5
258
330
247
100
AcDbSymbolTableRecord
100
AcDbLinetypeTableRecord
2
Continuous
70
0
3
Solid line
72
65
73
0
40
0.0
0
LTYPE
5
273
330
247
100
AcDbSymbolTableRecord
100
AcDbLinetypeTableRecord
2
CENTER
70
0
3
Center ____ _ ____ _ ____ _ ____ _ ____ _ ____
72
65
73
4
40
2.0
49
1.25
74
0
49
-0.25
74
0
49
0.25
74
0
49
-0.25
74
0
0
LTYPE
5
274
330
247
100
AcDbSymbolTableRecord
100
AcDbLinetypeTableRecord
2
DASHDOT
70
0
3
Dashdot __ . __ . __ . __ . __ . __ . __ . __
72
65
73
4
40
1.0
49
0.5
74
0
49
-0.25
74
0
49
0.0
74
0
49
-0.25
74
0
0
LTYPE
5
275
330
247
100
AcDbSymbolTableRecord
100
AcDbLinetypeTableRecord
2
DASHED
70
0
3
Dashed __ __ __ __ __ __ __ __ __ __ __ __ __ _
72
65
73
2
40
0.75
49
0.5
74
0
49
-0.25
74
0
0
LTYPE
5
276
330
247
100
AcDbSymbolTableRecord
100
AcDbLinetypeTableRecord
2
HIDDEN
70
0
3
Hidden __ __ __ __ __ __ __ __ __ __ __ __ __ __
72
65
73
2
40
0.375
49
0.25
74
0
49
-0.125
74
0
0
LTYPE
5
277
330
247
100
AcDbSymbolTableRecord
100
AcDbLinetypeTableRecord
2
HIDDEN2
70
0
3
Hidden2 _ _ _ _ _ _ _ _ _ _ _ _ _ _ _ _ _
72
65
73
2
40
0.1875
49
0.125
74
0
49
-0.0625
74
0
0
LTYPE
5
278
330
247
100
AcDbSymbolTableRecord
100
AcDbLinetypeTableRecord
2
BORDER
70
0
3
Border __ __ . __ __ . __ __ . __ __ . __ __ .
72
65
73
6
40
1.75
49
0.5
74
0
49
-0.25
74
0
49
0.5
74
0
49
-0.25
74
0
49
0.0
74
0
49
-0.25
74
0
0
LTYPE
5
279
330
247
100
AcDbSymbolTableRecord
100
AcDbLinetypeTableRecord
2
BORDER2
70
0
3
Border2 __.__.__.__.__.__.__.__.__.__.__.
72
65
73
6
40
0.875
49
0.25
74
0
49
-0.125
74
0
49
0.25
74
0
49
-0.125
74
0
49
0.0
74
0
49
-0.125
74
0
0
LTYPE
5
27A
330
247
100
AcDbSymbolTableRecord
100
AcDbLinetypeTableRecord
2
BORDERX2
70
0
3
Borderx2  ____  ____  .  ____  ____  .  ___
72
65
73
6
40
3.5
49
1.0
74
0
49
-0.5
74
0
49
1.0
74
0
49
-0.5
74
0
49
0.0
74
0
49
-0.5
74
0
0
LTYPE
5
27B
330
247
100
AcDbSymbolTableRecord
100
AcDbLinetypeTableRecord
2
CENTER2
70
0
3
Center2  ___ _ ___ _ ___ _ ___ _ ___ _ ___
72
65
73
4
40
1.125
49
0.75
74
0
49
-0.125
74
0
49
0.125
74
0
49
-0.125
74
0
0
LTYPE
5
27C
330
247
100
AcDbSymbolTableRecord
100
AcDbLinetypeTableRecord
2
CENTERX2
70
0
3
Centerx2  ________  __  ________  __  _____
72
65
73
4
40
4.0
49
2.5
74
0
49
-0.5
74
0
49
0.5
74
0
49
-0.5
74
0
0
LTYPE
5
27D
330
247
100
AcDbSymbolTableRecord
100
AcDbLinetypeTableRecord
2
DASHDOT2
70
0
3
Dashdot2  _._._._._._._._._._._._._._._.
72
65
73
4
40
0.5
49
0.25
74
0
49
-0.125
74
0
49
0.0
74
0
49
-0.125
74
0
0
LTYPE
5
27E
330
247
100
AcDbSymbolTableRecord
100
AcDbLinetypeTableRecord
2
DASHDOTX2
70
0
3
Dashdotx2 ____  .  ____  .  ____  .  ___
72
65
73
4
40
2.0
49
1.0
74
0
49
-0.5
74
0
49
0.0
74
0
49
-0.5
74
0
0
LTYPE
5
27F
330
247
100
AcDbSymbolTableRecord
100
AcDbLinetypeTableRecord
2
DASHED2
70
0
3
Dashed2 _ _ _ _ _ _ _ _ _ _ _ _ _ _ _ _ _
72
65
73
2
40
0.375
49
0.25
74
0
49
-0.125
74
0
0
LTYPE
5
280
330
247
100
AcDbSymbolTableRecord
100
AcDbLinetypeTableRecord
2
DASHEDX2
70
0
3
Dashedx2 ____  ____  ____  ____  ____  ___
72
65
73
2
40
1.5
49
1.0
74
0
49
-0.5
74
0
0
LTYPE
5
281
330
247
100
AcDbSymbolTableRecord
100
AcDbLinetypeTableRecord
2
DIVIDE
70
0
3
Divide ____ . . ____ . . ____ . . ____ . . ____
72
65
73
6
40
1.25
49
0.5
74
0
49
-0.25
74
0
49
0.0
74
0
49
-0.25
74
0
49
0.0
74
0
49
-0.25
74
0
0
LTYPE
5
282
330
247
100
AcDbSymbolTableRecord
100
AcDbLinetypeTableRecord
2
DIVIDE2
70
0
3
Divide2 __..__..__..__..__..__..__..__.._
72
65
73
6
40
0.625
49
0.25
74
0
49
-0.125
74
0
49
0.0
74
0
49
-0.125
74
0
49
0.0
74
0
49
-0.125
74
0
0
LTYPE
5
283
330
247
100
AcDbSymbolTableRecord
100
AcDbLinetypeTableRecord
2
DIVIDEX2
70
0
3
Dividex2 ________  .  .  ________  .  .  _
72
65
73
6
40
2.5
49
1.0
74
0
49
-0.5
74
0
49
0.0
74
0
49
-0.5
74
0
49
0.0
74
0
49
-0.5
74
0
0
LTYPE
5
284
330
247
100
AcDbSymbolTableRecord
100
AcDbLinetypeTableRecord
2
DOT
70
0
3
Dot . . . . . . . . . . . . . . . . . . . . . . . .
72
65
73
2
40
0.25
49
0.0
74
0
49
-0.25
74
0
0
LTYPE
5
285
330
247
100
AcDbSymbolTableRecord
100
AcDbLinetypeTableRecord
2
DOT2
70
0
3
Dot2 ........................................
72
65
73
2
40
0.125
49
0.0
74
0
49
-0.125
74
0
0
LTYPE
5
286
330
247
100
AcDbSymbolTableRecord
100
AcDbLinetypeTableRecord
2
DOTX2
70
0
3
Dotx2 .  .  .  .  .  .  .  .  .  .  .  .  .  .
72
65
73
2
40
0.5
49
0.0
74
0
49
-0.5
74
0
0
LTYPE
5
287
330
247
100
AcDbSymbolTableRecord
100
AcDbLinetypeTableRecord
2
HIDDENX2
70
0
3
Hiddenx2 ____ ____ ____ ____ ____ ____ ____
72
65
73
2
40
0.75
49
0.5
74
0
49
-0.25
74
0
0
LTYPE
5
288
330
247
100
AcDbSymbolTableRecord
100
AcDbLinetypeTableRecord
2
PHANTOM
70
0
3
Phantom ______  __  __  ______  __  __  ______
72
65
73
6
40
2.5
49
1.25
74
0
49
-0.25
74
0
49
0.25
74
0
49
-0.25
74
0
49
0.25
74
0
49
-0.25
74
0
0
LTYPE
5
289
330
247
100
AcDbSymbolTableRecord
100
AcDbLinetypeTableRecord
2
PHANTOM2
70
0
3
Phantom2 ___ _ _ ___ _ _ ___ _ _ ___ _ _
72
65
73
6
40
1.25
49
0.625
74
0
49
-0.125
74
0
49
0.125
74
0
49
-0.125
74
0
49
0.125
74
0
49
-0.125
74
0
0
LTYPE
5
28A
330
247
100
AcDbSymbolTableRecord
100
AcDbLinetypeTableRecord
2
PHANTOMX2
70
0
3
Phantomx2 ____________    ____    ____   _
72
65
73
6
40
5.0
49
2.5
74
0
49
-0.5
74
0
49
0.5
74
0
49
-0.5
74
0
49
0.5
74
0
49
-0.5
74
0
0
ENDTAB
0
TABLE
2
LAYER
5
244
330
0
100
AcDbSymbolTable
70
6
0
LAYER
5
252
330
244
100
AcDbSymbolTableRecord
100
AcDbLayerTableRecord
2
0
70
0
62
7
6
Continuous
370
0
390
251
0
LAYER
5
23F
330
244
100
AcDbSymbolTableRecord
100
AcDbLayerTableRecord
2
Bemassung
70
0
 62
   7
6
Continuous
370
0
390
251
0
LAYER
5
240
330
244
100
AcDbSymbolTableRecord
100
AcDbLayerTableRecord
2
Rahmen
70
0
 62
   7
6
Continuous
370
0
390
251
0
LAYER
5
241
330
244
100
AcDbSymbolTableRecord
100
AcDbLayerTableRecord
2
Geo
70
0
 62
   7
6
Continuous
370
0
390
251
0
LAYER
5
33A
330
244
100
AcDbSymbolTableRecord
100
AcDbLayerTableRecord
2
Defpoints
70
0
62
7
6
Continuous
290
0
370
-3
390
251
0
LAYER
5
57E
330
244
100
AcDbSymbolTableRecord
100
AcDbLayerTableRecord
2
Text
70
0
 62
   7
6
Continuous
370
0
390
251
1001
AcAecLayerStandard
1000

1000

0
ENDTAB
0
TABLE
2
STYLE
5
245
330
0
100
AcDbSymbolTable
70
2
0
STYLE
5
253
330
245
100
AcDbSymbolTableRecord
100
AcDbTextStyleTableRecord
2
Standard
70
0
40
0.0
41
1.0
50
0.0
71
0
42
0.2
3
Arial
4

1001
ACAD
1000
Arial
1071
0
0
STYLE
5
132
330
245
100
AcDbSymbolTableRecord
100
AcDbTextStyleTableRecord
2
Beschriftung
70
0
40
0.0
41
1.0
50
0.0
71
0
42
0.2
3
Arial
4

1001
ACAD
1000
Arial
1071
0
1001
AcadAnnotative
1000
AnnotativeData
1070
1
1070
1
0
ENDTAB
0
TABLE
2
VIEW
5
248
330
0
100
AcDbSymbolTable
70
0
0
ENDTAB
0
TABLE
2
UCS
5
249
330
0
100
AcDbSymbolTable
70
0
0
ENDTAB
0
TABLE
2
APPID
5
24B
330
0
100
AcDbSymbolTable
70
13
0
APPID
5
254
330
24B
100
AcDbSymbolTableRecord
100
AcDbRegAppTableRecord
2
ACAD
70
0
0
APPID
5
26C
330
24B
100
AcDbSymbolTableRecord
100
AcDbRegAppTableRecord
2
VD_INVISIBLE_NOT_FOR_READ
70
0
0
APPID
5
26D
330
24B
100
AcDbSymbolTableRecord
100
AcDbRegAppTableRecord
2
VD_TEMPHATCH
70
0
0
APPID
5
26E
330
24B
100
AcDbSymbolTableRecord
100
AcDbRegAppTableRecord
2
VDEXTRAPARAM
70
0
0
APPID
5
26F
330
24B
100
AcDbSymbolTableRecord
100
AcDbRegAppTableRecord
2
PE_URL
70
0
0
APPID
5
270
330
24B
100
AcDbSymbolTableRecord
100
AcDbRegAppTableRecord
2
VD_UNKNOWN
70
0
0
APPID
5
28F
330
24B
100
AcDbSymbolTableRecord
100
AcDbRegAppTableRecord
2
AcadAnnotative
70
0
0
APPID
5
290
330
24B
100
AcDbSymbolTableRecord
100
AcDbRegAppTableRecord
2
ACAD_DSTYLE_DIMJAG
70
0
0
APPID
5
291
330
24B
100
AcDbSymbolTableRecord
100
AcDbRegAppTableRecord
2
ACAD_DSTYLE_DIMTALN
70
0
0
APPID
5
293
330
24B
100
AcDbSymbolTableRecord
100
AcDbRegAppTableRecord
2
ACAD_PSEXT
70
0
0
APPID
5
42A
330
24B
100
AcDbSymbolTableRecord
100
AcDbRegAppTableRecord
2
ACAD_MLEADERVER
70
0
0
APPID
5
532
330
24B
100
AcDbSymbolTableRecord
100
AcDbRegAppTableRecord
2
ACAD_EXEMPT_FROM_CAD_STANDARDS
70
0
0
APPID
5
57F
330
24B
100
AcDbSymbolTableRecord
100
AcDbRegAppTableRecord
2
AcAecLayerStandard
70
0
0
ENDTAB
0
TABLE
2
DIMSTYLE
5
24C
330
0
100
AcDbSymbolTable
70
3
100
AcDbDimStyleTable
71
2
340
27
340
269
0
DIMSTYLE
105
269
330
24C
100
AcDbSymbolTableRecord
100
AcDbDimStyleTableRecord
2
Standard
70
0
172
1
174
1
288
1
340
253
342
23C
0
DIMSTYLE
105
137
330
24C
100
AcDbSymbolTableRecord
100
AcDbDimStyleTableRecord
2
Beschriftung
70
0
41
2.5
42
0.625
44
1.25
73
0
74
0
77
1
140
2.5
147
0.625
172
1
174
1
271
2
288
1
340
253
342
23C
1001
AcadAnnotative
1000
AnnotativeData
1070
1
1070
1
1001
ACAD_DSTYLE_DIMJAG
1070
388
1040
1.5
1001
ACAD_DSTYLE_DIMTALN
1070
392
1070
0
0
DIMSTYLE
105
27
102
{ACAD_REACTORS
330
F10012
330
F1001C
330
F10021
330
F1000D
330
F10008
330
F10003
330
F10017
102
}
330
24C
100
AcDbSymbolTableRecord
100
AcDbDimStyleTableRecord
2
BEM-ISBE
70
0
41
2.5
42
0.625
44
1.25
48
0.000000001
71
1
73
0
74
0
77
1
140
2.5
144
1.00000000000000
146
0.5
147
0.625
171
 3
172
 1
179
 3
271
 3
272
 3
274
 3
340
253
342
23C
1001
ACAD_DSTYLE_DIMJAG
1070
388
1040
1.5
1001
ACAD_DSTYLE_DIMTALN
1070
392
1070
1
0
ENDTAB
0
TABLE
2
BLOCK_RECORD
5
243
330
0
100
AcDbSymbolTable
70
5
0
BLOCK_RECORD
5
261
330
243
100
AcDbSymbolTableRecord
100
AcDbBlockTableRecord
2
*Model_Space
340
FD0
0
BLOCK_RECORD
5
25D
330
243
100
AcDbSymbolTableRecord
100
AcDbBlockTableRecord
2
*Paper_Space
340
FD1
0
BLOCK_RECORD
5
265
330
243
100
AcDbSymbolTableRecord
100
AcDbBlockTableRecord
2
*Paper_Space0
340
0
0
BLOCK_RECORD
5
23C
330
243
100
AcDbSymbolTableRecord
100
AcDbBlockTableRecord
2
VDDIM_DEFAULT
340
0
102
{BLKREFS
102
}
0
BLOCK_RECORD
5
23E
330
243
100
AcDbSymbolTableRecord
100
AcDbBlockTableRecord
2
VDDIM_NONE
340
0
0
BLOCK_RECORD
5
F10011
330
243
100
AcDbSymbolTableRecord
100
AcDbBlockTableRecord
2
*D6
340
0
0
BLOCK_RECORD
5
F1001B
330
243
100
AcDbSymbolTableRecord
100
AcDbBlockTableRecord
2
*D8
340
0
0
BLOCK_RECORD
5
F10020
330
243
100
AcDbSymbolTableRecord
100
AcDbBlockTableRecord
2
*D9
340
0
0
BLOCK_RECORD
5
F1000C
330
243
100
AcDbSymbolTableRecord
100
AcDbBlockTableRecord
2
*D5
340
0
0
BLOCK_RECORD
5
F10007
330
243
100
AcDbSymbolTableRecord
100
AcDbBlockTableRecord
2
*D4
340
0
0
BLOCK_RECORD
5
F10002
330
243
100
AcDbSymbolTableRecord
100
AcDbBlockTableRecord
2
*D3
340
0
0
BLOCK_RECORD
5
F10016
330
243
100
AcDbSymbolTableRecord
100
AcDbBlockTableRecord
2
*D7
340
0
0
ENDTAB
0
ENDSEC
0
SECTION
2
BLOCKS
0
BLOCK
5
262
330
261
100
AcDbEntity
8
0
100
AcDbBlockBegin
2
*Model_Space
70
0
10
0.0
20
0.0
30
0.0
3
*Model_Space
1

0
ENDBLK
5
263
330
261
100
AcDbEntity
8
0
100
AcDbBlockEnd
0
BLOCK
5
25E
330
25D
100
AcDbEntity
67
1
8
0
100
AcDbBlockBegin
2
*Paper_Space
70
0
10
0.0
20
0.0
30
0.0
3
*Paper_Space
1

0
ENDBLK
5
25F
330
25D
100
AcDbEntity
67
1
8
0
100
AcDbBlockEnd
0
BLOCK
5
266
330
265
100
AcDbEntity
8
0
100
AcDbBlockBegin
2
*Paper_Space0
70
0
10
0.0
20
0.0
30
0.0
3
*Paper_Space0
1

0
VIEWPORT
5
296
102
{ACAD_XDICTIONARY
360
58E
102
}
330
265
100
AcDbEntity
8
0
60
1
100
AcDbViewport
10
0.0
20
0.0
30
0.0
40
10.0
41
10.0
69
0
12
0.0
22
0.0
13
0.0
23
0.0
14
1.0
24
1.0
15
0.0
25
0.0
16
0.0
26
0.0
36
1.0
17
0.0
27
0.0
37
0.0
42
0.0
43
0.0
44
0.0
45
10.0
50
0.0
51
0.0000000000007958
72
100
90
163872
1

281
0
71
0
74
0
110
0.0
120
0.0
130
0.0
111
1.0
121
0.0
131
0.0
112
0.0
122
1.0
132
0.0
79
0
146
0.0
1001
VD_INVISIBLE_NOT_FOR_READ
1000
VD_INVISIBLE_NOT_FOR_READ
0
VIEWPORT
5
297
102
{ACAD_XDICTIONARY
360
590
102
}
330
265
100
AcDbEntity
8
0
60
1
100
AcDbViewport
10
0.0
20
0.0
30
0.0
40
10.0
41
10.0
69
0
12
0.0
22
0.0
13
0.0
23
0.0
14
1.0
24
1.0
15
0.0
25
0.0
16
0.0
26
0.0
36
1.0
17
0.0
27
0.0
37
0.0
42
0.0
43
0.0
44
0.0
45
10.0
50
0.0
51
0.0000000000007958
72
100
90
163872
1

281
0
71
0
74
0
110
0.0
120
0.0
130
0.0
111
1.0
121
0.0
131
0.0
112
0.0
122
1.0
132
0.0
79
0
146
0.0
1001
VD_INVISIBLE_NOT_FOR_READ
1000
VD_INVISIBLE_NOT_FOR_READ
0
ENDBLK
5
267
330
265
100
AcDbEntity
8
0
100
AcDbBlockEnd
0
BLOCK
5
28B
330
23C
100
AcDbEntity
8
0
100
AcDbBlockBegin
2
VDDIM_DEFAULT
70
0
10
0.0
20
0.0
30
0.0
3
VDDIM_DEFAULT
1

0
LWPOLYLINE
5
23D
330
23C
100
AcDbEntity
8
0
6
Continuous
62
0
100
AcDbPolyline
90
4
70
0
43
0.0
10
0.0
20
0.0
10
-1.0
20
-0.1665
10
-1.0
20
0.1665
10
0.0
20
0.0
1001
VDEXTRAPARAM
1071
1
1071
0
1071
0
1040
1.0
1000

1000

1040
0.0
1040
0.0
0
HATCH
5
292
330
23C
100
AcDbEntity
8
0
6
Continuous
62
0
100
AcDbHatch
10
0.0
20
0.0
30
0.0
210
0.0
220
0.0
230
1.0
2
SOLID
70
1
71
0
91
1
92
2
72
0
73
1
93
3
10
0.0
20
0.0
10
-1.0
20
-0.1665
10
-1.0
20
0.1665
97
0
75
0
76
1
98
1
10
0.0
20
0.0
1001
VDEXTRAPARAM
1071
1
1071
0
1071
0
1040
1.0
1000

1000

1040
0.0
1040
0.0
1001
VD_TEMPHATCH
1000
VD_TEMPHATCH
0
ENDBLK
5
28C
330
23C
100
AcDbEntity
8
0
100
AcDbBlockEnd
0
BLOCK
5
28D
330
23E
100
AcDbEntity
8
0
100
AcDbBlockBegin
2
VDDIM_NONE
70
0
10
0.0
20
0.0
30
0.0
3
VDDIM_NONE
1

0
ENDBLK
5
28E
330
23E
100
AcDbEntity
8
0
100
AcDbBlockEnd
  0
BLOCK
  5
F10025
330
F10011
100
AcDbEntity
  8
0
100
AcDbBlockBegin
  2
*D6
 70
     1
 10
0.0
 20
0.0
 30
0.0
  3
*D6
  1

  0
LINE
  5
F10026
330
F10011
100
AcDbEntity
  8
Bemassung
 62
     0
370
    -2
100
AcDbLine
10
-66.6676460167520
20
9.26450116009291
30
0.000000000000000
11
-66.6676460167520
21
25.2645011600929
31
0.000000000000000
  0
LINE
  5
F10027
330
F10011
100
AcDbEntity
  8
Bemassung
 62
     0
370
    -2
100
AcDbLine
10
-19.6206496519721
20
8.76450116009291
30
0.000000000000000
11
-19.6206496519721
21
40.2645011600929
31
0.000000000000000
  0
LINE
  5
F10028
330
F10011
100
AcDbEntity
  8
Bemassung
 62
     0
370
    -2
100
AcDbLine
10
-66.6676460167520
20
23.2645011600929
30
0.000000000000000
11
37.5982286681496
21
23.2645011600929
31
0.000000000000000
  0
INSERT
  5
F10029
330
F10011
100
AcDbEntity
  8
Bemassung
 62
     0
370
    -2
100
AcDbBlockReference
  2
VDDIM_DEFAULT
10
-66.6676460167520
20
23.2645011600929
30
0.000000000000000
 41
2.50000000000000
 42
2.50000000000000
 43
2.50000000000000
 50
180.000000000000
  0
INSERT
  5
F1002A
330
F10011
100
AcDbEntity
  8
Bemassung
 62
     0
370
    -2
100
AcDbBlockReference
  2
VDDIM_DEFAULT
10
-19.6206496519721
20
23.2645011600929
30
0.000000000000000
 41
2.50000000000000
 42
2.50000000000000
 43
2.50000000000000
  0
MTEXT
  5
F1002B
330
F10011
100
AcDbEntity
  8
Bemassung
 62
     0
100
AcDbMText
10
-45.5102971627710
20
23.9311678267596
30
0.000000000000000
 40
2.50000000000000
 41
0.0
 71
     8
 72
     1
  1
47.047
 11
1.00000000000000
 21
0.000000000000000
 31
0.0
 73
     1
 44
1.0
1001
ACAD
1000
MTEXTBEGIN
1070
73
1070
1
1070
44
1040
1.0
1070
74
1070
0
1000
MTEXTEND
  0
POINT
  5
F1002C
330
F10011
100
AcDbEntity
  8
Bemassung
 62
     0
100
AcDbPoint
10
-66.6676460167520
20
9.26450116009291
30
0.000000000000000
  0
POINT
  5
F1002D
330
F10011
100
AcDbEntity
  8
Bemassung
 62
     0
100
AcDbPoint
10
-19.6206496519721
20
8.76450116009291
30
0.000000000000000
  0
ENDBLK
  5
F1002E
330
F10011
100
AcDbEntity
  8
0
100
AcDbBlockEnd
  0
BLOCK
  5
F1002F
330
F1001B
100
AcDbEntity
  8
0
100
AcDbBlockBegin
  2
*D8
 70
     1
 10
0.0
 20
0.0
 30
0.0
  3
*D8
  1

  0
LINE
  5
F10030
330
F1001B
100
AcDbEntity
  8
Bemassung
 62
     0
370
    -2
100
AcDbLine
10
-81.8206496519721
20
5.66450116009291
30
0.000000000000000
11
-81.8206496519721
21
0.597834493426236
31
0.000000000000000
  0
LINE
  5
F10031
330
F1001B
100
AcDbEntity
  8
Bemassung
 62
     0
370
    -2
100
AcDbLine
10
-83.6206496519721
20
0.597834493426236
30
0.000000000000000
11
-83.6206496519721
21
40.2645011600929
31
0.000000000000000
  0
LINE
  5
F10032
330
F1001B
100
AcDbEntity
  8
Bemassung
 62
     0
370
    -2
100
AcDbLine
10
-71.6227948267672
20
2.59783449342623
30
0.000000000000000
11
-83.6206496519721
21
2.59783449342624
31
0.000000000000000
  0
INSERT
  5
F10033
330
F1001B
100
AcDbEntity
  8
Bemassung
 62
     0
370
    -2
100
AcDbBlockReference
  2
VDDIM_DEFAULT
10
-81.8206496519721
20
2.59783449342624
30
0.000000000000000
 41
2.50000000000000
 42
2.50000000000000
 43
2.50000000000000
 50
180.000000000000
  0
INSERT
  5
F10034
330
F1001B
100
AcDbEntity
  8
Bemassung
 62
     0
370
    -2
100
AcDbBlockReference
  2
VDDIM_DEFAULT
10
-83.6206496519721
20
2.59783449342624
30
0.000000000000000
 41
2.50000000000000
 42
2.50000000000000
 43
2.50000000000000
  0
MTEXT
  5
F10035
330
F1001B
100
AcDbEntity
  8
Bemassung
 62
     0
100
AcDbMText
10
-79.5863109048724
20
3.26450116009290
30
0.000000000000000
 40
2.50000000000000
 41
0.0
 71
     8
 72
     1
  1
1.8
 11
1.00000000000000
 21
0.000000000000000
 31
0.0
 73
     1
 44
1.0
1001
ACAD
1000
MTEXTBEGIN
1070
73
1070
1
1070
44
1040
1.0
1070
74
1070
0
1000
MTEXTEND
  0
POINT
  5
F10036
330
F1001B
100
AcDbEntity
  8
Bemassung
 62
     0
100
AcDbPoint
10
-81.8206496519721
20
5.66450116009291
30
0.000000000000000
  0
POINT
  5
F10037
330
F1001B
100
AcDbEntity
  8
Bemassung
 62
     0
100
AcDbPoint
10
-83.6206496519721
20
0.597834493426236
30
0.000000000000000
  0
ENDBLK
  5
F10038
330
F1001B
100
AcDbEntity
  8
0
100
AcDbBlockEnd
  0
BLOCK
  5
F10039
330
F10020
100
AcDbEntity
  8
0
100
AcDbBlockBegin
  2
*D9
 70
     1
 10
0.0
 20
0.0
 30
0.0
  3
*D9
  1

  0
LINE
  5
F1003A
330
F10020
100
AcDbEntity
  8
Bemassung
 62
     0
370
    -2
100
AcDbLine
10
-19.6206496519721
20
8.76450116009291
30
0.000000000000000
11
-19.6206496519721
21
40.2645011600929
31
0.000000000000000
  0
LINE
  5
F1003B
330
F10020
100
AcDbEntity
  8
Bemassung
 62
     0
370
    -2
100
AcDbLine
10
-83.6206496519721
20
0.597834493426236
30
0.000000000000000
11
-83.6206496519721
21
40.2645011600929
31
0.000000000000000
  0
LINE
  5
F1003C
330
F10020
100
AcDbEntity
  8
Bemassung
 62
     0
370
    -2
100
AcDbLine
10
8.53763491682352
20
38.2645011600929
30
0.000000000000000
11
-83.6206496519721
21
38.2645011600929
31
0.000000000000000
  0
INSERT
  5
F1003D
330
F10020
100
AcDbEntity
  8
Bemassung
 62
     0
370
    -2
100
AcDbBlockReference
  2
VDDIM_DEFAULT
10
-19.6206496519721
20
38.2645011600929
30
0.000000000000000
 41
2.50000000000000
 42
2.50000000000000
 43
2.50000000000000
  0
INSERT
  5
F1003E
330
F10020
100
AcDbEntity
  8
Bemassung
 62
     0
370
    -2
100
AcDbBlockReference
  2
VDDIM_DEFAULT
10
-83.6206496519721
20
38.2645011600929
30
0.000000000000000
 41
2.50000000000000
 42
2.50000000000000
 43
2.50000000000000
 50
180.000000000000
  0
MTEXT
  5
F1003F
330
F10020
100
AcDbEntity
  8
Bemassung
 62
     0
100
AcDbMText
10
-53.7082607822327
20
38.9311678267596
30
0.000000000000000
 40
2.50000000000000
 41
0.0
 71
     8
 72
     1
  1
64
 11
1.00000000000000
 21
0.000000000000000
 31
0.0
 73
     1
 44
1.0
1001
ACAD
1000
MTEXTBEGIN
1070
73
1070
1
1070
44
1040
1.0
1070
74
1070
0
1000
MTEXTEND
  0
POINT
  5
F10040
330
F10020
100
AcDbEntity
  8
Bemassung
 62
     0
100
AcDbPoint
10
-19.6206496519721
20
8.76450116009291
30
0.000000000000000
  0
POINT
  5
F10041
330
F10020
100
AcDbEntity
  8
Bemassung
 62
     0
100
AcDbPoint
10
-83.6206496519721
20
0.597834493426236
30
0.000000000000000
  0
ENDBLK
  5
F10042
330
F10020
100
AcDbEntity
  8
0
100
AcDbBlockEnd
  0
BLOCK
  5
F10043
330
F1000C
100
AcDbEntity
  8
0
100
AcDbBlockBegin
  2
*D5
 70
     1
 10
0.0
 20
0.0
 30
0.0
  3
*D5
  1

 0
ARC
  5
F10044
330
F1000C
100
AcDbEntity
  8
Bemassung
 62
     0
370
   -2
100
AcDbCircle
10
-66.6676460167520
20
9.26450116009291
30
0.000000000000000
 40
8.25893239969006
100
AcDbArc
 50
0.000000000000000
 51
23.3580332531019
  0
LINE
  5
F10045
330
F1000C
100
AcDbEntity
  8
Bemassung
 62
     0
370
    -2
100
AcDbLine
10
-66.6676460167520
20
9.26450116009291
30
0.000000000000000
11
-56.4087136170620
21
9.26450116009291
31
0.000000000000000
  0
LINE
  5
F10046
330
F1000C
100
AcDbEntity
  8
Bemassung
 62
     0
370
    -2
100
AcDbLine
10
-66.6676460167520
20
9.26450116009291
30
0.000000000000000
11
-56.5350180986245
21
10.8693517619223
31
0.000000000000000
  0
INSERT
  5
F10047
330
F1000C
100
AcDbEntity
  8
Bemassung
 62
     0
370
    -2
100
AcDbBlockReference
  2
VDDIM_DEFAULT
10
-58.4087136170620
20
9.26450116009291
30
0.000000000000000
 41
2.50000000000000
 42
2.50000000000000
 43
2.50000000000000
 50
89.6531262956120
  0
INSERT
  5
F10048
330
F1000C
100
AcDbEntity
  8
Bemassung
 62
     0
370
    -2
100
AcDbBlockReference
  2
VDDIM_DEFAULT
10
-58.5103947798147
20
10.5564828318419
30
0.000000000000000
 41
2.50000000000000
 42
2.50000000000000
 43
2.50000000000000
 50
279.346873704390
  0
MTEXT
  5
F10049
330
F1000C
100
AcDbEntity
  8
Bemassung
 62
     0
100
AcDbMText
10
-61.2548116694506
20
15.5023845119459
30
0.000000000000000
 40
2.50000000000000
 41
0.0
 71
     8
 72
     1
  1
9°
 11
0.752576694706878
 21
-0.658504607868518
 31
0.0
 73
     1
 44
1.0
1001
ACAD
1000
MTEXTBEGIN
1070
73
1070
1
1070
44
1040
1.0
1070
74
1070
0
1000
MTEXTEND
  0
POINT
  5
F1004A
330
F1000C
100
AcDbEntity
  8
Bemassung
 62
     0
100
AcDbPoint
10
-66.6676460167520
20
9.26450116009291
30
0.000000000000000
  0
POINT
  5
F1004B
330
F1000C
100
AcDbEntity
  8
Bemassung
 62
     0
100
AcDbPoint
10
-58.4087136170620
20
9.26450116009291
30
0.000000000000000
  0
POINT
  5
F1004C
330
F1000C
100
AcDbEntity
  8
Bemassung
 62
     0
100
AcDbPoint
10
-58.5103947798147
20
10.5564828318419
30
0.000000000000000
  0
POINT
  5
F1004D
330
F1000C
100
AcDbEntity
  8
Bemassung
 62
     0
100
AcDbPoint
10
-58.4341731493709
20
9.91248952784999
30
0.000000000000000
  0
ENDBLK
  5
F1004E
330
F1000C
100
AcDbEntity
  8
0
100
AcDbBlockEnd
  0
BLOCK
  5
F1004F
330
F10007
100
AcDbEntity
  8
0
100
AcDbBlockBegin
  2
*D4
 70
     1
 10
0.0
 20
0.0
 30
0.0
  3
*D4
  1

  0
LINE
  5
F10050
330
F10007
100
AcDbEntity
  8
Bemassung
 62
     0
370
    -2
100
AcDbLine
10
-83.5947947650331
20
6.83160184719201
30
0.000000000000000
11
-97.9663659774766
21
19.8377497001921
31
0.000000000000000
  0
INSERT
  5
F10051
330
F10007
100
AcDbEntity
  8
Bemassung
 62
     0
370
    -2
100
AcDbBlockReference
  2
VDDIM_DEFAULT
10
-83.5947947650331
20
6.83160184719201
30
0.000000000000000
 41
2.50000000000000
 42
2.50000000000000
 43
2.50000000000000
 50
317.855176774531
  0
MTEXT
  5
F10052
330
F10007
100
AcDbEntity
  8
Bemassung
 62
     0
100
AcDbMText
10
-93.7189764296856
20
15.9938988343921
30
0.000000000000000
 40
2.50000000000000
 41
0.0
 71
     8
 72
     1
  1
R0.1
 11
0.741451130609950
 21
-0.671006870991070
 31
0.0
 73
     1
 44
1.0
1001
ACAD
1000
MTEXTBEGIN
1070
73
1070
1
1070
44
1040
1.0
1070
74
1070
0
1000
MTEXTEND
  0
POINT
  5
F10053
330
F10007
100
AcDbEntity
  8
Bemassung
 62
     0
100
AcDbPoint
10
-83.5947947650331
20
6.83160184719201
30
0.000000000000000
  0
POINT
  5
F10054
330
F10007
100
AcDbEntity
  8
Bemassung
 62
     0
100
AcDbPoint
10
-83.5206496519721
20
6.76450116009291
30
0.000000000000000
  0
ENDBLK
  5
F10055
330
F10007
100
AcDbEntity
  8
0
100
AcDbBlockEnd
  0
BLOCK
  5
F10056
330
F10002
100
AcDbEntity
  8
0
100
AcDbBlockBegin
  2
*D3
 70
     1
 10
0.0
 20
0.0
 30
0.0
  3
*D3
  1

  0
LINE
  5
F10057
330
F10002
100
AcDbEntity
  8
Bemassung
 62
     0
370
    -2
100
AcDbLine
10
-83.5206496519721
20
5.66450116009291
30
0.000000000000000
11
-100.620649651972
21
5.66450116009291
31
0.000000000000000
  0
LINE
  5
F10058
330
F10002
100
AcDbEntity
  8
Bemassung
 62
     0
370
    -2
100
AcDbLine
10
-83.5206496519721
20
6.86450116009290
30
0.000000000000000
11
-100.620649651972
21
6.86450116009290
31
0.000000000000000
  0
LINE
  5
F10059
330
F10002
100
AcDbEntity
  8
Bemassung
 62
     0
370
    -2
100
AcDbLine
10
-98.6206496519721
20
-1.10900620944463
30
0.000000000000000
11
-98.6206496519721
21
8.64287088831581
31
0.000000000000000
  0
INSERT
  5
F1005A
330
F10002
100
AcDbEntity
  8
Bemassung
 62
     0
370
    -2
100
AcDbBlockReference
  2
VDDIM_DEFAULT
10
-98.6206496519721
20
5.66450116009291
30
0.000000000000000
 41
2.50000000000000
 42
2.50000000000000
 43
2.50000000000000
 50
90.0000000000000
  0
INSERT
  5
F1005B
330
F10002
100
AcDbEntity
  8
Bemassung
 62
     0
370
    -2
100
AcDbBlockReference
  2
VDDIM_DEFAULT
10
-98.6206496519721
20
6.86450116009290
30
0.000000000000000
 41
2.50000000000000
 42
2.50000000000000
 43
2.50000000000000
 50
270.000000000000
  0
MTEXT
  5
F1005C
330
F10002
100
AcDbEntity
  8
Bemassung
 62
     0
100
AcDbMText
10
-97.9539829853054
20
7.08097447795832
30
0.000000000000000
 40
2.50000000000000
 41
0.0
 71
     8
 72
     1
  1
1.2
 11
6.12323399573677e-017
 21
1.00000000000000
 31
0.0
 73
     1
 44
1.0
1001
ACAD
1000
MTEXTBEGIN
1070
73
1070
1
1070
44
1040
1.0
1070
74
1070
0
1000
MTEXTEND
  0
POINT
  5
F1005D
330
F10002
100
AcDbEntity
  8
Bemassung
 62
     0
100
AcDbPoint
10
-83.5206496519721
20
5.66450116009291
30
0.000000000000000
  0
POINT
  5
F1005E
330
F10002
100
AcDbEntity
  8
Bemassung
 62
     0
100
AcDbPoint
10
-83.5206496519721
20
6.86450116009290
30
0.000000000000000
  0
ENDBLK
  5
F1005F
330
F10002
100
AcDbEntity
  8
0
100
AcDbBlockEnd
  0
BLOCK
  5
F10060
330
F10016
100
AcDbEntity
  8
0
100
AcDbBlockBegin
  2
*D7
 70
     1
 10
0.0
 20
0.0
 30
0.0
  3
*D7
  1

  0
LINE
  5
F10061
330
F10016
100
AcDbEntity
  8
Bemassung
 62
     0
370
    -2
100
AcDbLine
10
-20.1206496519721
20
3.26450116009291
30
0.000000000000000
11
-7.62064965197213
21
3.26450116009291
31
0.000000000000000
  0
LINE
  5
F10062
330
F10016
100
AcDbEntity
  8
Bemassung
 62
     0
370
    -2
100
AcDbLine
10
-20.1206496519721
20
9.26450116009291
30
0.000000000000000
11
-7.62064965197213
21
9.26450116009291
31
0.000000000000000
  0
LINE
  5
F10063
330
F10016
100
AcDbEntity
  8
Bemassung
 62
     0
370
    -2
100
AcDbLine
10
-9.62064965197213
20
1.62151937792831
30
0.000000000000000
11
-9.62064965197213
21
10.7882838498231
31
0.000000000000000
  0
INSERT
  5
F10064
330
F10016
100
AcDbEntity
  8
Bemassung
 62
     0
370
    -2
100
AcDbBlockReference
  2
VDDIM_DEFAULT
10
-9.62064965197213
20
3.26450116009291
30
0.000000000000000
 41
2.50000000000000
 42
2.50000000000000
 43
2.50000000000000
 50
270.000000000000
  0
INSERT
  5
F10065
330
F10016
100
AcDbEntity
  8
Bemassung
 62
     0
370
    -2
100
AcDbBlockReference
  2
VDDIM_DEFAULT
10
-9.62064965197213
20
9.26450116009291
30
0.000000000000000
 41
2.50000000000000
 42
2.50000000000000
 43
2.50000000000000
 50
90.0000000000000
  0
MTEXT
  5
F10066
330
F10016
100
AcDbEntity
  8
Bemassung
 62
     0
100
AcDbMText
10
-8.95398298530546
20
6.26450116009291
30
0.000000000000000
 40
2.50000000000000
 41
0.0
 71
     8
 72
     1
  1
6h5
 11
6.12323399573677e-017
 21
1.00000000000000
 31
0.0
 73
     1
 44
1.0
  0
POINT
  5
F10067
330
F10016
100
AcDbEntity
  8
Bemassung
 62
     0
100
AcDbPoint
10
-20.1206496519721
20
3.26450116009291
30
0.000000000000000
  0
POINT
  5
F10068
330
F10016
100
AcDbEntity
  8
Bemassung
 62
     0
100
AcDbPoint
10
-20.1206496519721
20
9.26450116009291
30
0.000000000000000
  0
ENDBLK
  5
F10069
330
F10016
100
AcDbEntity
  8
0
100
AcDbBlockEnd
0
ENDSEC
0
SECTION
2
ENTITIES
  0
DIMENSION
  5
F10012
330
261
100
AcDbEntity
  8
Bemassung
100
AcDbDimension
  2
*D6
10
-19.6206496519721
20
23.2645011600929
30
0.000000000000000
11
-45.5102971627710
21
23.9311678267596
31
0.000000000000000
 70
32
 1
47.047
 71
     8
  3
BEM-ISBE
100
AcDbAlignedDimension
13
-66.6676460167520
23
9.26450116009291
33
0.000000000000000
14
-19.6206496519721
24
8.76450116009291
34
0.000000000000000
100
AcDbRotatedDimension
1001
ACAD
1000
DSTYLE
1002
{
1070
284
1070
8
1070
78
1070
8
1070
144
1040
1.00000000000000
1070
147
1040
0.625
1070
 72
1070
 0
1070
 71
1070
 0
1002
}
  0
DIMENSION
  5
F1001C
330
261
100
AcDbEntity
  8
Bemassung
100
AcDbDimension
  2
*D8
10
-83.6206496519721
20
2.59783449342624
30
0.000000000000000
11
-79.5863109048724
21
3.26450116009290
31
0.000000000000000
 70
32
 1
1.8
 71
     8
  3
BEM-ISBE
100
AcDbAlignedDimension
13
-81.8206496519721
23
5.66450116009291
33
0.000000000000000
14
-83.6206496519721
24
0.597834493426236
34
0.000000000000000
100
AcDbRotatedDimension
1001
ACAD
1000
DSTYLE
1002
{
1070
284
1070
8
1070
78
1070
8
1070
144
1040
1.00000000000000
1070
147
1040
0.625
1070
 72
1070
 0
1070
 71
1070
 0
1002
}
  0
DIMENSION
  5
F10021
330
261
100
AcDbEntity
  8
Bemassung
100
AcDbDimension
  2
*D9
10
-83.6206496519721
20
38.2645011600929
30
0.000000000000000
11
-53.7082607822327
21
38.9311678267596
31
0.000000000000000
 70
32
 1
64
 71
     8
  3
BEM-ISBE
100
AcDbAlignedDimension
13
-19.6206496519721
23
8.76450116009291
33
0.000000000000000
14
-83.6206496519721
24
0.597834493426236
34
0.000000000000000
100
AcDbRotatedDimension
1001
ACAD
1000
DSTYLE
1002
{
1070
284
1070
8
1070
78
1070
8
1070
144
1040
1.00000000000000
1070
147
1040
0.625
1070
 72
1070
 0
1070
 71
1070
 0
1002
}
  0
DIMENSION
  5
F1000D
330
261
100
AcDbEntity
  8
Bemassung
100
AcDbDimension
  2
*D5
10
-66.6676460167520
20
9.26450116009291
30
0.000000000000000
11
-61.2548116694506
21
15.5023845119459
31
0.000000000000000
 70
34
 1
9°
 71
     8
  3
BEM-ISBE
100
AcDb2LineAngularDimension
13
-66.6676460167520
23
9.26450116009291
33
0.000000000000000
14
-59.0855721623452
24
12.5389660704212
34
0.000000000000000
15
-58.4087136170620
25
9.26450116009291
35
0.000000000000000
16
-58.4341731493709
26
9.91248952784999
36
0.000000000000000
1001
ACAD
1000
DSTYLE
1002
{
1070
284
1070
8
1070
79
1070
2
1070
147
1040
0.625
1070
 72
1070
 0
1070
 71
1070
 0
1002
}
  0
DIMENSION
  5
F10008
330
261
100
AcDbEntity
  8
Bemassung
100
AcDbDimension
  2
*D4
10
-83.5206496519721
20
6.76450116009291
30
0.000000000000000
11
-93.7189764296856
21
15.9938988343921
31
0.000000000000000
 70
164
 1
R0.1
 71
     8
  3
BEM-ISBE
100
AcDbRadialDimension
15
-83.5947947650331
25
6.83160184719201
35
0.000000000000000
40
0.0
1001
ACAD
1000
DSTYLE
1002
{
1070
284
1070
8
1070
78
1070
8
1070
144
1040
1.00000000000000
1070
147
1040
0.625
1070
 72
1070
 0
1070
 71
1070
 0
1002
}
  0
DIMENSION
  5
F10003
330
261
100
AcDbEntity
  8
Bemassung
100
AcDbDimension
  2
*D3
10
-98.6206496519721
20
6.86450116009290
30
0.000000000000000
11
-97.9539829853054
21
7.08097447795832
31
0.000000000000000
 70
32
 1
1.2
 71
     8
  3
BEM-ISBE
100
AcDbAlignedDimension
13
-83.5206496519721
23
5.66450116009291
33
0.000000000000000
14
-83.5206496519721
24
6.86450116009290
34
0.000000000000000
50
90.0000000000000
100
AcDbRotatedDimension
1001
ACAD
1000
DSTYLE
1002
{
1070
284
1070
8
1070
78
1070
8
1070
144
1040
1.00000000000000
1070
147
1040
0.625
1070
 72
1070
 0
1070
 71
1070
 0
1002
}
  0
DIMENSION
  5
F10017
330
261
100
AcDbEntity
  8
Bemassung
100
AcDbDimension
  2
*D7
10
-9.62064965197213
20
9.26450116009291
30
0.000000000000000
11
-8.95398298530546
21
6.26450116009291
31
0.000000000000000
 70
32
 1
6h5
 71
     8
  3
BEM-ISBE
100
AcDbAlignedDimension
13
-20.1206496519721
23
3.26450116009291
33
0.000000000000000
14
-20.1206496519721
24
9.26450116009291
34
0.000000000000000
50
90.0000000000000
100
AcDbRotatedDimension
1001
ACAD
1000
DSTYLE
1002
{
1070
284
1070
8
1070
78
1070
8
1070
144
1040
1.00000000000000
1070
147
1040
0.625
1070
 72
1070
 0
1070
 71
1070
 0
1002
}
  0
LINE
  5
F1006A
330
F1006B
100
AcDbEntity
8
Geo
100
AcDbLine
10
-83.6032502216561
20
6.26450116009291
30
0.000000000000000
11
-83.6205887346740
21
6.76101121042266
31
0.000000000000000
  0
ARC
  5
F1006C
330
F1006D
100
AcDbEntity
8
Geo
100
AcDbCircle
10
-83.5206496519721
20
6.76450116009291
30
0.000000000000000
 40
0.0999999999999996
100
AcDbArc
 50
90.0000000000000
 51
182.000000000000
  0
LINE
  5
F1006E
330
F1006F
100
AcDbEntity
8
Geo
100
AcDbLine
10
-83.5206496519721
20
6.86450116009290
30
0.000000000000000
11
-81.8206496519721
21
6.86450116009290
31
0.000000000000000
  0
LINE
  5
F10070
330
F10071
100
AcDbEntity
8
Geo
100
AcDbLine
10
-81.8206496519721
20
6.86450116009290
30
0.000000000000000
11
-66.6676460167520
21
9.26450116009291
31
0.000000000000000
  0
LINE
  5
F10072
330
F10073
100
AcDbEntity
8
Geo
100
AcDbLine
10
-66.6676460167520
20
9.26450116009291
30
0.000000000000000
11
-20.1206496519721
21
9.26450116009291
31
0.000000000000000
  0
LINE
  5
F10074
330
F10075
100
AcDbEntity
8
Geo
100
AcDbLine
10
-20.1206496519721
20
9.26450116009291
30
0.000000000000000
11
-19.6206496519721
21
8.76450116009291
31
0.000000000000000
  0
LINE
  5
F10076
330
F10077
100
AcDbEntity
8
Geo
100
AcDbLine
10
-81.9456496519721
20
6.86450116009290
30
0.000000000000000
11
-81.8456496519721
21
6.82257661933617
31
0.000000000000000
  0
LINE
  5
F10078
330
F10079
100
AcDbEntity
8
Geo
100
AcDbLine
10
-81.8456496519721
20
6.82257661933617
30
0.000000000000000
11
-81.8206496519721
21
6.75909271727115
31
0.000000000000000
  0
LINE
  5
F1007A
330
F1007B
100
AcDbEntity
8
Geo
100
AcDbLine
10
-83.6206496519721
20
6.76450116009291
30
0.000000000000000
11
-83.5206496519721
21
6.86386127386259
31
0.000000000000000
  0
LINE
  5
F1007C
330
F1007D
100
AcDbEntity
8
Geo
100
AcDbLine
10
-83.5206496519721
20
6.86386127386259
30
0.000000000000000
11
-83.4206496519721
21
6.86194298001961
31
0.000000000000000
  0
LINE
  5
F1007E
330
F1007F
100
AcDbEntity
8
Geo
100
AcDbLine
10
-83.4206496519721
20
6.86194298001961
30
0.000000000000000
11
-83.3206496519721
21
6.85875037019669
31
0.000000000000000
  0
LINE
  5
F10080
330
F10081
100
AcDbEntity
8
Geo
100
AcDbLine
10
-83.3206496519721
20
6.85875037019669
30
0.000000000000000
11
-83.2206496519721
21
6.85429025408403
31
0.000000000000000
  0
LINE
  5
F10082
330
F10083
100
AcDbEntity
8
Geo
100
AcDbLine
10
-83.2206496519721
20
6.85429025408403
30
0.000000000000000
11
-83.1206496519721
21
6.84857214490459
31
0.000000000000000
  0
LINE
  5
F10084
330
F10085
100
AcDbEntity
8
Geo
100
AcDbLine
10
-83.1206496519721
20
6.84857214490459
30
0.000000000000000
11
-83.0206496519721
21
6.84160823912280
31
0.000000000000000
  0
LINE
  5
F10086
330
F10087
100
AcDbEntity
8
Geo
100
AcDbLine
10
-83.0206496519721
20
6.84160823912280
30
0.000000000000000
11
-82.9206496519721
21
6.83341339043005
31
0.000000000000000
  0
LINE
  5
F10088
330
F10089
100
AcDbEntity
8
Geo
100
AcDbLine
10
-82.9206496519721
20
6.83341339043005
30
0.000000000000000
11
-82.8206496519721
21
6.82400507806247
31
0.000000000000000
  0
LINE
  5
F1008A
330
F1008B
100
AcDbEntity
8
Geo
100
AcDbLine
10
-82.8206496519721
20
6.82400507806247
30
0.000000000000000
11
-82.7206496519721
21
6.81340336951851
31
0.000000000000000
  0
LINE
  5
F1008C
330
F1008D
100
AcDbEntity
8
Geo
100
AcDbLine
10
-82.7206496519721
20
6.81340336951851
30
0.000000000000000
11
-82.6206496519721
21
6.80163087775588
31
0.000000000000000
  0
LINE
  5
F1008E
330
F1008F
100
AcDbEntity
8
Geo
100
AcDbLine
10
-82.6206496519721
20
6.80163087775588
30
0.000000000000000
11
-82.5206496519721
21
6.78871271295917
31
0.000000000000000
  0
LINE
  5
F10090
330
F10091
100
AcDbEntity
8
Geo
100
AcDbLine
10
-82.5206496519721
20
6.78871271295917
30
0.000000000000000
11
-82.4206496519721
21
6.77467642898096
31
0.000000000000000
  0
LINE
  5
F10092
330
F10093
100
AcDbEntity
8
Geo
100
AcDbLine
10
-82.4206496519721
20
6.77467642898096
30
0.000000000000000
11
-82.3206496519721
21
6.75955196457073
31
0.000000000000000
  0
LINE
  5
F10094
330
F10095
100
AcDbEntity
8
Geo
100
AcDbLine
10
-82.3206496519721
20
6.75955196457073
30
0.000000000000000
11
-82.2206496519721
21
6.74337157951686
31
0.000000000000000
  0
LINE
  5
F10096
330
F10097
100
AcDbEntity
8
Geo
100
AcDbLine
10
-82.2206496519721
20
6.74337157951686
30
0.000000000000000
11
-82.1206496519721
21
6.72616978583801
31
0.000000000000000
  0
LINE
  5
F10098
330
F10099
100
AcDbEntity
8
Geo
100
AcDbLine
10
-82.1206496519721
20
6.72616978583801
30
0.000000000000000
11
-82.0456496519721
21
6.71262013314889
31
0.000000000000000
  0
LINE
  5
F1009A
330
F1009B
100
AcDbEntity
8
Geo
100
AcDbLine
10
-82.0456496519721
20
6.71262013314889
30
0.000000000000000
11
-81.9456496519721
21
6.72363276675549
31
0.000000000000000
  0
LINE
  5
F1009C
330
F1009D
100
AcDbEntity
8
Geo
100
AcDbLine
10
-81.9456496519721
20
6.72363276675549
30
0.000000000000000
11
-81.8456496519721
21
6.75041758971532
31
0.000000000000000
  0
LINE
  5
F1009E
330
F1009F
100
AcDbEntity
8
Geo
100
AcDbLine
10
-81.8456496519721
20
6.75041758971532
30
0.000000000000000
11
-81.8206496519721
21
6.75909271727115
31
0.000000000000000
  0
LINE
  5
F100A0
330
F100A1
100
AcDbEntity
8
Geo
100
AcDbLine
10
-83.6206496519721
20
6.74002941824048
30
0.000000000000000
11
-83.5206496519721
21
6.82596581630348
31
0.000000000000000
  0
LINE
  5
F100A2
330
F100A3
100
AcDbEntity
8
Geo
100
AcDbLine
10
-83.5206496519721
20
6.82596581630348
30
0.000000000000000
11
-83.4206496519721
21
6.81559898439590
31
0.000000000000000
  0
LINE
  5
F100A4
330
F100A5
100
AcDbEntity
8
Geo
100
AcDbLine
10
-83.4206496519721
20
6.81559898439590
30
0.000000000000000
11
-83.3206496519721
21
6.80405668612391
31
0.000000000000000
  0
LINE
  5
F100A6
330
F100A7
100
AcDbEntity
8
Geo
100
AcDbLine
10
-83.3206496519721
20
6.80405668612391
30
0.000000000000000
11
-83.2206496519721
21
6.79136354067992
31
0.000000000000000
  0
LINE
  5
F100A8
330
F100A9
100
AcDbEntity
8
Geo
100
AcDbLine
10
-83.2206496519721
20
6.79136354067992
30
0.000000000000000
11
-83.1206496519721
21
6.77754662196058
31
0.000000000000000
  0
LINE
  5
F100AA
330
F100AB
100
AcDbEntity
8
Geo
100
AcDbLine
10
-83.1206496519721
20
6.77754662196058
30
0.000000000000000
11
-83.0206496519721
21
6.76263540081933
31
0.000000000000000
  0
LINE
  5
F100AC
330
F100AD
100
AcDbEntity
8
Geo
100
AcDbLine
10
-83.0206496519721
20
6.76263540081933
30
0.000000000000000
11
-82.9206496519721
21
6.74666168220644
31
0.000000000000000
  0
LINE
  5
F100AE
330
F100AF
100
AcDbEntity
8
Geo
100
AcDbLine
10
-82.9206496519721
20
6.74666168220644
30
0.000000000000000
11
-82.8206496519721
21
6.72965953733056
31
0.000000000000000
  0
LINE
  5
F100B0
330
F100B1
100
AcDbEntity
8
Geo
100
AcDbLine
10
-82.8206496519721
20
6.72965953733056
30
0.000000000000000
11
-82.7206496519721
21
6.71166523098631
31
0.000000000000000
  0
LINE
  5
F100B2
330
F100B3
100
AcDbEntity
8
Geo
100
AcDbLine
10
-82.7206496519721
20
6.71166523098631
30
0.000000000000000
11
-82.6206496519721
21
6.69271714420321
31
0.000000000000000
  0
LINE
  5
F100B4
330
F100B5
100
AcDbEntity
8
Geo
100
AcDbLine
10
-82.6206496519721
20
6.69271714420321
30
0.000000000000000
11
-82.5206496519721
21
6.67285569238067
31
0.000000000000000
  0
LINE
  5
F100B6
330
F100B7
100
AcDbEntity
8
Geo
100
AcDbLine
10
-82.5206496519721
20
6.67285569238067
30
0.000000000000000
11
-82.4206496519721
21
6.65212323908381
31
0.000000000000000
  0
LINE
  5
F100B8
330
F100B9
100
AcDbEntity
8
Geo
100
AcDbLine
10
-82.4206496519721
20
6.65212323908381
30
0.000000000000000
11
-82.3206496519721
21
6.63056400568391
31
0.000000000000000
  0
LINE
  5
F100BA
330
F100BB
100
AcDbEntity
8
Geo
100
AcDbLine
10
-82.3206496519721
20
6.63056400568391
30
0.000000000000000
11
-82.2206496519721
21
6.60822397703627
31
0.000000000000000
  0
LINE
  5
F100BC
330
F100BD
100
AcDbEntity
8
Geo
100
AcDbLine
10
-82.2206496519721
20
6.60822397703627
30
0.000000000000000
11
-82.1206496519721
21
6.58515080339660
31
0.000000000000000
  0
LINE
  5
F100BE
330
F100BF
100
AcDbEntity
8
Geo
100
AcDbLine
10
-82.1206496519721
20
6.58515080339660
30
0.000000000000000
11
-82.0456496519721
21
6.56739434622236
31
0.000000000000000
  0
LINE
  5
F100C0
330
F100C1
100
AcDbEntity
8
Geo
100
AcDbLine
10
-82.0456496519721
20
6.56739434622236
30
0.000000000000000
11
-81.9456496519721
21
6.42844122797185
31
0.000000000000000
  0
LINE
  5
F100C2
330
F100C3
100
AcDbEntity
8
Geo
100
AcDbLine
10
-81.9456496519721
20
6.42844122797185
30
0.000000000000000
11
-81.8456496519721
21
6.04415647150155
31
0.000000000000000
  0
LINE
  5
F100C4
330
F100C5
100
AcDbEntity
8
Geo
100
AcDbLine
10
-81.8456496519721
20
6.04415647150155
30
0.000000000000000
11
-81.8206496519721
21
5.92482603358524
31
0.000000000000000
  0
LINE
  5
F100C6
330
F100C7
100
AcDbEntity
8
Geo
100
AcDbLine
10
-83.6206496519721
20
6.26450116009290
30
0.000000000000000
11
-83.5206496519721
21
6.23679819956541
31
0.000000000000000
  0
LINE
  5
F100C8
330
F100C9
100
AcDbEntity
8
Geo
100
AcDbLine
10
-83.5206496519721
20
6.23679819956541
30
0.000000000000000
11
-83.4206496519721
21
6.20915432818119
31
0.000000000000000
  0
LINE
  5
F100CA
330
F100CB
100
AcDbEntity
8
Geo
100
AcDbLine
10
-83.4206496519721
20
6.20915432818119
30
0.000000000000000
11
-83.3206496519721
21
6.18162850904908
31
0.000000000000000
  0
LINE
  5
F100CC
330
F100CD
100
AcDbEntity
8
Geo
100
AcDbLine
10
-83.3206496519721
20
6.18162850904908
30
0.000000000000000
11
-83.2206496519721
21
6.15427945347787
31
0.000000000000000
  0
LINE
  5
F100CE
330
F100CF
100
AcDbEntity
8
Geo
100
AcDbLine
10
-83.2206496519721
20
6.15427945347787
30
0.000000000000000
11
-83.1206496519721
21
6.12716549574782
31
0.000000000000000
  0
LINE
  5
F100D0
330
F100D1
100
AcDbEntity
8
Geo
100
AcDbLine
10
-83.1206496519721
20
6.12716549574782
30
0.000000000000000
11
-83.0206496519721
21
6.10034446868624
31
0.000000000000000
  0
LINE
  5
F100D2
330
F100D3
100
AcDbEntity
8
Geo
100
AcDbLine
10
-83.0206496519721
20
6.10034446868624
30
0.000000000000000
11
-82.9206496519721
21
6.07387358031282
31
0.000000000000000
  0
LINE
  5
F100D4
330
F100D5
100
AcDbEntity
8
Geo
100
AcDbLine
10
-82.9206496519721
20
6.07387358031282
30
0.000000000000000
11
-82.8206496519721
21
6.04780929181746
31
0.000000000000000
  0
LINE
  5
F100D6
330
F100D7
100
AcDbEntity
8
Geo
100
AcDbLine
10
-82.8206496519721
20
6.04780929181746
30
0.000000000000000
11
-82.7206496519721
21
6.02220719713120
31
0.000000000000000
  0
LINE
  5
F100D8
330
F100D9
100
AcDbEntity
8
Geo
100
AcDbLine
10
-82.7206496519721
20
6.02220719713120
30
0.000000000000000
11
-82.6206496519721
21
5.99712190434689
31
0.000000000000000
  0
LINE
  5
F100DA
330
F100DB
100
AcDbEntity
8
Geo
100
AcDbLine
10
-82.6206496519721
20
5.99712190434689
30
0.000000000000000
11
-82.5206496519721
21
5.97260691924267
31
0.000000000000000
  0
LINE
  5
F100DC
330
F100DD
100
AcDbEntity
8
Geo
100
AcDbLine
10
-82.5206496519721
20
5.97260691924267
30
0.000000000000000
11
-82.4206496519721
21
5.94871453115653
31
0.000000000000000
  0
LINE
  5
F100DE
330
F100DF
100
AcDbEntity
8
Geo
100
AcDbLine
10
-82.4206496519721
20
5.94871453115653
30
0.000000000000000
11
-82.3206496519721
21
5.92549570145565
31
0.000000000000000
  0
LINE
  5
F100E0
330
F100E1
100
AcDbEntity
8
Geo
100
AcDbLine
10
-82.3206496519721
20
5.92549570145565
30
0.000000000000000
11
-82.2206496519721
21
5.90299995483803
31
0.000000000000000
  0
LINE
  5
F100E2
330
F100E3
100
AcDbEntity
8
Geo
100
AcDbLine
10
-82.2206496519721
20
5.90299995483803
30
0.000000000000000
11
-82.1206496519721
21
5.88127527369870
31
0.000000000000000
  0
LINE
  5
F100E4
330
F100E5
100
AcDbEntity
8
Geo
100
AcDbLine
10
-82.1206496519721
20
5.88127527369870
30
0.000000000000000
11
-82.0456496519721
21
5.86551571425904
31
0.000000000000000
  0
LINE
  5
F100E6
330
F100E7
100
AcDbEntity
8
Geo
100
AcDbLine
10
-82.0456496519721
20
5.86551571425904
30
0.000000000000000
11
-81.9456496519721
21
5.87823937352396
31
0.000000000000000
  0
LINE
  5
F100E8
330
F100E9
100
AcDbEntity
8
Geo
100
AcDbLine
10
-81.9456496519721
20
5.87823937352396
30
0.000000000000000
11
-81.8456496519721
21
5.91252783237757
31
0.000000000000000
  0
LINE
  5
F100EA
330
F100EB
100
AcDbEntity
8
Geo
100
AcDbLine
10
-81.8456496519721
20
5.91252783237757
30
0.000000000000000
11
-81.8206496519721
21
5.92482603358524
31
0.000000000000000
  0
LINE
  5
F100EC
330
F100ED
100
AcDbEntity
8
Geo
100
AcDbLine
10
-83.6206496519721
20
6.10999266290543
30
0.000000000000000
11
-83.5206496519721
21
6.05294161805724
31
0.000000000000000
  0
LINE
  5
F100EE
330
F100EF
100
AcDbEntity
8
Geo
100
AcDbLine
10
-83.5206496519721
20
6.05294161805724
30
0.000000000000000
11
-83.4206496519721
21
6.02724351943933
31
0.000000000000000
  0
LINE
  5
F100F0
330
F100F1
100
AcDbEntity
8
Geo
100
AcDbLine
10
-83.4206496519721
20
6.02724351943933
30
0.000000000000000
11
-83.3206496519721
21
6.00205148047907
31
0.000000000000000
  0
LINE
  5
F100F2
330
F100F3
100
AcDbEntity
8
Geo
100
AcDbLine
10
-83.3206496519721
20
6.00205148047907
30
0.000000000000000
11
-83.2206496519721
21
5.97741923463925
31
0.000000000000000
  0
LINE
  5
F100F4
330
F100F5
100
AcDbEntity
8
Geo
100
AcDbLine
10
-83.2206496519721
20
5.97741923463925
30
0.000000000000000
11
-83.1206496519721
21
5.95339932136966
31
0.000000000000000
  0
LINE
  5
F100F6
330
F100F7
100
AcDbEntity
8
Geo
100
AcDbLine
10
-83.1206496519721
20
5.95339932136966
30
0.000000000000000
11
-83.0206496519721
21
5.93004297404283
31
0.000000000000000
  0
LINE
  5
F100F8
330
F100F9
100
AcDbEntity
8
Geo
100
AcDbLine
10
-83.0206496519721
20
5.93004297404283
30
0.000000000000000
11
-82.9206496519721
21
5.90740001067555
31
0.000000000000000
  0
LINE
  5
F100FA
330
F100FB
100
AcDbEntity
8
Geo
100
AcDbLine
10
-82.9206496519721
20
5.90740001067555
30
0.000000000000000
11
-82.8206496519721
21
5.88551872766941
31
0.000000000000000
  0
LINE
  5
F100FC
330
F100FD
100
AcDbEntity
8
Geo
100
AcDbLine
10
-82.8206496519721
20
5.88551872766941
30
0.000000000000000
11
-82.7206496519721
21
5.86444579679673
31
0.000000000000000
  0
LINE
  5
F100FE
330
F100FF
100
AcDbEntity
8
Geo
100
AcDbLine
10
-82.7206496519721
20
5.86444579679673
30
0.000000000000000
11
-82.6206496519721
21
5.84422616565184
31
0.000000000000000
  0
LINE
  5
F10100
330
F10101
100
AcDbEntity
8
Geo
100
AcDbLine
10
-82.6206496519721
20
5.84422616565184
30
0.000000000000000
11
-82.5206496519721
21
5.82490296177991
31
0.000000000000000
  0
LINE
  5
F10102
330
F10103
100
AcDbEntity
8
Geo
100
AcDbLine
10
-82.5206496519721
20
5.82490296177991
30
0.000000000000000
11
-82.4206496519721
21
5.80651740068787
31
0.000000000000000
  0
LINE
  5
F10104
330
F10105
100
AcDbEntity
8
Geo
100
AcDbLine
10
-82.4206496519721
20
5.80651740068787
30
0.000000000000000
11
-82.3206496519721
21
5.78910869793368
31
0.000000000000000
  0
LINE
  5
F10106
330
F10107
100
AcDbEntity
8
Geo
100
AcDbLine
10
-82.3206496519721
20
5.78910869793368
30
0.000000000000000
11
-82.2206496519721
21
5.77271398548125
31
0.000000000000000
  0
LINE
  5
F10108
330
F10109
100
AcDbEntity
8
Geo
100
AcDbLine
10
-82.2206496519721
20
5.77271398548125
30
0.000000000000000
11
-82.1206496519721
21
5.75736823249975
31
0.000000000000000
  0
LINE
  5
F1010A
330
F1010B
100
AcDbEntity
8
Geo
100
AcDbLine
10
-82.1206496519721
20
5.75736823249975
30
0.000000000000000
11
-82.0456496519721
21
5.74656707374953
31
0.000000000000000
  0
LINE
  5
F1010C
330
F1010D
100
AcDbEntity
8
Geo
100
AcDbLine
10
-82.0456496519721
20
5.74656707374953
30
0.000000000000000
11
-81.9456496519721
21
5.68733250697335
31
0.000000000000000
  0
LINE
  5
F1010E
330
F1010F
100
AcDbEntity
8
Geo
100
AcDbLine
10
-81.9456496519721
20
5.68733250697335
30
0.000000000000000
11
-81.8456496519721
21
5.66450116009291
31
0.000000000000000
  0
LINE
  5
F10110
330
F10111
100
AcDbEntity
8
Geo
100
AcDbLine
10
-83.6206496519721
20
6.75408226943289
30
0.000000000000000
11
-83.5206496519721
21
6.85072528567947
31
0.000000000000000
  0
LINE
  5
F10112
330
F10113
100
AcDbEntity
8
Geo
100
AcDbLine
10
-83.6206496519721
20
6.20541269491217
30
0.000000000000000
11
-83.5206496519721
21
6.17825380773791
31
0.000000000000000
  0
LINE
  5
F10114
330
F10115
100
AcDbEntity
8
Geo
100
AcDbLine
10
-83.5206496519721
20
6.85072528567947
30
0.000000000000000
11
-83.4206496519721
21
6.84611791277325
31
0.000000000000000
  0
LINE
  5
F10116
330
F10117
100
AcDbEntity
8
Geo
100
AcDbLine
10
-83.5206496519721
20
6.17825380773791
30
0.000000000000000
11
-83.4206496519721
21
6.15127888220755
31
0.000000000000000
  0
LINE
  5
F10118
330
F10119
100
AcDbEntity
8
Geo
100
AcDbLine
10
-83.4206496519721
20
6.84611791277325
30
0.000000000000000
11
-83.3206496519721
21
6.84026997802917
31
0.000000000000000
  0
LINE
  5
F1011A
330
F1011B
100
AcDbEntity
8
Geo
100
AcDbLine
10
-83.4206496519721
20
6.15127888220755
30
0.000000000000000
11
-83.3206496519721
21
6.12454545459914
31
0.000000000000000
  0
LINE
  5
F1011C
330
F1011D
100
AcDbEntity
8
Geo
100
AcDbLine
10
-83.3206496519721
20
6.84026997802917
30
0.000000000000000
11
-83.2206496519721
21
6.83319395482362
31
0.000000000000000
  0
LINE
  5
F1011E
330
F1011F
100
AcDbEntity
8
Geo
100
AcDbLine
10
-83.3206496519721
20
6.12454545459914
30
0.000000000000000
11
-83.2206496519721
21
6.09811054608673
31
0.000000000000000
  0
LINE
  5
F10120
330
F10121
100
AcDbEntity
8
Geo
100
AcDbLine
10
-83.2206496519721
20
6.83319395482362
30
0.000000000000000
11
-83.1206496519721
21
6.82490493598931
31
0.000000000000000
  0
LINE
  5
F10122
330
F10123
100
AcDbEntity
8
Geo
100
AcDbLine
10
-83.2206496519721
20
6.09811054608673
30
0.000000000000000
11
-83.1206496519721
21
6.07203054111683
31
0.000000000000000
  0
LINE
  5
F10124
330
F10125
100
AcDbEntity
8
Geo
100
AcDbLine
10
-83.1206496519721
20
6.82490493598931
30
0.000000000000000
11
-83.0206496519721
21
6.81542060162297
31
0.000000000000000
  0
LINE
  5
F10126
330
F10127
100
AcDbEntity
8
Geo
100
AcDbLine
10
-83.1206496519721
20
6.07203054111683
30
0.000000000000000
11
-83.0206496519721
21
6.04636106714301
31
0.000000000000000
  0
LINE
  5
F10128
330
F10129
100
AcDbEntity
8
Geo
100
AcDbLine
10
-83.0206496519721
20
6.81542060162297
30
0.000000000000000
11
-82.9206496519721
21
6.80476118137447
31
0.000000000000000
  0
LINE
  5
F1012A
330
F1012B
100
AcDbEntity
8
Geo
100
AcDbLine
10
-83.0206496519721
20
6.04636106714301
30
0.000000000000000
11
-82.9206496519721
21
6.02115687597505
31
0.000000000000000
  0
LINE
  5
F1012C
330
F1012D
100
AcDbEntity
8
Geo
100
AcDbLine
10
-82.9206496519721
20
6.80476118137447
30
0.000000000000000
11
-82.8206496519721
21
6.79294941129794
31
0.000000000000000
  0
LINE
  5
F1012E
330
F1012F
100
AcDbEntity
8
Geo
100
AcDbLine
10
-82.9206496519721
20
6.02115687597505
30
0.000000000000000
11
-82.8206496519721
21
5.99647172699587
31
0.000000000000000
  0
LINE
  5
F10130
330
F10131
100
AcDbEntity
8
Geo
100
AcDbLine
10
-82.8206496519721
20
6.79294941129794
30
0.000000000000000
11
-82.7206496519721
21
6.78001048535683
31
0.000000000000000
  0
LINE
  5
F10132
330
F10133
100
AcDbEntity
8
Geo
100
AcDbLine
10
-82.8206496519721
20
5.99647172699587
30
0.000000000000000
11
-82.7206496519721
21
5.97235827249521
31
0.000000000000000
  0
LINE
  5
F10134
330
F10135
100
AcDbEntity
8
Geo
100
AcDbLine
10
-82.7206496519721
20
6.78001048535683
30
0.000000000000000
11
-82.6206496519721
21
6.76597200168626
31
0.000000000000000
  0
LINE
  5
F10136
330
F10137
100
AcDbEntity
8
Geo
100
AcDbLine
10
-82.7206496519721
20
5.97235827249521
30
0.000000000000000
11
-82.6206496519721
21
5.94886794536474
31
0.000000000000000
  0
LINE
  5
F10138
330
F10139
100
AcDbEntity
8
Geo
100
AcDbLine
10
-82.6206496519721
20
6.76597200168626
30
0.000000000000000
11
-82.5206496519721
21
6.75086390372756
31
0.000000000000000
  0
LINE
  5
F1013A
330
F1013B
100
AcDbEntity
8
Geo
100
AcDbLine
10
-82.6206496519721
20
5.94886794536474
30
0.000000000000000
11
-82.5206496519721
21
5.92605084939405
31
0.000000000000000
  0
LINE
  5
F1013C
330
F1013D
100
AcDbEntity
8
Geo
100
AcDbLine
10
-82.5206496519721
20
6.75086390372756
30
0.000000000000000
11
-82.4206496519721
21
6.73471841636024
31
0.000000000000000
  0
LINE
  5
F1013E
330
F1013F
100
AcDbEntity
8
Geo
100
AcDbLine
10
-82.5206496519721
20
5.92605084939405
30
0.000000000000000
11
-82.4206496519721
21
5.90395565240157
31
0.000000000000000
  0
LINE
  5
F10140
330
F10141
100
AcDbEntity
8
Geo
100
AcDbLine
10
-82.4206496519721
20
6.73471841636024
30
0.000000000000000
11
-82.3206496519721
21
6.71756997716778
31
0.000000000000000
  0
LINE
  5
F10142
330
F10143
100
AcDbEntity
8
Geo
100
AcDbLine
10
-82.4206496519721
20
5.90395565240157
30
0.000000000000000
11
-82.3206496519721
21
5.88262948242833
31
0.000000000000000
  0
LINE
  5
F10144
330
F10145
100
AcDbEntity
8
Geo
100
AcDbLine
10
-82.3206496519721
20
6.71756997716778
30
0.000000000000000
11
-82.2206496519721
21
6.69945516298388
31
0.000000000000000
  0
LINE
  5
F10146
330
F10147
100
AcDbEntity
8
Geo
100
AcDbLine
10
-82.3206496519721
20
5.88262948242833
30
0.000000000000000
11
-82.2206496519721
21
5.86211782721603
31
0.000000000000000
  0
LINE
  5
F10148
330
F10149
100
AcDbEntity
8
Geo
100
AcDbLine
10
-82.2206496519721
20
6.69945516298388
30
0.000000000000000
11
-82.1206496519721
21
6.68041261187575
31
0.000000000000000
  0
LINE
  5
F1014A
330
F1014B
100
AcDbEntity
8
Geo
100
AcDbLine
10
-82.2206496519721
20
5.86211782721603
30
0.000000000000000
11
-82.1206496519721
21
5.84246443718379
31
0.000000000000000
  0
LINE
  5
F1014C
330
F1014D
100
AcDbEntity
8
Geo
100
AcDbLine
10
-83.6206496519721
20
6.26450116009291
30
0.000000000000000
11
-83.6206496519721
21
6.26450116009291
31
0.000000000000000
  0
LINE
  5
F1014E
330
F1014F
100
AcDbEntity
8
Geo
100
AcDbLine
10
-83.6206496519721
20
6.26450116009291
30
0.000000000000000
11
-83.6206496519721
21
6.26450116009291
31
0.000000000000000
  0
LINE
  5
F10150
330
F10151
100
AcDbEntity
8
Geo
100
AcDbLine
10
-84.6206496519721
20
6.26450116009291
30
0.000000000000000
11
-84.3206496519721
21
6.26450116009291
31
0.000000000000000
  0
LINE
  5
F10152
330
F10153
100
AcDbEntity
8
Geo
100
AcDbLine
10
-84.1931496519721
20
6.26450116009291
30
0.000000000000000
11
-84.1081496519721
21
6.26450116009291
31
0.000000000000000
  0
LINE
  5
F10154
330
F10155
100
AcDbEntity
8
Geo
100
AcDbLine
10
-83.8956496519721
20
6.26450116009291
30
0.000000000000000
11
-83.4706496519721
21
6.26450116009291
31
0.000000000000000
  0
LINE
  5
F10156
330
F10157
100
AcDbEntity
8
Geo
100
AcDbLine
10
-83.3431496519721
20
6.26450116009291
30
0.000000000000000
11
-83.2581496519721
21
6.26450116009291
31
0.000000000000000
  0
LINE
  5
F10158
330
F10159
100
AcDbEntity
8
Geo
100
AcDbLine
10
-83.0456496519721
20
6.26450116009291
30
0.000000000000000
11
-82.6206496519721
21
6.26450116009291
31
0.000000000000000
  0
LINE
  5
F1015A
330
F1015B
100
AcDbEntity
8
Geo
100
AcDbLine
10
-19.6206496519721
20
8.76450116009291
30
0.000000000000000
11
-19.6206496519721
21
6.26450116009291
31
0.000000000000000
  0
LINE
  5
F1015C
330
F1015D
100
AcDbEntity
8
Geo
100
AcDbLine
10
-83.6032502216561
20
6.26450116009291
30
0.000000000000000
11
-83.6205887346740
21
5.76799110976316
31
0.000000000000000
  0
ARC
  5
F1015E
330
F1015F
100
AcDbEntity
8
Geo
100
AcDbCircle
10
-83.5206496519721
20
5.76450116009291
30
0.000000000000000
 40
0.0999999999999996
100
AcDbArc
 50
178.000000000000
 51
270.000000000000
  0
LINE
  5
F10160
330
F10161
100
AcDbEntity
8
Geo
100
AcDbLine
10
-83.5206496519721
20
5.66450116009291
30
0.000000000000000
11
-81.8206496519721
21
5.66450116009291
31
0.000000000000000
  0
LINE
  5
F10162
330
F10163
100
AcDbEntity
8
Geo
100
AcDbLine
10
-81.8206496519721
20
5.66450116009291
30
0.000000000000000
11
-66.6676460167520
21
3.26450116009291
31
0.000000000000000
  0
LINE
  5
F10164
330
F10165
100
AcDbEntity
8
Geo
100
AcDbLine
10
-66.6676460167520
20
3.26450116009291
30
0.000000000000000
11
-20.1206496519721
21
3.26450116009291
31
0.000000000000000
  0
LINE
  5
F10166
330
F10167
100
AcDbEntity
8
Geo
100
AcDbLine
10
-20.1206496519721
20
3.26450116009291
30
0.000000000000000
11
-19.6206496519721
21
3.76450116009290
31
0.000000000000000
  0
LINE
  5
F10168
330
F10169
100
AcDbEntity
8
Geo
100
AcDbLine
10
-83.5206496519721
20
6.86450116009290
30
0.000000000000000
11
-83.5206496519721
21
5.66450116009291
31
0.000000000000000
  0
LINE
  5
F1016A
330
F1016B
100
AcDbEntity
8
Geo
100
AcDbLine
10
-83.5206496519721
20
6.86450116009290
30
0.000000000000000
11
-83.5206496519721
21
5.66450116009291
31
0.000000000000000
  0
LINE
  5
F1016C
330
F1016D
100
AcDbEntity
8
Geo
100
AcDbLine
10
-81.8206496519721
20
6.86450116009290
30
0.000000000000000
11
-81.8206496519721
21
5.66450116009291
31
0.000000000000000
  0
LINE
  5
F1016E
330
F1016F
100
AcDbEntity
8
Geo
100
AcDbLine
10
-81.8206496519721
20
6.86450116009290
30
0.000000000000000
11
-81.8206496519721
21
5.66450116009291
31
0.000000000000000
  0
LINE
  5
F10170
330
F10171
100
AcDbEntity
8
Geo
100
AcDbLine
10
-66.6676460167520
20
9.26450116009291
30
0.000000000000000
11
-66.6676460167520
21
3.26450116009291
31
0.000000000000000
  0
LINE
  5
F10172
330
F10173
100
AcDbEntity
8
Geo
100
AcDbLine
10
-66.6676460167520
20
9.26450116009291
30
0.000000000000000
11
-66.6676460167520
21
3.26450116009291
31
0.000000000000000
  0
LINE
  5
F10174
330
F10175
100
AcDbEntity
8
Geo
100
AcDbLine
10
-20.1206496519721
20
9.26450116009291
30
0.000000000000000
11
-20.1206496519721
21
3.26450116009291
31
0.000000000000000
  0
LINE
  5
F10176
330
F10177
100
AcDbEntity
8
Geo
100
AcDbLine
10
-19.6206496519721
20
8.76450116009291
30
0.000000000000000
11
-19.6206496519721
21
3.76450116009290
31
0.000000000000000
  0
LWPOLYLINE
  5
F10178
330
F10179
100
AcDbEntity
8
Rahmen
100
AcDbPolyline
90
   4
70
   1
43
   0.0
 10
-125.648193948360
 20
102.846003652682
 10
134.336849477933
 20
102.846003652682
 10
134.336849477933
 20
-102.918603110064
 10
-125.648193948360
 20
-102.918603110064
  0
TEXT
  5
F1017A
330
F1017B
 100
AcDbEntity
8
Text
100
AcDbText
10
-124.673006238584
20
-102.418603110064
30
0.000000000000000
40
1.00000000000000
1
ISBESketcher
100
AcDbText
  0
LWPOLYLINE
  5
F1017C
330
F1017D
100
AcDbEntity
8
Rahmen
100
AcDbPolyline
90
   4
70
   1
43
   0.0
 10
94.3541533771153
 20
-99.9930399807354
 10
134.336849477933
 20
-99.9930399807354
 10
134.336849477933
 20
-102.918603110064
 10
94.3541533771153
 20
-102.918603110064
  0
TEXT
  5
F1017E
330
F1017F
 100
AcDbEntity
8
Text
100
AcDbText
10
95.5000000000000
20
-102.030150167821
30
0.000000000000000
40
0.750000000000000
1
Created by:
100
AcDbText
  0
TEXT
  5
F10180
330
F10181
 100
AcDbEntity
8
Text
100
AcDbText
10
120.159549496537
20
-102.030150167821
30
0.000000000000000
40
0.750000000000000
1
nsarkol
100
AcDbText
  0
LWPOLYLINE
  5
F10182
330
F10183
100
AcDbEntity
8
Rahmen
100
AcDbPolyline
90
   4
70
   1
43
   0.0
 10
54.3714572762975
 20
-99.9930399807354
 10
94.3541533771153
 20
-99.9930399807354
 10
94.3541533771153
 20
-102.918603110064
 10
54.3714572762975
 20
-102.918603110064
  0
TEXT
  5
F10184
330
F10185
 100
AcDbEntity
8
Text
100
AcDbText
10
55.5000000000000
20
-102.030150167821
30
0.000000000000000
40
0.750000000000000
1
Created for:
100
AcDbText
  0
TEXT
  5
F10186
330
F10187
 100
AcDbEntity
8
Text
100
AcDbText
10
0.000000000000000
20
0.250000000000000
30
0.000000000000000
40
0.750000000000000
1

100
AcDbText
  0
LWPOLYLINE
  5
F10188
330
F10189
100
AcDbEntity
8
Rahmen
100
AcDbPolyline
90
   4
70
   1
43
   0.0
 10
121.074296624979
 20
-97.0674768514073
 10
134.336849477933
 20
-97.0674768514073
 10
134.336849477933
 20
-99.9930399807354
 10
121.074296624979
 20
-99.9930399807354
  0
TEXT
  5
F1018A
330
F1018B
 100
AcDbEntity
8
Text
100
AcDbText
10
122.166666666667
20
-99.0301501678208
30
0.000000000000000
40
0.750000000000000
1
Pages
100
AcDbText
  0
TEXT
  5
F1018C
330
F1018D
 100
AcDbEntity
8
Text
100
AcDbText
10
0.000000000000000
20
0.250000000000000
30
0.000000000000000
40
0.750000000000000
1

100
AcDbText
  0
LWPOLYLINE
  5
F1018E
330
F1018F
100
AcDbEntity
8
Rahmen
100
AcDbPolyline
90
   4
70
   1
43
   0.0
 10
121.074296624979
 20
-94.1419137220791
 10
134.336849477933
 20
-94.1419137220791
 10
134.336849477933
 20
-97.0674768514073
 10
121.074296624979
 20
-97.0674768514073
  0
TEXT
  5
F10190
330
F10191
 100
AcDbEntity
8
Text
100
AcDbText
10
122.166666666667
20
-96.0301501678208
30
0.000000000000000
40
0.750000000000000
1
Page
100
AcDbText
  0
TEXT
  5
F10192
330
F10193
 100
AcDbEntity
8
Text
100
AcDbText
10
0.000000000000000
20
0.250000000000000
30
0.000000000000000
40
0.750000000000000
1

100
AcDbText
  0
LWPOLYLINE
  5
F10194
330
F10195
100
AcDbEntity
8
Rahmen
100
AcDbPolyline
90
   4
70
   1
43
   0.0
 10
54.3714572762975
 20
-94.1419137220791
 10
121.074296624979
 20
-94.1419137220791
 10
121.074296624979
 20
-99.9930399807354
 10
54.3714572762975
 20
-99.9930399807354
  0
TEXT
  5
F10196
330
F10197
 100
AcDbEntity
8
Text
100
AcDbText
10
55.5000000000000
20
-96.0301501678208
30
0.000000000000000
40
0.750000000000000
1
Date:
100
AcDbText
  0
TEXT
  5
F10198
330
F10199
 100
AcDbEntity
8
Text
100
AcDbText
10
84.2251388071620
20
-99.0301501678208
30
0.000000000000000
40
0.750000000000000
1
16.09.2016
100
AcDbText
  0
LWPOLYLINE
  5
F1019A
330
F1019B
100
AcDbEntity
8
Rahmen
100
AcDbPolyline
90
   4
70
   1
43
   0.0
 10
54.3714572762975
 20
-88.0957499214676
 10
134.336849477933
 20
-88.0957499214676
 10
134.336849477933
 20
-94.1419137220791
 10
54.3714572762975
 20
-94.1419137220791
  0
TEXT
  5
F1019C
330
F1019D
 100
AcDbEntity
8
Text
100
AcDbText
10
0.000000000000000
20
0.500000000000000
30
0.000000000000000
40
1.50000000000000
1

100
AcDbText
  0
TEXT
  5
F1019E
330
F1019F
 100
AcDbEntity
8
Text
100
AcDbText
10
67.1947441262708
20
-92.7021547120844
30
0.000000000000000
40
2.50000000000000
1
VHMSR2012Y640603L018
100
AcDbText
  0
LWPOLYLINE
  5
F101A0
330
F101A1
100
AcDbEntity
8
Rahmen
100
AcDbPolyline
90
   4
70
   1
43
   0.0
 10
94.3541533771153
 20
-82.0495861208562
 10
134.336849477933
 20
-82.0495861208562
 10
134.336849477933
 20
-88.0957499214676
 10
94.3541533771153
 20
-88.0957499214676
  0
TEXT
  5
F101A2
330
F101A3
 100
AcDbEntity
8
Text
100
AcDbText
10
95.5000000000000
20
-84.0301501678208
30
0.000000000000000
40
0.750000000000000
1
Work piece material:
100
AcDbText
  0
TEXT
  5
F101A4
330
F101A5
 100
AcDbEntity
8
Text
100
AcDbText
10
0.000000000000000
20
0.250000000000000
30
0.000000000000000
40
0.750000000000000
1

100
AcDbText
  0
LWPOLYLINE
  5
F101A6
330
F101A7
100
AcDbEntity
8
Rahmen
100
AcDbPolyline
90
   4
70
   1
43
   0.0
 10
54.3714572762975
 20
-82.0495861208562
 10
94.3541533771153
 20
-82.0495861208562
 10
94.3541533771153
 20
-88.0957499214676
 10
54.3714572762975
 20
-88.0957499214676
  0
TEXT
  5
F101A8
330
F101A9
 100
AcDbEntity
8
Text
100
AcDbText
10
55.5000000000000
20
-84.0301501678208
30
0.000000000000000
40
0.750000000000000
1
Tool material:
100
AcDbText
  0
TEXT
  5
F101AA
330
F101AB
 100
AcDbEntity
8
Text
100
AcDbText
10
0.000000000000000
20
0.250000000000000
30
0.000000000000000
40
0.750000000000000
1

100
AcDbText
  0
LWPOLYLINE
  5
F101AC
330
F101AD
100
AcDbEntity
8
Rahmen
100
AcDbPolyline
90
   4
70
   1
43
   0.0
 10
94.3541533771153
 20
-79.1240229915281
 10
134.336849477933
 20
-79.1240229915281
 10
134.336849477933
 20
-82.0495861208562
 10
94.3541533771153
 20
-82.0495861208562
  0
TEXT
  5
F101AE
330
F101AF
 100
AcDbEntity
8
Text
100
AcDbText
10
0.000000000000000
20
0.500000000000000
30
0.000000000000000
40
1.50000000000000
1

100
AcDbText
  0
TEXT
  5
F101B0
330
F101B1
 100
AcDbEntity
8
Text
100
AcDbText
10
0.000000000000000
20
0.250000000000000
30
0.000000000000000
40
0.750000000000000
1

100
AcDbText
  0
LWPOLYLINE
  5
F101B2
330
F101B3
100
AcDbEntity
8
Rahmen
100
AcDbPolyline
90
   4
70
   1
43
   0.0
 10
54.3714572762975
 20
-79.1240229915281
 10
94.3541533771153
 20
-79.1240229915281
 10
94.3541533771153
 20
-82.0495861208562
 10
54.3714572762975
 20
-82.0495861208562
  0
TEXT
  5
F101B4
330
F101B5
 100
AcDbEntity
8
Text
100
AcDbText
10
55.5000000000000
20
-81.0301501678208
30
0.000000000000000
40
0.750000000000000
1
Scale:
100
AcDbText
  0
TEXT
  5
F101B6
330
F101B7
 100
AcDbEntity
8
Text
100
AcDbText
10
81.0372184353359
20
-81.0301501678208
30
0.000000000000000
40
0.750000000000000
1
3 : 1
100
AcDbText
0
VIEWPORT
5
294
102
{ACAD_XDICTIONARY
360
58A
102
}
330
25D
100
AcDbEntity
67
1
8
0
60
1
100
AcDbViewport
10
0.0
20
0.0
30
0.0
40
10.0
41
10.0
68
-1
69
1
12
0.0
22
0.0
13
0.0
23
0.0
14
1.0
24
1.0
15
0.0
25
0.0
16
0.0
26
0.0
36
1.0
17
0.0
27
0.0
37
0.0
42
0.0
43
0.0
44
0.0
45
10.0
50
0.0
51
0.0000000000007958
72
100
90
32800
1

281
0
71
0
74
0
110
0.0
120
0.0
130
0.0
111
1.0
121
0.0
131
0.0
112
0.0
122
1.0
132
0.0
79
0
146
0.0
1001
VD_INVISIBLE_NOT_FOR_READ
1000
VD_INVISIBLE_NOT_FOR_READ
0
VIEWPORT
5
295
102
{ACAD_XDICTIONARY
360
58C
102
}
330
25D
100
AcDbEntity
67
1
8
0
60
1
100
AcDbViewport
10
0.0
20
0.0
30
0.0
40
10.0
41
10.0
68
0
69
2
12
0.0
22
0.0
13
0.0
23
0.0
14
1.0
24
1.0
15
0.0
25
0.0
16
0.0
26
0.0
36
1.0
17
0.0
27
0.0
37
0.0
42
0.0
43
0.0
44
0.0
45
10.0
50
0.0
51
0.0000000000007958
72
100
90
163872
1

281
0
71
0
74
0
110
0.0
120
0.0
130
0.0
111
1.0
121
0.0
131
0.0
112
0.0
122
1.0
132
0.0
79
0
146
0.0
1001
VD_INVISIBLE_NOT_FOR_READ
1000
VD_INVISIBLE_NOT_FOR_READ
0
ENDSEC
0
SECTION
2
OBJECTS
0
DICTIONARY
5
13
330
0
100
AcDbDictionary
281
1
3
ACAD_COLOR
350
FA7
3
ACAD_GROUP
350
14
3
ACAD_LAYOUT
350
FCF
3
ACAD_MATERIAL
350
F7A
3
ACAD_MLEADERSTYLE
350
FCD
3
ACAD_MLINESTYLE
350
16
3
ACAD_PLOTSETTINGS
350
17
3
ACAD_PLOTSTYLENAME
350
18
3
ACAD_SCALELIST
350
FAB
3
ACAD_TABLESTYLE
350
FA8
3
ACAD_VISUALSTYLE
350
F93
3
ACDB_RECOMPOSE_DATA
350
107E
3
AcDbVariableDictionary
350
FF0
3
DWGPROPS
350
107F
0
DICTIONARY
5
F10014
330
F10013
100
AcDbDictionary
280
1
281
1
3
ACAD_MTEXT_2008_RT
360
F10015
0
DICTIONARY
5
F1001E
330
F1001D
100
AcDbDictionary
280
1
281
1
3
ACAD_MTEXT_2008_RT
360
F1001F
0
DICTIONARY
5
F10023
330
F10022
100
AcDbDictionary
280
1
281
1
3
ACAD_MTEXT_2008_RT
360
F10024
0
DICTIONARY
5
F1000F
330
F1000E
100
AcDbDictionary
280
1
281
1
3
ACAD_MTEXT_2008_RT
360
F10010
0
DICTIONARY
5
F1000A
330
F10009
100
AcDbDictionary
280
1
281
1
3
ACAD_MTEXT_2008_RT
360
F1000B
0
DICTIONARY
5
F10005
330
F10004
100
AcDbDictionary
280
1
281
1
3
ACAD_MTEXT_2008_RT
360
F10006
0
DICTIONARY
5
F10019
330
F10018
100
AcDbDictionary
280
1
281
1
3
ACAD_MTEXT_2008_RT
360
F1001A
0
DICTIONARY
5
FA7
102
{ACAD_REACTORS
330
13
102
}
330
13
100
AcDbDictionary
281
1
0
DICTIONARY
5
14
330
13
100
AcDbDictionary
281
1
0
DICTIONARY
5
FCF
102
{ACAD_REACTORS
330
13
102
}
330
13
100
AcDbDictionary
281
1
3
Layout1
350
FD1
3
Model
350
FD0
0
DICTIONARY
5
F7A
102
{ACAD_REACTORS
330
13
102
}
330
13
100
AcDbDictionary
281
1
3
ByBlock
350
F83
3
ByLayer
350
F7B
3
Global
350
F8B
0
DICTIONARY
5
FCD
102
{ACAD_REACTORS
330
13
102
}
330
13
100
AcDbDictionary
281
1
3
Standard
350
FCE
0
DICTIONARY
5
16
330
13
100
AcDbDictionary
281
1
3
Standard
350
FAA
0
DICTIONARY
5
17
102
{ACAD_REACTORS
330
13
102
}
330
13
100
AcDbDictionary
281
1
0
ACDBDICTIONARYWDFLT
5
18
102
{ACAD_REACTORS
330
13
102
}
330
13
100
AcDbDictionary
281
1
3
Normal
350
19
100
AcDbDictionaryWithDefault
340
19
0
DICTIONARY
5
FAB
102
{ACAD_REACTORS
330
13
102
}
330
13
100
AcDbDictionary
281
1
3
A0
350
FAC
3
A1
350
FAD
3
A2
350
FAE
3
A3
350
FAF
3
A4
350
FB0
3
A5
350
FB1
3
A6
350
FB2
3
A7
350
FB3
3
A8
350
FB4
3
A9
350
FB5
3
B0
350
FB6
3
B1
350
FB7
3
B2
350
FB8
3
B3
350
FB9
3
B4
350
FBA
3
B5
350
FBB
3
B6
350
FBC
3
B7
350
FBD
3
B8
350
FBE
3
B9
350
FBF
3
C0
350
FC0
3
C1
350
FC1
3
C2
350
FC2
3
C3
350
FC3
3
C4
350
FC4
3
C5
350
FC5
3
C6
350
FC6
3
C7
350
FC7
3
C8
350
FC8
3
C9
350
FC9
3
D0
350
FCA
3
D1
350
FCB
3
D2
350
FCC
0
DICTIONARY
5
FA8
102
{ACAD_REACTORS
330
13
102
}
330
13
100
AcDbDictionary
281
1
3
Standard
350
FA9
0
DICTIONARY
5
F93
102
{ACAD_REACTORS
330
13
102
}
330
13
100
AcDbDictionary
281
1
3
2dWireframe
350
F99
3
3D Hidden
350
F9B
3
3dWireframe
350
F9A
3
Basic
350
F98
3
Brighten
350
F9F
3
ColorChange
350
FA3
3
Conceptual
350
F9C
3
Dim
350
F9E
3
EdgeColorOff
350
FA6
3
Facepattern
350
FA2
3
Flat
350
F94
3
FlatWithEdges
350
F95
3
Gouraud
350
F96
3
GouraudWithEdges
350
F97
3
JitterOff
350
FA4
3
Linepattern
350
FA1
3
OverhangOff
350
FA5
3
Realistic
350
F9D
3
Thicken
350
FA0
0
XRECORD
5
107E
102
{ACAD_REACTORS
330
13
102
}
330
13
100
AcDbXrecord
280
1
90
1
330
FA9
330
F10013
330
F1001D
330
F10022
330
F1000E
330
F10009
330
F10004
330
F10018
0
XRECORD
5
F10015
102
{ACAD_REACTORS
330
F10014
102
}
330
F10014
100
AcDbXrecord
280
1
40
48458.0
1
47.047
0
XRECORD
5
F1001F
102
{ACAD_REACTORS
330
F1001E
102
}
330
F1001E
100
AcDbXrecord
280
1
40
48458.0
1
1.8
0
XRECORD
5
F10024
102
{ACAD_REACTORS
330
F10023
102
}
330
F10023
100
AcDbXrecord
280
1
40
48458.0
1
64
0
XRECORD
5
F10010
102
{ACAD_REACTORS
330
F1000F
102
}
330
F1000F
100
AcDbXrecord
280
1
40
48458.0
1
9°
0
XRECORD
5
F1000B
102
{ACAD_REACTORS
330
F1000A
102
}
330
F1000A
100
AcDbXrecord
280
1
40
48458.0
1
R0.1
0
XRECORD
5
F10006
102
{ACAD_REACTORS
330
F10005
102
}
330
F10005
100
AcDbXrecord
280
1
40
48458.0
1
1.2
0
LAYOUT
5
FD1
102
{ACAD_XDICTIONARY
360
10A9
102
}
102
{ACAD_REACTORS
330
FCF
102
}
330
FCF
100
AcDbPlotSettings
1

2
Microsoft XPS Document Writer
4

6

40
0.0
41
0.0
42
0.0
43
0.0
44
0.0
45
0.0
46
0.0
47
0.0
48
0.0
49
0.0
140
0.0
141
0.0
142
1.0
143
1.0
70
688
72
0
73
0
74
5
7

75
16
147
1.0
148
0.0
149
0.0
100
AcDbLayout
1
Layout1
70
1
71
1
10
0.0
20
0.0
11
12.0
21
9.0
12
0.0
22
0.0
32
0.0
14
1.000000000000000E+20
24
1.000000000000000E+20
34
1.000000000000000E+20
15
-1.000000000000000E+20
25
-1.000000000000000E+20
35
-1.000000000000000E+20
146
0.0
13
0.0
23
0.0
33
0.0
16
1.0
26
0.0
36
0.0
17
0.0
27
1.0
37
0.0
76
0
330
25D
0
LAYOUT
5
FD0
102
{ACAD_XDICTIONARY
360
10A7
102
}
102
{ACAD_REACTORS
330
FCF
102
}
330
FCF
100
AcDbPlotSettings
1

2
Microsoft XPS Document Writer
4

6

40
0.0
41
0.0
42
0.0
43
0.0
44
0.0
45
0.0
46
0.0
47
0.0
48
0.0
49
0.0
140
0.0
141
0.0
142
1.0
143
1.0
70
1712
72
0
73
0
74
0
7

75
0
147
1.0
148
0.0
149
0.0
100
AcDbLayout
1
Model
70
1
71
0
10
0.0
20
0.0
11
12.0
21
9.0
12
0.0
22
0.0
32
0.0
14
0.0
24
0.0
34
0.0
15
0.0
25
0.0
35
0.0
146
0.0
13
0.0
23
0.0
33
0.0
16
1.0
26
0.0
36
0.0
17
0.0
27
1.0
37
0.0
76
0
330
261
331
26B
0
MATERIAL
5
F83
102
{ACAD_XDICTIONARY
360
F84
102
}
102
{ACAD_REACTORS
330
F7A
102
}
330
F7A
100
AcDbMaterial
1
ByBlock
72
0
43
0.0208333333333333
43
0.0
43
0.0
43
0.0
43
0.0
43
0.0208333333333333
43
0.0
43
0.0
43
0.0
43
0.0
43
1.0
43
0.0
43
0.0
43
0.0
43
0.0
43
1.0
77
0
47
0.0208333333333333
47
0.0
47
0.0
47
0.0
47
0.0
47
0.0208333333333333
47
0.0
47
0.0
47
0.0
47
0.0
47
1.0
47
0.0
47
0.0
47
0.0
47
0.0
47
1.0
171
0
49
0.0208333333333333
49
0.0
49
0.0
49
0.0
49
0.0
49
0.0208333333333333
49
0.0
49
0.0
49
0.0
49
0.0
49
1.0
49
0.0
49
0.0
49
0.0
49
0.0
49
1.0
175
0
142
0.0208333333333333
142
0.0
142
0.0
142
0.0
142
0.0
142
0.0208333333333333
142
0.0
142
0.0
142
0.0
142
0.0
142
1.0
142
0.0
142
0.0
142
0.0
142
0.0
142
1.0
179
0
144
0.0208333333333333
144
0.0
144
0.0
144
0.0
144
0.0
144
0.0208333333333333
144
0.0
144
0.0
144
0.0
144
0.0
144
1.0
144
0.0
144
0.0
144
0.0
144
0.0
144
1.0
147
0.0208333333333333
147
0.0
147
0.0
147
0.0
147
0.0
147
0.0208333333333333
147
0.0
147
0.0
147
0.0
147
0.0
147
1.0
147
0.0
147
0.0
147
0.0
147
0.0
147
1.0
0
MATERIAL
5
F7B
102
{ACAD_XDICTIONARY
360
F7C
102
}
102
{ACAD_REACTORS
330
F7A
102
}
330
F7A
100
AcDbMaterial
1
ByLayer
72
0
43
0.0208333333333333
43
0.0
43
0.0
43
0.0
43
0.0
43
0.0208333333333333
43
0.0
43
0.0
43
0.0
43
0.0
43
1.0
43
0.0
43
0.0
43
0.0
43
0.0
43
1.0
77
0
47
0.0208333333333333
47
0.0
47
0.0
47
0.0
47
0.0
47
0.0208333333333333
47
0.0
47
0.0
47
0.0
47
0.0
47
1.0
47
0.0
47
0.0
47
0.0
47
0.0
47
1.0
171
0
49
0.0208333333333333
49
0.0
49
0.0
49
0.0
49
0.0
49
0.0208333333333333
49
0.0
49
0.0
49
0.0
49
0.0
49
1.0
49
0.0
49
0.0
49
0.0
49
0.0
49
1.0
175
0
142
0.0208333333333333
142
0.0
142
0.0
142
0.0
142
0.0
142
0.0208333333333333
142
0.0
142
0.0
142
0.0
142
0.0
142
1.0
142
0.0
142
0.0
142
0.0
142
0.0
142
1.0
179
0
144
0.0208333333333333
144
0.0
144
0.0
144
0.0
144
0.0
144
0.0208333333333333
144
0.0
144
0.0
144
0.0
144
0.0
144
1.0
144
0.0
144
0.0
144
0.0
144
0.0
144
1.0
147
0.0208333333333333
147
0.0
147
0.0
147
0.0
147
0.0
147
0.0208333333333333
147
0.0
147
0.0
147
0.0
147
0.0
147
1.0
147
0.0
147
0.0
147
0.0
147
0.0
147
1.0
0
MATERIAL
5
F8B
102
{ACAD_XDICTIONARY
360
F8C
102
}
102
{ACAD_REACTORS
330
F7A
102
}
330
F7A
100
AcDbMaterial
1
Global
72
0
43
0.0208333333333333
43
0.0
43
0.0
43
0.0
43
0.0
43
0.0208333333333333
43
0.0
43
0.0
43
0.0
43
0.0
43
1.0
43
0.0
43
0.0
43
0.0
43
0.0
43
1.0
77
0
47
0.0208333333333333
47
0.0
47
0.0
47
0.0
47
0.0
47
0.0208333333333333
47
0.0
47
0.0
47
0.0
47
0.0
47
1.0
47
0.0
47
0.0
47
0.0
47
0.0
47
1.0
171
0
49
0.0208333333333333
49
0.0
49
0.0
49
0.0
49
0.0
49
0.0208333333333333
49
0.0
49
0.0
49
0.0
49
0.0
49
1.0
49
0.0
49
0.0
49
0.0
49
0.0
49
1.0
175
0
142
0.0208333333333333
142
0.0
142
0.0
142
0.0
142
0.0
142
0.0208333333333333
142
0.0
142
0.0
142
0.0
142
0.0
142
1.0
142
0.0
142
0.0
142
0.0
142
0.0
142
1.0
179
0
144
0.0208333333333333
144
0.0
144
0.0
144
0.0
144
0.0
144
0.0208333333333333
144
0.0
144
0.0
144
0.0
144
0.0
144
1.0
144
0.0
144
0.0
144
0.0
144
0.0
144
1.0
147
0.0208333333333333
147
0.0
147
0.0
147
0.0
147
0.0
147
0.0208333333333333
147
0.0
147
0.0
147
0.0
147
0.0
147
1.0
147
0.0
147
0.0
147
0.0
147
0.0
147
1.0
0
MLEADERSTYLE
5
FCE
102
{ACAD_REACTORS
330
FCD
102
}
330
FCD
100
AcDbMLeaderStyle
170
2
171
1
172
0
90
2
40
0.0
41
0.0
173
1
91
-1056964608
340
256
92
-2
290
1
42
0.09
291
1
43
0.36
3
Standard
44
0.18
300

342
253
174
1
178
6
175
1
176
0
93
-1056964608
45
0.18
292
0
297
0
46
0.18
94
-1056964608
47
1.0
49
1.0
140
1.0
293
1
141
0.0
294
1
177
0
142
1.0
295
0
296
0
143
0.125
1001
ACAD_MLEADERVER
1070
2
0
MLINESTYLE
5
FAA
102
{ACAD_REACTORS
330
16
102
}
330
16
100
AcDbMlineStyle
2
STANDARD
70
0
3

62
256
51
90.0
52
90.0
71
2
49
0.5
62
256
6
BYLAYER
49
-0.5
62
256
6
BYLAYER
0
ACDBPLACEHOLDER
5
19
102
{ACAD_REACTORS
330
18
102
}
330
18
0
SCALE
5
FAC
102
{ACAD_REACTORS
330
FAB
102
}
330
FAB
100
AcDbScale
70
0
300
1:1
140
1.0
141
1.0
290
1
0
SCALE
5
FAD
102
{ACAD_REACTORS
330
FAB
102
}
330
FAB
100
AcDbScale
70
0
300
1:2
140
1.0
141
2.0
290
0
0
SCALE
5
FAE
102
{ACAD_REACTORS
330
FAB
102
}
330
FAB
100
AcDbScale
70
0
300
1:4
140
1.0
141
4.0
290
0
0
SCALE
5
FAF
102
{ACAD_REACTORS
330
FAB
102
}
330
FAB
100
AcDbScale
70
0
300
1:5
140
1.0
141
5.0
290
0
0
SCALE
5
FB0
102
{ACAD_REACTORS
330
FAB
102
}
330
FAB
100
AcDbScale
70
0
300
1:8
140
1.0
141
8.0
290
0
0
SCALE
5
FB1
102
{ACAD_REACTORS
330
FAB
102
}
330
FAB
100
AcDbScale
70
0
300
1:10
140
1.0
141
10.0
290
0
0
SCALE
5
FB2
102
{ACAD_REACTORS
330
FAB
102
}
330
FAB
100
AcDbScale
70
0
300
1:16
140
1.0
141
16.0
290
0
0
SCALE
5
FB3
102
{ACAD_REACTORS
330
FAB
102
}
330
FAB
100
AcDbScale
70
0
300
1:20
140
1.0
141
20.0
290
0
0
SCALE
5
FB4
102
{ACAD_REACTORS
330
FAB
102
}
330
FAB
100
AcDbScale
70
0
300
1:30
140
1.0
141
30.0
290
0
0
SCALE
5
FB5
102
{ACAD_REACTORS
330
FAB
102
}
330
FAB
100
AcDbScale
70
0
300
1:40
140
1.0
141
40.0
290
0
0
SCALE
5
FB6
102
{ACAD_REACTORS
330
FAB
102
}
330
FAB
100
AcDbScale
70
0
300
1:50
140
1.0
141
50.0
290
0
0
SCALE
5
FB7
102
{ACAD_REACTORS
330
FAB
102
}
330
FAB
100
AcDbScale
70
0
300
1:100
140
1.0
141
100.0
290
0
0
SCALE
5
FB8
102
{ACAD_REACTORS
330
FAB
102
}
330
FAB
100
AcDbScale
70
0
300
2:1
140
2.0
141
1.0
290
0
0
SCALE
5
FB9
102
{ACAD_REACTORS
330
FAB
102
}
330
FAB
100
AcDbScale
70
0
300
4:1
140
4.0
141
1.0
290
0
0
SCALE
5
FBA
102
{ACAD_REACTORS
330
FAB
102
}
330
FAB
100
AcDbScale
70
0
300
8:1
140
8.0
141
1.0
290
0
0
SCALE
5
FBB
102
{ACAD_REACTORS
330
FAB
102
}
330
FAB
100
AcDbScale
70
0
300
10:1
140
10.0
141
1.0
290
0
0
SCALE
5
FBC
102
{ACAD_REACTORS
330
FAB
102
}
330
FAB
100
AcDbScale
70
0
300
100:1
140
100.0
141
1.0
290
0
0
SCALE
5
FBD
102
{ACAD_REACTORS
330
FAB
102
}
330
FAB
100
AcDbScale
70
0
300
1/128" = 1'-0"
140
0.0078125
141
12.0
290
0
0
SCALE
5
FBE
102
{ACAD_REACTORS
330
FAB
102
}
330
FAB
100
AcDbScale
70
0
300
1/64" = 1'-0"
140
0.015625
141
12.0
290
0
0
SCALE
5
FBF
102
{ACAD_REACTORS
330
FAB
102
}
330
FAB
100
AcDbScale
70
0
300
1/32" = 1'-0"
140
0.03125
141
12.0
290
0
0
SCALE
5
FC0
102
{ACAD_REACTORS
330
FAB
102
}
330
FAB
100
AcDbScale
70
0
300
1/16" = 1'-0"
140
0.0625
141
12.0
290
0
0
SCALE
5
FC1
102
{ACAD_REACTORS
330
FAB
102
}
330
FAB
100
AcDbScale
70
0
300
3/32" = 1'-0"
140
0.09375
141
12.0
290
0
0
SCALE
5
FC2
102
{ACAD_REACTORS
330
FAB
102
}
330
FAB
100
AcDbScale
70
0
300
1/8" = 1'-0"
140
0.125
141
12.0
290
0
0
SCALE
5
FC3
102
{ACAD_REACTORS
330
FAB
102
}
330
FAB
100
AcDbScale
70
0
300
3/16" = 1'-0"
140
0.1875
141
12.0
290
0
0
SCALE
5
FC4
102
{ACAD_REACTORS
330
FAB
102
}
330
FAB
100
AcDbScale
70
0
300
1/4" = 1'-0"
140
0.25
141
12.0
290
0
0
SCALE
5
FC5
102
{ACAD_REACTORS
330
FAB
102
}
330
FAB
100
AcDbScale
70
0
300
3/8" = 1'-0"
140
0.375
141
12.0
290
0
0
SCALE
5
FC6
102
{ACAD_REACTORS
330
FAB
102
}
330
FAB
100
AcDbScale
70
0
300
1/2" = 1'-0"
140
0.5
141
12.0
290
0
0
SCALE
5
FC7
102
{ACAD_REACTORS
330
FAB
102
}
330
FAB
100
AcDbScale
70
0
300
3/4" = 1'-0"
140
0.75
141
12.0
290
0
0
SCALE
5
FC8
102
{ACAD_REACTORS
330
FAB
102
}
330
FAB
100
AcDbScale
70
0
300
1" = 1'-0"
140
1.0
141
12.0
290
0
0
SCALE
5
FC9
102
{ACAD_REACTORS
330
FAB
102
}
330
FAB
100
AcDbScale
70
0
300
1-1/2" = 1'-0"
140
1.5
141
12.0
290
0
0
SCALE
5
FCA
102
{ACAD_REACTORS
330
FAB
102
}
330
FAB
100
AcDbScale
70
0
300
3" = 1'-0"
140
3.0
141
12.0
290
0
0
SCALE
5
FCB
102
{ACAD_REACTORS
330
FAB
102
}
330
FAB
100
AcDbScale
70
0
300
6" = 1'-0"
140
6.0
141
12.0
290
0
0
SCALE
5
FCC
102
{ACAD_REACTORS
330
FAB
102
}
330
FAB
100
AcDbScale
70
0
300
1'-0" = 1'-0"
140
12.0
141
12.0
290
0
0
TABLESTYLE
5
FA9
102
{ACAD_XDICTIONARY
360
FF8
102
}
102
{ACAD_REACTORS
330
FA8
102
}
330
FA8
100
AcDbTableStyle
3
Standard
70
0
71
0
40
0.06
41
0.06
280
0
281
0
7
Standard
140
0.18
170
2
62
0
63
7
283
0
274
-2
284
1
64
0
275
-2
285
1
65
0
276
-2
286
1
66
0
277
-2
287
1
67
0
278
-2
288
1
68
0
279
-2
289
1
69
0
7
Standard
140
0.25
170
5
62
0
63
7
283
0
274
-2
284
1
64
0
275
-2
285
1
65
0
276
-2
286
1
66
0
277
-2
287
1
67
0
278
-2
288
1
68
0
279
-2
289
1
69
0
7
Standard
140
0.18
170
5
62
0
63
7
283
0
274
-2
284
1
64
0
275
-2
285
1
65
0
276
-2
286
1
66
0
277
-2
287
1
67
0
278
-2
288
1
68
0
279
-2
289
1
69
0
0
VISUALSTYLE
5
F99
102
{ACAD_XDICTIONARY
360
108A
102
}
102
{ACAD_REACTORS
330
F93
102
}
330
F93
100
AcDbVisualStyle
2

70
4
71
0
72
2
73
0
90
0
40
-0.6
41
-30.0
62
5
63
7
74
1
91
4
64
7
65
257
75
1
175
1
42
1.0
92
0
66
257
43
1.0
76
1
77
6
78
2
67
7
79
5
170
0
171
0
290
0
174
0
93
1
44
0.0
173
0
291
0
45
0.0
1001
ACAD
1000
AcDbSavedByObjectVersion
1070
0
0
VISUALSTYLE
5
F9B
102
{ACAD_XDICTIONARY
360
108E
102
}
102
{ACAD_REACTORS
330
F93
102
}
330
F93
100
AcDbVisualStyle
2

70
6
71
1
72
2
73
2
90
0
40
-0.6
41
-30.0
62
5
63
7
74
2
91
2
64
7
65
257
75
2
175
1
42
179.0
92
0
66
257
43
1.0
76
1
77
6
78
2
67
7
79
3
170
0
171
0
290
0
174
0
93
1
44
0.0
173
0
291
0
45
0.0
1001
ACAD
1000
AcDbSavedByObjectVersion
1070
0
0
VISUALSTYLE
5
F9A
102
{ACAD_XDICTIONARY
360
108C
102
}
102
{ACAD_REACTORS
330
F93
102
}
330
F93
100
AcDbVisualStyle
2

70
5
71
0
72
2
73
0
90
0
40
-0.6
41
-30.0
62
5
63
7
74
1
91
4
64
7
65
257
75
1
175
1
42
1.0
92
0
66
257
43
1.0
76
1
77
6
78
2
67
7
79
5
170
0
171
0
290
0
174
0
93
1
44
0.0
173
0
291
0
45
0.0
1001
ACAD
1000
AcDbSavedByObjectVersion
1070
0
0
VISUALSTYLE
5
F98
102
{ACAD_XDICTIONARY
360
1088
102
}
102
{ACAD_REACTORS
330
F93
102
}
330
F93
100
AcDbVisualStyle
2

70
7
71
1
72
0
73
1
90
0
40
-0.6
41
-30.0
62
5
63
7
74
0
91
4
64
7
65
257
75
1
175
1
42
1.0
92
8
66
7
43
1.0
76
1
77
6
78
2
67
7
79
5
170
0
171
0
290
0
174
0
93
1
44
0.0
173
0
291
1
45
0.0
1001
ACAD
1000
AcDbSavedByObjectVersion
1070
0
0
VISUALSTYLE
5
F9F
102
{ACAD_XDICTIONARY
360
1096
102
}
102
{ACAD_REACTORS
330
F93
102
}
330
F93
100
AcDbVisualStyle
2

70
12
71
2
72
2
73
0
90
0
40
-0.6
41
-30.0
62
5
63
7
74
1
91
4
64
7
65
257
75
1
175
1
42
1.0
92
8
66
7
43
1.0
76
1
77
6
78
2
67
7
79
5
170
0
171
0
290
0
174
0
93
1
44
50.0
173
0
291
1
45
0.0
1001
ACAD
1000
AcDbSavedByObjectVersion
1070
0
0
VISUALSTYLE
5
FA3
102
{ACAD_XDICTIONARY
360
109E
102
}
102
{ACAD_REACTORS
330
F93
102
}
330
F93
100
AcDbVisualStyle
2

70
16
71
2
72
2
73
3
90
0
40
-0.6
41
-30.0
62
5
63
8
74
1
91
4
64
7
65
257
75
1
175
1
42
1.0
92
8
66
8
43
1.0
76
1
77
6
78
2
67
7
79
5
170
0
171
0
290
0
174
0
93
1
44
0.0
173
0
291
1
45
0.0
1001
ACAD
1000
AcDbSavedByObjectVersion
1070
0
0
VISUALSTYLE
5
F9C
102
{ACAD_XDICTIONARY
360
1090
102
}
102
{ACAD_REACTORS
330
F93
102
}
330
F93
100
AcDbVisualStyle
2

70
9
71
3
72
2
73
0
90
0
40
-0.6
41
-30.0
62
5
63
7
74
2
91
2
64
7
65
257
75
1
175
1
42
179.0
92
8
66
7
43
1.0
76
1
77
6
78
2
67
7
79
3
170
0
171
0
290
0
174
0
93
1
44
0.0
173
0
291
0
45
0.0
1001
ACAD
1000
AcDbSavedByObjectVersion
1070
0
0
VISUALSTYLE
5
F9E
102
{ACAD_XDICTIONARY
360
1094
102
}
102
{ACAD_REACTORS
330
F93
102
}
330
F93
100
AcDbVisualStyle
2

70
11
71
2
72
2
73
0
90
0
40
-0.6
41
-30.0
62
5
63
7
74
1
91
4
64
7
65
257
75
1
175
1
42
1.0
92
8
66
7
43
1.0
76
1
77
6
78
2
67
7
79
5
170
0
171
0
290
0
174
0
93
1
44
-50.0
173
0
291
1
45
0.0
1001
ACAD
1000
AcDbSavedByObjectVersion
1070
0
0
VISUALSTYLE
5
FA6
102
{ACAD_XDICTIONARY
360
10A4
102
}
102
{ACAD_REACTORS
330
F93
102
}
330
F93
100
AcDbVisualStyle
2

70
22
71
2
72
2
73
0
90
0
40
-0.6
41
-30.0
62
5
63
7
74
1
91
4
64
7
65
257
75
1
175
1
42
1.0
92
8
66
7
43
1.0
76
1
77
6
78
2
67
7
79
5
170
0
171
0
290
0
174
0
93
1
44
0.0
173
0
291
1
45
0.0
1001
ACAD
1000
AcDbSavedByObjectVersion
1070
0
0
VISUALSTYLE
5
FA2
102
{ACAD_XDICTIONARY
360
109C
102
}
102
{ACAD_REACTORS
330
F93
102
}
330
F93
100
AcDbVisualStyle
2

70
15
71
2
72
2
73
0
90
0
40
-0.6
41
-30.0
62
5
63
7
74
1
91
4
64
7
65
257
75
1
175
1
42
1.0
92
8
66
7
43
1.0
76
1
77
6
78
2
67
7
79
5
170
0
171
0
290
0
174
0
93
1
44
0.0
173
0
291
1
45
0.0
1001
ACAD
1000
AcDbSavedByObjectVersion
1070
0
0
VISUALSTYLE
5
F94
102
{ACAD_XDICTIONARY
360
1080
102
}
102
{ACAD_REACTORS
330
F93
102
}
330
F93
100
AcDbVisualStyle
2

70
0
71
2
72
1
73
1
90
2
40
-0.6
41
30.0
62
5
63
7
74
0
91
4
64
7
65
257
75
1
175
1
42
1.0
92
8
66
7
43
1.0
76
1
77
6
78
2
67
7
79
5
170
0
171
0
290
0
174
0
93
13
44
0.0
173
0
291
1
45
0.0
1001
ACAD
1000
AcDbSavedByObjectVersion
1070
0
0
VISUALSTYLE
5
F95
102
{ACAD_XDICTIONARY
360
1082
102
}
102
{ACAD_REACTORS
330
F93
102
}
330
F93
100
AcDbVisualStyle
2

70
1
71
2
72
1
73
1
90
2
40
-0.6
41
30.0
62
5
63
7
74
1
91
4
64
7
65
257
75
1
175
1
42
1.0
92
0
66
257
43
1.0
76
1
77
6
78
2
67
7
79
5
170
0
171
0
290
0
174
0
93
13
44
0.0
173
0
291
1
45
0.0
1001
ACAD
1000
AcDbSavedByObjectVersion
1070
0
0
VISUALSTYLE
5
F96
102
{ACAD_XDICTIONARY
360
1084
102
}
102
{ACAD_REACTORS
330
F93
102
}
330
F93
100
AcDbVisualStyle
2

70
2
71
2
72
2
73
1
90
2
40
-0.6
41
30.0
62
5
63
7
74
0
91
4
64
7
65
257
75
1
175
1
42
1.0
92
0
66
7
43
1.0
76
1
77
6
78
2
67
7
79
5
170
0
171
0
290
0
174
0
93
13
44
0.0
173
0
291
1
45
0.0
1001
ACAD
1000
AcDbSavedByObjectVersion
1070
0
0
VISUALSTYLE
5
F97
102
{ACAD_XDICTIONARY
360
1086
102
}
102
{ACAD_REACTORS
330
F93
102
}
330
F93
100
AcDbVisualStyle
2

70
3
71
2
72
2
73
1
90
2
40
-0.6
41
30.0
62
5
63
7
74
1
91
4
64
7
65
257
75
1
175
1
42
1.0
92
0
66
257
43
1.0
76
1
77
6
78
2
67
7
79
5
170
0
171
0
290
0
174
0
93
13
44
0.0
173
0
291
1
45
0.0
1001
ACAD
1000
AcDbSavedByObjectVersion
1070
0
0
VISUALSTYLE
5
FA4
102
{ACAD_XDICTIONARY
360
10A0
102
}
102
{ACAD_REACTORS
330
F93
102
}
330
F93
100
AcDbVisualStyle
2

70
20
71
2
72
2
73
0
90
0
40
-0.6
41
-30.0
62
5
63
7
74
1
91
4
64
7
65
257
75
1
175
1
42
1.0
92
10
66
7
43
1.0
76
1
77
6
78
2
67
7
79
5
170
0
171
0
290
0
174
0
93
1
44
0.0
173
0
291
1
45
0.0
1001
ACAD
1000
AcDbSavedByObjectVersion
1070
0
0
VISUALSTYLE
5
FA1
102
{ACAD_XDICTIONARY
360
109A
102
}
102
{ACAD_REACTORS
330
F93
102
}
330
F93
100
AcDbVisualStyle
2

70
14
71
2
72
2
73
0
90
0
40
-0.6
41
-30.0
62
5
63
7
74
1
91
4
64
7
65
257
75
7
175
7
42
1.0
92
8
66
7
43
1.0
76
1
77
6
78
2
67
7
79
5
170
0
171
0
290
0
174
0
93
1
44
0.0
173
0
291
1
45
0.0
1001
ACAD
1000
AcDbSavedByObjectVersion
1070
0
0
VISUALSTYLE
5
FA5
102
{ACAD_XDICTIONARY
360
10A2
102
}
102
{ACAD_REACTORS
330
F93
102
}
330
F93
100
AcDbVisualStyle
2

70
21
71
2
72
2
73
0
90
0
40
-0.6
41
-30.0
62
5
63
7
74
1
91
4
64
7
65
257
75
1
175
1
42
1.0
92
9
66
7
43
1.0
76
1
77
6
78
2
67
7
79
5
170
0
171
0
290
0
174
0
93
1
44
0.0
173
0
291
1
45
0.0
1001
ACAD
1000
AcDbSavedByObjectVersion
1070
0
0
VISUALSTYLE
5
F9D
102
{ACAD_XDICTIONARY
360
1092
102
}
102
{ACAD_REACTORS
330
F93
102
}
330
F93
100
AcDbVisualStyle
2

70
8
71
2
72
2
73
0
90
0
40
-0.6
41
-30.0
62
5
63
7
74
1
91
0
64
7
65
257
75
1
175
1
42
1.0
92
8
66
8
43
1.0
76
1
77
6
78
2
67
7
79
5
170
0
171
0
290
0
174
0
93
13
44
0.0
173
0
291
0
45
0.0
1001
ACAD
1000
AcDbSavedByObjectVersion
1070
0
0
VISUALSTYLE
5
FA0
102
{ACAD_XDICTIONARY
360
1098
102
}
102
{ACAD_REACTORS
330
F93
102
}
330
F93
100
AcDbVisualStyle
2

70
13
71
2
72
2
73
0
90
0
40
-0.6
41
-30.0
62
5
63
7
74
1
91
4
64
7
65
257
75
1
175
1
42
1.0
92
12
66
7
43
1.0
76
1
77
6
78
2
67
7
79
5
170
0
171
0
290
0
174
0
93
1
44
0.0
173
0
291
1
45
0.0
1001
ACAD
1000
AcDbSavedByObjectVersion
1070
0
0
DICTIONARYVAR
5
FF3
102
{ACAD_REACTORS
330
FF0
102
}
330
FF0
100
DictionaryVariables
280
0
1
1:1
0
DICTIONARYVAR
5
FF2
102
{ACAD_REACTORS
330
FF0
102
}
330
FF0
100
DictionaryVariables
280
0
1
STANDARD
0
DICTIONARYVAR
5
FF1
102
{ACAD_REACTORS
330
FF0
102
}
330
FF0
100
DictionaryVariables
280
0
1
STANDARD
0
DICTIONARYVAR
5
FF6
102
{ACAD_REACTORS
330
FF0
102
}
330
FF0
100
DictionaryVariables
280
0
1
1
0
DICTIONARYVAR
5
FF5
102
{ACAD_REACTORS
330
FF0
102
}
330
FF0
100
DictionaryVariables
280
0
1
0
0
DICTIONARYVAR
5
FF4
102
{ACAD_REACTORS
330
FF0
102
}
330
FF0
100
DictionaryVariables
280
0
1
127
0
DICTIONARYVAR
5
1078
102
{ACAD_REACTORS
330
FF0
102
}
330
FF0
100
DictionaryVariables
280
0
1
2
0
DICTIONARY
5
10A9
330
FD1
100
AcDbDictionary
280
1
281
1
3
ACAD_XREC_ROUNDTRIP
360
10AA
0
DICTIONARY
5
10A7
330
FD0
100
AcDbDictionary
280
1
281
1
3
ACAD_XREC_ROUNDTRIP
360
10A8
0
DICTIONARY
5
F84
330
F83
100
AcDbDictionary
280
1
281
1
3
ACAD_XREC_ROUNDTRIP
360
FFF
3
BUMPTILE
360
F86
3
DIFFUSETILE
360
F85
3
OPACITYTILE
360
F89
3
REFLECTIONTILE
360
F88
3
REFRACTIONTILE
360
F8A
3
SPECULARTILE
360
F87
0
DICTIONARY
5
F7C
330
F7B
100
AcDbDictionary
280
1
281
1
3
ACAD_XREC_ROUNDTRIP
360
FFE
3
BUMPTILE
360
F7E
3
DIFFUSETILE
360
F7D
3
OPACITYTILE
360
F81
3
REFLECTIONTILE
360
F80
3
REFRACTIONTILE
360
F82
3
SPECULARTILE
360
F7F
0
DICTIONARY
5
F8C
330
F8B
100
AcDbDictionary
280
1
281
1
3
ACAD_XREC_ROUNDTRIP
360
1000
3
BUMPTILE
360
F8E
3
DIFFUSETILE
360
F8D
3
OPACITYTILE
360
F91
3
REFLECTIONTILE
360
F90
3
REFRACTIONTILE
360
F92
3
SPECULARTILE
360
F8F
0
DICTIONARY
5
FF8
330
FA9
100
AcDbDictionary
280
1
281
1
3
ACAD_ROUNDTRIP_2008_TABLESTYLE_CELLSTYLEMAP
360
1079
3
ACAD_XREC_ROUNDTRIP
360
10A6
0
DICTIONARY
5
108A
330
F99
100
AcDbDictionary
280
1
281
1
3
ACAD_XREC_ROUNDTRIP
360
108B
0
DICTIONARY
5
108E
330
F9B
100
AcDbDictionary
280
1
281
1
3
ACAD_XREC_ROUNDTRIP
360
108F
0
DICTIONARY
5
108C
330
F9A
100
AcDbDictionary
280
1
281
1
3
ACAD_XREC_ROUNDTRIP
360
108D
0
DICTIONARY
5
1088
330
F98
100
AcDbDictionary
280
1
281
1
3
ACAD_XREC_ROUNDTRIP
360
1089
0
DICTIONARY
5
1096
330
F9F
100
AcDbDictionary
280
1
281
1
3
ACAD_XREC_ROUNDTRIP
360
1097
0
DICTIONARY
5
109E
330
FA3
100
AcDbDictionary
280
1
281
1
3
ACAD_XREC_ROUNDTRIP
360
109F
0
DICTIONARY
5
1090
330
F9C
100
AcDbDictionary
280
1
281
1
3
ACAD_XREC_ROUNDTRIP
360
1091
0
DICTIONARY
5
1094
330
F9E
100
AcDbDictionary
280
1
281
1
3
ACAD_XREC_ROUNDTRIP
360
1095
0
DICTIONARY
5
10A4
330
FA6
100
AcDbDictionary
280
1
281
1
3
ACAD_XREC_ROUNDTRIP
360
10A5
0
DICTIONARY
5
109C
330
FA2
100
AcDbDictionary
280
1
281
1
3
ACAD_XREC_ROUNDTRIP
360
109D
0
DICTIONARY
5
1080
330
F94
100
AcDbDictionary
280
1
281
1
3
ACAD_XREC_ROUNDTRIP
360
1081
0
DICTIONARY
5
1082
330
F95
100
AcDbDictionary
280
1
281
1
3
ACAD_XREC_ROUNDTRIP
360
1083
0
DICTIONARY
5
1084
330
F96
100
AcDbDictionary
280
1
281
1
3
ACAD_XREC_ROUNDTRIP
360
1085
0
DICTIONARY
5
1086
330
F97
100
AcDbDictionary
280
1
281
1
3
ACAD_XREC_ROUNDTRIP
360
1087
0
DICTIONARY
5
10A0
330
FA4
100
AcDbDictionary
280
1
281
1
3
ACAD_XREC_ROUNDTRIP
360
10A1
0
DICTIONARY
5
109A
330
FA1
100
AcDbDictionary
280
1
281
1
3
ACAD_XREC_ROUNDTRIP
360
109B
0
DICTIONARY
5
10A2
330
FA5
100
AcDbDictionary
280
1
281
1
3
ACAD_XREC_ROUNDTRIP
360
10A3
0
DICTIONARY
5
1092
330
F9D
100
AcDbDictionary
280
1
281
1
3
ACAD_XREC_ROUNDTRIP
360
1093
0
DICTIONARY
5
1098
330
FA0
100
AcDbDictionary
280
1
281
1
3
ACAD_XREC_ROUNDTRIP
360
1099
0
XRECORD
5
10AA
102
{ACAD_REACTORS
330
10A9
102
}
330
10A9
100
AcDbXrecord
280
1
102
SHADEPLOT
70
0
102
SHADEPLOTRESLEVEL
70
2
102
SHADEPLOTCUSTOMDPI
70
300
0
XRECORD
5
10A8
102
{ACAD_REACTORS
330
10A7
102
}
330
10A7
100
AcDbXrecord
280
1
102
SHADEPLOT
70
0
102
SHADEPLOTRESLEVEL
70
2
102
SHADEPLOTCUSTOMDPI
70
300
0
XRECORD
5
FFF
102
{ACAD_REACTORS
330
F84
102
}
330
F84
100
AcDbXrecord
280
1
102
MATERIAL
148
0.0
149
0.0
149
0.0
93
0
94
127
282
0
72
0
77
0
171
0
175
0
179
0
273
0
0
XRECORD
5
F86
102
{ACAD_REACTORS
330
F84
102
}
330
F84
100
AcDbXrecord
280
1
270
1
271
1
0
XRECORD
5
F85
102
{ACAD_REACTORS
330
F84
102
}
330
F84
100
AcDbXrecord
280
1
270
1
271
1
0
XRECORD
5
F89
102
{ACAD_REACTORS
330
F84
102
}
330
F84
100
AcDbXrecord
280
1
270
1
271
1
0
XRECORD
5
F88
102
{ACAD_REACTORS
330
F84
102
}
330
F84
100
AcDbXrecord
280
1
270
1
271
1
0
XRECORD
5
F8A
102
{ACAD_REACTORS
330
F84
102
}
330
F84
100
AcDbXrecord
280
1
270
1
271
1
0
XRECORD
5
F87
102
{ACAD_REACTORS
330
F84
102
}
330
F84
100
AcDbXrecord
280
1
270
1
271
1
0
XRECORD
5
FFE
102
{ACAD_REACTORS
330
F7C
102
}
330
F7C
100
AcDbXrecord
280
1
102
MATERIAL
148
0.0
149
0.0
149
0.0
93
0
94
127
282
0
72
0
77
0
171
0
175
0
179
0
273
0
0
XRECORD
5
F7E
102
{ACAD_REACTORS
330
F7C
102
}
330
F7C
100
AcDbXrecord
280
1
270
1
271
1
0
XRECORD
5
F7D
102
{ACAD_REACTORS
330
F7C
102
}
330
F7C
100
AcDbXrecord
280
1
270
1
271
1
0
XRECORD
5
F81
102
{ACAD_REACTORS
330
F7C
102
}
330
F7C
100
AcDbXrecord
280
1
270
1
271
1
0
XRECORD
5
F80
102
{ACAD_REACTORS
330
F7C
102
}
330
F7C
100
AcDbXrecord
280
1
270
1
271
1
0
XRECORD
5
F82
102
{ACAD_REACTORS
330
F7C
102
}
330
F7C
100
AcDbXrecord
280
1
270
1
271
1
0
XRECORD
5
F7F
102
{ACAD_REACTORS
330
F7C
102
}
330
F7C
100
AcDbXrecord
280
1
270
1
271
1
0
XRECORD
5
1000
102
{ACAD_REACTORS
330
F8C
102
}
330
F8C
100
AcDbXrecord
280
1
102
MATERIAL
148
0.0
149
0.0
149
0.0
93
0
94
127
282
0
72
0
77
0
171
0
175
0
179
0
273
0
0
XRECORD
5
F8E
102
{ACAD_REACTORS
330
F8C
102
}
330
F8C
100
AcDbXrecord
280
1
270
1
271
1
0
XRECORD
5
F8D
102
{ACAD_REACTORS
330
F8C
102
}
330
F8C
100
AcDbXrecord
280
1
270
1
271
1
0
XRECORD
5
F91
102
{ACAD_REACTORS
330
F8C
102
}
330
F8C
100
AcDbXrecord
280
1
270
1
271
1
0
XRECORD
5
F90
102
{ACAD_REACTORS
330
F8C
102
}
330
F8C
100
AcDbXrecord
280
1
270
1
271
1
0
XRECORD
5
F92
102
{ACAD_REACTORS
330
F8C
102
}
330
F8C
100
AcDbXrecord
280
1
270
1
271
1
0
XRECORD
5
F8F
102
{ACAD_REACTORS
330
F8C
102
}
330
F8C
100
AcDbXrecord
280
1
270
1
271
1
0
CELLSTYLEMAP
5
1079
102
{ACAD_REACTORS
330
FF8
102
}
330
FF8
100
AcDbCellStyleMap
90
3
300
CELLSTYLE
1
TABLEFORMAT_BEGIN
90
5
170
1
91
0
92
32768
62
257
93
1
300
CONTENTFORMAT
1
CONTENTFORMAT_BEGIN
90
0
91
0
92
512
93
0
300

40
0.0
140
1.0
94
5
62
0
340
253
144
0.25
309
CONTENTFORMAT_END
171
1
301
MARGIN
1
CELLMARGIN_BEGIN
40
0.06
40
0.06
40
0.06
40
0.06
40
0.18
40
0.18
309
CELLMARGIN_END
94
6
95
1
302
GRIDFORMAT
1
GRIDFORMAT_BEGIN
90
0
91
1
62
0
92
-2
340
0
93
0
40
0.045
309
GRIDFORMAT_END
95
2
302
GRIDFORMAT
1
GRIDFORMAT_BEGIN
90
0
91
1
62
0
92
-2
340
0
93
0
40
0.045
309
GRIDFORMAT_END
95
4
302
GRIDFORMAT
1
GRIDFORMAT_BEGIN
90
0
91
1
62
0
92
-2
340
0
93
0
40
0.045
309
GRIDFORMAT_END
95
8
302
GRIDFORMAT
1
GRIDFORMAT_BEGIN
90
0
91
1
62
0
92
-2
340
0
93
0
40
0.045
309
GRIDFORMAT_END
95
16
302
GRIDFORMAT
1
GRIDFORMAT_BEGIN
90
0
91
1
62
0
92
-2
340
0
93
0
40
0.045
309
GRIDFORMAT_END
95
32
302
GRIDFORMAT
1
GRIDFORMAT_BEGIN
90
0
91
1
62
0
92
-2
340
0
93
0
40
0.045
309
GRIDFORMAT_END
309
TABLEFORMAT_END
1
CELLSTYLE_BEGIN
90
1
91
1
300
_TITLE
309
CELLSTYLE_END
300
CELLSTYLE
1
TABLEFORMAT_BEGIN
90
5
170
1
91
0
92
0
62
257
93
1
300
CONTENTFORMAT
1
CONTENTFORMAT_BEGIN
90
0
91
0
92
512
93
0
300

40
0.0
140
1.0
94
5
62
0
340
253
144
0.18
309
CONTENTFORMAT_END
171
1
301
MARGIN
1
CELLMARGIN_BEGIN
40
0.06
40
0.06
40
0.06
40
0.06
40
0.18
40
0.18
309
CELLMARGIN_END
94
6
95
1
302
GRIDFORMAT
1
GRIDFORMAT_BEGIN
90
0
91
1
62
0
92
-2
340
0
93
0
40
0.045
309
GRIDFORMAT_END
95
2
302
GRIDFORMAT
1
GRIDFORMAT_BEGIN
90
0
91
1
62
0
92
-2
340
0
93
0
40
0.045
309
GRIDFORMAT_END
95
4
302
GRIDFORMAT
1
GRIDFORMAT_BEGIN
90
0
91
1
62
0
92
-2
340
0
93
0
40
0.045
309
GRIDFORMAT_END
95
8
302
GRIDFORMAT
1
GRIDFORMAT_BEGIN
90
0
91
1
62
0
92
-2
340
0
93
0
40
0.045
309
GRIDFORMAT_END
95
16
302
GRIDFORMAT
1
GRIDFORMAT_BEGIN
90
0
91
1
62
0
92
-2
340
0
93
0
40
0.045
309
GRIDFORMAT_END
95
32
302
GRIDFORMAT
1
GRIDFORMAT_BEGIN
90
0
91
1
62
0
92
-2
340
0
93
0
40
0.045
309
GRIDFORMAT_END
309
TABLEFORMAT_END
1
CELLSTYLE_BEGIN
90
2
91
1
300
_HEADER
309
CELLSTYLE_END
300
CELLSTYLE
1
TABLEFORMAT_BEGIN
90
5
170
1
91
0
92
0
62
257
93
1
300
CONTENTFORMAT
1
CONTENTFORMAT_BEGIN
90
0
91
0
92
512
93
0
300

40
0.0
140
1.0
94
2
62
0
340
253
144
0.18
309
CONTENTFORMAT_END
171
1
301
MARGIN
1
CELLMARGIN_BEGIN
40
0.06
40
0.06
40
0.06
40
0.06
40
0.18
40
0.18
309
CELLMARGIN_END
94
6
95
1
302
GRIDFORMAT
1
GRIDFORMAT_BEGIN
90
0
91
1
62
0
92
-2
340
0
93
0
40
0.045
309
GRIDFORMAT_END
95
2
302
GRIDFORMAT
1
GRIDFORMAT_BEGIN
90
0
91
1
62
0
92
-2
340
0
93
0
40
0.045
309
GRIDFORMAT_END
95
4
302
GRIDFORMAT
1
GRIDFORMAT_BEGIN
90
0
91
1
62
0
92
-2
340
0
93
0
40
0.045
309
GRIDFORMAT_END
95
8
302
GRIDFORMAT
1
GRIDFORMAT_BEGIN
90
0
91
1
62
0
92
-2
340
0
93
0
40
0.045
309
GRIDFORMAT_END
95
16
302
GRIDFORMAT
1
GRIDFORMAT_BEGIN
90
0
91
1
62
0
92
-2
340
0
93
0
40
0.045
309
GRIDFORMAT_END
95
32
302
GRIDFORMAT
1
GRIDFORMAT_BEGIN
90
0
91
1
62
0
92
-2
340
0
93
0
40
0.045
309
GRIDFORMAT_END
309
TABLEFORMAT_END
1
CELLSTYLE_BEGIN
90
3
91
2
300
_DATA
309
CELLSTYLE_END
0
XRECORD
5
10A6
102
{ACAD_REACTORS
330
FF8
102
}
330
FF8
100
AcDbXrecord
280
1
102
ACAD_ROUNDTRIP_PRE2007_TABLESTYLE
90
512
91
0
1

92
512
93
0
2

94
512
95
0
3

0
XRECORD
5
108B
102
{ACAD_REACTORS
330
108A
102
}
330
108A
100
AcDbXrecord
280
1
102
RTVSPropertyOp0
70
1
102
RTVSPropertyOp1
70
1
102
RTVSPropertyOp2
70
1
102
RTVSPropertyOp3
70
1
102
RTVSPropertyOp4
70
1
102
RTVSPropertyOp5
70
1
102
RTVSPropertyOp6
70
1
102
RTVSPropertyOp7
70
1
102
RTVSPropertyOp8
70
1
102
RTVSPropertyOp9
70
1
102
RTVSPropertyOp10
70
1
102
RTVSPropertyOp11
70
1
102
RTVSPropertyOp12
70
1
102
RTVSPropertyOp13
70
1
102
RTVSPropertyOp14
70
1
102
RTVSPropertyOp15
70
1
102
RTVSPropertyOp16
70
1
102
RTVSPropertyOp17
70
1
102
RTVSPropertyOp18
70
1
102
RTVSPropertyOp19
70
1
102
RTVSPropertyOp20
70
1
102
RTVSPropertyOp21
70
1
102
RTVSPropertyOp22
70
1
102
RTVSPropertyOp23
70
1
102
RTVSPropertyOp24
70
1
102
RTVSPropertyOp25
70
1
102
RTVSPropertyOp26
70
1
102
RTVSPropertyOp27
70
1
0
XRECORD
5
108F
102
{ACAD_REACTORS
330
108E
102
}
330
108E
100
AcDbXrecord
280
1
102
RTVSPropertyOp0
70
1
102
RTVSPropertyOp1
70
1
102
RTVSPropertyOp2
70
1
102
RTVSPropertyOp3
70
1
102
RTVSPropertyOp4
70
1
102
RTVSPropertyOp5
70
1
102
RTVSPropertyOp6
70
1
102
RTVSPropertyOp7
70
1
102
RTVSPropertyOp8
70
1
102
RTVSPropertyOp9
70
1
102
RTVSPropertyOp10
70
1
102
RTVSPropertyOp11
70
1
102
RTVSPropertyOp12
70
1
102
RTVSPropertyOp13
70
1
102
RTVSPropertyOp14
70
1
102
RTVSPropertyOp15
70
1
102
RTVSPropertyOp16
70
1
102
RTVSPropertyOp17
70
1
102
RTVSPropertyOp18
70
1
102
RTVSPropertyOp19
70
1
102
RTVSPropertyOp20
70
1
102
RTVSPropertyOp21
70
1
102
RTVSPropertyOp22
70
1
102
RTVSPropertyOp23
70
1
102
RTVSPropertyOp24
70
1
102
RTVSPropertyOp25
70
1
102
RTVSPropertyOp26
70
1
102
RTVSPropertyOp27
70
1
0
XRECORD
5
108D
102
{ACAD_REACTORS
330
108C
102
}
330
108C
100
AcDbXrecord
280
1
102
RTVSPropertyOp0
70
1
102
RTVSPropertyOp1
70
1
102
RTVSPropertyOp2
70
1
102
RTVSPropertyOp3
70
1
102
RTVSPropertyOp4
70
1
102
RTVSPropertyOp5
70
1
102
RTVSPropertyOp6
70
1
102
RTVSPropertyOp7
70
1
102
RTVSPropertyOp8
70
1
102
RTVSPropertyOp9
70
1
102
RTVSPropertyOp10
70
1
102
RTVSPropertyOp11
70
1
102
RTVSPropertyOp12
70
1
102
RTVSPropertyOp13
70
1
102
RTVSPropertyOp14
70
1
102
RTVSPropertyOp15
70
1
102
RTVSPropertyOp16
70
1
102
RTVSPropertyOp17
70
1
102
RTVSPropertyOp18
70
1
102
RTVSPropertyOp19
70
1
102
RTVSPropertyOp20
70
1
102
RTVSPropertyOp21
70
1
102
RTVSPropertyOp22
70
1
102
RTVSPropertyOp23
70
1
102
RTVSPropertyOp24
70
1
102
RTVSPropertyOp25
70
1
102
RTVSPropertyOp26
70
1
102
RTVSPropertyOp27
70
1
0
XRECORD
5
1089
102
{ACAD_REACTORS
330
1088
102
}
330
1088
100
AcDbXrecord
280
1
102
RTVSPropertyOp0
70
1
102
RTVSPropertyOp1
70
1
102
RTVSPropertyOp2
70
1
102
RTVSPropertyOp3
70
1
102
RTVSPropertyOp4
70
1
102
RTVSPropertyOp5
70
1
102
RTVSPropertyOp6
70
1
102
RTVSPropertyOp7
70
1
102
RTVSPropertyOp8
70
1
102
RTVSPropertyOp9
70
1
102
RTVSPropertyOp10
70
1
102
RTVSPropertyOp11
70
1
102
RTVSPropertyOp12
70
1
102
RTVSPropertyOp13
70
1
102
RTVSPropertyOp14
70
1
102
RTVSPropertyOp15
70
1
102
RTVSPropertyOp16
70
1
102
RTVSPropertyOp17
70
1
102
RTVSPropertyOp18
70
1
102
RTVSPropertyOp19
70
1
102
RTVSPropertyOp20
70
1
102
RTVSPropertyOp21
70
1
102
RTVSPropertyOp22
70
1
102
RTVSPropertyOp23
70
1
102
RTVSPropertyOp24
70
1
102
RTVSPropertyOp25
70
1
102
RTVSPropertyOp26
70
1
102
RTVSPropertyOp27
70
1
0
XRECORD
5
1097
102
{ACAD_REACTORS
330
1096
102
}
330
1096
100
AcDbXrecord
280
1
102
RTVSPropertyOp0
70
1
102
RTVSPropertyOp1
70
1
102
RTVSPropertyOp2
70
1
102
RTVSPropertyOp3
70
1
102
RTVSPropertyOp4
70
1
102
RTVSPropertyOp5
70
1
102
RTVSPropertyOp6
70
1
102
RTVSPropertyOp7
70
1
102
RTVSPropertyOp8
70
1
102
RTVSPropertyOp9
70
1
102
RTVSPropertyOp10
70
1
102
RTVSPropertyOp11
70
1
102
RTVSPropertyOp12
70
1
102
RTVSPropertyOp13
70
1
102
RTVSPropertyOp14
70
1
102
RTVSPropertyOp15
70
1
102
RTVSPropertyOp16
70
1
102
RTVSPropertyOp17
70
1
102
RTVSPropertyOp18
70
1
102
RTVSPropertyOp19
70
1
102
RTVSPropertyOp20
70
1
102
RTVSPropertyOp21
70
1
102
RTVSPropertyOp22
70
1
102
RTVSPropertyOp23
70
1
102
RTVSPropertyOp24
70
1
102
RTVSPropertyOp25
70
1
102
RTVSPropertyOp26
70
1
102
RTVSPropertyOp27
70
1
0
XRECORD
5
109F
102
{ACAD_REACTORS
330
109E
102
}
330
109E
100
AcDbXrecord
280
1
102
RTVSPropertyOp0
70
1
102
RTVSPropertyOp1
70
1
102
RTVSPropertyOp2
70
1
102
RTVSPropertyOp3
70
1
102
RTVSPropertyOp4
70
1
102
RTVSPropertyOp5
70
1
102
RTVSPropertyOp6
70
1
102
RTVSPropertyOp7
70
1
102
RTVSPropertyOp8
70
1
102
RTVSPropertyOp9
70
1
102
RTVSPropertyOp10
70
1
102
RTVSPropertyOp11
70
1
102
RTVSPropertyOp12
70
1
102
RTVSPropertyOp13
70
1
102
RTVSPropertyOp14
70
1
102
RTVSPropertyOp15
70
1
102
RTVSPropertyOp16
70
1
102
RTVSPropertyOp17
70
1
102
RTVSPropertyOp18
70
1
102
RTVSPropertyOp19
70
1
102
RTVSPropertyOp20
70
1
102
RTVSPropertyOp21
70
1
102
RTVSPropertyOp22
70
1
102
RTVSPropertyOp23
70
1
102
RTVSPropertyOp24
70
1
102
RTVSPropertyOp25
70
1
102
RTVSPropertyOp26
70
1
102
RTVSPropertyOp27
70
1
0
XRECORD
5
1091
102
{ACAD_REACTORS
330
1090
102
}
330
1090
100
AcDbXrecord
280
1
102
RTVSPropertyOp0
70
1
102
RTVSPropertyOp1
70
1
102
RTVSPropertyOp2
70
1
102
RTVSPropertyOp3
70
1
102
RTVSPropertyOp4
70
1
102
RTVSPropertyOp5
70
1
102
RTVSPropertyOp6
70
1
102
RTVSPropertyOp7
70
1
102
RTVSPropertyOp8
70
1
102
RTVSPropertyOp9
70
1
102
RTVSPropertyOp10
70
1
102
RTVSPropertyOp11
70
1
102
RTVSPropertyOp12
70
1
102
RTVSPropertyOp13
70
1
102
RTVSPropertyOp14
70
1
102
RTVSPropertyOp15
70
1
102
RTVSPropertyOp16
70
1
102
RTVSPropertyOp17
70
1
102
RTVSPropertyOp18
70
1
102
RTVSPropertyOp19
70
1
102
RTVSPropertyOp20
70
1
102
RTVSPropertyOp21
70
1
102
RTVSPropertyOp22
70
1
102
RTVSPropertyOp23
70
1
102
RTVSPropertyOp24
70
1
102
RTVSPropertyOp25
70
1
102
RTVSPropertyOp26
70
1
102
RTVSPropertyOp27
70
1
0
XRECORD
5
1095
102
{ACAD_REACTORS
330
1094
102
}
330
1094
100
AcDbXrecord
280
1
102
RTVSPropertyOp0
70
1
102
RTVSPropertyOp1
70
1
102
RTVSPropertyOp2
70
1
102
RTVSPropertyOp3
70
1
102
RTVSPropertyOp4
70
1
102
RTVSPropertyOp5
70
1
102
RTVSPropertyOp6
70
1
102
RTVSPropertyOp7
70
1
102
RTVSPropertyOp8
70
1
102
RTVSPropertyOp9
70
1
102
RTVSPropertyOp10
70
1
102
RTVSPropertyOp11
70
1
102
RTVSPropertyOp12
70
1
102
RTVSPropertyOp13
70
1
102
RTVSPropertyOp14
70
1
102
RTVSPropertyOp15
70
1
102
RTVSPropertyOp16
70
1
102
RTVSPropertyOp17
70
1
102
RTVSPropertyOp18
70
1
102
RTVSPropertyOp19
70
1
102
RTVSPropertyOp20
70
1
102
RTVSPropertyOp21
70
1
102
RTVSPropertyOp22
70
1
102
RTVSPropertyOp23
70
1
102
RTVSPropertyOp24
70
1
102
RTVSPropertyOp25
70
1
102
RTVSPropertyOp26
70
1
102
RTVSPropertyOp27
70
1
0
XRECORD
5
10A5
102
{ACAD_REACTORS
330
10A4
102
}
330
10A4
100
AcDbXrecord
280
1
102
RTVSPropertyOp0
70
0
102
RTVSPropertyOp1
70
0
102
RTVSPropertyOp2
70
0
102
RTVSPropertyOp3
70
0
102
RTVSPropertyOp4
70
0
102
RTVSPropertyOp5
70
0
102
RTVSPropertyOp6
70
0
102
RTVSPropertyOp7
70
0
102
RTVSPropertyOp8
70
0
102
RTVSPropertyOp9
70
0
102
RTVSPropertyOp10
70
0
102
RTVSPropertyOp11
70
0
102
RTVSPropertyOp12
70
0
102
RTVSPropertyOp13
70
0
102
RTVSPropertyOp14
70
2
102
RTVSPropertyOp15
70
0
102
RTVSPropertyOp16
70
0
102
RTVSPropertyOp17
70
0
102
RTVSPropertyOp18
70
0
102
RTVSPropertyOp19
70
0
102
RTVSPropertyOp20
70
0
102
RTVSPropertyOp21
70
0
102
RTVSPropertyOp22
70
0
102
RTVSPropertyOp23
70
0
102
RTVSPropertyOp24
70
0
102
RTVSPropertyOp25
70
0
102
RTVSPropertyOp26
70
0
102
RTVSPropertyOp27
70
0
0
XRECORD
5
109D
102
{ACAD_REACTORS
330
109C
102
}
330
109C
100
AcDbXrecord
280
1
102
RTVSPropertyOp0
70
1
102
RTVSPropertyOp1
70
1
102
RTVSPropertyOp2
70
1
102
RTVSPropertyOp3
70
1
102
RTVSPropertyOp4
70
1
102
RTVSPropertyOp5
70
1
102
RTVSPropertyOp6
70
1
102
RTVSPropertyOp7
70
1
102
RTVSPropertyOp8
70
1
102
RTVSPropertyOp9
70
1
102
RTVSPropertyOp10
70
1
102
RTVSPropertyOp11
70
1
102
RTVSPropertyOp12
70
1
102
RTVSPropertyOp13
70
1
102
RTVSPropertyOp14
70
1
102
RTVSPropertyOp15
70
1
102
RTVSPropertyOp16
70
1
102
RTVSPropertyOp17
70
1
102
RTVSPropertyOp18
70
1
102
RTVSPropertyOp19
70
1
102
RTVSPropertyOp20
70
1
102
RTVSPropertyOp21
70
1
102
RTVSPropertyOp22
70
1
102
RTVSPropertyOp23
70
1
102
RTVSPropertyOp24
70
1
102
RTVSPropertyOp25
70
1
102
RTVSPropertyOp26
70
1
102
RTVSPropertyOp27
70
1
0
XRECORD
5
1081
102
{ACAD_REACTORS
330
1080
102
}
330
1080
100
AcDbXrecord
280
1
102
RTVSPropertyOp0
70
1
102
RTVSPropertyOp1
70
1
102
RTVSPropertyOp2
70
1
102
RTVSPropertyOp3
70
1
102
RTVSPropertyOp4
70
1
102
RTVSPropertyOp5
70
1
102
RTVSPropertyOp6
70
1
102
RTVSPropertyOp7
70
1
102
RTVSPropertyOp8
70
1
102
RTVSPropertyOp9
70
1
102
RTVSPropertyOp10
70
1
102
RTVSPropertyOp11
70
1
102
RTVSPropertyOp12
70
1
102
RTVSPropertyOp13
70
1
102
RTVSPropertyOp14
70
1
102
RTVSPropertyOp15
70
1
102
RTVSPropertyOp16
70
1
102
RTVSPropertyOp17
70
1
102
RTVSPropertyOp18
70
1
102
RTVSPropertyOp19
70
1
102
RTVSPropertyOp20
70
1
102
RTVSPropertyOp21
70
1
102
RTVSPropertyOp22
70
1
102
RTVSPropertyOp23
70
1
102
RTVSPropertyOp24
70
1
102
RTVSPropertyOp25
70
1
102
RTVSPropertyOp26
70
1
102
RTVSPropertyOp27
70
1
0
XRECORD
5
1083
102
{ACAD_REACTORS
330
1082
102
}
330
1082
100
AcDbXrecord
280
1
102
RTVSPropertyOp0
70
1
102
RTVSPropertyOp1
70
1
102
RTVSPropertyOp2
70
1
102
RTVSPropertyOp3
70
1
102
RTVSPropertyOp4
70
1
102
RTVSPropertyOp5
70
1
102
RTVSPropertyOp6
70
1
102
RTVSPropertyOp7
70
1
102
RTVSPropertyOp8
70
1
102
RTVSPropertyOp9
70
1
102
RTVSPropertyOp10
70
1
102
RTVSPropertyOp11
70
1
102
RTVSPropertyOp12
70
1
102
RTVSPropertyOp13
70
1
102
RTVSPropertyOp14
70
1
102
RTVSPropertyOp15
70
1
102
RTVSPropertyOp16
70
1
102
RTVSPropertyOp17
70
1
102
RTVSPropertyOp18
70
1
102
RTVSPropertyOp19
70
1
102
RTVSPropertyOp20
70
1
102
RTVSPropertyOp21
70
1
102
RTVSPropertyOp22
70
1
102
RTVSPropertyOp23
70
1
102
RTVSPropertyOp24
70
1
102
RTVSPropertyOp25
70
1
102
RTVSPropertyOp26
70
1
102
RTVSPropertyOp27
70
1
0
XRECORD
5
1085
102
{ACAD_REACTORS
330
1084
102
}
330
1084
100
AcDbXrecord
280
1
102
RTVSPropertyOp0
70
1
102
RTVSPropertyOp1
70
1
102
RTVSPropertyOp2
70
1
102
RTVSPropertyOp3
70
1
102
RTVSPropertyOp4
70
1
102
RTVSPropertyOp5
70
1
102
RTVSPropertyOp6
70
1
102
RTVSPropertyOp7
70
1
102
RTVSPropertyOp8
70
1
102
RTVSPropertyOp9
70
1
102
RTVSPropertyOp10
70
1
102
RTVSPropertyOp11
70
1
102
RTVSPropertyOp12
70
1
102
RTVSPropertyOp13
70
1
102
RTVSPropertyOp14
70
1
102
RTVSPropertyOp15
70
1
102
RTVSPropertyOp16
70
1
102
RTVSPropertyOp17
70
1
102
RTVSPropertyOp18
70
1
102
RTVSPropertyOp19
70
1
102
RTVSPropertyOp20
70
1
102
RTVSPropertyOp21
70
1
102
RTVSPropertyOp22
70
1
102
RTVSPropertyOp23
70
1
102
RTVSPropertyOp24
70
1
102
RTVSPropertyOp25
70
1
102
RTVSPropertyOp26
70
1
102
RTVSPropertyOp27
70
1
0
XRECORD
5
1087
102
{ACAD_REACTORS
330
1086
102
}
330
1086
100
AcDbXrecord
280
1
102
RTVSPropertyOp0
70
1
102
RTVSPropertyOp1
70
1
102
RTVSPropertyOp2
70
1
102
RTVSPropertyOp3
70
1
102
RTVSPropertyOp4
70
1
102
RTVSPropertyOp5
70
1
102
RTVSPropertyOp6
70
1
102
RTVSPropertyOp7
70
1
102
RTVSPropertyOp8
70
1
102
RTVSPropertyOp9
70
1
102
RTVSPropertyOp10
70
1
102
RTVSPropertyOp11
70
1
102
RTVSPropertyOp12
70
1
102
RTVSPropertyOp13
70
1
102
RTVSPropertyOp14
70
1
102
RTVSPropertyOp15
70
1
102
RTVSPropertyOp16
70
1
102
RTVSPropertyOp17
70
1
102
RTVSPropertyOp18
70
1
102
RTVSPropertyOp19
70
1
102
RTVSPropertyOp20
70
1
102
RTVSPropertyOp21
70
1
102
RTVSPropertyOp22
70
1
102
RTVSPropertyOp23
70
1
102
RTVSPropertyOp24
70
1
102
RTVSPropertyOp25
70
1
102
RTVSPropertyOp26
70
1
102
RTVSPropertyOp27
70
1
0
XRECORD
5
10A1
102
{ACAD_REACTORS
330
10A0
102
}
330
10A0
100
AcDbXrecord
280
1
102
RTVSPropertyOp0
70
0
102
RTVSPropertyOp1
70
0
102
RTVSPropertyOp2
70
0
102
RTVSPropertyOp3
70
0
102
RTVSPropertyOp4
70
0
102
RTVSPropertyOp5
70
0
102
RTVSPropertyOp6
70
0
102
RTVSPropertyOp7
70
0
102
RTVSPropertyOp8
70
0
102
RTVSPropertyOp9
70
0
102
RTVSPropertyOp10
70
0
102
RTVSPropertyOp11
70
0
102
RTVSPropertyOp12
70
0
102
RTVSPropertyOp13
70
0
102
RTVSPropertyOp14
70
2
102
RTVSPropertyOp15
70
0
102
RTVSPropertyOp16
70
0
102
RTVSPropertyOp17
70
0
102
RTVSPropertyOp18
70
0
102
RTVSPropertyOp19
70
0
102
RTVSPropertyOp20
70
0
102
RTVSPropertyOp21
70
0
102
RTVSPropertyOp22
70
0
102
RTVSPropertyOp23
70
0
102
RTVSPropertyOp24
70
0
102
RTVSPropertyOp25
70
0
102
RTVSPropertyOp26
70
0
102
RTVSPropertyOp27
70
0
0
XRECORD
5
109B
102
{ACAD_REACTORS
330
109A
102
}
330
109A
100
AcDbXrecord
280
1
102
RTVSPropertyOp0
70
1
102
RTVSPropertyOp1
70
1
102
RTVSPropertyOp2
70
1
102
RTVSPropertyOp3
70
1
102
RTVSPropertyOp4
70
1
102
RTVSPropertyOp5
70
1
102
RTVSPropertyOp6
70
1
102
RTVSPropertyOp7
70
1
102
RTVSPropertyOp8
70
1
102
RTVSPropertyOp9
70
1
102
RTVSPropertyOp10
70
1
102
RTVSPropertyOp11
70
1
102
RTVSPropertyOp12
70
1
102
RTVSPropertyOp13
70
1
102
RTVSPropertyOp14
70
1
102
RTVSPropertyOp15
70
1
102
RTVSPropertyOp16
70
1
102
RTVSPropertyOp17
70
1
102
RTVSPropertyOp18
70
1
102
RTVSPropertyOp19
70
1
102
RTVSPropertyOp20
70
1
102
RTVSPropertyOp21
70
1
102
RTVSPropertyOp22
70
1
102
RTVSPropertyOp23
70
1
102
RTVSPropertyOp24
70
1
102
RTVSPropertyOp25
70
1
102
RTVSPropertyOp26
70
1
102
RTVSPropertyOp27
70
1
0
XRECORD
5
10A3
102
{ACAD_REACTORS
330
10A2
102
}
330
10A2
100
AcDbXrecord
280
1
102
RTVSPropertyOp0
70
0
102
RTVSPropertyOp1
70
0
102
RTVSPropertyOp2
70
0
102
RTVSPropertyOp3
70
0
102
RTVSPropertyOp4
70
0
102
RTVSPropertyOp5
70
0
102
RTVSPropertyOp6
70
0
102
RTVSPropertyOp7
70
0
102
RTVSPropertyOp8
70
0
102
RTVSPropertyOp9
70
0
102
RTVSPropertyOp10
70
0
102
RTVSPropertyOp11
70
0
102
RTVSPropertyOp12
70
0
102
RTVSPropertyOp13
70
0
102
RTVSPropertyOp14
70
2
102
RTVSPropertyOp15
70
0
102
RTVSPropertyOp16
70
0
102
RTVSPropertyOp17
70
0
102
RTVSPropertyOp18
70
0
102
RTVSPropertyOp19
70
0
102
RTVSPropertyOp20
70
0
102
RTVSPropertyOp21
70
0
102
RTVSPropertyOp22
70
0
102
RTVSPropertyOp23
70
0
102
RTVSPropertyOp24
70
0
102
RTVSPropertyOp25
70
0
102
RTVSPropertyOp26
70
0
102
RTVSPropertyOp27
70
0
0
XRECORD
5
1093
102
{ACAD_REACTORS
330
1092
102
}
330
1092
100
AcDbXrecord
280
1
102
RTVSPropertyOp0
70
1
102
RTVSPropertyOp1
70
1
102
RTVSPropertyOp2
70
1
102
RTVSPropertyOp3
70
1
102
RTVSPropertyOp4
70
1
102
RTVSPropertyOp5
70
1
102
RTVSPropertyOp6
70
1
102
RTVSPropertyOp7
70
1
102
RTVSPropertyOp8
70
1
102
RTVSPropertyOp9
70
1
102
RTVSPropertyOp10
70
1
102
RTVSPropertyOp11
70
1
102
RTVSPropertyOp12
70
1
102
RTVSPropertyOp13
70
1
102
RTVSPropertyOp14
70
1
102
RTVSPropertyOp15
70
1
102
RTVSPropertyOp16
70
1
102
RTVSPropertyOp17
70
1
102
RTVSPropertyOp18
70
1
102
RTVSPropertyOp19
70
1
102
RTVSPropertyOp20
70
1
102
RTVSPropertyOp21
70
1
102
RTVSPropertyOp22
70
1
102
RTVSPropertyOp23
70
1
102
RTVSPropertyOp24
70
1
102
RTVSPropertyOp25
70
1
102
RTVSPropertyOp26
70
1
102
RTVSPropertyOp27
70
1
0
XRECORD
5
1099
102
{ACAD_REACTORS
330
1098
102
}
330
1098
100
AcDbXrecord
280
1
102
RTVSPropertyOp0
70
1
102
RTVSPropertyOp1
70
1
102
RTVSPropertyOp2
70
1
102
RTVSPropertyOp3
70
1
102
RTVSPropertyOp4
70
1
102
RTVSPropertyOp5
70
1
102
RTVSPropertyOp6
70
1
102
RTVSPropertyOp7
70
1
102
RTVSPropertyOp8
70
1
102
RTVSPropertyOp9
70
1
102
RTVSPropertyOp10
70
1
102
RTVSPropertyOp11
70
1
102
RTVSPropertyOp12
70
1
102
RTVSPropertyOp13
70
1
102
RTVSPropertyOp14
70
1
102
RTVSPropertyOp15
70
1
102
RTVSPropertyOp16
70
1
102
RTVSPropertyOp17
70
1
102
RTVSPropertyOp18
70
1
102
RTVSPropertyOp19
70
1
102
RTVSPropertyOp20
70
1
102
RTVSPropertyOp21
70
1
102
RTVSPropertyOp22
70
1
102
RTVSPropertyOp23
70
1
102
RTVSPropertyOp24
70
1
102
RTVSPropertyOp25
70
1
102
RTVSPropertyOp26
70
1
102
RTVSPropertyOp27
70
1
0
ENDSEC
0
EOF
