0
SECTION
2
HEADER
9
$ACADVER
1
AC1015
9
$ACADMAINTVER
70
20
9
$DWGCODEPAGE
3
ANSI_1252
9
$INSBASE
10
0.0
20
0.0
30
0.0
9
$EXTMIN
10
-150.000000000000
20
-105.000000000000
30
0.0
9
$EXTMAX
10
150.000000000000
20
105.000000000000
30
0.0
9
$LIMMIN
10
0.0
20
0.0
9
$LIMMAX
10
12.0
20
9.0
9
$ORTHOMODE
70
0
9
$REGENMODE
70
1
9
$FILLMODE
70
1
9
$QTEXTMODE
70
0
9
$MIRRTEXT
70
1
9
$LTSCALE
40
1.0
9
$ATTMODE
70
1
9
$TEXTSIZE
40
0.2
9
$TRACEWID
40
0.05
9
$TEXTSTYLE
7
Standard
9
$CLAYER
8
0
9
$CELTYPE
6
ByLayer
9
$CECOLOR
62
256
9
$CELTSCALE
40
1.0
9
$DISPSILH
70
0
9
$DIMSCALE
40
1.0
9
$DIMASZ
40
2.5
9
$DIMEXO
40
0.625
9
$DIMDLI
40
0.38
9
$DIMRND
40
0.0
9
$DIMDLE
40
0.0
9
$DIMEXE
40
1.25
9
$DIMTP
40
0.0
9
$DIMTM
40
0.000000001
9
$DIMTXT
40
2.5
9
$DIMCEN
40
0.09
9
$DIMTSZ
40
0.0
9
$DIMTOL
70
1
9
$DIMLIM
70
0
9
$DIMTIH
70
0
9
$DIMTOH
70
0
9
$DIMSE1
70
0
9
$DIMSE2
70
0
9
$DIMTAD
70
1
9
$DIMZIN
70
0
9
$DIMBLK
1
VDDIM_DEFAULT
9
$DIMASO
70
1
9
$DIMSHO
70
1
9
$DIMPOST
1

9
$DIMAPOST
1

9
$DIMALT
70
0
9
$DIMALTD
70
2
9
$DIMALTF
40
25.4
9
$DIMLFAC
40
1.00000000000000
9
$DIMTOFL
70
0
9
$DIMTVP
40
0.0
9
$DIMTIX
70
0
9
$DIMSOXD
70
0
9
$DIMSAH
70
0
9
$DIMBLK1
1

9
$DIMBLK2
1

9
$DIMSTYLE
2
BEM-ISBE
9
$DIMCLRD
70
0
9
$DIMCLRE
70
0
9
$DIMCLRT
70
0
9
$DIMTFAC
40
0.5
9
$DIMGAP
40
0.625
9
$DIMJUST
70
0
9
$DIMSD1
70
0
9
$DIMSD2
70
0
9
$DIMTOLJ
70
1
9
$DIMTZIN
70
0
9
$DIMALTZ
70
0
9
$DIMALTTZ
70
0
9
$DIMUPT
70
0
9
$DIMDEC
70
3
9
$DIMTDEC
70
3
9
$DIMALTU
70
2
9
$DIMALTTD
70
2
9
$DIMTXSTY
7
Standard
9
$DIMAUNIT
70
0
9
$DIMADEC
70
3
9
$DIMALTRND
40
0.0
9
$DIMAZIN
70
0
9
$DIMDSEP
70
46
9
$DIMATFIT
70
3
9
$DIMFRAC
70
0
9
$DIMLDRBLK
1

9
$DIMLUNIT
70
2
9
$DIMLWD
70
-2
9
$DIMLWE
70
-2
9
$DIMTMOVE
70
0
9
$LUNITS
70
2
9
$LUPREC
70
4
9
$SKETCHINC
40
0.1
9
$FILLETRAD
40
0.5
9
$AUNITS
70
0
9
$AUPREC
70
0
9
$MENU
1
.
9
$ELEVATION
40
0.0
9
$PELEVATION
40
0.0
9
$THICKNESS
40
0.0
9
$LIMCHECK
70
0
9
$CHAMFERA
40
0.5
9
$CHAMFERB
40
0.5
9
$CHAMFERC
40
1.0
9
$CHAMFERD
40
0.0
9
$SKPOLY
70
0
9
$TDCREATE
40
0.0
9
$TDUCREATE
40
0.0
9
$TDUPDATE
40
0.0
9
$TDUUPDATE
40
0.0
9
$TDINDWG
40
0.0
9
$TDUSRTIMER
40
0.0
9
$USRTIMER
70
1
9
$ANGBASE
50
0.0
9
$ANGDIR
70
0
9
$PDMODE
70
0
9
$PDSIZE
40
0.0
9
$PLINEWID
40
0.0
9
$SPLFRAME
70
0
9
$SPLINETYPE
70
6
9
$SPLINESEGS
70
8
9
$HANDSEED
5
10AB
9
$SURFTAB1
70
6
9
$SURFTAB2
70
6
9
$SURFTYPE
70
6
9
$SURFU
70
6
9
$SURFV
70
6
9
$UCSBASE
2

9
$UCSNAME
2

9
$UCSORG
10
0.0
20
0.0
30
0.0
9
$UCSXDIR
10
1.0
20
0.0
30
0.0
9
$UCSYDIR
10
0.0
20
1.0
30
0.0
9
$UCSORTHOREF
2

9
$UCSORTHOVIEW
70
0
9
$UCSORGTOP
10
0.0
20
0.0
30
0.0
9
$UCSORGBOTTOM
10
0.0
20
0.0
30
0.0
9
$UCSORGLEFT
10
0.0
20
0.0
30
0.0
9
$UCSORGRIGHT
10
0.0
20
0.0
30
0.0
9
$UCSORGFRONT
10
0.0
20
0.0
30
0.0
9
$UCSORGBACK
10
0.0
20
0.0
30
0.0
9
$PUCSBASE
2

9
$PUCSNAME
2

9
$PUCSORG
10
0.0
20
0.0
30
0.0
9
$PUCSXDIR
10
1.0
20
0.0
30
0.0
9
$PUCSYDIR
10
0.0
20
1.0
30
0.0
9
$PUCSORTHOREF
2

9
$PUCSORTHOVIEW
70
0
9
$PUCSORGTOP
10
0.0
20
0.0
30
0.0
9
$PUCSORGBOTTOM
10
0.0
20
0.0
30
0.0
9
$PUCSORGLEFT
10
0.0
20
0.0
30
0.0
9
$PUCSORGRIGHT
10
0.0
20
0.0
30
0.0
9
$PUCSORGFRONT
10
0.0
20
0.0
30
0.0
9
$PUCSORGBACK
10
0.0
20
0.0
30
0.0
9
$USERI1
70
0
9
$USERI2
70
0
9
$USERI3
70
0
9
$USERI4
70
0
9
$USERI5
70
0
9
$USERR1
40
0.0
9
$USERR2
40
0.0
9
$USERR3
40
0.0
9
$USERR4
40
0.0
9
$USERR5
40
0.0
9
$WORLDVIEW
70
1
9
$SHADEDGE
70
3
9
$SHADEDIF
70
70
9
$TILEMODE
70
1
9
$MAXACTVP
70
64
9
$PINSBASE
10
0.0
20
0.0
30
0.0
9
$PLIMCHECK
70
0
9
$PEXTMIN
10
1.000000000000000E+20
20
1.000000000000000E+20
30
1.000000000000000E+20
9
$PEXTMAX
10
-1.000000000000000E+20
20
-1.000000000000000E+20
30
-1.000000000000000E+20
9
$PLIMMIN
10
0.0
20
0.0
9
$PLIMMAX
10
12.0
20
9.0
9
$UNITMODE
70
0
9
$VISRETAIN
70
1
9
$PLINEGEN
70
0
9
$PSLTSCALE
70
1
9
$TREEDEPTH
70
3020
9
$CMLSTYLE
2
Standard
9
$CMLJUST
70
0
9
$CMLSCALE
40
1.0
9
$PROXYGRAPHICS
70
1
9
$MEASUREMENT
70
0
9
$CELWEIGHT
370
-1
9
$ENDCAPS
280
0
9
$JOINSTYLE
280
0
9
$LWDISPLAY
290
0
9
$INSUNITS
70
4
9
$HYPERLINKBASE
1

9
$STYLESHEET
1

9
$XEDIT
290
1
9
$CEPSNTYPE
380
0
9
$PSTYLEMODE
290
0
9
$FINGERPRINTGUID
2
{FAEB1C30-E019-11D5-929B-00C0DF256EC4}
9
$VERSIONGUID
2
{04C5C4E4-4947-4D90-8812-D401569E61F7}
9
$EXTNAMES
290
1
9
$PSVPSCALE
40
0.0
9
$OLESTARTUP
290
0
0
ENDSEC
0
SECTION
2
TABLES
0
TABLE
2
VPORT
5
24A
330
0
100
AcDbSymbolTable
70
1
0
VPORT
5
26B
330
24A
100
AcDbSymbolTableRecord
100
AcDbViewportTableRecord
2
*Active
70
0
10
0.0
20
0.0
11
1.0
21
1.0
12
0.000000000000000
22
0.000000000000000
13
0.0
23
0.0
14
10.0
24
10.0
15
10.0
25
10.0
16
0.0
26
0.0
36
1.0
17
0.0
27
0.0
37
0.0
40
210.000000000000
41
1.42857142857143
42
1.0
43
0.0
44
0.0
50
0.0
51
0.0000000000007958
71
0
72
100
73
1
74
3
75
0
76
0
77
0
78
1
281
0
65
1
110
0.0
120
0.0
130
0.0
111
1.0
121
0.0
131
0.0
112
0.0
122
1.0
132
0.0
79
0
146
0.0
0
ENDTAB
0
TABLE
2
LTYPE
5
247
330
0
100
AcDbSymbolTable
70
25
0
LTYPE
5
256
330
247
100
AcDbSymbolTableRecord
100
AcDbLinetypeTableRecord
2
ByBlock
70
0
3

72
65
73
0
40
0.0
0
LTYPE
5
257
330
247
100
AcDbSymbolTableRecord
100
AcDbLinetypeTableRecord
2
ByLayer
70
0
3

72
65
73
0
40
0.0
0
LTYPE
5
258
330
247
100
AcDbSymbolTableRecord
100
AcDbLinetypeTableRecord
2
Continuous
70
0
3
Solid line
72
65
73
0
40
0.0
0
LTYPE
5
273
330
247
100
AcDbSymbolTableRecord
100
AcDbLinetypeTableRecord
2
CENTER
70
0
3
Center ____ _ ____ _ ____ _ ____ _ ____ _ ____
72
65
73
4
40
2.0
49
1.25
74
0
49
-0.25
74
0
49
0.25
74
0
49
-0.25
74
0
0
LTYPE
5
274
330
247
100
AcDbSymbolTableRecord
100
AcDbLinetypeTableRecord
2
DASHDOT
70
0
3
Dashdot __ . __ . __ . __ . __ . __ . __ . __
72
65
73
4
40
1.0
49
0.5
74
0
49
-0.25
74
0
49
0.0
74
0
49
-0.25
74
0
0
LTYPE
5
275
330
247
100
AcDbSymbolTableRecord
100
AcDbLinetypeTableRecord
2
DASHED
70
0
3
Dashed __ __ __ __ __ __ __ __ __ __ __ __ __ _
72
65
73
2
40
0.75
49
0.5
74
0
49
-0.25
74
0
0
LTYPE
5
276
330
247
100
AcDbSymbolTableRecord
100
AcDbLinetypeTableRecord
2
HIDDEN
70
0
3
Hidden __ __ __ __ __ __ __ __ __ __ __ __ __ __
72
65
73
2
40
0.375
49
0.25
74
0
49
-0.125
74
0
0
LTYPE
5
277
330
247
100
AcDbSymbolTableRecord
100
AcDbLinetypeTableRecord
2
HIDDEN2
70
0
3
Hidden2 _ _ _ _ _ _ _ _ _ _ _ _ _ _ _ _ _
72
65
73
2
40
0.1875
49
0.125
74
0
49
-0.0625
74
0
0
LTYPE
5
278
330
247
100
AcDbSymbolTableRecord
100
AcDbLinetypeTableRecord
2
BORDER
70
0
3
Border __ __ . __ __ . __ __ . __ __ . __ __ .
72
65
73
6
40
1.75
49
0.5
74
0
49
-0.25
74
0
49
0.5
74
0
49
-0.25
74
0
49
0.0
74
0
49
-0.25
74
0
0
LTYPE
5
279
330
247
100
AcDbSymbolTableRecord
100
AcDbLinetypeTableRecord
2
BORDER2
70
0
3
Border2 __.__.__.__.__.__.__.__.__.__.__.
72
65
73
6
40
0.875
49
0.25
74
0
49
-0.125
74
0
49
0.25
74
0
49
-0.125
74
0
49
0.0
74
0
49
-0.125
74
0
0
LTYPE
5
27A
330
247
100
AcDbSymbolTableRecord
100
AcDbLinetypeTableRecord
2
BORDERX2
70
0
3
Borderx2  ____  ____  .  ____  ____  .  ___
72
65
73
6
40
3.5
49
1.0
74
0
49
-0.5
74
0
49
1.0
74
0
49
-0.5
74
0
49
0.0
74
0
49
-0.5
74
0
0
LTYPE
5
27B
330
247
100
AcDbSymbolTableRecord
100
AcDbLinetypeTableRecord
2
CENTER2
70
0
3
Center2  ___ _ ___ _ ___ _ ___ _ ___ _ ___
72
65
73
4
40
1.125
49
0.75
74
0
49
-0.125
74
0
49
0.125
74
0
49
-0.125
74
0
0
LTYPE
5
27C
330
247
100
AcDbSymbolTableRecord
100
AcDbLinetypeTableRecord
2
CENTERX2
70
0
3
Centerx2  ________  __  ________  __  _____
72
65
73
4
40
4.0
49
2.5
74
0
49
-0.5
74
0
49
0.5
74
0
49
-0.5
74
0
0
LTYPE
5
27D
330
247
100
AcDbSymbolTableRecord
100
AcDbLinetypeTableRecord
2
DASHDOT2
70
0
3
Dashdot2  _._._._._._._._._._._._._._._.
72
65
73
4
40
0.5
49
0.25
74
0
49
-0.125
74
0
49
0.0
74
0
49
-0.125
74
0
0
LTYPE
5
27E
330
247
100
AcDbSymbolTableRecord
100
AcDbLinetypeTableRecord
2
DASHDOTX2
70
0
3
Dashdotx2 ____  .  ____  .  ____  .  ___
72
65
73
4
40
2.0
49
1.0
74
0
49
-0.5
74
0
49
0.0
74
0
49
-0.5
74
0
0
LTYPE
5
27F
330
247
100
AcDbSymbolTableRecord
100
AcDbLinetypeTableRecord
2
DASHED2
70
0
3
Dashed2 _ _ _ _ _ _ _ _ _ _ _ _ _ _ _ _ _
72
65
73
2
40
0.375
49
0.25
74
0
49
-0.125
74
0
0
LTYPE
5
280
330
247
100
AcDbSymbolTableRecord
100
AcDbLinetypeTableRecord
2
DASHEDX2
70
0
3
Dashedx2 ____  ____  ____  ____  ____  ___
72
65
73
2
40
1.5
49
1.0
74
0
49
-0.5
74
0
0
LTYPE
5
281
330
247
100
AcDbSymbolTableRecord
100
AcDbLinetypeTableRecord
2
DIVIDE
70
0
3
Divide ____ . . ____ . . ____ . . ____ . . ____
72
65
73
6
40
1.25
49
0.5
74
0
49
-0.25
74
0
49
0.0
74
0
49
-0.25
74
0
49
0.0
74
0
49
-0.25
74
0
0
LTYPE
5
282
330
247
100
AcDbSymbolTableRecord
100
AcDbLinetypeTableRecord
2
DIVIDE2
70
0
3
Divide2 __..__..__..__..__..__..__..__.._
72
65
73
6
40
0.625
49
0.25
74
0
49
-0.125
74
0
49
0.0
74
0
49
-0.125
74
0
49
0.0
74
0
49
-0.125
74
0
0
LTYPE
5
283
330
247
100
AcDbSymbolTableRecord
100
AcDbLinetypeTableRecord
2
DIVIDEX2
70
0
3
Dividex2 ________  .  .  ________  .  .  _
72
65
73
6
40
2.5
49
1.0
74
0
49
-0.5
74
0
49
0.0
74
0
49
-0.5
74
0
49
0.0
74
0
49
-0.5
74
0
0
LTYPE
5
284
330
247
100
AcDbSymbolTableRecord
100
AcDbLinetypeTableRecord
2
DOT
70
0
3
Dot . . . . . . . . . . . . . . . . . . . . . . . .
72
65
73
2
40
0.25
49
0.0
74
0
49
-0.25
74
0
0
LTYPE
5
285
330
247
100
AcDbSymbolTableRecord
100
AcDbLinetypeTableRecord
2
DOT2
70
0
3
Dot2 ........................................
72
65
73
2
40
0.125
49
0.0
74
0
49
-0.125
74
0
0
LTYPE
5
286
330
247
100
AcDbSymbolTableRecord
100
AcDbLinetypeTableRecord
2
DOTX2
70
0
3
Dotx2 .  .  .  .  .  .  .  .  .  .  .  .  .  .
72
65
73
2
40
0.5
49
0.0
74
0
49
-0.5
74
0
0
LTYPE
5
287
330
247
100
AcDbSymbolTableRecord
100
AcDbLinetypeTableRecord
2
HIDDENX2
70
0
3
Hiddenx2 ____ ____ ____ ____ ____ ____ ____
72
65
73
2
40
0.75
49
0.5
74
0
49
-0.25
74
0
0
LTYPE
5
288
330
247
100
AcDbSymbolTableRecord
100
AcDbLinetypeTableRecord
2
PHANTOM
70
0
3
Phantom ______  __  __  ______  __  __  ______
72
65
73
6
40
2.5
49
1.25
74
0
49
-0.25
74
0
49
0.25
74
0
49
-0.25
74
0
49
0.25
74
0
49
-0.25
74
0
0
LTYPE
5
289
330
247
100
AcDbSymbolTableRecord
100
AcDbLinetypeTableRecord
2
PHANTOM2
70
0
3
Phantom2 ___ _ _ ___ _ _ ___ _ _ ___ _ _
72
65
73
6
40
1.25
49
0.625
74
0
49
-0.125
74
0
49
0.125
74
0
49
-0.125
74
0
49
0.125
74
0
49
-0.125
74
0
0
LTYPE
5
28A
330
247
100
AcDbSymbolTableRecord
100
AcDbLinetypeTableRecord
2
PHANTOMX2
70
0
3
Phantomx2 ____________    ____    ____   _
72
65
73
6
40
5.0
49
2.5
74
0
49
-0.5
74
0
49
0.5
74
0
49
-0.5
74
0
49
0.5
74
0
49
-0.5
74
0
0
ENDTAB
0
TABLE
2
LAYER
5
244
330
0
100
AcDbSymbolTable
70
6
0
LAYER
5
252
330
244
100
AcDbSymbolTableRecord
100
AcDbLayerTableRecord
2
0
70
0
62
7
6
Continuous
370
0
390
251
0
LAYER
5
23F
330
244
100
AcDbSymbolTableRecord
100
AcDbLayerTableRecord
2
Bemassung
70
0
 62
   7
6
Continuous
370
0
390
251
0
LAYER
5
240
330
244
100
AcDbSymbolTableRecord
100
AcDbLayerTableRecord
2
Rahmen
70
0
 62
   7
6
Continuous
370
0
390
251
0
LAYER
5
241
330
244
100
AcDbSymbolTableRecord
100
AcDbLayerTableRecord
2
Geo
70
0
 62
   7
6
Continuous
370
0
390
251
0
LAYER
5
33A
330
244
100
AcDbSymbolTableRecord
100
AcDbLayerTableRecord
2
Defpoints
70
0
62
7
6
Continuous
290
0
370
-3
390
251
0
LAYER
5
57E
330
244
100
AcDbSymbolTableRecord
100
AcDbLayerTableRecord
2
Text
70
0
 62
   7
6
Continuous
370
0
390
251
1001
AcAecLayerStandard
1000

1000

0
ENDTAB
0
TABLE
2
STYLE
5
245
330
0
100
AcDbSymbolTable
70
2
0
STYLE
5
253
330
245
100
AcDbSymbolTableRecord
100
AcDbTextStyleTableRecord
2
Standard
70
0
40
0.0
41
1.0
50
0.0
71
0
42
0.2
3
Arial
4

1001
ACAD
1000
Arial
1071
0
0
STYLE
5
132
330
245
100
AcDbSymbolTableRecord
100
AcDbTextStyleTableRecord
2
Beschriftung
70
0
40
0.0
41
1.0
50
0.0
71
0
42
0.2
3
Arial
4

1001
ACAD
1000
Arial
1071
0
1001
AcadAnnotative
1000
AnnotativeData
1070
1
1070
1
0
ENDTAB
0
TABLE
2
VIEW
5
248
330
0
100
AcDbSymbolTable
70
0
0
ENDTAB
0
TABLE
2
UCS
5
249
330
0
100
AcDbSymbolTable
70
0
0
ENDTAB
0
TABLE
2
APPID
5
24B
330
0
100
AcDbSymbolTable
70
13
0
APPID
5
254
330
24B
100
AcDbSymbolTableRecord
100
AcDbRegAppTableRecord
2
ACAD
70
0
0
APPID
5
26C
330
24B
100
AcDbSymbolTableRecord
100
AcDbRegAppTableRecord
2
VD_INVISIBLE_NOT_FOR_READ
70
0
0
APPID
5
26D
330
24B
100
AcDbSymbolTableRecord
100
AcDbRegAppTableRecord
2
VD_TEMPHATCH
70
0
0
APPID
5
26E
330
24B
100
AcDbSymbolTableRecord
100
AcDbRegAppTableRecord
2
VDEXTRAPARAM
70
0
0
APPID
5
26F
330
24B
100
AcDbSymbolTableRecord
100
AcDbRegAppTableRecord
2
PE_URL
70
0
0
APPID
5
270
330
24B
100
AcDbSymbolTableRecord
100
AcDbRegAppTableRecord
2
VD_UNKNOWN
70
0
0
APPID
5
28F
330
24B
100
AcDbSymbolTableRecord
100
AcDbRegAppTableRecord
2
AcadAnnotative
70
0
0
APPID
5
290
330
24B
100
AcDbSymbolTableRecord
100
AcDbRegAppTableRecord
2
ACAD_DSTYLE_DIMJAG
70
0
0
APPID
5
291
330
24B
100
AcDbSymbolTableRecord
100
AcDbRegAppTableRecord
2
ACAD_DSTYLE_DIMTALN
70
0
0
APPID
5
293
330
24B
100
AcDbSymbolTableRecord
100
AcDbRegAppTableRecord
2
ACAD_PSEXT
70
0
0
APPID
5
42A
330
24B
100
AcDbSymbolTableRecord
100
AcDbRegAppTableRecord
2
ACAD_MLEADERVER
70
0
0
APPID
5
532
330
24B
100
AcDbSymbolTableRecord
100
AcDbRegAppTableRecord
2
ACAD_EXEMPT_FROM_CAD_STANDARDS
70
0
0
APPID
5
57F
330
24B
100
AcDbSymbolTableRecord
100
AcDbRegAppTableRecord
2
AcAecLayerStandard
70
0
0
ENDTAB
0
TABLE
2
DIMSTYLE
5
24C
330
0
100
AcDbSymbolTable
70
3
100
AcDbDimStyleTable
71
2
340
27
340
269
0
DIMSTYLE
105
269
330
24C
100
AcDbSymbolTableRecord
100
AcDbDimStyleTableRecord
2
Standard
70
0
172
1
174
1
288
1
340
253
342
23C
0
DIMSTYLE
105
137
330
24C
100
AcDbSymbolTableRecord
100
AcDbDimStyleTableRecord
2
Beschriftung
70
0
41
2.5
42
0.625
44
1.25
73
0
74
0
77
1
140
2.5
147
0.625
172
1
174
1
271
2
288
1
340
253
342
23C
1001
AcadAnnotative
1000
AnnotativeData
1070
1
1070
1
1001
ACAD_DSTYLE_DIMJAG
1070
388
1040
1.5
1001
ACAD_DSTYLE_DIMTALN
1070
392
1070
0
0
DIMSTYLE
105
27
102
{ACAD_REACTORS
330
F10012
330
F1001C
330
F10021
330
F10003
330
F1000D
330
F10008
330
F10017
102
}
330
24C
100
AcDbSymbolTableRecord
100
AcDbDimStyleTableRecord
2
BEM-ISBE
70
0
41
2.5
42
0.625
44
1.25
48
0.000000001
71
1
73
0
74
0
77
1
140
2.5
144
1.00000000000000
146
0.5
147
0.625
171
 3
172
 1
179
 3
271
 3
272
 3
274
 3
340
253
342
23C
1001
ACAD_DSTYLE_DIMJAG
1070
388
1040
1.5
1001
ACAD_DSTYLE_DIMTALN
1070
392
1070
1
0
ENDTAB
0
TABLE
2
BLOCK_RECORD
5
243
330
0
100
AcDbSymbolTable
70
5
0
BLOCK_RECORD
5
261
330
243
100
AcDbSymbolTableRecord
100
AcDbBlockTableRecord
2
*Model_Space
340
FD0
0
BLOCK_RECORD
5
25D
330
243
100
AcDbSymbolTableRecord
100
AcDbBlockTableRecord
2
*Paper_Space
340
FD1
0
BLOCK_RECORD
5
265
330
243
100
AcDbSymbolTableRecord
100
AcDbBlockTableRecord
2
*Paper_Space0
340
0
0
BLOCK_RECORD
5
23C
330
243
100
AcDbSymbolTableRecord
100
AcDbBlockTableRecord
2
VDDIM_DEFAULT
340
0
102
{BLKREFS
102
}
0
BLOCK_RECORD
5
23E
330
243
100
AcDbSymbolTableRecord
100
AcDbBlockTableRecord
2
VDDIM_NONE
340
0
0
BLOCK_RECORD
5
F10011
330
243
100
AcDbSymbolTableRecord
100
AcDbBlockTableRecord
2
*D6
340
0
0
BLOCK_RECORD
5
F1001B
330
243
100
AcDbSymbolTableRecord
100
AcDbBlockTableRecord
2
*D8
340
0
0
BLOCK_RECORD
5
F10020
330
243
100
AcDbSymbolTableRecord
100
AcDbBlockTableRecord
2
*D9
340
0
0
BLOCK_RECORD
5
F10002
330
243
100
AcDbSymbolTableRecord
100
AcDbBlockTableRecord
2
*D3
340
0
0
BLOCK_RECORD
5
F1000C
330
243
100
AcDbSymbolTableRecord
100
AcDbBlockTableRecord
2
*D5
340
0
0
BLOCK_RECORD
5
F10007
330
243
100
AcDbSymbolTableRecord
100
AcDbBlockTableRecord
2
*D4
340
0
0
BLOCK_RECORD
5
F10016
330
243
100
AcDbSymbolTableRecord
100
AcDbBlockTableRecord
2
*D7
340
0
0
ENDTAB
0
ENDSEC
0
SECTION
2
BLOCKS
0
BLOCK
5
262
330
261
100
AcDbEntity
8
0
100
AcDbBlockBegin
2
*Model_Space
70
0
10
0.0
20
0.0
30
0.0
3
*Model_Space
1

0
ENDBLK
5
263
330
261
100
AcDbEntity
8
0
100
AcDbBlockEnd
0
BLOCK
5
25E
330
25D
100
AcDbEntity
67
1
8
0
100
AcDbBlockBegin
2
*Paper_Space
70
0
10
0.0
20
0.0
30
0.0
3
*Paper_Space
1

0
ENDBLK
5
25F
330
25D
100
AcDbEntity
67
1
8
0
100
AcDbBlockEnd
0
BLOCK
5
266
330
265
100
AcDbEntity
8
0
100
AcDbBlockBegin
2
*Paper_Space0
70
0
10
0.0
20
0.0
30
0.0
3
*Paper_Space0
1

0
VIEWPORT
5
296
102
{ACAD_XDICTIONARY
360
58E
102
}
330
265
100
AcDbEntity
8
0
60
1
100
AcDbViewport
10
0.0
20
0.0
30
0.0
40
10.0
41
10.0
69
0
12
0.0
22
0.0
13
0.0
23
0.0
14
1.0
24
1.0
15
0.0
25
0.0
16
0.0
26
0.0
36
1.0
17
0.0
27
0.0
37
0.0
42
0.0
43
0.0
44
0.0
45
10.0
50
0.0
51
0.0000000000007958
72
100
90
163872
1

281
0
71
0
74
0
110
0.0
120
0.0
130
0.0
111
1.0
121
0.0
131
0.0
112
0.0
122
1.0
132
0.0
79
0
146
0.0
1001
VD_INVISIBLE_NOT_FOR_READ
1000
VD_INVISIBLE_NOT_FOR_READ
0
VIEWPORT
5
297
102
{ACAD_XDICTIONARY
360
590
102
}
330
265
100
AcDbEntity
8
0
60
1
100
AcDbViewport
10
0.0
20
0.0
30
0.0
40
10.0
41
10.0
69
0
12
0.0
22
0.0
13
0.0
23
0.0
14
1.0
24
1.0
15
0.0
25
0.0
16
0.0
26
0.0
36
1.0
17
0.0
27
0.0
37
0.0
42
0.0
43
0.0
44
0.0
45
10.0
50
0.0
51
0.0000000000007958
72
100
90
163872
1

281
0
71
0
74
0
110
0.0
120
0.0
130
0.0
111
1.0
121
0.0
131
0.0
112
0.0
122
1.0
132
0.0
79
0
146
0.0
1001
VD_INVISIBLE_NOT_FOR_READ
1000
VD_INVISIBLE_NOT_FOR_READ
0
ENDBLK
5
267
330
265
100
AcDbEntity
8
0
100
AcDbBlockEnd
0
BLOCK
5
28B
330
23C
100
AcDbEntity
8
0
100
AcDbBlockBegin
2
VDDIM_DEFAULT
70
0
10
0.0
20
0.0
30
0.0
3
VDDIM_DEFAULT
1

0
LWPOLYLINE
5
23D
330
23C
100
AcDbEntity
8
0
6
Continuous
62
0
100
AcDbPolyline
90
4
70
0
43
0.0
10
0.0
20
0.0
10
-1.0
20
-0.1665
10
-1.0
20
0.1665
10
0.0
20
0.0
1001
VDEXTRAPARAM
1071
1
1071
0
1071
0
1040
1.0
1000

1000

1040
0.0
1040
0.0
0
HATCH
5
292
330
23C
100
AcDbEntity
8
0
6
Continuous
62
0
100
AcDbHatch
10
0.0
20
0.0
30
0.0
210
0.0
220
0.0
230
1.0
2
SOLID
70
1
71
0
91
1
92
2
72
0
73
1
93
3
10
0.0
20
0.0
10
-1.0
20
-0.1665
10
-1.0
20
0.1665
97
0
75
0
76
1
98
1
10
0.0
20
0.0
1001
VDEXTRAPARAM
1071
1
1071
0
1071
0
1040
1.0
1000

1000

1040
0.0
1040
0.0
1001
VD_TEMPHATCH
1000
VD_TEMPHATCH
0
ENDBLK
5
28C
330
23C
100
AcDbEntity
8
0
100
AcDbBlockEnd
0
BLOCK
5
28D
330
23E
100
AcDbEntity
8
0
100
AcDbBlockBegin
2
VDDIM_NONE
70
0
10
0.0
20
0.0
30
0.0
3
VDDIM_NONE
1

0
ENDBLK
5
28E
330
23E
100
AcDbEntity
8
0
100
AcDbBlockEnd
  0
BLOCK
  5
F10025
330
F10011
100
AcDbEntity
  8
0
100
AcDbBlockBegin
  2
*D6
 70
     1
 10
0.0
 20
0.0
 30
0.0
  3
*D6
  1

  0
LINE
  5
F10026
330
F10011
100
AcDbEntity
  8
Bemassung
 62
     0
370
    -2
100
AcDbLine
10
-72.2030738426628
20
15.7146588593517
30
0.000000000000000
11
-72.2030738426628
21
27.7146588593517
31
0.000000000000000
  0
LINE
  5
F10027
330
F10011
100
AcDbEntity
  8
Bemassung
 62
     0
370
    -2
100
AcDbLine
10
6.79692615733723
20
15.5146588593517
30
0.000000000000000
11
6.79692615733723
21
32.7146588593517
31
0.000000000000000
  0
LINE
  5
F10028
330
F10011
100
AcDbEntity
  8
Bemassung
 62
     0
370
    -2
100
AcDbLine
10
-72.2030738426628
20
25.7146588593517
30
0.000000000000000
11
30.5853032242620
21
25.7146588593517
31
0.000000000000000
  0
INSERT
  5
F10029
330
F10011
100
AcDbEntity
  8
Bemassung
 62
     0
370
    -2
100
AcDbBlockReference
  2
VDDIM_DEFAULT
10
-72.2030738426628
20
25.7146588593517
30
0.000000000000000
 41
2.50000000000000
 42
2.50000000000000
 43
2.50000000000000
 50
180.000000000000
  0
INSERT
  5
F1002A
330
F10011
100
AcDbEntity
  8
Bemassung
 62
     0
370
    -2
100
AcDbBlockReference
  2
VDDIM_DEFAULT
10
6.79692615733723
20
25.7146588593517
30
0.000000000000000
 41
2.50000000000000
 42
2.50000000000000
 43
2.50000000000000
  0
MTEXT
  5
F1002B
330
F10011
100
AcDbEntity
  8
Bemassung
 62
     0
100
AcDbMText
10
-32.7030738426628
20
26.3813255260184
30
0.000000000000000
 40
2.50000000000000
 41
0.0
 71
     8
 72
     1
  1
79
 11
1.00000000000000
 21
0.000000000000000
 31
0.0
 73
     1
 44
1.0
1001
ACAD
1000
MTEXTBEGIN
1070
73
1070
1
1070
44
1040
1.0
1070
74
1070
0
1000
MTEXTEND
  0
POINT
  5
F1002C
330
F10011
100
AcDbEntity
  8
Bemassung
 62
     0
100
AcDbPoint
10
-72.2030738426628
20
15.7146588593517
30
0.000000000000000
  0
POINT
  5
F1002D
330
F10011
100
AcDbEntity
  8
Bemassung
 62
     0
100
AcDbPoint
10
6.79692615733723
20
15.5146588593517
30
0.000000000000000
  0
ENDBLK
  5
F1002E
330
F10011
100
AcDbEntity
  8
0
100
AcDbBlockEnd
  0
BLOCK
  5
F1002F
330
F1001B
100
AcDbEntity
  8
0
100
AcDbBlockBegin
  2
*D8
 70
     1
 10
0.0
 20
0.0
 30
0.0
  3
*D8
  1

  0
LINE
  5
F10030
330
F1001B
100
AcDbEntity
  8
Bemassung
 62
     0
370
    -2
100
AcDbLine
10
-72.2030738426628
20
-4.28534114064826
30
0.000000000000000
11
-72.2030738426628
21
-11.2853411406483
31
0.000000000000000
  0
LINE
  5
F10031
330
F1001B
100
AcDbEntity
  8
Bemassung
 62
     0
370
    -2
100
AcDbLine
10
-95.2030738426628
20
-11.2853411406483
30
0.000000000000000
11
-95.2030738426628
21
32.7146588593517
31
0.000000000000000
  0
LINE
  5
F10032
330
F1001B
100
AcDbEntity
  8
Bemassung
 62
     0
370
    -2
100
AcDbLine
10
-71.3968522198401
20
-9.28534114064826
30
0.000000000000000
11
-95.2030738426628
21
-9.28534114064826
31
0.000000000000000
  0
INSERT
  5
F10033
330
F1001B
100
AcDbEntity
  8
Bemassung
 62
     0
370
    -2
100
AcDbBlockReference
  2
VDDIM_DEFAULT
10
-72.2030738426628
20
-9.28534114064826
30
0.000000000000000
 41
2.50000000000000
 42
2.50000000000000
 43
2.50000000000000
  0
INSERT
  5
F10034
330
F1001B
100
AcDbEntity
  8
Bemassung
 62
     0
370
    -2
100
AcDbBlockReference
  2
VDDIM_DEFAULT
10
-95.2030738426628
20
-9.28534114064826
30
0.000000000000000
 41
2.50000000000000
 42
2.50000000000000
 43
2.50000000000000
 50
180.000000000000
  0
MTEXT
  5
F10035
330
F1001B
100
AcDbEntity
  8
Bemassung
 62
     0
100
AcDbMText
10
-83.7030738426628
20
-8.61867447398159
30
0.000000000000000
 40
2.50000000000000
 41
0.0
 71
     8
 72
     1
  1
23
 11
1.00000000000000
 21
0.000000000000000
 31
0.0
 73
     1
 44
1.0
1001
ACAD
1000
MTEXTBEGIN
1070
73
1070
1
1070
44
1040
1.0
1070
74
1070
0
1000
MTEXTEND
  0
POINT
  5
F10036
330
F1001B
100
AcDbEntity
  8
Bemassung
 62
     0
100
AcDbPoint
10
-72.2030738426628
20
-4.28534114064826
30
0.000000000000000
  0
POINT
  5
F10037
330
F1001B
100
AcDbEntity
  8
Bemassung
 62
     0
100
AcDbPoint
10
-95.2030738426628
20
-11.2853411406483
30
0.000000000000000
  0
ENDBLK
  5
F10038
330
F1001B
100
AcDbEntity
  8
0
100
AcDbBlockEnd
  0
BLOCK
  5
F10039
330
F10020
100
AcDbEntity
  8
0
100
AcDbBlockBegin
  2
*D9
 70
     1
 10
0.0
 20
0.0
 30
0.0
  3
*D9
  1

  0
LINE
  5
F1003A
330
F10020
100
AcDbEntity
  8
Bemassung
 62
     0
370
    -2
100
AcDbLine
10
6.79692615733723
20
15.5146588593517
30
0.000000000000000
11
6.79692615733723
21
32.7146588593517
31
0.000000000000000
  0
LINE
  5
F1003B
330
F10020
100
AcDbEntity
  8
Bemassung
 62
     0
370
    -2
100
AcDbLine
10
-95.2030738426628
20
-11.2853411406483
30
0.000000000000000
11
-95.2030738426628
21
32.7146588593517
31
0.000000000000000
  0
LINE
  5
F1003C
330
F10020
100
AcDbEntity
  8
Bemassung
 62
     0
370
    -2
100
AcDbLine
10
8.08706283601305
20
30.7146588593517
30
0.000000000000000
11
-95.2030738426628
21
30.7146588593517
31
0.000000000000000
  0
INSERT
  5
F1003D
330
F10020
100
AcDbEntity
  8
Bemassung
 62
     0
370
    -2
100
AcDbBlockReference
  2
VDDIM_DEFAULT
10
6.79692615733723
20
30.7146588593517
30
0.000000000000000
 41
2.50000000000000
 42
2.50000000000000
 43
2.50000000000000
  0
INSERT
  5
F1003E
330
F10020
100
AcDbEntity
  8
Bemassung
 62
     0
370
    -2
100
AcDbBlockReference
  2
VDDIM_DEFAULT
10
-95.2030738426628
20
30.7146588593517
30
0.000000000000000
 41
2.50000000000000
 42
2.50000000000000
 43
2.50000000000000
 50
180.000000000000
  0
MTEXT
  5
F1003F
330
F10020
100
AcDbEntity
  8
Bemassung
 62
     0
100
AcDbMText
10
-44.2030738426628
20
31.3813255260184
30
0.000000000000000
 40
2.50000000000000
 41
0.0
 71
     8
 72
     1
  1
102
 11
1.00000000000000
 21
0.000000000000000
 31
0.0
 73
     1
 44
1.0
1001
ACAD
1000
MTEXTBEGIN
1070
73
1070
1
1070
44
1040
1.0
1070
74
1070
0
1000
MTEXTEND
  0
POINT
  5
F10040
330
F10020
100
AcDbEntity
  8
Bemassung
 62
     0
100
AcDbPoint
10
6.79692615733723
20
15.5146588593517
30
0.000000000000000
  0
POINT
  5
F10041
330
F10020
100
AcDbEntity
  8
Bemassung
 62
     0
100
AcDbPoint
10
-95.2030738426628
20
-11.2853411406483
30
0.000000000000000
  0
ENDBLK
  5
F10042
330
F10020
100
AcDbEntity
  8
0
100
AcDbBlockEnd
  0
BLOCK
  5
F10043
330
F10002
100
AcDbEntity
  8
0
100
AcDbBlockBegin
  2
*D3
 70
     1
 10
0.0
 20
0.0
 30
0.0
  3
*D3
  1

 0
ARC
  5
F10044
330
F10002
100
AcDbEntity
  8
Bemassung
 62
     0
370
   -2
100
AcDbCircle
10
-95.2027692561723
20
15.1972091110005
30
0.000000000000000
 40
18.9091232513799
100
AcDbArc
 50
90.0000000000000
 51
101.275300237394
  0
LINE
  5
F10045
330
F10002
100
AcDbEntity
  8
Bemassung
 62
     0
370
    -2
100
AcDbLine
10
-95.2027692561723
20
15.1972091110005
30
0.000000000000000
11
-95.2027692561723
21
36.1063323623804
31
0.000000000000000
  0
LINE
  5
F10046
330
F10002
100
AcDbEntity
  8
Bemassung
 62
     0
370
    -2
100
AcDbLine
10
-95.2027692561723
20
15.1972091110005
30
0.000000000000000
11
-95.9324871341361
21
36.0935950894413
31
0.000000000000000
  0
INSERT
  5
F10047
330
F10002
100
AcDbEntity
  8
Bemassung
 62
     0
370
    -2
100
AcDbBlockReference
  2
VDDIM_DEFAULT
10
-95.2027692561723
20
34.1063323623804
30
0.000000000000000
 41
2.50000000000000
 42
2.50000000000000
 43
2.50000000000000
 50
179.848496819447
  0
INSERT
  5
F10048
330
F10002
100
AcDbEntity
  8
Bemassung
 62
     0
370
    -2
100
AcDbBlockReference
  2
VDDIM_DEFAULT
10
-95.8626881407311
20
34.0948134354031
30
0.000000000000000
 41
2.50000000000000
 42
2.50000000000000
 43
2.50000000000000
 50
2.15150318055189
  0
MTEXT
  5
F10049
330
F10002
100
AcDbEntity
  8
Bemassung
 62
     0
100
AcDbMText
10
-99.6990410368413
20
33.5639856983670
30
0.000000000000000
 40
2.50000000000000
 41
0.0
 71
     8
 72
     1
  1
2°
 11
0.970142500145332
 21
0.242535625036333
 31
0.0
 73
     1
 44
1.0
1001
ACAD
1000
MTEXTBEGIN
1070
73
1070
1
1070
44
1040
1.0
1070
74
1070
0
1000
MTEXTEND
  0
POINT
  5
F1004A
330
F10002
100
AcDbEntity
  8
Bemassung
 62
     0
100
AcDbPoint
10
-95.2027692561723
20
15.1972091110005
30
0.000000000000000
  0
POINT
  5
F1004B
330
F10002
100
AcDbEntity
  8
Bemassung
 62
     0
100
AcDbPoint
10
-95.2027692561723
20
34.1063323623804
30
0.000000000000000
  0
POINT
  5
F1004C
330
F10002
100
AcDbEntity
  8
Bemassung
 62
     0
100
AcDbPoint
10
-95.8626881407311
20
34.0948134354031
30
0.000000000000000
  0
POINT
  5
F1004D
330
F10002
100
AcDbEntity
  8
Bemassung
 62
     0
100
AcDbPoint
10
-95.5327789605281
20
34.1034524113208
30
0.000000000000000
  0
ENDBLK
  5
F1004E
330
F10002
100
AcDbEntity
  8
0
100
AcDbBlockEnd
  0
BLOCK
  5
F1004F
330
F1000C
100
AcDbEntity
  8
0
100
AcDbBlockBegin
  2
*D5
 70
     1
 10
0.0
 20
0.0
 30
0.0
  3
*D5
  1

  0
LINE
  5
F10050
330
F1000C
100
AcDbEntity
  8
Bemassung
 62
     0
370
    -2
100
AcDbLine
10
-95.0627437428321
20
15.5619880445812
30
0.000000000000000
11
-108.306738628490
21
28.3515652392638
31
0.000000000000000
  0
INSERT
  5
F10051
330
F1000C
100
AcDbEntity
  8
Bemassung
 62
     0
370
    -2
100
AcDbBlockReference
  2
VDDIM_DEFAULT
10
-95.0627437428321
20
15.5619880445812
30
0.000000000000000
 41
2.50000000000000
 42
2.50000000000000
 43
2.50000000000000
 50
316.000000000000
  0
MTEXT
  5
F10052
330
F1000C
100
AcDbEntity
  8
Bemassung
 62
     0
100
AcDbMText
10
-102.256141746219
20
22.5085717491712
30
0.000000000000000
 40
2.50000000000000
 41
0.0
 71
     8
 72
     1
  1
R0.5
 11
0.719339800338652
 21
-0.694658370458996
 31
0.0
 73
     1
 44
1.0
1001
ACAD
1000
MTEXTBEGIN
1070
73
1070
1
1070
44
1040
1.0
1070
74
1070
0
1000
MTEXTEND
  0
POINT
  5
F10053
330
F1000C
100
AcDbEntity
  8
Bemassung
 62
     0
100
AcDbPoint
10
-95.0627437428321
20
15.5619880445812
30
0.000000000000000
  0
POINT
  5
F10054
330
F1000C
100
AcDbEntity
  8
Bemassung
 62
     0
100
AcDbPoint
10
-94.7030738426628
20
15.2146588593517
30
0.000000000000000
  0
ENDBLK
  5
F10055
330
F1000C
100
AcDbEntity
  8
0
100
AcDbBlockEnd
  0
BLOCK
  5
F10056
330
F10007
100
AcDbEntity
  8
0
100
AcDbBlockBegin
  2
*D4
 70
     1
 10
0.0
 20
0.0
 30
0.0
  3
*D4
  1

  0
LINE
  5
F10057
330
F10007
100
AcDbEntity
  8
Bemassung
 62
     0
370
    -2
100
AcDbLine
10
-94.7030738426628
20
-4.28534114064826
30
0.000000000000000
11
-107.203073842663
21
-4.28534114064826
31
0.000000000000000
  0
LINE
  5
F10058
330
F10007
100
AcDbEntity
  8
Bemassung
 62
     0
370
    -2
100
AcDbLine
10
-94.7030738426628
20
15.7146588593517
30
0.000000000000000
11
-107.203073842663
21
15.7146588593517
31
0.000000000000000
  0
LINE
  5
F10059
330
F10007
100
AcDbEntity
  8
Bemassung
 62
     0
370
    -2
100
AcDbLine
10
-105.203073842663
20
-4.28534114064826
30
0.000000000000000
11
-105.203073842663
21
15.7146588593517
31
0.000000000000000
  0
INSERT
  5
F1005A
330
F10007
100
AcDbEntity
  8
Bemassung
 62
     0
370
    -2
100
AcDbBlockReference
  2
VDDIM_DEFAULT
10
-105.203073842663
20
-4.28534114064826
30
0.000000000000000
 41
2.50000000000000
 42
2.50000000000000
 43
2.50000000000000
 50
270.000000000000
  0
INSERT
  5
F1005B
330
F10007
100
AcDbEntity
  8
Bemassung
 62
     0
370
    -2
100
AcDbBlockReference
  2
VDDIM_DEFAULT
10
-105.203073842663
20
15.7146588593517
30
0.000000000000000
 41
2.50000000000000
 42
2.50000000000000
 43
2.50000000000000
 50
90.0000000000000
  0
MTEXT
  5
F1005C
330
F10007
100
AcDbEntity
  8
Bemassung
 62
     0
100
AcDbMText
10
-104.536407175996
20
5.71465885935174
30
0.000000000000000
 40
2.50000000000000
 41
0.0
 71
     8
 72
     1
  1
20
 11
6.12323399573677e-017
 21
1.00000000000000
 31
0.0
 73
     1
 44
1.0
1001
ACAD
1000
MTEXTBEGIN
1070
73
1070
1
1070
44
1040
1.0
1070
74
1070
0
1000
MTEXTEND
  0
POINT
  5
F1005D
330
F10007
100
AcDbEntity
  8
Bemassung
 62
     0
100
AcDbPoint
10
-94.7030738426628
20
-4.28534114064826
30
0.000000000000000
  0
POINT
  5
F1005E
330
F10007
100
AcDbEntity
  8
Bemassung
 62
     0
100
AcDbPoint
10
-94.7030738426628
20
15.7146588593517
30
0.000000000000000
  0
ENDBLK
  5
F1005F
330
F10007
100
AcDbEntity
  8
0
100
AcDbBlockEnd
  0
BLOCK
  5
F10060
330
F10016
100
AcDbEntity
  8
0
100
AcDbBlockBegin
  2
*D7
 70
     1
 10
0.0
 20
0.0
 30
0.0
  3
*D7
  1

  0
LINE
  5
F10061
330
F10016
100
AcDbEntity
  8
Bemassung
 62
     0
370
    -2
100
AcDbLine
10
6.59692615733722
20
-4.28534114064826
30
0.000000000000000
11
18.7969261573372
21
-4.28534114064826
31
0.000000000000000
  0
LINE
  5
F10062
330
F10016
100
AcDbEntity
  8
Bemassung
 62
     0
370
    -2
100
AcDbLine
10
6.59692615733722
20
15.7146588593517
30
0.000000000000000
11
18.7969261573372
21
15.7146588593517
31
0.000000000000000
  0
LINE
  5
F10063
330
F10016
100
AcDbEntity
  8
Bemassung
 62
     0
370
    -2
100
AcDbLine
10
16.7969261573372
20
-4.28534114064826
30
0.000000000000000
11
16.7969261573372
21
15.7146588593517
31
0.000000000000000
  0
INSERT
  5
F10064
330
F10016
100
AcDbEntity
  8
Bemassung
 62
     0
370
    -2
100
AcDbBlockReference
  2
VDDIM_DEFAULT
10
16.7969261573372
20
-4.28534114064826
30
0.000000000000000
 41
2.50000000000000
 42
2.50000000000000
 43
2.50000000000000
 50
270.000000000000
  0
INSERT
  5
F10065
330
F10016
100
AcDbEntity
  8
Bemassung
 62
     0
370
    -2
100
AcDbBlockReference
  2
VDDIM_DEFAULT
10
16.7969261573372
20
15.7146588593517
30
0.000000000000000
 41
2.50000000000000
 42
2.50000000000000
 43
2.50000000000000
 50
90.0000000000000
  0
MTEXT
  5
F10066
330
F10016
100
AcDbEntity
  8
Bemassung
 62
     0
100
AcDbMText
10
17.4635928240039
20
5.71465885935174
30
0.000000000000000
 40
2.50000000000000
 41
0.0
 71
     8
 72
     1
  1
20h6
 11
6.12323399573677e-017
 21
1.00000000000000
 31
0.0
 73
     1
 44
1.0
  0
POINT
  5
F10067
330
F10016
100
AcDbEntity
  8
Bemassung
 62
     0
100
AcDbPoint
10
6.59692615733722
20
-4.28534114064826
30
0.000000000000000
  0
POINT
  5
F10068
330
F10016
100
AcDbEntity
  8
Bemassung
 62
     0
100
AcDbPoint
10
6.59692615733722
20
15.7146588593517
30
0.000000000000000
  0
ENDBLK
  5
F10069
330
F10016
100
AcDbEntity
  8
0
100
AcDbBlockEnd
0
ENDSEC
0
SECTION
2
ENTITIES
  0
DIMENSION
  5
F10012
330
261
100
AcDbEntity
  8
Bemassung
100
AcDbDimension
  2
*D6
10
6.79692615733723
20
25.7146588593517
30
0.000000000000000
11
-32.7030738426628
21
26.3813255260184
31
0.000000000000000
 70
32
 1
79
 71
     8
  3
BEM-ISBE
100
AcDbAlignedDimension
13
-72.2030738426628
23
15.7146588593517
33
0.000000000000000
14
6.79692615733723
24
15.5146588593517
34
0.000000000000000
100
AcDbRotatedDimension
1001
ACAD
1000
DSTYLE
1002
{
1070
284
1070
8
1070
78
1070
8
1070
144
1040
1.00000000000000
1070
147
1040
0.625
1070
 72
1070
 0
1070
 71
1070
 0
1002
}
  0
DIMENSION
  5
F1001C
330
261
100
AcDbEntity
  8
Bemassung
100
AcDbDimension
  2
*D8
10
-95.2030738426628
20
-9.28534114064826
30
0.000000000000000
11
-83.7030738426628
21
-8.61867447398159
31
0.000000000000000
 70
32
 1
23
 71
     8
  3
BEM-ISBE
100
AcDbAlignedDimension
13
-72.2030738426628
23
-4.28534114064826
33
0.000000000000000
14
-95.2030738426628
24
-11.2853411406483
34
0.000000000000000
100
AcDbRotatedDimension
1001
ACAD
1000
DSTYLE
1002
{
1070
284
1070
8
1070
78
1070
8
1070
144
1040
1.00000000000000
1070
147
1040
0.625
1070
 72
1070
 0
1070
 71
1070
 0
1002
}
  0
DIMENSION
  5
F10021
330
261
100
AcDbEntity
  8
Bemassung
100
AcDbDimension
  2
*D9
10
-95.2030738426628
20
30.7146588593517
30
0.000000000000000
11
-44.2030738426628
21
31.3813255260184
31
0.000000000000000
 70
32
 1
102
 71
     8
  3
BEM-ISBE
100
AcDbAlignedDimension
13
6.79692615733723
23
15.5146588593517
33
0.000000000000000
14
-95.2030738426628
24
-11.2853411406483
34
0.000000000000000
100
AcDbRotatedDimension
1001
ACAD
1000
DSTYLE
1002
{
1070
284
1070
8
1070
78
1070
8
1070
144
1040
1.00000000000000
1070
147
1040
0.625
1070
 72
1070
 0
1070
 71
1070
 0
1002
}
  0
DIMENSION
  5
F10003
330
261
100
AcDbEntity
  8
Bemassung
100
AcDbDimension
  2
*D3
10
-95.2027692561723
20
15.1972091110005
30
0.000000000000000
11
-99.6990410368413
21
33.5639856983670
31
0.000000000000000
 70
34
 1
2°
 71
     8
  3
BEM-ISBE
100
AcDb2LineAngularDimension
13
-95.2027692561723
23
15.1972091110005
33
0.000000000000000
14
-98.8999451501169
24
33.7413680982695
34
0.000000000000000
15
-95.2027692561723
25
34.1063323623804
35
0.000000000000000
16
-95.5327789605281
26
34.1034524113208
36
0.000000000000000
1001
ACAD
1000
DSTYLE
1002
{
1070
284
1070
8
1070
79
1070
2
1070
147
1040
0.625
1070
 72
1070
 0
1070
 71
1070
 0
1002
}
  0
DIMENSION
  5
F1000D
330
261
100
AcDbEntity
  8
Bemassung
100
AcDbDimension
  2
*D5
10
-94.7030738426628
20
15.2146588593517
30
0.000000000000000
11
-102.256141746219
21
22.5085717491712
31
0.000000000000000
 70
164
 1
R0.5
 71
     8
  3
BEM-ISBE
100
AcDbRadialDimension
15
-95.0627437428321
25
15.5619880445812
35
0.000000000000000
40
0.0
1001
ACAD
1000
DSTYLE
1002
{
1070
284
1070
8
1070
78
1070
8
1070
144
1040
1.00000000000000
1070
147
1040
0.625
1070
 72
1070
 0
1070
 71
1070
 0
1002
}
  0
DIMENSION
  5
F10008
330
261
100
AcDbEntity
  8
Bemassung
100
AcDbDimension
  2
*D4
10
-105.203073842663
20
15.7146588593517
30
0.000000000000000
11
-104.536407175996
21
5.71465885935174
31
0.000000000000000
 70
32
 1
20
 71
     8
  3
BEM-ISBE
100
AcDbAlignedDimension
13
-94.7030738426628
23
-4.28534114064826
33
0.000000000000000
14
-94.7030738426628
24
15.7146588593517
34
0.000000000000000
50
90.0000000000000
100
AcDbRotatedDimension
1001
ACAD
1000
DSTYLE
1002
{
1070
284
1070
8
1070
78
1070
8
1070
144
1040
1.00000000000000
1070
147
1040
0.625
1070
 72
1070
 0
1070
 71
1070
 0
1002
}
  0
DIMENSION
  5
F10017
330
261
100
AcDbEntity
  8
Bemassung
100
AcDbDimension
  2
*D7
10
16.7969261573372
20
15.7146588593517
30
0.000000000000000
11
17.4635928240039
21
5.71465885935174
31
0.000000000000000
 70
32
 1
20h6
 71
     8
  3
BEM-ISBE
100
AcDbAlignedDimension
13
6.59692615733722
23
-4.28534114064826
33
0.000000000000000
14
6.59692615733722
24
15.7146588593517
34
0.000000000000000
50
90.0000000000000
100
AcDbRotatedDimension
1001
ACAD
1000
DSTYLE
1002
{
1070
284
1070
8
1070
78
1070
8
1070
144
1040
1.00000000000000
1070
147
1040
0.625
1070
 72
1070
 0
1070
 71
1070
 0
1002
}
  0
LINE
  5
F1006A
330
F1006B
100
AcDbEntity
8
Geo
100
AcDbLine
10
-94.8716313046406
20
5.71465885935174
30
0.000000000000000
11
-95.2027692561723
21
15.1972091110005
31
0.000000000000000
  0
ARC
  5
F1006C
330
F1006D
100
AcDbEntity
8
Geo
100
AcDbCircle
10
-94.7030738426628
20
15.2146588593517
30
0.000000000000000
 40
0.500000000000000
100
AcDbArc
 50
90.0000000000000
 51
182.000000000000
  0
LINE
  5
F1006E
330
F1006F
100
AcDbEntity
8
Geo
100
AcDbLine
10
-94.7030738426628
20
15.7146588593517
30
0.000000000000000
11
-72.2030738426628
21
15.7146588593517
31
0.000000000000000
  0
LINE
  5
F10070
330
F10071
100
AcDbEntity
8
Geo
100
AcDbLine
10
-72.2030738426628
20
15.7146588593517
30
0.000000000000000
11
6.59692615733722
21
15.7146588593517
31
0.000000000000000
  0
LINE
  5
F10072
330
F10073
100
AcDbEntity
8
Geo
100
AcDbLine
10
6.59692615733722
20
15.7146588593517
30
0.000000000000000
11
6.79692615733723
21
15.5146588593517
31
0.000000000000000
  0
LINE
  5
F10074
330
F10075
100
AcDbEntity
8
Geo
100
AcDbLine
10
-92.0030738426628
20
15.7115448897206
30
0.000000000000000
11
-91.9030738426628
21
15.7137430910522
31
0.000000000000000
  0
LINE
  5
F10076
330
F10077
100
AcDbEntity
8
Geo
100
AcDbLine
10
-91.9030738426628
20
15.7137430910522
30
0.000000000000000
11
-91.8030738426628
21
15.7011296629945
31
0.000000000000000
  0
LINE
  5
F10078
330
F10079
100
AcDbEntity
8
Geo
100
AcDbLine
10
-91.8030738426628
20
15.7011296629945
30
0.000000000000000
11
-91.7030738426628
21
15.6737232898007
31
0.000000000000000
  0
LINE
  5
F1007A
330
F1007B
100
AcDbEntity
8
Geo
100
AcDbLine
10
-91.7030738426628
20
15.6737232898007
30
0.000000000000000
11
-91.6030738426628
21
15.6315645684927
31
0.000000000000000
  0
LINE
  5
F1007C
330
F1007D
100
AcDbEntity
8
Geo
100
AcDbLine
10
-91.6030738426628
20
15.6315645684927
30
0.000000000000000
11
-91.5030738426628
21
15.5747159487251
31
0.000000000000000
  0
LINE
  5
F1007E
330
F1007F
100
AcDbEntity
8
Geo
100
AcDbLine
10
-91.5030738426628
20
15.5747159487251
30
0.000000000000000
11
-91.4030738426628
21
15.5032616402782
31
0.000000000000000
  0
LINE
  5
F10080
330
F10081
100
AcDbEntity
8
Geo
100
AcDbLine
10
-91.4030738426628
20
15.5032616402782
30
0.000000000000000
11
-91.3030738426628
21
15.4173074883186
31
0.000000000000000
  0
LINE
  5
F10082
330
F10083
100
AcDbEntity
8
Geo
100
AcDbLine
10
-91.3030738426628
20
15.4173074883186
30
0.000000000000000
11
-91.2030738426628
21
15.3169808166104
31
0.000000000000000
  0
LINE
  5
F10084
330
F10085
100
AcDbEntity
8
Geo
100
AcDbLine
10
-91.2030738426628
20
15.3169808166104
30
0.000000000000000
11
-91.1030738426628
21
15.2024302389112
31
0.000000000000000
  0
LINE
  5
F10086
330
F10087
100
AcDbEntity
8
Geo
100
AcDbLine
10
-91.1030738426628
20
15.2024302389112
30
0.000000000000000
11
-91.0030738426628
21
15.0738254388303
31
0.000000000000000
  0
LINE
  5
F10088
330
F10089
100
AcDbEntity
8
Geo
100
AcDbLine
10
-91.0030738426628
20
15.0738254388303
30
0.000000000000000
11
-90.9030738426628
21
14.9313569184771
31
0.000000000000000
  0
LINE
  5
F1008A
330
F1008B
100
AcDbEntity
8
Geo
100
AcDbLine
10
-90.9030738426628
20
14.9313569184771
30
0.000000000000000
11
-90.8030738426628
21
14.7752357162700
31
0.000000000000000
  0
LINE
  5
F1008C
330
F1008D
100
AcDbEntity
8
Geo
100
AcDbLine
10
-90.8030738426628
20
14.7752357162700
30
0.000000000000000
11
-90.7030738426628
21
14.6056930943260
31
0.000000000000000
  0
LINE
  5
F1008E
330
F1008F
100
AcDbEntity
8
Geo
100
AcDbLine
10
-90.7030738426628
20
14.6056930943260
30
0.000000000000000
11
-90.6030738426628
21
14.4229801958921
31
0.000000000000000
  0
LINE
  5
F10090
330
F10091
100
AcDbEntity
8
Geo
100
AcDbLine
10
-90.6030738426628
20
14.4229801958921
30
0.000000000000000
11
-90.5030738426628
21
14.2273676733276
31
0.000000000000000
  0
LINE
  5
F10092
330
F10093
100
AcDbEntity
8
Geo
100
AcDbLine
10
-90.5030738426628
20
14.2273676733276
30
0.000000000000000
11
-90.4030738426628
21
14.0191452871865
31
0.000000000000000
  0
LINE
  5
F10094
330
F10095
100
AcDbEntity
8
Geo
100
AcDbLine
10
-90.4030738426628
20
14.0191452871865
30
0.000000000000000
11
-90.3030738426628
21
13.7986214769961
31
0.000000000000000
  0
LINE
  5
F10096
330
F10097
100
AcDbEntity
8
Geo
100
AcDbLine
10
-90.3030738426628
20
13.7986214769961
30
0.000000000000000
11
-90.2030738426628
21
13.5661229043660
31
0.000000000000000
  0
LINE
  5
F10098
330
F10099
100
AcDbEntity
8
Geo
100
AcDbLine
10
-90.2030738426628
20
13.5661229043660
30
0.000000000000000
11
-90.1030738426628
21
13.3219939691043
31
0.000000000000000
  0
LINE
  5
F1009A
330
F1009B
100
AcDbEntity
8
Geo
100
AcDbLine
10
-90.1030738426628
20
13.3219939691043
30
0.000000000000000
11
-90.0030738426628
21
13.0665962990590
31
0.000000000000000
  0
LINE
  5
F1009C
330
F1009D
100
AcDbEntity
8
Geo
100
AcDbLine
10
-90.0030738426628
20
13.0665962990590
30
0.000000000000000
11
-89.9030738426628
21
12.8003082144389
31
0.000000000000000
  0
LINE
  5
F1009E
330
F1009F
100
AcDbEntity
8
Geo
100
AcDbLine
10
-89.9030738426628
20
12.8003082144389
30
0.000000000000000
11
-89.8030738426628
21
12.5235241674088
31
0.000000000000000
  0
LINE
  5
F100A0
330
F100A1
100
AcDbEntity
8
Geo
100
AcDbLine
10
-89.8030738426628
20
12.5235241674088
30
0.000000000000000
11
-89.7030738426628
21
12.2366541577878
31
0.000000000000000
  0
LINE
  5
F100A2
330
F100A3
100
AcDbEntity
8
Geo
100
AcDbLine
10
-89.7030738426628
20
12.2366541577878
30
0.000000000000000
11
-89.6030738426628
21
11.9401231257169
31
0.000000000000000
  0
LINE
  5
F100A4
330
F100A5
100
AcDbEntity
8
Geo
100
AcDbLine
10
-89.6030738426628
20
11.9401231257169
30
0.000000000000000
11
-89.5030738426628
21
11.6343703221965
31
0.000000000000000
  0
LINE
  5
F100A6
330
F100A7
100
AcDbEntity
8
Geo
100
AcDbLine
10
-89.5030738426628
20
11.6343703221965
30
0.000000000000000
11
-89.4030738426628
21
11.3198486584237
31
0.000000000000000
  0
LINE
  5
F100A8
330
F100A9
100
AcDbEntity
8
Geo
100
AcDbLine
10
-89.4030738426628
20
11.3198486584237
30
0.000000000000000
11
-89.3030738426628
21
10.9970240348961
31
0.000000000000000
  0
LINE
  5
F100AA
330
F100AB
100
AcDbEntity
8
Geo
100
AcDbLine
10
-89.3030738426628
20
10.9970240348961
30
0.000000000000000
11
-89.2030738426628
21
10.6663746512738
31
0.000000000000000
  0
LINE
  5
F100AC
330
F100AD
100
AcDbEntity
8
Geo
100
AcDbLine
10
-89.2030738426628
20
10.6663746512738
30
0.000000000000000
11
-89.1030738426628
21
10.3283902980231
31
0.000000000000000
  0
LINE
  5
F100AE
330
F100AF
100
AcDbEntity
8
Geo
100
AcDbLine
10
-89.1030738426628
20
10.3283902980231
30
0.000000000000000
11
-89.0030738426628
21
9.98357163089040
31
0.000000000000000
  0
LINE
  5
F100B0
330
F100B1
100
AcDbEntity
8
Geo
100
AcDbLine
10
-89.0030738426628
20
9.98357163089040
30
0.000000000000000
11
-88.9030738426628
21
9.63242942928175
31
0.000000000000000
  0
LINE
  5
F100B2
330
F100B3
100
AcDbEntity
8
Geo
100
AcDbLine
10
-88.9030738426628
20
9.63242942928175
30
0.000000000000000
11
-88.8030738426628
21
9.27548383964578
31
0.000000000000000
  0
LINE
  5
F100B4
330
F100B5
100
AcDbEntity
8
Geo
100
AcDbLine
10
-88.8030738426628
20
9.27548383964578
30
0.000000000000000
11
-88.7030738426628
21
8.91326360498170
31
0.000000000000000
  0
LINE
  5
F100B6
330
F100B7
100
AcDbEntity
8
Geo
100
AcDbLine
10
-88.7030738426628
20
8.91326360498170
30
0.000000000000000
11
-88.6030738426628
21
8.54630528161293
31
0.000000000000000
  0
LINE
  5
F100B8
330
F100B9
100
AcDbEntity
8
Geo
100
AcDbLine
10
-88.6030738426628
20
8.54630528161293
30
0.000000000000000
11
-88.5030738426628
21
8.17515244438706
31
0.000000000000000
  0
LINE
  5
F100BA
330
F100BB
100
AcDbEntity
8
Geo
100
AcDbLine
10
-88.5030738426628
20
8.17515244438706
30
0.000000000000000
11
-88.4030738426628
21
7.80035488147913
31
0.000000000000000
  0
LINE
  5
F100BC
330
F100BD
100
AcDbEntity
8
Geo
100
AcDbLine
10
-88.4030738426628
20
7.80035488147913
30
0.000000000000000
11
-88.3030738426628
21
7.42246777999119
31
0.000000000000000
  0
LINE
  5
F100BE
330
F100BF
100
AcDbEntity
8
Geo
100
AcDbLine
10
-88.3030738426628
20
7.42246777999119
30
0.000000000000000
11
-88.2030738426628
21
7.04205090355444
31
0.000000000000000
  0
LINE
  5
F100C0
330
F100C1
100
AcDbEntity
8
Geo
100
AcDbLine
10
-88.2030738426628
20
7.04205090355444
30
0.000000000000000
11
-88.1030738426628
21
6.65966776315216
31
0.000000000000000
  0
LINE
  5
F100C2
330
F100C3
100
AcDbEntity
8
Geo
100
AcDbLine
10
-88.1030738426628
20
6.65966776315216
30
0.000000000000000
11
-88.0030738426628
21
6.27588478239166
31
0.000000000000000
  0
LINE
  5
F100C4
330
F100C5
100
AcDbEntity
8
Geo
100
AcDbLine
10
-88.0030738426628
20
6.27588478239166
30
0.000000000000000
11
-87.9030738426628
21
5.89127045846181
31
0.000000000000000
  0
LINE
  5
F100C6
330
F100C7
100
AcDbEntity
8
Geo
100
AcDbLine
10
-87.9030738426628
20
5.89127045846181
30
0.000000000000000
11
-87.8030738426628
21
5.50639452001895
31
0.000000000000000
  0
LINE
  5
F100C8
330
F100C9
100
AcDbEntity
8
Geo
100
AcDbLine
10
-87.8030738426628
20
5.50639452001895
30
0.000000000000000
11
-87.7030738426628
21
5.12182708324862
31
0.000000000000000
  0
LINE
  5
F100CA
330
F100CB
100
AcDbEntity
8
Geo
100
AcDbLine
10
-87.7030738426628
20
5.12182708324862
30
0.000000000000000
11
-87.6030738426628
21
4.73813780735326
31
0.000000000000000
  0
LINE
  5
F100CC
330
F100CD
100
AcDbEntity
8
Geo
100
AcDbLine
10
-87.6030738426628
20
4.73813780735326
30
0.000000000000000
11
-87.5030738426628
21
4.35589505071686
31
0.000000000000000
  0
LINE
  5
F100CE
330
F100CF
100
AcDbEntity
8
Geo
100
AcDbLine
10
-87.5030738426628
20
4.35589505071686
30
0.000000000000000
11
-87.4030738426628
21
3.97566502899646
31
0.000000000000000
  0
LINE
  5
F100D0
330
F100D1
100
AcDbEntity
8
Geo
100
AcDbLine
10
-87.4030738426628
20
3.97566502899646
30
0.000000000000000
11
-87.3030738426628
21
3.59801097638770
31
0.000000000000000
  0
LINE
  5
F100D2
330
F100D3
100
AcDbEntity
8
Geo
100
AcDbLine
10
-87.3030738426628
20
3.59801097638770
30
0.000000000000000
11
-87.2030738426628
21
3.22349231130682
31
0.000000000000000
  0
LINE
  5
F100D4
330
F100D5
100
AcDbEntity
8
Geo
100
AcDbLine
10
-87.2030738426628
20
3.22349231130682
30
0.000000000000000
11
-87.1030738426628
21
2.85266380772492
31
0.000000000000000
  0
LINE
  5
F100D6
330
F100D7
100
AcDbEntity
8
Geo
100
AcDbLine
10
-87.1030738426628
20
2.85266380772492
30
0.000000000000000
11
-87.0030738426628
21
2.48607477338205
31
0.000000000000000
  0
LINE
  5
F100D8
330
F100D9
100
AcDbEntity
8
Geo
100
AcDbLine
10
-87.0030738426628
20
2.48607477338205
30
0.000000000000000
11
-86.9030738426628
21
2.12426823609848
31
0.000000000000000
  0
LINE
  5
F100DA
330
F100DB
100
AcDbEntity
8
Geo
100
AcDbLine
10
-86.9030738426628
20
2.12426823609848
30
0.000000000000000
11
-86.8030738426628
21
1.76778013938830
31
0.000000000000000
  0
LINE
  5
F100DC
330
F100DD
100
AcDbEntity
8
Geo
100
AcDbLine
10
-86.8030738426628
20
1.76778013938830
30
0.000000000000000
11
-86.7030738426628
21
1.41713854856708
31
0.000000000000000
  0
LINE
  5
F100DE
330
F100DF
100
AcDbEntity
8
Geo
100
AcDbLine
10
-86.7030738426628
20
1.41713854856708
30
0.000000000000000
11
-86.6030738426628
21
1.07286286852945
31
0.000000000000000
  0
LINE
  5
F100E0
330
F100E1
100
AcDbEntity
8
Geo
100
AcDbLine
10
-86.6030738426628
20
1.07286286852945
30
0.000000000000000
11
-86.5030738426628
21
0.735463074355352
31
0.000000000000000
  0
LINE
  5
F100E2
330
F100E3
100
AcDbEntity
8
Geo
100
AcDbLine
10
-86.5030738426628
20
0.735463074355352
30
0.000000000000000
11
-86.4030738426628
21
0.405438955884700
31
0.000000000000000
  0
LINE
  5
F100E4
330
F100E5
100
AcDbEntity
8
Geo
100
AcDbLine
10
-86.4030738426628
20
0.405438955884700
30
0.000000000000000
11
-86.3030738426628
21
0.0832793773793616
31
0.000000000000000
  0
LINE
  5
F100E6
330
F100E7
100
AcDbEntity
8
Geo
100
AcDbLine
10
-86.3030738426628
20
0.0832793773793616
30
0.000000000000000
11
-86.2030738426628
21
-0.230538446630764
31
0.000000000000000
  0
LINE
  5
F100E8
330
F100E9
100
AcDbEntity
8
Geo
100
AcDbLine
10
-86.2030738426628
20
-0.230538446630764
30
0.000000000000000
11
-86.1030738426628
21
-0.535549658244961
31
0.000000000000000
  0
LINE
  5
F100EA
330
F100EB
100
AcDbEntity
8
Geo
100
AcDbLine
10
-86.1030738426628
20
-0.535549658244961
30
0.000000000000000
11
-86.0030738426628
21
-0.831302444785058
31
0.000000000000000
  0
LINE
  5
F100EC
330
F100ED
100
AcDbEntity
8
Geo
100
AcDbLine
10
-86.0030738426628
20
-0.831302444785058
30
0.000000000000000
11
-85.9030738426628
21
-1.11735870806490
31
0.000000000000000
  0
LINE
  5
F100EE
330
F100EF
100
AcDbEntity
8
Geo
100
AcDbLine
10
-85.9030738426628
20
-1.11735870806490
30
0.000000000000000
11
-85.8030738426628
21
-1.39329471334457
31
0.000000000000000
  0
LINE
  5
F100F0
330
F100F1
100
AcDbEntity
8
Geo
100
AcDbLine
10
-85.8030738426628
20
-1.39329471334457
30
0.000000000000000
11
-85.7030738426628
21
-1.65870171700810
31
0.000000000000000
  0
LINE
  5
F100F2
330
F100F3
100
AcDbEntity
8
Geo
100
AcDbLine
10
-85.7030738426628
20
-1.65870171700810
30
0.000000000000000
11
-85.6030738426628
21
-1.91318657203477
31
0.000000000000000
  0
LINE
  5
F100F4
330
F100F5
100
AcDbEntity
8
Geo
100
AcDbLine
10
-85.6030738426628
20
-1.91318657203477
30
0.000000000000000
11
-85.5030738426628
21
-2.15637231036726
31
0.000000000000000
  0
LINE
  5
F100F6
330
F100F7
100
AcDbEntity
8
Geo
100
AcDbLine
10
-85.5030738426628
20
-2.15637231036726
30
0.000000000000000
11
-85.4030738426628
21
-2.38789870131387
31
0.000000000000000
  0
LINE
  5
F100F8
330
F100F9
100
AcDbEntity
8
Geo
100
AcDbLine
10
-85.4030738426628
20
-2.38789870131387
30
0.000000000000000
11
-85.3030738426628
21
-2.60742278515780
31
0.000000000000000
  0
LINE
  5
F100FA
330
F100FB
100
AcDbEntity
8
Geo
100
AcDbLine
10
-85.3030738426628
20
-2.60742278515780
30
0.000000000000000
11
-85.2030738426628
21
-2.81461938118282
31
0.000000000000000
  0
LINE
  5
F100FC
330
F100FD
100
AcDbEntity
8
Geo
100
AcDbLine
10
-85.2030738426628
20
-2.81461938118282
30
0.000000000000000
11
-85.1030738426628
21
-3.00918156936308
31
0.000000000000000
  0
LINE
  5
F100FE
330
F100FF
100
AcDbEntity
8
Geo
100
AcDbLine
10
-85.1030738426628
20
-3.00918156936308
30
0.000000000000000
11
-85.0030738426628
21
-3.19082114500324
31
0.000000000000000
  0
LINE
  5
F10100
330
F10101
100
AcDbEntity
8
Geo
100
AcDbLine
10
-85.0030738426628
20
-3.19082114500324
30
0.000000000000000
11
-84.9030738426628
21
-3.35926904565575
31
0.000000000000000
  0
LINE
  5
F10102
330
F10103
100
AcDbEntity
8
Geo
100
AcDbLine
10
-84.9030738426628
20
-3.35926904565575
30
0.000000000000000
11
-84.8030738426628
21
-3.51427574968260
31
0.000000000000000
  0
LINE
  5
F10104
330
F10105
100
AcDbEntity
8
Geo
100
AcDbLine
10
-84.8030738426628
20
-3.51427574968260
30
0.000000000000000
11
-84.7030738426628
21
-3.65561164587145
31
0.000000000000000
  0
LINE
  5
F10106
330
F10107
100
AcDbEntity
8
Geo
100
AcDbLine
10
-84.7030738426628
20
-3.65561164587145
30
0.000000000000000
11
-84.6030738426628
21
-3.78306737355832
31
0.000000000000000
  0
LINE
  5
F10108
330
F10109
100
AcDbEntity
8
Geo
100
AcDbLine
10
-84.6030738426628
20
-3.78306737355832
30
0.000000000000000
11
-84.5030738426628
21
-3.89645413275332
31
0.000000000000000
  0
LINE
  5
F1010A
330
F1010B
100
AcDbEntity
8
Geo
100
AcDbLine
10
-84.5030738426628
20
-3.89645413275332
30
0.000000000000000
11
-84.4030738426628
21
-3.99560396380974
31
0.000000000000000
  0
LINE
  5
F1010C
330
F1010D
100
AcDbEntity
8
Geo
100
AcDbLine
10
-84.4030738426628
20
-3.99560396380974
30
0.000000000000000
11
-84.3030738426628
21
-4.08036999622248
31
0.000000000000000
  0
LINE
  5
F1010E
330
F1010F
100
AcDbEntity
8
Geo
100
AcDbLine
10
-84.3030738426628
20
-4.08036999622248
30
0.000000000000000
11
-84.2030738426628
21
-4.15062666618713
31
0.000000000000000
  0
LINE
  5
F10110
330
F10111
100
AcDbEntity
8
Geo
100
AcDbLine
10
-84.2030738426628
20
-4.15062666618713
30
0.000000000000000
11
-84.1030738426628
21
-4.20626990259741
31
0.000000000000000
  0
LINE
  5
F10112
330
F10113
100
AcDbEntity
8
Geo
100
AcDbLine
10
-84.1030738426628
20
-4.20626990259741
30
0.000000000000000
11
-84.0030738426628
21
-4.24721728120559
31
0.000000000000000
  0
LINE
  5
F10114
330
F10115
100
AcDbEntity
8
Geo
100
AcDbLine
10
-84.0030738426628
20
-4.24721728120559
30
0.000000000000000
11
-83.9030738426628
21
-4.27340814671743
31
0.000000000000000
  0
LINE
  5
F10116
330
F10117
100
AcDbEntity
8
Geo
100
AcDbLine
10
-83.9030738426628
20
-4.27340814671743
30
0.000000000000000
11
-83.8030738426628
21
-4.28480370264072
31
0.000000000000000
  0
LINE
  5
F10118
330
F10119
100
AcDbEntity
8
Geo
100
AcDbLine
10
-75.6030738426628
20
15.7146588593517
30
0.000000000000000
11
-75.5030738426628
21
15.7143745066066
31
0.000000000000000
  0
LINE
  5
F1011A
330
F1011B
100
AcDbEntity
8
Geo
100
AcDbLine
10
-75.5030738426628
20
15.7143745066066
30
0.000000000000000
11
-75.4030738426627
21
15.7080223182259
31
0.000000000000000
  0
LINE
  5
F1011C
330
F1011D
100
AcDbEntity
8
Geo
100
AcDbLine
10
-75.4030738426627
20
15.7080223182259
30
0.000000000000000
11
-75.3030738426627
21
15.6938707684120
31
0.000000000000000
  0
LINE
  5
F1011E
330
F1011F
100
AcDbEntity
8
Geo
100
AcDbLine
10
-75.3030738426627
20
15.6938707684120
30
0.000000000000000
11
-75.2030738426627
21
15.6726339589415
31
0.000000000000000
  0
LINE
  5
F10120
330
F10121
100
AcDbEntity
8
Geo
100
AcDbLine
10
-75.2030738426627
20
15.6726339589415
30
0.000000000000000
11
-75.1030738426628
21
15.6450084361459
31
0.000000000000000
  0
LINE
  5
F10122
330
F10123
100
AcDbEntity
8
Geo
100
AcDbLine
10
-75.1030738426628
20
15.6450084361459
30
0.000000000000000
11
-75.0030738426627
21
15.6116717174124
31
0.000000000000000
  0
LINE
  5
F10124
330
F10125
100
AcDbEntity
8
Geo
100
AcDbLine
10
-75.0030738426627
20
15.6116717174124
30
0.000000000000000
11
-74.9030738426627
21
15.5732810370838
31
0.000000000000000
  0
LINE
  5
F10126
330
F10127
100
AcDbEntity
8
Geo
100
AcDbLine
10
-74.9030738426627
20
15.5732810370838
30
0.000000000000000
11
-74.8030738426627
21
15.5304722964958
31
0.000000000000000
  0
LINE
  5
F10128
330
F10129
100
AcDbEntity
8
Geo
100
AcDbLine
10
-74.8030738426627
20
15.5304722964958
30
0.000000000000000
11
-74.7030738426627
21
15.4838592029258
31
0.000000000000000
  0
LINE
  5
F1012A
330
F1012B
100
AcDbEntity
8
Geo
100
AcDbLine
10
-74.7030738426627
20
15.4838592029258
30
0.000000000000000
11
-74.6030738426627
21
15.4340325823616
31
0.000000000000000
  0
LINE
  5
F1012C
330
F1012D
100
AcDbEntity
8
Geo
100
AcDbLine
10
-74.6030738426627
20
15.4340325823616
30
0.000000000000000
11
-74.5030738426627
21
15.3815598512369
31
0.000000000000000
  0
LINE
  5
F1012E
330
F1012F
100
AcDbEntity
8
Geo
100
AcDbLine
10
-74.5030738426627
20
15.3815598512369
30
0.000000000000000
11
-74.4030738426627
21
15.3269846325937
31
0.000000000000000
  0
LINE
  5
F10130
330
F10131
100
AcDbEntity
8
Geo
100
AcDbLine
10
-74.4030738426627
20
15.3269846325937
30
0.000000000000000
11
-74.3030738426627
21
15.2708265025180
31
0.000000000000000
  0
LINE
  5
F10132
330
F10133
100
AcDbEntity
8
Geo
100
AcDbLine
10
-74.3030738426627
20
15.2708265025180
30
0.000000000000000
11
-74.2030738426627
21
15.2135808531390
31
0.000000000000000
  0
LINE
  5
F10134
330
F10135
100
AcDbEntity
8
Geo
100
AcDbLine
10
-74.2030738426627
20
15.2135808531390
30
0.000000000000000
11
-74.1030738426627
21
15.1557188589731
31
0.000000000000000
  0
LINE
  5
F10136
330
F10137
100
AcDbEntity
8
Geo
100
AcDbLine
10
-74.1030738426627
20
15.1557188589731
30
0.000000000000000
11
-74.0030738426627
21
15.0976875339240
31
0.000000000000000
  0
LINE
  5
F10138
330
F10139
100
AcDbEntity
8
Geo
100
AcDbLine
10
-74.0030738426627
20
15.0976875339240
30
0.000000000000000
11
-73.9030738426627
21
15.0399098668128
31
0.000000000000000
  0
LINE
  5
F1013A
330
F1013B
100
AcDbEntity
8
Geo
100
AcDbLine
10
-73.9030738426627
20
15.0399098668128
30
0.000000000000000
11
-73.8030738426627
21
14.9827850238927
31
0.000000000000000
  0
LINE
  5
F1013C
330
F1013D
100
AcDbEntity
8
Geo
100
AcDbLine
10
-73.8030738426627
20
14.9827850238927
30
0.000000000000000
11
-73.7030738426627
21
14.9266886074031
31
0.000000000000000
  0
LINE
  5
F1013E
330
F1013F
100
AcDbEntity
8
Geo
100
AcDbLine
10
-73.7030738426627
20
14.9266886074031
30
0.000000000000000
11
-73.6030738426627
21
14.8719729598270
31
0.000000000000000
  0
LINE
  5
F10140
330
F10141
100
AcDbEntity
8
Geo
100
AcDbLine
10
-73.6030738426627
20
14.8719729598270
30
0.000000000000000
11
-73.5030738426627
21
14.8189675041289
31
0.000000000000000
  0
LINE
  5
F10142
330
F10143
100
AcDbEntity
8
Geo
100
AcDbLine
10
-73.5030738426627
20
14.8189675041289
30
0.000000000000000
11
-73.4030738426627
21
14.7679791108629
31
0.000000000000000
  0
LINE
  5
F10144
330
F10145
100
AcDbEntity
8
Geo
100
AcDbLine
10
-73.4030738426627
20
14.7679791108629
30
0.000000000000000
11
-73.3030738426627
21
14.7192924836537
31
0.000000000000000
  0
LINE
  5
F10146
330
F10147
100
AcDbEntity
8
Geo
100
AcDbLine
10
-73.3030738426627
20
14.7192924836537
30
0.000000000000000
11
-73.2030738426627
21
14.6731705551533
31
0.000000000000000
  0
LINE
  5
F10148
330
F10149
100
AcDbEntity
8
Geo
100
AcDbLine
10
-73.2030738426627
20
14.6731705551533
30
0.000000000000000
11
-73.1030738426627
21
14.6298548861739
31
0.000000000000000
  0
LINE
  5
F1014A
330
F1014B
100
AcDbEntity
8
Geo
100
AcDbLine
10
-73.1030738426627
20
14.6298548861739
30
0.000000000000000
11
-73.0030738426627
21
14.5895660612781
31
0.000000000000000
  0
LINE
  5
F1014C
330
F1014D
100
AcDbEntity
8
Geo
100
AcDbLine
10
-73.0030738426627
20
14.5895660612781
30
0.000000000000000
11
-72.9030738426627
21
14.5525040746803
31
0.000000000000000
  0
LINE
  5
F1014E
330
F1014F
100
AcDbEntity
8
Geo
100
AcDbLine
10
-72.9030738426627
20
14.5525040746803
30
0.000000000000000
11
-72.8030738426627
21
14.5188487008697
31
0.000000000000000
  0
LINE
  5
F10150
330
F10151
100
AcDbEntity
8
Geo
100
AcDbLine
10
-72.8030738426627
20
14.5188487008697
30
0.000000000000000
11
-72.7030738426627
21
14.4887598449096
31
0.000000000000000
  0
LINE
  5
F10152
330
F10153
100
AcDbEntity
8
Geo
100
AcDbLine
10
-72.7030738426627
20
14.4887598449096
30
0.000000000000000
11
-72.6030738426627
21
14.4623778678961
31
0.000000000000000
  0
LINE
  5
F10154
330
F10155
100
AcDbEntity
8
Geo
100
AcDbLine
10
-72.6030738426627
20
14.4623778678961
30
0.000000000000000
11
-72.5030738426627
21
14.4398238835773
31
0.000000000000000
  0
LINE
  5
F10156
330
F10157
100
AcDbEntity
8
Geo
100
AcDbLine
10
-72.5030738426627
20
14.4398238835773
30
0.000000000000000
11
-72.4030738426627
21
14.4212000226356
31
0.000000000000000
  0
LINE
  5
F10158
330
F10159
100
AcDbEntity
8
Geo
100
AcDbLine
10
-72.4030738426627
20
14.4212000226356
30
0.000000000000000
11
-72.3030738426627
21
14.4065896616259
31
0.000000000000000
  0
LINE
  5
F1015A
330
F1015B
100
AcDbEntity
8
Geo
100
AcDbLine
10
-72.3030738426627
20
14.4065896616259
30
0.000000000000000
11
-72.2030738426628
21
14.3960576140446
31
0.000000000000000
  0
LINE
  5
F1015C
330
F1015D
100
AcDbEntity
8
Geo
100
AcDbLine
10
-95.2030738426628
20
15.2146588593517
30
0.000000000000000
11
-95.1030738426628
21
15.5074004962531
31
0.000000000000000
  0
LINE
  5
F1015E
330
F1015F
100
AcDbEntity
8
Geo
100
AcDbLine
10
-95.1030738426628
20
15.5074004962531
30
0.000000000000000
11
-95.0030738426628
21
15.5853400087541
31
0.000000000000000
  0
LINE
  5
F10160
330
F10161
100
AcDbEntity
8
Geo
100
AcDbLine
10
-95.0030738426628
20
15.5853400087541
30
0.000000000000000
11
-94.9030738426628
21
15.6066017771450
31
0.000000000000000
  0
LINE
  5
F10162
330
F10163
100
AcDbEntity
8
Geo
100
AcDbLine
10
-94.9030738426628
20
15.6066017771450
30
0.000000000000000
11
-94.8030738426628
21
15.5863917068498
31
0.000000000000000
  0
LINE
  5
F10164
330
F10165
100
AcDbEntity
8
Geo
100
AcDbLine
10
-94.8030738426628
20
15.5863917068498
30
0.000000000000000
11
-94.7030738426628
21
15.5300445282179
31
0.000000000000000
  0
LINE
  5
F10166
330
F10167
100
AcDbEntity
8
Geo
100
AcDbLine
10
-94.7030738426628
20
15.5300445282179
30
0.000000000000000
11
-94.6030738426628
21
15.4491752728799
31
0.000000000000000
  0
LINE
  5
F10168
330
F10169
100
AcDbEntity
8
Geo
100
AcDbLine
10
-94.6030738426628
20
15.4491752728799
30
0.000000000000000
11
-94.5030738426628
21
15.3538862920889
31
0.000000000000000
  0
LINE
  5
F1016A
330
F1016B
100
AcDbEntity
8
Geo
100
AcDbLine
10
-94.5030738426628
20
15.3538862920889
30
0.000000000000000
11
-94.4030738426628
21
15.2443187372780
31
0.000000000000000
  0
LINE
  5
F1016C
330
F1016D
100
AcDbEntity
8
Geo
100
AcDbLine
10
-94.4030738426628
20
15.2443187372780
30
0.000000000000000
11
-94.3030738426628
21
15.1206349107118
31
0.000000000000000
  0
LINE
  5
F1016E
330
F1016F
100
AcDbEntity
8
Geo
100
AcDbLine
10
-94.3030738426628
20
15.1206349107118
30
0.000000000000000
11
-94.2030738426628
21
14.9830180250685
31
0.000000000000000
  0
LINE
  5
F10170
330
F10171
100
AcDbEntity
8
Geo
100
AcDbLine
10
-94.2030738426628
20
14.9830180250685
30
0.000000000000000
11
-94.1030738426628
21
14.8316719320469
31
0.000000000000000
  0
LINE
  5
F10172
330
F10173
100
AcDbEntity
8
Geo
100
AcDbLine
10
-94.1030738426628
20
14.8316719320469
30
0.000000000000000
11
-94.0030738426628
21
14.6668208204014
31
0.000000000000000
  0
LINE
  5
F10174
330
F10175
100
AcDbEntity
8
Geo
100
AcDbLine
10
-94.0030738426628
20
14.6668208204014
30
0.000000000000000
11
-93.9030738426628
21
14.4887088838515
31
0.000000000000000
  0
LINE
  5
F10176
330
F10177
100
AcDbEntity
8
Geo
100
AcDbLine
10
-93.9030738426628
20
14.4887088838515
30
0.000000000000000
11
-93.8030738426628
21
14.2975999593581
31
0.000000000000000
  0
LINE
  5
F10178
330
F10179
100
AcDbEntity
8
Geo
100
AcDbLine
10
-93.8030738426628
20
14.2975999593581
30
0.000000000000000
11
-93.7030738426628
21
14.0937771363017
31
0.000000000000000
  0
LINE
  5
F1017A
330
F1017B
100
AcDbEntity
8
Geo
100
AcDbLine
10
-93.7030738426628
20
14.0937771363017
30
0.000000000000000
11
-93.6030738426628
21
13.8775423371431
31
0.000000000000000
  0
LINE
  5
F1017C
330
F1017D
100
AcDbEntity
8
Geo
100
AcDbLine
10
-93.6030738426628
20
13.8775423371431
30
0.000000000000000
11
-93.5030738426628
21
13.6492158701857
31
0.000000000000000
  0
LINE
  5
F1017E
330
F1017F
100
AcDbEntity
8
Geo
100
AcDbLine
10
-93.5030738426628
20
13.6492158701857
30
0.000000000000000
11
-93.4030738426628
21
13.4091359551035
31
0.000000000000000
  0
LINE
  5
F10180
330
F10181
100
AcDbEntity
8
Geo
100
AcDbLine
10
-93.4030738426628
20
13.4091359551035
30
0.000000000000000
11
-93.3030738426628
21
13.1576582219366
31
0.000000000000000
  0
LINE
  5
F10182
330
F10183
100
AcDbEntity
8
Geo
100
AcDbLine
10
-93.3030738426628
20
13.1576582219366
30
0.000000000000000
11
-93.2030738426628
21
12.8951551842968
31
0.000000000000000
  0
LINE
  5
F10184
330
F10185
100
AcDbEntity
8
Geo
100
AcDbLine
10
-93.2030738426628
20
12.8951551842968
30
0.000000000000000
11
-93.1030738426628
21
12.6220156875642
31
0.000000000000000
  0
LINE
  5
F10186
330
F10187
100
AcDbEntity
8
Geo
100
AcDbLine
10
-93.1030738426628
20
12.6220156875642
30
0.000000000000000
11
-93.0030738426628
21
12.3386443328905
31
0.000000000000000
  0
LINE
  5
F10188
330
F10189
100
AcDbEntity
8
Geo
100
AcDbLine
10
-93.0030738426628
20
12.3386443328905
30
0.000000000000000
11
-92.9030738426628
21
12.0454608778642
31
0.000000000000000
  0
LINE
  5
F1018A
330
F1018B
100
AcDbEntity
8
Geo
100
AcDbLine
10
-92.9030738426628
20
12.0454608778642
30
0.000000000000000
11
-92.8030738426628
21
11.7428996147245
31
0.000000000000000
  0
LINE
  5
F1018C
330
F1018D
100
AcDbEntity
8
Geo
100
AcDbLine
10
-92.8030738426628
20
11.7428996147245
30
0.000000000000000
11
-92.7030738426628
21
11.4314087270443
31
0.000000000000000
  0
LINE
  5
F1018E
330
F1018F
100
AcDbEntity
8
Geo
100
AcDbLine
10
-92.7030738426628
20
11.4314087270443
30
0.000000000000000
11
-92.6030738426628
21
11.1114496258366
31
0.000000000000000
  0
LINE
  5
F10190
330
F10191
100
AcDbEntity
8
Geo
100
AcDbLine
10
-92.6030738426628
20
11.1114496258366
30
0.000000000000000
11
-92.5030738426628
21
10.7834962660677
31
0.000000000000000
  0
LINE
  5
F10192
330
F10193
100
AcDbEntity
8
Geo
100
AcDbLine
10
-92.5030738426628
20
10.7834962660677
30
0.000000000000000
11
-92.4030738426628
21
10.4480344445873
31
0.000000000000000
  0
LINE
  5
F10194
330
F10195
100
AcDbEntity
8
Geo
100
AcDbLine
10
-92.4030738426628
20
10.4480344445873
30
0.000000000000000
11
-92.3030738426628
21
10.1055610805191
31
0.000000000000000
  0
LINE
  5
F10196
330
F10197
100
AcDbEntity
8
Geo
100
AcDbLine
10
-92.3030738426628
20
10.1055610805191
30
0.000000000000000
11
-92.2030738426628
21
9.75658347917501
31
0.000000000000000
  0
LINE
  5
F10198
330
F10199
100
AcDbEntity
8
Geo
100
AcDbLine
10
-92.2030738426628
20
9.75658347917501
30
0.000000000000000
11
-92.1030738426628
21
9.40161858058437
31
0.000000000000000
  0
LINE
  5
F1019A
330
F1019B
100
AcDbEntity
8
Geo
100
AcDbLine
10
-92.1030738426628
20
9.40161858058437
30
0.000000000000000
11
-92.0030738426628
21
9.04119219375151
31
0.000000000000000
  0
LINE
  5
F1019C
330
F1019D
100
AcDbEntity
8
Geo
100
AcDbLine
10
-92.0030738426628
20
9.04119219375151
30
0.000000000000000
11
-91.9030738426628
21
8.67583821777561
31
0.000000000000000
  0
LINE
  5
F1019E
330
F1019F
100
AcDbEntity
8
Geo
100
AcDbLine
10
-91.9030738426628
20
8.67583821777561
30
0.000000000000000
11
-91.8030738426628
21
8.30609785098671
31
0.000000000000000
  0
LINE
  5
F101A0
330
F101A1
100
AcDbEntity
8
Geo
100
AcDbLine
10
-91.8030738426628
20
8.30609785098671
30
0.000000000000000
11
-91.7030738426628
21
7.93251878926937
31
0.000000000000000
  0
LINE
  5
F101A2
330
F101A3
100
AcDbEntity
8
Geo
100
AcDbLine
10
-91.7030738426628
20
7.93251878926937
30
0.000000000000000
11
-91.6030738426628
21
7.55565441476156
31
0.000000000000000
  0
LINE
  5
F101A4
330
F101A5
100
AcDbEntity
8
Geo
100
AcDbLine
10
-91.6030738426628
20
7.55565441476156
30
0.000000000000000
11
-91.5030738426628
21
7.17606297613044
31
0.000000000000000
  0
LINE
  5
F101A6
330
F101A7
100
AcDbEntity
8
Geo
100
AcDbLine
10
-91.5030738426628
20
7.17606297613044
30
0.000000000000000
11
-91.4030738426628
21
6.79430676163943
31
0.000000000000000
  0
LINE
  5
F101A8
330
F101A9
100
AcDbEntity
8
Geo
100
AcDbLine
10
-91.4030738426628
20
6.79430676163943
30
0.000000000000000
11
-91.3030738426628
21
6.41095126623137
31
0.000000000000000
  0
LINE
  5
F101AA
330
F101AB
100
AcDbEntity
8
Geo
100
AcDbLine
10
-91.3030738426628
20
6.41095126623137
30
0.000000000000000
11
-91.2030738426628
21
6.02656435386169
31
0.000000000000000
  0
LINE
  5
F101AC
330
F101AD
100
AcDbEntity
8
Geo
100
AcDbLine
10
-91.2030738426628
20
6.02656435386169
30
0.000000000000000
11
-91.1030738426628
21
5.64171541632229
31
0.000000000000000
  0
LINE
  5
F101AE
330
F101AF
100
AcDbEntity
8
Geo
100
AcDbLine
10
-91.1030738426628
20
5.64171541632229
30
0.000000000000000
11
-91.0030738426628
21
5.25697452980231
31
0.000000000000000
  0
LINE
  5
F101B0
330
F101B1
100
AcDbEntity
8
Geo
100
AcDbLine
10
-91.0030738426628
20
5.25697452980231
30
0.000000000000000
11
-90.9030738426628
21
4.87291161043508
31
0.000000000000000
  0
LINE
  5
F101B2
330
F101B3
100
AcDbEntity
8
Geo
100
AcDbLine
10
-90.9030738426628
20
4.87291161043508
30
0.000000000000000
11
-90.8030738426628
21
4.49009557008211
31
0.000000000000000
  0
LINE
  5
F101B4
330
F101B5
100
AcDbEntity
8
Geo
100
AcDbLine
10
-90.8030738426628
20
4.49009557008211
30
0.000000000000000
11
-90.7030738426628
21
4.10909347360483
31
0.000000000000000
  0
LINE
  5
F101B6
330
F101B7
100
AcDbEntity
8
Geo
100
AcDbLine
10
-90.7030738426628
20
4.10909347360483
30
0.000000000000000
11
-90.6030738426628
21
3.73046969887212
31
0.000000000000000
  0
LINE
  5
F101B8
330
F101B9
100
AcDbEntity
8
Geo
100
AcDbLine
10
-90.6030738426628
20
3.73046969887212
30
0.000000000000000
11
-90.5030738426628
21
3.35478510074822
31
0.000000000000000
  0
LINE
  5
F101BA
330
F101BB
100
AcDbEntity
8
Geo
100
AcDbLine
10
-90.5030738426628
20
3.35478510074822
30
0.000000000000000
11
-90.4030738426628
21
2.98259618029922
31
0.000000000000000
  0
LINE
  5
F101BC
330
F101BD
100
AcDbEntity
8
Geo
100
AcDbLine
10
-90.4030738426628
20
2.98259618029922
30
0.000000000000000
11
-90.3030738426628
21
2.61445426044876
31
0.000000000000000
  0
LINE
  5
F101BE
330
F101BF
100
AcDbEntity
8
Geo
100
AcDbLine
10
-90.3030738426628
20
2.61445426044876
30
0.000000000000000
11
-90.2030738426628
21
2.25090466930422
31
0.000000000000000
  0
LINE
  5
F101C0
330
F101C1
100
AcDbEntity
8
Geo
100
AcDbLine
10
-90.2030738426628
20
2.25090466930422
30
0.000000000000000
11
-90.1030738426628
21
1.89248593236293
31
0.000000000000000
  0
LINE
  5
F101C2
330
F101C3
100
AcDbEntity
8
Geo
100
AcDbLine
10
-90.1030738426628
20
1.89248593236293
30
0.000000000000000
11
-90.0030738426628
21
1.53972897479510
31
0.000000000000000
  0
LINE
  5
F101C4
330
F101C5
100
AcDbEntity
8
Geo
100
AcDbLine
10
-90.0030738426628
20
1.53972897479510
30
0.000000000000000
11
-89.9030738426628
21
1.19315633498515
31
0.000000000000000
  0
LINE
  5
F101C6
330
F101C7
100
AcDbEntity
8
Geo
100
AcDbLine
10
-89.9030738426628
20
1.19315633498515
30
0.000000000000000
11
-89.8030738426628
21
0.853281390496300
31
0.000000000000000
  0
LINE
  5
F101C8
330
F101C9
100
AcDbEntity
8
Geo
100
AcDbLine
10
-89.8030738426628
20
0.853281390496300
30
0.000000000000000
11
-89.7030738426628
21
0.520607597605132
31
0.000000000000000
  0
LINE
  5
F101CA
330
F101CB
100
AcDbEntity
8
Geo
100
AcDbLine
10
-89.7030738426628
20
0.520607597605132
30
0.000000000000000
11
-89.6030738426628
21
0.195627745532505
31
0.000000000000000
  0
LINE
  5
F101CC
330
F101CD
100
AcDbEntity
8
Geo
100
AcDbLine
10
-89.6030738426628
20
0.195627745532505
30
0.000000000000000
11
-89.5030738426628
21
-0.121176773524421
31
0.000000000000000
  0
LINE
  5
F101CE
330
F101CF
100
AcDbEntity
8
Geo
100
AcDbLine
10
-89.5030738426628
20
-0.121176773524421
30
0.000000000000000
11
-89.4030738426628
21
-0.429336677477759
31
0.000000000000000
  0
LINE
  5
F101D0
330
F101D1
100
AcDbEntity
8
Geo
100
AcDbLine
10
-89.4030738426628
20
-0.429336677477759
30
0.000000000000000
11
-89.3030738426628
21
-0.728395489495812
31
0.000000000000000
  0
LINE
  5
F101D2
330
F101D3
100
AcDbEntity
8
Geo
100
AcDbLine
10
-89.3030738426628
20
-0.728395489495812
30
0.000000000000000
11
-89.2030738426628
21
-1.01791021418154
31
0.000000000000000
  0
LINE
  5
F101D4
330
F101D5
100
AcDbEntity
8
Geo
100
AcDbLine
10
-89.2030738426628
20
-1.01791021418154
30
0.000000000000000
11
-89.1030738426628
21
-1.29745199378103
31
0.000000000000000
  0
LINE
  5
F101D6
330
F101D7
100
AcDbEntity
8
Geo
100
AcDbLine
10
-89.1030738426628
20
-1.29745199378103
30
0.000000000000000
11
-89.0030738426628
21
-1.56660674344988
31
0.000000000000000
  0
LINE
  5
F101D8
330
F101D9
100
AcDbEntity
8
Geo
100
AcDbLine
10
-89.0030738426628
20
-1.56660674344988
30
0.000000000000000
11
-88.9030738426628
21
-1.82497576463649
31
0.000000000000000
  0
LINE
  5
F101DA
330
F101DB
100
AcDbEntity
8
Geo
100
AcDbLine
10
-88.9030738426628
20
-1.82497576463649
30
0.000000000000000
11
-88.8030738426628
21
-2.07217633567366
31
0.000000000000000
  0
LINE
  5
F101DC
330
F101DD
100
AcDbEntity
8
Geo
100
AcDbLine
10
-88.8030738426628
20
-2.07217633567366
30
0.000000000000000
11
-88.7030738426628
21
-2.30784227870370
31
0.000000000000000
  0
LINE
  5
F101DE
330
F101DF
100
AcDbEntity
8
Geo
100
AcDbLine
10
-88.7030738426628
20
-2.30784227870370
30
0.000000000000000
11
-88.6030738426628
21
-2.53162450209711
31
0.000000000000000
  0
LINE
  5
F101E0
330
F101E1
100
AcDbEntity
8
Geo
100
AcDbLine
10
-88.6030738426628
20
-2.53162450209711
30
0.000000000000000
11
-88.5030738426628
21
-2.74319151756156
31
0.000000000000000
  0
LINE
  5
F101E2
330
F101E3
100
AcDbEntity
8
Geo
100
AcDbLine
10
-88.5030738426628
20
-2.74319151756156
30
0.000000000000000
11
-88.4030738426628
21
-2.94222993117502
31
0.000000000000000
  0
LINE
  5
F101E4
330
F101E5
100
AcDbEntity
8
Geo
100
AcDbLine
10
-88.4030738426628
20
-2.94222993117502
30
0.000000000000000
11
-88.3030738426628
21
-3.12844490761574
31
0.000000000000000
  0
LINE
  5
F101E6
330
F101E7
100
AcDbEntity
8
Geo
100
AcDbLine
10
-88.3030738426628
20
-3.12844490761574
30
0.000000000000000
11
-88.2030738426628
21
-3.30156060690139
31
0.000000000000000
  0
LINE
  5
F101E8
330
F101E9
100
AcDbEntity
8
Geo
100
AcDbLine
10
-88.2030738426628
20
-3.30156060690139
30
0.000000000000000
11
-88.1030738426628
21
-3.46132059299044
31
0.000000000000000
  0
LINE
  5
F101EA
330
F101EB
100
AcDbEntity
8
Geo
100
AcDbLine
10
-88.1030738426628
20
-3.46132059299044
30
0.000000000000000
11
-88.0030738426628
21
-3.60748821364050
31
0.000000000000000
  0
LINE
  5
F101EC
330
F101ED
100
AcDbEntity
8
Geo
100
AcDbLine
10
-88.0030738426628
20
-3.60748821364050
30
0.000000000000000
11
-87.9030738426628
21
-3.73984695096098
31
0.000000000000000
  0
LINE
  5
F101EE
330
F101EF
100
AcDbEntity
8
Geo
100
AcDbLine
10
-87.9030738426628
20
-3.73984695096098
30
0.000000000000000
11
-87.8030738426628
21
-3.85820074214070
31
0.000000000000000
  0
LINE
  5
F101F0
330
F101F1
100
AcDbEntity
8
Geo
100
AcDbLine
10
-87.8030738426628
20
-3.85820074214070
30
0.000000000000000
11
-87.7030738426628
21
-3.96237426987548
31
0.000000000000000
  0
LINE
  5
F101F2
330
F101F3
100
AcDbEntity
8
Geo
100
AcDbLine
10
-87.7030738426628
20
-3.96237426987548
30
0.000000000000000
11
-87.6030738426628
21
-4.05221322206540
31
0.000000000000000
  0
LINE
  5
F101F4
330
F101F5
100
AcDbEntity
8
Geo
100
AcDbLine
10
-87.6030738426628
20
-4.05221322206540
30
0.000000000000000
11
-87.5030738426628
21
-4.12758452039714
31
0.000000000000000
  0
LINE
  5
F101F6
330
F101F7
100
AcDbEntity
8
Geo
100
AcDbLine
10
-87.5030738426628
20
-4.12758452039714
30
0.000000000000000
11
-87.4030738426628
21
-4.18837651747260
31
0.000000000000000
  0
LINE
  5
F101F8
330
F101F9
100
AcDbEntity
8
Geo
100
AcDbLine
10
-87.4030738426628
20
-4.18837651747260
30
0.000000000000000
11
-87.3030738426628
21
-4.23449916219216
31
0.000000000000000
  0
LINE
  5
F101FA
330
F101FB
100
AcDbEntity
8
Geo
100
AcDbLine
10
-87.3030738426628
20
-4.23449916219216
30
0.000000000000000
11
-87.2030738426628
21
-4.26588413314715
31
0.000000000000000
  0
LINE
  5
F101FC
330
F101FD
100
AcDbEntity
8
Geo
100
AcDbLine
10
-87.2030738426628
20
-4.26588413314715
30
0.000000000000000
11
-87.1030738426628
21
-4.28248493982430
31
0.000000000000000
  0
LINE
  5
F101FE
330
F101FF
100
AcDbEntity
8
Geo
100
AcDbLine
10
-78.9030738426628
20
15.7142252601940
30
0.000000000000000
11
-78.8030738426628
21
15.7104024891296
31
0.000000000000000
  0
LINE
  5
F10200
330
F10201
100
AcDbEntity
8
Geo
100
AcDbLine
10
-78.8030738426628
20
15.7104024891296
30
0.000000000000000
11
-78.7030738426628
21
15.6917730371048
31
0.000000000000000
  0
LINE
  5
F10202
330
F10203
100
AcDbEntity
8
Geo
100
AcDbLine
10
-78.7030738426628
20
15.6917730371048
30
0.000000000000000
11
-78.6030738426628
21
15.6583644999007
31
0.000000000000000
  0
LINE
  5
F10204
330
F10205
100
AcDbEntity
8
Geo
100
AcDbLine
10
-78.6030738426628
20
15.6583644999007
30
0.000000000000000
11
-78.5030738426628
21
15.6102263655362
31
0.000000000000000
  0
LINE
  5
F10206
330
F10207
100
AcDbEntity
8
Geo
100
AcDbLine
10
-78.5030738426628
20
15.6102263655362
30
0.000000000000000
11
-78.4030738426628
21
15.5474299409621
31
0.000000000000000
  0
LINE
  5
F10208
330
F10209
100
AcDbEntity
8
Geo
100
AcDbLine
10
-78.4030738426628
20
15.5474299409621
30
0.000000000000000
11
-78.3030738426628
21
15.4700682464336
31
0.000000000000000
  0
LINE
  5
F1020A
330
F1020B
100
AcDbEntity
8
Geo
100
AcDbLine
10
-78.3030738426628
20
15.4700682464336
30
0.000000000000000
11
-78.2030738426628
21
15.3782558777199
31
0.000000000000000
  0
LINE
  5
F1020C
330
F1020D
100
AcDbEntity
8
Geo
100
AcDbLine
10
-78.2030738426628
20
15.3782558777199
30
0.000000000000000
11
-78.1030738426628
21
15.2721288363534
31
0.000000000000000
  0
LINE
  5
F1020E
330
F1020F
100
AcDbEntity
8
Geo
100
AcDbLine
10
-78.1030738426628
20
15.2721288363534
30
0.000000000000000
11
-78.0030738426628
21
15.1518443281711
31
0.000000000000000
  0
LINE
  5
F10210
330
F10211
100
AcDbEntity
8
Geo
100
AcDbLine
10
-78.0030738426628
20
15.1518443281711
30
0.000000000000000
11
-77.9030738426628
21
15.0175805304454
31
0.000000000000000
  0
LINE
  5
F10212
330
F10213
100
AcDbEntity
8
Geo
100
AcDbLine
10
-77.9030738426628
20
15.0175805304454
30
0.000000000000000
11
-77.8030738426628
21
14.8695363279510
31
0.000000000000000
  0
LINE
  5
F10214
330
F10215
100
AcDbEntity
8
Geo
100
AcDbLine
10
-77.8030738426628
20
14.8695363279510
30
0.000000000000000
11
-77.7030738426628
21
14.7079310183563
31
0.000000000000000
  0
LINE
  5
F10216
330
F10217
100
AcDbEntity
8
Geo
100
AcDbLine
10
-77.7030738426628
20
14.7079310183563
30
0.000000000000000
11
-77.6030738426628
21
14.5330039873790
31
0.000000000000000
  0
LINE
  5
F10218
330
F10219
100
AcDbEntity
8
Geo
100
AcDbLine
10
-77.6030738426628
20
14.5330039873790
30
0.000000000000000
11
-77.5030738426628
21
14.3450143541835
31
0.000000000000000
  0
LINE
  5
F1021A
330
F1021B
100
AcDbEntity
8
Geo
100
AcDbLine
10
-77.5030738426628
20
14.3450143541835
30
0.000000000000000
11
-77.4030738426628
21
14.1442405875489
31
0.000000000000000
  0
LINE
  5
F1021C
330
F1021D
100
AcDbEntity
8
Geo
100
AcDbLine
10
-77.4030738426628
20
14.1442405875489
30
0.000000000000000
11
-77.3030738426628
21
13.9309800933728
31
0.000000000000000
  0
LINE
  5
F1021E
330
F1021F
100
AcDbEntity
8
Geo
100
AcDbLine
10
-77.3030738426628
20
13.9309800933728
30
0.000000000000000
11
-77.2030738426628
21
13.7055487741249
31
0.000000000000000
  0
LINE
  5
F10220
330
F10221
100
AcDbEntity
8
Geo
100
AcDbLine
10
-77.2030738426628
20
13.7055487741249
30
0.000000000000000
11
-77.1030738426628
21
13.7342570418585
31
0.000000000000000
  0
LINE
  5
F10222
330
F10223
100
AcDbEntity
8
Geo
100
AcDbLine
10
-77.1030738426628
20
13.7342570418585
30
0.000000000000000
11
-77.0030738426628
21
13.7622296154872
31
0.000000000000000
  0
LINE
  5
F10224
330
F10225
100
AcDbEntity
8
Geo
100
AcDbLine
10
-77.0030738426628
20
13.7622296154872
30
0.000000000000000
11
-76.9030738426628
21
13.7894763992636
31
0.000000000000000
  0
LINE
  5
F10226
330
F10227
100
AcDbEntity
8
Geo
100
AcDbLine
10
-76.9030738426628
20
13.7894763992636
30
0.000000000000000
11
-76.8030738426628
21
13.8160071642861
31
0.000000000000000
  0
LINE
  5
F10228
330
F10229
100
AcDbEntity
8
Geo
100
AcDbLine
10
-76.8030738426628
20
13.8160071642861
30
0.000000000000000
11
-76.7030738426628
21
13.8418315442492
31
0.000000000000000
  0
LINE
  5
F1022A
330
F1022B
100
AcDbEntity
8
Geo
100
AcDbLine
10
-76.7030738426628
20
13.8418315442492
30
0.000000000000000
11
-76.6030738426628
21
13.8669590313256
31
0.000000000000000
  0
LINE
  5
F1022C
330
F1022D
100
AcDbEntity
8
Geo
100
AcDbLine
10
-76.6030738426628
20
13.8669590313256
30
0.000000000000000
11
-76.5030738426628
21
13.8913989721798
31
0.000000000000000
  0
LINE
  5
F1022E
330
F1022F
100
AcDbEntity
8
Geo
100
AcDbLine
10
-76.5030738426628
20
13.8913989721798
30
0.000000000000000
11
-76.4030738426628
21
13.9151605641071
31
0.000000000000000
  0
LINE
  5
F10230
330
F10231
100
AcDbEntity
8
Geo
100
AcDbLine
10
-76.4030738426628
20
13.9151605641071
30
0.000000000000000
11
-76.3030738426628
21
13.9382528513002
31
0.000000000000000
  0
LINE
  5
F10232
330
F10233
100
AcDbEntity
8
Geo
100
AcDbLine
10
-76.3030738426628
20
13.9382528513002
30
0.000000000000000
11
-76.2030738426628
21
13.9606847212359
31
0.000000000000000
  0
LINE
  5
F10234
330
F10235
100
AcDbEntity
8
Geo
100
AcDbLine
10
-76.2030738426628
20
13.9606847212359
30
0.000000000000000
11
-76.1030738426628
21
13.9824649011835
31
0.000000000000000
  0
LINE
  5
F10236
330
F10237
100
AcDbEntity
8
Geo
100
AcDbLine
10
-76.1030738426628
20
13.9824649011835
30
0.000000000000000
11
-76.0030738426628
21
14.0036019548302
31
0.000000000000000
  0
LINE
  5
F10238
330
F10239
100
AcDbEntity
8
Geo
100
AcDbLine
10
-76.0030738426628
20
14.0036019548302
30
0.000000000000000
11
-75.9030738426628
21
14.0241042790215
31
0.000000000000000
  0
LINE
  5
F1023A
330
F1023B
100
AcDbEntity
8
Geo
100
AcDbLine
10
-75.9030738426628
20
14.0241042790215
30
0.000000000000000
11
-75.8030738426628
21
14.0439801006149
31
0.000000000000000
  0
LINE
  5
F1023C
330
F1023D
100
AcDbEntity
8
Geo
100
AcDbLine
10
-75.8030738426628
20
14.0439801006149
30
0.000000000000000
11
-75.7030738426627
21
14.0632374734439
31
0.000000000000000
  0
LINE
  5
F1023E
330
F1023F
100
AcDbEntity
8
Geo
100
AcDbLine
10
-75.7030738426627
20
14.0632374734439
30
0.000000000000000
11
-75.6030738426628
21
14.0818842753899
31
0.000000000000000
  0
LINE
  5
F10240
330
F10241
100
AcDbEntity
8
Geo
100
AcDbLine
10
-75.6030738426628
20
14.0818842753899
30
0.000000000000000
11
-75.5030738426628
21
14.0999282055603
31
0.000000000000000
  0
LINE
  5
F10242
330
F10243
100
AcDbEntity
8
Geo
100
AcDbLine
10
-75.5030738426628
20
14.0999282055603
30
0.000000000000000
11
-75.4030738426627
21
14.1173767815705
31
0.000000000000000
  0
LINE
  5
F10244
330
F10245
100
AcDbEntity
8
Geo
100
AcDbLine
10
-75.4030738426627
20
14.1173767815705
30
0.000000000000000
11
-75.3030738426627
21
14.1342373369265
31
0.000000000000000
  0
LINE
  5
F10246
330
F10247
100
AcDbEntity
8
Geo
100
AcDbLine
10
-75.3030738426627
20
14.1342373369265
30
0.000000000000000
11
-75.2030738426627
21
14.1505170185081
31
0.000000000000000
  0
LINE
  5
F10248
330
F10249
100
AcDbEntity
8
Geo
100
AcDbLine
10
-75.2030738426627
20
14.1505170185081
30
0.000000000000000
11
-75.1030738426628
21
14.1662227841480
31
0.000000000000000
  0
LINE
  5
F1024A
330
F1024B
100
AcDbEntity
8
Geo
100
AcDbLine
10
-75.1030738426628
20
14.1662227841480
30
0.000000000000000
11
-75.0030738426627
21
14.1813614003071
31
0.000000000000000
  0
LINE
  5
F1024C
330
F1024D
100
AcDbEntity
8
Geo
100
AcDbLine
10
-75.0030738426627
20
14.1813614003071
30
0.000000000000000
11
-74.9030738426627
21
14.1959394398426
31
0.000000000000000
  0
LINE
  5
F1024E
330
F1024F
100
AcDbEntity
8
Geo
100
AcDbLine
10
-74.9030738426627
20
14.1959394398426
30
0.000000000000000
11
-74.8030738426627
21
14.2099632798669
31
0.000000000000000
  0
LINE
  5
F10250
330
F10251
100
AcDbEntity
8
Geo
100
AcDbLine
10
-74.8030738426627
20
14.2099632798669
30
0.000000000000000
11
-74.7030738426627
21
14.2234390996968
31
0.000000000000000
  0
LINE
  5
F10252
330
F10253
100
AcDbEntity
8
Geo
100
AcDbLine
10
-74.7030738426627
20
14.2234390996968
30
0.000000000000000
11
-74.6030738426627
21
14.2363728788888
31
0.000000000000000
  0
LINE
  5
F10254
330
F10255
100
AcDbEntity
8
Geo
100
AcDbLine
10
-74.6030738426627
20
14.2363728788888
30
0.000000000000000
11
-74.5030738426627
21
14.2487703953614
31
0.000000000000000
  0
LINE
  5
F10256
330
F10257
100
AcDbEntity
8
Geo
100
AcDbLine
10
-74.5030738426627
20
14.2487703953614
30
0.000000000000000
11
-74.4030738426627
21
14.2606372236003
31
0.000000000000000
  0
LINE
  5
F10258
330
F10259
100
AcDbEntity
8
Geo
100
AcDbLine
10
-74.4030738426627
20
14.2606372236003
30
0.000000000000000
11
-74.3030738426627
21
14.2719787329460
31
0.000000000000000
  0
LINE
  5
F1025A
330
F1025B
100
AcDbEntity
8
Geo
100
AcDbLine
10
-74.3030738426627
20
14.2719787329460
30
0.000000000000000
11
-74.2030738426627
21
14.2828000859622
31
0.000000000000000
  0
LINE
  5
F1025C
330
F1025D
100
AcDbEntity
8
Geo
100
AcDbLine
10
-74.2030738426627
20
14.2828000859622
30
0.000000000000000
11
-74.1030738426627
21
14.2931062368832
31
0.000000000000000
  0
LINE
  5
F1025E
330
F1025F
100
AcDbEntity
8
Geo
100
AcDbLine
10
-74.1030738426627
20
14.2931062368832
30
0.000000000000000
11
-74.0030738426627
21
14.3029019301379
31
0.000000000000000
  0
LINE
  5
F10260
330
F10261
100
AcDbEntity
8
Geo
100
AcDbLine
10
-74.0030738426627
20
14.3029019301379
30
0.000000000000000
11
-73.9030738426627
21
14.3121916989513
31
0.000000000000000
  0
LINE
  5
F10262
330
F10263
100
AcDbEntity
8
Geo
100
AcDbLine
10
-73.9030738426627
20
14.3121916989513
30
0.000000000000000
11
-73.8030738426627
21
14.3209798640186
31
0.000000000000000
  0
LINE
  5
F10264
330
F10265
100
AcDbEntity
8
Geo
100
AcDbLine
10
-73.8030738426627
20
14.3209798640186
30
0.000000000000000
11
-73.7030738426627
21
14.3292705322544
31
0.000000000000000
  0
LINE
  5
F10266
330
F10267
100
AcDbEntity
8
Geo
100
AcDbLine
10
-73.7030738426627
20
14.3292705322544
30
0.000000000000000
11
-73.6030738426627
21
14.3370675956123
31
0.000000000000000
  0
LINE
  5
F10268
330
F10269
100
AcDbEntity
8
Geo
100
AcDbLine
10
-73.6030738426627
20
14.3370675956123
30
0.000000000000000
11
-73.5030738426627
21
14.3443747299764
31
0.000000000000000
  0
LINE
  5
F1026A
330
F1026B
100
AcDbEntity
8
Geo
100
AcDbLine
10
-73.5030738426627
20
14.3443747299764
30
0.000000000000000
11
-73.4030738426627
21
14.3511953941214
31
0.000000000000000
  0
LINE
  5
F1026C
330
F1026D
100
AcDbEntity
8
Geo
100
AcDbLine
10
-73.4030738426627
20
14.3511953941214
30
0.000000000000000
11
-73.3030738426627
21
14.3575328287413
31
0.000000000000000
  0
LINE
  5
F1026E
330
F1026F
100
AcDbEntity
8
Geo
100
AcDbLine
10
-73.3030738426627
20
14.3575328287413
30
0.000000000000000
11
-73.2030738426627
21
14.3633900555462
31
0.000000000000000
  0
LINE
  5
F10270
330
F10271
100
AcDbEntity
8
Geo
100
AcDbLine
10
-73.2030738426627
20
14.3633900555462
30
0.000000000000000
11
-73.1030738426627
21
14.3687698764247
31
0.000000000000000
  0
LINE
  5
F10272
330
F10273
100
AcDbEntity
8
Geo
100
AcDbLine
10
-73.1030738426627
20
14.3687698764247
30
0.000000000000000
11
-73.0030738426627
21
14.3736748726722
31
0.000000000000000
  0
LINE
  5
F10274
330
F10275
100
AcDbEntity
8
Geo
100
AcDbLine
10
-73.0030738426627
20
14.3736748726722
30
0.000000000000000
11
-72.9030738426627
21
14.3781074042834
31
0.000000000000000
  0
LINE
  5
F10276
330
F10277
100
AcDbEntity
8
Geo
100
AcDbLine
10
-72.9030738426627
20
14.3781074042834
30
0.000000000000000
11
-72.8030738426627
21
14.3820696093096
31
0.000000000000000
  0
LINE
  5
F10278
330
F10279
100
AcDbEntity
8
Geo
100
AcDbLine
10
-72.8030738426627
20
14.3820696093096
30
0.000000000000000
11
-72.7030738426627
21
14.3855634032783
31
0.000000000000000
  0
LINE
  5
F1027A
330
F1027B
100
AcDbEntity
8
Geo
100
AcDbLine
10
-72.7030738426627
20
14.3855634032783
30
0.000000000000000
11
-72.6030738426627
21
14.3885904786760
31
0.000000000000000
  0
LINE
  5
F1027C
330
F1027D
100
AcDbEntity
8
Geo
100
AcDbLine
10
-72.6030738426627
20
14.3885904786760
30
0.000000000000000
11
-72.5030738426627
21
14.3911523044921
31
0.000000000000000
  0
LINE
  5
F1027E
330
F1027F
100
AcDbEntity
8
Geo
100
AcDbLine
10
-72.5030738426627
20
14.3911523044921
30
0.000000000000000
11
-72.4030738426627
21
14.3932501258252
31
0.000000000000000
  0
LINE
  5
F10280
330
F10281
100
AcDbEntity
8
Geo
100
AcDbLine
10
-72.4030738426627
20
14.3932501258252
30
0.000000000000000
11
-72.3030738426627
21
14.3948849635500
31
0.000000000000000
  0
LINE
  5
F10282
330
F10283
100
AcDbEntity
8
Geo
100
AcDbLine
10
-72.3030738426627
20
14.3948849635500
30
0.000000000000000
11
-72.2030738426628
21
14.3960576140446
31
0.000000000000000
  0
LINE
  5
F10284
330
F10285
100
AcDbEntity
8
Geo
100
AcDbLine
10
-95.2030738426628
20
14.7496957641557
30
0.000000000000000
11
-95.1030738426628
21
14.9115765014423
31
0.000000000000000
  0
LINE
  5
F10286
330
F10287
100
AcDbEntity
8
Geo
100
AcDbLine
10
-95.1030738426628
20
14.9115765014423
30
0.000000000000000
11
-95.0030738426628
21
14.8669644337449
31
0.000000000000000
  0
LINE
  5
F10288
330
F10289
100
AcDbEntity
8
Geo
100
AcDbLine
10
-95.0030738426628
20
14.8669644337449
30
0.000000000000000
11
-94.9030738426628
21
14.7679121043039
31
0.000000000000000
  0
LINE
  5
F1028A
330
F1028B
100
AcDbEntity
8
Geo
100
AcDbLine
10
-94.9030738426628
20
14.7679121043039
30
0.000000000000000
11
-94.8030738426628
21
14.6298279765720
31
0.000000000000000
  0
LINE
  5
F1028C
330
F1028D
100
AcDbEntity
8
Geo
100
AcDbLine
10
-94.8030738426628
20
14.6298279765720
30
0.000000000000000
11
-94.7030738426628
21
14.4586060937025
31
0.000000000000000
  0
LINE
  5
F1028E
330
F1028F
100
AcDbEntity
8
Geo
100
AcDbLine
10
-94.7030738426628
20
14.4586060937025
30
0.000000000000000
11
-94.6030738426628
21
14.2654165571463
31
0.000000000000000
  0
LINE
  5
F10290
330
F10291
100
AcDbEntity
8
Geo
100
AcDbLine
10
-94.6030738426628
20
14.2654165571463
30
0.000000000000000
11
-94.5030738426628
21
14.0595607952556
31
0.000000000000000
  0
LINE
  5
F10292
330
F10293
100
AcDbEntity
8
Geo
100
AcDbLine
10
-94.5030738426628
20
14.0595607952556
30
0.000000000000000
11
-94.4030738426628
21
13.8413437418804
31
0.000000000000000
  0
LINE
  5
F10294
330
F10295
100
AcDbEntity
8
Geo
100
AcDbLine
10
-94.4030738426628
20
13.8413437418804
30
0.000000000000000
11
-94.3030738426628
21
13.6110886416346
31
0.000000000000000
  0
LINE
  5
F10296
330
F10297
100
AcDbEntity
8
Geo
100
AcDbLine
10
-94.3030738426628
20
13.6110886416346
30
0.000000000000000
11
-94.2030738426628
21
13.3691365710740
31
0.000000000000000
  0
LINE
  5
F10298
330
F10299
100
AcDbEntity
8
Geo
100
AcDbLine
10
-94.2030738426628
20
13.3691365710740
30
0.000000000000000
11
-94.1030738426628
21
13.1158459334598
31
0.000000000000000
  0
LINE
  5
F1029A
330
F1029B
100
AcDbEntity
8
Geo
100
AcDbLine
10
-94.1030738426628
20
13.1158459334598
30
0.000000000000000
11
-94.0030738426628
21
12.8515919278569
31
0.000000000000000
  0
LINE
  5
F1029C
330
F1029D
100
AcDbEntity
8
Geo
100
AcDbLine
10
-94.0030738426628
20
12.8515919278569
30
0.000000000000000
11
-93.9030738426628
21
12.5767659933514
31
0.000000000000000
  0
LINE
  5
F1029E
330
F1029F
100
AcDbEntity
8
Geo
100
AcDbLine
10
-93.9030738426628
20
12.5767659933514
30
0.000000000000000
11
-93.8030738426628
21
12.2917752292132
31
0.000000000000000
  0
LINE
  5
F102A0
330
F102A1
100
AcDbEntity
8
Geo
100
AcDbLine
10
-93.8030738426628
20
12.2917752292132
30
0.000000000000000
11
-93.7030738426628
21
11.9970417918598
31
0.000000000000000
  0
LINE
  5
F102A2
330
F102A3
100
AcDbEntity
8
Geo
100
AcDbLine
10
-93.7030738426628
20
11.9970417918598
30
0.000000000000000
11
-93.6030738426628
21
11.6930022695168
31
0.000000000000000
  0
LINE
  5
F102A4
330
F102A5
100
AcDbEntity
8
Geo
100
AcDbLine
10
-93.6030738426628
20
11.6930022695168
30
0.000000000000000
11
-93.5030738426628
21
11.3801070355004
31
0.000000000000000
  0
LINE
  5
F102A6
330
F102A7
100
AcDbEntity
8
Geo
100
AcDbLine
10
-93.5030738426628
20
11.3801070355004
30
0.000000000000000
11
-93.4030738426628
21
11.0588195810801
31
0.000000000000000
  0
LINE
  5
F102A8
330
F102A9
100
AcDbEntity
8
Geo
100
AcDbLine
10
-93.4030738426628
20
11.0588195810801
30
0.000000000000000
11
-93.3030738426628
21
10.7296158289096
31
0.000000000000000
  0
LINE
  5
F102AA
330
F102AB
100
AcDbEntity
8
Geo
100
AcDbLine
10
-93.3030738426628
20
10.7296158289096
30
0.000000000000000
11
-93.2030738426628
21
10.3929834280433
31
0.000000000000000
  0
LINE
  5
F102AC
330
F102AD
100
AcDbEntity
8
Geo
100
AcDbLine
10
-93.2030738426628
20
10.3929834280433
30
0.000000000000000
11
-93.1030738426628
21
10.0494210315826
31
0.000000000000000
  0
LINE
  5
F102AE
330
F102AF
100
AcDbEntity
8
Geo
100
AcDbLine
10
-93.1030738426628
20
10.0494210315826
30
0.000000000000000
11
-93.0030738426628
21
9.69943755802131
31
0.000000000000000
  0
LINE
  5
F102B0
330
F102B1
100
AcDbEntity
8
Geo
100
AcDbLine
10
-93.0030738426628
20
9.69943755802131
30
0.000000000000000
11
-92.9030738426628
21
9.34355143738602
31
0.000000000000000
  0
LINE
  5
F102B2
330
F102B3
100
AcDbEntity
8
Geo
100
AcDbLine
10
-92.9030738426628
20
9.34355143738602
30
0.000000000000000
11
-92.8030738426628
21
8.98228984328596
31
0.000000000000000
  0
LINE
  5
F102B4
330
F102B5
100
AcDbEntity
8
Geo
100
AcDbLine
10
-92.8030738426628
20
8.98228984328596
30
0.000000000000000
11
-92.7030738426628
21
8.61618791201163
31
0.000000000000000
  0
LINE
  5
F102B6
330
F102B7
100
AcDbEntity
8
Geo
100
AcDbLine
10
-92.7030738426628
20
8.61618791201163
30
0.000000000000000
11
-92.6030738426628
21
8.24578794983822
31
0.000000000000000
  0
LINE
  5
F102B8
330
F102B9
100
AcDbEntity
8
Geo
100
AcDbLine
10
-92.6030738426628
20
8.24578794983822
30
0.000000000000000
11
-92.5030738426628
21
7.87163862970800
31
0.000000000000000
  0
LINE
  5
F102BA
330
F102BB
100
AcDbEntity
8
Geo
100
AcDbLine
10
-92.5030738426628
20
7.87163862970800
30
0.000000000000000
11
-92.4030738426628
21
7.49429417848192
31
0.000000000000000
  0
LINE
  5
F102BC
330
F102BD
100
AcDbEntity
8
Geo
100
AcDbLine
10
-92.4030738426628
20
7.49429417848192
30
0.000000000000000
11
-92.3030738426628
21
7.11431355596411
31
0.000000000000000
  0
LINE
  5
F102BE
330
F102BF
100
AcDbEntity
8
Geo
100
AcDbLine
10
-92.3030738426628
20
7.11431355596411
30
0.000000000000000
11
-92.2030738426628
21
6.73225962691553
31
0.000000000000000
  0
LINE
  5
F102C0
330
F102C1
100
AcDbEntity
8
Geo
100
AcDbLine
10
-92.2030738426628
20
6.73225962691553
30
0.000000000000000
11
-92.1030738426628
21
6.34869832728319
31
0.000000000000000
  0
LINE
  5
F102C2
330
F102C3
100
AcDbEntity
8
Geo
100
AcDbLine
10
-92.1030738426628
20
6.34869832728319
30
0.000000000000000
11
-92.0030738426628
21
5.96419782588000
31
0.000000000000000
  0
LINE
  5
F102C4
330
F102C5
100
AcDbEntity
8
Geo
100
AcDbLine
10
-92.0030738426628
20
5.96419782588000
30
0.000000000000000
11
-91.9030738426628
21
5.57932768275715
31
0.000000000000000
  0
LINE
  5
F102C6
330
F102C7
100
AcDbEntity
8
Geo
100
AcDbLine
10
-91.9030738426628
20
5.57932768275715
30
0.000000000000000
11
-91.8030738426628
21
5.19465800551558
31
0.000000000000000
  0
LINE
  5
F102C8
330
F102C9
100
AcDbEntity
8
Geo
100
AcDbLine
10
-91.8030738426628
20
5.19465800551558
30
0.000000000000000
11
-91.7030738426628
21
4.81075860480642
31
0.000000000000000
  0
LINE
  5
F102CA
330
F102CB
100
AcDbEntity
8
Geo
100
AcDbLine
10
-91.7030738426628
20
4.81075860480642
30
0.000000000000000
11
-91.6030738426628
21
4.42819815027123
31
0.000000000000000
  0
LINE
  5
F102CC
330
F102CD
100
AcDbEntity
8
Geo
100
AcDbLine
10
-91.6030738426628
20
4.42819815027123
30
0.000000000000000
11
-91.5030738426628
21
4.04754332817250
31
0.000000000000000
  0
LINE
  5
F102CE
330
F102CF
100
AcDbEntity
8
Geo
100
AcDbLine
10
-91.5030738426628
20
4.04754332817250
30
0.000000000000000
11
-91.4030738426628
21
3.66935800196209
31
0.000000000000000
  0
LINE
  5
F102D0
330
F102D1
100
AcDbEntity
8
Geo
100
AcDbLine
10
-91.4030738426628
20
3.66935800196209
30
0.000000000000000
11
-91.3030738426628
21
3.29420237703105
31
0.000000000000000
  0
LINE
  5
F102D2
330
F102D3
100
AcDbEntity
8
Geo
100
AcDbLine
10
-91.3030738426628
20
3.29420237703105
30
0.000000000000000
11
-91.2030738426628
21
2.92263217087822
31
0.000000000000000
  0
LINE
  5
F102D4
330
F102D5
100
AcDbEntity
8
Geo
100
AcDbLine
10
-91.2030738426628
20
2.92263217087822
30
0.000000000000000
11
-91.1030738426628
21
2.55519778992664
31
0.000000000000000
  0
LINE
  5
F102D6
330
F102D7
100
AcDbEntity
8
Geo
100
AcDbLine
10
-91.1030738426628
20
2.55519778992664
30
0.000000000000000
11
-91.0030738426628
21
2.19244351420730
31
0.000000000000000
  0
LINE
  5
F102D8
330
F102D9
100
AcDbEntity
8
Geo
100
AcDbLine
10
-91.0030738426628
20
2.19244351420730
30
0.000000000000000
11
-90.9030738426628
21
1.83490669111792
31
0.000000000000000
  0
LINE
  5
F102DA
330
F102DB
100
AcDbEntity
8
Geo
100
AcDbLine
10
-90.9030738426628
20
1.83490669111792
30
0.000000000000000
11
-90.8030738426628
21
1.48311693945096
31
0.000000000000000
  0
LINE
  5
F102DC
330
F102DD
100
AcDbEntity
8
Geo
100
AcDbLine
10
-90.8030738426628
20
1.48311693945096
30
0.000000000000000
11
-90.7030738426628
21
1.13759536487009
31
0.000000000000000
  0
LINE
  5
F102DE
330
F102DF
100
AcDbEntity
8
Geo
100
AcDbLine
10
-90.7030738426628
20
1.13759536487009
30
0.000000000000000
11
-90.6030738426628
21
0.798853787997107
31
0.000000000000000
  0
LINE
  5
F102E0
330
F102E1
100
AcDbEntity
8
Geo
100
AcDbLine
10
-90.6030738426628
20
0.798853787997107
30
0.000000000000000
11
-90.5030738426628
21
0.467393986252728
31
0.000000000000000
  0
LINE
  5
F102E2
330
F102E3
100
AcDbEntity
8
Geo
100
AcDbLine
10
-90.5030738426628
20
0.467393986252728
30
0.000000000000000
11
-90.4030738426628
21
0.143706950574440
31
0.000000000000000
  0
LINE
  5
F102E4
330
F102E5
100
AcDbEntity
8
Geo
100
AcDbLine
10
-90.4030738426628
20
0.143706950574440
30
0.000000000000000
11
-90.3030738426628
21
-0.171727841887701
31
0.000000000000000
  0
LINE
  5
F102E6
330
F102E7
100
AcDbEntity
8
Geo
100
AcDbLine
10
-90.3030738426628
20
-0.171727841887701
30
0.000000000000000
11
-90.2030738426628
21
-0.478443138019889
31
0.000000000000000
  0
LINE
  5
F102E8
330
F102E9
100
AcDbEntity
8
Geo
100
AcDbLine
10
-90.2030738426628
20
-0.478443138019889
30
0.000000000000000
11
-90.1030738426628
21
-0.775984600885953
31
0.000000000000000
  0
LINE
  5
F102EA
330
F102EB
100
AcDbEntity
8
Geo
100
AcDbLine
10
-90.1030738426628
20
-0.775984600885953
30
0.000000000000000
11
-90.0030738426628
21
-1.06391148273602
31
0.000000000000000
  0
LINE
  5
F102EC
330
F102ED
100
AcDbEntity
8
Geo
100
AcDbLine
10
-90.0030738426628
20
-1.06391148273602
30
0.000000000000000
11
-89.9030738426628
21
-1.34179727788552
31
0.000000000000000
  0
LINE
  5
F102EE
330
F102EF
100
AcDbEntity
8
Geo
100
AcDbLine
10
-89.9030738426628
20
-1.34179727788552
30
0.000000000000000
11
-89.8030738426628
21
-1.60923035449750
31
0.000000000000000
  0
LINE
  5
F102F0
330
F102F1
100
AcDbEntity
8
Geo
100
AcDbLine
10
-89.8030738426628
20
-1.60923035449750
30
0.000000000000000
11
-89.7030738426628
21
-1.86581456433222
31
0.000000000000000
  0
LINE
  5
F102F2
330
F102F3
100
AcDbEntity
8
Geo
100
AcDbLine
10
-89.7030738426628
20
-1.86581456433222
30
0.000000000000000
11
-89.6030738426628
21
-2.11116982956105
31
0.000000000000000
  0
LINE
  5
F102F4
330
F102F5
100
AcDbEntity
8
Geo
100
AcDbLine
10
-89.6030738426628
20
-2.11116982956105
30
0.000000000000000
11
-89.5030738426628
21
-2.34493270577516
31
0.000000000000000
  0
LINE
  5
F102F6
330
F102F7
100
AcDbEntity
8
Geo
100
AcDbLine
10
-89.5030738426628
20
-2.34493270577516
30
0.000000000000000
11
-89.4030738426628
21
-2.56675692035525
31
0.000000000000000
  0
LINE
  5
F102F8
330
F102F9
100
AcDbEntity
8
Geo
100
AcDbLine
10
-89.4030738426628
20
-2.56675692035525
30
0.000000000000000
11
-89.3030738426628
21
-2.77631388540471
31
0.000000000000000
  0
LINE
  5
F102FA
330
F102FB
100
AcDbEntity
8
Geo
100
AcDbLine
10
-89.3030738426628
20
-2.77631388540471
30
0.000000000000000
11
-89.2030738426628
21
-2.97329318448634
31
0.000000000000000
  0
LINE
  5
F102FC
330
F102FD
100
AcDbEntity
8
Geo
100
AcDbLine
10
-89.2030738426628
20
-2.97329318448634
30
0.000000000000000
11
-89.1030738426628
21
-3.15740303244185
31
0.000000000000000
  0
LINE
  5
F102FE
330
F102FF
100
AcDbEntity
8
Geo
100
AcDbLine
10
-89.1030738426628
20
-3.15740303244185
30
0.000000000000000
11
-89.0030738426628
21
-3.32837070761277
31
0.000000000000000
  0
LINE
  5
F10300
330
F10301
100
AcDbEntity
8
Geo
100
AcDbLine
10
-89.0030738426628
20
-3.32837070761277
30
0.000000000000000
11
-88.9030738426628
21
-3.48594295582266
31
0.000000000000000
  0
LINE
  5
F10302
330
F10303
100
AcDbEntity
8
Geo
100
AcDbLine
10
-88.9030738426628
20
-3.48594295582266
30
0.000000000000000
11
-88.8030738426628
21
-3.62988636552219
31
0.000000000000000
  0
LINE
  5
F10304
330
F10305
100
AcDbEntity
8
Geo
100
AcDbLine
10
-88.8030738426628
20
-3.62988636552219
30
0.000000000000000
11
-88.7030738426628
21
-3.75998771354129
31
0.000000000000000
  0
LINE
  5
F10306
330
F10307
100
AcDbEntity
8
Geo
100
AcDbLine
10
-88.7030738426628
20
-3.75998771354129
30
0.000000000000000
11
-88.6030738426628
21
-3.87605428093640
31
0.000000000000000
  0
LINE
  5
F10308
330
F10309
100
AcDbEntity
8
Geo
100
AcDbLine
10
-88.6030738426628
20
-3.87605428093640
30
0.000000000000000
11
-88.5030738426628
21
-3.97791413846469
31
0.000000000000000
  0
LINE
  5
F1030A
330
F1030B
100
AcDbEntity
8
Geo
100
AcDbLine
10
-88.5030738426628
20
-3.97791413846469
30
0.000000000000000
11
-88.4030738426628
21
-4.06541640126267
31
0.000000000000000
  0
LINE
  5
F1030C
330
F1030D
100
AcDbEntity
8
Geo
100
AcDbLine
10
-88.4030738426628
20
-4.06541640126267
30
0.000000000000000
11
-88.3030738426628
21
-4.13843145235171
31
0.000000000000000
  0
LINE
  5
F1030E
330
F1030F
100
AcDbEntity
8
Geo
100
AcDbLine
10
-88.3030738426628
20
-4.13843145235171
30
0.000000000000000
11
-88.2030738426628
21
-4.19685113463946
31
0.000000000000000
  0
LINE
  5
F10310
330
F10311
100
AcDbEntity
8
Geo
100
AcDbLine
10
-88.2030738426628
20
-4.19685113463946
30
0.000000000000000
11
-88.1030738426628
21
-4.24058891113283
31
0.000000000000000
  0
LINE
  5
F10312
330
F10313
100
AcDbEntity
8
Geo
100
AcDbLine
10
-88.1030738426628
20
-4.24058891113283
30
0.000000000000000
11
-88.0030738426628
21
-4.26957999312510
31
0.000000000000000
  0
LINE
  5
F10314
330
F10315
100
AcDbEntity
8
Geo
100
AcDbLine
10
-88.0030738426628
20
-4.26957999312510
30
0.000000000000000
11
-87.9030738426628
21
-4.28378143616734
31
0.000000000000000
  0
LINE
  5
F10316
330
F10317
100
AcDbEntity
8
Geo
100
AcDbLine
10
-79.7030738426628
20
15.7146116347478
30
0.000000000000000
11
-79.6030738426628
21
15.7083877812536
31
0.000000000000000
  0
LINE
  5
F10318
330
F10319
100
AcDbEntity
8
Geo
100
AcDbLine
10
-79.6030738426628
20
15.7083877812536
30
0.000000000000000
11
-79.5030738426628
21
15.6873602311829
31
0.000000000000000
  0
LINE
  5
F1031A
330
F1031B
100
AcDbEntity
8
Geo
100
AcDbLine
10
-79.5030738426628
20
15.6873602311829
30
0.000000000000000
11
-79.4030738426628
21
15.6515601326160
31
0.000000000000000
  0
LINE
  5
F1031C
330
F1031D
100
AcDbEntity
8
Geo
100
AcDbLine
10
-79.4030738426628
20
15.6515601326160
30
0.000000000000000
11
-79.3030738426628
21
15.6010405161884
31
0.000000000000000
  0
LINE
  5
F1031E
330
F1031F
100
AcDbEntity
8
Geo
100
AcDbLine
10
-79.3030738426628
20
15.6010405161884
30
0.000000000000000
11
-79.2030738426628
21
15.5358762165370
31
0.000000000000000
  0
LINE
  5
F10320
330
F10321
100
AcDbEntity
8
Geo
100
AcDbLine
10
-79.2030738426628
20
15.5358762165370
30
0.000000000000000
11
-79.1030738426628
21
15.4561637614469
31
0.000000000000000
  0
LINE
  5
F10322
330
F10323
100
AcDbEntity
8
Geo
100
AcDbLine
10
-79.1030738426628
20
15.4561637614469
30
0.000000000000000
11
-79.0030738426628
21
15.3620212288656
31
0.000000000000000
  0
LINE
  5
F10324
330
F10325
100
AcDbEntity
8
Geo
100
AcDbLine
10
-79.0030738426628
20
15.3620212288656
30
0.000000000000000
11
-78.9030738426628
21
15.2535880719940
31
0.000000000000000
  0
LINE
  5
F10326
330
F10327
100
AcDbEntity
8
Geo
100
AcDbLine
10
-78.9030738426628
20
15.2535880719940
30
0.000000000000000
11
-78.8030738426628
21
15.1310249127147
31
0.000000000000000
  0
LINE
  5
F10328
330
F10329
100
AcDbEntity
8
Geo
100
AcDbLine
10
-78.8030738426628
20
15.1310249127147
30
0.000000000000000
11
-78.7030738426628
21
14.9945133036628
31
0.000000000000000
  0
LINE
  5
F1032A
330
F1032B
100
AcDbEntity
8
Geo
100
AcDbLine
10
-78.7030738426628
20
14.9945133036628
30
0.000000000000000
11
-78.6030738426628
21
14.8442554592927
31
0.000000000000000
  0
LINE
  5
F1032C
330
F1032D
100
AcDbEntity
8
Geo
100
AcDbLine
10
-78.6030738426628
20
14.8442554592927
30
0.000000000000000
11
-78.5030738426628
21
14.6804739563376
31
0.000000000000000
  0
LINE
  5
F1032E
330
F1032F
100
AcDbEntity
8
Geo
100
AcDbLine
10
-78.5030738426628
20
14.6804739563376
30
0.000000000000000
11
-78.4030738426628
21
14.5034114041070
31
0.000000000000000
  0
LINE
  5
F10330
330
F10331
100
AcDbEntity
8
Geo
100
AcDbLine
10
-78.4030738426628
20
14.5034114041070
30
0.000000000000000
11
-78.3030738426628
21
14.3133300851103
31
0.000000000000000
  0
LINE
  5
F10332
330
F10333
100
AcDbEntity
8
Geo
100
AcDbLine
10
-78.3030738426628
20
14.3133300851103
30
0.000000000000000
11
-78.2030738426628
21
14.1105115665376
31
0.000000000000000
  0
LINE
  5
F10334
330
F10335
100
AcDbEntity
8
Geo
100
AcDbLine
10
-78.2030738426628
20
14.1105115665376
30
0.000000000000000
11
-78.1030738426628
21
13.8952562831747
31
0.000000000000000
  0
LINE
  5
F10336
330
F10337
100
AcDbEntity
8
Geo
100
AcDbLine
10
-78.1030738426628
20
13.8952562831747
30
0.000000000000000
11
-78.0030738426628
21
13.6678830923697
31
0.000000000000000
  0
LINE
  5
F10338
330
F10339
100
AcDbEntity
8
Geo
100
AcDbLine
10
-78.0030738426628
20
13.6678830923697
30
0.000000000000000
11
-77.9030738426628
21
13.4287288017099
31
0.000000000000000
  0
LINE
  5
F1033A
330
F1033B
100
AcDbEntity
8
Geo
100
AcDbLine
10
-77.9030738426628
20
13.4287288017099
30
0.000000000000000
11
-77.8030738426628
21
13.1781476701094
31
0.000000000000000
  0
LINE
  5
F1033C
330
F1033D
100
AcDbEntity
8
Geo
100
AcDbLine
10
-77.8030738426628
20
13.1781476701094
30
0.000000000000000
11
-77.7030738426628
21
12.9165108830452
31
0.000000000000000
  0
LINE
  5
F1033E
330
F1033F
100
AcDbEntity
8
Geo
100
AcDbLine
10
-77.7030738426628
20
12.9165108830452
30
0.000000000000000
11
-77.6030738426628
21
12.6442060027218
31
0.000000000000000
  0
LINE
  5
F10340
330
F10341
100
AcDbEntity
8
Geo
100
AcDbLine
10
-77.6030738426628
20
12.6442060027218
30
0.000000000000000
11
-77.5030738426628
21
12.3616363939746
31
0.000000000000000
  0
LINE
  5
F10342
330
F10343
100
AcDbEntity
8
Geo
100
AcDbLine
10
-77.5030738426628
20
12.3616363939746
30
0.000000000000000
11
-77.4030738426628
21
12.0692206267673
31
0.000000000000000
  0
LINE
  5
F10344
330
F10345
100
AcDbEntity
8
Geo
100
AcDbLine
10
-77.4030738426628
20
12.0692206267673
30
0.000000000000000
11
-77.3030738426628
21
11.7673918561638
31
0.000000000000000
  0
LINE
  5
F10346
330
F10347
100
AcDbEntity
8
Geo
100
AcDbLine
10
-77.3030738426628
20
11.7673918561638
30
0.000000000000000
11
-77.2030738426628
21
11.4565971806971
31
0.000000000000000
  0
LINE
  5
F10348
330
F10349
100
AcDbEntity
8
Geo
100
AcDbLine
10
-77.2030738426628
20
11.4565971806971
30
0.000000000000000
11
-77.1030738426628
21
11.0983969122873
31
0.000000000000000
  0
LINE
  5
F1034A
330
F1034B
100
AcDbEntity
8
Geo
100
AcDbLine
10
-77.1030738426628
20
11.0983969122873
30
0.000000000000000
11
-77.0030738426628
21
10.7374260565385
31
0.000000000000000
  0
LINE
  5
F1034C
330
F1034D
100
AcDbEntity
8
Geo
100
AcDbLine
10
-77.0030738426628
20
10.7374260565385
30
0.000000000000000
11
-76.9030738426628
21
10.3748818199692
31
0.000000000000000
  0
LINE
  5
F1034E
330
F1034F
100
AcDbEntity
8
Geo
100
AcDbLine
10
-76.9030738426628
20
10.3748818199692
30
0.000000000000000
11
-76.8030738426628
21
10.0118903318221
31
0.000000000000000
  0
LINE
  5
F10350
330
F10351
100
AcDbEntity
8
Geo
100
AcDbLine
10
-76.8030738426628
20
10.0118903318221
30
0.000000000000000
11
-76.7030738426628
21
9.64950648865221
31
0.000000000000000
  0
LINE
  5
F10352
330
F10353
100
AcDbEntity
8
Geo
100
AcDbLine
10
-76.7030738426628
20
9.64950648865221
30
0.000000000000000
11
-76.6030738426628
21
9.28871426056361
31
0.000000000000000
  0
LINE
  5
F10354
330
F10355
100
AcDbEntity
8
Geo
100
AcDbLine
10
-76.6030738426628
20
9.28871426056361
30
0.000000000000000
11
-76.5030738426628
21
8.93042741434157
31
0.000000000000000
  0
LINE
  5
F10356
330
F10357
100
AcDbEntity
8
Geo
100
AcDbLine
10
-76.5030738426628
20
8.93042741434157
30
0.000000000000000
11
-76.4030738426628
21
8.57549061000817
31
0.000000000000000
  0
LINE
  5
F10358
330
F10359
100
AcDbEntity
8
Geo
100
AcDbLine
10
-76.4030738426628
20
8.57549061000817
30
0.000000000000000
11
-76.3030738426628
21
8.22468082885525
31
0.000000000000000
  0
LINE
  5
F1035A
330
F1035B
100
AcDbEntity
8
Geo
100
AcDbLine
10
-76.3030738426628
20
8.22468082885525
30
0.000000000000000
11
-76.2030738426628
21
7.87870909273137
31
0.000000000000000
  0
LINE
  5
F1035C
330
F1035D
100
AcDbEntity
8
Geo
100
AcDbLine
10
-76.2030738426628
20
7.87870909273137
30
0.000000000000000
11
-76.1030738426628
21
7.53822243624375
31
0.000000000000000
  0
LINE
  5
F1035E
330
F1035F
100
AcDbEntity
8
Geo
100
AcDbLine
10
-76.1030738426628
20
7.53822243624375
30
0.000000000000000
11
-76.0030738426628
21
7.20380609554254
31
0.000000000000000
  0
LINE
  5
F10360
330
F10361
100
AcDbEntity
8
Geo
100
AcDbLine
10
-76.0030738426628
20
7.20380609554254
30
0.000000000000000
11
-75.9030738426628
21
6.87598587945226
31
0.000000000000000
  0
LINE
  5
F10362
330
F10363
100
AcDbEntity
8
Geo
100
AcDbLine
10
-75.9030738426628
20
6.87598587945226
30
0.000000000000000
11
-75.8030738426628
21
6.55523069087081
31
0.000000000000000
  0
LINE
  5
F10364
330
F10365
100
AcDbEntity
8
Geo
100
AcDbLine
10
-75.8030738426628
20
6.55523069087081
30
0.000000000000000
11
-75.7030738426627
21
6.24195516854549
31
0.000000000000000
  0
LINE
  5
F10366
330
F10367
100
AcDbEntity
8
Geo
100
AcDbLine
10
-75.7030738426627
20
6.24195516854549
30
0.000000000000000
11
-75.6030738426628
21
5.93652242153126
31
0.000000000000000
  0
LINE
  5
F10368
330
F10369
100
AcDbEntity
8
Geo
100
AcDbLine
10
-75.6030738426628
20
5.93652242153126
30
0.000000000000000
11
-75.5030738426628
21
5.63924683081909
31
0.000000000000000
  0
LINE
  5
F1036A
330
F1036B
100
AcDbEntity
8
Geo
100
AcDbLine
10
-75.5030738426628
20
5.63924683081909
30
0.000000000000000
11
-75.4030738426627
21
5.35039689477221
31
0.000000000000000
  0
LINE
  5
F1036C
330
F1036D
100
AcDbEntity
8
Geo
100
AcDbLine
10
-75.4030738426627
20
5.35039689477221
30
0.000000000000000
11
-75.3030738426627
21
5.07019809710909
31
0.000000000000000
  0
LINE
  5
F1036E
330
F1036F
100
AcDbEntity
8
Geo
100
AcDbLine
10
-75.3030738426627
20
5.07019809710909
30
0.000000000000000
11
-75.2030738426627
21
4.79883577821068
31
0.000000000000000
  0
LINE
  5
F10370
330
F10371
100
AcDbEntity
8
Geo
100
AcDbLine
10
-75.2030738426627
20
4.79883577821068
30
0.000000000000000
11
-75.1030738426628
21
4.53645799249375
31
0.000000000000000
  0
LINE
  5
F10372
330
F10373
100
AcDbEntity
8
Geo
100
AcDbLine
10
-75.1030738426628
20
4.53645799249375
30
0.000000000000000
11
-75.0030738426627
21
4.28317833647285
31
0.000000000000000
  0
LINE
  5
F10374
330
F10375
100
AcDbEntity
8
Geo
100
AcDbLine
10
-75.0030738426627
20
4.28317833647285
30
0.000000000000000
11
-74.9030738426627
21
4.03907873392337
31
0.000000000000000
  0
LINE
  5
F10376
330
F10377
100
AcDbEntity
8
Geo
100
AcDbLine
10
-74.9030738426627
20
4.03907873392337
30
0.000000000000000
11
-74.8030738426627
21
3.80421216625011
31
0.000000000000000
  0
LINE
  5
F10378
330
F10379
100
AcDbEntity
8
Geo
100
AcDbLine
10
-74.8030738426627
20
3.80421216625011
30
0.000000000000000
11
-74.7030738426627
21
3.57860533775789
31
0.000000000000000
  0
LINE
  5
F1037A
330
F1037B
100
AcDbEntity
8
Geo
100
AcDbLine
10
-74.7030738426627
20
3.57860533775789
30
0.000000000000000
11
-74.6030738426627
21
3.36226126700766
31
0.000000000000000
  0
LINE
  5
F1037C
330
F1037D
100
AcDbEntity
8
Geo
100
AcDbLine
10
-74.6030738426627
20
3.36226126700766
30
0.000000000000000
11
-74.5030738426627
21
3.15516179682358
31
0.000000000000000
  0
LINE
  5
F1037E
330
F1037F
100
AcDbEntity
8
Geo
100
AcDbLine
10
-74.5030738426627
20
3.15516179682358
30
0.000000000000000
11
-74.4030738426627
21
2.95727001679263
31
0.000000000000000
  0
LINE
  5
F10380
330
F10381
100
AcDbEntity
8
Geo
100
AcDbLine
10
-74.4030738426627
20
2.95727001679263
30
0.000000000000000
11
-74.3030738426627
21
2.76853259326890
31
0.000000000000000
  0
LINE
  5
F10382
330
F10383
100
AcDbEntity
8
Geo
100
AcDbLine
10
-74.3030738426627
20
2.76853259326890
30
0.000000000000000
11
-74.2030738426627
21
2.58888200296160
31
0.000000000000000
  0
LINE
  5
F10384
330
F10385
100
AcDbEntity
8
Geo
100
AcDbLine
10
-74.2030738426627
20
2.58888200296160
30
0.000000000000000
11
-74.1030738426627
21
2.41823866715090
31
0.000000000000000
  0
LINE
  5
F10386
330
F10387
100
AcDbEntity
8
Geo
100
AcDbLine
10
-74.1030738426627
20
2.41823866715090
30
0.000000000000000
11
-74.0030738426627
21
2.25651298444207
31
0.000000000000000
  0
LINE
  5
F10388
330
F10389
100
AcDbEntity
8
Geo
100
AcDbLine
10
-74.0030738426627
20
2.25651298444207
30
0.000000000000000
11
-73.9030738426627
21
2.10360726073866
31
0.000000000000000
  0
LINE
  5
F1038A
330
F1038B
100
AcDbEntity
8
Geo
100
AcDbLine
10
-73.9030738426627
20
2.10360726073866
30
0.000000000000000
11
-73.8030738426627
21
1.95941753579461
31
0.000000000000000
  0
LINE
  5
F1038C
330
F1038D
100
AcDbEntity
8
Geo
100
AcDbLine
10
-73.8030738426627
20
1.95941753579461
30
0.000000000000000
11
-73.7030738426627
21
1.82383530629549
31
0.000000000000000
  0
LINE
  5
F1038E
330
F1038F
100
AcDbEntity
8
Geo
100
AcDbLine
10
-73.7030738426627
20
1.82383530629549
30
0.000000000000000
11
-73.6030738426627
21
1.69674914592653
31
0.000000000000000
  0
LINE
  5
F10390
330
F10391
100
AcDbEntity
8
Geo
100
AcDbLine
10
-73.6030738426627
20
1.69674914592653
30
0.000000000000000
11
-73.5030738426627
21
1.57804622331293
31
0.000000000000000
  0
LINE
  5
F10392
330
F10393
100
AcDbEntity
8
Geo
100
AcDbLine
10
-73.5030738426627
20
1.57804622331293
30
0.000000000000000
11
-73.4030738426627
21
1.46761371907155
31
0.000000000000000
  0
LINE
  5
F10394
330
F10395
100
AcDbEntity
8
Geo
100
AcDbLine
10
-73.4030738426627
20
1.46761371907155
30
0.000000000000000
11
-73.3030738426627
21
1.36534014349628
31
0.000000000000000
  0
LINE
  5
F10396
330
F10397
100
AcDbEntity
8
Geo
100
AcDbLine
10
-73.3030738426627
20
1.36534014349628
30
0.000000000000000
11
-73.2030738426627
21
1.27111655661776
31
0.000000000000000
  0
LINE
  5
F10398
330
F10399
100
AcDbEntity
8
Geo
100
AcDbLine
10
-73.2030738426627
20
1.27111655661776
30
0.000000000000000
11
-73.1030738426627
21
1.18483769253578
31
0.000000000000000
  0
LINE
  5
F1039A
330
F1039B
100
AcDbEntity
8
Geo
100
AcDbLine
10
-73.1030738426627
20
1.18483769253578
30
0.000000000000000
11
-73.0030738426627
21
1.10640299002382
31
0.000000000000000
  0
LINE
  5
F1039C
330
F1039D
100
AcDbEntity
8
Geo
100
AcDbLine
10
-73.0030738426627
20
1.10640299002382
30
0.000000000000000
11
-72.9030738426627
21
1.03571753145564
31
0.000000000000000
  0
LINE
  5
F1039E
330
F1039F
100
AcDbEntity
8
Geo
100
AcDbLine
10
-72.9030738426627
20
1.03571753145564
30
0.000000000000000
11
-72.8030738426627
21
0.972692892106563
31
0.000000000000000
  0
LINE
  5
F103A0
330
F103A1
100
AcDbEntity
8
Geo
100
AcDbLine
10
-72.8030738426627
20
0.972692892106563
30
0.000000000000000
11
-72.7030738426627
21
0.917247901842186
31
0.000000000000000
  0
LINE
  5
F103A2
330
F103A3
100
AcDbEntity
8
Geo
100
AcDbLine
10
-72.7030738426627
20
0.917247901842186
30
0.000000000000000
11
-72.6030738426627
21
0.869309321129281
31
0.000000000000000
  0
LINE
  5
F103A4
330
F103A5
100
AcDbEntity
8
Geo
100
AcDbLine
10
-72.6030738426627
20
0.869309321129281
30
0.000000000000000
11
-72.5030738426627
21
0.828812433190638
31
0.000000000000000
  0
LINE
  5
F103A6
330
F103A7
100
AcDbEntity
8
Geo
100
AcDbLine
10
-72.5030738426627
20
0.828812433190638
30
0.000000000000000
11
-72.4030738426627
21
0.795701553982595
31
0.000000000000000
  0
LINE
  5
F103A8
330
F103A9
100
AcDbEntity
8
Geo
100
AcDbLine
10
-72.4030738426627
20
0.795701553982595
30
0.000000000000000
11
-72.3030738426627
21
0.769930461504318
31
0.000000000000000
  0
LINE
  5
F103AA
330
F103AB
100
AcDbEntity
8
Geo
100
AcDbLine
10
-72.3030738426627
20
0.769930461504318
30
0.000000000000000
11
-72.2030738426628
21
0.751462745755425
31
0.000000000000000
  0
LINE
  5
F103AC
330
F103AD
100
AcDbEntity
8
Geo
100
AcDbLine
10
-95.2030738426628
20
5.71465885935171
30
0.000000000000000
11
-95.1030738426628
21
5.33754981292213
31
0.000000000000000
  0
LINE
  5
F103AE
330
F103AF
100
AcDbEntity
8
Geo
100
AcDbLine
10
-95.1030738426628
20
5.33754981292213
30
0.000000000000000
11
-95.0030738426628
21
4.95330897471679
31
0.000000000000000
  0
LINE
  5
F103B0
330
F103B1
100
AcDbEntity
8
Geo
100
AcDbLine
10
-95.0030738426628
20
4.95330897471679
30
0.000000000000000
11
-94.9030738426628
21
4.56733190876785
31
0.000000000000000
  0
LINE
  5
F103B2
330
F103B3
100
AcDbEntity
8
Geo
100
AcDbLine
10
-94.9030738426628
20
4.56733190876785
30
0.000000000000000
11
-94.8030738426628
21
4.18268248544633
31
0.000000000000000
  0
LINE
  5
F103B4
330
F103B5
100
AcDbEntity
8
Geo
100
AcDbLine
10
-94.8030738426628
20
4.18268248544633
30
0.000000000000000
11
-94.7030738426628
21
3.80201561728686
31
0.000000000000000
  0
LINE
  5
F103B6
330
F103B7
100
AcDbEntity
8
Geo
100
AcDbLine
10
-94.7030738426628
20
3.80201561728686
30
0.000000000000000
11
-94.6030738426628
21
3.42573112026691
31
0.000000000000000
  0
LINE
  5
F103B8
330
F103B9
100
AcDbEntity
8
Geo
100
AcDbLine
10
-94.6030738426628
20
3.42573112026691
30
0.000000000000000
11
-94.5030738426628
21
3.05283720868305
31
0.000000000000000
  0
LINE
  5
F103BA
330
F103BB
100
AcDbEntity
8
Geo
100
AcDbLine
10
-94.5030738426628
20
3.05283720868305
30
0.000000000000000
11
-94.4030738426628
21
2.68388624976133
31
0.000000000000000
  0
LINE
  5
F103BC
330
F103BD
100
AcDbEntity
8
Geo
100
AcDbLine
10
-94.4030738426628
20
2.68388624976133
30
0.000000000000000
11
-94.3030738426628
21
2.31942477003755
31
0.000000000000000
  0
LINE
  5
F103BE
330
F103BF
100
AcDbEntity
8
Geo
100
AcDbLine
10
-94.3030738426628
20
2.31942477003755
30
0.000000000000000
11
-94.2030738426628
21
1.95999264578830
31
0.000000000000000
  0
LINE
  5
F103C0
330
F103C1
100
AcDbEntity
8
Geo
100
AcDbLine
10
-94.2030738426628
20
1.95999264578830
30
0.000000000000000
11
-94.1030738426628
21
1.60612230331300
31
0.000000000000000
  0
LINE
  5
F103C2
330
F103C3
100
AcDbEntity
8
Geo
100
AcDbLine
10
-94.1030738426628
20
1.60612230331300
30
0.000000000000000
11
-94.0030738426628
21
1.25833793025155
31
0.000000000000000
  0
LINE
  5
F103C4
330
F103C5
100
AcDbEntity
8
Geo
100
AcDbLine
10
-94.0030738426628
20
1.25833793025155
30
0.000000000000000
11
-93.9030738426628
21
0.917154699105942
31
0.000000000000000
  0
LINE
  5
F103C6
330
F103C7
100
AcDbEntity
8
Geo
100
AcDbLine
10
-93.9030738426628
20
0.917154699105942
30
0.000000000000000
11
-93.8030738426628
21
0.583078004115935
31
0.000000000000000
  0
LINE
  5
F103C8
330
F103C9
100
AcDbEntity
8
Geo
100
AcDbLine
10
-93.8030738426628
20
0.583078004115935
30
0.000000000000000
11
-93.7030738426628
21
0.256602712619285
31
0.000000000000000
  0
LINE
  5
F103CA
330
F103CB
100
AcDbEntity
8
Geo
100
AcDbLine
10
-93.7030738426628
20
0.256602712619285
30
0.000000000000000
11
-93.6030738426628
21
-0.0617875679945232
31
0.000000000000000
  0
LINE
  5
F103CC
330
F103CD
100
AcDbEntity
8
Geo
100
AcDbLine
10
-93.6030738426628
20
-0.0617875679945232
30
0.000000000000000
11
-93.5030738426628
21
-0.371621206651255
31
0.000000000000000
  0
LINE
  5
F103CE
330
F103CF
100
AcDbEntity
8
Geo
100
AcDbLine
10
-93.5030738426628
20
-0.371621206651255
30
0.000000000000000
11
-93.4030738426628
21
-0.672439247218350
31
0.000000000000000
  0
LINE
  5
F103D0
330
F103D1
100
AcDbEntity
8
Geo
100
AcDbLine
10
-93.4030738426628
20
-0.672439247218350
30
0.000000000000000
11
-93.3030738426628
21
-0.963796088355990
31
0.000000000000000
  0
LINE
  5
F103D2
330
F103D3
100
AcDbEntity
8
Geo
100
AcDbLine
10
-93.3030738426628
20
-0.963796088355990
30
0.000000000000000
11
-93.2030738426628
21
-1.24526014358576
31
0.000000000000000
  0
LINE
  5
F103D4
330
F103D5
100
AcDbEntity
8
Geo
100
AcDbLine
10
-93.2030738426628
20
-1.24526014358576
30
0.000000000000000
11
-93.1030738426628
21
-1.51641448059908
31
0.000000000000000
  0
LINE
  5
F103D6
330
F103D7
100
AcDbEntity
8
Geo
100
AcDbLine
10
-93.1030738426628
20
-1.51641448059908
30
0.000000000000000
11
-93.0030738426628
21
-1.77685743885842
31
0.000000000000000
  0
LINE
  5
F103D8
330
F103D9
100
AcDbEntity
8
Geo
100
AcDbLine
10
-93.0030738426628
20
-1.77685743885842
30
0.000000000000000
11
-92.9030738426628
21
-2.02620322457654
31
0.000000000000000
  0
LINE
  5
F103DA
330
F103DB
100
AcDbEntity
8
Geo
100
AcDbLine
10
-92.9030738426628
20
-2.02620322457654
30
0.000000000000000
11
-92.8030738426628
21
-2.26408248219224
31
0.000000000000000
  0
LINE
  5
F103DC
330
F103DD
100
AcDbEntity
8
Geo
100
AcDbLine
10
-92.8030738426628
20
-2.26408248219224
30
0.000000000000000
11
-92.7030738426628
21
-2.49014284149624
31
0.000000000000000
  0
LINE
  5
F103DE
330
F103DF
100
AcDbEntity
8
Geo
100
AcDbLine
10
-92.7030738426628
20
-2.49014284149624
30
0.000000000000000
11
-92.6030738426628
21
-2.70404943959671
31
0.000000000000000
  0
LINE
  5
F103E0
330
F103E1
100
AcDbEntity
8
Geo
100
AcDbLine
10
-92.6030738426628
20
-2.70404943959671
30
0.000000000000000
11
-92.5030738426628
21
-2.90548541695116
31
0.000000000000000
  0
LINE
  5
F103E2
330
F103E3
100
AcDbEntity
8
Geo
100
AcDbLine
10
-92.5030738426628
20
-2.90548541695116
30
0.000000000000000
11
-92.4030738426628
21
-3.09415238673002
31
0.000000000000000
  0
LINE
  5
F103E4
330
F103E5
100
AcDbEntity
8
Geo
100
AcDbLine
10
-92.4030738426628
20
-3.09415238673002
30
0.000000000000000
11
-92.3030738426628
21
-3.26977087681671
31
0.000000000000000
  0
LINE
  5
F103E6
330
F103E7
100
AcDbEntity
8
Geo
100
AcDbLine
10
-92.3030738426628
20
-3.26977087681671
30
0.000000000000000
11
-92.2030738426628
21
-3.43208074378919
31
0.000000000000000
  0
LINE
  5
F103E8
330
F103E9
100
AcDbEntity
8
Geo
100
AcDbLine
10
-92.2030738426628
20
-3.43208074378919
30
0.000000000000000
11
-92.1030738426628
21
-3.58084155827013
31
0.000000000000000
  0
LINE
  5
F103EA
330
F103EB
100
AcDbEntity
8
Geo
100
AcDbLine
10
-92.1030738426628
20
-3.58084155827013
30
0.000000000000000
11
-92.0030738426628
21
-3.71583296107456
31
0.000000000000000
  0
LINE
  5
F103EC
330
F103ED
100
AcDbEntity
8
Geo
100
AcDbLine
10
-92.0030738426628
20
-3.71583296107456
30
0.000000000000000
11
-91.9030738426628
21
-3.83685498962762
31
0.000000000000000
  0
LINE
  5
F103EE
330
F103EF
100
AcDbEntity
8
Geo
100
AcDbLine
10
-91.9030738426628
20
-3.83685498962762
30
0.000000000000000
11
-91.8030738426628
21
-3.94372837416888
31
0.000000000000000
  0
LINE
  5
F103F0
330
F103F1
100
AcDbEntity
8
Geo
100
AcDbLine
10
-91.8030738426628
20
-3.94372837416888
30
0.000000000000000
11
-91.7030738426628
21
-4.03629480330433
31
0.000000000000000
  0
LINE
  5
F103F2
330
F103F3
100
AcDbEntity
8
Geo
100
AcDbLine
10
-91.7030738426628
20
-4.03629480330433
30
0.000000000000000
11
-91.6030738426628
21
-4.11441715851288
31
0.000000000000000
  0
LINE
  5
F103F4
330
F103F5
100
AcDbEntity
8
Geo
100
AcDbLine
10
-91.6030738426628
20
-4.11441715851288
30
0.000000000000000
11
-91.5030738426628
21
-4.17797971725978
31
0.000000000000000
  0
LINE
  5
F103F6
330
F103F7
100
AcDbEntity
8
Geo
100
AcDbLine
10
-91.5030738426628
20
-4.17797971725978
30
0.000000000000000
11
-91.4030738426628
21
-4.22688832441628
31
0.000000000000000
  0
LINE
  5
F103F8
330
F103F9
100
AcDbEntity
8
Geo
100
AcDbLine
10
-91.4030738426628
20
-4.22688832441628
30
0.000000000000000
11
-91.3030738426628
21
-4.26107053173149
31
0.000000000000000
  0
LINE
  5
F103FA
330
F103FB
100
AcDbEntity
8
Geo
100
AcDbLine
10
-91.3030738426628
20
-4.26107053173149
30
0.000000000000000
11
-91.2030738426628
21
-4.28047570514985
31
0.000000000000000
  0
LINE
  5
F103FC
330
F103FD
100
AcDbEntity
8
Geo
100
AcDbLine
10
-83.0030738426628
20
15.7132799635096
30
0.000000000000000
11
-82.9030738426628
21
15.7122645767878
31
0.000000000000000
  0
LINE
  5
F103FE
330
F103FF
100
AcDbEntity
8
Geo
100
AcDbLine
10
-82.9030738426628
20
15.7122645767878
30
0.000000000000000
11
-82.8030738426628
21
15.6964397507978
31
0.000000000000000
  0
LINE
  5
F10400
330
F10401
100
AcDbEntity
8
Geo
100
AcDbLine
10
-82.8030738426628
20
15.6964397507978
30
0.000000000000000
11
-82.7030738426628
21
15.6658289268320
31
0.000000000000000
  0
LINE
  5
F10402
330
F10403
100
AcDbEntity
8
Geo
100
AcDbLine
10
-82.7030738426628
20
15.6658289268320
30
0.000000000000000
11
-82.6030738426628
21
15.6204774486608
31
0.000000000000000
  0
LINE
  5
F10404
330
F10405
100
AcDbEntity
8
Geo
100
AcDbLine
10
-82.6030738426628
20
15.6204774486608
30
0.000000000000000
11
-82.5030738426628
21
15.5604524953650
31
0.000000000000000
  0
LINE
  5
F10406
330
F10407
100
AcDbEntity
8
Geo
100
AcDbLine
10
-82.5030738426628
20
15.5604524953650
30
0.000000000000000
11
-82.4030738426628
21
15.4858429818233
31
0.000000000000000
  0
LINE
  5
F10408
330
F10409
100
AcDbEntity
8
Geo
100
AcDbLine
10
-82.4030738426628
20
15.4858429818233
30
0.000000000000000
11
-82.3030738426628
21
15.3967594270031
31
0.000000000000000
  0
LINE
  5
F1040A
330
F1040B
100
AcDbEntity
8
Geo
100
AcDbLine
10
-82.3030738426628
20
15.3967594270031
30
0.000000000000000
11
-82.2030738426628
21
15.2933337902486
31
0.000000000000000
  0
LINE
  5
F1040C
330
F1040D
100
AcDbEntity
8
Geo
100
AcDbLine
10
-82.2030738426628
20
15.2933337902486
30
0.000000000000000
11
-82.1030738426628
21
15.1757192758099
31
0.000000000000000
  0
LINE
  5
F1040E
330
F1040F
100
AcDbEntity
8
Geo
100
AcDbLine
10
-82.1030738426628
20
15.1757192758099
30
0.000000000000000
11
-82.0030738426628
21
15.0440901059016
31
0.000000000000000
  0
LINE
  5
F10410
330
F10411
100
AcDbEntity
8
Geo
100
AcDbLine
10
-82.0030738426628
20
15.0440901059016
30
0.000000000000000
11
-81.9030738426628
21
14.8986412626277
31
0.000000000000000
  0
LINE
  5
F10412
330
F10413
100
AcDbEntity
8
Geo
100
AcDbLine
10
-81.9030738426628
20
14.8986412626277
30
0.000000000000000
11
-81.8030738426628
21
14.7395881991549
31
0.000000000000000
  0
LINE
  5
F10414
330
F10415
100
AcDbEntity
8
Geo
100
AcDbLine
10
-81.8030738426628
20
14.7395881991549
30
0.000000000000000
11
-81.7030738426628
21
14.5671665205620
31
0.000000000000000
  0
LINE
  5
F10416
330
F10417
100
AcDbEntity
8
Geo
100
AcDbLine
10
-81.7030738426628
20
14.5671665205620
30
0.000000000000000
11
-81.6030738426628
21
14.3816316348388
31
0.000000000000000
  0
LINE
  5
F10418
330
F10419
100
AcDbEntity
8
Geo
100
AcDbLine
10
-81.6030738426628
20
14.3816316348388
30
0.000000000000000
11
-81.5030738426628
21
14.1832583745501
31
0.000000000000000
  0
LINE
  5
F1041A
330
F1041B
100
AcDbEntity
8
Geo
100
AcDbLine
10
-81.5030738426628
20
14.1832583745501
30
0.000000000000000
11
-81.4030738426628
21
13.9723405897270
31
0.000000000000000
  0
LINE
  5
F1041C
330
F1041D
100
AcDbEntity
8
Geo
100
AcDbLine
10
-81.4030738426628
20
13.9723405897270
30
0.000000000000000
11
-81.3030738426628
21
13.7491907125871
31
0.000000000000000
  0
LINE
  5
F1041E
330
F1041F
100
AcDbEntity
8
Geo
100
AcDbLine
10
-81.3030738426628
20
13.7491907125871
30
0.000000000000000
11
-81.2030738426628
21
13.5141392947292
31
0.000000000000000
  0
LINE
  5
F10420
330
F10421
100
AcDbEntity
8
Geo
100
AcDbLine
10
-81.2030738426628
20
13.5141392947292
30
0.000000000000000
11
-81.1030738426628
21
13.2675345174873
31
0.000000000000000
  0
LINE
  5
F10422
330
F10423
100
AcDbEntity
8
Geo
100
AcDbLine
10
-81.1030738426628
20
13.2675345174873
30
0.000000000000000
11
-81.0030738426628
21
13.0097416761708
31
0.000000000000000
  0
LINE
  5
F10424
330
F10425
100
AcDbEntity
8
Geo
100
AcDbLine
10
-81.0030738426628
20
13.0097416761708
30
0.000000000000000
11
-80.9030738426628
21
12.7411426389524
31
0.000000000000000
  0
LINE
  5
F10426
330
F10427
100
AcDbEntity
8
Geo
100
AcDbLine
10
-80.9030738426628
20
12.7411426389524
30
0.000000000000000
11
-80.8030738426628
21
12.4621352812077
31
0.000000000000000
  0
LINE
  5
F10428
330
F10429
100
AcDbEntity
8
Geo
100
AcDbLine
10
-80.8030738426628
20
12.4621352812077
30
0.000000000000000
11
-80.7030738426628
21
12.1731328961426
31
0.000000000000000
  0
LINE
  5
F1042A
330
F1042B
100
AcDbEntity
8
Geo
100
AcDbLine
10
-80.7030738426628
20
12.1731328961426
30
0.000000000000000
11
-80.6030738426628
21
11.8745635825832
31
0.000000000000000
  0
LINE
  5
F1042C
330
F1042D
100
AcDbEntity
8
Geo
100
AcDbLine
10
-80.6030738426628
20
11.8745635825832
30
0.000000000000000
11
-80.5030738426628
21
11.5668696108330
31
0.000000000000000
  0
LINE
  5
F1042E
330
F1042F
100
AcDbEntity
8
Geo
100
AcDbLine
10
-80.5030738426628
20
11.5668696108330
30
0.000000000000000
11
-80.4030738426628
21
11.2505067675392
31
0.000000000000000
  0
LINE
  5
F10430
330
F10431
100
AcDbEntity
8
Geo
100
AcDbLine
10
-80.4030738426628
20
11.2505067675392
30
0.000000000000000
11
-80.3030738426628
21
10.9259436805358
31
0.000000000000000
  0
LINE
  5
F10432
330
F10433
100
AcDbEntity
8
Geo
100
AcDbLine
10
-80.3030738426628
20
10.9259436805358
30
0.000000000000000
11
-80.2030738426628
21
10.5936611246666
31
0.000000000000000
  0
LINE
  5
F10434
330
F10435
100
AcDbEntity
8
Geo
100
AcDbLine
10
-80.2030738426628
20
10.5936611246666
30
0.000000000000000
11
-80.1030738426628
21
10.2541513096135
31
0.000000000000000
  0
LINE
  5
F10436
330
F10437
100
AcDbEntity
8
Geo
100
AcDbLine
10
-80.1030738426628
20
10.2541513096135
30
0.000000000000000
11
-80.0030738426628
21
9.90791715078746
31
0.000000000000000
  0
LINE
  5
F10438
330
F10439
100
AcDbEntity
8
Geo
100
AcDbLine
10
-80.0030738426628
20
9.90791715078746
30
0.000000000000000
11
-79.9030738426628
21
9.55547152436022
31
0.000000000000000
  0
LINE
  5
F1043A
330
F1043B
100
AcDbEntity
8
Geo
100
AcDbLine
10
-79.9030738426628
20
9.55547152436022
30
0.000000000000000
11
-79.8030738426628
21
9.19733650754183
31
0.000000000000000
  0
LINE
  5
F1043C
330
F1043D
100
AcDbEntity
8
Geo
100
AcDbLine
10
-79.8030738426628
20
9.19733650754183
30
0.000000000000000
11
-79.7030738426628
21
8.83404260522831
31
0.000000000000000
  0
LINE
  5
F1043E
330
F1043F
100
AcDbEntity
8
Geo
100
AcDbLine
10
-79.7030738426628
20
8.83404260522831
30
0.000000000000000
11
-79.6030738426628
21
8.46612796416547
31
0.000000000000000
  0
LINE
  5
F10440
330
F10441
100
AcDbEntity
8
Geo
100
AcDbLine
10
-79.6030738426628
20
8.46612796416547
30
0.000000000000000
11
-79.5030738426628
21
8.09413757579294
31
0.000000000000000
  0
LINE
  5
F10442
330
F10443
100
AcDbEntity
8
Geo
100
AcDbLine
10
-79.5030738426628
20
8.09413757579294
30
0.000000000000000
11
-79.4030738426628
21
7.71862246894909
31
0.000000000000000
  0
LINE
  5
F10444
330
F10445
100
AcDbEntity
8
Geo
100
AcDbLine
10
-79.4030738426628
20
7.71862246894909
30
0.000000000000000
11
-79.3030738426628
21
7.34013889363279
31
0.000000000000000
  0
LINE
  5
F10446
330
F10447
100
AcDbEntity
8
Geo
100
AcDbLine
10
-79.3030738426628
20
7.34013889363279
30
0.000000000000000
11
-79.2030738426628
21
6.95924749703109
31
0.000000000000000
  0
LINE
  5
F10448
330
F10449
100
AcDbEntity
8
Geo
100
AcDbLine
10
-79.2030738426628
20
6.95924749703109
30
0.000000000000000
11
-79.1030738426628
21
6.57651249303332
31
0.000000000000000
  0
LINE
  5
F1044A
330
F1044B
100
AcDbEntity
8
Geo
100
AcDbLine
10
-79.1030738426628
20
6.57651249303332
30
0.000000000000000
11
-79.0030738426628
21
6.19250082646183
31
0.000000000000000
  0
LINE
  5
F1044C
330
F1044D
100
AcDbEntity
8
Geo
100
AcDbLine
10
-79.0030738426628
20
6.19250082646183
30
0.000000000000000
11
-78.9030738426628
21
5.80778133325747
31
0.000000000000000
  0
LINE
  5
F1044E
330
F1044F
100
AcDbEntity
8
Geo
100
AcDbLine
10
-78.9030738426628
20
5.80778133325747
30
0.000000000000000
11
-78.8030738426628
21
5.42292389786368
31
0.000000000000000
  0
LINE
  5
F10450
330
F10451
100
AcDbEntity
8
Geo
100
AcDbLine
10
-78.8030738426628
20
5.42292389786368
30
0.000000000000000
11
-78.7030738426628
21
5.03849860905744
31
0.000000000000000
  0
LINE
  5
F10452
330
F10453
100
AcDbEntity
8
Geo
100
AcDbLine
10
-78.7030738426628
20
5.03849860905744
30
0.000000000000000
11
-78.6030738426628
21
4.65507491547764
31
0.000000000000000
  0
LINE
  5
F10454
330
F10455
100
AcDbEntity
8
Geo
100
AcDbLine
10
-78.6030738426628
20
4.65507491547764
30
0.000000000000000
11
-78.5030738426628
21
4.27322078210155
31
0.000000000000000
  0
LINE
  5
F10456
330
F10457
100
AcDbEntity
8
Geo
100
AcDbLine
10
-78.5030738426628
20
4.27322078210155
30
0.000000000000000
11
-78.4030738426628
21
3.89350184891911
31
0.000000000000000
  0
LINE
  5
F10458
330
F10459
100
AcDbEntity
8
Geo
100
AcDbLine
10
-78.4030738426628
20
3.89350184891911
30
0.000000000000000
11
-78.3030738426628
21
3.51648059305125
31
0.000000000000000
  0
LINE
  5
F1045A
330
F1045B
100
AcDbEntity
8
Geo
100
AcDbLine
10
-78.3030738426628
20
3.51648059305125
30
0.000000000000000
11
-78.2030738426628
21
3.14271549555328
31
0.000000000000000
  0
LINE
  5
F1045C
330
F1045D
100
AcDbEntity
8
Geo
100
AcDbLine
10
-78.2030738426628
20
3.14271549555328
30
0.000000000000000
11
-78.1030738426628
21
2.77276021413767
31
0.000000000000000
  0
LINE
  5
F1045E
330
F1045F
100
AcDbEntity
8
Geo
100
AcDbLine
10
-78.1030738426628
20
2.77276021413767
30
0.000000000000000
11
-78.0030738426628
21
2.40716276304174
31
0.000000000000000
  0
LINE
  5
F10460
330
F10461
100
AcDbEntity
8
Geo
100
AcDbLine
10
-78.0030738426628
20
2.40716276304174
30
0.000000000000000
11
-77.9030738426628
21
2.04646470125489
31
0.000000000000000
  0
LINE
  5
F10462
330
F10463
100
AcDbEntity
8
Geo
100
AcDbLine
10
-77.9030738426628
20
2.04646470125489
30
0.000000000000000
11
-77.8030738426628
21
1.69120033030802
31
0.000000000000000
  0
LINE
  5
F10464
330
F10465
100
AcDbEntity
8
Geo
100
AcDbLine
10
-77.8030738426628
20
1.69120033030802
30
0.000000000000000
11
-77.7030738426628
21
1.34189590281343
31
0.000000000000000
  0
LINE
  5
F10466
330
F10467
100
AcDbEntity
8
Geo
100
AcDbLine
10
-77.7030738426628
20
1.34189590281343
30
0.000000000000000
11
-77.6030738426628
21
0.999068842927627
31
0.000000000000000
  0
LINE
  5
F10468
330
F10469
100
AcDbEntity
8
Geo
100
AcDbLine
10
-77.6030738426628
20
0.999068842927627
30
0.000000000000000
11
-77.5030738426628
21
0.663226979891531
31
0.000000000000000
  0
LINE
  5
F1046A
330
F1046B
100
AcDbEntity
8
Geo
100
AcDbLine
10
-77.5030738426628
20
0.663226979891531
30
0.000000000000000
11
-77.4030738426628
21
0.334867795783882
31
0.000000000000000
  0
LINE
  5
F1046C
330
F1046D
100
AcDbEntity
8
Geo
100
AcDbLine
10
-77.4030738426628
20
0.334867795783882
30
0.000000000000000
11
-77.3030738426628
21
0.0144776886016098
31
0.000000000000000
  0
LINE
  5
F1046E
330
F1046F
100
AcDbEntity
8
Geo
100
AcDbLine
10
-77.3030738426628
20
0.0144776886016098
30
0.000000000000000
11
-77.2030738426628
21
-0.297468748240822
31
0.000000000000000
  0
LINE
  5
F10470
330
F10471
100
AcDbEntity
8
Geo
100
AcDbLine
10
-77.2030738426628
20
-0.297468748240822
30
0.000000000000000
11
-77.1030738426628
21
-0.259120931629402
31
0.000000000000000
  0
LINE
  5
F10472
330
F10473
100
AcDbEntity
8
Geo
100
AcDbLine
10
-77.1030738426628
20
-0.259120931629402
30
0.000000000000000
11
-77.0030738426628
21
-0.221384008164780
31
0.000000000000000
  0
LINE
  5
F10474
330
F10475
100
AcDbEntity
8
Geo
100
AcDbLine
10
-77.0030738426628
20
-0.221384008164780
30
0.000000000000000
11
-76.9030738426628
21
-0.184266610353099
31
0.000000000000000
  0
LINE
  5
F10476
330
F10477
100
AcDbEntity
8
Geo
100
AcDbLine
10
-76.9030738426628
20
-0.184266610353099
30
0.000000000000000
11
-76.8030738426628
21
-0.147777122570567
31
0.000000000000000
  0
LINE
  5
F10478
330
F10479
100
AcDbEntity
8
Geo
100
AcDbLine
10
-76.8030738426628
20
-0.147777122570567
30
0.000000000000000
11
-76.7030738426628
21
-0.111923685318644
31
0.000000000000000
  0
LINE
  5
F1047A
330
F1047B
100
AcDbEntity
8
Geo
100
AcDbLine
10
-76.7030738426628
20
-0.111923685318644
30
0.000000000000000
11
-76.6030738426628
21
-0.0767141994344493
31
0.000000000000000
  0
LINE
  5
F1047C
330
F1047D
100
AcDbEntity
8
Geo
100
AcDbLine
10
-76.6030738426628
20
-0.0767141994344493
30
0.000000000000000
11
-76.5030738426628
21
-0.0421563302535093
31
0.000000000000000
  0
LINE
  5
F1047E
330
F1047F
100
AcDbEntity
8
Geo
100
AcDbLine
10
-76.5030738426628
20
-0.0421563302535093
30
0.000000000000000
11
-76.4030738426628
21
-0.00825751172204736
31
0.000000000000000
  0
LINE
  5
F10480
330
F10481
100
AcDbEntity
8
Geo
100
AcDbLine
10
-76.4030738426628
20
-0.00825751172204736
30
0.000000000000000
11
-76.3030738426628
21
0.0249750495438734
31
0.000000000000000
  0
LINE
  5
F10482
330
F10483
100
AcDbEntity
8
Geo
100
AcDbLine
10
-76.3030738426628
20
0.0249750495438734
30
0.000000000000000
11
-76.2030738426628
21
0.0575343702549755
31
0.000000000000000
  0
LINE
  5
F10484
330
F10485
100
AcDbEntity
8
Geo
100
AcDbLine
10
-76.2030738426628
20
0.0575343702549755
30
0.000000000000000
11
-76.1030738426628
21
0.0894136865036606
31
0.000000000000000
  0
LINE
  5
F10486
330
F10487
100
AcDbEntity
8
Geo
100
AcDbLine
10
-76.1030738426628
20
0.0894136865036606
30
0.000000000000000
11
-76.0030738426628
21
0.120606449879617
31
0.000000000000000
  0
LINE
  5
F10488
330
F10489
100
AcDbEntity
8
Geo
100
AcDbLine
10
-76.0030738426628
20
0.120606449879617
30
0.000000000000000
11
-75.9030738426628
21
0.151106323648472
31
0.000000000000000
  0
LINE
  5
F1048A
330
F1048B
100
AcDbEntity
8
Geo
100
AcDbLine
10
-75.9030738426628
20
0.151106323648472
30
0.000000000000000
11
-75.8030738426628
21
0.180907178995746
31
0.000000000000000
  0
LINE
  5
F1048C
330
F1048D
100
AcDbEntity
8
Geo
100
AcDbLine
10
-75.8030738426628
20
0.180907178995746
30
0.000000000000000
11
-75.7030738426627
21
0.210003091338292
31
0.000000000000000
  0
LINE
  5
F1048E
330
F1048F
100
AcDbEntity
8
Geo
100
AcDbLine
10
-75.7030738426627
20
0.210003091338292
30
0.000000000000000
11
-75.6030738426628
21
0.238388336705311
31
0.000000000000000
  0
LINE
  5
F10490
330
F10491
100
AcDbEntity
8
Geo
100
AcDbLine
10
-75.6030738426628
20
0.238388336705311
30
0.000000000000000
11
-75.5030738426628
21
0.266057388190965
31
0.000000000000000
  0
LINE
  5
F10492
330
F10493
100
AcDbEntity
8
Geo
100
AcDbLine
10
-75.5030738426628
20
0.266057388190965
30
0.000000000000000
11
-75.4030738426627
21
0.293004912480504
31
0.000000000000000
  0
LINE
  5
F10494
330
F10495
100
AcDbEntity
8
Geo
100
AcDbLine
10
-75.4030738426627
20
0.293004912480504
30
0.000000000000000
11
-75.3030738426627
21
0.319225766451818
31
0.000000000000000
  0
LINE
  5
F10496
330
F10497
100
AcDbEntity
8
Geo
100
AcDbLine
10
-75.3030738426627
20
0.319225766451818
30
0.000000000000000
11
-75.2030738426627
21
0.344714993854151
31
0.000000000000000
  0
LINE
  5
F10498
330
F10499
100
AcDbEntity
8
Geo
100
AcDbLine
10
-75.2030738426627
20
0.344714993854151
30
0.000000000000000
11
-75.1030738426628
21
0.369467822065735
31
0.000000000000000
  0
LINE
  5
F1049A
330
F1049B
100
AcDbEntity
8
Geo
100
AcDbLine
10
-75.1030738426628
20
0.369467822065735
30
0.000000000000000
11
-75.0030738426627
21
0.393479658931984
31
0.000000000000000
  0
LINE
  5
F1049C
330
F1049D
100
AcDbEntity
8
Geo
100
AcDbLine
10
-75.0030738426627
20
0.393479658931984
30
0.000000000000000
11
-74.9030738426627
21
0.416746089685814
31
0.000000000000000
  0
LINE
  5
F1049E
330
F1049F
100
AcDbEntity
8
Geo
100
AcDbLine
10
-74.9030738426627
20
0.416746089685814
30
0.000000000000000
11
-74.8030738426627
21
0.439262873951630
31
0.000000000000000
  0
LINE
  5
F104A0
330
F104A1
100
AcDbEntity
8
Geo
100
AcDbLine
10
-74.8030738426627
20
0.439262873951630
30
0.000000000000000
11
-74.7030738426627
21
0.461025942834410
31
0.000000000000000
  0
LINE
  5
F104A2
330
F104A3
100
AcDbEntity
8
Geo
100
AcDbLine
10
-74.7030738426627
20
0.461025942834410
30
0.000000000000000
11
-74.6030738426627
21
0.482031396095275
31
0.000000000000000
  0
LINE
  5
F104A4
330
F104A5
100
AcDbEntity
8
Geo
100
AcDbLine
10
-74.6030738426627
20
0.482031396095275
30
0.000000000000000
11
-74.5030738426627
21
0.502275499414892
31
0.000000000000000
  0
LINE
  5
F104A6
330
F104A7
100
AcDbEntity
8
Geo
100
AcDbLine
10
-74.5030738426627
20
0.502275499414892
30
0.000000000000000
11
-74.4030738426627
21
0.521754681745931
31
0.000000000000000
  0
LINE
  5
F104A8
330
F104A9
100
AcDbEntity
8
Geo
100
AcDbLine
10
-74.4030738426627
20
0.521754681745931
30
0.000000000000000
11
-74.3030738426627
21
0.540465532755837
31
0.000000000000000
  0
LINE
  5
F104AA
330
F104AB
100
AcDbEntity
8
Geo
100
AcDbLine
10
-74.3030738426627
20
0.540465532755837
30
0.000000000000000
11
-74.2030738426627
21
0.558404800361009
31
0.000000000000000
  0
LINE
  5
F104AC
330
F104AD
100
AcDbEntity
8
Geo
100
AcDbLine
10
-74.2030738426627
20
0.558404800361009
30
0.000000000000000
11
-74.1030738426627
21
0.575569388353520
31
0.000000000000000
  0
LINE
  5
F104AE
330
F104AF
100
AcDbEntity
8
Geo
100
AcDbLine
10
-74.1030738426627
20
0.575569388353520
30
0.000000000000000
11
-74.0030738426627
21
0.591956354121403
31
0.000000000000000
  0
LINE
  5
F104B0
330
F104B1
100
AcDbEntity
8
Geo
100
AcDbLine
10
-74.0030738426627
20
0.591956354121403
30
0.000000000000000
11
-73.9030738426627
21
0.607562906463469
31
0.000000000000000
  0
LINE
  5
F104B2
330
F104B3
100
AcDbEntity
8
Geo
100
AcDbLine
10
-73.9030738426627
20
0.607562906463469
30
0.000000000000000
11
-73.8030738426627
21
0.622386403499617
31
0.000000000000000
  0
LINE
  5
F104B4
330
F104B5
100
AcDbEntity
8
Geo
100
AcDbLine
10
-73.8030738426627
20
0.622386403499617
30
0.000000000000000
11
-73.7030738426627
21
0.636424350677493
31
0.000000000000000
  0
LINE
  5
F104B6
330
F104B7
100
AcDbEntity
8
Geo
100
AcDbLine
10
-73.7030738426627
20
0.636424350677493
30
0.000000000000000
11
-73.6030738426627
21
0.649674398876339
31
0.000000000000000
  0
LINE
  5
F104B8
330
F104B9
100
AcDbEntity
8
Geo
100
AcDbLine
10
-73.6030738426627
20
0.649674398876339
30
0.000000000000000
11
-73.5030738426627
21
0.662134342608813
31
0.000000000000000
  0
LINE
  5
F104BA
330
F104BB
100
AcDbEntity
8
Geo
100
AcDbLine
10
-73.5030738426627
20
0.662134342608813
30
0.000000000000000
11
-73.4030738426627
21
0.673802118321508
31
0.000000000000000
  0
LINE
  5
F104BC
330
F104BD
100
AcDbEntity
8
Geo
100
AcDbLine
10
-73.4030738426627
20
0.673802118321508
30
0.000000000000000
11
-73.3030738426627
21
0.684675802794859
31
0.000000000000000
  0
LINE
  5
F104BE
330
F104BF
100
AcDbEntity
8
Geo
100
AcDbLine
10
-73.3030738426627
20
0.684675802794859
30
0.000000000000000
11
-73.2030738426627
21
0.694753611643072
31
0.000000000000000
  0
LINE
  5
F104C0
330
F104C1
100
AcDbEntity
8
Geo
100
AcDbLine
10
-73.2030738426627
20
0.694753611643072
30
0.000000000000000
11
-73.1030738426627
21
0.704033897914684
31
0.000000000000000
  0
LINE
  5
F104C2
330
F104C3
100
AcDbEntity
8
Geo
100
AcDbLine
10
-73.1030738426627
20
0.704033897914684
30
0.000000000000000
11
-73.0030738426627
21
0.712515150794289
31
0.000000000000000
  0
LINE
  5
F104C4
330
F104C5
100
AcDbEntity
8
Geo
100
AcDbLine
10
-73.0030738426627
20
0.712515150794289
30
0.000000000000000
11
-72.9030738426627
21
0.720195994405938
31
0.000000000000000
  0
LINE
  5
F104C6
330
F104C7
100
AcDbEntity
8
Geo
100
AcDbLine
10
-72.9030738426627
20
0.720195994405938
30
0.000000000000000
11
-72.8030738426627
21
0.727075186718688
31
0.000000000000000
  0
LINE
  5
F104C8
330
F104C9
100
AcDbEntity
8
Geo
100
AcDbLine
10
-72.8030738426627
20
0.727075186718688
30
0.000000000000000
11
-72.7030738426627
21
0.733151618554706
31
0.000000000000000
  0
LINE
  5
F104CA
330
F104CB
100
AcDbEntity
8
Geo
100
AcDbLine
10
-72.7030738426627
20
0.733151618554706
30
0.000000000000000
11
-72.6030738426627
21
0.738424312700318
31
0.000000000000000
  0
LINE
  5
F104CC
330
F104CD
100
AcDbEntity
8
Geo
100
AcDbLine
10
-72.6030738426627
20
0.738424312700318
30
0.000000000000000
11
-72.5030738426627
21
0.742892423120344
31
0.000000000000000
  0
LINE
  5
F104CE
330
F104CF
100
AcDbEntity
8
Geo
100
AcDbLine
10
-72.5030738426627
20
0.742892423120344
30
0.000000000000000
11
-72.4030738426627
21
0.746555234275990
31
0.000000000000000
  0
LINE
  5
F104D0
330
F104D1
100
AcDbEntity
8
Geo
100
AcDbLine
10
-72.4030738426627
20
0.746555234275990
30
0.000000000000000
11
-72.3030738426627
21
0.749412160546598
31
0.000000000000000
  0
LINE
  5
F104D2
330
F104D3
100
AcDbEntity
8
Geo
100
AcDbLine
10
-72.3030738426627
20
0.749412160546598
30
0.000000000000000
11
-72.2030738426628
21
0.751462745755425
31
0.000000000000000
  0
LINE
  5
F104D4
330
F104D5
100
AcDbEntity
8
Geo
100
AcDbLine
10
-95.2030738426628
20
2.77899741278977
30
0.000000000000000
11
-95.1030738426628
21
2.32988325606542
31
0.000000000000000
  0
LINE
  5
F104D6
330
F104D7
100
AcDbEntity
8
Geo
100
AcDbLine
10
-95.1030738426628
20
2.32988325606542
30
0.000000000000000
11
-95.0030738426628
21
1.94036386916742
31
0.000000000000000
  0
LINE
  5
F104D8
330
F104D9
100
AcDbEntity
8
Geo
100
AcDbLine
10
-95.0030738426628
20
1.94036386916742
30
0.000000000000000
11
-94.9030738426628
21
1.56670761769292
31
0.000000000000000
  0
LINE
  5
F104DA
330
F104DB
100
AcDbEntity
8
Geo
100
AcDbLine
10
-94.9030738426628
20
1.56670761769292
30
0.000000000000000
11
-94.8030738426628
21
1.20712953233256
31
0.000000000000000
  0
LINE
  5
F104DC
330
F104DD
100
AcDbEntity
8
Geo
100
AcDbLine
10
-94.8030738426628
20
1.20712953233256
30
0.000000000000000
11
-94.7030738426628
21
0.862506062614147
31
0.000000000000000
  0
LINE
  5
F104DE
330
F104DF
100
AcDbEntity
8
Geo
100
AcDbLine
10
-94.7030738426628
20
0.862506062614147
30
0.000000000000000
11
-94.6030738426628
21
0.529628213964387
31
0.000000000000000
  0
LINE
  5
F104E0
330
F104E1
100
AcDbEntity
8
Geo
100
AcDbLine
10
-94.6030738426628
20
0.529628213964387
30
0.000000000000000
11
-94.5030738426628
21
0.204430943906861
31
0.000000000000000
  0
LINE
  5
F104E2
330
F104E3
100
AcDbEntity
8
Geo
100
AcDbLine
10
-94.5030738426628
20
0.204430943906861
30
0.000000000000000
11
-94.4030738426628
21
-0.112604033300317
31
0.000000000000000
  0
LINE
  5
F104E4
330
F104E5
100
AcDbEntity
8
Geo
100
AcDbLine
10
-94.4030738426628
20
-0.112604033300317
30
0.000000000000000
11
-94.3030738426628
21
-0.421007094191933
31
0.000000000000000
  0
LINE
  5
F104E6
330
F104E7
100
AcDbEntity
8
Geo
100
AcDbLine
10
-94.3030738426628
20
-0.421007094191933
30
0.000000000000000
11
-94.2030738426628
21
-0.720321401748246
31
0.000000000000000
  0
LINE
  5
F104E8
330
F104E9
100
AcDbEntity
8
Geo
100
AcDbLine
10
-94.2030738426628
20
-0.720321401748246
30
0.000000000000000
11
-94.1030738426628
21
-1.01010358210704
31
0.000000000000000
  0
LINE
  5
F104EA
330
F104EB
100
AcDbEntity
8
Geo
100
AcDbLine
10
-94.1030738426628
20
-1.01010358210704
30
0.000000000000000
11
-94.0030738426628
21
-1.28992438133270
31
0.000000000000000
  0
LINE
  5
F104EC
330
F104ED
100
AcDbEntity
8
Geo
100
AcDbLine
10
-94.0030738426628
20
-1.28992438133270
30
0.000000000000000
11
-93.9030738426628
21
-1.55936930126944
31
0.000000000000000
  0
LINE
  5
F104EE
330
F104EF
100
AcDbEntity
8
Geo
100
AcDbLine
10
-93.9030738426628
20
-1.55936930126944
30
0.000000000000000
11
-93.8030738426628
21
-1.81803921353684
31
0.000000000000000
  0
LINE
  5
F104F0
330
F104F1
100
AcDbEntity
8
Geo
100
AcDbLine
10
-93.8030738426628
20
-1.81803921353684
30
0.000000000000000
11
-93.7030738426628
21
-2.06555095075819
31
0.000000000000000
  0
LINE
  5
F104F2
330
F104F3
100
AcDbEntity
8
Geo
100
AcDbLine
10
-93.7030738426628
20
-2.06555095075819
30
0.000000000000000
11
-93.6030738426628
21
-2.30153787414574
31
0.000000000000000
  0
LINE
  5
F104F4
330
F104F5
100
AcDbEntity
8
Geo
100
AcDbLine
10
-93.6030738426628
20
-2.30153787414574
30
0.000000000000000
11
-93.5030738426628
21
-2.52565041660225
31
0.000000000000000
  0
LINE
  5
F104F6
330
F104F7
100
AcDbEntity
8
Geo
100
AcDbLine
10
-93.5030738426628
20
-2.52565041660225
30
0.000000000000000
11
-93.4030738426628
21
-2.73755660053423
31
0.000000000000000
  0
LINE
  5
F104F8
330
F104F9
100
AcDbEntity
8
Geo
100
AcDbLine
10
-93.4030738426628
20
-2.73755660053423
30
0.000000000000000
11
-93.3030738426628
21
-2.93694252960988
31
0.000000000000000
  0
LINE
  5
F104FA
330
F104FB
100
AcDbEntity
8
Geo
100
AcDbLine
10
-93.3030738426628
20
-2.93694252960988
30
0.000000000000000
11
-93.2030738426628
21
-3.12351285373328
31
0.000000000000000
  0
LINE
  5
F104FC
330
F104FD
100
AcDbEntity
8
Geo
100
AcDbLine
10
-93.2030738426628
20
-3.12351285373328
30
0.000000000000000
11
-93.1030738426628
21
-3.29699120654608
31
0.000000000000000
  0
LINE
  5
F104FE
330
F104FF
100
AcDbEntity
8
Geo
100
AcDbLine
10
-93.1030738426628
20
-3.29699120654608
30
0.000000000000000
11
-93.0030738426628
21
-3.45712061480859
31
0.000000000000000
  0
LINE
  5
F10500
330
F10501
100
AcDbEntity
8
Geo
100
AcDbLine
10
-93.0030738426628
20
-3.45712061480859
30
0.000000000000000
11
-92.9030738426628
21
-3.60366387905388
31
0.000000000000000
  0
LINE
  5
F10502
330
F10503
100
AcDbEntity
8
Geo
100
AcDbLine
10
-92.9030738426628
20
-3.60366387905388
30
0.000000000000000
11
-92.8030738426628
21
-3.73640392495102
31
0.000000000000000
  0
LINE
  5
F10504
330
F10505
100
AcDbEntity
8
Geo
100
AcDbLine
10
-92.8030738426628
20
-3.73640392495102
30
0.000000000000000
11
-92.7030738426628
21
-3.85514412485698
31
0.000000000000000
  0
LINE
  5
F10506
330
F10507
100
AcDbEntity
8
Geo
100
AcDbLine
10
-92.7030738426628
20
-3.85514412485698
30
0.000000000000000
11
-92.6030738426628
21
-3.95970858908088
31
0.000000000000000
  0
LINE
  5
F10508
330
F10509
100
AcDbEntity
8
Geo
100
AcDbLine
10
-92.6030738426628
20
-3.95970858908088
30
0.000000000000000
11
-92.5030738426628
21
-4.04994242642914
31
0.000000000000000
  0
LINE
  5
F1050A
330
F1050B
100
AcDbEntity
8
Geo
100
AcDbLine
10
-92.5030738426628
20
-4.04994242642914
30
0.000000000000000
11
-92.4030738426628
21
-4.12571197364557
31
0.000000000000000
  0
LINE
  5
F1050C
330
F1050D
100
AcDbEntity
8
Geo
100
AcDbLine
10
-92.4030738426628
20
-4.12571197364557
30
0.000000000000000
11
-92.3030738426628
21
-4.18690499340661
31
0.000000000000000
  0
LINE
  5
F1050E
330
F1050F
100
AcDbEntity
8
Geo
100
AcDbLine
10
-92.3030738426628
20
-4.18690499340661
30
0.000000000000000
11
-92.2030738426628
21
-4.23343084057826
31
0.000000000000000
  0
LINE
  5
F10510
330
F10511
100
AcDbEntity
8
Geo
100
AcDbLine
10
-92.2030738426628
20
-4.23343084057826
30
0.000000000000000
11
-92.1030738426628
21
-4.26522059648865
31
0.000000000000000
  0
LINE
  5
F10512
330
F10513
100
AcDbEntity
8
Geo
100
AcDbLine
10
-92.1030738426628
20
-4.26522059648865
30
0.000000000000000
11
-92.0030738426628
21
-4.28222717101711
31
0.000000000000000
  0
LINE
  5
F10514
330
F10515
100
AcDbEntity
8
Geo
100
AcDbLine
10
-83.8030738426628
20
15.7141214213442
30
0.000000000000000
11
-83.7030738426628
21
15.7107047874580
31
0.000000000000000
  0
LINE
  5
F10516
330
F10517
100
AcDbEntity
8
Geo
100
AcDbLine
10
-83.7030738426628
20
15.7107047874580
30
0.000000000000000
11
-83.6030738426628
21
15.6924810248173
31
0.000000000000000
  0
LINE
  5
F10518
330
F10519
100
AcDbEntity
8
Geo
100
AcDbLine
10
-83.6030738426628
20
15.6924810248173
30
0.000000000000000
11
-83.5030738426628
21
15.6594771282560
31
0.000000000000000
  0
LINE
  5
F1051A
330
F1051B
100
AcDbEntity
8
Geo
100
AcDbLine
10
-83.5030738426628
20
15.6594771282560
30
0.000000000000000
11
-83.4030738426628
21
15.6117419863996
31
0.000000000000000
  0
LINE
  5
F1051C
330
F1051D
100
AcDbEntity
8
Geo
100
AcDbLine
10
-83.4030738426628
20
15.6117419863996
30
0.000000000000000
11
-83.3030738426628
21
15.5493463092465
31
0.000000000000000
  0
LINE
  5
F1051E
330
F1051F
100
AcDbEntity
8
Geo
100
AcDbLine
10
-83.3030738426628
20
15.5493463092465
30
0.000000000000000
11
-83.2030738426628
21
15.4723825234254
31
0.000000000000000
  0
LINE
  5
F10520
330
F10521
100
AcDbEntity
8
Geo
100
AcDbLine
10
-83.2030738426628
20
15.4723825234254
30
0.000000000000000
11
-83.1030738426628
21
15.3809646352838
31
0.000000000000000
  0
LINE
  5
F10522
330
F10523
100
AcDbEntity
8
Geo
100
AcDbLine
10
-83.1030738426628
20
15.3809646352838
30
0.000000000000000
11
-83.0030738426628
21
15.2752280620107
31
0.000000000000000
  0
LINE
  5
F10524
330
F10525
100
AcDbEntity
8
Geo
100
AcDbLine
10
-83.0030738426628
20
15.2752280620107
30
0.000000000000000
11
-82.9030738426628
21
15.1553294310431
31
0.000000000000000
  0
LINE
  5
F10526
330
F10527
100
AcDbEntity
8
Geo
100
AcDbLine
10
-82.9030738426628
20
15.1553294310431
30
0.000000000000000
11
-82.8030738426628
21
15.0214463480543
31
0.000000000000000
  0
LINE
  5
F10528
330
F10529
100
AcDbEntity
8
Geo
100
AcDbLine
10
-82.8030738426628
20
15.0214463480543
30
0.000000000000000
11
-82.7030738426628
21
14.8737771338664
31
0.000000000000000
  0
LINE
  5
F1052A
330
F1052B
100
AcDbEntity
8
Geo
100
AcDbLine
10
-82.7030738426628
20
14.8737771338664
30
0.000000000000000
11
-82.6030738426628
21
14.7125405306785
31
0.000000000000000
  0
LINE
  5
F1052C
330
F1052D
100
AcDbEntity
8
Geo
100
AcDbLine
10
-82.6030738426628
20
14.7125405306785
30
0.000000000000000
11
-82.5030738426628
21
14.5379753780439
31
0.000000000000000
  0
LINE
  5
F1052E
330
F1052F
100
AcDbEntity
8
Geo
100
AcDbLine
10
-82.5030738426628
20
14.5379753780439
30
0.000000000000000
11
-82.4030738426628
21
14.3503402590771
31
0.000000000000000
  0
LINE
  5
F10530
330
F10531
100
AcDbEntity
8
Geo
100
AcDbLine
10
-82.4030738426628
20
14.3503402590771
30
0.000000000000000
11
-82.3030738426628
21
14.1499131174158
31
0.000000000000000
  0
LINE
  5
F10532
330
F10533
100
AcDbEntity
8
Geo
100
AcDbLine
10
-82.3030738426628
20
14.1499131174158
30
0.000000000000000
11
-82.2030738426628
21
13.9369908455024
31
0.000000000000000
  0
LINE
  5
F10534
330
F10535
100
AcDbEntity
8
Geo
100
AcDbLine
10
-82.2030738426628
20
13.9369908455024
30
0.000000000000000
11
-82.1030738426628
21
13.7118888447987
31
0.000000000000000
  0
LINE
  5
F10536
330
F10537
100
AcDbEntity
8
Geo
100
AcDbLine
10
-82.1030738426628
20
13.7118888447987
30
0.000000000000000
11
-82.0030738426628
21
13.4749405585810
31
0.000000000000000
  0
LINE
  5
F10538
330
F10539
100
AcDbEntity
8
Geo
100
AcDbLine
10
-82.0030738426628
20
13.4749405585810
30
0.000000000000000
11
-81.9030738426628
21
13.2264969780121
31
0.000000000000000
  0
LINE
  5
F1053A
330
F1053B
100
AcDbEntity
8
Geo
100
AcDbLine
10
-81.9030738426628
20
13.2264969780121
30
0.000000000000000
11
-81.8030738426628
21
12.9669261222180
31
0.000000000000000
  0
LINE
  5
F1053C
330
F1053D
100
AcDbEntity
8
Geo
100
AcDbLine
10
-81.8030738426628
20
12.9669261222180
30
0.000000000000000
11
-81.7030738426628
21
12.6966124931418
31
0.000000000000000
  0
LINE
  5
F1053E
330
F1053F
100
AcDbEntity
8
Geo
100
AcDbLine
10
-81.7030738426628
20
12.6966124931418
30
0.000000000000000
11
-81.6030738426628
21
12.4159565059815
31
0.000000000000000
  0
LINE
  5
F10540
330
F10541
100
AcDbEntity
8
Geo
100
AcDbLine
10
-81.6030738426628
20
12.4159565059815
30
0.000000000000000
11
-81.5030738426628
21
12.1253738960555
31
0.000000000000000
  0
LINE
  5
F10542
330
F10543
100
AcDbEntity
8
Geo
100
AcDbLine
10
-81.5030738426628
20
12.1253738960555
30
0.000000000000000
11
-81.4030738426628
21
11.8252951029748
31
0.000000000000000
  0
LINE
  5
F10544
330
F10545
100
AcDbEntity
8
Geo
100
AcDbLine
10
-81.4030738426628
20
11.8252951029748
30
0.000000000000000
11
-81.3030738426628
21
11.5161646330328
31
0.000000000000000
  0
LINE
  5
F10546
330
F10547
100
AcDbEntity
8
Geo
100
AcDbLine
10
-81.3030738426628
20
11.5161646330328
30
0.000000000000000
11
-81.2030738426628
21
11.1984404007593
31
0.000000000000000
  0
LINE
  5
F10548
330
F10549
100
AcDbEntity
8
Geo
100
AcDbLine
10
-81.2030738426628
20
11.1984404007593
30
0.000000000000000
11
-81.1030738426628
21
10.8725930506120
31
0.000000000000000
  0
LINE
  5
F1054A
330
F1054B
100
AcDbEntity
8
Geo
100
AcDbLine
10
-81.1030738426628
20
10.8725930506120
30
0.000000000000000
11
-81.0030738426628
21
10.5391052598119
31
0.000000000000000
  0
LINE
  5
F1054C
330
F1054D
100
AcDbEntity
8
Geo
100
AcDbLine
10
-81.0030738426628
20
10.5391052598119
30
0.000000000000000
11
-80.9030738426628
21
10.1984710233537
31
0.000000000000000
  0
LINE
  5
F1054E
330
F1054F
100
AcDbEntity
8
Geo
100
AcDbLine
10
-80.9030738426628
20
10.1984710233537
30
0.000000000000000
11
-80.8030738426628
21
9.85119492225209
31
0.000000000000000
  0
LINE
  5
F10550
330
F10551
100
AcDbEntity
8
Geo
100
AcDbLine
10
-80.8030738426628
20
9.85119492225209
30
0.000000000000000
11
-80.7030738426628
21
9.49779137610656
31
0.000000000000000
  0
LINE
  5
F10552
330
F10553
100
AcDbEntity
8
Geo
100
AcDbLine
10
-80.7030738426628
20
9.49779137610656
30
0.000000000000000
11
-80.6030738426628
21
9.13878388109226
31
0.000000000000000
  0
LINE
  5
F10554
330
F10555
100
AcDbEntity
8
Geo
100
AcDbLine
10
-80.6030738426628
20
9.13878388109226
30
0.000000000000000
11
-80.5030738426628
21
8.77470423450592
31
0.000000000000000
  0
LINE
  5
F10556
330
F10557
100
AcDbEntity
8
Geo
100
AcDbLine
10
-80.5030738426628
20
8.77470423450592
30
0.000000000000000
11
-80.4030738426628
21
8.40609174701523
31
0.000000000000000
  0
LINE
  5
F10558
330
F10559
100
AcDbEntity
8
Geo
100
AcDbLine
10
-80.4030738426628
20
8.40609174701523
30
0.000000000000000
11
-80.3030738426628
21
8.03349244377876
31
0.000000000000000
  0
LINE
  5
F1055A
330
F1055B
100
AcDbEntity
8
Geo
100
AcDbLine
10
-80.3030738426628
20
8.03349244377876
30
0.000000000000000
11
-80.2030738426628
21
7.65745825561960
31
0.000000000000000
  0
LINE
  5
F1055C
330
F1055D
100
AcDbEntity
8
Geo
100
AcDbLine
10
-80.2030738426628
20
7.65745825561960
30
0.000000000000000
11
-80.1030738426628
21
7.27854620145106
31
0.000000000000000
  0
LINE
  5
F1055E
330
F1055F
100
AcDbEntity
8
Geo
100
AcDbLine
10
-80.1030738426628
20
7.27854620145106
30
0.000000000000000
11
-80.0030738426628
21
6.89731756316530
31
0.000000000000000
  0
LINE
  5
F10560
330
F10561
100
AcDbEntity
8
Geo
100
AcDbLine
10
-80.0030738426628
20
6.89731756316530
30
0.000000000000000
11
-79.9030738426628
21
6.51433705420726
31
0.000000000000000
  0
LINE
  5
F10562
330
F10563
100
AcDbEntity
8
Geo
100
AcDbLine
10
-79.9030738426628
20
6.51433705420726
30
0.000000000000000
11
-79.8030738426628
21
6.13017198306549
31
0.000000000000000
  0
LINE
  5
F10564
330
F10565
100
AcDbEntity
8
Geo
100
AcDbLine
10
-79.8030738426628
20
6.13017198306549
30
0.000000000000000
11
-79.7030738426628
21
5.74539141291879
31
0.000000000000000
  0
LINE
  5
F10566
330
F10567
100
AcDbEntity
8
Geo
100
AcDbLine
10
-79.7030738426628
20
5.74539141291879
30
0.000000000000000
11
-79.6030738426628
21
5.36056531868377
31
0.000000000000000
  0
LINE
  5
F10568
330
F10569
100
AcDbEntity
8
Geo
100
AcDbLine
10
-79.6030738426628
20
5.36056531868377
30
0.000000000000000
11
-79.5030738426628
21
4.97626374271183
31
0.000000000000000
  0
LINE
  5
F1056A
330
F1056B
100
AcDbEntity
8
Geo
100
AcDbLine
10
-79.5030738426628
20
4.97626374271183
30
0.000000000000000
11
-79.4030738426628
21
4.59305595038619
31
0.000000000000000
  0
LINE
  5
F1056C
330
F1056D
100
AcDbEntity
8
Geo
100
AcDbLine
10
-79.4030738426628
20
4.59305595038619
30
0.000000000000000
11
-79.3030738426628
21
4.21150958686989
31
0.000000000000000
  0
LINE
  5
F1056E
330
F1056F
100
AcDbEntity
8
Geo
100
AcDbLine
10
-79.3030738426628
20
4.21150958686989
30
0.000000000000000
11
-79.2030738426628
21
3.83218983625383
31
0.000000000000000
  0
LINE
  5
F10570
330
F10571
100
AcDbEntity
8
Geo
100
AcDbLine
10
-79.2030738426628
20
3.83218983625383
30
0.000000000000000
11
-79.1030738426628
21
3.45565858435035
31
0.000000000000000
  0
LINE
  5
F10572
330
F10573
100
AcDbEntity
8
Geo
100
AcDbLine
10
-79.1030738426628
20
3.45565858435035
30
0.000000000000000
11
-79.0030738426628
21
3.08247358637257
31
0.000000000000000
  0
LINE
  5
F10574
330
F10575
100
AcDbEntity
8
Geo
100
AcDbLine
10
-79.0030738426628
20
3.08247358637257
30
0.000000000000000
11
-78.9030738426628
21
2.71318764073238
31
0.000000000000000
  0
LINE
  5
F10576
330
F10577
100
AcDbEntity
8
Geo
100
AcDbLine
10
-78.9030738426628
20
2.71318764073238
30
0.000000000000000
11
-78.8030738426628
21
2.34834777018097
31
0.000000000000000
  0
LINE
  5
F10578
330
F10579
100
AcDbEntity
8
Geo
100
AcDbLine
10
-78.8030738426628
20
2.34834777018097
30
0.000000000000000
11
-78.7030738426628
21
1.98849441150471
31
0.000000000000000
  0
LINE
  5
F1057A
330
F1057B
100
AcDbEntity
8
Geo
100
AcDbLine
10
-78.7030738426628
20
1.98849441150471
30
0.000000000000000
11
-78.6030738426628
21
1.63416061497699
31
0.000000000000000
  0
LINE
  5
F1057C
330
F1057D
100
AcDbEntity
8
Geo
100
AcDbLine
10
-78.6030738426628
20
1.63416061497699
30
0.000000000000000
11
-78.5030738426628
21
1.28587125475153
31
0.000000000000000
  0
LINE
  5
F1057E
330
F1057F
100
AcDbEntity
8
Geo
100
AcDbLine
10
-78.5030738426628
20
1.28587125475153
30
0.000000000000000
11
-78.4030738426628
21
0.944142251367128
31
0.000000000000000
  0
LINE
  5
F10580
330
F10581
100
AcDbEntity
8
Geo
100
AcDbLine
10
-78.4030738426628
20
0.944142251367128
30
0.000000000000000
11
-78.3030738426628
21
0.609479807515168
31
0.000000000000000
  0
LINE
  5
F10582
330
F10583
100
AcDbEntity
8
Geo
100
AcDbLine
10
-78.3030738426628
20
0.609479807515168
30
0.000000000000000
11
-78.2030738426628
21
0.282379658202364
31
0.000000000000000
  0
LINE
  5
F10584
330
F10585
100
AcDbEntity
8
Geo
100
AcDbLine
10
-78.2030738426628
20
0.282379658202364
30
0.000000000000000
11
-78.1030738426628
21
-0.0366736635807738
31
0.000000000000000
  0
LINE
  5
F10586
330
F10587
100
AcDbEntity
8
Geo
100
AcDbLine
10
-78.1030738426628
20
-0.0366736635807738
30
0.000000000000000
11
-78.0030738426628
21
-0.347207544598083
31
0.000000000000000
  0
LINE
  5
F10588
330
F10589
100
AcDbEntity
8
Geo
100
AcDbLine
10
-78.0030738426628
20
-0.347207544598083
30
0.000000000000000
11
-77.9030738426628
21
-0.648761991448954
31
0.000000000000000
  0
LINE
  5
F1058A
330
F1058B
100
AcDbEntity
8
Geo
100
AcDbLine
10
-77.9030738426628
20
-0.648761991448954
30
0.000000000000000
11
-77.8030738426628
21
-0.940890311956012
31
0.000000000000000
  0
LINE
  5
F1058C
330
F1058D
100
AcDbEntity
8
Geo
100
AcDbLine
10
-77.8030738426628
20
-0.940890311956012
30
0.000000000000000
11
-77.7030738426628
21
-1.22315977684951
31
0.000000000000000
  0
LINE
  5
F1058E
330
F1058F
100
AcDbEntity
8
Geo
100
AcDbLine
10
-77.7030738426628
20
-1.22315977684951
30
0.000000000000000
11
-77.6030738426628
21
-1.49515226076866
31
0.000000000000000
  0
LINE
  5
F10590
330
F10591
100
AcDbEntity
8
Geo
100
AcDbLine
10
-77.6030738426628
20
-1.49515226076866
30
0.000000000000000
11
-77.5030738426628
21
-1.75646486163015
31
0.000000000000000
  0
LINE
  5
F10592
330
F10593
100
AcDbEntity
8
Geo
100
AcDbLine
10
-77.5030738426628
20
-1.75646486163015
30
0.000000000000000
11
-77.4030738426628
21
-2.00671049744632
31
0.000000000000000
  0
LINE
  5
F10594
330
F10595
100
AcDbEntity
8
Geo
100
AcDbLine
10
-77.4030738426628
20
-2.00671049744632
30
0.000000000000000
11
-77.3030738426628
21
-2.24551847970933
31
0.000000000000000
  0
LINE
  5
F10596
330
F10597
100
AcDbEntity
8
Geo
100
AcDbLine
10
-77.3030738426628
20
-2.24551847970933
30
0.000000000000000
11
-77.2030738426628
21
-2.47253506249140
31
0.000000000000000
  0
LINE
  5
F10598
330
F10599
100
AcDbEntity
8
Geo
100
AcDbLine
10
-77.2030738426628
20
-2.47253506249140
30
0.000000000000000
11
-77.1030738426628
21
-2.71240258443592
31
0.000000000000000
  0
LINE
  5
F1059A
330
F1059B
100
AcDbEntity
8
Geo
100
AcDbLine
10
-77.1030738426628
20
-2.71240258443592
30
0.000000000000000
11
-77.0030738426628
21
-2.93241056808230
31
0.000000000000000
  0
LINE
  5
F1059C
330
F1059D
100
AcDbEntity
8
Geo
100
AcDbLine
10
-77.0030738426628
20
-2.93241056808230
30
0.000000000000000
11
-76.9030738426628
21
-3.13307090354977
31
0.000000000000000
  0
LINE
  5
F1059E
330
F1059F
100
AcDbEntity
8
Geo
100
AcDbLine
10
-76.9030738426628
20
-3.13307090354977
30
0.000000000000000
11
-76.8030738426628
21
-3.31494809067711
31
0.000000000000000
  0
LINE
  5
F105A0
330
F105A1
100
AcDbEntity
8
Geo
100
AcDbLine
10
-76.8030738426628
20
-3.31494809067711
30
0.000000000000000
11
-76.7030738426628
21
-3.47865252089574
31
0.000000000000000
  0
LINE
  5
F105A2
330
F105A3
100
AcDbEntity
8
Geo
100
AcDbLine
10
-76.7030738426628
20
-3.47865252089574
30
0.000000000000000
11
-76.6030738426628
21
-3.62483405991683
31
0.000000000000000
  0
LINE
  5
F105A4
330
F105A5
100
AcDbEntity
8
Geo
100
AcDbLine
10
-76.6030738426628
20
-3.62483405991683
30
0.000000000000000
11
-76.5030738426628
21
-3.75417594756818
31
0.000000000000000
  0
LINE
  5
F105A6
330
F105A7
100
AcDbEntity
8
Geo
100
AcDbLine
10
-76.5030738426628
20
-3.75417594756818
30
0.000000000000000
11
-76.4030738426628
21
-3.86738902690074
31
0.000000000000000
  0
LINE
  5
F105A8
330
F105A9
100
AcDbEntity
8
Geo
100
AcDbLine
10
-76.4030738426628
20
-3.86738902690074
30
0.000000000000000
11
-76.3030738426628
21
-3.96520631081511
31
0.000000000000000
  0
LINE
  5
F105AA
330
F105AB
100
AcDbEntity
8
Geo
100
AcDbLine
10
-76.3030738426628
20
-3.96520631081511
30
0.000000000000000
11
-76.2030738426628
21
-4.04837789093294
31
0.000000000000000
  0
LINE
  5
F105AC
330
F105AD
100
AcDbEntity
8
Geo
100
AcDbLine
10
-76.2030738426628
20
-4.04837789093294
30
0.000000000000000
11
-76.1030738426628
21
-4.11766619025034
31
0.000000000000000
  0
LINE
  5
F105AE
330
F105AF
100
AcDbEntity
8
Geo
100
AcDbLine
10
-76.1030738426628
20
-4.11766619025034
30
0.000000000000000
11
-76.0030738426628
21
-4.17384155825178
31
0.000000000000000
  0
LINE
  5
F105B0
330
F105B1
100
AcDbEntity
8
Geo
100
AcDbLine
10
-76.0030738426628
20
-4.17384155825178
30
0.000000000000000
11
-75.9030738426628
21
-4.21767820462188
31
0.000000000000000
  0
LINE
  5
F105B2
330
F105B3
100
AcDbEntity
8
Geo
100
AcDbLine
10
-75.9030738426628
20
-4.21767820462188
30
0.000000000000000
11
-75.8030738426628
21
-4.24995046545656
31
0.000000000000000
  0
LINE
  5
F105B4
330
F105B5
100
AcDbEntity
8
Geo
100
AcDbLine
10
-75.8030738426628
20
-4.24995046545656
30
0.000000000000000
11
-75.7030738426627
21
-4.27142939392895
31
0.000000000000000
  0
LINE
  5
F105B6
330
F105B7
100
AcDbEntity
8
Geo
100
AcDbLine
10
-75.7030738426627
20
-4.27142939392895
30
0.000000000000000
11
-75.6030738426628
21
-4.28287966569416
31
0.000000000000000
  0
LINE
  5
F105B8
330
F105B9
100
AcDbEntity
8
Geo
100
AcDbLine
10
-75.6030738426628
20
-4.28287966569416
30
0.000000000000000
11
-75.5030738426628
21
-4.28534114064826
31
0.000000000000000
  0
LINE
  5
F105BA
330
F105BB
100
AcDbEntity
8
Geo
100
AcDbLine
10
-87.1030738426628
20
15.7118026585278
30
0.000000000000000
11
-87.0030738426628
21
15.7135947101755
31
0.000000000000000
  0
LINE
  5
F105BC
330
F105BD
100
AcDbEntity
8
Geo
100
AcDbLine
10
-87.0030738426628
20
15.7135947101755
30
0.000000000000000
11
-86.9030738426628
21
15.7005753522303
31
0.000000000000000
  0
LINE
  5
F105BE
330
F105BF
100
AcDbEntity
8
Geo
100
AcDbLine
10
-86.9030738426628
20
15.7005753522303
30
0.000000000000000
11
-86.8030738426628
21
15.6727638702487
31
0.000000000000000
  0
LINE
  5
F105C0
330
F105C1
100
AcDbEntity
8
Geo
100
AcDbLine
10
-86.8030738426628
20
15.6727638702487
30
0.000000000000000
11
-86.7030738426628
21
15.6302014613398
31
0.000000000000000
  0
LINE
  5
F105C2
330
F105C3
100
AcDbEntity
8
Geo
100
AcDbLine
10
-86.7030738426628
20
15.6302014613398
30
0.000000000000000
11
-86.6030738426628
21
15.5729511731400
31
0.000000000000000
  0
LINE
  5
F105C4
330
F105C5
100
AcDbEntity
8
Geo
100
AcDbLine
10
-86.6030738426628
20
15.5729511731400
30
0.000000000000000
11
-86.5030738426628
21
15.5010978104205
31
0.000000000000000
  0
LINE
  5
F105C6
330
F105C7
100
AcDbEntity
8
Geo
100
AcDbLine
10
-86.5030738426628
20
15.5010978104205
30
0.000000000000000
11
-86.4030738426628
21
15.4147478094664
31
0.000000000000000
  0
LINE
  5
F105C8
330
F105C9
100
AcDbEntity
8
Geo
100
AcDbLine
10
-86.4030738426628
20
15.4147478094664
30
0.000000000000000
11
-86.3030738426628
21
15.3140290804124
31
0.000000000000000
  0
LINE
  5
F105CA
330
F105CB
100
AcDbEntity
8
Geo
100
AcDbLine
10
-86.3030738426628
20
15.3140290804124
30
0.000000000000000
11
-86.2030738426628
21
15.1990908177700
31
0.000000000000000
  0
LINE
  5
F105CC
330
F105CD
100
AcDbEntity
8
Geo
100
AcDbLine
10
-86.2030738426628
20
15.1990908177700
30
0.000000000000000
11
-86.1030738426628
21
15.0701032794259
31
0.000000000000000
  0
LINE
  5
F105CE
330
F105CF
100
AcDbEntity
8
Geo
100
AcDbLine
10
-86.1030738426628
20
15.0701032794259
30
0.000000000000000
11
-86.0030738426628
21
14.9272575344388
31
0.000000000000000
  0
LINE
  5
F105D0
330
F105D1
100
AcDbEntity
8
Geo
100
AcDbLine
10
-86.0030738426628
20
14.9272575344388
30
0.000000000000000
11
-85.9030738426628
21
14.7707651800097
31
0.000000000000000
  0
LINE
  5
F105D2
330
F105D3
100
AcDbEntity
8
Geo
100
AcDbLine
10
-85.9030738426628
20
14.7707651800097
30
0.000000000000000
11
-85.8030738426628
21
14.6008580280427
31
0.000000000000000
  0
LINE
  5
F105D4
330
F105D5
100
AcDbEntity
8
Geo
100
AcDbLine
10
-85.8030738426628
20
14.6008580280427
30
0.000000000000000
11
-85.7030738426628
21
14.4177877617628
31
0.000000000000000
  0
LINE
  5
F105D6
330
F105D7
100
AcDbEntity
8
Geo
100
AcDbLine
10
-85.7030738426628
20
14.4177877617628
30
0.000000000000000
11
-85.6030738426628
21
14.2218255628975
31
0.000000000000000
  0
LINE
  5
F105D8
330
F105D9
100
AcDbEntity
8
Geo
100
AcDbLine
10
-85.6030738426628
20
14.2218255628975
30
0.000000000000000
11
-85.5030738426628
21
14.0132617099760
31
0.000000000000000
  0
LINE
  5
F105DA
330
F105DB
100
AcDbEntity
8
Geo
100
AcDbLine
10
-85.5030738426628
20
14.0132617099760
30
0.000000000000000
11
-85.4030738426628
21
13.7924051483400
31
0.000000000000000
  0
LINE
  5
F105DC
330
F105DD
100
AcDbEntity
8
Geo
100
AcDbLine
10
-85.4030738426628
20
13.7924051483400
30
0.000000000000000
11
-85.3030738426628
21
13.5595830325030
31
0.000000000000000
  0
LINE
  5
F105DE
330
F105DF
100
AcDbEntity
8
Geo
100
AcDbLine
10
-85.3030738426628
20
13.5595830325030
30
0.000000000000000
11
-85.2030738426628
21
13.3151402415375
31
0.000000000000000
  0
LINE
  5
F105E0
330
F105E1
100
AcDbEntity
8
Geo
100
AcDbLine
10
-85.2030738426628
20
13.3151402415375
30
0.000000000000000
11
-85.1030738426628
21
13.0594388682052
31
0.000000000000000
  0
LINE
  5
F105E2
330
F105E3
100
AcDbEntity
8
Geo
100
AcDbLine
10
-85.1030738426628
20
13.0594388682052
30
0.000000000000000
11
-85.0030738426628
21
12.7928576825906
31
0.000000000000000
  0
LINE
  5
F105E4
330
F105E5
100
AcDbEntity
8
Geo
100
AcDbLine
10
-85.0030738426628
20
12.7928576825906
30
0.000000000000000
11
-84.9030738426628
21
12.5157915710282
31
0.000000000000000
  0
LINE
  5
F105E6
330
F105E7
100
AcDbEntity
8
Geo
100
AcDbLine
10
-84.9030738426628
20
12.5157915710282
30
0.000000000000000
11
-84.8030738426628
21
12.2286509511590
31
0.000000000000000
  0
LINE
  5
F105E8
330
F105E9
100
AcDbEntity
8
Geo
100
AcDbLine
10
-84.8030738426628
20
12.2286509511590
30
0.000000000000000
11
-84.7030738426628
21
11.9318611639787
31
0.000000000000000
  0
LINE
  5
F105EA
330
F105EB
100
AcDbEntity
8
Geo
100
AcDbLine
10
-84.7030738426628
20
11.9318611639787
30
0.000000000000000
11
-84.6030738426628
21
11.6258618437811
31
0.000000000000000
  0
LINE
  5
F105EC
330
F105ED
100
AcDbEntity
8
Geo
100
AcDbLine
10
-84.6030738426628
20
11.6258618437811
30
0.000000000000000
11
-84.5030738426628
21
11.3111062669282
31
0.000000000000000
  0
LINE
  5
F105EE
330
F105EF
100
AcDbEntity
8
Geo
100
AcDbLine
10
-84.5030738426628
20
11.3111062669282
30
0.000000000000000
11
-84.4030738426628
21
10.9880606804128
31
0.000000000000000
  0
LINE
  5
F105F0
330
F105F1
100
AcDbEntity
8
Geo
100
AcDbLine
10
-84.4030738426628
20
10.9880606804128
30
0.000000000000000
11
-84.3030738426628
21
10.6572036112070
31
0.000000000000000
  0
LINE
  5
F105F2
330
F105F3
100
AcDbEntity
8
Geo
100
AcDbLine
10
-84.3030738426628
20
10.6572036112070
30
0.000000000000000
11
-84.2030738426628
21
10.3190251574215
31
0.000000000000000
  0
LINE
  5
F105F4
330
F105F5
100
AcDbEntity
8
Geo
100
AcDbLine
10
-84.2030738426628
20
10.3190251574215
30
0.000000000000000
11
-84.1030738426628
21
9.97402626232368
31
0.000000000000000
  0
LINE
  5
F105F6
330
F105F7
100
AcDbEntity
8
Geo
100
AcDbLine
10
-84.1030738426628
20
9.97402626232368
30
0.000000000000000
11
-84.0030738426628
21
9.62271797229087
31
0.000000000000000
  0
LINE
  5
F105F8
330
F105F9
100
AcDbEntity
8
Geo
100
AcDbLine
10
-84.0030738426628
20
9.62271797229087
30
0.000000000000000
11
-83.9030738426628
21
9.26562067979831
31
0.000000000000000
  0
LINE
  5
F105FA
330
F105FB
100
AcDbEntity
8
Geo
100
AcDbLine
10
-83.9030738426628
20
9.26562067979831
30
0.000000000000000
11
-83.8030738426628
21
8.90326335256241
31
0.000000000000000
  0
LINE
  5
F105FC
330
F105FD
100
AcDbEntity
8
Geo
100
AcDbLine
10
-83.8030738426628
20
8.90326335256241
30
0.000000000000000
11
-83.7030738426628
21
8.53618274998167
31
0.000000000000000
  0
LINE
  5
F105FE
330
F105FF
100
AcDbEntity
8
Geo
100
AcDbLine
10
-83.7030738426628
20
8.53618274998167
30
0.000000000000000
11
-83.6030738426628
21
8.16492262803567
31
0.000000000000000
  0
LINE
  5
F10600
330
F10601
100
AcDbEntity
8
Geo
100
AcDbLine
10
-83.6030738426628
20
8.16492262803567
30
0.000000000000000
11
-83.5030738426628
21
7.79003293382015
31
0.000000000000000
  0
LINE
  5
F10602
330
F10603
100
AcDbEntity
8
Geo
100
AcDbLine
10
-83.5030738426628
20
7.79003293382015
30
0.000000000000000
11
-83.4030738426628
21
7.41206899091116
31
0.000000000000000
  0
LINE
  5
F10604
330
F10605
100
AcDbEntity
8
Geo
100
AcDbLine
10
-83.4030738426628
20
7.41206899091116
30
0.000000000000000
11
-83.3030738426628
21
7.03159067676498
31
0.000000000000000
  0
LINE
  5
F10606
330
F10607
100
AcDbEntity
8
Geo
100
AcDbLine
10
-83.3030738426628
20
7.03159067676498
30
0.000000000000000
11
-83.2030738426628
21
6.64916159337248
31
0.000000000000000
  0
LINE
  5
F10608
330
F10609
100
AcDbEntity
8
Geo
100
AcDbLine
10
-83.2030738426628
20
6.64916159337248
30
0.000000000000000
11
-83.1030738426628
21
6.26534823239626
31
0.000000000000000
  0
LINE
  5
F1060A
330
F1060B
100
AcDbEntity
8
Geo
100
AcDbLine
10
-83.1030738426628
20
6.26534823239626
30
0.000000000000000
11
-83.0030738426628
21
5.88071913602736
31
0.000000000000000
  0
LINE
  5
F1060C
330
F1060D
100
AcDbEntity
8
Geo
100
AcDbLine
10
-83.0030738426628
20
5.88071913602736
30
0.000000000000000
11
-82.9030738426628
21
5.49584405480449
31
0.000000000000000
  0
LINE
  5
F1060E
330
F1060F
100
AcDbEntity
8
Geo
100
AcDbLine
10
-82.9030738426628
20
5.49584405480449
30
0.000000000000000
11
-82.8030738426628
21
5.11129310364343
31
0.000000000000000
  0
LINE
  5
F10610
330
F10611
100
AcDbEntity
8
Geo
100
AcDbLine
10
-82.8030738426628
20
5.11129310364343
30
0.000000000000000
11
-82.7030738426628
21
4.72763591732649
31
0.000000000000000
  0
LINE
  5
F10612
330
F10613
100
AcDbEntity
8
Geo
100
AcDbLine
10
-82.7030738426628
20
4.72763591732649
30
0.000000000000000
11
-82.6030738426628
21
4.34544080670342
31
0.000000000000000
  0
LINE
  5
F10614
330
F10615
100
AcDbEntity
8
Geo
100
AcDbLine
10
-82.6030738426628
20
4.34544080670342
30
0.000000000000000
11
-82.5030738426628
21
3.96527391685328
31
0.000000000000000
  0
LINE
  5
F10616
330
F10617
100
AcDbEntity
8
Geo
100
AcDbLine
10
-82.5030738426628
20
3.96527391685328
30
0.000000000000000
11
-82.4030738426628
21
3.58769838845457
31
0.000000000000000
  0
LINE
  5
F10618
330
F10619
100
AcDbEntity
8
Geo
100
AcDbLine
10
-82.4030738426628
20
3.58769838845457
30
0.000000000000000
11
-82.3030738426628
21
3.21327352360571
31
0.000000000000000
  0
LINE
  5
F1061A
330
F1061B
100
AcDbEntity
8
Geo
100
AcDbLine
10
-82.3030738426628
20
3.21327352360571
30
0.000000000000000
11
-82.2030738426628
21
2.84255395733166
31
0.000000000000000
  0
LINE
  5
F1061C
330
F1061D
100
AcDbEntity
8
Geo
100
AcDbLine
10
-82.2030738426628
20
2.84255395733166
30
0.000000000000000
11
-82.1030738426628
21
2.47608883600379
31
0.000000000000000
  0
LINE
  5
F1061E
330
F1061F
100
AcDbEntity
8
Geo
100
AcDbLine
10
-82.1030738426628
20
2.47608883600379
30
0.000000000000000
11
-82.0030738426628
21
2.11442100389019
31
0.000000000000000
  0
LINE
  5
F10620
330
F10621
100
AcDbEntity
8
Geo
100
AcDbLine
10
-82.0030738426628
20
2.11442100389019
30
0.000000000000000
11
-81.9030738426628
21
1.75808619904119
31
0.000000000000000
  0
LINE
  5
F10622
330
F10623
100
AcDbEntity
8
Geo
100
AcDbLine
10
-81.9030738426628
20
1.75808619904119
30
0.000000000000000
11
-81.8030738426628
21
1.40761225970133
31
0.000000000000000
  0
LINE
  5
F10624
330
F10625
100
AcDbEntity
8
Geo
100
AcDbLine
10
-81.8030738426628
20
1.40761225970133
30
0.000000000000000
11
-81.7030738426628
21
1.06351834242334
31
0.000000000000000
  0
LINE
  5
F10626
330
F10627
100
AcDbEntity
8
Geo
100
AcDbLine
10
-81.7030738426628
20
1.06351834242334
30
0.000000000000000
11
-81.6030738426628
21
0.726314153042241
31
0.000000000000000
  0
LINE
  5
F10628
330
F10629
100
AcDbEntity
8
Geo
100
AcDbLine
10
-81.6030738426628
20
0.726314153042241
30
0.000000000000000
11
-81.5030738426628
21
0.396499191648840
31
0.000000000000000
  0
LINE
  5
F1062A
330
F1062B
100
AcDbEntity
8
Geo
100
AcDbLine
10
-81.5030738426628
20
0.396499191648840
30
0.000000000000000
11
-81.4030738426628
21
0.0745620126809268
31
0.000000000000000
  0
LINE
  5
F1062C
330
F1062D
100
AcDbEntity
8
Geo
100
AcDbLine
10
-81.4030738426628
20
0.0745620126809268
30
0.000000000000000
11
-81.3030738426628
21
-0.239020498771723
31
0.000000000000000
  0
LINE
  5
F1062E
330
F1062F
100
AcDbEntity
8
Geo
100
AcDbLine
10
-81.3030738426628
20
-0.239020498771723
30
0.000000000000000
11
-81.2030738426628
21
-0.543783833376557
31
0.000000000000000
  0
LINE
  5
F10630
330
F10631
100
AcDbEntity
8
Geo
100
AcDbLine
10
-81.2030738426628
20
-0.543783833376557
30
0.000000000000000
11
-81.1030738426628
21
-0.839276545635262
31
0.000000000000000
  0
LINE
  5
F10632
330
F10633
100
AcDbEntity
8
Geo
100
AcDbLine
10
-81.1030738426628
20
-0.839276545635262
30
0.000000000000000
11
-81.0030738426628
21
-1.12506092260935
31
0.000000000000000
  0
LINE
  5
F10634
330
F10635
100
AcDbEntity
8
Geo
100
AcDbLine
10
-81.0030738426628
20
-1.12506092260935
30
0.000000000000000
11
-80.9030738426628
21
-1.40071363230374
31
0.000000000000000
  0
LINE
  5
F10636
330
F10637
100
AcDbEntity
8
Geo
100
AcDbLine
10
-80.9030738426628
20
-1.40071363230374
30
0.000000000000000
11
-80.8030738426628
21
-1.66582635074776
31
0.000000000000000
  0
LINE
  5
F10638
330
F10639
100
AcDbEntity
8
Geo
100
AcDbLine
10
-80.8030738426628
20
-1.66582635074776
30
0.000000000000000
11
-80.7030738426628
21
-1.92000636684500
31
0.000000000000000
  0
LINE
  5
F1063A
330
F1063B
100
AcDbEntity
8
Geo
100
AcDbLine
10
-80.7030738426628
20
-1.92000636684500
30
0.000000000000000
11
-80.6030738426628
21
-2.16287716409560
31
0.000000000000000
  0
LINE
  5
F1063C
330
F1063D
100
AcDbEntity
8
Geo
100
AcDbLine
10
-80.6030738426628
20
-2.16287716409560
30
0.000000000000000
11
-80.5030738426628
21
-2.39407897832966
31
0.000000000000000
  0
LINE
  5
F1063E
330
F1063F
100
AcDbEntity
8
Geo
100
AcDbLine
10
-80.5030738426628
20
-2.39407897832966
30
0.000000000000000
11
-80.4030738426628
21
-2.61326933062540
31
0.000000000000000
  0
LINE
  5
F10640
330
F10641
100
AcDbEntity
8
Geo
100
AcDbLine
10
-80.4030738426628
20
-2.61326933062540
30
0.000000000000000
11
-80.3030738426628
21
-2.82012353462267
31
0.000000000000000
  0
LINE
  5
F10642
330
F10643
100
AcDbEntity
8
Geo
100
AcDbLine
10
-80.3030738426628
20
-2.82012353462267
30
0.000000000000000
11
-80.2030738426628
21
-3.01433517748044
31
0.000000000000000
  0
LINE
  5
F10644
330
F10645
100
AcDbEntity
8
Geo
100
AcDbLine
10
-80.2030738426628
20
-3.01433517748044
30
0.000000000000000
11
-80.1030738426628
21
-3.19561657376567
31
0.000000000000000
  0
LINE
  5
F10646
330
F10647
100
AcDbEntity
8
Geo
100
AcDbLine
10
-80.1030738426628
20
-3.19561657376567
30
0.000000000000000
11
-80.0030738426628
21
-3.36369919160136
31
0.000000000000000
  0
LINE
  5
F10648
330
F10649
100
AcDbEntity
8
Geo
100
AcDbLine
10
-80.0030738426628
20
-3.36369919160136
30
0.000000000000000
11
-79.9030738426628
21
-3.51833405044246
31
0.000000000000000
  0
LINE
  5
F1064A
330
F1064B
100
AcDbEntity
8
Geo
100
AcDbLine
10
-79.9030738426628
20
-3.51833405044246
30
0.000000000000000
11
-79.8030738426628
21
-3.65929208989035
31
0.000000000000000
  0
LINE
  5
F1064C
330
F1064D
100
AcDbEntity
8
Geo
100
AcDbLine
10
-79.8030738426628
20
-3.65929208989035
30
0.000000000000000
11
-79.7030738426628
21
-3.78636450899972
31
0.000000000000000
  0
LINE
  5
F1064E
330
F1064F
100
AcDbEntity
8
Geo
100
AcDbLine
10
-79.7030738426628
20
-3.78636450899972
30
0.000000000000000
11
-79.6030738426628
21
-3.89936307557514
31
0.000000000000000
  0
LINE
  5
F10650
330
F10651
100
AcDbEntity
8
Geo
100
AcDbLine
10
-79.6030738426628
20
-3.89936307557514
30
0.000000000000000
11
-79.5030738426628
21
-3.99812040499907
31
0.000000000000000
  0
LINE
  5
F10652
330
F10653
100
AcDbEntity
8
Geo
100
AcDbLine
10
-79.5030738426628
20
-3.99812040499907
30
0.000000000000000
11
-79.4030738426628
21
-4.08249020817853
31
0.000000000000000
  0
LINE
  5
F10654
330
F10655
100
AcDbEntity
8
Geo
100
AcDbLine
10
-79.4030738426628
20
-4.08249020817853
30
0.000000000000000
11
-79.3030738426628
21
-4.15234750824291
31
0.000000000000000
  0
LINE
  5
F10656
330
F10657
100
AcDbEntity
8
Geo
100
AcDbLine
10
-79.3030738426628
20
-4.15234750824291
30
0.000000000000000
11
-79.2030738426628
21
-4.20758882567201
31
0.000000000000000
  0
LINE
  5
F10658
330
F10659
100
AcDbEntity
8
Geo
100
AcDbLine
10
-79.2030738426628
20
-4.20758882567201
30
0.000000000000000
11
-79.1030738426628
21
-4.24813233158013
31
0.000000000000000
  0
LINE
  5
F1065A
330
F1065B
100
AcDbEntity
8
Geo
100
AcDbLine
10
-79.1030738426628
20
-4.24813233158013
30
0.000000000000000
11
-79.0030738426628
21
-4.27391796892907
31
0.000000000000000
  0
LINE
  5
F1065C
330
F1065D
100
AcDbEntity
8
Geo
100
AcDbLine
10
-79.0030738426628
20
-4.27391796892907
30
0.000000000000000
11
-78.9030738426628
21
-4.28490754149053
31
0.000000000000000
  0
LINE
  5
F1065E
330
F1065F
100
AcDbEntity
8
Geo
100
AcDbLine
10
-87.9030738426628
20
15.7130991548708
30
0.000000000000000
11
-87.8030738426628
21
15.7124899223855
31
0.000000000000000
  0
LINE
  5
F10660
330
F10661
100
AcDbEntity
8
Geo
100
AcDbLine
10
-87.8030738426628
20
15.7124899223855
30
0.000000000000000
11
-87.7030738426628
21
15.6970709168278
31
0.000000000000000
  0
LINE
  5
F10662
330
F10663
100
AcDbEntity
8
Geo
100
AcDbLine
10
-87.7030738426628
20
15.6970709168278
30
0.000000000000000
11
-87.6030738426628
21
15.6668649783489
31
0.000000000000000
  0
LINE
  5
F10664
330
F10665
100
AcDbEntity
8
Geo
100
AcDbLine
10
-87.6030738426628
20
15.6668649783489
30
0.000000000000000
11
-87.5030738426628
21
15.6219168509629
31
0.000000000000000
  0
LINE
  5
F10666
330
F10667
100
AcDbEntity
8
Geo
100
AcDbLine
10
-87.5030738426628
20
15.6219168509629
30
0.000000000000000
11
-87.4030738426628
21
15.5622931162678
31
0.000000000000000
  0
LINE
  5
F10668
330
F10669
100
AcDbEntity
8
Geo
100
AcDbLine
10
-87.4030738426628
20
15.5622931162678
30
0.000000000000000
11
-87.3030738426628
21
15.4880820948176
31
0.000000000000000
  0
LINE
  5
F1066A
330
F1066B
100
AcDbEntity
8
Geo
100
AcDbLine
10
-87.3030738426628
20
15.4880820948176
30
0.000000000000000
11
-87.2030738426628
21
15.3993937152940
31
0.000000000000000
  0
LINE
  5
F1066C
330
F1066D
100
AcDbEntity
8
Geo
100
AcDbLine
10
-87.2030738426628
20
15.3993937152940
30
0.000000000000000
11
-87.1030738426628
21
15.2963593516685
31
0.000000000000000
  0
LINE
  5
F1066E
330
F1066F
100
AcDbEntity
8
Geo
100
AcDbLine
10
-87.1030738426628
20
15.2963593516685
30
0.000000000000000
11
-87.0030738426628
21
15.1791316285990
31
0.000000000000000
  0
LINE
  5
F10670
330
F10671
100
AcDbEntity
8
Geo
100
AcDbLine
10
-87.0030738426628
20
15.1791316285990
30
0.000000000000000
11
-86.9030738426628
21
15.0478841953465
31
0.000000000000000
  0
LINE
  5
F10672
330
F10673
100
AcDbEntity
8
Geo
100
AcDbLine
10
-86.9030738426628
20
15.0478841953465
30
0.000000000000000
11
-86.8030738426628
21
14.9028114685491
31
0.000000000000000
  0
LINE
  5
F10674
330
F10675
100
AcDbEntity
8
Geo
100
AcDbLine
10
-86.8030738426628
20
14.9028114685491
30
0.000000000000000
11
-86.7030738426628
21
14.7441283442325
31
0.000000000000000
  0
LINE
  5
F10676
330
F10677
100
AcDbEntity
8
Geo
100
AcDbLine
10
-86.7030738426628
20
14.7441283442325
30
0.000000000000000
11
-86.6030738426628
21
14.5720698794855
31
0.000000000000000
  0
LINE
  5
F10678
330
F10679
100
AcDbEntity
8
Geo
100
AcDbLine
10
-86.6030738426628
20
14.5720698794855
30
0.000000000000000
11
-86.5030738426628
21
14.3868909442693
31
0.000000000000000
  0
LINE
  5
F1067A
330
F1067B
100
AcDbEntity
8
Geo
100
AcDbLine
10
-86.5030738426628
20
14.3868909442693
30
0.000000000000000
11
-86.4030738426628
21
14.1888658438801
31
0.000000000000000
  0
LINE
  5
F1067C
330
F1067D
100
AcDbEntity
8
Geo
100
AcDbLine
10
-86.4030738426628
20
14.1888658438801
30
0.000000000000000
11
-86.3030738426628
21
13.9782879126201
31
0.000000000000000
  0
LINE
  5
F1067E
330
F1067F
100
AcDbEntity
8
Geo
100
AcDbLine
10
-86.3030738426628
20
13.9782879126201
30
0.000000000000000
11
-86.2030738426628
21
13.7554690792822
31
0.000000000000000
  0
LINE
  5
F10680
330
F10681
100
AcDbEntity
8
Geo
100
AcDbLine
10
-86.2030738426628
20
13.7554690792822
30
0.000000000000000
11
-86.1030738426628
21
13.5207394050905
31
0.000000000000000
  0
LINE
  5
F10682
330
F10683
100
AcDbEntity
8
Geo
100
AcDbLine
10
-86.1030738426628
20
13.5207394050905
30
0.000000000000000
11
-86.0030738426628
21
13.2744465947808
31
0.000000000000000
  0
LINE
  5
F10684
330
F10685
100
AcDbEntity
8
Geo
100
AcDbLine
10
-86.0030738426628
20
13.2744465947808
30
0.000000000000000
11
-85.9030738426628
21
13.0169554815461
31
0.000000000000000
  0
LINE
  5
F10686
330
F10687
100
AcDbEntity
8
Geo
100
AcDbLine
10
-85.9030738426628
20
13.0169554815461
30
0.000000000000000
11
-85.8030738426628
21
12.7486474866097
31
0.000000000000000
  0
LINE
  5
F10688
330
F10689
100
AcDbEntity
8
Geo
100
AcDbLine
10
-85.8030738426628
20
12.7486474866097
30
0.000000000000000
11
-85.7030738426628
21
12.4699200542266
31
0.000000000000000
  0
LINE
  5
F1068A
330
F1068B
100
AcDbEntity
8
Geo
100
AcDbLine
10
-85.7030738426628
20
12.4699200542266
30
0.000000000000000
11
-85.6030738426628
21
12.1811860629500
31
0.000000000000000
  0
LINE
  5
F1068C
330
F1068D
100
AcDbEntity
8
Geo
100
AcDbLine
10
-85.6030738426628
20
12.1811860629500
30
0.000000000000000
11
-85.5030738426628
21
11.8828732140343
31
0.000000000000000
  0
LINE
  5
F1068E
330
F1068F
100
AcDbEntity
8
Geo
100
AcDbLine
10
-85.5030738426628
20
11.8828732140343
30
0.000000000000000
11
-85.4030738426628
21
11.5754233978826
31
0.000000000000000
  0
LINE
  5
F10690
330
F10691
100
AcDbEntity
8
Geo
100
AcDbLine
10
-85.4030738426628
20
11.5754233978826
30
0.000000000000000
11
-85.3030738426628
21
11.2592920394744
31
0.000000000000000
  0
LINE
  5
F10692
330
F10693
100
AcDbEntity
8
Geo
100
AcDbLine
10
-85.3030738426628
20
11.2592920394744
30
0.000000000000000
11
-85.2030738426628
21
10.9349474237458
31
0.000000000000000
  0
LINE
  5
F10694
330
F10695
100
AcDbEntity
8
Geo
100
AcDbLine
10
-85.2030738426628
20
10.9349474237458
30
0.000000000000000
11
-85.1030738426628
21
10.6028700019192
31
0.000000000000000
  0
LINE
  5
F10696
330
F10697
100
AcDbEntity
8
Geo
100
AcDbLine
10
-85.1030738426628
20
10.6028700019192
30
0.000000000000000
11
-85.0030738426628
21
10.2635516798118
31
0.000000000000000
  0
LINE
  5
F10698
330
F10699
100
AcDbEntity
8
Geo
100
AcDbLine
10
-85.0030738426628
20
10.2635516798118
30
0.000000000000000
11
-84.9030738426628
21
9.91749508917636
31
0.000000000000000
  0
LINE
  5
F1069A
330
F1069B
100
AcDbEntity
8
Geo
100
AcDbLine
10
-84.9030738426628
20
9.91749508917636
30
0.000000000000000
11
-84.8030738426628
21
9.56521284315305
31
0.000000000000000
  0
LINE
  5
F1069C
330
F1069D
100
AcDbEntity
8
Geo
100
AcDbLine
10
-84.8030738426628
20
9.56521284315305
30
0.000000000000000
11
-84.7030738426628
21
9.20722677693679
31
0.000000000000000
  0
LINE
  5
F1069E
330
F1069F
100
AcDbEntity
8
Geo
100
AcDbLine
10
-84.7030738426628
20
9.20722677693679
30
0.000000000000000
11
-84.6030738426628
21
8.84406717478327
31
0.000000000000000
  0
LINE
  5
F106A0
330
F106A1
100
AcDbEntity
8
Geo
100
AcDbLine
10
-84.6030738426628
20
8.84406717478327
30
0.000000000000000
11
-84.5030738426628
21
8.47627198449967
31
0.000000000000000
  0
LINE
  5
F106A2
330
F106A3
100
AcDbEntity
8
Geo
100
AcDbLine
10
-84.5030738426628
20
8.47627198449967
30
0.000000000000000
11
-84.4030738426628
21
8.10438602058334
31
0.000000000000000
  0
LINE
  5
F106A4
330
F106A5
100
AcDbEntity
8
Geo
100
AcDbLine
10
-84.4030738426628
20
8.10438602058334
30
0.000000000000000
11
-84.3030738426628
21
7.72896015718885
31
0.000000000000000
  0
LINE
  5
F106A6
330
F106A7
100
AcDbEntity
8
Geo
100
AcDbLine
10
-84.3030738426628
20
7.72896015718885
30
0.000000000000000
11
-84.2030738426628
21
7.35055051211890
31
0.000000000000000
  0
LINE
  5
F106A8
330
F106A9
100
AcDbEntity
8
Geo
100
AcDbLine
10
-84.2030738426628
20
7.35055051211890
30
0.000000000000000
11
-84.1030738426628
21
6.96971762304774
31
0.000000000000000
  0
LINE
  5
F106AA
330
F106AB
100
AcDbEntity
8
Geo
100
AcDbLine
10
-84.1030738426628
20
6.96971762304774
30
0.000000000000000
11
-84.0030738426628
21
6.58702561719759
31
0.000000000000000
  0
LINE
  5
F106AC
330
F106AD
100
AcDbEntity
8
Geo
100
AcDbLine
10
-84.0030738426628
20
6.58702561719759
30
0.000000000000000
11
-83.9030738426628
21
6.20304137569771
31
0.000000000000000
  0
LINE
  5
F106AE
330
F106AF
100
AcDbEntity
8
Geo
100
AcDbLine
10
-83.9030738426628
20
6.20304137569771
30
0.000000000000000
11
-83.8030738426628
21
5.81833369386422
31
0.000000000000000
  0
LINE
  5
F106B0
330
F106B1
100
AcDbEntity
8
Geo
100
AcDbLine
10
-83.8030738426628
20
5.81833369386422
30
0.000000000000000
11
-83.7030738426628
21
5.43347243864439
31
0.000000000000000
  0
LINE
  5
F106B2
330
F106B3
100
AcDbEntity
8
Geo
100
AcDbLine
10
-83.7030738426628
20
5.43347243864439
30
0.000000000000000
11
-83.6030738426628
21
5.04902770447352
31
0.000000000000000
  0
LINE
  5
F106B4
330
F106B5
100
AcDbEntity
8
Geo
100
AcDbLine
10
-83.6030738426628
20
5.04902770447352
30
0.000000000000000
11
-83.5030738426628
21
4.66556896879488
31
0.000000000000000
  0
LINE
  5
F106B6
330
F106B7
100
AcDbEntity
8
Geo
100
AcDbLine
10
-83.5030738426628
20
4.66556896879488
30
0.000000000000000
11
-83.4030738426628
21
4.28366424849354
31
0.000000000000000
  0
LINE
  5
F106B8
330
F106B9
100
AcDbEntity
8
Geo
100
AcDbLine
10
-83.4030738426628
20
4.28366424849354
30
0.000000000000000
11
-83.3030738426628
21
3.90387925849381
31
0.000000000000000
  0
LINE
  5
F106BA
330
F106BB
100
AcDbEntity
8
Geo
100
AcDbLine
10
-83.3030738426628
20
3.90387925849381
30
0.000000000000000
11
-83.2030738426628
21
3.52677657376646
31
0.000000000000000
  0
LINE
  5
F106BC
330
F106BD
100
AcDbEntity
8
Geo
100
AcDbLine
10
-83.2030738426628
20
3.52677657376646
30
0.000000000000000
11
-83.1030738426628
21
3.15291479598726
31
0.000000000000000
  0
LINE
  5
F106BE
330
F106BF
100
AcDbEntity
8
Geo
100
AcDbLine
10
-83.1030738426628
20
3.15291479598726
30
0.000000000000000
11
-83.0030738426628
21
2.78284772608106
31
0.000000000000000
  0
LINE
  5
F106C0
330
F106C1
100
AcDbEntity
8
Geo
100
AcDbLine
10
-83.0030738426628
20
2.78284772608106
30
0.000000000000000
11
-82.9030738426628
21
2.41712354387730
31
0.000000000000000
  0
LINE
  5
F106C2
330
F106C3
100
AcDbEntity
8
Geo
100
AcDbLine
10
-82.9030738426628
20
2.41712354387730
30
0.000000000000000
11
-82.8030738426628
21
2.05628399609201
31
0.000000000000000
  0
LINE
  5
F106C4
330
F106C5
100
AcDbEntity
8
Geo
100
AcDbLine
10
-82.8030738426628
20
2.05628399609201
30
0.000000000000000
11
-82.7030738426628
21
1.70086359383908
31
0.000000000000000
  0
LINE
  5
F106C6
330
F106C7
100
AcDbEntity
8
Geo
100
AcDbLine
10
-82.7030738426628
20
1.70086359383908
30
0.000000000000000
11
-82.6030738426628
21
1.35138882085978
31
0.000000000000000
  0
LINE
  5
F106C8
330
F106C9
100
AcDbEntity
8
Geo
100
AcDbLine
10
-82.6030738426628
20
1.35138882085978
30
0.000000000000000
11
-82.5030738426628
21
1.00837735364312
31
0.000000000000000
  0
LINE
  5
F106CA
330
F106CB
100
AcDbEntity
8
Geo
100
AcDbLine
10
-82.5030738426628
20
1.00837735364312
30
0.000000000000000
11
-82.4030738426628
21
0.672337294592367
31
0.000000000000000
  0
LINE
  5
F106CC
330
F106CD
100
AcDbEntity
8
Geo
100
AcDbLine
10
-82.4030738426628
20
0.672337294592367
30
0.000000000000000
11
-82.3030738426628
21
0.343766419373715
31
0.000000000000000
  0
LINE
  5
F106CE
330
F106CF
100
AcDbEntity
8
Geo
100
AcDbLine
10
-82.3030738426628
20
0.343766419373715
30
0.000000000000000
11
-82.2030738426628
21
0.0231514395618468
31
0.000000000000000
  0
LINE
  5
F106D0
330
F106D1
100
AcDbEntity
8
Geo
100
AcDbLine
10
-82.2030738426628
20
0.0231514395618468
30
0.000000000000000
11
-82.1030738426628
21
-0.289032718325203
31
0.000000000000000
  0
LINE
  5
F106D2
330
F106D3
100
AcDbEntity
8
Geo
100
AcDbLine
10
-82.1030738426628
20
-0.289032718325203
30
0.000000000000000
11
-82.0030738426628
21
-0.592323616334051
31
0.000000000000000
  0
LINE
  5
F106D4
330
F106D5
100
AcDbEntity
8
Geo
100
AcDbLine
10
-82.0030738426628
20
-0.592323616334051
30
0.000000000000000
11
-81.9030738426628
21
-0.886271990084652
31
0.000000000000000
  0
LINE
  5
F106D6
330
F106D7
100
AcDbEntity
8
Geo
100
AcDbLine
10
-81.9030738426628
20
-0.886271990084652
30
0.000000000000000
11
-81.8030738426628
21
-1.17044241426495
31
0.000000000000000
  0
LINE
  5
F106D8
330
F106D9
100
AcDbEntity
8
Geo
100
AcDbLine
10
-81.8030738426628
20
-1.17044241426495
30
0.000000000000000
11
-81.7030738426628
21
-1.44441394762586
31
0.000000000000000
  0
LINE
  5
F106DA
330
F106DB
100
AcDbEntity
8
Geo
100
AcDbLine
10
-81.7030738426628
20
-1.44441394762586
30
0.000000000000000
11
-81.6030738426628
21
-1.70778075652089
31
0.000000000000000
  0
LINE
  5
F106DC
330
F106DD
100
AcDbEntity
8
Geo
100
AcDbLine
10
-81.6030738426628
20
-1.70778075652089
30
0.000000000000000
11
-81.5030738426628
21
-1.96015271606694
31
0.000000000000000
  0
LINE
  5
F106DE
330
F106DF
100
AcDbEntity
8
Geo
100
AcDbLine
10
-81.5030738426628
20
-1.96015271606694
30
0.000000000000000
11
-81.4030738426628
21
-2.20115598803581
31
0.000000000000000
  0
LINE
  5
F106E0
330
F106E1
100
AcDbEntity
8
Geo
100
AcDbLine
10
-81.4030738426628
20
-2.20115598803581
30
0.000000000000000
11
-81.3030738426628
21
-2.43043357462014
31
0.000000000000000
  0
LINE
  5
F106E2
330
F106E3
100
AcDbEntity
8
Geo
100
AcDbLine
10
-81.3030738426628
20
-2.43043357462014
30
0.000000000000000
11
-81.2030738426628
21
-2.64764584725387
31
0.000000000000000
  0
LINE
  5
F106E4
330
F106E5
100
AcDbEntity
8
Geo
100
AcDbLine
10
-81.2030738426628
20
-2.64764584725387
30
0.000000000000000
11
-81.1030738426628
21
-2.85247104970347
31
0.000000000000000
  0
LINE
  5
F106E6
330
F106E7
100
AcDbEntity
8
Geo
100
AcDbLine
10
-81.1030738426628
20
-2.85247104970347
30
0.000000000000000
11
-81.0030738426628
21
-3.04460577468503
31
0.000000000000000
  0
LINE
  5
F106E8
330
F106E9
100
AcDbEntity
8
Geo
100
AcDbLine
10
-81.0030738426628
20
-3.04460577468503
30
0.000000000000000
11
-80.9030738426628
21
-3.22376541330105
31
0.000000000000000
  0
LINE
  5
F106EA
330
F106EB
100
AcDbEntity
8
Geo
100
AcDbLine
10
-80.9030738426628
20
-3.22376541330105
30
0.000000000000000
11
-80.8030738426628
21
-3.38968457663117
31
0.000000000000000
  0
LINE
  5
F106EC
330
F106ED
100
AcDbEntity
8
Geo
100
AcDbLine
10
-80.8030738426628
20
-3.38968457663117
30
0.000000000000000
11
-80.7030738426628
21
-3.54211748885245
31
0.000000000000000
  0
LINE
  5
F106EE
330
F106EF
100
AcDbEntity
8
Geo
100
AcDbLine
10
-80.7030738426628
20
-3.54211748885245
30
0.000000000000000
11
-80.6030738426628
21
-3.68083835130671
31
0.000000000000000
  0
LINE
  5
F106F0
330
F106F1
100
AcDbEntity
8
Geo
100
AcDbLine
10
-80.6030738426628
20
-3.68083835130671
30
0.000000000000000
11
-80.5030738426628
21
-3.80564167697576
31
0.000000000000000
  0
LINE
  5
F106F2
330
F106F3
100
AcDbEntity
8
Geo
100
AcDbLine
10
-80.5030738426628
20
-3.80564167697576
30
0.000000000000000
11
-80.4030738426628
21
-3.91634259486908
31
0.000000000000000
  0
LINE
  5
F106F4
330
F106F5
100
AcDbEntity
8
Geo
100
AcDbLine
10
-80.4030738426628
20
-3.91634259486908
30
0.000000000000000
11
-80.3030738426628
21
-4.01277712387290
31
0.000000000000000
  0
LINE
  5
F106F6
330
F106F7
100
AcDbEntity
8
Geo
100
AcDbLine
10
-80.3030738426628
20
-4.01277712387290
30
0.000000000000000
11
-80.2030738426628
21
-4.09480241565523
31
0.000000000000000
  0
LINE
  5
F106F8
330
F106F9
100
AcDbEntity
8
Geo
100
AcDbLine
10
-80.2030738426628
20
-4.09480241565523
30
0.000000000000000
11
-80.1030738426628
21
-4.16229696626688
31
0.000000000000000
  0
LINE
  5
F106FA
330
F106FB
100
AcDbEntity
8
Geo
100
AcDbLine
10
-80.1030738426628
20
-4.16229696626688
30
0.000000000000000
11
-80.0030738426628
21
-4.21516079612509
31
0.000000000000000
  0
LINE
  5
F106FC
330
F106FD
100
AcDbEntity
8
Geo
100
AcDbLine
10
-80.0030738426628
20
-4.21516079612509
30
0.000000000000000
11
-79.9030738426628
21
-4.25331559811316
31
0.000000000000000
  0
LINE
  5
F106FE
330
F106FF
100
AcDbEntity
8
Geo
100
AcDbLine
10
-79.9030738426628
20
-4.25331559811316
30
0.000000000000000
11
-79.8030738426628
21
-4.27670485357662
31
0.000000000000000
  0
LINE
  5
F10700
330
F10701
100
AcDbEntity
8
Geo
100
AcDbLine
10
-79.8030738426628
20
-4.27670485357662
30
0.000000000000000
11
-79.7030738426628
21
-4.28529391604431
31
0.000000000000000
  0
LINE
  5
F10702
330
F10703
100
AcDbEntity
8
Geo
100
AcDbLine
10
-91.2030738426628
20
15.7097934238533
30
0.000000000000000
11
-91.1030738426628
21
15.7143928185188
31
0.000000000000000
  0
LINE
  5
F10704
330
F10705
100
AcDbEntity
8
Geo
100
AcDbLine
10
-91.1030738426628
20
15.7143928185188
30
0.000000000000000
11
-91.0030738426628
21
15.7041796213545
31
0.000000000000000
  0
LINE
  5
F10706
330
F10707
100
AcDbEntity
8
Geo
100
AcDbLine
10
-91.0030738426628
20
15.7041796213545
30
0.000000000000000
11
-90.9030738426628
21
15.6791689611551
31
0.000000000000000
  0
LINE
  5
F10708
330
F10709
100
AcDbEntity
8
Geo
100
AcDbLine
10
-90.9030738426628
20
15.6791689611551
30
0.000000000000000
11
-90.8030738426628
21
15.6393978861762
31
0.000000000000000
  0
LINE
  5
F1070A
330
F1070B
100
AcDbEntity
8
Geo
100
AcDbLine
10
-90.8030738426628
20
15.6393978861762
30
0.000000000000000
11
-90.7030738426628
21
15.5849253092553
31
0.000000000000000
  0
LINE
  5
F1070C
330
F1070D
100
AcDbEntity
8
Geo
100
AcDbLine
10
-90.7030738426628
20
15.5849253092553
30
0.000000000000000
11
-90.6030738426628
21
15.5158319205437
31
0.000000000000000
  0
LINE
  5
F1070E
330
F1070F
100
AcDbEntity
8
Geo
100
AcDbLine
10
-90.6030738426628
20
15.5158319205437
30
0.000000000000000
11
-90.5030738426628
21
15.4322200679809
31
0.000000000000000
  0
LINE
  5
F10710
330
F10711
100
AcDbEntity
8
Geo
100
AcDbLine
10
-90.5030738426628
20
15.4322200679809
30
0.000000000000000
11
-90.4030738426628
21
15.3342136056863
31
0.000000000000000
  0
LINE
  5
F10712
330
F10713
100
AcDbEntity
8
Geo
100
AcDbLine
10
-90.4030738426628
20
15.3342136056863
30
0.000000000000000
11
-90.3030738426628
21
15.2219577104945
31
0.000000000000000
  0
LINE
  5
F10714
330
F10715
100
AcDbEntity
8
Geo
100
AcDbLine
10
-90.3030738426628
20
15.2219577104945
30
0.000000000000000
11
-90.2030738426628
21
15.0956186669049
31
0.000000000000000
  0
LINE
  5
F10716
330
F10717
100
AcDbEntity
8
Geo
100
AcDbLine
10
-90.2030738426628
20
15.0956186669049
30
0.000000000000000
11
-90.1030738426628
21
14.9553836207649
31
0.000000000000000
  0
LINE
  5
F10718
330
F10719
100
AcDbEntity
8
Geo
100
AcDbLine
10
-90.1030738426628
20
14.9553836207649
30
0.000000000000000
11
-90.0030738426628
21
14.8014603020507
31
0.000000000000000
  0
LINE
  5
F1071A
330
F1071B
100
AcDbEntity
8
Geo
100
AcDbLine
10
-90.0030738426628
20
14.8014603020507
30
0.000000000000000
11
-89.9030738426628
21
14.6340767171576
31
0.000000000000000
  0
LINE
  5
F1071C
330
F1071D
100
AcDbEntity
8
Geo
100
AcDbLine
10
-89.9030738426628
20
14.6340767171576
30
0.000000000000000
11
-89.8030738426628
21
14.4534808111542
31
0.000000000000000
  0
LINE
  5
F1071E
330
F1071F
100
AcDbEntity
8
Geo
100
AcDbLine
10
-89.8030738426628
20
14.4534808111542
30
0.000000000000000
11
-89.7030738426628
21
14.2599401005017
31
0.000000000000000
  0
LINE
  5
F10720
330
F10721
100
AcDbEntity
8
Geo
100
AcDbLine
10
-89.7030738426628
20
14.2599401005017
30
0.000000000000000
11
-89.6030738426628
21
14.0537412767820
31
0.000000000000000
  0
LINE
  5
F10722
330
F10723
100
AcDbEntity
8
Geo
100
AcDbLine
10
-89.6030738426628
20
14.0537412767820
30
0.000000000000000
11
-89.5030738426628
21
13.8351897820226
31
0.000000000000000
  0
LINE
  5
F10724
330
F10725
100
AcDbEntity
8
Geo
100
AcDbLine
10
-89.5030738426628
20
13.8351897820226
30
0.000000000000000
11
-89.4030738426628
21
13.6046093562446
31
0.000000000000000
  0
LINE
  5
F10726
330
F10727
100
AcDbEntity
8
Geo
100
AcDbLine
10
-89.4030738426628
20
13.6046093562446
30
0.000000000000000
11
-89.3030738426628
21
13.3623415579080
31
0.000000000000000
  0
LINE
  5
F10728
330
F10729
100
AcDbEntity
8
Geo
100
AcDbLine
10
-89.3030738426628
20
13.3623415579080
30
0.000000000000000
11
-89.2030738426628
21
13.1087452579613
31
0.000000000000000
  0
LINE
  5
F1072A
330
F1072B
100
AcDbEntity
8
Geo
100
AcDbLine
10
-89.2030738426628
20
13.1087452579613
30
0.000000000000000
11
-89.1030738426628
21
12.8441961082465
31
0.000000000000000
  0
LINE
  5
F1072C
330
F1072D
100
AcDbEntity
8
Geo
100
AcDbLine
10
-89.1030738426628
20
12.8441961082465
30
0.000000000000000
11
-89.0030738426628
21
12.5690859850463
31
0.000000000000000
  0
LINE
  5
F1072E
330
F1072F
100
AcDbEntity
8
Geo
100
AcDbLine
10
-89.0030738426628
20
12.5690859850463
30
0.000000000000000
11
-88.9030738426628
21
12.2838224085989
31
0.000000000000000
  0
LINE
  5
F10730
330
F10731
100
AcDbEntity
8
Geo
100
AcDbLine
10
-88.9030738426628
20
12.2838224085989
30
0.000000000000000
11
-88.8030738426628
21
11.9888279394383
31
0.000000000000000
  0
LINE
  5
F10732
330
F10733
100
AcDbEntity
8
Geo
100
AcDbLine
10
-88.8030738426628
20
11.9888279394383
30
0.000000000000000
11
-88.7030738426628
21
11.6845395524560
31
0.000000000000000
  0
LINE
  5
F10734
330
F10735
100
AcDbEntity
8
Geo
100
AcDbLine
10
-88.7030738426628
20
11.6845395524560
30
0.000000000000000
11
-88.6030738426628
21
11.3714079896113
31
0.000000000000000
  0
LINE
  5
F10736
330
F10737
100
AcDbEntity
8
Geo
100
AcDbLine
10
-88.6030738426628
20
11.3714079896113
30
0.000000000000000
11
-88.5030738426628
21
11.0498970922470
31
0.000000000000000
  0
LINE
  5
F10738
330
F10739
100
AcDbEntity
8
Geo
100
AcDbLine
10
-88.5030738426628
20
11.0498970922470
30
0.000000000000000
11
-88.4030738426628
21
10.7204831140027
31
0.000000000000000
  0
LINE
  5
F1073A
330
F1073B
100
AcDbEntity
8
Geo
100
AcDbLine
10
-88.4030738426628
20
10.7204831140027
30
0.000000000000000
11
-88.3030738426628
21
10.3836540153404
31
0.000000000000000
  0
LINE
  5
F1073C
330
F1073D
100
AcDbEntity
8
Geo
100
AcDbLine
10
-88.3030738426628
20
10.3836540153404
30
0.000000000000000
11
-88.2030738426628
21
10.0399087407295
31
0.000000000000000
  0
LINE
  5
F1073E
330
F1073F
100
AcDbEntity
8
Geo
100
AcDbLine
10
-88.2030738426628
20
10.0399087407295
30
0.000000000000000
11
-88.1030738426628
21
9.68975647956111
31
0.000000000000000
  0
LINE
  5
F10740
330
F10741
100
AcDbEntity
8
Geo
100
AcDbLine
10
-88.1030738426628
20
9.68975647956111
30
0.000000000000000
11
-88.0030738426628
21
9.33371591188659
31
0.000000000000000
  0
LINE
  5
F10742
330
F10743
100
AcDbEntity
8
Geo
100
AcDbLine
10
-88.0030738426628
20
9.33371591188659
30
0.000000000000000
11
-87.9030738426628
21
8.97231444009736
31
0.000000000000000
  0
LINE
  5
F10744
330
F10745
100
AcDbEntity
8
Geo
100
AcDbLine
10
-87.9030738426628
20
8.97231444009736
30
0.000000000000000
11
-87.8030738426628
21
8.60608740768456
31
0.000000000000000
  0
LINE
  5
F10746
330
F10747
100
AcDbEntity
8
Geo
100
AcDbLine
10
-87.8030738426628
20
8.60608740768456
30
0.000000000000000
11
-87.7030738426628
21
8.23557730623551
31
0.000000000000000
  0
LINE
  5
F10748
330
F10749
100
AcDbEntity
8
Geo
100
AcDbLine
10
-87.7030738426628
20
8.23557730623551
30
0.000000000000000
11
-87.6030738426628
21
7.86133297184164
31
0.000000000000000
  0
LINE
  5
F1074A
330
F1074B
100
AcDbEntity
8
Geo
100
AcDbLine
10
-87.6030738426628
20
7.86133297184164
30
0.000000000000000
11
-87.5030738426628
21
7.48390877210839
31
0.000000000000000
  0
LINE
  5
F1074C
330
F1074D
100
AcDbEntity
8
Geo
100
AcDbLine
10
-87.5030738426628
20
7.48390877210839
30
0.000000000000000
11
-87.4030738426628
21
7.10386378497124
31
0.000000000000000
  0
LINE
  5
F1074E
330
F1074F
100
AcDbEntity
8
Geo
100
AcDbLine
10
-87.4030738426628
20
7.10386378497124
30
0.000000000000000
11
-87.3030738426628
21
6.72176097053439
31
0.000000000000000
  0
LINE
  5
F10750
330
F10751
100
AcDbEntity
8
Geo
100
AcDbLine
10
-87.3030738426628
20
6.72176097053439
30
0.000000000000000
11
-87.2030738426628
21
6.33816633715867
31
0.000000000000000
  0
LINE
  5
F10752
330
F10753
100
AcDbEntity
8
Geo
100
AcDbLine
10
-87.2030738426628
20
6.33816633715867
30
0.000000000000000
11
-87.1030738426628
21
5.95364810303425
31
0.000000000000000
  0
LINE
  5
F10754
330
F10755
100
AcDbEntity
8
Geo
100
AcDbLine
10
-87.1030738426628
20
5.95364810303425
30
0.000000000000000
11
-87.0030738426628
21
5.56877585447976
31
0.000000000000000
  0
LINE
  5
F10756
330
F10757
100
AcDbEntity
8
Geo
100
AcDbLine
10
-87.0030738426628
20
5.56877585447976
30
0.000000000000000
11
-86.9030738426628
21
5.18411970221492
31
0.000000000000000
  0
LINE
  5
F10758
330
F10759
100
AcDbEntity
8
Geo
100
AcDbLine
10
-86.9030738426628
20
5.18411970221492
30
0.000000000000000
11
-86.8030738426628
21
4.80024943685632
31
0.000000000000000
  0
LINE
  5
F1075A
330
F1075B
100
AcDbEntity
8
Geo
100
AcDbLine
10
-86.8030738426628
20
4.80024943685632
30
0.000000000000000
11
-86.7030738426628
21
4.41773368488738
31
0.000000000000000
  0
LINE
  5
F1075C
330
F1075D
100
AcDbEntity
8
Geo
100
AcDbLine
10
-86.7030738426628
20
4.41773368488738
30
0.000000000000000
11
-86.6030738426628
21
4.03713906635274
31
0.000000000000000
  0
LINE
  5
F1075E
330
F1075F
100
AcDbEntity
8
Geo
100
AcDbLine
10
-86.6030738426628
20
4.03713906635274
30
0.000000000000000
11
-86.5030738426628
21
3.65902935552478
31
0.000000000000000
  0
LINE
  5
F10760
330
F10761
100
AcDbEntity
8
Geo
100
AcDbLine
10
-86.5030738426628
20
3.65902935552478
30
0.000000000000000
11
-86.4030738426628
21
3.28396464578563
31
0.000000000000000
  0
LINE
  5
F10762
330
F10763
100
AcDbEntity
8
Geo
100
AcDbLine
10
-86.4030738426628
20
3.28396464578563
30
0.000000000000000
11
-86.3030738426628
21
2.91250051996156
31
0.000000000000000
  0
LINE
  5
F10764
330
F10765
100
AcDbEntity
8
Geo
100
AcDbLine
10
-86.3030738426628
20
2.91250051996156
30
0.000000000000000
11
-86.2030738426628
21
2.54518722733896
31
0.000000000000000
  0
LINE
  5
F10766
330
F10767
100
AcDbEntity
8
Geo
100
AcDbLine
10
-86.2030738426628
20
2.54518722733896
30
0.000000000000000
11
-86.1030738426628
21
2.18256886858088
31
0.000000000000000
  0
LINE
  5
F10768
330
F10769
100
AcDbEntity
8
Geo
100
AcDbLine
10
-86.1030738426628
20
2.18256886858088
30
0.000000000000000
11
-86.0030738426628
21
1.82518258975140
31
0.000000000000000
  0
LINE
  5
F1076A
330
F1076B
100
AcDbEntity
8
Geo
100
AcDbLine
10
-86.0030738426628
20
1.82518258975140
30
0.000000000000000
11
-85.9030738426628
21
1.47355778664201
31
0.000000000000000
  0
LINE
  5
F1076C
330
F1076D
100
AcDbEntity
8
Geo
100
AcDbLine
10
-85.9030738426628
20
1.47355778664201
30
0.000000000000000
11
-85.8030738426628
21
1.12821532057830
31
0.000000000000000
  0
LINE
  5
F1076E
330
F1076F
100
AcDbEntity
8
Geo
100
AcDbLine
10
-85.8030738426628
20
1.12821532057830
30
0.000000000000000
11
-85.7030738426628
21
0.789666746868877
31
0.000000000000000
  0
LINE
  5
F10770
330
F10771
100
AcDbEntity
8
Geo
100
AcDbLine
10
-85.7030738426628
20
0.789666746868877
30
0.000000000000000
11
-85.6030738426628
21
0.458413557039140
31
0.000000000000000
  0
LINE
  5
F10772
330
F10773
100
AcDbEntity
8
Geo
100
AcDbLine
10
-85.6030738426628
20
0.458413557039140
30
0.000000000000000
11
-85.5030738426628
21
0.134946435972624
31
0.000000000000000
  0
LINE
  5
F10774
330
F10775
100
AcDbEntity
8
Geo
100
AcDbLine
10
-85.5030738426628
20
0.134946435972624
30
0.000000000000000
11
-85.4030738426628
21
-0.180255464939788
31
0.000000000000000
  0
LINE
  5
F10776
330
F10777
100
AcDbEntity
8
Geo
100
AcDbLine
10
-85.4030738426628
20
-0.180255464939788
30
0.000000000000000
11
-85.3030738426628
21
-0.486725237566231
31
0.000000000000000
  0
LINE
  5
F10778
330
F10779
100
AcDbEntity
8
Geo
100
AcDbLine
10
-85.3030738426628
20
-0.486725237566231
30
0.000000000000000
11
-85.2030738426628
21
-0.784008908664156
31
0.000000000000000
  0
LINE
  5
F1077A
330
F1077B
100
AcDbEntity
8
Geo
100
AcDbLine
10
-85.2030738426628
20
-0.784008908664156
30
0.000000000000000
11
-85.1030738426628
21
-1.07166611235027
31
0.000000000000000
  0
LINE
  5
F1077C
330
F1077D
100
AcDbEntity
8
Geo
100
AcDbLine
10
-85.1030738426628
20
-1.07166611235027
30
0.000000000000000
11
-85.0030738426628
21
-1.34927074241390
31
0.000000000000000
  0
LINE
  5
F1077E
330
F1077F
100
AcDbEntity
8
Geo
100
AcDbLine
10
-85.0030738426628
20
-1.34927074241390
30
0.000000000000000
11
-84.9030738426628
21
-1.61641158350752
31
0.000000000000000
  0
LINE
  5
F10780
330
F10781
100
AcDbEntity
8
Geo
100
AcDbLine
10
-84.9030738426628
20
-1.61641158350752
30
0.000000000000000
11
-84.8030738426628
21
-1.87269292027947
31
0.000000000000000
  0
LINE
  5
F10782
330
F10783
100
AcDbEntity
8
Geo
100
AcDbLine
10
-84.8030738426628
20
-1.87269292027947
30
0.000000000000000
11
-84.7030738426628
21
-2.11773512354655
31
0.000000000000000
  0
LINE
  5
F10784
330
F10785
100
AcDbEntity
8
Geo
100
AcDbLine
10
-84.7030738426628
20
-2.11773512354655
30
0.000000000000000
11
-84.6030738426628
21
-2.35117521263818
31
0.000000000000000
  0
LINE
  5
F10786
330
F10787
100
AcDbEntity
8
Geo
100
AcDbLine
10
-84.6030738426628
20
-2.35117521263818
30
0.000000000000000
11
-84.5030738426628
21
-2.57266739307917
31
0.000000000000000
  0
LINE
  5
F10788
330
F10789
100
AcDbEntity
8
Geo
100
AcDbLine
10
-84.5030738426628
20
-2.57266739307917
30
0.000000000000000
11
-84.4030738426628
21
-2.78188356881459
31
0.000000000000000
  0
LINE
  5
F1078A
330
F1078B
100
AcDbEntity
8
Geo
100
AcDbLine
10
-84.4030738426628
20
-2.78188356881459
30
0.000000000000000
11
-84.3030738426628
21
-2.97851382821800
31
0.000000000000000
  0
LINE
  5
F1078C
330
F1078D
100
AcDbEntity
8
Geo
100
AcDbLine
10
-84.3030738426628
20
-2.97851382821800
30
0.000000000000000
11
-84.2030738426628
21
-3.16226690316309
31
0.000000000000000
  0
LINE
  5
F1078E
330
F1078F
100
AcDbEntity
8
Geo
100
AcDbLine
10
-84.2030738426628
20
-3.16226690316309
30
0.000000000000000
11
-84.1030738426628
21
-3.33287060047873
31
0.000000000000000
  0
LINE
  5
F10790
330
F10791
100
AcDbEntity
8
Geo
100
AcDbLine
10
-84.1030738426628
20
-3.33287060047873
30
0.000000000000000
11
-84.0030738426628
21
-3.49007220514839
31
0.000000000000000
  0
LINE
  5
F10792
330
F10793
100
AcDbEntity
8
Geo
100
AcDbLine
10
-84.0030738426628
20
-3.49007220514839
30
0.000000000000000
11
-83.9030738426628
21
-3.63363885465646
31
0.000000000000000
  0
LINE
  5
F10794
330
F10795
100
AcDbEntity
8
Geo
100
AcDbLine
10
-83.9030738426628
20
-3.63363885465646
30
0.000000000000000
11
-83.8030738426628
21
-3.76335788392725
31
0.000000000000000
  0
LINE
  5
F10796
330
F10797
100
AcDbEntity
8
Geo
100
AcDbLine
10
-83.8030738426628
20
-3.76335788392725
30
0.000000000000000
11
-83.7030738426628
21
-3.87903714034539
31
0.000000000000000
  0
LINE
  5
F10798
330
F10799
100
AcDbEntity
8
Geo
100
AcDbLine
10
-83.7030738426628
20
-3.87903714034539
30
0.000000000000000
11
-83.6030738426628
21
-3.98050526839127
31
0.000000000000000
  0
LINE
  5
F1079A
330
F1079B
100
AcDbEntity
8
Geo
100
AcDbLine
10
-83.6030738426628
20
-3.98050526839127
30
0.000000000000000
11
-83.5030738426628
21
-4.06761196346974
31
0.000000000000000
  0
LINE
  5
F1079C
330
F1079D
100
AcDbEntity
8
Geo
100
AcDbLine
10
-83.5030738426628
20
-4.06761196346974
30
0.000000000000000
11
-83.4030738426628
21
-4.14022819455606
31
0.000000000000000
  0
LINE
  5
F1079E
330
F1079F
100
AcDbEntity
8
Geo
100
AcDbLine
10
-83.4030738426628
20
-4.14022819455606
30
0.000000000000000
11
-83.3030738426628
21
-4.19824639532939
31
0.000000000000000
  0
LINE
  5
F107A0
330
F107A1
100
AcDbEntity
8
Geo
100
AcDbLine
10
-83.3030738426628
20
-4.19824639532939
30
0.000000000000000
11
-83.2030738426628
21
-4.24158062351064
31
0.000000000000000
  0
LINE
  5
F107A2
330
F107A3
100
AcDbEntity
8
Geo
100
AcDbLine
10
-83.2030738426628
20
-4.24158062351064
30
0.000000000000000
11
-83.1030738426628
21
-4.27016668816865
31
0.000000000000000
  0
LINE
  5
F107A4
330
F107A5
100
AcDbEntity
8
Geo
100
AcDbLine
10
-83.1030738426628
20
-4.27016668816865
30
0.000000000000000
11
-83.0030738426628
21
-4.28396224480609
31
0.000000000000000
  0
LINE
  5
F107A6
330
F107A7
100
AcDbEntity
8
Geo
100
AcDbLine
10
-95.2030738426628
20
15.1972940415851
30
0.000000000000000
11
-95.1030738426628
21
15.4862589487810
31
0.000000000000000
  0
LINE
  5
F107A8
330
F107A9
100
AcDbEntity
8
Geo
100
AcDbLine
10
-95.2030738426628
20
5.61617808405052
30
0.000000000000000
11
-95.1030738426628
21
5.23981018446732
31
0.000000000000000
  0
LINE
  5
F107AA
330
F107AB
100
AcDbEntity
8
Geo
100
AcDbLine
10
-95.1030738426628
20
15.4862589487810
30
0.000000000000000
11
-95.0030738426628
21
15.5604530485210
31
0.000000000000000
  0
LINE
  5
F107AC
330
F107AD
100
AcDbEntity
8
Geo
100
AcDbLine
10
-95.1030738426628
20
5.23981018446732
30
0.000000000000000
11
-95.0030738426628
21
4.85645527468236
31
0.000000000000000
  0
LINE
  5
F107AE
330
F107AF
100
AcDbEntity
8
Geo
100
AcDbLine
10
-95.0030738426628
20
15.5604530485210
30
0.000000000000000
11
-94.9030738426628
21
15.5780062691702
31
0.000000000000000
  0
LINE
  5
F107B0
330
F107B1
100
AcDbEntity
8
Geo
100
AcDbLine
10
-95.0030738426628
20
4.85645527468236
30
0.000000000000000
11
-94.9030738426628
21
4.47150760640324
31
0.000000000000000
  0
LINE
  5
F107B2
330
F107B3
100
AcDbEntity
8
Geo
100
AcDbLine
10
-94.9030738426628
20
15.5780062691702
30
0.000000000000000
11
-94.8030738426628
21
15.5541300096189
31
0.000000000000000
  0
LINE
  5
F107B4
330
F107B5
100
AcDbEntity
8
Geo
100
AcDbLine
10
-94.9030738426628
20
4.47150760640324
30
0.000000000000000
11
-94.8030738426628
21
4.08802952515568
31
0.000000000000000
  0
LINE
  5
F107B6
330
F107B7
100
AcDbEntity
8
Geo
100
AcDbLine
10
-94.8030738426628
20
15.5541300096189
30
0.000000000000000
11
-94.7030738426628
21
15.4941644309376
31
0.000000000000000
  0
LINE
  5
F107B8
330
F107B9
100
AcDbEntity
8
Geo
100
AcDbLine
10
-94.8030738426628
20
4.08802952515568
30
0.000000000000000
11
-94.7030738426628
21
3.70867420836693
31
0.000000000000000
  0
LINE
  5
F107BA
330
F107BB
100
AcDbEntity
8
Geo
100
AcDbLine
10
-94.7030738426628
20
15.4941644309376
30
0.000000000000000
11
-94.6030738426628
21
15.4097299246877
31
0.000000000000000
  0
LINE
  5
F107BC
330
F107BD
100
AcDbEntity
8
Geo
100
AcDbLine
10
-94.7030738426628
20
3.70867420836693
30
0.000000000000000
11
-94.6030738426628
21
3.33383952921527
31
0.000000000000000
  0
LINE
  5
F107BE
330
F107BF
100
AcDbEntity
8
Geo
100
AcDbLine
10
-94.6030738426628
20
15.4097299246877
30
0.000000000000000
11
-94.5030738426628
21
15.3109341233236
31
0.000000000000000
  0
LINE
  5
F107C0
330
F107C1
100
AcDbEntity
8
Geo
100
AcDbLine
10
-94.6030738426628
20
3.33383952921527
30
0.000000000000000
11
-94.5030738426628
21
2.96253155438411
31
0.000000000000000
  0
LINE
  5
F107C2
330
F107C3
100
AcDbEntity
8
Geo
100
AcDbLine
10
-94.5030738426628
20
15.3109341233236
30
0.000000000000000
11
-94.4030738426628
21
15.1979233729267
31
0.000000000000000
  0
LINE
  5
F107C4
330
F107C5
100
AcDbEntity
8
Geo
100
AcDbLine
10
-94.5030738426628
20
2.96253155438411
30
0.000000000000000
11
-94.4030738426628
21
2.59530030185360
31
0.000000000000000
  0
LINE
  5
F107C6
330
F107C7
100
AcDbEntity
8
Geo
100
AcDbLine
10
-94.4030738426628
20
15.1979233729267
30
0.000000000000000
11
-94.3030738426628
21
15.0708650761624
31
0.000000000000000
  0
LINE
  5
F107C8
330
F107C9
100
AcDbEntity
8
Geo
100
AcDbLine
10
-94.4030738426628
20
2.59530030185360
30
0.000000000000000
11
-94.3030738426628
21
2.23268975076090
31
0.000000000000000
  0
LINE
  5
F107CA
330
F107CB
100
AcDbEntity
8
Geo
100
AcDbLine
10
-94.3030738426628
20
15.0708650761624
30
0.000000000000000
11
-94.2030738426628
21
14.9299474443067
31
0.000000000000000
  0
LINE
  5
F107CC
330
F107CD
100
AcDbEntity
8
Geo
100
AcDbLine
10
-94.3030738426628
20
2.23268975076090
30
0.000000000000000
11
-94.2030738426628
21
1.87523703560463
31
0.000000000000000
  0
LINE
  5
F107CE
330
F107CF
100
AcDbEntity
8
Geo
100
AcDbLine
10
-94.2030738426628
20
14.9299474443067
30
0.000000000000000
11
-94.1030738426628
21
14.7753792184493
31
0.000000000000000
  0
LINE
  5
F107D0
330
F107D1
100
AcDbEntity
8
Geo
100
AcDbLine
10
-94.2030738426628
20
1.87523703560463
30
0.000000000000000
11
-94.1030738426628
21
1.52347165058830
31
0.000000000000000
  0
LINE
  5
F107D2
330
F107D3
100
AcDbEntity
8
Geo
100
AcDbLine
10
-94.1030738426628
20
14.7753792184493
30
0.000000000000000
11
-94.0030738426628
21
14.6073893602853
31
0.000000000000000
  0
LINE
  5
F107D4
330
F107D5
100
AcDbEntity
8
Geo
100
AcDbLine
10
-94.1030738426628
20
1.52347165058830
30
0.000000000000000
11
-94.0030738426628
21
1.17791466528130
31
0.000000000000000
  0
LINE
  5
F107D6
330
F107D7
100
AcDbEntity
8
Geo
100
AcDbLine
10
-94.0030738426628
20
14.6073893602853
30
0.000000000000000
11
-93.9030738426628
21
14.4262267129552
31
0.000000000000000
  0
LINE
  5
F107D8
330
F107D9
100
AcDbEntity
8
Geo
100
AcDbLine
10
-94.0030738426628
20
1.17791466528130
30
0.000000000000000
11
-93.9030738426628
21
0.839077952759261
31
0.000000000000000
  0
LINE
  5
F107DA
330
F107DB
100
AcDbEntity
8
Geo
100
AcDbLine
10
-93.9030738426628
20
14.4262267129552
30
0.000000000000000
11
-93.8030738426628
21
14.2321596324332
31
0.000000000000000
  0
LINE
  5
F107DC
330
F107DD
100
AcDbEntity
8
Geo
100
AcDbLine
10
-93.9030738426628
20
0.839077952759261
30
0.000000000000000
11
-93.8030738426628
21
0.507463431367223
31
0.000000000000000
  0
LINE
  5
F107DE
330
F107DF
100
AcDbEntity
8
Geo
100
AcDbLine
10
-93.8030738426628
20
14.2321596324332
30
0.000000000000000
11
-93.7030738426628
21
14.0254755900124
31
0.000000000000000
  0
LINE
  5
F107E0
330
F107E1
100
AcDbEntity
8
Geo
100
AcDbLine
10
-93.8030738426628
20
0.507463431367223
30
0.000000000000000
11
-93.7030738426628
21
0.183562321228658
31
0.000000000000000
  0
LINE
  5
F107E2
330
F107E3
100
AcDbEntity
8
Geo
100
AcDbLine
10
-93.7030738426628
20
14.0254755900124
30
0.000000000000000
11
-93.6030738426628
21
13.8064807464737
31
0.000000000000000
  0
LINE
  5
F107E4
330
F107E5
100
AcDbEntity
8
Geo
100
AcDbLine
10
-93.7030738426628
20
0.183562321228658
30
0.000000000000000
11
-93.6030738426628
21
-0.132145583398172
31
0.000000000000000
  0
LINE
  5
F107E6
330
F107E7
100
AcDbEntity
8
Geo
100
AcDbLine
10
-93.6030738426628
20
13.8064807464737
30
0.000000000000000
11
-93.5030738426628
21
13.5754994985704
31
0.000000000000000
  0
LINE
  5
F107E8
330
F107E9
100
AcDbEntity
8
Geo
100
AcDbLine
10
-93.6030738426628
20
-0.132145583398172
30
0.000000000000000
11
-93.5030738426628
21
-0.439192624838803
31
0.000000000000000
  0
LINE
  5
F107EA
330
F107EB
100
AcDbEntity
8
Geo
100
AcDbLine
10
-93.5030738426628
20
13.5754994985704
30
0.000000000000000
11
-93.4030738426628
21
13.3328739984998
31
0.000000000000000
  0
LINE
  5
F107EC
330
F107ED
100
AcDbEntity
8
Geo
100
AcDbLine
10
-93.5030738426628
20
-0.439192624838803
30
0.000000000000000
11
-93.4030738426628
21
-0.737123974743204
31
0.000000000000000
  0
LINE
  5
F107EE
330
F107EF
100
AcDbEntity
8
Geo
100
AcDbLine
10
-93.4030738426628
20
13.3328739984998
30
0.000000000000000
11
-93.3030738426628
21
13.0789636470732
31
0.000000000000000
  0
LINE
  5
F107F0
330
F107F1
100
AcDbEntity
8
Geo
100
AcDbLine
10
-93.4030738426628
20
-0.737123974743204
30
0.000000000000000
11
-93.3030738426628
21
-1.02549830782237
31
0.000000000000000
  0
LINE
  5
F107F2
330
F107F3
100
AcDbEntity
8
Geo
100
AcDbLine
10
-93.3030738426628
20
13.0789636470732
30
0.000000000000000
11
-93.2030738426628
21
12.8141445613368
31
0.000000000000000
  0
LINE
  5
F107F4
330
F107F5
100
AcDbEntity
8
Geo
100
AcDbLine
10
-93.3030738426628
20
-1.02549830782237
30
0.000000000000000
11
-93.2030738426628
21
-1.30388845558288
31
0.000000000000000
  0
LINE
  5
F107F6
330
F107F7
100
AcDbEntity
8
Geo
100
AcDbLine
10
-93.2030738426628
20
12.8141445613368
30
0.000000000000000
11
-93.1030738426628
21
12.5388090174292
31
0.000000000000000
  0
LINE
  5
F107F8
330
F107F9
100
AcDbEntity
8
Geo
100
AcDbLine
10
-93.2030738426628
20
-1.30388845558288
30
0.000000000000000
11
-93.1030738426628
21
-1.57188203909095
31
0.000000000000000
  0
LINE
  5
F107FA
330
F107FB
100
AcDbEntity
8
Geo
100
AcDbLine
10
-93.1030738426628
20
12.5388090174292
30
0.000000000000000
11
-93.0030738426628
21
12.2533648695038
31
0.000000000000000
  0
LINE
  5
F107FC
330
F107FD
100
AcDbEntity
8
Geo
100
AcDbLine
10
-93.1030738426628
20
-1.57188203909095
30
0.000000000000000
11
-93.0030738426628
21
-1.82908207982877
31
0.000000000000000
  0
LINE
  5
F107FE
330
F107FF
100
AcDbEntity
8
Geo
100
AcDbLine
10
-93.0030738426628
20
12.2533648695038
30
0.000000000000000
11
-92.9030738426628
21
11.9582349455749
31
0.000000000000000
  0
LINE
  5
F10800
330
F10801
100
AcDbEntity
8
Geo
100
AcDbLine
10
-93.0030738426628
20
-1.82908207982877
30
0.000000000000000
11
-92.9030738426628
21
-2.07510758773825
31
0.000000000000000
  0
LINE
  5
F10802
330
F10803
100
AcDbEntity
8
Geo
100
AcDbLine
10
-92.9030738426628
20
11.9582349455749
30
0.000000000000000
11
-92.8030738426628
21
11.6538564211831
31
0.000000000000000
  0
LINE
  5
F10804
330
F10805
100
AcDbEntity
8
Geo
100
AcDbLine
10
-92.9030738426628
20
-2.07510758773825
30
0.000000000000000
11
-92.8030738426628
21
-2.30959412558104
31
0.000000000000000
  0
LINE
  5
F10806
330
F10807
100
AcDbEntity
8
Geo
100
AcDbLine
10
-92.8030738426628
20
11.6538564211831
30
0.000000000000000
11
-92.7030738426628
21
11.3406801718080
31
0.000000000000000
  0
LINE
  5
F10808
330
F10809
100
AcDbEntity
8
Geo
100
AcDbLine
10
-92.8030738426628
20
-2.30959412558104
30
0.000000000000000
11
-92.7030738426628
21
-2.53219434877889
31
0.000000000000000
  0
LINE
  5
F1080A
330
F1080B
100
AcDbEntity
8
Geo
100
AcDbLine
10
-92.7030738426628
20
11.3406801718080
30
0.000000000000000
11
-92.6030738426628
21
11.0191701049866
31
0.000000000000000
  0
LINE
  5
F1080C
330
F1080D
100
AcDbEntity
8
Geo
100
AcDbLine
10
-92.7030738426628
20
-2.53219434877889
30
0.000000000000000
11
-92.6030738426628
21
-2.74257851993468
31
0.000000000000000
  0
LINE
  5
F1080E
330
F1080F
100
AcDbEntity
8
Geo
100
AcDbLine
10
-92.6030738426628
20
11.0191701049866
30
0.000000000000000
11
-92.5030738426628
21
10.6898024731281
31
0.000000000000000
  0
LINE
  5
F10810
330
F10811
100
AcDbEntity
8
Geo
100
AcDbLine
10
-92.6030738426628
20
-2.74257851993468
30
0.000000000000000
11
-92.5030738426628
21
-2.94043499727202
31
0.000000000000000
  0
LINE
  5
F10812
330
F10813
100
AcDbEntity
8
Geo
100
AcDbLine
10
-92.5030738426628
20
10.6898024731281
30
0.000000000000000
11
-92.4030738426628
21
10.3530651680417
31
0.000000000000000
  0
LINE
  5
F10814
330
F10815
100
AcDbEntity
8
Geo
100
AcDbLine
10
-92.5030738426628
20
-2.94043499727202
30
0.000000000000000
11
-92.4030738426628
21
-3.12547069626967
31
0.000000000000000
  0
LINE
  5
F10816
330
F10817
100
AcDbEntity
8
Geo
100
AcDbLine
10
-92.4030738426628
20
10.3530651680417
30
0.000000000000000
11
-92.3030738426628
21
10.0094569982232
31
0.000000000000000
  0
LINE
  5
F10818
330
F10819
100
AcDbEntity
8
Geo
100
AcDbLine
10
-92.4030738426628
20
-3.12547069626967
30
0.000000000000000
11
-92.3030738426628
21
-3.29741152380733
31
0.000000000000000
  0
LINE
  5
F1081A
330
F1081B
100
AcDbEntity
8
Geo
100
AcDbLine
10
-92.3030738426628
20
10.0094569982232
30
0.000000000000000
11
-92.2030738426628
21
9.65948694997045
31
0.000000000000000
  0
LINE
  5
F1081C
330
F1081D
100
AcDbEntity
8
Geo
100
AcDbLine
10
-92.3030738426628
20
-3.29741152380733
30
0.000000000000000
11
-92.2030738426628
21
-3.45600278417933
31
0.000000000000000
  0
LINE
  5
F1081E
330
F1081F
100
AcDbEntity
8
Geo
100
AcDbLine
10
-92.2030738426628
20
9.65948694997045
30
0.000000000000000
11
-92.1030738426628
21
9.30367343342312
31
0.000000000000000
  0
LINE
  5
F10820
330
F10821
100
AcDbEntity
8
Geo
100
AcDbLine
10
-92.2030738426628
20
-3.45600278417933
30
0.000000000000000
11
-92.1030738426628
21
-3.60100955637505
31
0.000000000000000
  0
LINE
  5
F10822
330
F10823
100
AcDbEntity
8
Geo
100
AcDbLine
10
-92.1030738426628
20
9.30367343342312
30
0.000000000000000
11
-92.0030738426628
21
8.94254351464211
31
0.000000000000000
  0
LINE
  5
F10824
330
F10825
100
AcDbEntity
8
Geo
100
AcDbLine
10
-92.1030738426628
20
-3.60100955637505
30
0.000000000000000
11
-92.0030738426628
21
-3.73221704206706
31
0.000000000000000
  0
LINE
  5
F10826
330
F10827
100
AcDbEntity
8
Geo
100
AcDbLine
10
-92.0030738426628
20
8.94254351464211
30
0.000000000000000
11
-91.9030738426628
21
8.57663213486748
31
0.000000000000000
  0
LINE
  5
F10828
330
F10829
100
AcDbEntity
8
Geo
100
AcDbLine
10
-92.0030738426628
20
-3.73221704206706
30
0.000000000000000
11
-91.9030738426628
21
-3.84943088379162
31
0.000000000000000
  0
LINE
  5
F1082A
330
F1082B
100
AcDbEntity
8
Geo
100
AcDbLine
10
-91.9030738426628
20
8.57663213486748
30
0.000000000000000
11
-91.8030738426628
21
8.20648131811073
31
0.000000000000000
  0
LINE
  5
F1082C
330
F1082D
100
AcDbEntity
8
Geo
100
AcDbLine
10
-91.9030738426628
20
-3.84943088379162
30
0.000000000000000
11
-91.8030738426628
21
-3.95247745285006
31
0.000000000000000
  0
LINE
  5
F1082E
330
F1082F
100
AcDbEntity
8
Geo
100
AcDbLine
10
-91.8030738426628
20
8.20648131811073
30
0.000000000000000
11
-91.7030738426628
21
7.83263936825540
31
0.000000000000000
  0
LINE
  5
F10830
330
F10831
100
AcDbEntity
8
Geo
100
AcDbLine
10
-91.8030738426628
20
-3.95247745285006
30
0.000000000000000
11
-91.7030738426628
21
-4.04120410650476
31
0.000000000000000
  0
LINE
  5
F10832
330
F10833
100
AcDbEntity
8
Geo
100
AcDbLine
10
-91.7030738426628
20
7.83263936825540
30
0.000000000000000
11
-91.6030738426628
21
7.45566005685527
31
0.000000000000000
  0
LINE
  5
F10834
330
F10835
100
AcDbEntity
8
Geo
100
AcDbLine
10
-91.7030738426628
20
-4.04120410650476
30
0.000000000000000
11
-91.6030738426628
21
-4.11547941408864
31
0.000000000000000
  0
LINE
  5
F10836
330
F10837
100
AcDbEntity
8
Geo
100
AcDbLine
10
-91.6030738426628
20
7.45566005685527
30
0.000000000000000
11
-91.5030738426628
21
7.07610180283336
31
0.000000000000000
  0
LINE
  5
F10838
330
F10839
100
AcDbEntity
8
Geo
100
AcDbLine
10
-91.6030738426628
20
-4.11547941408864
30
0.000000000000000
11
-91.5030738426628
21
-4.17519335169319
31
0.000000000000000
  0
LINE
  5
F1083A
330
F1083B
100
AcDbEntity
8
Geo
100
AcDbLine
10
-91.5030738426628
20
7.07610180283336
30
0.000000000000000
11
-91.4030738426628
21
6.69452684529677
31
0.000000000000000
  0
LINE
  5
F1083C
330
F1083D
100
AcDbEntity
8
Geo
100
AcDbLine
10
-91.5030738426628
20
-4.17519335169319
30
0.000000000000000
11
-91.4030738426628
21
-4.22025746514673
31
0.000000000000000
  0
LINE
  5
F1083E
330
F1083F
100
AcDbEntity
8
Geo
100
AcDbLine
10
-91.4030738426628
20
6.69452684529677
30
0.000000000000000
11
-91.3030738426628
21
6.31150041069269
31
0.000000000000000
  0
LINE
  5
F10840
330
F10841
100
AcDbEntity
8
Geo
100
AcDbLine
10
-91.4030738426628
20
-4.22025746514673
30
0.000000000000000
11
-91.3030738426628
21
-4.25060500104147
31
0.000000000000000
  0
LINE
  5
F10842
330
F10843
100
AcDbEntity
8
Geo
100
AcDbLine
10
-91.3030738426628
20
6.31150041069269
30
0.000000000000000
11
-91.2030738426628
21
5.92758987553922
31
0.000000000000000
  0
LINE
  5
F10844
330
F10845
100
AcDbEntity
8
Geo
100
AcDbLine
10
-91.3030738426628
20
-4.25060500104147
30
0.000000000000000
11
-91.2030738426628
21
-4.26619100561525
31
0.000000000000000
  0
LINE
  5
F10846
330
F10847
100
AcDbEntity
8
Geo
100
AcDbLine
10
-91.2030738426628
20
5.92758987553922
30
0.000000000000000
11
-91.1030738426628
21
5.54336392597136
31
0.000000000000000
  0
LINE
  5
F10848
330
F10849
100
AcDbEntity
8
Geo
100
AcDbLine
10
-91.1030738426628
20
5.54336392597136
30
0.000000000000000
11
-91.0030738426628
21
5.15939171534707
31
0.000000000000000
  0
LINE
  5
F1084A
330
F1084B
100
AcDbEntity
8
Geo
100
AcDbLine
10
-91.1030738426628
20
15.6963101100449
30
0.000000000000000
11
-91.0030738426628
21
15.6823256898319
31
0.000000000000000
  0
LINE
  5
F1084C
330
F1084D
100
AcDbEntity
8
Geo
100
AcDbLine
10
-91.0030738426628
20
5.15939171534707
30
0.000000000000000
11
-90.9030738426628
21
4.77624202116114
31
0.000000000000000
  0
LINE
  5
F1084E
330
F1084F
100
AcDbEntity
8
Geo
100
AcDbLine
10
-91.0030738426628
20
15.6823256898319
30
0.000000000000000
11
-90.9030738426628
21
15.6535761787818
31
0.000000000000000
  0
LINE
  5
F10850
330
F10851
100
AcDbEntity
8
Geo
100
AcDbLine
10
-90.9030738426628
20
4.77624202116114
30
0.000000000000000
11
-90.8030738426628
21
4.39448240251591
31
0.000000000000000
  0
LINE
  5
F10852
330
F10853
100
AcDbEntity
8
Geo
100
AcDbLine
10
-90.9030738426628
20
15.6535761787818
30
0.000000000000000
11
-90.8030738426628
21
15.6101041635047
31
0.000000000000000
  0
LINE
  5
F10854
330
F10855
100
AcDbEntity
8
Geo
100
AcDbLine
10
-90.8030738426628
20
4.39448240251591
30
0.000000000000000
11
-90.7030738426628
21
4.01467835939682
31
0.000000000000000
  0
LINE
  5
F10856
330
F10857
100
AcDbEntity
8
Geo
100
AcDbLine
10
-90.8030738426628
20
15.6101041635047
30
0.000000000000000
11
-90.7030738426628
21
15.5519740390356
31
0.000000000000000
  0
LINE
  5
F10858
330
F10859
100
AcDbEntity
8
Geo
100
AcDbLine
10
-90.7030738426628
20
4.01467835939682
30
0.000000000000000
11
-90.6030738426628
21
3.63739249499799
31
0.000000000000000
  0
LINE
  5
F1085A
330
F1085B
100
AcDbEntity
8
Geo
100
AcDbLine
10
-90.7030738426628
20
15.5519740390356
30
0.000000000000000
11
-90.6030738426628
21
15.4792719134461
31
0.000000000000000
  0
LINE
  5
F1085C
330
F1085D
100
AcDbEntity
8
Geo
100
AcDbLine
10
-90.6030738426628
20
3.63739249499799
30
0.000000000000000
11
-90.5030738426628
21
3.26318368233899
31
0.000000000000000
  0
LINE
  5
F1085E
330
F1085F
100
AcDbEntity
8
Geo
100
AcDbLine
10
-90.6030738426628
20
15.4792719134461
30
0.000000000000000
11
-90.5030738426628
21
15.3921054802924
31
0.000000000000000
  0
LINE
  5
F10860
330
F10861
100
AcDbEntity
8
Geo
100
AcDbLine
10
-90.5030738426628
20
3.26318368233899
30
0.000000000000000
11
-90.4030738426628
21
2.89260623640696
31
0.000000000000000
  0
LINE
  5
F10862
330
F10863
100
AcDbEntity
8
Geo
100
AcDbLine
10
-90.5030738426628
20
15.3921054802924
30
0.000000000000000
11
-90.4030738426628
21
15.2906038590892
31
0.000000000000000
  0
LINE
  5
F10864
330
F10865
100
AcDbEntity
8
Geo
100
AcDbLine
10
-90.4030738426628
20
2.89260623640696
30
0.000000000000000
11
-90.3030738426628
21
2.52620909305061
31
0.000000000000000
  0
LINE
  5
F10866
330
F10867
100
AcDbEntity
8
Geo
100
AcDbLine
10
-90.4030738426628
20
15.2906038590892
30
0.000000000000000
11
-90.3030738426628
21
15.1749174040449
31
0.000000000000000
  0
LINE
  5
F10868
330
F10869
100
AcDbEntity
8
Geo
100
AcDbLine
10
-90.3030738426628
20
2.52620909305061
30
0.000000000000000
11
-90.2030738426628
21
2.16453499584236
31
0.000000000000000
  0
LINE
  5
F1086A
330
F1086B
100
AcDbEntity
8
Geo
100
AcDbLine
10
-90.3030738426628
20
15.1749174040449
30
0.000000000000000
11
-90.2030738426628
21
15.0452174813426
31
0.000000000000000
  0
LINE
  5
F1086C
330
F1086D
100
AcDbEntity
8
Geo
100
AcDbLine
10
-90.2030738426628
20
2.16453499584236
30
0.000000000000000
11
-90.1030738426628
21
1.80811969211301
31
0.000000000000000
  0
LINE
  5
F1086E
330
F1086F
100
AcDbEntity
8
Geo
100
AcDbLine
10
-90.2030738426628
20
15.0452174813426
30
0.000000000000000
11
-90.1030738426628
21
14.9016962152949
31
0.000000000000000
  0
LINE
  5
F10870
330
F10871
100
AcDbEntity
8
Geo
100
AcDbLine
10
-90.1030738426628
20
1.80811969211301
30
0.000000000000000
11
-90.0030738426628
21
1.45749113934998
31
0.000000000000000
  0
LINE
  5
F10872
330
F10873
100
AcDbEntity
8
Geo
100
AcDbLine
10
-90.1030738426628
20
14.9016962152949
30
0.000000000000000
11
-90.0030738426628
21
14.7445662037513
31
0.000000000000000
  0
LINE
  5
F10874
330
F10875
100
AcDbEntity
8
Geo
100
AcDbLine
10
-90.0030738426628
20
1.45749113934998
30
0.000000000000000
11
-89.9030738426628
21
1.11316872313465
31
0.000000000000000
  0
LINE
  5
F10876
330
F10877
100
AcDbEntity
8
Geo
100
AcDbLine
10
-90.0030738426628
20
14.7445662037513
30
0.000000000000000
11
-89.9030738426628
21
14.5740602031764
31
0.000000000000000
  0
LINE
  5
F10878
330
F10879
100
AcDbEntity
8
Geo
100
AcDbLine
10
-89.9030738426628
20
1.11316872313465
30
0.000000000000000
11
-89.8030738426628
21
0.775662487777194
31
0.000000000000000
  0
LINE
  5
F1087A
330
F1087B
100
AcDbEntity
8
Geo
100
AcDbLine
10
-89.9030738426628
20
14.5740602031764
30
0.000000000000000
11
-89.8030738426628
21
14.3904307838689
31
0.000000000000000
  0
LINE
  5
F1087C
330
F1087D
100
AcDbEntity
8
Geo
100
AcDbLine
10
-89.8030738426628
20
0.775662487777194
30
0.000000000000000
11
-89.7030738426628
21
0.445472380788699
31
0.000000000000000
  0
LINE
  5
F1087E
330
F1087F
100
AcDbEntity
8
Geo
100
AcDbLine
10
-89.8030738426628
20
14.3904307838689
30
0.000000000000000
11
-89.7030738426628
21
14.1939499558288
31
0.000000000000000
  0
LINE
  5
F10880
330
F10881
100
AcDbEntity
8
Geo
100
AcDbLine
10
-89.7030738426628
20
0.445472380788699
30
0.000000000000000
11
-89.6030738426628
21
0.123087512309592
31
0.000000000000000
  0
LINE
  5
F10882
330
F10883
100
AcDbEntity
8
Geo
100
AcDbLine
10
-89.7030738426628
20
14.1939499558288
30
0.000000000000000
11
-89.6030738426628
21
13.9849087658300
31
0.000000000000000
  0
LINE
  5
F10884
330
F10885
100
AcDbEntity
8
Geo
100
AcDbLine
10
-89.6030738426628
20
0.123087512309592
30
0.000000000000000
11
-89.5030738426628
21
-0.191014569408511
31
0.000000000000000
  0
LINE
  5
F10886
330
F10887
100
AcDbEntity
8
Geo
100
AcDbLine
10
-89.6030738426628
20
13.9849087658300
30
0.000000000000000
11
-89.5030738426628
21
13.7636168662928
31
0.000000000000000
  0
LINE
  5
F10888
330
F10889
100
AcDbEntity
8
Geo
100
AcDbLine
10
-89.5030738426628
20
-0.191014569408511
30
0.000000000000000
11
-89.4030738426628
21
-0.496368585394343
31
0.000000000000000
  0
LINE
  5
F1088A
330
F1088B
100
AcDbEntity
8
Geo
100
AcDbLine
10
-89.5030738426628
20
13.7636168662928
30
0.000000000000000
11
-89.4030738426628
21
13.5304020565965
31
0.000000000000000
  0
LINE
  5
F1088C
330
F1088D
100
AcDbEntity
8
Geo
100
AcDbLine
10
-89.4030738426628
20
-0.496368585394343
30
0.000000000000000
11
-89.3030738426628
21
-0.792522215174103
31
0.000000000000000
  0
LINE
  5
F1088E
330
F1088F
100
AcDbEntity
8
Geo
100
AcDbLine
10
-89.4030738426628
20
13.5304020565965
30
0.000000000000000
11
-89.3030738426628
21
13.2856097975100
31
0.000000000000000
  0
LINE
  5
F10890
330
F10891
100
AcDbEntity
8
Geo
100
AcDbLine
10
-89.3030738426628
20
-0.792522215174103
30
0.000000000000000
11
-89.2030738426628
21
-1.07903676679311
31
0.000000000000000
  0
LINE
  5
F10892
330
F10893
100
AcDbEntity
8
Geo
100
AcDbLine
10
-89.3030738426628
20
13.2856097975100
30
0.000000000000000
11
-89.2030738426628
21
13.0296026994620
31
0.000000000000000
  0
LINE
  5
F10894
330
F10895
100
AcDbEntity
8
Geo
100
AcDbLine
10
-89.2030738426628
20
-1.07903676679311
30
0.000000000000000
11
-89.1030738426628
21
-1.35548782664959
31
0.000000000000000
  0
LINE
  5
F10896
330
F10897
100
AcDbEntity
8
Geo
100
AcDbLine
10
-89.2030738426628
20
13.0296026994620
30
0.000000000000000
11
-89.1030738426628
21
12.7627599854062
31
0.000000000000000
  0
LINE
  5
F10898
330
F10899
100
AcDbEntity
8
Geo
100
AcDbLine
10
-89.1030738426628
20
-1.35548782664959
30
0.000000000000000
11
-89.0030738426628
21
-1.62146588817794
31
0.000000000000000
  0
LINE
  5
F1089A
330
F1089B
100
AcDbEntity
8
Geo
100
AcDbLine
10
-89.1030738426628
20
12.7627599854062
30
0.000000000000000
11
-89.0030738426628
21
12.4854769290793
31
0.000000000000000
  0
LINE
  5
F1089C
330
F1089D
100
AcDbEntity
8
Geo
100
AcDbLine
10
-89.0030738426628
20
-1.62146588817794
30
0.000000000000000
11
-88.9030738426628
21
-1.87657695845022
31
0.000000000000000
  0
LINE
  5
F1089E
330
F1089F
100
AcDbEntity
8
Geo
100
AcDbLine
10
-89.0030738426628
20
12.4854769290793
30
0.000000000000000
11
-88.9030738426628
21
12.1981642694819
31
0.000000000000000
  0
LINE
  5
F108A0
330
F108A1
100
AcDbEntity
8
Geo
100
AcDbLine
10
-88.9030738426628
20
-1.87657695845022
30
0.000000000000000
11
-88.8030738426628
21
-2.12044314179736
31
0.000000000000000
  0
LINE
  5
F108A2
330
F108A3
100
AcDbEntity
8
Geo
100
AcDbLine
10
-88.9030738426628
20
12.1981642694819
30
0.000000000000000
11
-88.8030738426628
21
11.9012476024520
31
0.000000000000000
  0
LINE
  5
F108A4
330
F108A5
100
AcDbEntity
8
Geo
100
AcDbLine
10
-88.8030738426628
20
-2.12044314179736
30
0.000000000000000
11
-88.7030738426628
21
-2.35270319958543
31
0.000000000000000
  0
LINE
  5
F108A6
330
F108A7
100
AcDbEntity
8
Geo
100
AcDbLine
10
-88.8030738426628
20
11.9012476024520
30
0.000000000000000
11
-88.7030738426628
21
11.5951667502305
31
0.000000000000000
  0
LINE
  5
F108A8
330
F108A9
100
AcDbEntity
8
Geo
100
AcDbLine
10
-88.7030738426628
20
-2.35270319958543
30
0.000000000000000
11
-88.6030738426628
21
-2.57301308531795
31
0.000000000000000
  0
LINE
  5
F108AA
330
F108AB
100
AcDbEntity
8
Geo
100
AcDbLine
10
-88.7030738426628
20
11.5951667502305
30
0.000000000000000
11
-88.6030738426628
21
11.2803751099525
31
0.000000000000000
  0
LINE
  5
F108AC
330
F108AD
100
AcDbEntity
8
Geo
100
AcDbLine
10
-88.6030738426628
20
-2.57301308531795
30
0.000000000000000
11
-88.5030738426628
21
-2.78104645427148
31
0.000000000000000
  0
LINE
  5
F108AE
330
F108AF
100
AcDbEntity
8
Geo
100
AcDbLine
10
-88.6030738426628
20
11.2803751099525
30
0.000000000000000
11
-88.5030738426628
21
10.9573389820314
31
0.000000000000000
  0
LINE
  5
F108B0
330
F108B1
100
AcDbEntity
8
Geo
100
AcDbLine
10
-88.5030738426628
20
-2.78104645427148
30
0.000000000000000
11
-88.4030738426628
21
-2.97649514690959
31
0.000000000000000
  0
LINE
  5
F108B2
330
F108B3
100
AcDbEntity
8
Geo
100
AcDbLine
10
-88.5030738426628
20
10.9573389820314
30
0.000000000000000
11
-88.4030738426628
21
10.6265368794286
31
0.000000000000000
  0
LINE
  5
F108B4
330
F108B5
100
AcDbEntity
8
Geo
100
AcDbLine
10
-88.4030738426628
20
-2.97649514690959
30
0.000000000000000
11
-88.3030738426628
21
-3.15906964535915
31
0.000000000000000
  0
LINE
  5
F108B6
330
F108B7
100
AcDbEntity
8
Geo
100
AcDbLine
10
-88.4030738426628
20
10.6265368794286
30
0.000000000000000
11
-88.3030738426628
21
10.2884588188327
31
0.000000000000000
  0
LINE
  5
F108B8
330
F108B9
100
AcDbEntity
8
Geo
100
AcDbLine
10
-88.3030738426628
20
-3.15906964535915
30
0.000000000000000
11
-88.2030738426628
21
-3.32849950227275
31
0.000000000000000
  0
LINE
  5
F108BA
330
F108BB
100
AcDbEntity
8
Geo
100
AcDbLine
10
-88.3030738426628
20
10.2884588188327
30
0.000000000000000
11
-88.2030738426628
21
9.94360559479867
31
0.000000000000000
  0
LINE
  5
F108BC
330
F108BD
100
AcDbEntity
8
Geo
100
AcDbLine
10
-88.2030738426628
20
-3.32849950227275
30
0.000000000000000
11
-88.1030738426628
21
-3.48453374144198
31
0.000000000000000
  0
LINE
  5
F108BE
330
F108BF
100
AcDbEntity
8
Geo
100
AcDbLine
10
-88.2030738426628
20
9.94360559479867
30
0.000000000000000
11
-88.1030738426628
21
9.59248803792166
31
0.000000000000000
  0
LINE
  5
F108C0
330
F108C1
100
AcDbEntity
8
Geo
100
AcDbLine
10
-88.1030738426628
20
-3.48453374144198
30
0.000000000000000
11
-88.0030738426628
21
-3.62694122956812
31
0.000000000000000
  0
LINE
  5
F108C2
330
F108C3
100
AcDbEntity
8
Geo
100
AcDbLine
10
-88.1030738426628
20
9.59248803792166
30
0.000000000000000
11
-88.0030738426628
21
9.23562625814411
31
0.000000000000000
  0
LINE
  5
F108C4
330
F108C5
100
AcDbEntity
8
Geo
100
AcDbLine
10
-88.0030738426628
20
-3.62694122956812
30
0.000000000000000
11
-87.9030738426628
21
-3.75551101863958
31
0.000000000000000
  0
LINE
  5
F108C6
330
F108C7
100
AcDbEntity
8
Geo
100
AcDbLine
10
-88.0030738426628
20
9.23562625814411
30
0.000000000000000
11
-87.9030738426628
21
8.87354887431778
31
0.000000000000000
  0
LINE
  5
F108C8
330
F108C9
100
AcDbEntity
8
Geo
100
AcDbLine
10
-87.9030738426628
20
-3.75551101863958
30
0.000000000000000
11
-87.8030738426628
21
-3.87005265840888
31
0.000000000000000
  0
LINE
  5
F108CA
330
F108CB
100
AcDbEntity
8
Geo
100
AcDbLine
10
-87.9030738426628
20
8.87354887431778
30
0.000000000000000
11
-87.8030738426628
21
8.50679223116137
31
0.000000000000000
  0
LINE
  5
F108CC
330
F108CD
100
AcDbEntity
8
Geo
100
AcDbLine
10
-87.8030738426628
20
-3.87005265840888
30
0.000000000000000
11
-87.7030738426628
21
-3.97039647850637
31
0.000000000000000
  0
LINE
  5
F108CE
330
F108CF
100
AcDbEntity
8
Geo
100
AcDbLine
10
-87.8030738426628
20
8.50679223116137
30
0.000000000000000
11
-87.7030738426628
21
8.13589960477384
31
0.000000000000000
  0
LINE
  5
F108D0
330
F108D1
100
AcDbEntity
8
Geo
100
AcDbLine
10
-87.7030738426628
20
-3.97039647850637
30
0.000000000000000
11
-87.6030738426628
21
-4.05639383977267
31
0.000000000000000
  0
LINE
  5
F108D2
330
F108D3
100
AcDbEntity
8
Geo
100
AcDbLine
10
-87.7030738426628
20
8.13589960477384
30
0.000000000000000
11
-87.6030738426628
21
7.76142039788028
31
0.000000000000000
  0
LINE
  5
F108D4
330
F108D5
100
AcDbEntity
8
Geo
100
AcDbLine
10
-87.6030738426628
20
-4.05639383977267
30
0.000000000000000
11
-87.5030738426628
21
-4.12791735443765
31
0.000000000000000
  0
LINE
  5
F108D6
330
F108D7
100
AcDbEntity
8
Geo
100
AcDbLine
10
-87.6030738426628
20
7.76142039788028
30
0.000000000000000
11
-87.5030738426628
21
7.38390932600241
31
0.000000000000000
  0
LINE
  5
F108D8
330
F108D9
100
AcDbEntity
8
Geo
100
AcDbLine
10
-87.5030738426628
20
-4.12791735443765
30
0.000000000000000
11
-87.4030738426628
21
-4.18486107481976
31
0.000000000000000
  0
LINE
  5
F108DA
330
F108DB
100
AcDbEntity
8
Geo
100
AcDbLine
10
-87.5030738426628
20
7.38390932600241
30
0.000000000000000
11
-87.4030738426628
21
7.00392559575934
31
0.000000000000000
  0
LINE
  5
F108DC
330
F108DD
100
AcDbEntity
8
Geo
100
AcDbLine
10
-87.4030738426628
20
-4.18486107481976
30
0.000000000000000
11
-87.3030738426628
21
-4.22714065026623
31
0.000000000000000
  0
LINE
  5
F108DE
330
F108DF
100
AcDbEntity
8
Geo
100
AcDbLine
10
-87.4030738426628
20
7.00392559575934
30
0.000000000000000
11
-87.3030738426628
21
6.62203207651547
31
0.000000000000000
  0
LINE
  5
F108E0
330
F108E1
100
AcDbEntity
8
Geo
100
AcDbLine
10
-87.3030738426628
20
-4.22714065026623
30
0.000000000000000
11
-87.2030738426628
21
-4.25469345210147
31
0.000000000000000
  0
LINE
  5
F108E2
330
F108E3
100
AcDbEntity
8
Geo
100
AcDbLine
10
-87.3030738426628
20
6.62203207651547
30
0.000000000000000
11
-87.2030738426628
21
6.23879446660300
31
0.000000000000000
  0
LINE
  5
F108E4
330
F108E5
100
AcDbEntity
8
Geo
100
AcDbLine
10
-87.2030738426628
20
-4.25469345210147
30
0.000000000000000
11
-87.1030738426628
21
-4.26747866639894
31
0.000000000000000
  0
LINE
  5
F108E6
330
F108E7
100
AcDbEntity
8
Geo
100
AcDbLine
10
-87.2030738426628
20
6.23879446660300
30
0.000000000000000
11
-87.1030738426628
21
5.85478045535371
31
0.000000000000000
  0
LINE
  5
F108E8
330
F108E9
100
AcDbEntity
8
Geo
100
AcDbLine
10
-87.1030738426628
20
5.85478045535371
30
0.000000000000000
11
-87.0030738426628
21
5.47055888218161
31
0.000000000000000
  0
LINE
  5
F108EA
330
F108EB
100
AcDbEntity
8
Geo
100
AcDbLine
10
-87.0030738426628
20
15.6947950731422
30
0.000000000000000
11
-86.9030738426628
21
15.6780101994649
31
0.000000000000000
  0
LINE
  5
F108EC
330
F108ED
100
AcDbEntity
8
Geo
100
AcDbLine
10
-87.0030738426628
20
5.47055888218161
30
0.000000000000000
11
-86.9030738426628
21
5.08669889396191
31
0.000000000000000
  0
LINE
  5
F108EE
330
F108EF
100
AcDbEntity
8
Geo
100
AcDbLine
10
-86.9030738426628
20
15.6780101994649
30
0.000000000000000
11
-86.8030738426628
21
15.6464666274801
31
0.000000000000000
  0
LINE
  5
F108F0
330
F108F1
100
AcDbEntity
8
Geo
100
AcDbLine
10
-86.9030738426628
20
5.08669889396191
30
0.000000000000000
11
-86.8030738426628
21
4.70376910195449
31
0.000000000000000
  0
LINE
  5
F108F2
330
F108F3
100
AcDbEntity
8
Geo
100
AcDbLine
10
-86.8030738426628
20
15.6464666274801
30
0.000000000000000
11
-86.7030738426628
21
15.6002110826368
31
0.000000000000000
  0
LINE
  5
F108F4
330
F108F5
100
AcDbEntity
8
Geo
100
AcDbLine
10
-86.8030738426628
20
4.70376910195449
30
0.000000000000000
11
-86.7030738426628
21
4.32233673952093
31
0.000000000000000
  0
LINE
  5
F108F6
330
F108F7
100
AcDbEntity
8
Geo
100
AcDbLine
10
-86.7030738426628
20
15.6002110826368
30
0.000000000000000
11
-86.6030738426628
21
15.5393120832083
31
0.000000000000000
  0
LINE
  5
F108F8
330
F108F9
100
AcDbEntity
8
Geo
100
AcDbLine
10
-86.7030738426628
20
4.32233673952093
30
0.000000000000000
11
-86.6030738426628
21
3.94296682188249
31
0.000000000000000
  0
LINE
  5
F108FA
330
F108FB
100
AcDbEntity
8
Geo
100
AcDbLine
10
-86.6030738426628
20
15.5393120832083
30
0.000000000000000
11
-86.5030738426628
21
15.4638598387966
31
0.000000000000000
  0
LINE
  5
F108FC
330
F108FD
100
AcDbEntity
8
Geo
100
AcDbLine
10
-86.6030738426628
20
3.94296682188249
30
0.000000000000000
11
-86.5030738426628
21
3.56622130916383
31
0.000000000000000
  0
LINE
  5
F108FE
330
F108FF
100
AcDbEntity
8
Geo
100
AcDbLine
10
-86.5030738426628
20
15.4638598387966
30
0.000000000000000
11
-86.4030738426628
21
15.3739661167052
31
0.000000000000000
  0
LINE
  5
F10900
330
F10901
100
AcDbEntity
8
Geo
100
AcDbLine
10
-86.5030738426628
20
3.56622130916383
30
0.000000000000000
11
-86.4030738426628
21
3.19265827396233
31
0.000000000000000
  0
LINE
  5
F10902
330
F10903
100
AcDbEntity
8
Geo
100
AcDbLine
10
-86.4030738426628
20
15.3739661167052
30
0.000000000000000
11
-86.3030738426628
21
15.2697640763780
31
0.000000000000000
  0
LINE
  5
F10904
330
F10905
100
AcDbEntity
8
Geo
100
AcDbLine
10
-86.4030738426628
20
3.19265827396233
30
0.000000000000000
11
-86.3030738426628
21
2.82283107467590
31
0.000000000000000
  0
LINE
  5
F10906
330
F10907
100
AcDbEntity
8
Geo
100
AcDbLine
10
-86.3030738426628
20
15.2697640763780
30
0.000000000000000
11
-86.2030738426628
21
15.1514080721506
31
0.000000000000000
  0
LINE
  5
F10908
330
F10909
100
AcDbEntity
8
Geo
100
AcDbLine
10
-86.3030738426628
20
2.82283107467590
30
0.000000000000000
11
-86.2030738426628
21
2.45728753581395
31
0.000000000000000
  0
LINE
  5
F1090A
330
F1090B
100
AcDbEntity
8
Geo
100
AcDbLine
10
-86.2030738426628
20
15.1514080721506
30
0.000000000000000
11
-86.1030738426628
21
15.0190734246053
31
0.000000000000000
  0
LINE
  5
F1090C
330
F1090D
100
AcDbEntity
8
Geo
100
AcDbLine
10
-86.2030738426628
20
2.45728753581395
30
0.000000000000000
11
-86.1030738426628
21
2.09656913650577
31
0.000000000000000
  0
LINE
  5
F1090E
330
F1090F
100
AcDbEntity
8
Geo
100
AcDbLine
10
-86.1030738426628
20
15.0190734246053
30
0.000000000000000
11
-86.0030738426628
21
14.8729561608692
31
0.000000000000000
  0
LINE
  5
F10910
330
F10911
100
AcDbEntity
8
Geo
100
AcDbLine
10
-86.1030738426628
20
2.09656913650577
30
0.000000000000000
11
-86.0030738426628
21
1.74121020840819
31
0.000000000000000
  0
LINE
  5
F10912
330
F10913
100
AcDbEntity
8
Geo
100
AcDbLine
10
-86.0030738426628
20
14.8729561608692
30
0.000000000000000
11
-85.9030738426628
21
14.7132727242391
31
0.000000000000000
  0
LINE
  5
F10914
330
F10915
100
AcDbEntity
8
Geo
100
AcDbLine
10
-86.0030738426628
20
1.74121020840819
30
0.000000000000000
11
-85.9030738426628
21
1.39173714420091
31
0.000000000000000
  0
LINE
  5
F10916
330
F10917
100
AcDbEntity
8
Geo
100
AcDbLine
10
-85.9030738426628
20
14.7132727242391
30
0.000000000000000
11
-85.8030738426628
21
14.5402596535650
31
0.000000000000000
  0
LINE
  5
F10918
330
F10919
100
AcDbEntity
8
Geo
100
AcDbLine
10
-85.9030738426628
20
1.39173714420091
30
0.000000000000000
11
-85.8030738426628
21
1.04866761784173
31
0.000000000000000
  0
LINE
  5
F1091A
330
F1091B
100
AcDbEntity
8
Geo
100
AcDbLine
10
-85.8030738426628
20
14.5402596535650
30
0.000000000000000
11
-85.7030738426628
21
14.3541732328647
31
0.000000000000000
  0
LINE
  5
F1091C
330
F1091D
100
AcDbEntity
8
Geo
100
AcDbLine
10
-85.8030738426628
20
1.04866761784173
30
0.000000000000000
11
-85.7030738426628
21
0.712509817736852
31
0.000000000000000
  0
LINE
  5
F1091E
330
F1091F
100
AcDbEntity
8
Geo
100
AcDbLine
10
-85.7030738426628
20
14.3541732328647
30
0.000000000000000
11
-85.6030738426628
21
14.1552891116912
31
0.000000000000000
  0
LINE
  5
F10920
330
F10921
100
AcDbEntity
8
Geo
100
AcDbLine
10
-85.7030738426628
20
0.712509817736852
30
0.000000000000000
11
-85.6030738426628
21
0.383761693962116
31
0.000000000000000
  0
LINE
  5
F10922
330
F10923
100
AcDbEntity
8
Geo
100
AcDbLine
10
-85.6030738426628
20
14.1552891116912
30
0.000000000000000
11
-85.5030738426628
21
13.9439018968129
31
0.000000000000000
  0
LINE
  5
F10924
330
F10925
100
AcDbEntity
8
Geo
100
AcDbLine
10
-85.6030738426628
20
0.383761693962116
30
0.000000000000000
11
-85.5030738426628
21
0.0629102206502346
31
0.000000000000000
  0
LINE
  5
F10926
330
F10927
100
AcDbEntity
8
Geo
100
AcDbLine
10
-85.5030738426628
20
13.9439018968129
30
0.000000000000000
11
-85.4030738426628
21
13.7203247158135
31
0.000000000000000
  0
LINE
  5
F10928
330
F10929
100
AcDbEntity
8
Geo
100
AcDbLine
10
-85.5030738426628
20
0.0629102206502346
30
0.000000000000000
11
-85.4030738426628
21
-0.249569325363240
31
0.000000000000000
  0
LINE
  5
F1092A
330
F1092B
100
AcDbEntity
8
Geo
100
AcDbLine
10
-85.4030738426628
20
13.7203247158135
30
0.000000000000000
11
-85.3030738426628
21
13.4848887532565
31
0.000000000000000
  0
LINE
  5
F1092C
330
F1092D
100
AcDbEntity
8
Geo
100
AcDbLine
10
-85.4030738426628
20
-0.249569325363240
30
0.000000000000000
11
-85.3030738426628
21
-0.553214068566931
31
0.000000000000000
  0
LINE
  5
F1092E
330
F1092F
100
AcDbEntity
8
Geo
100
AcDbLine
10
-85.3030738426628
20
13.4848887532565
30
0.000000000000000
11
-85.2030738426628
21
13.2379427601014
31
0.000000000000000
  0
LINE
  5
F10930
330
F10931
100
AcDbEntity
8
Geo
100
AcDbLine
10
-85.3030738426628
20
-0.553214068566931
30
0.000000000000000
11
-85.2030738426628
21
-0.847574220430381
31
0.000000000000000
  0
LINE
  5
F10932
330
F10933
100
AcDbEntity
8
Geo
100
AcDbLine
10
-85.2030738426628
20
13.2379427601014
30
0.000000000000000
11
-85.1030738426628
21
12.9798525371003
31
0.000000000000000
  0
LINE
  5
F10934
330
F10935
100
AcDbEntity
8
Geo
100
AcDbLine
10
-85.2030738426628
20
-0.847574220430381
30
0.000000000000000
11
-85.1030738426628
21
-1.13221374567524
31
0.000000000000000
  0
LINE
  5
F10936
330
F10937
100
AcDbEntity
8
Geo
100
AcDbLine
10
-85.1030738426628
20
12.9798525371003
30
0.000000000000000
11
-85.0030738426628
21
12.7110003929369
31
0.000000000000000
  0
LINE
  5
F10938
330
F10939
100
AcDbEntity
8
Geo
100
AcDbLine
10
-85.1030738426628
20
-1.13221374567524
30
0.000000000000000
11
-85.0030738426628
21
-1.40671100817364
31
0.000000000000000
  0
LINE
  5
F1093A
330
F1093B
100
AcDbEntity
8
Geo
100
AcDbLine
10
-85.0030738426628
20
12.7110003929369
30
0.000000000000000
11
-84.9030738426628
21
12.4317845779136
31
0.000000000000000
  0
LINE
  5
F1093C
330
F1093D
100
AcDbEntity
8
Geo
100
AcDbLine
10
-85.0030738426628
20
-1.40671100817364
30
0.000000000000000
11
-84.9030738426628
21
-1.67065939551726
31
0.000000000000000
  0
LINE
  5
F1093E
330
F1093F
100
AcDbEntity
8
Geo
100
AcDbLine
10
-84.9030738426628
20
12.4317845779136
30
0.000000000000000
11
-84.8030738426628
21
12.1426186940241
31
0.000000000000000
  0
LINE
  5
F10940
330
F10941
100
AcDbEntity
8
Geo
100
AcDbLine
10
-84.9030738426628
20
-1.67065939551726
30
0.000000000000000
11
-84.8030738426628
21
-1.92366792133169
31
0.000000000000000
  0
LINE
  5
F10942
330
F10943
100
AcDbEntity
8
Geo
100
AcDbLine
10
-84.8030738426628
20
12.1426186940241
30
0.000000000000000
11
-84.7030738426628
21
11.8439310822848
31
0.000000000000000
  0
LINE
  5
F10944
330
F10945
100
AcDbEntity
8
Geo
100
AcDbLine
10
-84.8030738426628
20
-1.92366792133169
30
0.000000000000000
11
-84.7030738426628
21
-2.16536180444397
31
0.000000000000000
  0
LINE
  5
F10946
330
F10947
100
AcDbEntity
8
Geo
100
AcDbLine
10
-84.7030738426628
20
11.8439310822848
30
0.000000000000000
11
-84.6030738426628
21
11.5361641882344
31
0.000000000000000
  0
LINE
  5
F10948
330
F10949
100
AcDbEntity
8
Geo
100
AcDbLine
10
-84.7030738426628
20
-2.16536180444397
30
0.000000000000000
11
-84.6030738426628
21
-2.39538302404548
31
0.000000000000000
  0
LINE
  5
F1094A
330
F1094B
100
AcDbEntity
8
Geo
100
AcDbLine
10
-84.6030738426628
20
11.5361641882344
30
0.000000000000000
11
-84.5030738426628
21
11.2197739065395
31
0.000000000000000
  0
LINE
  5
F1094C
330
F1094D
100
AcDbEntity
8
Geo
100
AcDbLine
10
-84.6030738426628
20
-2.39538302404548
30
0.000000000000000
11
-84.5030738426628
21
-2.61339085002757
31
0.000000000000000
  0
LINE
  5
F1094E
330
F1094F
100
AcDbEntity
8
Geo
100
AcDbLine
10
-84.5030738426628
20
11.2197739065395
30
0.000000000000000
11
-84.4030738426628
21
10.8952289056789
31
0.000000000000000
  0
LINE
  5
F10950
330
F10951
100
AcDbEntity
8
Geo
100
AcDbLine
10
-84.5030738426628
20
-2.61339085002757
30
0.000000000000000
11
-84.4030738426628
21
-2.81906234770468
31
0.000000000000000
  0
LINE
  5
F10952
330
F10953
100
AcDbEntity
8
Geo
100
AcDbLine
10
-84.4030738426628
20
10.8952289056789
30
0.000000000000000
11
-84.3030738426628
21
10.5630099337051
31
0.000000000000000
  0
LINE
  5
F10954
330
F10955
100
AcDbEntity
8
Geo
100
AcDbLine
10
-84.4030738426628
20
-2.81906234770468
30
0.000000000000000
11
-84.3030738426628
21
-3.01209285617697
31
0.000000000000000
  0
LINE
  5
F10956
330
F10957
100
AcDbEntity
8
Geo
100
AcDbLine
10
-84.3030738426628
20
10.5630099337051
30
0.000000000000000
11
-84.2030738426628
21
10.2236091061134
31
0.000000000000000
  0
LINE
  5
F10958
330
F10959
100
AcDbEntity
8
Geo
100
AcDbLine
10
-84.3030738426628
20
-3.01209285617697
30
0.000000000000000
11
-84.2030738426628
21
-3.19219643962411
31
0.000000000000000
  0
LINE
  5
F1095A
330
F1095B
100
AcDbEntity
8
Geo
100
AcDbLine
10
-84.2030738426628
20
10.2236091061134
30
0.000000000000000
11
-84.1030738426628
21
9.87752917687181
31
0.000000000000000
  0
LINE
  5
F1095C
330
F1095D
100
AcDbEntity
8
Geo
100
AcDbLine
10
-84.2030738426628
20
-3.19219643962411
30
0.000000000000000
11
-84.1030738426628
21
-3.35910631086160
31
0.000000000000000
  0
LINE
  5
F1095E
330
F1095F
100
AcDbEntity
8
Geo
100
AcDbLine
10
-84.1030738426628
20
9.87752917687181
30
0.000000000000000
11
-84.0030738426628
21
9.52528279369199
31
0.000000000000000
  0
LINE
  5
F10960
330
F10961
100
AcDbEntity
8
Geo
100
AcDbLine
10
-84.1030738426628
20
-3.35910631086160
30
0.000000000000000
11
-84.0030738426628
21
-3.51257522653226
31
0.000000000000000
  0
LINE
  5
F10962
330
F10963
100
AcDbEntity
8
Geo
100
AcDbLine
10
-84.0030738426628
20
9.52528279369199
30
0.000000000000000
11
-83.9030738426628
21
9.16739173864524
31
0.000000000000000
  0
LINE
  5
F10964
330
F10965
100
AcDbEntity
8
Geo
100
AcDbLine
10
-84.0030738426628
20
-3.51257522653226
30
0.000000000000000
11
-83.9030738426628
21
-3.65237585334747
31
0.000000000000000
  0
LINE
  5
F10966
330
F10967
100
AcDbEntity
8
Geo
100
AcDbLine
10
-83.9030738426628
20
9.16739173864524
30
0.000000000000000
11
-83.8030738426628
21
8.80438615524733
31
0.000000000000000
  0
LINE
  5
F10968
330
F10969
100
AcDbEntity
8
Geo
100
AcDbLine
10
-83.9030738426628
20
-3.65237585334747
30
0.000000000000000
11
-83.8030738426628
21
-3.77830110483561
31
0.000000000000000
  0
LINE
  5
F1096A
330
F1096B
100
AcDbEntity
8
Geo
100
AcDbLine
10
-83.8030738426628
20
8.80438615524733
30
0.000000000000000
11
-83.7030738426628
21
8.43680376315770
31
0.000000000000000
  0
LINE
  5
F1096C
330
F1096D
100
AcDbEntity
8
Geo
100
AcDbLine
10
-83.8030738426628
20
-3.77830110483561
30
0.000000000000000
11
-83.7030738426628
21
-3.89016444809902
31
0.000000000000000
  0
LINE
  5
F1096E
330
F1096F
100
AcDbEntity
8
Geo
100
AcDbLine
10
-83.7030738426628
20
8.43680376315770
30
0.000000000000000
11
-83.6030738426628
21
8.06518906165604
31
0.000000000000000
  0
LINE
  5
F10970
330
F10971
100
AcDbEntity
8
Geo
100
AcDbLine
10
-83.7030738426628
20
-3.89016444809902
30
0.000000000000000
11
-83.6030738426628
21
-3.98780018012488
31
0.000000000000000
  0
LINE
  5
F10972
330
F10973
100
AcDbEntity
8
Geo
100
AcDbLine
10
-83.6030738426628
20
8.06518906165604
30
0.000000000000000
11
-83.5030738426628
21
7.69009252307626
31
0.000000000000000
  0
LINE
  5
F10974
330
F10975
100
AcDbEntity
8
Geo
100
AcDbLine
10
-83.6030738426628
20
-3.98780018012488
30
0.000000000000000
11
-83.5030738426628
21
-4.07106367324084
31
0.000000000000000
  0
LINE
  5
F10976
330
F10977
100
AcDbEntity
8
Geo
100
AcDbLine
10
-83.5030738426628
20
7.69009252307626
30
0.000000000000000
11
-83.4030738426628
21
7.31206977739269
31
0.000000000000000
  0
LINE
  5
F10978
330
F10979
100
AcDbEntity
8
Geo
100
AcDbLine
10
-83.5030738426628
20
-4.07106367324084
30
0.000000000000000
11
-83.4030738426628
21
-4.13983158935182
31
0.000000000000000
  0
LINE
  5
F1097A
330
F1097B
100
AcDbEntity
8
Geo
100
AcDbLine
10
-83.4030738426628
20
7.31206977739269
30
0.000000000000000
11
-83.3030738426628
21
6.93168078916606
31
0.000000000000000
  0
LINE
  5
F1097C
330
F1097D
100
AcDbEntity
8
Geo
100
AcDbLine
10
-83.4030738426628
20
-4.13983158935182
30
0.000000000000000
11
-83.3030738426628
21
-4.19400206264055
31
0.000000000000000
  0
LINE
  5
F1097E
330
F1097F
100
AcDbEntity
8
Geo
100
AcDbLine
10
-83.3030738426628
20
6.93168078916606
30
0.000000000000000
11
-83.2030738426628
21
6.54948902806890
31
0.000000000000000
  0
LINE
  5
F10980
330
F10981
100
AcDbEntity
8
Geo
100
AcDbLine
10
-83.3030738426628
20
-4.19400206264055
30
0.000000000000000
11
-83.2030738426628
21
-4.23349485046124
31
0.000000000000000
  0
LINE
  5
F10982
330
F10983
100
AcDbEntity
8
Geo
100
AcDbLine
10
-83.2030738426628
20
6.54948902806890
30
0.000000000000000
11
-83.1030738426628
21
6.16606063421863
31
0.000000000000000
  0
LINE
  5
F10984
330
F10985
100
AcDbEntity
8
Geo
100
AcDbLine
10
-83.2030738426628
20
-4.23349485046124
30
0.000000000000000
11
-83.1030738426628
21
-4.25825145220291
31
0.000000000000000
  0
LINE
  5
F10986
330
F10987
100
AcDbEntity
8
Geo
100
AcDbLine
10
-83.1030738426628
20
6.16606063421863
30
0.000000000000000
11
-83.0030738426628
21
5.78196357955501
31
0.000000000000000
  0
LINE
  5
F10988
330
F10989
100
AcDbEntity
8
Geo
100
AcDbLine
10
-83.1030738426628
20
-4.25825145220291
30
0.000000000000000
11
-83.0030738426628
21
-4.26823519594628
31
0.000000000000000
  0
LINE
  5
F1098A
330
F1098B
100
AcDbEntity
8
Geo
100
AcDbLine
10
-83.0030738426628
20
5.78196357955501
30
0.000000000000000
11
-82.9030738426628
21
5.39776682650415
31
0.000000000000000
  0
LINE
  5
F1098C
330
F1098D
100
AcDbEntity
8
Geo
100
AcDbLine
10
-82.9030738426628
20
15.6927490114893
30
0.000000000000000
11
-82.8030738426628
21
15.6731645774399
31
0.000000000000000
  0
LINE
  5
F1098E
330
F1098F
100
AcDbEntity
8
Geo
100
AcDbLine
10
-82.9030738426628
20
5.39776682650415
30
0.000000000000000
11
-82.8030738426628
21
5.01403948517523
31
0.000000000000000
  0
LINE
  5
F10990
330
F10991
100
AcDbEntity
8
Geo
100
AcDbLine
10
-82.8030738426628
20
15.6731645774399
30
0.000000000000000
11
-82.7030738426628
21
15.6388286228962
31
0.000000000000000
  0
LINE
  5
F10992
330
F10993
100
AcDbEntity
8
Geo
100
AcDbLine
10
-82.8030738426628
20
5.01403948517523
30
0.000000000000000
11
-82.7030738426628
21
4.63134997033850
31
0.000000000000000
  0
LINE
  5
F10994
330
F10995
100
AcDbEntity
8
Geo
100
AcDbLine
10
-82.7030738426628
20
15.6388286228962
30
0.000000000000000
11
-82.6030738426628
21
15.5897920096594
31
0.000000000000000
  0
LINE
  5
F10996
330
F10997
100
AcDbEntity
8
Geo
100
AcDbLine
10
-82.7030738426628
20
4.63134997033850
30
0.000000000000000
11
-82.6030738426628
21
4.25026515943329
31
0.000000000000000
  0
LINE
  5
F10998
330
F10999
100
AcDbEntity
8
Geo
100
AcDbLine
10
-82.6030738426628
20
15.5897920096594
30
0.000000000000000
11
-82.5030738426628
21
15.5261273755955
31
0.000000000000000
  0
LINE
  5
F1099A
330
F1099B
100
AcDbEntity
8
Geo
100
AcDbLine
10
-82.6030738426628
20
4.25026515943329
30
0.000000000000000
11
-82.5030738426628
21
3.87134955285327
31
0.000000000000000
  0
LINE
  5
F1099C
330
F1099D
100
AcDbEntity
8
Geo
100
AcDbLine
10
-82.5030738426628
20
15.5261273755955
30
0.000000000000000
11
-82.4030738426628
21
15.4479290270373
31
0.000000000000000
  0
LINE
  5
F1099E
330
F1099F
100
AcDbEntity
8
Geo
100
AcDbLine
10
-82.5030738426628
20
3.87134955285327
30
0.000000000000000
11
-82.4030738426628
21
3.49516443775278
31
0.000000000000000
  0
LINE
  5
F109A0
330
F109A1
100
AcDbEntity
8
Geo
100
AcDbLine
10
-82.4030738426628
20
15.4479290270373
30
0.000000000000000
11
-82.3030738426628
21
15.3553127990883
31
0.000000000000000
  0
LINE
  5
F109A2
330
F109A3
100
AcDbEntity
8
Geo
100
AcDbLine
10
-82.4030738426628
20
3.49516443775278
30
0.000000000000000
11
-82.3030738426628
21
3.12226705661299
31
0.000000000000000
  0
LINE
  5
F109A4
330
F109A5
100
AcDbEntity
8
Geo
100
AcDbLine
10
-82.3030738426628
20
15.3553127990883
30
0.000000000000000
11
-82.2030738426628
21
15.2484158840367
31
0.000000000000000
  0
LINE
  5
F109A6
330
F109A7
100
AcDbEntity
8
Geo
100
AcDbLine
10
-82.3030738426628
20
3.12226705661299
30
0.000000000000000
11
-82.2030738426628
21
2.75320978179939
31
0.000000000000000
  0
LINE
  5
F109A8
330
F109A9
100
AcDbEntity
8
Geo
100
AcDbLine
10
-82.2030738426628
20
15.2484158840367
30
0.000000000000000
11
-82.1030738426628
21
15.1273966281321
31
0.000000000000000
  0
LINE
  5
F109AA
330
F109AB
100
AcDbEntity
8
Geo
100
AcDbLine
10
-82.2030738426628
20
2.75320978179939
30
0.000000000000000
11
-82.1030738426628
21
2.38853929733335
31
0.000000000000000
  0
LINE
  5
F109AC
330
F109AD
100
AcDbEntity
8
Geo
100
AcDbLine
10
-82.1030738426628
20
15.1273966281321
30
0.000000000000000
11
-82.0030738426628
21
14.9924342970278
31
0.000000000000000
  0
LINE
  5
F109AE
330
F109AF
100
AcDbEntity
8
Geo
100
AcDbLine
10
-82.1030738426628
20
2.38853929733335
30
0.000000000000000
11
-82.0030738426628
21
2.02879578908991
31
0.000000000000000
  0
LINE
  5
F109B0
330
F109B1
100
AcDbEntity
8
Geo
100
AcDbLine
10
-82.0030738426628
20
14.9924342970278
30
0.000000000000000
11
-81.9030738426628
21
14.8437288102349
31
0.000000000000000
  0
LINE
  5
F109B2
330
F109B3
100
AcDbEntity
8
Geo
100
AcDbLine
10
-82.0030738426628
20
2.02879578908991
30
0.000000000000000
11
-81.9030738426628
21
1.67451214462113
31
0.000000000000000
  0
LINE
  5
F109B4
330
F109B5
100
AcDbEntity
8
Geo
100
AcDbLine
10
-81.9030738426628
20
14.8437288102349
30
0.000000000000000
11
-81.8030738426628
21
14.6815004449814
31
0.000000000000000
  0
LINE
  5
F109B6
330
F109B7
100
AcDbEntity
8
Geo
100
AcDbLine
10
-81.9030738426628
20
1.67451214462113
30
0.000000000000000
11
-81.8030738426628
21
1.32621316379062
31
0.000000000000000
  0
LINE
  5
F109B8
330
F109B9
100
AcDbEntity
8
Geo
100
AcDbLine
10
-81.8030738426628
20
14.6815004449814
30
0.000000000000000
11
-81.7030738426628
21
14.5059895099163
31
0.000000000000000
  0
LINE
  5
F109BA
330
F109BB
100
AcDbEntity
8
Geo
100
AcDbLine
10
-81.8030738426628
20
1.32621316379062
30
0.000000000000000
11
-81.7030738426628
21
0.984414781388098
31
0.000000000000000
  0
LINE
  5
F109BC
330
F109BD
100
AcDbEntity
8
Geo
100
AcDbLine
10
-81.7030738426628
20
14.5059895099163
30
0.000000000000000
11
-81.6030738426628
21
14.3174559891405
31
0.000000000000000
  0
LINE
  5
F109BE
330
F109BF
100
AcDbEntity
8
Geo
100
AcDbLine
10
-81.7030738426628
20
0.984414781388098
30
0.000000000000000
11
-81.6030738426628
21
0.649623302876020
31
0.000000000000000
  0
LINE
  5
F109C0
330
F109C1
100
AcDbEntity
8
Geo
100
AcDbLine
10
-81.6030738426628
20
14.3174559891405
30
0.000000000000000
11
-81.5030738426628
21
14.1161791570929
31
0.000000000000000
  0
LINE
  5
F109C2
330
F109C3
100
AcDbEntity
8
Geo
100
AcDbLine
10
-81.6030738426628
20
0.649623302876020
30
0.000000000000000
11
-81.5030738426628
21
0.322334654399980
31
0.000000000000000
  0
LINE
  5
F109C4
330
F109C5
100
AcDbEntity
8
Geo
100
AcDbLine
10
-81.5030738426628
20
14.1161791570929
30
0.000000000000000
11
-81.4030738426628
21
13.9024571648612
31
0.000000000000000
  0
LINE
  5
F109C6
330
F109C7
100
AcDbEntity
8
Geo
100
AcDbLine
10
-81.5030738426628
20
0.322334654399980
30
0.000000000000000
11
-81.4030738426628
21
0.00303364817399832
31
0.000000000000000
  0
LINE
  5
F109C8
330
F109C9
100
AcDbEntity
8
Geo
100
AcDbLine
10
-81.4030738426628
20
13.9024571648612
30
0.000000000000000
11
-81.3030738426628
21
13.6766065985316
31
0.000000000000000
  0
LINE
  5
F109CA
330
F109CB
100
AcDbEntity
8
Geo
100
AcDbLine
10
-81.4030738426628
20
0.00303364817399832
30
0.000000000000000
11
-81.3030738426628
21
-0.307806735671124
31
0.000000000000000
  0
LINE
  5
F109CC
330
F109CD
100
AcDbEntity
8
Geo
100
AcDbLine
10
-81.3030738426628
20
13.6766065985316
30
0.000000000000000
11
-81.2030738426628
21
13.4389620102298
31
0.000000000000000
  0
LINE
  5
F109CE
330
F109CF
100
AcDbEntity
8
Geo
100
AcDbLine
10
-81.3030738426628
20
-0.307806735671124
30
0.000000000000000
11
-81.2030738426628
21
-0.609726049712589
31
0.000000000000000
  0
LINE
  5
F109D0
330
F109D1
100
AcDbEntity
8
Geo
100
AcDbLine
10
-81.2030738426628
20
13.4389620102298
30
0.000000000000000
11
-81.1030738426628
21
13.1898754225498
31
0.000000000000000
  0
LINE
  5
F109D2
330
F109D3
100
AcDbEntity
8
Geo
100
AcDbLine
10
-81.2030738426628
20
-0.609726049712589
30
0.000000000000000
11
-81.1030738426628
21
-0.902277061295741
31
0.000000000000000
  0
LINE
  5
F109D4
330
F109D5
100
AcDbEntity
8
Geo
100
AcDbLine
10
-81.1030738426628
20
13.1898754225498
30
0.000000000000000
11
-81.0030738426628
21
12.9297158071031
31
0.000000000000000
  0
LINE
  5
F109D6
330
F109D7
100
AcDbEntity
8
Geo
100
AcDbLine
10
-81.1030738426628
20
-0.902277061295741
30
0.000000000000000
11
-81.0030738426628
21
-1.18502641501916
31
0.000000000000000
  0
LINE
  5
F109D8
330
F109D9
100
AcDbEntity
8
Geo
100
AcDbLine
10
-81.0030738426628
20
12.9297158071031
30
0.000000000000000
11
-80.9030738426628
21
12.6588685379616
31
0.000000000000000
  0
LINE
  5
F109DA
330
F109DB
100
AcDbEntity
8
Geo
100
AcDbLine
10
-81.0030738426628
20
-1.18502641501916
30
0.000000000000000
11
-80.9030738426628
21
-1.45755527466341
31
0.000000000000000
  0
LINE
  5
F109DC
330
F109DD
100
AcDbEntity
8
Geo
100
AcDbLine
10
-80.9030738426628
20
12.6588685379616
30
0.000000000000000
11
-80.8030738426628
21
12.3777348208036
31
0.000000000000000
  0
LINE
  5
F109DE
330
F109DF
100
AcDbEntity
8
Geo
100
AcDbLine
10
-80.9030738426628
20
-1.45755527466341
30
0.000000000000000
11
-80.8030738426628
21
-1.71945994361255
31
0.000000000000000
  0
LINE
  5
F109E0
330
F109E1
100
AcDbEntity
8
Geo
100
AcDbLine
10
-80.8030738426628
20
12.3777348208036
30
0.000000000000000
11
-80.7030738426628
21
12.0867310986085
31
0.000000000000000
  0
LINE
  5
F109E2
330
F109E3
100
AcDbEntity
8
Geo
100
AcDbLine
10
-80.8030738426628
20
-1.71945994361255
30
0.000000000000000
11
-80.7030738426628
21
-1.97035246284933
31
0.000000000000000
  0
LINE
  5
F109E4
330
F109E5
100
AcDbEntity
8
Geo
100
AcDbLine
10
-80.7030738426628
20
12.0867310986085
30
0.000000000000000
11
-80.6030738426628
21
11.7862884347800
31
0.000000000000000
  0
LINE
  5
F109E6
330
F109E7
100
AcDbEntity
8
Geo
100
AcDbLine
10
-80.7030738426628
20
-1.97035246284933
30
0.000000000000000
11
-80.6030738426628
21
-2.20986118563837
31
0.000000000000000
  0
LINE
  5
F109E8
330
F109E9
100
AcDbEntity
8
Geo
100
AcDbLine
10
-80.6030738426628
20
11.7862884347800
30
0.000000000000000
11
-80.5030738426628
21
11.4768518746129
31
0.000000000000000
  0
LINE
  5
F109EA
330
F109EB
100
AcDbEntity
8
Geo
100
AcDbLine
10
-80.6030738426628
20
-2.20986118563837
30
0.000000000000000
11
-80.5030738426628
21
-2.43763132804594
31
0.000000000000000
  0
LINE
  5
F109EC
330
F109ED
100
AcDbEntity
8
Geo
100
AcDbLine
10
-80.5030738426628
20
11.4768518746129
30
0.000000000000000
11
-80.4030738426628
21
11.1588797860480
31
0.000000000000000
  0
LINE
  5
F109EE
330
F109EF
100
AcDbEntity
8
Geo
100
AcDbLine
10
-80.5030738426628
20
-2.43763132804594
30
0.000000000000000
11
-80.4030738426628
21
-2.65332549448089
31
0.000000000000000
  0
LINE
  5
F109F0
330
F109F1
100
AcDbEntity
8
Geo
100
AcDbLine
10
-80.4030738426628
20
11.1588797860480
30
0.000000000000000
11
-80.3030738426628
21
10.8328431806922
31
0.000000000000000
  0
LINE
  5
F109F2
330
F109F3
100
AcDbEntity
8
Geo
100
AcDbLine
10
-80.4030738426628
20
-2.65332549448089
30
0.000000000000000
11
-80.3030738426628
21
-2.85662417747827
31
0.000000000000000
  0
LINE
  5
F109F4
330
F109F5
100
AcDbEntity
8
Geo
100
AcDbLine
10
-80.3030738426628
20
10.8328431806922
30
0.000000000000000
11
-80.2030738426628
21
10.4992250161099
31
0.000000000000000
  0
LINE
  5
F109F6
330
F109F7
100
AcDbEntity
8
Geo
100
AcDbLine
10
-80.3030738426628
20
-2.85662417747827
30
0.000000000000000
11
-80.2030738426628
21
-3.04722623098529
31
0.000000000000000
  0
LINE
  5
F109F8
330
F109F9
100
AcDbEntity
8
Geo
100
AcDbLine
10
-80.2030738426628
20
10.4992250161099
30
0.000000000000000
11
-80.1030738426628
21
10.1585194804182
31
0.000000000000000
  0
LINE
  5
F109FA
330
F109FB
100
AcDbEntity
8
Geo
100
AcDbLine
10
-80.2030738426628
20
-3.04722623098529
30
0.000000000000000
11
-80.1030738426628
21
-3.22484931644854
31
0.000000000000000
  0
LINE
  5
F109FC
330
F109FD
100
AcDbEntity
8
Geo
100
AcDbLine
10
-80.1030738426628
20
10.1585194804182
30
0.000000000000000
11
-80.0030738426628
21
9.81123126024752
31
0.000000000000000
  0
LINE
  5
F109FE
330
F109FF
100
AcDbEntity
8
Geo
100
AcDbLine
10
-80.1030738426628
20
-3.22484931644854
30
0.000000000000000
11
-80.0030738426628
21
-3.38923032104169
31
0.000000000000000
  0
LINE
  5
F10A00
330
F10A01
100
AcDbEntity
8
Geo
100
AcDbLine
10
-80.0030738426628
20
9.81123126024752
30
0.000000000000000
11
-79.9030738426628
21
9.45787479314911
31
0.000000000000000
  0
LINE
  5
F10A02
330
F10A03
100
AcDbEntity
8
Geo
100
AcDbLine
10
-80.0030738426628
20
-3.38923032104169
30
0.000000000000000
11
-79.9030738426628
21
-3.54012574741417
31
0.000000000000000
  0
LINE
  5
F10A04
330
F10A05
100
AcDbEntity
8
Geo
100
AcDbLine
10
-79.9030738426628
20
9.45787479314911
30
0.000000000000000
11
-79.8030738426628
21
9.09897350556004
31
0.000000000000000
  0
LINE
  5
F10A06
330
F10A07
100
AcDbEntity
8
Geo
100
AcDbLine
10
-79.9030738426628
20
-3.54012574741417
30
0.000000000000000
11
-79.8030738426628
21
-3.67731207438340
31
0.000000000000000
  0
LINE
  5
F10A08
330
F10A09
100
AcDbEntity
8
Geo
100
AcDbLine
10
-79.8030738426628
20
9.09897350556004
30
0.000000000000000
11
-79.7030738426628
21
8.73505903745213
31
0.000000000000000
  0
LINE
  5
F10A0A
330
F10A0B
100
AcDbEntity
8
Geo
100
AcDbLine
10
-79.8030738426628
20
-3.67731207438340
30
0.000000000000000
11
-79.7030738426628
21
-3.80058608803647
31
0.000000000000000
  0
LINE
  5
F10A0C
330
F10A0D
100
AcDbEntity
8
Geo
100
AcDbLine
10
-79.7030738426628
20
8.73505903745213
30
0.000000000000000
11
-79.6030738426628
21
8.36667045481444
31
0.000000000000000
  0
LINE
  5
F10A0E
330
F10A0F
100
AcDbEntity
8
Geo
100
AcDbLine
10
-79.7030738426628
20
-3.80058608803647
30
0.000000000000000
11
-79.6030738426628
21
-3.90976518275058
31
0.000000000000000
  0
LINE
  5
F10A10
330
F10A11
100
AcDbEntity
8
Geo
100
AcDbLine
10
-79.6030738426628
20
8.36667045481444
30
0.000000000000000
11
-79.5030738426628
21
7.99435345113558
31
0.000000000000000
  0
LINE
  5
F10A12
330
F10A13
100
AcDbEntity
8
Geo
100
AcDbLine
10
-79.6030738426628
20
-3.90976518275058
30
0.000000000000000
11
-79.5030738426628
21
-4.00468763168650
31
0.000000000000000
  0
LINE
  5
F10A14
330
F10A15
100
AcDbEntity
8
Geo
100
AcDbLine
10
-79.5030738426628
20
7.99435345113558
30
0.000000000000000
11
-79.4030738426628
21
7.61865953906871
31
0.000000000000000
  0
LINE
  5
F10A16
330
F10A17
100
AcDbEntity
8
Geo
100
AcDbLine
10
-79.5030738426628
20
-4.00468763168650
30
0.000000000000000
11
-79.4030738426628
21
-4.08521282635431
31
0.000000000000000
  0
LINE
  5
F10A18
330
F10A19
100
AcDbEntity
8
Geo
100
AcDbLine
10
-79.4030738426628
20
7.61865953906871
30
0.000000000000000
11
-79.3030738426628
21
7.24014523347664
31
0.000000000000000
  0
LINE
  5
F10A1A
330
F10A1B
100
AcDbEntity
8
Geo
100
AcDbLine
10
-79.4030738426628
20
-4.08521282635431
30
0.000000000000000
11
-79.3030738426628
21
-4.15122148489657
31
0.000000000000000
  0
LINE
  5
F10A1C
330
F10A1D
100
AcDbEntity
8
Geo
100
AcDbLine
10
-79.3030738426628
20
7.24014523347664
30
0.000000000000000
11
-79.2030738426628
21
6.85937122706712
31
0.000000000000000
  0
LINE
  5
F10A1E
330
F10A1F
100
AcDbEntity
8
Geo
100
AcDbLine
10
-79.3030738426628
20
-4.15122148489657
30
0.000000000000000
11
-79.2030738426628
21
-4.20261582878035
31
0.000000000000000
  0
LINE
  5
F10A20
330
F10A21
100
AcDbEntity
8
Geo
100
AcDbLine
10
-79.2030738426628
20
6.85937122706712
30
0.000000000000000
11
-79.1030738426628
21
6.47690155983956
31
0.000000000000000
  0
LINE
  5
F10A22
330
F10A23
100
AcDbEntity
8
Geo
100
AcDbLine
10
-79.2030738426628
20
-4.20261582878035
30
0.000000000000000
11
-79.1030738426628
21
-4.23931972763643
31
0.000000000000000
  0
LINE
  5
F10A24
330
F10A25
100
AcDbEntity
8
Geo
100
AcDbLine
10
-79.1030738426628
20
6.47690155983956
30
0.000000000000000
11
-79.0030738426628
21
6.09330278357333
31
0.000000000000000
  0
LINE
  5
F10A26
330
F10A27
100
AcDbEntity
8
Geo
100
AcDbLine
10
-79.1030738426628
20
-4.23931972763643
30
0.000000000000000
11
-79.0030738426628
21
-4.26127881203114
31
0.000000000000000
  0
LINE
  5
F10A28
330
F10A29
100
AcDbEntity
8
Geo
100
AcDbLine
10
-79.0030738426628
20
6.09330278357333
30
0.000000000000000
11
-78.9030738426628
21
5.70914312259544
31
0.000000000000000
  0
LINE
  5
F10A2A
330
F10A2B
100
AcDbEntity
8
Geo
100
AcDbLine
10
-78.9030738426628
20
15.6977782727072
30
0.000000000000000
11
-78.8030738426628
21
15.6901720339533
31
0.000000000000000
  0
LINE
  5
F10A2C
330
F10A2D
100
AcDbEntity
8
Geo
100
AcDbLine
10
-78.9030738426628
20
5.70914312259544
30
0.000000000000000
11
-78.8030738426628
21
5.32499163207064
31
0.000000000000000
  0
LINE
  5
F10A2E
330
F10A2F
100
AcDbEntity
8
Geo
100
AcDbLine
10
-78.8030738426628
20
15.6901720339533
30
0.000000000000000
11
-78.7030738426628
21
15.6677890815837
31
0.000000000000000
  0
LINE
  5
F10A30
330
F10A31
100
AcDbEntity
8
Geo
100
AcDbLine
10
-78.8030738426628
20
5.32499163207064
30
0.000000000000000
11
-78.7030738426628
21
4.94141735506079
31
0.000000000000000
  0
LINE
  5
F10A32
330
F10A33
100
AcDbEntity
8
Geo
100
AcDbLine
10
-78.7030738426628
20
15.6677890815837
30
0.000000000000000
11
-78.6030738426628
21
15.6306625714343
31
0.000000000000000
  0
LINE
  5
F10A34
330
F10A35
100
AcDbEntity
8
Geo
100
AcDbLine
10
-78.7030738426628
20
4.94141735506079
30
0.000000000000000
11
-78.6030738426628
21
4.55898847960219
31
0.000000000000000
  0
LINE
  5
F10A36
330
F10A37
100
AcDbEntity
8
Geo
100
AcDbLine
10
-78.6030738426628
20
15.6306625714343
30
0.000000000000000
11
-78.5030738426628
21
15.5788474989523
31
0.000000000000000
  0
LINE
  5
F10A38
330
F10A39
100
AcDbEntity
8
Geo
100
AcDbLine
10
-78.6030738426628
20
4.55898847960219
30
0.000000000000000
11
-78.5030738426628
21
4.17827149704943
31
0.000000000000000
  0
LINE
  5
F10A3A
330
F10A3B
100
AcDbEntity
8
Geo
100
AcDbLine
10
-78.5030738426628
20
15.5788474989523
30
0.000000000000000
11
-78.4030738426628
21
15.5124206177314
31
0.000000000000000
  0
LINE
  5
F10A3C
330
F10A3D
100
AcDbEntity
8
Geo
100
AcDbLine
10
-78.5030738426628
20
4.17827149704943
30
0.000000000000000
11
-78.4030738426628
21
3.79983036293254
31
0.000000000000000
  0
LINE
  5
F10A3E
330
F10A3F
100
AcDbEntity
8
Geo
100
AcDbLine
10
-78.4030738426628
20
15.5124206177314
30
0.000000000000000
11
-78.3030738426628
21
15.4314803258174
31
0.000000000000000
  0
LINE
  5
F10A40
330
F10A41
100
AcDbEntity
8
Geo
100
AcDbLine
10
-78.4030738426628
20
3.79983036293254
30
0.000000000000000
11
-78.3030738426628
21
3.42422566157049
31
0.000000000000000
  0
LINE
  5
F10A42
330
F10A43
100
AcDbEntity
8
Geo
100
AcDbLine
10
-78.3030738426628
20
15.4314803258174
30
0.000000000000000
11
-78.2030738426628
21
15.3361465199506
31
0.000000000000000
  0
LINE
  5
F10A44
330
F10A45
100
AcDbEntity
8
Geo
100
AcDbLine
10
-78.3030738426628
20
3.42422566157049
30
0.000000000000000
11
-78.2030738426628
21
3.05201377567839
31
0.000000000000000
  0
LINE
  5
F10A46
330
F10A47
100
AcDbEntity
8
Geo
100
AcDbLine
10
-78.2030738426628
20
15.3361465199506
30
0.000000000000000
11
-78.1030738426628
21
15.2265604179634
31
0.000000000000000
  0
LINE
  5
F10A48
330
F10A49
100
AcDbEntity
8
Geo
100
AcDbLine
10
-78.2030738426628
20
3.05201377567839
30
0.000000000000000
11
-78.1030738426628
21
2.68374606219856
31
0.000000000000000
  0
LINE
  5
F10A4A
330
F10A4B
100
AcDbEntity
8
Geo
100
AcDbLine
10
-78.1030738426628
20
15.2265604179634
30
0.000000000000000
11
-78.0030738426628
21
15.1028843495944
31
0.000000000000000
  0
LINE
  5
F10A4C
330
F10A4D
100
AcDbEntity
8
Geo
100
AcDbLine
10
-78.1030738426628
20
2.68374606219856
30
0.000000000000000
11
-78.0030738426628
21
2.31996803557631
31
0.000000000000000
  0
LINE
  5
F10A4E
330
F10A4F
100
AcDbEntity
8
Geo
100
AcDbLine
10
-78.0030738426628
20
15.1028843495944
30
0.000000000000000
11
-77.9030738426628
21
14.9653015160293
31
0.000000000000000
  0
LINE
  5
F10A50
330
F10A51
100
AcDbEntity
8
Geo
100
AcDbLine
10
-78.0030738426628
20
2.31996803557631
30
0.000000000000000
11
-77.9030738426628
21
1.96121855969013
31
0.000000000000000
  0
LINE
  5
F10A52
330
F10A53
100
AcDbEntity
8
Geo
100
AcDbLine
10
-77.9030738426628
20
14.9653015160293
30
0.000000000000000
11
-77.8030738426628
21
14.8140157185258
31
0.000000000000000
  0
LINE
  5
F10A54
330
F10A55
100
AcDbEntity
8
Geo
100
AcDbLine
10
-77.9030738426628
20
1.96121855969013
30
0.000000000000000
11
-77.8030738426628
21
1.60802904963336
31
0.000000000000000
  0
LINE
  5
F10A56
330
F10A57
100
AcDbEntity
8
Geo
100
AcDbLine
10
-77.8030738426628
20
14.8140157185258
30
0.000000000000000
11
-77.7030738426628
21
14.6492510565227
31
0.000000000000000
  0
LINE
  5
F10A58
330
F10A59
100
AcDbEntity
8
Geo
100
AcDbLine
10
-77.8030738426628
20
1.60802904963336
30
0.000000000000000
11
-77.7030738426628
21
1.26092268452979
31
0.000000000000000
  0
LINE
  5
F10A5A
330
F10A5B
100
AcDbEntity
8
Geo
100
AcDbLine
10
-77.7030738426628
20
14.6492510565227
30
0.000000000000000
11
-77.6030738426628
21
14.4712515956818
31
0.000000000000000
  0
LINE
  5
F10A5C
330
F10A5D
100
AcDbEntity
8
Geo
100
AcDbLine
10
-77.7030738426628
20
1.26092268452979
30
0.000000000000000
11
-77.6030738426628
21
0.920413632549207
31
0.000000000000000
  0
LINE
  5
F10A5E
330
F10A5F
100
AcDbEntity
8
Geo
100
AcDbLine
10
-77.6030738426628
20
14.4712515956818
30
0.000000000000000
11
-77.5030738426628
21
14.2802810063535
31
0.000000000000000
  0
LINE
  5
F10A60
330
F10A61
100
AcDbEntity
8
Geo
100
AcDbLine
10
-77.6030738426628
20
0.920413632549207
30
0.000000000000000
11
-77.5030738426628
21
0.587006289270679
31
0.000000000000000
  0
LINE
  5
F10A62
330
F10A63
100
AcDbEntity
8
Geo
100
AcDbLine
10
-77.5030738426628
20
14.2802810063535
30
0.000000000000000
11
-77.4030738426628
21
14.0766221730031
31
0.000000000000000
  0
LINE
  5
F10A64
330
F10A65
100
AcDbEntity
8
Geo
100
AcDbLine
10
-77.5030738426628
20
0.587006289270679
30
0.000000000000000
11
-77.4030738426628
21
0.261194530522268
31
0.000000000000000
  0
LINE
  5
F10A66
330
F10A67
100
AcDbEntity
8
Geo
100
AcDbLine
10
-77.4030738426628
20
14.0766221730031
30
0.000000000000000
11
-77.3030738426628
21
13.8605767751734
31
0.000000000000000
  0
LINE
  5
F10A68
330
F10A69
100
AcDbEntity
8
Geo
100
AcDbLine
10
-77.4030738426628
20
0.261194530522268
30
0.000000000000000
11
-77.3030738426628
21
-0.0565390191967001
31
0.000000000000000
  0
LINE
  5
F10A6A
330
F10A6B
100
AcDbEntity
8
Geo
100
AcDbLine
10
-77.3030738426628
20
13.8605767751734
30
0.000000000000000
11
-77.2030738426628
21
13.6324648406080
31
0.000000000000000
  0
LINE
  5
F10A6C
330
F10A6D
100
AcDbEntity
8
Geo
100
AcDbLine
10
-77.3030738426628
20
-0.0565390191967001
30
0.000000000000000
11
-77.2030738426628
21
-0.365723701626545
31
0.000000000000000
  0
LINE
  5
F10A6E
330
F10A6F
100
AcDbEntity
8
Geo
100
AcDbLine
10
-95.2030738426628
20
5.71465885935174
30
0.000000000000000
11
-95.2030738426628
21
5.71465885935174
31
0.000000000000000
  0
LINE
  5
F10A70
330
F10A71
100
AcDbEntity
8
Geo
100
AcDbLine
10
-95.2030738426628
20
5.71465885935174
30
0.000000000000000
11
-95.2030738426628
21
5.71465885935174
31
0.000000000000000
  0
LINE
  5
F10A72
330
F10A73
100
AcDbEntity
8
Geo
100
AcDbLine
10
-96.2030738426628
20
5.71465885935174
30
0.000000000000000
11
-95.9030738426628
21
5.71465885935174
31
0.000000000000000
  0
LINE
  5
F10A74
330
F10A75
100
AcDbEntity
8
Geo
100
AcDbLine
10
-95.7755738426628
20
5.71465885935174
30
0.000000000000000
11
-95.6905738426628
21
5.71465885935174
31
0.000000000000000
  0
LINE
  5
F10A76
330
F10A77
100
AcDbEntity
8
Geo
100
AcDbLine
10
-95.4780738426628
20
5.71465885935174
30
0.000000000000000
11
-95.0530738426628
21
5.71465885935174
31
0.000000000000000
  0
LINE
  5
F10A78
330
F10A79
100
AcDbEntity
8
Geo
100
AcDbLine
10
-94.9255738426628
20
5.71465885935174
30
0.000000000000000
11
-94.8405738426628
21
5.71465885935174
31
0.000000000000000
  0
LINE
  5
F10A7A
330
F10A7B
100
AcDbEntity
8
Geo
100
AcDbLine
10
-94.6280738426628
20
5.71465885935174
30
0.000000000000000
11
-94.2030738426628
21
5.71465885935174
31
0.000000000000000
  0
LINE
  5
F10A7C
330
F10A7D
100
AcDbEntity
8
Geo
100
AcDbLine
10
6.79692615733723
20
15.5146588593517
30
0.000000000000000
11
6.79692615733723
21
5.71465885935174
31
0.000000000000000
  0
LINE
  5
F10A7E
330
F10A7F
100
AcDbEntity
8
Geo
100
AcDbLine
10
-94.8716313046406
20
5.71465885935174
30
0.000000000000000
11
-95.2027692561723
21
-3.76789139229701
31
0.000000000000000
  0
ARC
  5
F10A80
330
F10A81
100
AcDbEntity
8
Geo
100
AcDbCircle
10
-94.7030738426628
20
-3.78534114064826
30
0.000000000000000
 40
0.500000000000000
100
AcDbArc
 50
178.000000000000
 51
270.000000000000
  0
LINE
  5
F10A82
330
F10A83
100
AcDbEntity
8
Geo
100
AcDbLine
10
-94.7030738426628
20
-4.28534114064826
30
0.000000000000000
11
-72.2030738426628
21
-4.28534114064826
31
0.000000000000000
  0
LINE
  5
F10A84
330
F10A85
100
AcDbEntity
8
Geo
100
AcDbLine
10
-72.2030738426628
20
-4.28534114064826
30
0.000000000000000
11
6.59692615733722
21
-4.28534114064826
31
0.000000000000000
  0
LINE
  5
F10A86
330
F10A87
100
AcDbEntity
8
Geo
100
AcDbLine
10
6.59692615733722
20
-4.28534114064826
30
0.000000000000000
11
6.79692615733723
21
-4.08534114064826
31
0.000000000000000
  0
LINE
  5
F10A88
330
F10A89
100
AcDbEntity
8
Geo
100
AcDbLine
10
-94.7030738426628
20
15.7146588593517
30
0.000000000000000
11
-94.7030738426628
21
-4.28534114064826
31
0.000000000000000
  0
LINE
  5
F10A8A
330
F10A8B
100
AcDbEntity
8
Geo
100
AcDbLine
10
-94.7030738426628
20
15.7146588593517
30
0.000000000000000
11
-94.7030738426628
21
-4.28534114064826
31
0.000000000000000
  0
LINE
  5
F10A8C
330
F10A8D
100
AcDbEntity
8
Geo
100
AcDbLine
10
-72.2030738426628
20
15.7146588593517
30
0.000000000000000
11
-72.2030738426628
21
-4.28534114064826
31
0.000000000000000
  0
LINE
  5
F10A8E
330
F10A8F
100
AcDbEntity
8
Geo
100
AcDbLine
10
-72.2030738426628
20
15.7146588593517
30
0.000000000000000
11
-72.2030738426628
21
-4.28534114064826
31
0.000000000000000
  0
LINE
  5
F10A90
330
F10A91
100
AcDbEntity
8
Geo
100
AcDbLine
10
6.59692615733722
20
15.7146588593517
30
0.000000000000000
11
6.59692615733722
21
-4.28534114064826
31
0.000000000000000
  0
LINE
  5
F10A92
330
F10A93
100
AcDbEntity
8
Geo
100
AcDbLine
10
6.79692615733723
20
15.5146588593517
30
0.000000000000000
11
6.79692615733723
21
-4.08534114064826
31
0.000000000000000
  0
LWPOLYLINE
  5
F10A94
330
F10A95
100
AcDbEntity
8
Rahmen
100
AcDbPolyline
90
   4
70
   1
43
   0.0
 10
-125.422232099517
 20
102.889913381948
 10
134.491650280517
 20
102.889913381948
 10
134.491650280517
 20
-103.146603857805
 10
-125.422232099517
 20
-103.146603857805
  0
TEXT
  5
F10A96
330
F10A97
 100
AcDbEntity
8
Text
100
AcDbText
10
-124.386128923742
20
-102.646603857805
30
0.000000000000000
40
1.00000000000000
1
ISBESketcher
100
AcDbText
  0
LWPOLYLINE
  5
F10A98
330
F10A99
100
AcDbEntity
8
Rahmen
100
AcDbPolyline
90
   4
70
   1
43
   0.0
 10
94.3796559040994
 20
-100.038294330481
 10
134.491650280517
 20
-100.038294330481
 10
134.491650280517
 20
-103.146603857805
 10
94.3796559040994
 20
-103.146603857805
  0
TEXT
  5
F10A9A
330
F10A9B
 100
AcDbEntity
8
Text
100
AcDbText
10
95.5000000000000
20
-101.990073696982
30
0.000000000000000
40
0.750000000000000
1
Created by:
100
AcDbText
  0
TEXT
  5
F10A9C
330
F10A9D
 100
AcDbEntity
8
Text
100
AcDbText
10
120.649815757545
20
-101.990073696982
30
0.000000000000000
40
0.750000000000000
1
nsarkol
100
AcDbText
  0
LWPOLYLINE
  5
F10A9E
330
F10A9F
100
AcDbEntity
8
Rahmen
100
AcDbPolyline
90
   4
70
   1
43
   0.0
 10
54.4156762670783
 20
-100.038294330481
 10
94.3796559040994
 20
-100.038294330481
 10
94.3796559040994
 20
-103.146603857805
 10
54.4156762670783
 20
-103.146603857805
  0
TEXT
  5
F10AA0
330
F10AA1
 100
AcDbEntity
8
Text
100
AcDbText
10
55.5000000000000
20
-101.990073696982
30
0.000000000000000
40
0.750000000000000
1
Created for:
100
AcDbText
  0
TEXT
  5
F10AA2
330
F10AA3
 100
AcDbEntity
8
Text
100
AcDbText
10
0.000000000000000
20
0.250000000000000
30
0.000000000000000
40
0.750000000000000
1

100
AcDbText
  0
LWPOLYLINE
  5
F10AA4
330
F10AA5
100
AcDbEntity
8
Rahmen
100
AcDbPolyline
90
   4
70
   1
43
   0.0
 10
121.022308995447
 20
-97.0779995425536
 10
134.491650280517
 20
-97.0779995425536
 10
134.491650280517
 20
-100.038294330481
 10
121.022308995447
 20
-100.038294330481
  0
TEXT
  5
F10AA6
330
F10AA7
 100
AcDbEntity
8
Text
100
AcDbText
10
122.166666666667
20
-98.9900736969819
30
0.000000000000000
40
0.750000000000000
1
Pages
100
AcDbText
  0
TEXT
  5
F10AA8
330
F10AA9
 100
AcDbEntity
8
Text
100
AcDbText
10
0.000000000000000
20
0.250000000000000
30
0.000000000000000
40
0.750000000000000
1

100
AcDbText
  0
LWPOLYLINE
  5
F10AAA
330
F10AAB
100
AcDbEntity
8
Rahmen
100
AcDbPolyline
90
   4
70
   1
43
   0.0
 10
121.022308995447
 20
-94.1177047546261
 10
134.491650280517
 20
-94.1177047546261
 10
134.491650280517
 20
-97.0779995425536
 10
121.022308995447
 20
-97.0779995425536
  0
TEXT
  5
F10AAC
330
F10AAD
 100
AcDbEntity
8
Text
100
AcDbText
10
122.166666666667
20
-95.9900736969819
30
0.000000000000000
40
0.750000000000000
1
Page
100
AcDbText
  0
TEXT
  5
F10AAE
330
F10AAF
 100
AcDbEntity
8
Text
100
AcDbText
10
0.000000000000000
20
0.250000000000000
30
0.000000000000000
40
0.750000000000000
1

100
AcDbText
  0
LWPOLYLINE
  5
F10AB0
330
F10AB1
100
AcDbEntity
8
Rahmen
100
AcDbPolyline
90
   4
70
   1
43
   0.0
 10
54.4156762670783
 20
-94.1177047546261
 10
121.022308995447
 20
-94.1177047546261
 10
121.022308995447
 20
-100.038294330481
 10
54.4156762670783
 20
-100.038294330481
  0
TEXT
  5
F10AB2
330
F10AB3
 100
AcDbEntity
8
Text
100
AcDbText
10
55.5000000000000
20
-95.9900736969819
30
0.000000000000000
40
0.750000000000000
1
Date:
100
AcDbText
  0
TEXT
  5
F10AB4
330
F10AB5
 100
AcDbEntity
8
Text
100
AcDbText
10
85.0950606545004
20
-98.9900736969819
30
0.000000000000000
40
0.750000000000000
1
05.07.2016
100
AcDbText
  0
LWPOLYLINE
  5
F10AB6
330
F10AB7
100
AcDbEntity
8
Rahmen
100
AcDbPolyline
90
   4
70
   1
43
   0.0
 10
54.4156762670783
 20
-88.0491004393747
 10
134.491650280517
 20
-88.0491004393747
 10
134.491650280517
 20
-94.1177047546261
 10
54.4156762670783
 20
-94.1177047546261
  0
TEXT
  5
F10AB8
330
F10AB9
 100
AcDbEntity
8
Text
100
AcDbText
10
0.000000000000000
20
0.500000000000000
30
0.000000000000000
40
1.50000000000000
1

100
AcDbText
  0
TEXT
  5
F10ABA
330
F10ABB
 100
AcDbEntity
8
Text
100
AcDbText
10
64.3790005328378
20
-92.6089098667069
30
0.000000000000000
40
2.50000000000000
1
VHVTR 4 200 102 20 03 050 S 
100
AcDbText
  0
LWPOLYLINE
  5
F10ABC
330
F10ABD
100
AcDbEntity
8
Rahmen
100
AcDbPolyline
90
   4
70
   1
43
   0.0
 10
94.3796559040994
 20
-82.1285108635198
 10
134.491650280517
 20
-82.1285108635198
 10
134.491650280517
 20
-88.0491004393747
 10
94.3796559040994
 20
-88.0491004393747
  0
TEXT
  5
F10ABE
330
F10ABF
 100
AcDbEntity
8
Text
100
AcDbText
10
95.5000000000000
20
-83.9900736969819
30
0.000000000000000
40
0.750000000000000
1
Work piece material:
100
AcDbText
  0
TEXT
  5
F10AC0
330
F10AC1
 100
AcDbEntity
8
Text
100
AcDbText
10
0.000000000000000
20
0.250000000000000
30
0.000000000000000
40
0.750000000000000
1

100
AcDbText
  0
LWPOLYLINE
  5
F10AC2
330
F10AC3
100
AcDbEntity
8
Rahmen
100
AcDbPolyline
90
   4
70
   1
43
   0.0
 10
54.4156762670783
 20
-82.1285108635198
 10
94.3796559040994
 20
-82.1285108635198
 10
94.3796559040994
 20
-88.0491004393747
 10
54.4156762670783
 20
-88.0491004393747
  0
TEXT
  5
F10AC4
330
F10AC5
 100
AcDbEntity
8
Text
100
AcDbText
10
55.5000000000000
20
-83.9900736969819
30
0.000000000000000
40
0.750000000000000
1
Tool material:
100
AcDbText
  0
TEXT
  5
F10AC6
330
F10AC7
 100
AcDbEntity
8
Text
100
AcDbText
10
0.000000000000000
20
0.250000000000000
30
0.000000000000000
40
0.750000000000000
1

100
AcDbText
  0
LWPOLYLINE
  5
F10AC8
330
F10AC9
100
AcDbEntity
8
Rahmen
100
AcDbPolyline
90
   4
70
   1
43
   0.0
 10
94.3796559040994
 20
-79.0202013361959
 10
134.491650280517
 20
-79.0202013361959
 10
134.491650280517
 20
-82.1285108635198
 10
94.3796559040994
 20
-82.1285108635198
  0
TEXT
  5
F10ACA
330
F10ACB
 100
AcDbEntity
8
Text
100
AcDbText
10
0.000000000000000
20
0.500000000000000
30
0.000000000000000
40
1.50000000000000
1

100
AcDbText
  0
TEXT
  5
F10ACC
330
F10ACD
 100
AcDbEntity
8
Text
100
AcDbText
10
0.000000000000000
20
0.250000000000000
30
0.000000000000000
40
0.750000000000000
1

100
AcDbText
  0
LWPOLYLINE
  5
F10ACE
330
F10ACF
100
AcDbEntity
8
Rahmen
100
AcDbPolyline
90
   4
70
   1
43
   0.0
 10
54.4156762670783
 20
-79.0202013361959
 10
94.3796559040994
 20
-79.0202013361959
 10
94.3796559040994
 20
-82.1285108635198
 10
54.4156762670783
 20
-82.1285108635198
  0
TEXT
  5
F10AD0
330
F10AD1
 100
AcDbEntity
8
Text
100
AcDbText
10
55.5000000000000
20
-80.9900736969819
30
0.000000000000000
40
0.750000000000000
1
Scale:
100
AcDbText
  0
TEXT
  5
F10AD2
330
F10AD3
 100
AcDbEntity
8
Text
100
AcDbText
10
81.3898894545272
20
-80.9900736969819
30
0.000000000000000
40
0.750000000000000
1
2 : 1
100
AcDbText
0
VIEWPORT
5
294
102
{ACAD_XDICTIONARY
360
58A
102
}
330
25D
100
AcDbEntity
67
1
8
0
60
1
100
AcDbViewport
10
0.0
20
0.0
30
0.0
40
10.0
41
10.0
68
-1
69
1
12
0.0
22
0.0
13
0.0
23
0.0
14
1.0
24
1.0
15
0.0
25
0.0
16
0.0
26
0.0
36
1.0
17
0.0
27
0.0
37
0.0
42
0.0
43
0.0
44
0.0
45
10.0
50
0.0
51
0.0000000000007958
72
100
90
32800
1

281
0
71
0
74
0
110
0.0
120
0.0
130
0.0
111
1.0
121
0.0
131
0.0
112
0.0
122
1.0
132
0.0
79
0
146
0.0
1001
VD_INVISIBLE_NOT_FOR_READ
1000
VD_INVISIBLE_NOT_FOR_READ
0
VIEWPORT
5
295
102
{ACAD_XDICTIONARY
360
58C
102
}
330
25D
100
AcDbEntity
67
1
8
0
60
1
100
AcDbViewport
10
0.0
20
0.0
30
0.0
40
10.0
41
10.0
68
0
69
2
12
0.0
22
0.0
13
0.0
23
0.0
14
1.0
24
1.0
15
0.0
25
0.0
16
0.0
26
0.0
36
1.0
17
0.0
27
0.0
37
0.0
42
0.0
43
0.0
44
0.0
45
10.0
50
0.0
51
0.0000000000007958
72
100
90
163872
1

281
0
71
0
74
0
110
0.0
120
0.0
130
0.0
111
1.0
121
0.0
131
0.0
112
0.0
122
1.0
132
0.0
79
0
146
0.0
1001
VD_INVISIBLE_NOT_FOR_READ
1000
VD_INVISIBLE_NOT_FOR_READ
0
ENDSEC
0
SECTION
2
OBJECTS
0
DICTIONARY
5
13
330
0
100
AcDbDictionary
281
1
3
ACAD_COLOR
350
FA7
3
ACAD_GROUP
350
14
3
ACAD_LAYOUT
350
FCF
3
ACAD_MATERIAL
350
F7A
3
ACAD_MLEADERSTYLE
350
FCD
3
ACAD_MLINESTYLE
350
16
3
ACAD_PLOTSETTINGS
350
17
3
ACAD_PLOTSTYLENAME
350
18
3
ACAD_SCALELIST
350
FAB
3
ACAD_TABLESTYLE
350
FA8
3
ACAD_VISUALSTYLE
350
F93
3
ACDB_RECOMPOSE_DATA
350
107E
3
AcDbVariableDictionary
350
FF0
3
DWGPROPS
350
107F
0
DICTIONARY
5
F10014
330
F10013
100
AcDbDictionary
280
1
281
1
3
ACAD_MTEXT_2008_RT
360
F10015
0
DICTIONARY
5
F1001E
330
F1001D
100
AcDbDictionary
280
1
281
1
3
ACAD_MTEXT_2008_RT
360
F1001F
0
DICTIONARY
5
F10023
330
F10022
100
AcDbDictionary
280
1
281
1
3
ACAD_MTEXT_2008_RT
360
F10024
0
DICTIONARY
5
F10005
330
F10004
100
AcDbDictionary
280
1
281
1
3
ACAD_MTEXT_2008_RT
360
F10006
0
DICTIONARY
5
F1000F
330
F1000E
100
AcDbDictionary
280
1
281
1
3
ACAD_MTEXT_2008_RT
360
F10010
0
DICTIONARY
5
F1000A
330
F10009
100
AcDbDictionary
280
1
281
1
3
ACAD_MTEXT_2008_RT
360
F1000B
0
DICTIONARY
5
F10019
330
F10018
100
AcDbDictionary
280
1
281
1
3
ACAD_MTEXT_2008_RT
360
F1001A
0
DICTIONARY
5
FA7
102
{ACAD_REACTORS
330
13
102
}
330
13
100
AcDbDictionary
281
1
0
DICTIONARY
5
14
330
13
100
AcDbDictionary
281
1
0
DICTIONARY
5
FCF
102
{ACAD_REACTORS
330
13
102
}
330
13
100
AcDbDictionary
281
1
3
Layout1
350
FD1
3
Model
350
FD0
0
DICTIONARY
5
F7A
102
{ACAD_REACTORS
330
13
102
}
330
13
100
AcDbDictionary
281
1
3
ByBlock
350
F83
3
ByLayer
350
F7B
3
Global
350
F8B
0
DICTIONARY
5
FCD
102
{ACAD_REACTORS
330
13
102
}
330
13
100
AcDbDictionary
281
1
3
Standard
350
FCE
0
DICTIONARY
5
16
330
13
100
AcDbDictionary
281
1
3
Standard
350
FAA
0
DICTIONARY
5
17
102
{ACAD_REACTORS
330
13
102
}
330
13
100
AcDbDictionary
281
1
0
ACDBDICTIONARYWDFLT
5
18
102
{ACAD_REACTORS
330
13
102
}
330
13
100
AcDbDictionary
281
1
3
Normal
350
19
100
AcDbDictionaryWithDefault
340
19
0
DICTIONARY
5
FAB
102
{ACAD_REACTORS
330
13
102
}
330
13
100
AcDbDictionary
281
1
3
A0
350
FAC
3
A1
350
FAD
3
A2
350
FAE
3
A3
350
FAF
3
A4
350
FB0
3
A5
350
FB1
3
A6
350
FB2
3
A7
350
FB3
3
A8
350
FB4
3
A9
350
FB5
3
B0
350
FB6
3
B1
350
FB7
3
B2
350
FB8
3
B3
350
FB9
3
B4
350
FBA
3
B5
350
FBB
3
B6
350
FBC
3
B7
350
FBD
3
B8
350
FBE
3
B9
350
FBF
3
C0
350
FC0
3
C1
350
FC1
3
C2
350
FC2
3
C3
350
FC3
3
C4
350
FC4
3
C5
350
FC5
3
C6
350
FC6
3
C7
350
FC7
3
C8
350
FC8
3
C9
350
FC9
3
D0
350
FCA
3
D1
350
FCB
3
D2
350
FCC
0
DICTIONARY
5
FA8
102
{ACAD_REACTORS
330
13
102
}
330
13
100
AcDbDictionary
281
1
3
Standard
350
FA9
0
DICTIONARY
5
F93
102
{ACAD_REACTORS
330
13
102
}
330
13
100
AcDbDictionary
281
1
3
2dWireframe
350
F99
3
3D Hidden
350
F9B
3
3dWireframe
350
F9A
3
Basic
350
F98
3
Brighten
350
F9F
3
ColorChange
350
FA3
3
Conceptual
350
F9C
3
Dim
350
F9E
3
EdgeColorOff
350
FA6
3
Facepattern
350
FA2
3
Flat
350
F94
3
FlatWithEdges
350
F95
3
Gouraud
350
F96
3
GouraudWithEdges
350
F97
3
JitterOff
350
FA4
3
Linepattern
350
FA1
3
OverhangOff
350
FA5
3
Realistic
350
F9D
3
Thicken
350
FA0
0
XRECORD
5
107E
102
{ACAD_REACTORS
330
13
102
}
330
13
100
AcDbXrecord
280
1
90
1
330
FA9
330
F10013
330
F1001D
330
F10022
330
F10004
330
F1000E
330
F10009
330
F10018
0
XRECORD
5
F10015
102
{ACAD_REACTORS
330
F10014
102
}
330
F10014
100
AcDbXrecord
280
1
40
48458.0
1
79
0
XRECORD
5
F1001F
102
{ACAD_REACTORS
330
F1001E
102
}
330
F1001E
100
AcDbXrecord
280
1
40
48458.0
1
23
0
XRECORD
5
F10024
102
{ACAD_REACTORS
330
F10023
102
}
330
F10023
100
AcDbXrecord
280
1
40
48458.0
1
102
0
XRECORD
5
F10006
102
{ACAD_REACTORS
330
F10005
102
}
330
F10005
100
AcDbXrecord
280
1
40
48458.0
1
2°
0
XRECORD
5
F10010
102
{ACAD_REACTORS
330
F1000F
102
}
330
F1000F
100
AcDbXrecord
280
1
40
48458.0
1
R0.5
0
XRECORD
5
F1000B
102
{ACAD_REACTORS
330
F1000A
102
}
330
F1000A
100
AcDbXrecord
280
1
40
48458.0
1
20
0
LAYOUT
5
FD1
102
{ACAD_XDICTIONARY
360
10A9
102
}
102
{ACAD_REACTORS
330
FCF
102
}
330
FCF
100
AcDbPlotSettings
1

2
Microsoft XPS Document Writer
4

6

40
0.0
41
0.0
42
0.0
43
0.0
44
0.0
45
0.0
46
0.0
47
0.0
48
0.0
49
0.0
140
0.0
141
0.0
142
1.0
143
1.0
70
688
72
0
73
0
74
5
7

75
16
147
1.0
148
0.0
149
0.0
100
AcDbLayout
1
Layout1
70
1
71
1
10
0.0
20
0.0
11
12.0
21
9.0
12
0.0
22
0.0
32
0.0
14
1.000000000000000E+20
24
1.000000000000000E+20
34
1.000000000000000E+20
15
-1.000000000000000E+20
25
-1.000000000000000E+20
35
-1.000000000000000E+20
146
0.0
13
0.0
23
0.0
33
0.0
16
1.0
26
0.0
36
0.0
17
0.0
27
1.0
37
0.0
76
0
330
25D
0
LAYOUT
5
FD0
102
{ACAD_XDICTIONARY
360
10A7
102
}
102
{ACAD_REACTORS
330
FCF
102
}
330
FCF
100
AcDbPlotSettings
1

2
Microsoft XPS Document Writer
4

6

40
0.0
41
0.0
42
0.0
43
0.0
44
0.0
45
0.0
46
0.0
47
0.0
48
0.0
49
0.0
140
0.0
141
0.0
142
1.0
143
1.0
70
1712
72
0
73
0
74
0
7

75
0
147
1.0
148
0.0
149
0.0
100
AcDbLayout
1
Model
70
1
71
0
10
0.0
20
0.0
11
12.0
21
9.0
12
0.0
22
0.0
32
0.0
14
0.0
24
0.0
34
0.0
15
0.0
25
0.0
35
0.0
146
0.0
13
0.0
23
0.0
33
0.0
16
1.0
26
0.0
36
0.0
17
0.0
27
1.0
37
0.0
76
0
330
261
331
26B
0
MATERIAL
5
F83
102
{ACAD_XDICTIONARY
360
F84
102
}
102
{ACAD_REACTORS
330
F7A
102
}
330
F7A
100
AcDbMaterial
1
ByBlock
72
0
43
0.0208333333333333
43
0.0
43
0.0
43
0.0
43
0.0
43
0.0208333333333333
43
0.0
43
0.0
43
0.0
43
0.0
43
1.0
43
0.0
43
0.0
43
0.0
43
0.0
43
1.0
77
0
47
0.0208333333333333
47
0.0
47
0.0
47
0.0
47
0.0
47
0.0208333333333333
47
0.0
47
0.0
47
0.0
47
0.0
47
1.0
47
0.0
47
0.0
47
0.0
47
0.0
47
1.0
171
0
49
0.0208333333333333
49
0.0
49
0.0
49
0.0
49
0.0
49
0.0208333333333333
49
0.0
49
0.0
49
0.0
49
0.0
49
1.0
49
0.0
49
0.0
49
0.0
49
0.0
49
1.0
175
0
142
0.0208333333333333
142
0.0
142
0.0
142
0.0
142
0.0
142
0.0208333333333333
142
0.0
142
0.0
142
0.0
142
0.0
142
1.0
142
0.0
142
0.0
142
0.0
142
0.0
142
1.0
179
0
144
0.0208333333333333
144
0.0
144
0.0
144
0.0
144
0.0
144
0.0208333333333333
144
0.0
144
0.0
144
0.0
144
0.0
144
1.0
144
0.0
144
0.0
144
0.0
144
0.0
144
1.0
147
0.0208333333333333
147
0.0
147
0.0
147
0.0
147
0.0
147
0.0208333333333333
147
0.0
147
0.0
147
0.0
147
0.0
147
1.0
147
0.0
147
0.0
147
0.0
147
0.0
147
1.0
0
MATERIAL
5
F7B
102
{ACAD_XDICTIONARY
360
F7C
102
}
102
{ACAD_REACTORS
330
F7A
102
}
330
F7A
100
AcDbMaterial
1
ByLayer
72
0
43
0.0208333333333333
43
0.0
43
0.0
43
0.0
43
0.0
43
0.0208333333333333
43
0.0
43
0.0
43
0.0
43
0.0
43
1.0
43
0.0
43
0.0
43
0.0
43
0.0
43
1.0
77
0
47
0.0208333333333333
47
0.0
47
0.0
47
0.0
47
0.0
47
0.0208333333333333
47
0.0
47
0.0
47
0.0
47
0.0
47
1.0
47
0.0
47
0.0
47
0.0
47
0.0
47
1.0
171
0
49
0.0208333333333333
49
0.0
49
0.0
49
0.0
49
0.0
49
0.0208333333333333
49
0.0
49
0.0
49
0.0
49
0.0
49
1.0
49
0.0
49
0.0
49
0.0
49
0.0
49
1.0
175
0
142
0.0208333333333333
142
0.0
142
0.0
142
0.0
142
0.0
142
0.0208333333333333
142
0.0
142
0.0
142
0.0
142
0.0
142
1.0
142
0.0
142
0.0
142
0.0
142
0.0
142
1.0
179
0
144
0.0208333333333333
144
0.0
144
0.0
144
0.0
144
0.0
144
0.0208333333333333
144
0.0
144
0.0
144
0.0
144
0.0
144
1.0
144
0.0
144
0.0
144
0.0
144
0.0
144
1.0
147
0.0208333333333333
147
0.0
147
0.0
147
0.0
147
0.0
147
0.0208333333333333
147
0.0
147
0.0
147
0.0
147
0.0
147
1.0
147
0.0
147
0.0
147
0.0
147
0.0
147
1.0
0
MATERIAL
5
F8B
102
{ACAD_XDICTIONARY
360
F8C
102
}
102
{ACAD_REACTORS
330
F7A
102
}
330
F7A
100
AcDbMaterial
1
Global
72
0
43
0.0208333333333333
43
0.0
43
0.0
43
0.0
43
0.0
43
0.0208333333333333
43
0.0
43
0.0
43
0.0
43
0.0
43
1.0
43
0.0
43
0.0
43
0.0
43
0.0
43
1.0
77
0
47
0.0208333333333333
47
0.0
47
0.0
47
0.0
47
0.0
47
0.0208333333333333
47
0.0
47
0.0
47
0.0
47
0.0
47
1.0
47
0.0
47
0.0
47
0.0
47
0.0
47
1.0
171
0
49
0.0208333333333333
49
0.0
49
0.0
49
0.0
49
0.0
49
0.0208333333333333
49
0.0
49
0.0
49
0.0
49
0.0
49
1.0
49
0.0
49
0.0
49
0.0
49
0.0
49
1.0
175
0
142
0.0208333333333333
142
0.0
142
0.0
142
0.0
142
0.0
142
0.0208333333333333
142
0.0
142
0.0
142
0.0
142
0.0
142
1.0
142
0.0
142
0.0
142
0.0
142
0.0
142
1.0
179
0
144
0.0208333333333333
144
0.0
144
0.0
144
0.0
144
0.0
144
0.0208333333333333
144
0.0
144
0.0
144
0.0
144
0.0
144
1.0
144
0.0
144
0.0
144
0.0
144
0.0
144
1.0
147
0.0208333333333333
147
0.0
147
0.0
147
0.0
147
0.0
147
0.0208333333333333
147
0.0
147
0.0
147
0.0
147
0.0
147
1.0
147
0.0
147
0.0
147
0.0
147
0.0
147
1.0
0
MLEADERSTYLE
5
FCE
102
{ACAD_REACTORS
330
FCD
102
}
330
FCD
100
AcDbMLeaderStyle
170
2
171
1
172
0
90
2
40
0.0
41
0.0
173
1
91
-1056964608
340
256
92
-2
290
1
42
0.09
291
1
43
0.36
3
Standard
44
0.18
300

342
253
174
1
178
6
175
1
176
0
93
-1056964608
45
0.18
292
0
297
0
46
0.18
94
-1056964608
47
1.0
49
1.0
140
1.0
293
1
141
0.0
294
1
177
0
142
1.0
295
0
296
0
143
0.125
1001
ACAD_MLEADERVER
1070
2
0
MLINESTYLE
5
FAA
102
{ACAD_REACTORS
330
16
102
}
330
16
100
AcDbMlineStyle
2
STANDARD
70
0
3

62
256
51
90.0
52
90.0
71
2
49
0.5
62
256
6
BYLAYER
49
-0.5
62
256
6
BYLAYER
0
ACDBPLACEHOLDER
5
19
102
{ACAD_REACTORS
330
18
102
}
330
18
0
SCALE
5
FAC
102
{ACAD_REACTORS
330
FAB
102
}
330
FAB
100
AcDbScale
70
0
300
1:1
140
1.0
141
1.0
290
1
0
SCALE
5
FAD
102
{ACAD_REACTORS
330
FAB
102
}
330
FAB
100
AcDbScale
70
0
300
1:2
140
1.0
141
2.0
290
0
0
SCALE
5
FAE
102
{ACAD_REACTORS
330
FAB
102
}
330
FAB
100
AcDbScale
70
0
300
1:4
140
1.0
141
4.0
290
0
0
SCALE
5
FAF
102
{ACAD_REACTORS
330
FAB
102
}
330
FAB
100
AcDbScale
70
0
300
1:5
140
1.0
141
5.0
290
0
0
SCALE
5
FB0
102
{ACAD_REACTORS
330
FAB
102
}
330
FAB
100
AcDbScale
70
0
300
1:8
140
1.0
141
8.0
290
0
0
SCALE
5
FB1
102
{ACAD_REACTORS
330
FAB
102
}
330
FAB
100
AcDbScale
70
0
300
1:10
140
1.0
141
10.0
290
0
0
SCALE
5
FB2
102
{ACAD_REACTORS
330
FAB
102
}
330
FAB
100
AcDbScale
70
0
300
1:16
140
1.0
141
16.0
290
0
0
SCALE
5
FB3
102
{ACAD_REACTORS
330
FAB
102
}
330
FAB
100
AcDbScale
70
0
300
1:20
140
1.0
141
20.0
290
0
0
SCALE
5
FB4
102
{ACAD_REACTORS
330
FAB
102
}
330
FAB
100
AcDbScale
70
0
300
1:30
140
1.0
141
30.0
290
0
0
SCALE
5
FB5
102
{ACAD_REACTORS
330
FAB
102
}
330
FAB
100
AcDbScale
70
0
300
1:40
140
1.0
141
40.0
290
0
0
SCALE
5
FB6
102
{ACAD_REACTORS
330
FAB
102
}
330
FAB
100
AcDbScale
70
0
300
1:50
140
1.0
141
50.0
290
0
0
SCALE
5
FB7
102
{ACAD_REACTORS
330
FAB
102
}
330
FAB
100
AcDbScale
70
0
300
1:100
140
1.0
141
100.0
290
0
0
SCALE
5
FB8
102
{ACAD_REACTORS
330
FAB
102
}
330
FAB
100
AcDbScale
70
0
300
2:1
140
2.0
141
1.0
290
0
0
SCALE
5
FB9
102
{ACAD_REACTORS
330
FAB
102
}
330
FAB
100
AcDbScale
70
0
300
4:1
140
4.0
141
1.0
290
0
0
SCALE
5
FBA
102
{ACAD_REACTORS
330
FAB
102
}
330
FAB
100
AcDbScale
70
0
300
8:1
140
8.0
141
1.0
290
0
0
SCALE
5
FBB
102
{ACAD_REACTORS
330
FAB
102
}
330
FAB
100
AcDbScale
70
0
300
10:1
140
10.0
141
1.0
290
0
0
SCALE
5
FBC
102
{ACAD_REACTORS
330
FAB
102
}
330
FAB
100
AcDbScale
70
0
300
100:1
140
100.0
141
1.0
290
0
0
SCALE
5
FBD
102
{ACAD_REACTORS
330
FAB
102
}
330
FAB
100
AcDbScale
70
0
300
1/128" = 1'-0"
140
0.0078125
141
12.0
290
0
0
SCALE
5
FBE
102
{ACAD_REACTORS
330
FAB
102
}
330
FAB
100
AcDbScale
70
0
300
1/64" = 1'-0"
140
0.015625
141
12.0
290
0
0
SCALE
5
FBF
102
{ACAD_REACTORS
330
FAB
102
}
330
FAB
100
AcDbScale
70
0
300
1/32" = 1'-0"
140
0.03125
141
12.0
290
0
0
SCALE
5
FC0
102
{ACAD_REACTORS
330
FAB
102
}
330
FAB
100
AcDbScale
70
0
300
1/16" = 1'-0"
140
0.0625
141
12.0
290
0
0
SCALE
5
FC1
102
{ACAD_REACTORS
330
FAB
102
}
330
FAB
100
AcDbScale
70
0
300
3/32" = 1'-0"
140
0.09375
141
12.0
290
0
0
SCALE
5
FC2
102
{ACAD_REACTORS
330
FAB
102
}
330
FAB
100
AcDbScale
70
0
300
1/8" = 1'-0"
140
0.125
141
12.0
290
0
0
SCALE
5
FC3
102
{ACAD_REACTORS
330
FAB
102
}
330
FAB
100
AcDbScale
70
0
300
3/16" = 1'-0"
140
0.1875
141
12.0
290
0
0
SCALE
5
FC4
102
{ACAD_REACTORS
330
FAB
102
}
330
FAB
100
AcDbScale
70
0
300
1/4" = 1'-0"
140
0.25
141
12.0
290
0
0
SCALE
5
FC5
102
{ACAD_REACTORS
330
FAB
102
}
330
FAB
100
AcDbScale
70
0
300
3/8" = 1'-0"
140
0.375
141
12.0
290
0
0
SCALE
5
FC6
102
{ACAD_REACTORS
330
FAB
102
}
330
FAB
100
AcDbScale
70
0
300
1/2" = 1'-0"
140
0.5
141
12.0
290
0
0
SCALE
5
FC7
102
{ACAD_REACTORS
330
FAB
102
}
330
FAB
100
AcDbScale
70
0
300
3/4" = 1'-0"
140
0.75
141
12.0
290
0
0
SCALE
5
FC8
102
{ACAD_REACTORS
330
FAB
102
}
330
FAB
100
AcDbScale
70
0
300
1" = 1'-0"
140
1.0
141
12.0
290
0
0
SCALE
5
FC9
102
{ACAD_REACTORS
330
FAB
102
}
330
FAB
100
AcDbScale
70
0
300
1-1/2" = 1'-0"
140
1.5
141
12.0
290
0
0
SCALE
5
FCA
102
{ACAD_REACTORS
330
FAB
102
}
330
FAB
100
AcDbScale
70
0
300
3" = 1'-0"
140
3.0
141
12.0
290
0
0
SCALE
5
FCB
102
{ACAD_REACTORS
330
FAB
102
}
330
FAB
100
AcDbScale
70
0
300
6" = 1'-0"
140
6.0
141
12.0
290
0
0
SCALE
5
FCC
102
{ACAD_REACTORS
330
FAB
102
}
330
FAB
100
AcDbScale
70
0
300
1'-0" = 1'-0"
140
12.0
141
12.0
290
0
0
TABLESTYLE
5
FA9
102
{ACAD_XDICTIONARY
360
FF8
102
}
102
{ACAD_REACTORS
330
FA8
102
}
330
FA8
100
AcDbTableStyle
3
Standard
70
0
71
0
40
0.06
41
0.06
280
0
281
0
7
Standard
140
0.18
170
2
62
0
63
7
283
0
274
-2
284
1
64
0
275
-2
285
1
65
0
276
-2
286
1
66
0
277
-2
287
1
67
0
278
-2
288
1
68
0
279
-2
289
1
69
0
7
Standard
140
0.25
170
5
62
0
63
7
283
0
274
-2
284
1
64
0
275
-2
285
1
65
0
276
-2
286
1
66
0
277
-2
287
1
67
0
278
-2
288
1
68
0
279
-2
289
1
69
0
7
Standard
140
0.18
170
5
62
0
63
7
283
0
274
-2
284
1
64
0
275
-2
285
1
65
0
276
-2
286
1
66
0
277
-2
287
1
67
0
278
-2
288
1
68
0
279
-2
289
1
69
0
0
VISUALSTYLE
5
F99
102
{ACAD_XDICTIONARY
360
108A
102
}
102
{ACAD_REACTORS
330
F93
102
}
330
F93
100
AcDbVisualStyle
2

70
4
71
0
72
2
73
0
90
0
40
-0.6
41
-30.0
62
5
63
7
74
1
91
4
64
7
65
257
75
1
175
1
42
1.0
92
0
66
257
43
1.0
76
1
77
6
78
2
67
7
79
5
170
0
171
0
290
0
174
0
93
1
44
0.0
173
0
291
0
45
0.0
1001
ACAD
1000
AcDbSavedByObjectVersion
1070
0
0
VISUALSTYLE
5
F9B
102
{ACAD_XDICTIONARY
360
108E
102
}
102
{ACAD_REACTORS
330
F93
102
}
330
F93
100
AcDbVisualStyle
2

70
6
71
1
72
2
73
2
90
0
40
-0.6
41
-30.0
62
5
63
7
74
2
91
2
64
7
65
257
75
2
175
1
42
179.0
92
0
66
257
43
1.0
76
1
77
6
78
2
67
7
79
3
170
0
171
0
290
0
174
0
93
1
44
0.0
173
0
291
0
45
0.0
1001
ACAD
1000
AcDbSavedByObjectVersion
1070
0
0
VISUALSTYLE
5
F9A
102
{ACAD_XDICTIONARY
360
108C
102
}
102
{ACAD_REACTORS
330
F93
102
}
330
F93
100
AcDbVisualStyle
2

70
5
71
0
72
2
73
0
90
0
40
-0.6
41
-30.0
62
5
63
7
74
1
91
4
64
7
65
257
75
1
175
1
42
1.0
92
0
66
257
43
1.0
76
1
77
6
78
2
67
7
79
5
170
0
171
0
290
0
174
0
93
1
44
0.0
173
0
291
0
45
0.0
1001
ACAD
1000
AcDbSavedByObjectVersion
1070
0
0
VISUALSTYLE
5
F98
102
{ACAD_XDICTIONARY
360
1088
102
}
102
{ACAD_REACTORS
330
F93
102
}
330
F93
100
AcDbVisualStyle
2

70
7
71
1
72
0
73
1
90
0
40
-0.6
41
-30.0
62
5
63
7
74
0
91
4
64
7
65
257
75
1
175
1
42
1.0
92
8
66
7
43
1.0
76
1
77
6
78
2
67
7
79
5
170
0
171
0
290
0
174
0
93
1
44
0.0
173
0
291
1
45
0.0
1001
ACAD
1000
AcDbSavedByObjectVersion
1070
0
0
VISUALSTYLE
5
F9F
102
{ACAD_XDICTIONARY
360
1096
102
}
102
{ACAD_REACTORS
330
F93
102
}
330
F93
100
AcDbVisualStyle
2

70
12
71
2
72
2
73
0
90
0
40
-0.6
41
-30.0
62
5
63
7
74
1
91
4
64
7
65
257
75
1
175
1
42
1.0
92
8
66
7
43
1.0
76
1
77
6
78
2
67
7
79
5
170
0
171
0
290
0
174
0
93
1
44
50.0
173
0
291
1
45
0.0
1001
ACAD
1000
AcDbSavedByObjectVersion
1070
0
0
VISUALSTYLE
5
FA3
102
{ACAD_XDICTIONARY
360
109E
102
}
102
{ACAD_REACTORS
330
F93
102
}
330
F93
100
AcDbVisualStyle
2

70
16
71
2
72
2
73
3
90
0
40
-0.6
41
-30.0
62
5
63
8
74
1
91
4
64
7
65
257
75
1
175
1
42
1.0
92
8
66
8
43
1.0
76
1
77
6
78
2
67
7
79
5
170
0
171
0
290
0
174
0
93
1
44
0.0
173
0
291
1
45
0.0
1001
ACAD
1000
AcDbSavedByObjectVersion
1070
0
0
VISUALSTYLE
5
F9C
102
{ACAD_XDICTIONARY
360
1090
102
}
102
{ACAD_REACTORS
330
F93
102
}
330
F93
100
AcDbVisualStyle
2

70
9
71
3
72
2
73
0
90
0
40
-0.6
41
-30.0
62
5
63
7
74
2
91
2
64
7
65
257
75
1
175
1
42
179.0
92
8
66
7
43
1.0
76
1
77
6
78
2
67
7
79
3
170
0
171
0
290
0
174
0
93
1
44
0.0
173
0
291
0
45
0.0
1001
ACAD
1000
AcDbSavedByObjectVersion
1070
0
0
VISUALSTYLE
5
F9E
102
{ACAD_XDICTIONARY
360
1094
102
}
102
{ACAD_REACTORS
330
F93
102
}
330
F93
100
AcDbVisualStyle
2

70
11
71
2
72
2
73
0
90
0
40
-0.6
41
-30.0
62
5
63
7
74
1
91
4
64
7
65
257
75
1
175
1
42
1.0
92
8
66
7
43
1.0
76
1
77
6
78
2
67
7
79
5
170
0
171
0
290
0
174
0
93
1
44
-50.0
173
0
291
1
45
0.0
1001
ACAD
1000
AcDbSavedByObjectVersion
1070
0
0
VISUALSTYLE
5
FA6
102
{ACAD_XDICTIONARY
360
10A4
102
}
102
{ACAD_REACTORS
330
F93
102
}
330
F93
100
AcDbVisualStyle
2

70
22
71
2
72
2
73
0
90
0
40
-0.6
41
-30.0
62
5
63
7
74
1
91
4
64
7
65
257
75
1
175
1
42
1.0
92
8
66
7
43
1.0
76
1
77
6
78
2
67
7
79
5
170
0
171
0
290
0
174
0
93
1
44
0.0
173
0
291
1
45
0.0
1001
ACAD
1000
AcDbSavedByObjectVersion
1070
0
0
VISUALSTYLE
5
FA2
102
{ACAD_XDICTIONARY
360
109C
102
}
102
{ACAD_REACTORS
330
F93
102
}
330
F93
100
AcDbVisualStyle
2

70
15
71
2
72
2
73
0
90
0
40
-0.6
41
-30.0
62
5
63
7
74
1
91
4
64
7
65
257
75
1
175
1
42
1.0
92
8
66
7
43
1.0
76
1
77
6
78
2
67
7
79
5
170
0
171
0
290
0
174
0
93
1
44
0.0
173
0
291
1
45
0.0
1001
ACAD
1000
AcDbSavedByObjectVersion
1070
0
0
VISUALSTYLE
5
F94
102
{ACAD_XDICTIONARY
360
1080
102
}
102
{ACAD_REACTORS
330
F93
102
}
330
F93
100
AcDbVisualStyle
2

70
0
71
2
72
1
73
1
90
2
40
-0.6
41
30.0
62
5
63
7
74
0
91
4
64
7
65
257
75
1
175
1
42
1.0
92
8
66
7
43
1.0
76
1
77
6
78
2
67
7
79
5
170
0
171
0
290
0
174
0
93
13
44
0.0
173
0
291
1
45
0.0
1001
ACAD
1000
AcDbSavedByObjectVersion
1070
0
0
VISUALSTYLE
5
F95
102
{ACAD_XDICTIONARY
360
1082
102
}
102
{ACAD_REACTORS
330
F93
102
}
330
F93
100
AcDbVisualStyle
2

70
1
71
2
72
1
73
1
90
2
40
-0.6
41
30.0
62
5
63
7
74
1
91
4
64
7
65
257
75
1
175
1
42
1.0
92
0
66
257
43
1.0
76
1
77
6
78
2
67
7
79
5
170
0
171
0
290
0
174
0
93
13
44
0.0
173
0
291
1
45
0.0
1001
ACAD
1000
AcDbSavedByObjectVersion
1070
0
0
VISUALSTYLE
5
F96
102
{ACAD_XDICTIONARY
360
1084
102
}
102
{ACAD_REACTORS
330
F93
102
}
330
F93
100
AcDbVisualStyle
2

70
2
71
2
72
2
73
1
90
2
40
-0.6
41
30.0
62
5
63
7
74
0
91
4
64
7
65
257
75
1
175
1
42
1.0
92
0
66
7
43
1.0
76
1
77
6
78
2
67
7
79
5
170
0
171
0
290
0
174
0
93
13
44
0.0
173
0
291
1
45
0.0
1001
ACAD
1000
AcDbSavedByObjectVersion
1070
0
0
VISUALSTYLE
5
F97
102
{ACAD_XDICTIONARY
360
1086
102
}
102
{ACAD_REACTORS
330
F93
102
}
330
F93
100
AcDbVisualStyle
2

70
3
71
2
72
2
73
1
90
2
40
-0.6
41
30.0
62
5
63
7
74
1
91
4
64
7
65
257
75
1
175
1
42
1.0
92
0
66
257
43
1.0
76
1
77
6
78
2
67
7
79
5
170
0
171
0
290
0
174
0
93
13
44
0.0
173
0
291
1
45
0.0
1001
ACAD
1000
AcDbSavedByObjectVersion
1070
0
0
VISUALSTYLE
5
FA4
102
{ACAD_XDICTIONARY
360
10A0
102
}
102
{ACAD_REACTORS
330
F93
102
}
330
F93
100
AcDbVisualStyle
2

70
20
71
2
72
2
73
0
90
0
40
-0.6
41
-30.0
62
5
63
7
74
1
91
4
64
7
65
257
75
1
175
1
42
1.0
92
10
66
7
43
1.0
76
1
77
6
78
2
67
7
79
5
170
0
171
0
290
0
174
0
93
1
44
0.0
173
0
291
1
45
0.0
1001
ACAD
1000
AcDbSavedByObjectVersion
1070
0
0
VISUALSTYLE
5
FA1
102
{ACAD_XDICTIONARY
360
109A
102
}
102
{ACAD_REACTORS
330
F93
102
}
330
F93
100
AcDbVisualStyle
2

70
14
71
2
72
2
73
0
90
0
40
-0.6
41
-30.0
62
5
63
7
74
1
91
4
64
7
65
257
75
7
175
7
42
1.0
92
8
66
7
43
1.0
76
1
77
6
78
2
67
7
79
5
170
0
171
0
290
0
174
0
93
1
44
0.0
173
0
291
1
45
0.0
1001
ACAD
1000
AcDbSavedByObjectVersion
1070
0
0
VISUALSTYLE
5
FA5
102
{ACAD_XDICTIONARY
360
10A2
102
}
102
{ACAD_REACTORS
330
F93
102
}
330
F93
100
AcDbVisualStyle
2

70
21
71
2
72
2
73
0
90
0
40
-0.6
41
-30.0
62
5
63
7
74
1
91
4
64
7
65
257
75
1
175
1
42
1.0
92
9
66
7
43
1.0
76
1
77
6
78
2
67
7
79
5
170
0
171
0
290
0
174
0
93
1
44
0.0
173
0
291
1
45
0.0
1001
ACAD
1000
AcDbSavedByObjectVersion
1070
0
0
VISUALSTYLE
5
F9D
102
{ACAD_XDICTIONARY
360
1092
102
}
102
{ACAD_REACTORS
330
F93
102
}
330
F93
100
AcDbVisualStyle
2

70
8
71
2
72
2
73
0
90
0
40
-0.6
41
-30.0
62
5
63
7
74
1
91
0
64
7
65
257
75
1
175
1
42
1.0
92
8
66
8
43
1.0
76
1
77
6
78
2
67
7
79
5
170
0
171
0
290
0
174
0
93
13
44
0.0
173
0
291
0
45
0.0
1001
ACAD
1000
AcDbSavedByObjectVersion
1070
0
0
VISUALSTYLE
5
FA0
102
{ACAD_XDICTIONARY
360
1098
102
}
102
{ACAD_REACTORS
330
F93
102
}
330
F93
100
AcDbVisualStyle
2

70
13
71
2
72
2
73
0
90
0
40
-0.6
41
-30.0
62
5
63
7
74
1
91
4
64
7
65
257
75
1
175
1
42
1.0
92
12
66
7
43
1.0
76
1
77
6
78
2
67
7
79
5
170
0
171
0
290
0
174
0
93
1
44
0.0
173
0
291
1
45
0.0
1001
ACAD
1000
AcDbSavedByObjectVersion
1070
0
0
DICTIONARYVAR
5
FF3
102
{ACAD_REACTORS
330
FF0
102
}
330
FF0
100
DictionaryVariables
280
0
1
1:1
0
DICTIONARYVAR
5
FF2
102
{ACAD_REACTORS
330
FF0
102
}
330
FF0
100
DictionaryVariables
280
0
1
STANDARD
0
DICTIONARYVAR
5
FF1
102
{ACAD_REACTORS
330
FF0
102
}
330
FF0
100
DictionaryVariables
280
0
1
STANDARD
0
DICTIONARYVAR
5
FF6
102
{ACAD_REACTORS
330
FF0
102
}
330
FF0
100
DictionaryVariables
280
0
1
1
0
DICTIONARYVAR
5
FF5
102
{ACAD_REACTORS
330
FF0
102
}
330
FF0
100
DictionaryVariables
280
0
1
0
0
DICTIONARYVAR
5
FF4
102
{ACAD_REACTORS
330
FF0
102
}
330
FF0
100
DictionaryVariables
280
0
1
127
0
DICTIONARYVAR
5
1078
102
{ACAD_REACTORS
330
FF0
102
}
330
FF0
100
DictionaryVariables
280
0
1
2
0
DICTIONARY
5
10A9
330
FD1
100
AcDbDictionary
280
1
281
1
3
ACAD_XREC_ROUNDTRIP
360
10AA
0
DICTIONARY
5
10A7
330
FD0
100
AcDbDictionary
280
1
281
1
3
ACAD_XREC_ROUNDTRIP
360
10A8
0
DICTIONARY
5
F84
330
F83
100
AcDbDictionary
280
1
281
1
3
ACAD_XREC_ROUNDTRIP
360
FFF
3
BUMPTILE
360
F86
3
DIFFUSETILE
360
F85
3
OPACITYTILE
360
F89
3
REFLECTIONTILE
360
F88
3
REFRACTIONTILE
360
F8A
3
SPECULARTILE
360
F87
0
DICTIONARY
5
F7C
330
F7B
100
AcDbDictionary
280
1
281
1
3
ACAD_XREC_ROUNDTRIP
360
FFE
3
BUMPTILE
360
F7E
3
DIFFUSETILE
360
F7D
3
OPACITYTILE
360
F81
3
REFLECTIONTILE
360
F80
3
REFRACTIONTILE
360
F82
3
SPECULARTILE
360
F7F
0
DICTIONARY
5
F8C
330
F8B
100
AcDbDictionary
280
1
281
1
3
ACAD_XREC_ROUNDTRIP
360
1000
3
BUMPTILE
360
F8E
3
DIFFUSETILE
360
F8D
3
OPACITYTILE
360
F91
3
REFLECTIONTILE
360
F90
3
REFRACTIONTILE
360
F92
3
SPECULARTILE
360
F8F
0
DICTIONARY
5
FF8
330
FA9
100
AcDbDictionary
280
1
281
1
3
ACAD_ROUNDTRIP_2008_TABLESTYLE_CELLSTYLEMAP
360
1079
3
ACAD_XREC_ROUNDTRIP
360
10A6
0
DICTIONARY
5
108A
330
F99
100
AcDbDictionary
280
1
281
1
3
ACAD_XREC_ROUNDTRIP
360
108B
0
DICTIONARY
5
108E
330
F9B
100
AcDbDictionary
280
1
281
1
3
ACAD_XREC_ROUNDTRIP
360
108F
0
DICTIONARY
5
108C
330
F9A
100
AcDbDictionary
280
1
281
1
3
ACAD_XREC_ROUNDTRIP
360
108D
0
DICTIONARY
5
1088
330
F98
100
AcDbDictionary
280
1
281
1
3
ACAD_XREC_ROUNDTRIP
360
1089
0
DICTIONARY
5
1096
330
F9F
100
AcDbDictionary
280
1
281
1
3
ACAD_XREC_ROUNDTRIP
360
1097
0
DICTIONARY
5
109E
330
FA3
100
AcDbDictionary
280
1
281
1
3
ACAD_XREC_ROUNDTRIP
360
109F
0
DICTIONARY
5
1090
330
F9C
100
AcDbDictionary
280
1
281
1
3
ACAD_XREC_ROUNDTRIP
360
1091
0
DICTIONARY
5
1094
330
F9E
100
AcDbDictionary
280
1
281
1
3
ACAD_XREC_ROUNDTRIP
360
1095
0
DICTIONARY
5
10A4
330
FA6
100
AcDbDictionary
280
1
281
1
3
ACAD_XREC_ROUNDTRIP
360
10A5
0
DICTIONARY
5
109C
330
FA2
100
AcDbDictionary
280
1
281
1
3
ACAD_XREC_ROUNDTRIP
360
109D
0
DICTIONARY
5
1080
330
F94
100
AcDbDictionary
280
1
281
1
3
ACAD_XREC_ROUNDTRIP
360
1081
0
DICTIONARY
5
1082
330
F95
100
AcDbDictionary
280
1
281
1
3
ACAD_XREC_ROUNDTRIP
360
1083
0
DICTIONARY
5
1084
330
F96
100
AcDbDictionary
280
1
281
1
3
ACAD_XREC_ROUNDTRIP
360
1085
0
DICTIONARY
5
1086
330
F97
100
AcDbDictionary
280
1
281
1
3
ACAD_XREC_ROUNDTRIP
360
1087
0
DICTIONARY
5
10A0
330
FA4
100
AcDbDictionary
280
1
281
1
3
ACAD_XREC_ROUNDTRIP
360
10A1
0
DICTIONARY
5
109A
330
FA1
100
AcDbDictionary
280
1
281
1
3
ACAD_XREC_ROUNDTRIP
360
109B
0
DICTIONARY
5
10A2
330
FA5
100
AcDbDictionary
280
1
281
1
3
ACAD_XREC_ROUNDTRIP
360
10A3
0
DICTIONARY
5
1092
330
F9D
100
AcDbDictionary
280
1
281
1
3
ACAD_XREC_ROUNDTRIP
360
1093
0
DICTIONARY
5
1098
330
FA0
100
AcDbDictionary
280
1
281
1
3
ACAD_XREC_ROUNDTRIP
360
1099
0
XRECORD
5
10AA
102
{ACAD_REACTORS
330
10A9
102
}
330
10A9
100
AcDbXrecord
280
1
102
SHADEPLOT
70
0
102
SHADEPLOTRESLEVEL
70
2
102
SHADEPLOTCUSTOMDPI
70
300
0
XRECORD
5
10A8
102
{ACAD_REACTORS
330
10A7
102
}
330
10A7
100
AcDbXrecord
280
1
102
SHADEPLOT
70
0
102
SHADEPLOTRESLEVEL
70
2
102
SHADEPLOTCUSTOMDPI
70
300
0
XRECORD
5
FFF
102
{ACAD_REACTORS
330
F84
102
}
330
F84
100
AcDbXrecord
280
1
102
MATERIAL
148
0.0
149
0.0
149
0.0
93
0
94
127
282
0
72
0
77
0
171
0
175
0
179
0
273
0
0
XRECORD
5
F86
102
{ACAD_REACTORS
330
F84
102
}
330
F84
100
AcDbXrecord
280
1
270
1
271
1
0
XRECORD
5
F85
102
{ACAD_REACTORS
330
F84
102
}
330
F84
100
AcDbXrecord
280
1
270
1
271
1
0
XRECORD
5
F89
102
{ACAD_REACTORS
330
F84
102
}
330
F84
100
AcDbXrecord
280
1
270
1
271
1
0
XRECORD
5
F88
102
{ACAD_REACTORS
330
F84
102
}
330
F84
100
AcDbXrecord
280
1
270
1
271
1
0
XRECORD
5
F8A
102
{ACAD_REACTORS
330
F84
102
}
330
F84
100
AcDbXrecord
280
1
270
1
271
1
0
XRECORD
5
F87
102
{ACAD_REACTORS
330
F84
102
}
330
F84
100
AcDbXrecord
280
1
270
1
271
1
0
XRECORD
5
FFE
102
{ACAD_REACTORS
330
F7C
102
}
330
F7C
100
AcDbXrecord
280
1
102
MATERIAL
148
0.0
149
0.0
149
0.0
93
0
94
127
282
0
72
0
77
0
171
0
175
0
179
0
273
0
0
XRECORD
5
F7E
102
{ACAD_REACTORS
330
F7C
102
}
330
F7C
100
AcDbXrecord
280
1
270
1
271
1
0
XRECORD
5
F7D
102
{ACAD_REACTORS
330
F7C
102
}
330
F7C
100
AcDbXrecord
280
1
270
1
271
1
0
XRECORD
5
F81
102
{ACAD_REACTORS
330
F7C
102
}
330
F7C
100
AcDbXrecord
280
1
270
1
271
1
0
XRECORD
5
F80
102
{ACAD_REACTORS
330
F7C
102
}
330
F7C
100
AcDbXrecord
280
1
270
1
271
1
0
XRECORD
5
F82
102
{ACAD_REACTORS
330
F7C
102
}
330
F7C
100
AcDbXrecord
280
1
270
1
271
1
0
XRECORD
5
F7F
102
{ACAD_REACTORS
330
F7C
102
}
330
F7C
100
AcDbXrecord
280
1
270
1
271
1
0
XRECORD
5
1000
102
{ACAD_REACTORS
330
F8C
102
}
330
F8C
100
AcDbXrecord
280
1
102
MATERIAL
148
0.0
149
0.0
149
0.0
93
0
94
127
282
0
72
0
77
0
171
0
175
0
179
0
273
0
0
XRECORD
5
F8E
102
{ACAD_REACTORS
330
F8C
102
}
330
F8C
100
AcDbXrecord
280
1
270
1
271
1
0
XRECORD
5
F8D
102
{ACAD_REACTORS
330
F8C
102
}
330
F8C
100
AcDbXrecord
280
1
270
1
271
1
0
XRECORD
5
F91
102
{ACAD_REACTORS
330
F8C
102
}
330
F8C
100
AcDbXrecord
280
1
270
1
271
1
0
XRECORD
5
F90
102
{ACAD_REACTORS
330
F8C
102
}
330
F8C
100
AcDbXrecord
280
1
270
1
271
1
0
XRECORD
5
F92
102
{ACAD_REACTORS
330
F8C
102
}
330
F8C
100
AcDbXrecord
280
1
270
1
271
1
0
XRECORD
5
F8F
102
{ACAD_REACTORS
330
F8C
102
}
330
F8C
100
AcDbXrecord
280
1
270
1
271
1
0
CELLSTYLEMAP
5
1079
102
{ACAD_REACTORS
330
FF8
102
}
330
FF8
100
AcDbCellStyleMap
90
3
300
CELLSTYLE
1
TABLEFORMAT_BEGIN
90
5
170
1
91
0
92
32768
62
257
93
1
300
CONTENTFORMAT
1
CONTENTFORMAT_BEGIN
90
0
91
0
92
512
93
0
300

40
0.0
140
1.0
94
5
62
0
340
253
144
0.25
309
CONTENTFORMAT_END
171
1
301
MARGIN
1
CELLMARGIN_BEGIN
40
0.06
40
0.06
40
0.06
40
0.06
40
0.18
40
0.18
309
CELLMARGIN_END
94
6
95
1
302
GRIDFORMAT
1
GRIDFORMAT_BEGIN
90
0
91
1
62
0
92
-2
340
0
93
0
40
0.045
309
GRIDFORMAT_END
95
2
302
GRIDFORMAT
1
GRIDFORMAT_BEGIN
90
0
91
1
62
0
92
-2
340
0
93
0
40
0.045
309
GRIDFORMAT_END
95
4
302
GRIDFORMAT
1
GRIDFORMAT_BEGIN
90
0
91
1
62
0
92
-2
340
0
93
0
40
0.045
309
GRIDFORMAT_END
95
8
302
GRIDFORMAT
1
GRIDFORMAT_BEGIN
90
0
91
1
62
0
92
-2
340
0
93
0
40
0.045
309
GRIDFORMAT_END
95
16
302
GRIDFORMAT
1
GRIDFORMAT_BEGIN
90
0
91
1
62
0
92
-2
340
0
93
0
40
0.045
309
GRIDFORMAT_END
95
32
302
GRIDFORMAT
1
GRIDFORMAT_BEGIN
90
0
91
1
62
0
92
-2
340
0
93
0
40
0.045
309
GRIDFORMAT_END
309
TABLEFORMAT_END
1
CELLSTYLE_BEGIN
90
1
91
1
300
_TITLE
309
CELLSTYLE_END
300
CELLSTYLE
1
TABLEFORMAT_BEGIN
90
5
170
1
91
0
92
0
62
257
93
1
300
CONTENTFORMAT
1
CONTENTFORMAT_BEGIN
90
0
91
0
92
512
93
0
300

40
0.0
140
1.0
94
5
62
0
340
253
144
0.18
309
CONTENTFORMAT_END
171
1
301
MARGIN
1
CELLMARGIN_BEGIN
40
0.06
40
0.06
40
0.06
40
0.06
40
0.18
40
0.18
309
CELLMARGIN_END
94
6
95
1
302
GRIDFORMAT
1
GRIDFORMAT_BEGIN
90
0
91
1
62
0
92
-2
340
0
93
0
40
0.045
309
GRIDFORMAT_END
95
2
302
GRIDFORMAT
1
GRIDFORMAT_BEGIN
90
0
91
1
62
0
92
-2
340
0
93
0
40
0.045
309
GRIDFORMAT_END
95
4
302
GRIDFORMAT
1
GRIDFORMAT_BEGIN
90
0
91
1
62
0
92
-2
340
0
93
0
40
0.045
309
GRIDFORMAT_END
95
8
302
GRIDFORMAT
1
GRIDFORMAT_BEGIN
90
0
91
1
62
0
92
-2
340
0
93
0
40
0.045
309
GRIDFORMAT_END
95
16
302
GRIDFORMAT
1
GRIDFORMAT_BEGIN
90
0
91
1
62
0
92
-2
340
0
93
0
40
0.045
309
GRIDFORMAT_END
95
32
302
GRIDFORMAT
1
GRIDFORMAT_BEGIN
90
0
91
1
62
0
92
-2
340
0
93
0
40
0.045
309
GRIDFORMAT_END
309
TABLEFORMAT_END
1
CELLSTYLE_BEGIN
90
2
91
1
300
_HEADER
309
CELLSTYLE_END
300
CELLSTYLE
1
TABLEFORMAT_BEGIN
90
5
170
1
91
0
92
0
62
257
93
1
300
CONTENTFORMAT
1
CONTENTFORMAT_BEGIN
90
0
91
0
92
512
93
0
300

40
0.0
140
1.0
94
2
62
0
340
253
144
0.18
309
CONTENTFORMAT_END
171
1
301
MARGIN
1
CELLMARGIN_BEGIN
40
0.06
40
0.06
40
0.06
40
0.06
40
0.18
40
0.18
309
CELLMARGIN_END
94
6
95
1
302
GRIDFORMAT
1
GRIDFORMAT_BEGIN
90
0
91
1
62
0
92
-2
340
0
93
0
40
0.045
309
GRIDFORMAT_END
95
2
302
GRIDFORMAT
1
GRIDFORMAT_BEGIN
90
0
91
1
62
0
92
-2
340
0
93
0
40
0.045
309
GRIDFORMAT_END
95
4
302
GRIDFORMAT
1
GRIDFORMAT_BEGIN
90
0
91
1
62
0
92
-2
340
0
93
0
40
0.045
309
GRIDFORMAT_END
95
8
302
GRIDFORMAT
1
GRIDFORMAT_BEGIN
90
0
91
1
62
0
92
-2
340
0
93
0
40
0.045
309
GRIDFORMAT_END
95
16
302
GRIDFORMAT
1
GRIDFORMAT_BEGIN
90
0
91
1
62
0
92
-2
340
0
93
0
40
0.045
309
GRIDFORMAT_END
95
32
302
GRIDFORMAT
1
GRIDFORMAT_BEGIN
90
0
91
1
62
0
92
-2
340
0
93
0
40
0.045
309
GRIDFORMAT_END
309
TABLEFORMAT_END
1
CELLSTYLE_BEGIN
90
3
91
2
300
_DATA
309
CELLSTYLE_END
0
XRECORD
5
10A6
102
{ACAD_REACTORS
330
FF8
102
}
330
FF8
100
AcDbXrecord
280
1
102
ACAD_ROUNDTRIP_PRE2007_TABLESTYLE
90
512
91
0
1

92
512
93
0
2

94
512
95
0
3

0
XRECORD
5
108B
102
{ACAD_REACTORS
330
108A
102
}
330
108A
100
AcDbXrecord
280
1
102
RTVSPropertyOp0
70
1
102
RTVSPropertyOp1
70
1
102
RTVSPropertyOp2
70
1
102
RTVSPropertyOp3
70
1
102
RTVSPropertyOp4
70
1
102
RTVSPropertyOp5
70
1
102
RTVSPropertyOp6
70
1
102
RTVSPropertyOp7
70
1
102
RTVSPropertyOp8
70
1
102
RTVSPropertyOp9
70
1
102
RTVSPropertyOp10
70
1
102
RTVSPropertyOp11
70
1
102
RTVSPropertyOp12
70
1
102
RTVSPropertyOp13
70
1
102
RTVSPropertyOp14
70
1
102
RTVSPropertyOp15
70
1
102
RTVSPropertyOp16
70
1
102
RTVSPropertyOp17
70
1
102
RTVSPropertyOp18
70
1
102
RTVSPropertyOp19
70
1
102
RTVSPropertyOp20
70
1
102
RTVSPropertyOp21
70
1
102
RTVSPropertyOp22
70
1
102
RTVSPropertyOp23
70
1
102
RTVSPropertyOp24
70
1
102
RTVSPropertyOp25
70
1
102
RTVSPropertyOp26
70
1
102
RTVSPropertyOp27
70
1
0
XRECORD
5
108F
102
{ACAD_REACTORS
330
108E
102
}
330
108E
100
AcDbXrecord
280
1
102
RTVSPropertyOp0
70
1
102
RTVSPropertyOp1
70
1
102
RTVSPropertyOp2
70
1
102
RTVSPropertyOp3
70
1
102
RTVSPropertyOp4
70
1
102
RTVSPropertyOp5
70
1
102
RTVSPropertyOp6
70
1
102
RTVSPropertyOp7
70
1
102
RTVSPropertyOp8
70
1
102
RTVSPropertyOp9
70
1
102
RTVSPropertyOp10
70
1
102
RTVSPropertyOp11
70
1
102
RTVSPropertyOp12
70
1
102
RTVSPropertyOp13
70
1
102
RTVSPropertyOp14
70
1
102
RTVSPropertyOp15
70
1
102
RTVSPropertyOp16
70
1
102
RTVSPropertyOp17
70
1
102
RTVSPropertyOp18
70
1
102
RTVSPropertyOp19
70
1
102
RTVSPropertyOp20
70
1
102
RTVSPropertyOp21
70
1
102
RTVSPropertyOp22
70
1
102
RTVSPropertyOp23
70
1
102
RTVSPropertyOp24
70
1
102
RTVSPropertyOp25
70
1
102
RTVSPropertyOp26
70
1
102
RTVSPropertyOp27
70
1
0
XRECORD
5
108D
102
{ACAD_REACTORS
330
108C
102
}
330
108C
100
AcDbXrecord
280
1
102
RTVSPropertyOp0
70
1
102
RTVSPropertyOp1
70
1
102
RTVSPropertyOp2
70
1
102
RTVSPropertyOp3
70
1
102
RTVSPropertyOp4
70
1
102
RTVSPropertyOp5
70
1
102
RTVSPropertyOp6
70
1
102
RTVSPropertyOp7
70
1
102
RTVSPropertyOp8
70
1
102
RTVSPropertyOp9
70
1
102
RTVSPropertyOp10
70
1
102
RTVSPropertyOp11
70
1
102
RTVSPropertyOp12
70
1
102
RTVSPropertyOp13
70
1
102
RTVSPropertyOp14
70
1
102
RTVSPropertyOp15
70
1
102
RTVSPropertyOp16
70
1
102
RTVSPropertyOp17
70
1
102
RTVSPropertyOp18
70
1
102
RTVSPropertyOp19
70
1
102
RTVSPropertyOp20
70
1
102
RTVSPropertyOp21
70
1
102
RTVSPropertyOp22
70
1
102
RTVSPropertyOp23
70
1
102
RTVSPropertyOp24
70
1
102
RTVSPropertyOp25
70
1
102
RTVSPropertyOp26
70
1
102
RTVSPropertyOp27
70
1
0
XRECORD
5
1089
102
{ACAD_REACTORS
330
1088
102
}
330
1088
100
AcDbXrecord
280
1
102
RTVSPropertyOp0
70
1
102
RTVSPropertyOp1
70
1
102
RTVSPropertyOp2
70
1
102
RTVSPropertyOp3
70
1
102
RTVSPropertyOp4
70
1
102
RTVSPropertyOp5
70
1
102
RTVSPropertyOp6
70
1
102
RTVSPropertyOp7
70
1
102
RTVSPropertyOp8
70
1
102
RTVSPropertyOp9
70
1
102
RTVSPropertyOp10
70
1
102
RTVSPropertyOp11
70
1
102
RTVSPropertyOp12
70
1
102
RTVSPropertyOp13
70
1
102
RTVSPropertyOp14
70
1
102
RTVSPropertyOp15
70
1
102
RTVSPropertyOp16
70
1
102
RTVSPropertyOp17
70
1
102
RTVSPropertyOp18
70
1
102
RTVSPropertyOp19
70
1
102
RTVSPropertyOp20
70
1
102
RTVSPropertyOp21
70
1
102
RTVSPropertyOp22
70
1
102
RTVSPropertyOp23
70
1
102
RTVSPropertyOp24
70
1
102
RTVSPropertyOp25
70
1
102
RTVSPropertyOp26
70
1
102
RTVSPropertyOp27
70
1
0
XRECORD
5
1097
102
{ACAD_REACTORS
330
1096
102
}
330
1096
100
AcDbXrecord
280
1
102
RTVSPropertyOp0
70
1
102
RTVSPropertyOp1
70
1
102
RTVSPropertyOp2
70
1
102
RTVSPropertyOp3
70
1
102
RTVSPropertyOp4
70
1
102
RTVSPropertyOp5
70
1
102
RTVSPropertyOp6
70
1
102
RTVSPropertyOp7
70
1
102
RTVSPropertyOp8
70
1
102
RTVSPropertyOp9
70
1
102
RTVSPropertyOp10
70
1
102
RTVSPropertyOp11
70
1
102
RTVSPropertyOp12
70
1
102
RTVSPropertyOp13
70
1
102
RTVSPropertyOp14
70
1
102
RTVSPropertyOp15
70
1
102
RTVSPropertyOp16
70
1
102
RTVSPropertyOp17
70
1
102
RTVSPropertyOp18
70
1
102
RTVSPropertyOp19
70
1
102
RTVSPropertyOp20
70
1
102
RTVSPropertyOp21
70
1
102
RTVSPropertyOp22
70
1
102
RTVSPropertyOp23
70
1
102
RTVSPropertyOp24
70
1
102
RTVSPropertyOp25
70
1
102
RTVSPropertyOp26
70
1
102
RTVSPropertyOp27
70
1
0
XRECORD
5
109F
102
{ACAD_REACTORS
330
109E
102
}
330
109E
100
AcDbXrecord
280
1
102
RTVSPropertyOp0
70
1
102
RTVSPropertyOp1
70
1
102
RTVSPropertyOp2
70
1
102
RTVSPropertyOp3
70
1
102
RTVSPropertyOp4
70
1
102
RTVSPropertyOp5
70
1
102
RTVSPropertyOp6
70
1
102
RTVSPropertyOp7
70
1
102
RTVSPropertyOp8
70
1
102
RTVSPropertyOp9
70
1
102
RTVSPropertyOp10
70
1
102
RTVSPropertyOp11
70
1
102
RTVSPropertyOp12
70
1
102
RTVSPropertyOp13
70
1
102
RTVSPropertyOp14
70
1
102
RTVSPropertyOp15
70
1
102
RTVSPropertyOp16
70
1
102
RTVSPropertyOp17
70
1
102
RTVSPropertyOp18
70
1
102
RTVSPropertyOp19
70
1
102
RTVSPropertyOp20
70
1
102
RTVSPropertyOp21
70
1
102
RTVSPropertyOp22
70
1
102
RTVSPropertyOp23
70
1
102
RTVSPropertyOp24
70
1
102
RTVSPropertyOp25
70
1
102
RTVSPropertyOp26
70
1
102
RTVSPropertyOp27
70
1
0
XRECORD
5
1091
102
{ACAD_REACTORS
330
1090
102
}
330
1090
100
AcDbXrecord
280
1
102
RTVSPropertyOp0
70
1
102
RTVSPropertyOp1
70
1
102
RTVSPropertyOp2
70
1
102
RTVSPropertyOp3
70
1
102
RTVSPropertyOp4
70
1
102
RTVSPropertyOp5
70
1
102
RTVSPropertyOp6
70
1
102
RTVSPropertyOp7
70
1
102
RTVSPropertyOp8
70
1
102
RTVSPropertyOp9
70
1
102
RTVSPropertyOp10
70
1
102
RTVSPropertyOp11
70
1
102
RTVSPropertyOp12
70
1
102
RTVSPropertyOp13
70
1
102
RTVSPropertyOp14
70
1
102
RTVSPropertyOp15
70
1
102
RTVSPropertyOp16
70
1
102
RTVSPropertyOp17
70
1
102
RTVSPropertyOp18
70
1
102
RTVSPropertyOp19
70
1
102
RTVSPropertyOp20
70
1
102
RTVSPropertyOp21
70
1
102
RTVSPropertyOp22
70
1
102
RTVSPropertyOp23
70
1
102
RTVSPropertyOp24
70
1
102
RTVSPropertyOp25
70
1
102
RTVSPropertyOp26
70
1
102
RTVSPropertyOp27
70
1
0
XRECORD
5
1095
102
{ACAD_REACTORS
330
1094
102
}
330
1094
100
AcDbXrecord
280
1
102
RTVSPropertyOp0
70
1
102
RTVSPropertyOp1
70
1
102
RTVSPropertyOp2
70
1
102
RTVSPropertyOp3
70
1
102
RTVSPropertyOp4
70
1
102
RTVSPropertyOp5
70
1
102
RTVSPropertyOp6
70
1
102
RTVSPropertyOp7
70
1
102
RTVSPropertyOp8
70
1
102
RTVSPropertyOp9
70
1
102
RTVSPropertyOp10
70
1
102
RTVSPropertyOp11
70
1
102
RTVSPropertyOp12
70
1
102
RTVSPropertyOp13
70
1
102
RTVSPropertyOp14
70
1
102
RTVSPropertyOp15
70
1
102
RTVSPropertyOp16
70
1
102
RTVSPropertyOp17
70
1
102
RTVSPropertyOp18
70
1
102
RTVSPropertyOp19
70
1
102
RTVSPropertyOp20
70
1
102
RTVSPropertyOp21
70
1
102
RTVSPropertyOp22
70
1
102
RTVSPropertyOp23
70
1
102
RTVSPropertyOp24
70
1
102
RTVSPropertyOp25
70
1
102
RTVSPropertyOp26
70
1
102
RTVSPropertyOp27
70
1
0
XRECORD
5
10A5
102
{ACAD_REACTORS
330
10A4
102
}
330
10A4
100
AcDbXrecord
280
1
102
RTVSPropertyOp0
70
0
102
RTVSPropertyOp1
70
0
102
RTVSPropertyOp2
70
0
102
RTVSPropertyOp3
70
0
102
RTVSPropertyOp4
70
0
102
RTVSPropertyOp5
70
0
102
RTVSPropertyOp6
70
0
102
RTVSPropertyOp7
70
0
102
RTVSPropertyOp8
70
0
102
RTVSPropertyOp9
70
0
102
RTVSPropertyOp10
70
0
102
RTVSPropertyOp11
70
0
102
RTVSPropertyOp12
70
0
102
RTVSPropertyOp13
70
0
102
RTVSPropertyOp14
70
2
102
RTVSPropertyOp15
70
0
102
RTVSPropertyOp16
70
0
102
RTVSPropertyOp17
70
0
102
RTVSPropertyOp18
70
0
102
RTVSPropertyOp19
70
0
102
RTVSPropertyOp20
70
0
102
RTVSPropertyOp21
70
0
102
RTVSPropertyOp22
70
0
102
RTVSPropertyOp23
70
0
102
RTVSPropertyOp24
70
0
102
RTVSPropertyOp25
70
0
102
RTVSPropertyOp26
70
0
102
RTVSPropertyOp27
70
0
0
XRECORD
5
109D
102
{ACAD_REACTORS
330
109C
102
}
330
109C
100
AcDbXrecord
280
1
102
RTVSPropertyOp0
70
1
102
RTVSPropertyOp1
70
1
102
RTVSPropertyOp2
70
1
102
RTVSPropertyOp3
70
1
102
RTVSPropertyOp4
70
1
102
RTVSPropertyOp5
70
1
102
RTVSPropertyOp6
70
1
102
RTVSPropertyOp7
70
1
102
RTVSPropertyOp8
70
1
102
RTVSPropertyOp9
70
1
102
RTVSPropertyOp10
70
1
102
RTVSPropertyOp11
70
1
102
RTVSPropertyOp12
70
1
102
RTVSPropertyOp13
70
1
102
RTVSPropertyOp14
70
1
102
RTVSPropertyOp15
70
1
102
RTVSPropertyOp16
70
1
102
RTVSPropertyOp17
70
1
102
RTVSPropertyOp18
70
1
102
RTVSPropertyOp19
70
1
102
RTVSPropertyOp20
70
1
102
RTVSPropertyOp21
70
1
102
RTVSPropertyOp22
70
1
102
RTVSPropertyOp23
70
1
102
RTVSPropertyOp24
70
1
102
RTVSPropertyOp25
70
1
102
RTVSPropertyOp26
70
1
102
RTVSPropertyOp27
70
1
0
XRECORD
5
1081
102
{ACAD_REACTORS
330
1080
102
}
330
1080
100
AcDbXrecord
280
1
102
RTVSPropertyOp0
70
1
102
RTVSPropertyOp1
70
1
102
RTVSPropertyOp2
70
1
102
RTVSPropertyOp3
70
1
102
RTVSPropertyOp4
70
1
102
RTVSPropertyOp5
70
1
102
RTVSPropertyOp6
70
1
102
RTVSPropertyOp7
70
1
102
RTVSPropertyOp8
70
1
102
RTVSPropertyOp9
70
1
102
RTVSPropertyOp10
70
1
102
RTVSPropertyOp11
70
1
102
RTVSPropertyOp12
70
1
102
RTVSPropertyOp13
70
1
102
RTVSPropertyOp14
70
1
102
RTVSPropertyOp15
70
1
102
RTVSPropertyOp16
70
1
102
RTVSPropertyOp17
70
1
102
RTVSPropertyOp18
70
1
102
RTVSPropertyOp19
70
1
102
RTVSPropertyOp20
70
1
102
RTVSPropertyOp21
70
1
102
RTVSPropertyOp22
70
1
102
RTVSPropertyOp23
70
1
102
RTVSPropertyOp24
70
1
102
RTVSPropertyOp25
70
1
102
RTVSPropertyOp26
70
1
102
RTVSPropertyOp27
70
1
0
XRECORD
5
1083
102
{ACAD_REACTORS
330
1082
102
}
330
1082
100
AcDbXrecord
280
1
102
RTVSPropertyOp0
70
1
102
RTVSPropertyOp1
70
1
102
RTVSPropertyOp2
70
1
102
RTVSPropertyOp3
70
1
102
RTVSPropertyOp4
70
1
102
RTVSPropertyOp5
70
1
102
RTVSPropertyOp6
70
1
102
RTVSPropertyOp7
70
1
102
RTVSPropertyOp8
70
1
102
RTVSPropertyOp9
70
1
102
RTVSPropertyOp10
70
1
102
RTVSPropertyOp11
70
1
102
RTVSPropertyOp12
70
1
102
RTVSPropertyOp13
70
1
102
RTVSPropertyOp14
70
1
102
RTVSPropertyOp15
70
1
102
RTVSPropertyOp16
70
1
102
RTVSPropertyOp17
70
1
102
RTVSPropertyOp18
70
1
102
RTVSPropertyOp19
70
1
102
RTVSPropertyOp20
70
1
102
RTVSPropertyOp21
70
1
102
RTVSPropertyOp22
70
1
102
RTVSPropertyOp23
70
1
102
RTVSPropertyOp24
70
1
102
RTVSPropertyOp25
70
1
102
RTVSPropertyOp26
70
1
102
RTVSPropertyOp27
70
1
0
XRECORD
5
1085
102
{ACAD_REACTORS
330
1084
102
}
330
1084
100
AcDbXrecord
280
1
102
RTVSPropertyOp0
70
1
102
RTVSPropertyOp1
70
1
102
RTVSPropertyOp2
70
1
102
RTVSPropertyOp3
70
1
102
RTVSPropertyOp4
70
1
102
RTVSPropertyOp5
70
1
102
RTVSPropertyOp6
70
1
102
RTVSPropertyOp7
70
1
102
RTVSPropertyOp8
70
1
102
RTVSPropertyOp9
70
1
102
RTVSPropertyOp10
70
1
102
RTVSPropertyOp11
70
1
102
RTVSPropertyOp12
70
1
102
RTVSPropertyOp13
70
1
102
RTVSPropertyOp14
70
1
102
RTVSPropertyOp15
70
1
102
RTVSPropertyOp16
70
1
102
RTVSPropertyOp17
70
1
102
RTVSPropertyOp18
70
1
102
RTVSPropertyOp19
70
1
102
RTVSPropertyOp20
70
1
102
RTVSPropertyOp21
70
1
102
RTVSPropertyOp22
70
1
102
RTVSPropertyOp23
70
1
102
RTVSPropertyOp24
70
1
102
RTVSPropertyOp25
70
1
102
RTVSPropertyOp26
70
1
102
RTVSPropertyOp27
70
1
0
XRECORD
5
1087
102
{ACAD_REACTORS
330
1086
102
}
330
1086
100
AcDbXrecord
280
1
102
RTVSPropertyOp0
70
1
102
RTVSPropertyOp1
70
1
102
RTVSPropertyOp2
70
1
102
RTVSPropertyOp3
70
1
102
RTVSPropertyOp4
70
1
102
RTVSPropertyOp5
70
1
102
RTVSPropertyOp6
70
1
102
RTVSPropertyOp7
70
1
102
RTVSPropertyOp8
70
1
102
RTVSPropertyOp9
70
1
102
RTVSPropertyOp10
70
1
102
RTVSPropertyOp11
70
1
102
RTVSPropertyOp12
70
1
102
RTVSPropertyOp13
70
1
102
RTVSPropertyOp14
70
1
102
RTVSPropertyOp15
70
1
102
RTVSPropertyOp16
70
1
102
RTVSPropertyOp17
70
1
102
RTVSPropertyOp18
70
1
102
RTVSPropertyOp19
70
1
102
RTVSPropertyOp20
70
1
102
RTVSPropertyOp21
70
1
102
RTVSPropertyOp22
70
1
102
RTVSPropertyOp23
70
1
102
RTVSPropertyOp24
70
1
102
RTVSPropertyOp25
70
1
102
RTVSPropertyOp26
70
1
102
RTVSPropertyOp27
70
1
0
XRECORD
5
10A1
102
{ACAD_REACTORS
330
10A0
102
}
330
10A0
100
AcDbXrecord
280
1
102
RTVSPropertyOp0
70
0
102
RTVSPropertyOp1
70
0
102
RTVSPropertyOp2
70
0
102
RTVSPropertyOp3
70
0
102
RTVSPropertyOp4
70
0
102
RTVSPropertyOp5
70
0
102
RTVSPropertyOp6
70
0
102
RTVSPropertyOp7
70
0
102
RTVSPropertyOp8
70
0
102
RTVSPropertyOp9
70
0
102
RTVSPropertyOp10
70
0
102
RTVSPropertyOp11
70
0
102
RTVSPropertyOp12
70
0
102
RTVSPropertyOp13
70
0
102
RTVSPropertyOp14
70
2
102
RTVSPropertyOp15
70
0
102
RTVSPropertyOp16
70
0
102
RTVSPropertyOp17
70
0
102
RTVSPropertyOp18
70
0
102
RTVSPropertyOp19
70
0
102
RTVSPropertyOp20
70
0
102
RTVSPropertyOp21
70
0
102
RTVSPropertyOp22
70
0
102
RTVSPropertyOp23
70
0
102
RTVSPropertyOp24
70
0
102
RTVSPropertyOp25
70
0
102
RTVSPropertyOp26
70
0
102
RTVSPropertyOp27
70
0
0
XRECORD
5
109B
102
{ACAD_REACTORS
330
109A
102
}
330
109A
100
AcDbXrecord
280
1
102
RTVSPropertyOp0
70
1
102
RTVSPropertyOp1
70
1
102
RTVSPropertyOp2
70
1
102
RTVSPropertyOp3
70
1
102
RTVSPropertyOp4
70
1
102
RTVSPropertyOp5
70
1
102
RTVSPropertyOp6
70
1
102
RTVSPropertyOp7
70
1
102
RTVSPropertyOp8
70
1
102
RTVSPropertyOp9
70
1
102
RTVSPropertyOp10
70
1
102
RTVSPropertyOp11
70
1
102
RTVSPropertyOp12
70
1
102
RTVSPropertyOp13
70
1
102
RTVSPropertyOp14
70
1
102
RTVSPropertyOp15
70
1
102
RTVSPropertyOp16
70
1
102
RTVSPropertyOp17
70
1
102
RTVSPropertyOp18
70
1
102
RTVSPropertyOp19
70
1
102
RTVSPropertyOp20
70
1
102
RTVSPropertyOp21
70
1
102
RTVSPropertyOp22
70
1
102
RTVSPropertyOp23
70
1
102
RTVSPropertyOp24
70
1
102
RTVSPropertyOp25
70
1
102
RTVSPropertyOp26
70
1
102
RTVSPropertyOp27
70
1
0
XRECORD
5
10A3
102
{ACAD_REACTORS
330
10A2
102
}
330
10A2
100
AcDbXrecord
280
1
102
RTVSPropertyOp0
70
0
102
RTVSPropertyOp1
70
0
102
RTVSPropertyOp2
70
0
102
RTVSPropertyOp3
70
0
102
RTVSPropertyOp4
70
0
102
RTVSPropertyOp5
70
0
102
RTVSPropertyOp6
70
0
102
RTVSPropertyOp7
70
0
102
RTVSPropertyOp8
70
0
102
RTVSPropertyOp9
70
0
102
RTVSPropertyOp10
70
0
102
RTVSPropertyOp11
70
0
102
RTVSPropertyOp12
70
0
102
RTVSPropertyOp13
70
0
102
RTVSPropertyOp14
70
2
102
RTVSPropertyOp15
70
0
102
RTVSPropertyOp16
70
0
102
RTVSPropertyOp17
70
0
102
RTVSPropertyOp18
70
0
102
RTVSPropertyOp19
70
0
102
RTVSPropertyOp20
70
0
102
RTVSPropertyOp21
70
0
102
RTVSPropertyOp22
70
0
102
RTVSPropertyOp23
70
0
102
RTVSPropertyOp24
70
0
102
RTVSPropertyOp25
70
0
102
RTVSPropertyOp26
70
0
102
RTVSPropertyOp27
70
0
0
XRECORD
5
1093
102
{ACAD_REACTORS
330
1092
102
}
330
1092
100
AcDbXrecord
280
1
102
RTVSPropertyOp0
70
1
102
RTVSPropertyOp1
70
1
102
RTVSPropertyOp2
70
1
102
RTVSPropertyOp3
70
1
102
RTVSPropertyOp4
70
1
102
RTVSPropertyOp5
70
1
102
RTVSPropertyOp6
70
1
102
RTVSPropertyOp7
70
1
102
RTVSPropertyOp8
70
1
102
RTVSPropertyOp9
70
1
102
RTVSPropertyOp10
70
1
102
RTVSPropertyOp11
70
1
102
RTVSPropertyOp12
70
1
102
RTVSPropertyOp13
70
1
102
RTVSPropertyOp14
70
1
102
RTVSPropertyOp15
70
1
102
RTVSPropertyOp16
70
1
102
RTVSPropertyOp17
70
1
102
RTVSPropertyOp18
70
1
102
RTVSPropertyOp19
70
1
102
RTVSPropertyOp20
70
1
102
RTVSPropertyOp21
70
1
102
RTVSPropertyOp22
70
1
102
RTVSPropertyOp23
70
1
102
RTVSPropertyOp24
70
1
102
RTVSPropertyOp25
70
1
102
RTVSPropertyOp26
70
1
102
RTVSPropertyOp27
70
1
0
XRECORD
5
1099
102
{ACAD_REACTORS
330
1098
102
}
330
1098
100
AcDbXrecord
280
1
102
RTVSPropertyOp0
70
1
102
RTVSPropertyOp1
70
1
102
RTVSPropertyOp2
70
1
102
RTVSPropertyOp3
70
1
102
RTVSPropertyOp4
70
1
102
RTVSPropertyOp5
70
1
102
RTVSPropertyOp6
70
1
102
RTVSPropertyOp7
70
1
102
RTVSPropertyOp8
70
1
102
RTVSPropertyOp9
70
1
102
RTVSPropertyOp10
70
1
102
RTVSPropertyOp11
70
1
102
RTVSPropertyOp12
70
1
102
RTVSPropertyOp13
70
1
102
RTVSPropertyOp14
70
1
102
RTVSPropertyOp15
70
1
102
RTVSPropertyOp16
70
1
102
RTVSPropertyOp17
70
1
102
RTVSPropertyOp18
70
1
102
RTVSPropertyOp19
70
1
102
RTVSPropertyOp20
70
1
102
RTVSPropertyOp21
70
1
102
RTVSPropertyOp22
70
1
102
RTVSPropertyOp23
70
1
102
RTVSPropertyOp24
70
1
102
RTVSPropertyOp25
70
1
102
RTVSPropertyOp26
70
1
102
RTVSPropertyOp27
70
1
0
ENDSEC
0
EOF
