0
SECTION
2
HEADER
9
$ACADVER
1
AC1015
9
$ACADMAINTVER
70
20
9
$DWGCODEPAGE
3
ANSI_1252
9
$INSBASE
10
0.0
20
0.0
30
0.0
9
$EXTMIN
10
-150.000000000000
20
-105.000000000000
30
0.0
9
$EXTMAX
10
150.000000000000
20
105.000000000000
30
0.0
9
$LIMMIN
10
0.0
20
0.0
9
$LIMMAX
10
12.0
20
9.0
9
$ORTHOMODE
70
0
9
$REGENMODE
70
1
9
$FILLMODE
70
1
9
$QTEXTMODE
70
0
9
$MIRRTEXT
70
1
9
$LTSCALE
40
1.0
9
$ATTMODE
70
1
9
$TEXTSIZE
40
0.2
9
$TRACEWID
40
0.05
9
$TEXTSTYLE
7
Standard
9
$CLAYER
8
0
9
$CELTYPE
6
ByLayer
9
$CECOLOR
62
256
9
$CELTSCALE
40
1.0
9
$DISPSILH
70
0
9
$DIMSCALE
40
1.0
9
$DIMASZ
40
2.5
9
$DIMEXO
40
0.625
9
$DIMDLI
40
0.38
9
$DIMRND
40
0.0
9
$DIMDLE
40
0.0
9
$DIMEXE
40
1.25
9
$DIMTP
40
0.0
9
$DIMTM
40
0.000000001
9
$DIMTXT
40
2.5
9
$DIMCEN
40
0.09
9
$DIMTSZ
40
0.0
9
$DIMTOL
70
1
9
$DIMLIM
70
0
9
$DIMTIH
70
0
9
$DIMTOH
70
0
9
$DIMSE1
70
0
9
$DIMSE2
70
0
9
$DIMTAD
70
1
9
$DIMZIN
70
0
9
$DIMBLK
1
VDDIM_DEFAULT
9
$DIMASO
70
1
9
$DIMSHO
70
1
9
$DIMPOST
1

9
$DIMAPOST
1

9
$DIMALT
70
0
9
$DIMALTD
70
2
9
$DIMALTF
40
25.4
9
$DIMLFAC
40
1.00000000000000
9
$DIMTOFL
70
0
9
$DIMTVP
40
0.0
9
$DIMTIX
70
0
9
$DIMSOXD
70
0
9
$DIMSAH
70
0
9
$DIMBLK1
1

9
$DIMBLK2
1

9
$DIMSTYLE
2
BEM-ISBE
9
$DIMCLRD
70
0
9
$DIMCLRE
70
0
9
$DIMCLRT
70
0
9
$DIMTFAC
40
0.5
9
$DIMGAP
40
0.625
9
$DIMJUST
70
0
9
$DIMSD1
70
0
9
$DIMSD2
70
0
9
$DIMTOLJ
70
1
9
$DIMTZIN
70
0
9
$DIMALTZ
70
0
9
$DIMALTTZ
70
0
9
$DIMUPT
70
0
9
$DIMDEC
70
3
9
$DIMTDEC
70
3
9
$DIMALTU
70
2
9
$DIMALTTD
70
2
9
$DIMTXSTY
7
Standard
9
$DIMAUNIT
70
0
9
$DIMADEC
70
3
9
$DIMALTRND
40
0.0
9
$DIMAZIN
70
0
9
$DIMDSEP
70
46
9
$DIMATFIT
70
3
9
$DIMFRAC
70
0
9
$DIMLDRBLK
1

9
$DIMLUNIT
70
2
9
$DIMLWD
70
-2
9
$DIMLWE
70
-2
9
$DIMTMOVE
70
0
9
$LUNITS
70
2
9
$LUPREC
70
4
9
$SKETCHINC
40
0.1
9
$FILLETRAD
40
0.5
9
$AUNITS
70
0
9
$AUPREC
70
0
9
$MENU
1
.
9
$ELEVATION
40
0.0
9
$PELEVATION
40
0.0
9
$THICKNESS
40
0.0
9
$LIMCHECK
70
0
9
$CHAMFERA
40
0.5
9
$CHAMFERB
40
0.5
9
$CHAMFERC
40
1.0
9
$CHAMFERD
40
0.0
9
$SKPOLY
70
0
9
$TDCREATE
40
0.0
9
$TDUCREATE
40
0.0
9
$TDUPDATE
40
0.0
9
$TDUUPDATE
40
0.0
9
$TDINDWG
40
0.0
9
$TDUSRTIMER
40
0.0
9
$USRTIMER
70
1
9
$ANGBASE
50
0.0
9
$ANGDIR
70
0
9
$PDMODE
70
0
9
$PDSIZE
40
0.0
9
$PLINEWID
40
0.0
9
$SPLFRAME
70
0
9
$SPLINETYPE
70
6
9
$SPLINESEGS
70
8
9
$HANDSEED
5
10AB
9
$SURFTAB1
70
6
9
$SURFTAB2
70
6
9
$SURFTYPE
70
6
9
$SURFU
70
6
9
$SURFV
70
6
9
$UCSBASE
2

9
$UCSNAME
2

9
$UCSORG
10
0.0
20
0.0
30
0.0
9
$UCSXDIR
10
1.0
20
0.0
30
0.0
9
$UCSYDIR
10
0.0
20
1.0
30
0.0
9
$UCSORTHOREF
2

9
$UCSORTHOVIEW
70
0
9
$UCSORGTOP
10
0.0
20
0.0
30
0.0
9
$UCSORGBOTTOM
10
0.0
20
0.0
30
0.0
9
$UCSORGLEFT
10
0.0
20
0.0
30
0.0
9
$UCSORGRIGHT
10
0.0
20
0.0
30
0.0
9
$UCSORGFRONT
10
0.0
20
0.0
30
0.0
9
$UCSORGBACK
10
0.0
20
0.0
30
0.0
9
$PUCSBASE
2

9
$PUCSNAME
2

9
$PUCSORG
10
0.0
20
0.0
30
0.0
9
$PUCSXDIR
10
1.0
20
0.0
30
0.0
9
$PUCSYDIR
10
0.0
20
1.0
30
0.0
9
$PUCSORTHOREF
2

9
$PUCSORTHOVIEW
70
0
9
$PUCSORGTOP
10
0.0
20
0.0
30
0.0
9
$PUCSORGBOTTOM
10
0.0
20
0.0
30
0.0
9
$PUCSORGLEFT
10
0.0
20
0.0
30
0.0
9
$PUCSORGRIGHT
10
0.0
20
0.0
30
0.0
9
$PUCSORGFRONT
10
0.0
20
0.0
30
0.0
9
$PUCSORGBACK
10
0.0
20
0.0
30
0.0
9
$USERI1
70
0
9
$USERI2
70
0
9
$USERI3
70
0
9
$USERI4
70
0
9
$USERI5
70
0
9
$USERR1
40
0.0
9
$USERR2
40
0.0
9
$USERR3
40
0.0
9
$USERR4
40
0.0
9
$USERR5
40
0.0
9
$WORLDVIEW
70
1
9
$SHADEDGE
70
3
9
$SHADEDIF
70
70
9
$TILEMODE
70
1
9
$MAXACTVP
70
64
9
$PINSBASE
10
0.0
20
0.0
30
0.0
9
$PLIMCHECK
70
0
9
$PEXTMIN
10
1.000000000000000E+20
20
1.000000000000000E+20
30
1.000000000000000E+20
9
$PEXTMAX
10
-1.000000000000000E+20
20
-1.000000000000000E+20
30
-1.000000000000000E+20
9
$PLIMMIN
10
0.0
20
0.0
9
$PLIMMAX
10
12.0
20
9.0
9
$UNITMODE
70
0
9
$VISRETAIN
70
1
9
$PLINEGEN
70
0
9
$PSLTSCALE
70
1
9
$TREEDEPTH
70
3020
9
$CMLSTYLE
2
Standard
9
$CMLJUST
70
0
9
$CMLSCALE
40
1.0
9
$PROXYGRAPHICS
70
1
9
$MEASUREMENT
70
0
9
$CELWEIGHT
370
-1
9
$ENDCAPS
280
0
9
$JOINSTYLE
280
0
9
$LWDISPLAY
290
0
9
$INSUNITS
70
4
9
$HYPERLINKBASE
1

9
$STYLESHEET
1

9
$XEDIT
290
1
9
$CEPSNTYPE
380
0
9
$PSTYLEMODE
290
0
9
$FINGERPRINTGUID
2
{FAEB1C30-E019-11D5-929B-00C0DF256EC4}
9
$VERSIONGUID
2
{04C5C4E4-4947-4D90-8812-D401569E61F7}
9
$EXTNAMES
290
1
9
$PSVPSCALE
40
0.0
9
$OLESTARTUP
290
0
0
ENDSEC
0
SECTION
2
TABLES
0
TABLE
2
VPORT
5
24A
330
0
100
AcDbSymbolTable
70
1
0
VPORT
5
26B
330
24A
100
AcDbSymbolTableRecord
100
AcDbViewportTableRecord
2
*Active
70
0
10
0.0
20
0.0
11
1.0
21
1.0
12
0.000000000000000
22
0.000000000000000
13
0.0
23
0.0
14
10.0
24
10.0
15
10.0
25
10.0
16
0.0
26
0.0
36
1.0
17
0.0
27
0.0
37
0.0
40
210.000000000000
41
1.42857142857143
42
1.0
43
0.0
44
0.0
50
0.0
51
0.0000000000007958
71
0
72
100
73
1
74
3
75
0
76
0
77
0
78
1
281
0
65
1
110
0.0
120
0.0
130
0.0
111
1.0
121
0.0
131
0.0
112
0.0
122
1.0
132
0.0
79
0
146
0.0
0
ENDTAB
0
TABLE
2
LTYPE
5
247
330
0
100
AcDbSymbolTable
70
25
0
LTYPE
5
256
330
247
100
AcDbSymbolTableRecord
100
AcDbLinetypeTableRecord
2
ByBlock
70
0
3

72
65
73
0
40
0.0
0
LTYPE
5
257
330
247
100
AcDbSymbolTableRecord
100
AcDbLinetypeTableRecord
2
ByLayer
70
0
3

72
65
73
0
40
0.0
0
LTYPE
5
258
330
247
100
AcDbSymbolTableRecord
100
AcDbLinetypeTableRecord
2
Continuous
70
0
3
Solid line
72
65
73
0
40
0.0
0
LTYPE
5
273
330
247
100
AcDbSymbolTableRecord
100
AcDbLinetypeTableRecord
2
CENTER
70
0
3
Center ____ _ ____ _ ____ _ ____ _ ____ _ ____
72
65
73
4
40
2.0
49
1.25
74
0
49
-0.25
74
0
49
0.25
74
0
49
-0.25
74
0
0
LTYPE
5
274
330
247
100
AcDbSymbolTableRecord
100
AcDbLinetypeTableRecord
2
DASHDOT
70
0
3
Dashdot __ . __ . __ . __ . __ . __ . __ . __
72
65
73
4
40
1.0
49
0.5
74
0
49
-0.25
74
0
49
0.0
74
0
49
-0.25
74
0
0
LTYPE
5
275
330
247
100
AcDbSymbolTableRecord
100
AcDbLinetypeTableRecord
2
DASHED
70
0
3
Dashed __ __ __ __ __ __ __ __ __ __ __ __ __ _
72
65
73
2
40
0.75
49
0.5
74
0
49
-0.25
74
0
0
LTYPE
5
276
330
247
100
AcDbSymbolTableRecord
100
AcDbLinetypeTableRecord
2
HIDDEN
70
0
3
Hidden __ __ __ __ __ __ __ __ __ __ __ __ __ __
72
65
73
2
40
0.375
49
0.25
74
0
49
-0.125
74
0
0
LTYPE
5
277
330
247
100
AcDbSymbolTableRecord
100
AcDbLinetypeTableRecord
2
HIDDEN2
70
0
3
Hidden2 _ _ _ _ _ _ _ _ _ _ _ _ _ _ _ _ _
72
65
73
2
40
0.1875
49
0.125
74
0
49
-0.0625
74
0
0
LTYPE
5
278
330
247
100
AcDbSymbolTableRecord
100
AcDbLinetypeTableRecord
2
BORDER
70
0
3
Border __ __ . __ __ . __ __ . __ __ . __ __ .
72
65
73
6
40
1.75
49
0.5
74
0
49
-0.25
74
0
49
0.5
74
0
49
-0.25
74
0
49
0.0
74
0
49
-0.25
74
0
0
LTYPE
5
279
330
247
100
AcDbSymbolTableRecord
100
AcDbLinetypeTableRecord
2
BORDER2
70
0
3
Border2 __.__.__.__.__.__.__.__.__.__.__.
72
65
73
6
40
0.875
49
0.25
74
0
49
-0.125
74
0
49
0.25
74
0
49
-0.125
74
0
49
0.0
74
0
49
-0.125
74
0
0
LTYPE
5
27A
330
247
100
AcDbSymbolTableRecord
100
AcDbLinetypeTableRecord
2
BORDERX2
70
0
3
Borderx2  ____  ____  .  ____  ____  .  ___
72
65
73
6
40
3.5
49
1.0
74
0
49
-0.5
74
0
49
1.0
74
0
49
-0.5
74
0
49
0.0
74
0
49
-0.5
74
0
0
LTYPE
5
27B
330
247
100
AcDbSymbolTableRecord
100
AcDbLinetypeTableRecord
2
CENTER2
70
0
3
Center2  ___ _ ___ _ ___ _ ___ _ ___ _ ___
72
65
73
4
40
1.125
49
0.75
74
0
49
-0.125
74
0
49
0.125
74
0
49
-0.125
74
0
0
LTYPE
5
27C
330
247
100
AcDbSymbolTableRecord
100
AcDbLinetypeTableRecord
2
CENTERX2
70
0
3
Centerx2  ________  __  ________  __  _____
72
65
73
4
40
4.0
49
2.5
74
0
49
-0.5
74
0
49
0.5
74
0
49
-0.5
74
0
0
LTYPE
5
27D
330
247
100
AcDbSymbolTableRecord
100
AcDbLinetypeTableRecord
2
DASHDOT2
70
0
3
Dashdot2  _._._._._._._._._._._._._._._.
72
65
73
4
40
0.5
49
0.25
74
0
49
-0.125
74
0
49
0.0
74
0
49
-0.125
74
0
0
LTYPE
5
27E
330
247
100
AcDbSymbolTableRecord
100
AcDbLinetypeTableRecord
2
DASHDOTX2
70
0
3
Dashdotx2 ____  .  ____  .  ____  .  ___
72
65
73
4
40
2.0
49
1.0
74
0
49
-0.5
74
0
49
0.0
74
0
49
-0.5
74
0
0
LTYPE
5
27F
330
247
100
AcDbSymbolTableRecord
100
AcDbLinetypeTableRecord
2
DASHED2
70
0
3
Dashed2 _ _ _ _ _ _ _ _ _ _ _ _ _ _ _ _ _
72
65
73
2
40
0.375
49
0.25
74
0
49
-0.125
74
0
0
LTYPE
5
280
330
247
100
AcDbSymbolTableRecord
100
AcDbLinetypeTableRecord
2
DASHEDX2
70
0
3
Dashedx2 ____  ____  ____  ____  ____  ___
72
65
73
2
40
1.5
49
1.0
74
0
49
-0.5
74
0
0
LTYPE
5
281
330
247
100
AcDbSymbolTableRecord
100
AcDbLinetypeTableRecord
2
DIVIDE
70
0
3
Divide ____ . . ____ . . ____ . . ____ . . ____
72
65
73
6
40
1.25
49
0.5
74
0
49
-0.25
74
0
49
0.0
74
0
49
-0.25
74
0
49
0.0
74
0
49
-0.25
74
0
0
LTYPE
5
282
330
247
100
AcDbSymbolTableRecord
100
AcDbLinetypeTableRecord
2
DIVIDE2
70
0
3
Divide2 __..__..__..__..__..__..__..__.._
72
65
73
6
40
0.625
49
0.25
74
0
49
-0.125
74
0
49
0.0
74
0
49
-0.125
74
0
49
0.0
74
0
49
-0.125
74
0
0
LTYPE
5
283
330
247
100
AcDbSymbolTableRecord
100
AcDbLinetypeTableRecord
2
DIVIDEX2
70
0
3
Dividex2 ________  .  .  ________  .  .  _
72
65
73
6
40
2.5
49
1.0
74
0
49
-0.5
74
0
49
0.0
74
0
49
-0.5
74
0
49
0.0
74
0
49
-0.5
74
0
0
LTYPE
5
284
330
247
100
AcDbSymbolTableRecord
100
AcDbLinetypeTableRecord
2
DOT
70
0
3
Dot . . . . . . . . . . . . . . . . . . . . . . . .
72
65
73
2
40
0.25
49
0.0
74
0
49
-0.25
74
0
0
LTYPE
5
285
330
247
100
AcDbSymbolTableRecord
100
AcDbLinetypeTableRecord
2
DOT2
70
0
3
Dot2 ........................................
72
65
73
2
40
0.125
49
0.0
74
0
49
-0.125
74
0
0
LTYPE
5
286
330
247
100
AcDbSymbolTableRecord
100
AcDbLinetypeTableRecord
2
DOTX2
70
0
3
Dotx2 .  .  .  .  .  .  .  .  .  .  .  .  .  .
72
65
73
2
40
0.5
49
0.0
74
0
49
-0.5
74
0
0
LTYPE
5
287
330
247
100
AcDbSymbolTableRecord
100
AcDbLinetypeTableRecord
2
HIDDENX2
70
0
3
Hiddenx2 ____ ____ ____ ____ ____ ____ ____
72
65
73
2
40
0.75
49
0.5
74
0
49
-0.25
74
0
0
LTYPE
5
288
330
247
100
AcDbSymbolTableRecord
100
AcDbLinetypeTableRecord
2
PHANTOM
70
0
3
Phantom ______  __  __  ______  __  __  ______
72
65
73
6
40
2.5
49
1.25
74
0
49
-0.25
74
0
49
0.25
74
0
49
-0.25
74
0
49
0.25
74
0
49
-0.25
74
0
0
LTYPE
5
289
330
247
100
AcDbSymbolTableRecord
100
AcDbLinetypeTableRecord
2
PHANTOM2
70
0
3
Phantom2 ___ _ _ ___ _ _ ___ _ _ ___ _ _
72
65
73
6
40
1.25
49
0.625
74
0
49
-0.125
74
0
49
0.125
74
0
49
-0.125
74
0
49
0.125
74
0
49
-0.125
74
0
0
LTYPE
5
28A
330
247
100
AcDbSymbolTableRecord
100
AcDbLinetypeTableRecord
2
PHANTOMX2
70
0
3
Phantomx2 ____________    ____    ____   _
72
65
73
6
40
5.0
49
2.5
74
0
49
-0.5
74
0
49
0.5
74
0
49
-0.5
74
0
49
0.5
74
0
49
-0.5
74
0
0
ENDTAB
0
TABLE
2
LAYER
5
244
330
0
100
AcDbSymbolTable
70
6
0
LAYER
5
252
330
244
100
AcDbSymbolTableRecord
100
AcDbLayerTableRecord
2
0
70
0
62
7
6
Continuous
370
0
390
251
0
LAYER
5
23F
330
244
100
AcDbSymbolTableRecord
100
AcDbLayerTableRecord
2
Bemassung
70
0
 62
   7
6
Continuous
370
0
390
251
0
LAYER
5
240
330
244
100
AcDbSymbolTableRecord
100
AcDbLayerTableRecord
2
Rahmen
70
0
 62
   7
6
Continuous
370
0
390
251
0
LAYER
5
241
330
244
100
AcDbSymbolTableRecord
100
AcDbLayerTableRecord
2
Geo
70
0
 62
   7
6
Continuous
370
0
390
251
0
LAYER
5
33A
330
244
100
AcDbSymbolTableRecord
100
AcDbLayerTableRecord
2
Defpoints
70
0
62
7
6
Continuous
290
0
370
-3
390
251
0
LAYER
5
57E
330
244
100
AcDbSymbolTableRecord
100
AcDbLayerTableRecord
2
Text
70
0
 62
   7
6
Continuous
370
0
390
251
1001
AcAecLayerStandard
1000

1000

0
ENDTAB
0
TABLE
2
STYLE
5
245
330
0
100
AcDbSymbolTable
70
2
0
STYLE
5
253
330
245
100
AcDbSymbolTableRecord
100
AcDbTextStyleTableRecord
2
Standard
70
0
40
0.0
41
1.0
50
0.0
71
0
42
0.2
3
Arial
4

1001
ACAD
1000
Arial
1071
0
0
STYLE
5
132
330
245
100
AcDbSymbolTableRecord
100
AcDbTextStyleTableRecord
2
Beschriftung
70
0
40
0.0
41
1.0
50
0.0
71
0
42
0.2
3
Arial
4

1001
ACAD
1000
Arial
1071
0
1001
AcadAnnotative
1000
AnnotativeData
1070
1
1070
1
0
ENDTAB
0
TABLE
2
VIEW
5
248
330
0
100
AcDbSymbolTable
70
0
0
ENDTAB
0
TABLE
2
UCS
5
249
330
0
100
AcDbSymbolTable
70
0
0
ENDTAB
0
TABLE
2
APPID
5
24B
330
0
100
AcDbSymbolTable
70
13
0
APPID
5
254
330
24B
100
AcDbSymbolTableRecord
100
AcDbRegAppTableRecord
2
ACAD
70
0
0
APPID
5
26C
330
24B
100
AcDbSymbolTableRecord
100
AcDbRegAppTableRecord
2
VD_INVISIBLE_NOT_FOR_READ
70
0
0
APPID
5
26D
330
24B
100
AcDbSymbolTableRecord
100
AcDbRegAppTableRecord
2
VD_TEMPHATCH
70
0
0
APPID
5
26E
330
24B
100
AcDbSymbolTableRecord
100
AcDbRegAppTableRecord
2
VDEXTRAPARAM
70
0
0
APPID
5
26F
330
24B
100
AcDbSymbolTableRecord
100
AcDbRegAppTableRecord
2
PE_URL
70
0
0
APPID
5
270
330
24B
100
AcDbSymbolTableRecord
100
AcDbRegAppTableRecord
2
VD_UNKNOWN
70
0
0
APPID
5
28F
330
24B
100
AcDbSymbolTableRecord
100
AcDbRegAppTableRecord
2
AcadAnnotative
70
0
0
APPID
5
290
330
24B
100
AcDbSymbolTableRecord
100
AcDbRegAppTableRecord
2
ACAD_DSTYLE_DIMJAG
70
0
0
APPID
5
291
330
24B
100
AcDbSymbolTableRecord
100
AcDbRegAppTableRecord
2
ACAD_DSTYLE_DIMTALN
70
0
0
APPID
5
293
330
24B
100
AcDbSymbolTableRecord
100
AcDbRegAppTableRecord
2
ACAD_PSEXT
70
0
0
APPID
5
42A
330
24B
100
AcDbSymbolTableRecord
100
AcDbRegAppTableRecord
2
ACAD_MLEADERVER
70
0
0
APPID
5
532
330
24B
100
AcDbSymbolTableRecord
100
AcDbRegAppTableRecord
2
ACAD_EXEMPT_FROM_CAD_STANDARDS
70
0
0
APPID
5
57F
330
24B
100
AcDbSymbolTableRecord
100
AcDbRegAppTableRecord
2
AcAecLayerStandard
70
0
0
ENDTAB
0
TABLE
2
DIMSTYLE
5
24C
330
0
100
AcDbSymbolTable
70
3
100
AcDbDimStyleTable
71
2
340
27
340
269
0
DIMSTYLE
105
269
330
24C
100
AcDbSymbolTableRecord
100
AcDbDimStyleTableRecord
2
Standard
70
0
172
1
174
1
288
1
340
253
342
23C
0
DIMSTYLE
105
137
330
24C
100
AcDbSymbolTableRecord
100
AcDbDimStyleTableRecord
2
Beschriftung
70
0
41
2.5
42
0.625
44
1.25
73
0
74
0
77
1
140
2.5
147
0.625
172
1
174
1
271
2
288
1
340
253
342
23C
1001
AcadAnnotative
1000
AnnotativeData
1070
1
1070
1
1001
ACAD_DSTYLE_DIMJAG
1070
388
1040
1.5
1001
ACAD_DSTYLE_DIMTALN
1070
392
1070
0
0
DIMSTYLE
105
27
102
{ACAD_REACTORS
330
F10008
330
F10017
330
F1001C
330
F10026
330
F1002B
330
F10003
330
F1000D
330
F10012
330
F10021
102
}
330
24C
100
AcDbSymbolTableRecord
100
AcDbDimStyleTableRecord
2
BEM-ISBE
70
0
41
2.5
42
0.625
44
1.25
48
0.000000001
71
1
73
0
74
0
77
1
140
2.5
144
1.00000000000000
146
0.5
147
0.625
171
 3
172
 1
179
 3
271
 3
272
 3
274
 3
340
253
342
23C
1001
ACAD_DSTYLE_DIMJAG
1070
388
1040
1.5
1001
ACAD_DSTYLE_DIMTALN
1070
392
1070
1
0
ENDTAB
0
TABLE
2
BLOCK_RECORD
5
243
330
0
100
AcDbSymbolTable
70
5
0
BLOCK_RECORD
5
261
330
243
100
AcDbSymbolTableRecord
100
AcDbBlockTableRecord
2
*Model_Space
340
FD0
0
BLOCK_RECORD
5
25D
330
243
100
AcDbSymbolTableRecord
100
AcDbBlockTableRecord
2
*Paper_Space
340
FD1
0
BLOCK_RECORD
5
265
330
243
100
AcDbSymbolTableRecord
100
AcDbBlockTableRecord
2
*Paper_Space0
340
0
0
BLOCK_RECORD
5
23C
330
243
100
AcDbSymbolTableRecord
100
AcDbBlockTableRecord
2
VDDIM_DEFAULT
340
0
102
{BLKREFS
102
}
0
BLOCK_RECORD
5
23E
330
243
100
AcDbSymbolTableRecord
100
AcDbBlockTableRecord
2
VDDIM_NONE
340
0
0
BLOCK_RECORD
5
F10007
330
243
100
AcDbSymbolTableRecord
100
AcDbBlockTableRecord
2
*D4
340
0
0
BLOCK_RECORD
5
F10016
330
243
100
AcDbSymbolTableRecord
100
AcDbBlockTableRecord
2
*D7
340
0
0
BLOCK_RECORD
5
F1001B
330
243
100
AcDbSymbolTableRecord
100
AcDbBlockTableRecord
2
*D8
340
0
0
BLOCK_RECORD
5
F10025
330
243
100
AcDbSymbolTableRecord
100
AcDbBlockTableRecord
2
*D10
340
0
0
BLOCK_RECORD
5
F1002A
330
243
100
AcDbSymbolTableRecord
100
AcDbBlockTableRecord
2
*D11
340
0
0
BLOCK_RECORD
5
F10002
330
243
100
AcDbSymbolTableRecord
100
AcDbBlockTableRecord
2
*D3
340
0
0
BLOCK_RECORD
5
F1000C
330
243
100
AcDbSymbolTableRecord
100
AcDbBlockTableRecord
2
*D5
340
0
0
BLOCK_RECORD
5
F10011
330
243
100
AcDbSymbolTableRecord
100
AcDbBlockTableRecord
2
*D6
340
0
0
BLOCK_RECORD
5
F10020
330
243
100
AcDbSymbolTableRecord
100
AcDbBlockTableRecord
2
*D9
340
0
0
ENDTAB
0
ENDSEC
0
SECTION
2
BLOCKS
0
BLOCK
5
262
330
261
100
AcDbEntity
8
0
100
AcDbBlockBegin
2
*Model_Space
70
0
10
0.0
20
0.0
30
0.0
3
*Model_Space
1

0
ENDBLK
5
263
330
261
100
AcDbEntity
8
0
100
AcDbBlockEnd
0
BLOCK
5
25E
330
25D
100
AcDbEntity
67
1
8
0
100
AcDbBlockBegin
2
*Paper_Space
70
0
10
0.0
20
0.0
30
0.0
3
*Paper_Space
1

0
ENDBLK
5
25F
330
25D
100
AcDbEntity
67
1
8
0
100
AcDbBlockEnd
0
BLOCK
5
266
330
265
100
AcDbEntity
8
0
100
AcDbBlockBegin
2
*Paper_Space0
70
0
10
0.0
20
0.0
30
0.0
3
*Paper_Space0
1

0
VIEWPORT
5
296
102
{ACAD_XDICTIONARY
360
58E
102
}
330
265
100
AcDbEntity
8
0
60
1
100
AcDbViewport
10
0.0
20
0.0
30
0.0
40
10.0
41
10.0
69
0
12
0.0
22
0.0
13
0.0
23
0.0
14
1.0
24
1.0
15
0.0
25
0.0
16
0.0
26
0.0
36
1.0
17
0.0
27
0.0
37
0.0
42
0.0
43
0.0
44
0.0
45
10.0
50
0.0
51
0.0000000000007958
72
100
90
163872
1

281
0
71
0
74
0
110
0.0
120
0.0
130
0.0
111
1.0
121
0.0
131
0.0
112
0.0
122
1.0
132
0.0
79
0
146
0.0
1001
VD_INVISIBLE_NOT_FOR_READ
1000
VD_INVISIBLE_NOT_FOR_READ
0
VIEWPORT
5
297
102
{ACAD_XDICTIONARY
360
590
102
}
330
265
100
AcDbEntity
8
0
60
1
100
AcDbViewport
10
0.0
20
0.0
30
0.0
40
10.0
41
10.0
69
0
12
0.0
22
0.0
13
0.0
23
0.0
14
1.0
24
1.0
15
0.0
25
0.0
16
0.0
26
0.0
36
1.0
17
0.0
27
0.0
37
0.0
42
0.0
43
0.0
44
0.0
45
10.0
50
0.0
51
0.0000000000007958
72
100
90
163872
1

281
0
71
0
74
0
110
0.0
120
0.0
130
0.0
111
1.0
121
0.0
131
0.0
112
0.0
122
1.0
132
0.0
79
0
146
0.0
1001
VD_INVISIBLE_NOT_FOR_READ
1000
VD_INVISIBLE_NOT_FOR_READ
0
ENDBLK
5
267
330
265
100
AcDbEntity
8
0
100
AcDbBlockEnd
0
BLOCK
5
28B
330
23C
100
AcDbEntity
8
0
100
AcDbBlockBegin
2
VDDIM_DEFAULT
70
0
10
0.0
20
0.0
30
0.0
3
VDDIM_DEFAULT
1

0
LWPOLYLINE
5
23D
330
23C
100
AcDbEntity
8
0
6
Continuous
62
0
100
AcDbPolyline
90
4
70
0
43
0.0
10
0.0
20
0.0
10
-1.0
20
-0.1665
10
-1.0
20
0.1665
10
0.0
20
0.0
1001
VDEXTRAPARAM
1071
1
1071
0
1071
0
1040
1.0
1000

1000

1040
0.0
1040
0.0
0
HATCH
5
292
330
23C
100
AcDbEntity
8
0
6
Continuous
62
0
100
AcDbHatch
10
0.0
20
0.0
30
0.0
210
0.0
220
0.0
230
1.0
2
SOLID
70
1
71
0
91
1
92
2
72
0
73
1
93
3
10
0.0
20
0.0
10
-1.0
20
-0.1665
10
-1.0
20
0.1665
97
0
75
0
76
1
98
1
10
0.0
20
0.0
1001
VDEXTRAPARAM
1071
1
1071
0
1071
0
1040
1.0
1000

1000

1040
0.0
1040
0.0
1001
VD_TEMPHATCH
1000
VD_TEMPHATCH
0
ENDBLK
5
28C
330
23C
100
AcDbEntity
8
0
100
AcDbBlockEnd
0
BLOCK
5
28D
330
23E
100
AcDbEntity
8
0
100
AcDbBlockBegin
2
VDDIM_NONE
70
0
10
0.0
20
0.0
30
0.0
3
VDDIM_NONE
1

0
ENDBLK
5
28E
330
23E
100
AcDbEntity
8
0
100
AcDbBlockEnd
  0
BLOCK
  5
F1002F
330
F10007
100
AcDbEntity
  8
0
100
AcDbBlockBegin
  2
*D4
 70
     1
 10
0.0
 20
0.0
 30
0.0
  3
*D4
  1

  0
LINE
  5
F10030
330
F10007
100
AcDbEntity
  8
Bemassung
 62
     0
370
    -2
100
AcDbLine
10
-108.963748056180
20
-13.6406032282049
30
0.000000000000000
11
-108.963748056180
21
26.3593967717951
31
0.000000000000000
  0
LINE
  5
F10031
330
F10007
100
AcDbEntity
  8
Bemassung
 62
     0
370
    -2
100
AcDbLine
10
-108.863748056180
20
-0.640603228204853
30
0.000000000000000
11
-108.863748056180
21
11.3593967717951
31
0.000000000000000
  0
LINE
  5
F10032
330
F10007
100
AcDbEntity
  8
Bemassung
 62
     0
370
    -2
100
AcDbLine
10
-115.347888906865
20
9.35939677179526
30
0.000000000000000
11
-108.863748056180
21
9.35939677179515
31
0.000000000000000
  0
INSERT
  5
F10033
330
F10007
100
AcDbEntity
  8
Bemassung
 62
     0
370
    -2
100
AcDbBlockReference
  2
VDDIM_DEFAULT
10
-108.963748056180
20
9.35939677179515
30
0.000000000000000
 41
2.50000000000000
 42
2.50000000000000
 43
2.50000000000000
  0
INSERT
  5
F10034
330
F10007
100
AcDbEntity
  8
Bemassung
 62
     0
370
    -2
100
AcDbBlockReference
  2
VDDIM_DEFAULT
10
-108.863748056180
20
9.35939677179515
30
0.000000000000000
 41
2.50000000000000
 42
2.50000000000000
 43
2.50000000000000
 50
180.000000000000
  0
MTEXT
  5
F10035
330
F10007
100
AcDbEntity
  8
Bemassung
 62
     0
100
AcDbMText
10
-109.169954552700
20
10.0260634384618
30
0.000000000000000
 40
2.50000000000000
 41
0.0
 71
     8
 72
     1
  1
0.1 x 45°
 11
1.00000000000000
 21
0.000000000000000
 31
0.0
 73
     1
 44
1.0
1001
ACAD
1000
MTEXTBEGIN
1070
73
1070
1
1070
44
1040
1.0
1070
74
1070
0
1000
MTEXTEND
  0
POINT
  5
F10036
330
F10007
100
AcDbEntity
  8
Bemassung
 62
     0
100
AcDbPoint
10
-108.963748056180
20
-13.6406032282049
30
0.000000000000000
  0
POINT
  5
F10037
330
F10007
100
AcDbEntity
  8
Bemassung
 62
     0
100
AcDbPoint
10
-108.863748056180
20
-0.640603228204853
30
0.000000000000000
  0
ENDBLK
  5
F10038
330
F10007
100
AcDbEntity
  8
0
100
AcDbBlockEnd
  0
BLOCK
  5
F10039
330
F10016
100
AcDbEntity
  8
0
100
AcDbBlockBegin
  2
*D7
 70
     1
 10
0.0
 20
0.0
 30
0.0
  3
*D7
  1

  0
LINE
  5
F1003A
330
F10016
100
AcDbEntity
  8
Bemassung
 62
     0
370
    -2
100
AcDbLine
10
-108.963748056180
20
-13.6406032282049
30
0.000000000000000
11
-108.963748056180
21
26.3593967717951
31
0.000000000000000
  0
LINE
  5
F1003B
330
F10016
100
AcDbEntity
  8
Bemassung
 62
     0
370
    -2
100
AcDbLine
10
-83.9637480561802
20
-0.740603228204853
30
0.000000000000000
11
-83.9637480561802
21
16.3593967717951
31
0.000000000000000
  0
LINE
  5
F1003C
330
F10016
100
AcDbEntity
  8
Bemassung
 62
     0
370
    -2
100
AcDbLine
10
-108.963748056180
20
14.3593967717951
30
0.000000000000000
11
-58.3156211764896
21
14.3593967717951
31
0.000000000000000
  0
INSERT
  5
F1003D
330
F10016
100
AcDbEntity
  8
Bemassung
 62
     0
370
    -2
100
AcDbBlockReference
  2
VDDIM_DEFAULT
10
-108.963748056180
20
14.3593967717951
30
0.000000000000000
 41
2.50000000000000
 42
2.50000000000000
 43
2.50000000000000
 50
180.000000000000
  0
INSERT
  5
F1003E
330
F10016
100
AcDbEntity
  8
Bemassung
 62
     0
370
    -2
100
AcDbBlockReference
  2
VDDIM_DEFAULT
10
-83.9637480561802
20
14.3593967717951
30
0.000000000000000
 41
2.50000000000000
 42
2.50000000000000
 43
2.50000000000000
  0
MTEXT
  5
F1003F
330
F10016
100
AcDbEntity
  8
Bemassung
 62
     0
100
AcDbMText
10
-96.4637480561802
20
15.0260634384618
30
0.000000000000000
 40
2.50000000000000
 41
0.0
 71
     8
 72
     1
  1
25
 11
1.00000000000000
 21
0.000000000000000
 31
0.0
 73
     1
 44
1.0
1001
ACAD
1000
MTEXTBEGIN
1070
73
1070
1
1070
44
1040
1.0
1070
74
1070
0
1000
MTEXTEND
  0
POINT
  5
F10040
330
F10016
100
AcDbEntity
  8
Bemassung
 62
     0
100
AcDbPoint
10
-108.963748056180
20
-13.6406032282049
30
0.000000000000000
  0
POINT
  5
F10041
330
F10016
100
AcDbEntity
  8
Bemassung
 62
     0
100
AcDbPoint
10
-83.9637480561802
20
-0.740603228204853
30
0.000000000000000
  0
ENDBLK
  5
F10042
330
F10016
100
AcDbEntity
  8
0
100
AcDbBlockEnd
  0
BLOCK
  5
F10043
330
F1001B
100
AcDbEntity
  8
0
100
AcDbBlockBegin
  2
*D8
 70
     1
 10
0.0
 20
0.0
 30
0.0
  3
*D8
  1

  0
LINE
  5
F10044
330
F1001B
100
AcDbEntity
  8
Bemassung
 62
     0
370
    -2
100
AcDbLine
10
-83.9637480561802
20
-0.740603228204853
30
0.000000000000000
11
-83.9637480561802
21
21.3593967717951
31
0.000000000000000
  0
LINE
  5
F10045
330
F1001B
100
AcDbEntity
  8
Bemassung
 62
     0
370
    -2
100
AcDbLine
10
-51.9637480561802
20
-1.14060322820485
30
0.000000000000000
11
-51.9637480561802
21
26.3593967717951
31
0.000000000000000
  0
LINE
  5
F10046
330
F1001B
100
AcDbEntity
  8
Bemassung
 62
     0
370
    -2
100
AcDbLine
10
-83.9637480561802
20
19.3593967717951
30
0.000000000000000
11
55.7489142842615
21
19.3593967717951
31
0.000000000000000
  0
INSERT
  5
F10047
330
F1001B
100
AcDbEntity
  8
Bemassung
 62
     0
370
    -2
100
AcDbBlockReference
  2
VDDIM_DEFAULT
10
-83.9637480561802
20
19.3593967717951
30
0.000000000000000
 41
2.50000000000000
 42
2.50000000000000
 43
2.50000000000000
 50
180.000000000000
  0
INSERT
  5
F10048
330
F1001B
100
AcDbEntity
  8
Bemassung
 62
     0
370
    -2
100
AcDbBlockReference
  2
VDDIM_DEFAULT
10
-51.9637480561802
20
19.3593967717951
30
0.000000000000000
 41
2.50000000000000
 42
2.50000000000000
 43
2.50000000000000
  0
MTEXT
  5
F10049
330
F1001B
100
AcDbEntity
  8
Bemassung
 62
     0
100
AcDbMText
10
-67.9637480561802
20
20.0260634384618
30
0.000000000000000
 40
2.50000000000000
 41
0.0
 71
     8
 72
     1
  1
32
 11
1.00000000000000
 21
0.000000000000000
 31
0.0
 73
     1
 44
1.0
1001
ACAD
1000
MTEXTBEGIN
1070
73
1070
1
1070
44
1040
1.0
1070
74
1070
0
1000
MTEXTEND
  0
POINT
  5
F1004A
330
F1001B
100
AcDbEntity
  8
Bemassung
 62
     0
100
AcDbPoint
10
-83.9637480561802
20
-0.740603228204853
30
0.000000000000000
  0
POINT
  5
F1004B
330
F1001B
100
AcDbEntity
  8
Bemassung
 62
     0
100
AcDbPoint
10
-51.9637480561802
20
-1.14060322820485
30
0.000000000000000
  0
ENDBLK
  5
F1004C
330
F1001B
100
AcDbEntity
  8
0
100
AcDbBlockEnd
  0
BLOCK
  5
F1004D
330
F10025
100
AcDbEntity
  8
0
100
AcDbBlockBegin
  2
*D10
 70
     1
 10
0.0
 20
0.0
 30
0.0
  3
*D10
  1

  0
LINE
  5
F1004E
330
F10025
100
AcDbEntity
  8
Bemassung
 62
     0
370
    -2
100
AcDbLine
10
-89.9637480561802
20
-6.54060322820485
30
0.000000000000000
11
-89.9637480561802
21
-13.6406032282049
31
0.000000000000000
  0
LINE
  5
F1004F
330
F10025
100
AcDbEntity
  8
Bemassung
 62
     0
370
    -2
100
AcDbLine
10
-108.963748056180
20
-13.6406032282049
30
0.000000000000000
11
-108.963748056180
21
26.3593967717951
31
0.000000000000000
  0
LINE
  5
F10050
330
F10025
100
AcDbEntity
  8
Bemassung
 62
     0
370
    -2
100
AcDbLine
10
-70.2708388106920
20
-11.6406032282049
30
0.000000000000000
11
-108.963748056180
21
-11.6406032282049
31
0.000000000000000
  0
INSERT
  5
F10051
330
F10025
100
AcDbEntity
  8
Bemassung
 62
     0
370
    -2
100
AcDbBlockReference
  2
VDDIM_DEFAULT
10
-89.9637480561802
20
-11.6406032282049
30
0.000000000000000
 41
2.50000000000000
 42
2.50000000000000
 43
2.50000000000000
  0
INSERT
  5
F10052
330
F10025
100
AcDbEntity
  8
Bemassung
 62
     0
370
    -2
100
AcDbBlockReference
  2
VDDIM_DEFAULT
10
-108.963748056180
20
-11.6406032282049
30
0.000000000000000
 41
2.50000000000000
 42
2.50000000000000
 43
2.50000000000000
 50
180.000000000000
  0
MTEXT
  5
F10053
330
F10025
100
AcDbEntity
  8
Bemassung
 62
     0
100
AcDbMText
10
-99.4637480561802
20
-10.9739365615382
30
0.000000000000000
 40
2.50000000000000
 41
0.0
 71
     8
 72
     1
  1
19
 11
1.00000000000000
 21
0.000000000000000
 31
0.0
 73
     1
 44
1.0
1001
ACAD
1000
MTEXTBEGIN
1070
73
1070
1
1070
44
1040
1.0
1070
74
1070
0
1000
MTEXTEND
  0
POINT
  5
F10054
330
F10025
100
AcDbEntity
  8
Bemassung
 62
     0
100
AcDbPoint
10
-89.9637480561802
20
-6.54060322820485
30
0.000000000000000
  0
POINT
  5
F10055
330
F10025
100
AcDbEntity
  8
Bemassung
 62
     0
100
AcDbPoint
10
-108.963748056180
20
-13.6406032282049
30
0.000000000000000
  0
ENDBLK
  5
F10056
330
F10025
100
AcDbEntity
  8
0
100
AcDbBlockEnd
  0
BLOCK
  5
F10057
330
F1002A
100
AcDbEntity
  8
0
100
AcDbBlockBegin
  2
*D11
 70
     1
 10
0.0
 20
0.0
 30
0.0
  3
*D11
  1

  0
LINE
  5
F10058
330
F1002A
100
AcDbEntity
  8
Bemassung
 62
     0
370
    -2
100
AcDbLine
10
-51.9637480561802
20
-1.14060322820485
30
0.000000000000000
11
-51.9637480561802
21
26.3593967717951
31
0.000000000000000
  0
LINE
  5
F10059
330
F1002A
100
AcDbEntity
  8
Bemassung
 62
     0
370
    -2
100
AcDbLine
10
-108.963748056180
20
-13.6406032282049
30
0.000000000000000
11
-108.963748056180
21
26.3593967717951
31
0.000000000000000
  0
LINE
  5
F1005A
330
F1002A
100
AcDbEntity
  8
Bemassung
 62
     0
370
    -2
100
AcDbLine
10
5.77218482980868
20
24.3593967717951
30
0.000000000000000
11
-108.963748056180
21
24.3593967717951
31
0.000000000000000
  0
INSERT
  5
F1005B
330
F1002A
100
AcDbEntity
  8
Bemassung
 62
     0
370
    -2
100
AcDbBlockReference
  2
VDDIM_DEFAULT
10
-51.9637480561802
20
24.3593967717951
30
0.000000000000000
 41
2.50000000000000
 42
2.50000000000000
 43
2.50000000000000
  0
INSERT
  5
F1005C
330
F1002A
100
AcDbEntity
  8
Bemassung
 62
     0
370
    -2
100
AcDbBlockReference
  2
VDDIM_DEFAULT
10
-108.963748056180
20
24.3593967717951
30
0.000000000000000
 41
2.50000000000000
 42
2.50000000000000
 43
2.50000000000000
 50
180.000000000000
  0
MTEXT
  5
F1005D
330
F1002A
100
AcDbEntity
  8
Bemassung
 62
     0
100
AcDbMText
10
-80.4637480561802
20
25.0260634384618
30
0.000000000000000
 40
2.50000000000000
 41
0.0
 71
     8
 72
     1
  1
57
 11
1.00000000000000
 21
0.000000000000000
 31
0.0
 73
     1
 44
1.0
1001
ACAD
1000
MTEXTBEGIN
1070
73
1070
1
1070
44
1040
1.0
1070
74
1070
0
1000
MTEXTEND
  0
POINT
  5
F1005E
330
F1002A
100
AcDbEntity
  8
Bemassung
 62
     0
100
AcDbPoint
10
-51.9637480561802
20
-1.14060322820485
30
0.000000000000000
  0
POINT
  5
F1005F
330
F1002A
100
AcDbEntity
  8
Bemassung
 62
     0
100
AcDbPoint
10
-108.963748056180
20
-13.6406032282049
30
0.000000000000000
  0
ENDBLK
  5
F10060
330
F1002A
100
AcDbEntity
  8
0
100
AcDbBlockEnd
  0
BLOCK
  5
F10061
330
F10002
100
AcDbEntity
  8
0
100
AcDbBlockBegin
  2
*D3
 70
     1
 10
0.0
 20
0.0
 30
0.0
  3
*D3
  1

 0
ARC
  5
F10062
330
F10002
100
AcDbEntity
  8
Bemassung
 62
     0
370
   -2
100
AcDbCircle
10
-108.963748056180
20
-0.740603228204853
30
0.000000000000000
 40
8.60126386245317
100
AcDbArc
 50
90.0000000000000
 51
109.154953886197
  0
LINE
  5
F10063
330
F10002
100
AcDbEntity
  8
Bemassung
 62
     0
370
    -2
100
AcDbLine
10
-108.963748056180
20
-0.740603228204853
30
0.000000000000000
11
-108.963748056180
21
9.86066063424831
31
0.000000000000000
  0
LINE
  5
F10064
330
F10002
100
AcDbEntity
  8
Bemassung
 62
     0
370
    -2
100
AcDbLine
10
-108.963748056180
20
-0.740603228204853
30
0.000000000000000
11
-109.333726829390
21
9.85420263073987
31
0.000000000000000
  0
INSERT
  5
F10065
330
F10002
100
AcDbEntity
  8
Bemassung
 62
     0
370
    -2
100
AcDbBlockReference
  2
VDDIM_DEFAULT
10
-108.963748056180
20
7.86066063424831
30
0.000000000000000
 41
2.50000000000000
 42
2.50000000000000
 43
2.50000000000000
 50
179.666932074604
  0
INSERT
  5
F10066
330
F10002
100
AcDbEntity
  8
Bemassung
 62
     0
370
    -2
100
AcDbBlockReference
  2
VDDIM_DEFAULT
10
-109.263927835985
20
7.85542097670168
30
0.000000000000000
 41
2.50000000000000
 42
2.50000000000000
 43
2.50000000000000
 50
2.33306792539444
  0
MTEXT
  5
F10067
330
F10002
100
AcDbEntity
  8
Bemassung
 62
     0
100
AcDbMText
10
-113.296694691911
20
6.68955918478789
30
0.000000000000000
 40
2.50000000000000
 41
0.0
 71
     8
 72
     1
  1
2°
 11
0.865426285481126
 21
0.501036270541705
 31
0.0
 73
     1
 44
1.0
1001
ACAD
1000
MTEXTBEGIN
1070
73
1070
1
1070
44
1040
1.0
1070
74
1070
0
1000
MTEXTEND
  0
POINT
  5
F10068
330
F10002
100
AcDbEntity
  8
Bemassung
 62
     0
100
AcDbPoint
10
-108.963748056180
20
-0.740603228204853
30
0.000000000000000
  0
POINT
  5
F10069
330
F10002
100
AcDbEntity
  8
Bemassung
 62
     0
100
AcDbPoint
10
-108.963748056180
20
7.86066063424831
30
0.000000000000000
  0
POINT
  5
F1006A
330
F10002
100
AcDbEntity
  8
Bemassung
 62
     0
100
AcDbPoint
10
-109.263927835985
20
7.85542097670168
30
0.000000000000000
  0
POINT
  5
F1006B
330
F10002
100
AcDbEntity
  8
Bemassung
 62
     0
100
AcDbPoint
10
-109.113860808982
20
7.85935062010090
30
0.000000000000000
  0
ENDBLK
  5
F1006C
330
F10002
100
AcDbEntity
  8
0
100
AcDbBlockEnd
  0
BLOCK
  5
F1006D
330
F1000C
100
AcDbEntity
  8
0
100
AcDbBlockBegin
  2
*D5
 70
     1
 10
0.0
 20
0.0
 30
0.0
  3
*D5
  1

  0
LINE
  5
F1006E
330
F1000C
100
AcDbEntity
  8
Bemassung
 62
     0
370
    -2
100
AcDbLine
10
-108.863748056180
20
-6.64060322820485
30
0.000000000000000
11
-120.963748056180
21
-6.64060322820485
31
0.000000000000000
  0
LINE
  5
F1006F
330
F1000C
100
AcDbEntity
  8
Bemassung
 62
     0
370
    -2
100
AcDbLine
10
-108.863748056180
20
-0.640603228204853
30
0.000000000000000
11
-120.963748056180
21
-0.640603228204853
31
0.000000000000000
  0
LINE
  5
F10070
330
F1000C
100
AcDbEntity
  8
Bemassung
 62
     0
370
    -2
100
AcDbLine
10
-118.963748056180
20
-6.64060322820485
30
0.000000000000000
11
-118.963748056180
21
-0.640603228204853
31
0.000000000000000
  0
INSERT
  5
F10071
330
F1000C
100
AcDbEntity
  8
Bemassung
 62
     0
370
    -2
100
AcDbBlockReference
  2
VDDIM_DEFAULT
10
-118.963748056180
20
-6.64060322820485
30
0.000000000000000
 41
2.50000000000000
 42
2.50000000000000
 43
2.50000000000000
 50
270.000000000000
  0
INSERT
  5
F10072
330
F1000C
100
AcDbEntity
  8
Bemassung
 62
     0
370
    -2
100
AcDbBlockReference
  2
VDDIM_DEFAULT
10
-118.963748056180
20
-0.640603228204853
30
0.000000000000000
 41
2.50000000000000
 42
2.50000000000000
 43
2.50000000000000
 50
90.0000000000000
  0
MTEXT
  5
F10073
330
F1000C
100
AcDbEntity
  8
Bemassung
 62
     0
100
AcDbMText
10
-118.297081389513
20
-3.64060322820485
30
0.000000000000000
 40
2.50000000000000
 41
0.0
 71
     8
 72
     1
  1
6
 11
6.12323399573677e-017
 21
1.00000000000000
 31
0.0
 73
     1
 44
1.0
1001
ACAD
1000
MTEXTBEGIN
1070
73
1070
1
1070
44
1040
1.0
1070
74
1070
0
1000
MTEXTEND
  0
POINT
  5
F10074
330
F1000C
100
AcDbEntity
  8
Bemassung
 62
     0
100
AcDbPoint
10
-108.863748056180
20
-6.64060322820485
30
0.000000000000000
  0
POINT
  5
F10075
330
F1000C
100
AcDbEntity
  8
Bemassung
 62
     0
100
AcDbPoint
10
-108.863748056180
20
-0.640603228204853
30
0.000000000000000
  0
ENDBLK
  5
F10076
330
F1000C
100
AcDbEntity
  8
0
100
AcDbBlockEnd
  0
BLOCK
  5
F10077
330
F10011
100
AcDbEntity
  8
0
100
AcDbBlockBegin
  2
*D6
 70
     1
 10
0.0
 20
0.0
 30
0.0
  3
*D6
  1

  0
LINE
  5
F10078
330
F10011
100
AcDbEntity
  8
Bemassung
 62
     0
370
    -2
100
AcDbLine
10
-89.9637480561802
20
-6.54060322820485
30
0.000000000000000
11
-82.9637480561802
21
-6.54060322820485
31
0.000000000000000
  0
LINE
  5
F10079
330
F10011
100
AcDbEntity
  8
Bemassung
 62
     0
370
    -2
100
AcDbLine
10
-89.9637480561802
20
-0.740603228204853
30
0.000000000000000
11
-82.9637480561802
21
-0.740603228204853
31
0.000000000000000
  0
LINE
  5
F1007A
330
F10011
100
AcDbEntity
  8
Bemassung
 62
     0
370
    -2
100
AcDbLine
10
-84.9637480561802
20
-29.5705083171084
30
0.000000000000000
11
-84.9637480561802
21
-0.740603228204853
31
0.000000000000000
  0
INSERT
  5
F1007B
330
F10011
100
AcDbEntity
  8
Bemassung
 62
     0
370
    -2
100
AcDbBlockReference
  2
VDDIM_DEFAULT
10
-84.9637480561802
20
-6.54060322820485
30
0.000000000000000
 41
2.50000000000000
 42
2.50000000000000
 43
2.50000000000000
 50
270.000000000000
  0
INSERT
  5
F1007C
330
F10011
100
AcDbEntity
  8
Bemassung
 62
     0
370
    -2
100
AcDbBlockReference
  2
VDDIM_DEFAULT
10
-84.9637480561802
20
-0.740603228204853
30
0.000000000000000
 41
2.50000000000000
 42
2.50000000000000
 43
2.50000000000000
 50
90.0000000000000
  0
MTEXT
  5
F1007D
330
F10011
100
AcDbEntity
  8
Bemassung
 62
     0
100
AcDbMText
10
-84.2970813895135
20
-9.29013400952320
30
0.000000000000000
 40
2.50000000000000
 41
0.0
 71
     8
 72
     1
  1
5.8
 11
6.12323399573677e-017
 21
1.00000000000000
 31
0.0
 73
     1
 44
1.0
1001
ACAD
1000
MTEXTBEGIN
1070
73
1070
1
1070
44
1040
1.0
1070
74
1070
0
1000
MTEXTEND
  0
POINT
  5
F1007E
330
F10011
100
AcDbEntity
  8
Bemassung
 62
     0
100
AcDbPoint
10
-89.9637480561802
20
-6.54060322820485
30
0.000000000000000
  0
POINT
  5
F1007F
330
F10011
100
AcDbEntity
  8
Bemassung
 62
     0
100
AcDbPoint
10
-89.9637480561802
20
-0.740603228204853
30
0.000000000000000
  0
ENDBLK
  5
F10080
330
F10011
100
AcDbEntity
  8
0
100
AcDbBlockEnd
  0
BLOCK
  5
F10081
330
F10020
100
AcDbEntity
  8
0
100
AcDbBlockBegin
  2
*D9
 70
     1
 10
0.0
 20
0.0
 30
0.0
  3
*D9
  1

  0
LINE
  5
F10082
330
F10020
100
AcDbEntity
  8
Bemassung
 62
     0
370
    -2
100
AcDbLine
10
-52.4637480561802
20
-6.64060322820485
30
0.000000000000000
11
-39.9637480561802
21
-6.64060322820485
31
0.000000000000000
  0
LINE
  5
F10083
330
F10020
100
AcDbEntity
  8
Bemassung
 62
     0
370
    -2
100
AcDbLine
10
-52.4637480561802
20
-0.640603228204853
30
0.000000000000000
11
-39.9637480561802
21
-0.640603228204853
31
0.000000000000000
  0
LINE
  5
F10084
330
F10020
100
AcDbEntity
  8
Bemassung
 62
     0
370
    -2
100
AcDbLine
10
-41.9637480561802
20
-6.64060322820485
30
0.000000000000000
11
-41.9637480561802
21
-0.640603228204853
31
0.000000000000000
  0
INSERT
  5
F10085
330
F10020
100
AcDbEntity
  8
Bemassung
 62
     0
370
    -2
100
AcDbBlockReference
  2
VDDIM_DEFAULT
10
-41.9637480561802
20
-6.64060322820485
30
0.000000000000000
 41
2.50000000000000
 42
2.50000000000000
 43
2.50000000000000
 50
270.000000000000
  0
INSERT
  5
F10086
330
F10020
100
AcDbEntity
  8
Bemassung
 62
     0
370
    -2
100
AcDbBlockReference
  2
VDDIM_DEFAULT
10
-41.9637480561802
20
-0.640603228204853
30
0.000000000000000
 41
2.50000000000000
 42
2.50000000000000
 43
2.50000000000000
 50
90.0000000000000
  0
MTEXT
  5
F10087
330
F10020
100
AcDbEntity
  8
Bemassung
 62
     0
100
AcDbMText
10
-41.2970813895135
20
-3.64060322820485
30
0.000000000000000
 40
2.50000000000000
 41
0.0
 71
     8
 72
     1
  1
6h6
 11
6.12323399573677e-017
 21
1.00000000000000
 31
0.0
 73
     1
 44
1.0
  0
POINT
  5
F10088
330
F10020
100
AcDbEntity
  8
Bemassung
 62
     0
100
AcDbPoint
10
-52.4637480561802
20
-6.64060322820485
30
0.000000000000000
  0
POINT
  5
F10089
330
F10020
100
AcDbEntity
  8
Bemassung
 62
     0
100
AcDbPoint
10
-52.4637480561802
20
-0.640603228204853
30
0.000000000000000
  0
ENDBLK
  5
F1008A
330
F10020
100
AcDbEntity
  8
0
100
AcDbBlockEnd
0
ENDSEC
0
SECTION
2
ENTITIES
  0
DIMENSION
  5
F10008
330
261
100
AcDbEntity
  8
Bemassung
100
AcDbDimension
  2
*D4
10
-108.863748056180
20
9.35939677179515
30
0.000000000000000
11
-109.169954552700
21
10.0260634384618
31
0.000000000000000
 70
32
 1
0.1 x 45°
 71
     8
  3
BEM-ISBE
100
AcDbAlignedDimension
13
-108.963748056180
23
-13.6406032282049
33
0.000000000000000
14
-108.863748056180
24
-0.640603228204853
34
0.000000000000000
100
AcDbRotatedDimension
1001
ACAD
1000
DSTYLE
1002
{
1070
284
1070
8
1070
78
1070
8
1070
144
1040
1.00000000000000
1070
147
1040
0.625
1070
 72
1070
 0
1070
 71
1070
 0
1002
}
  0
DIMENSION
  5
F10017
330
261
100
AcDbEntity
  8
Bemassung
100
AcDbDimension
  2
*D7
10
-83.9637480561802
20
14.3593967717951
30
0.000000000000000
11
-96.4637480561802
21
15.0260634384618
31
0.000000000000000
 70
32
 1
25
 71
     8
  3
BEM-ISBE
100
AcDbAlignedDimension
13
-108.963748056180
23
-13.6406032282049
33
0.000000000000000
14
-83.9637480561802
24
-0.740603228204853
34
0.000000000000000
100
AcDbRotatedDimension
1001
ACAD
1000
DSTYLE
1002
{
1070
284
1070
8
1070
78
1070
8
1070
144
1040
1.00000000000000
1070
147
1040
0.625
1070
 72
1070
 0
1070
 71
1070
 0
1002
}
  0
DIMENSION
  5
F1001C
330
261
100
AcDbEntity
  8
Bemassung
100
AcDbDimension
  2
*D8
10
-51.9637480561802
20
19.3593967717951
30
0.000000000000000
11
-67.9637480561802
21
20.0260634384618
31
0.000000000000000
 70
32
 1
32
 71
     8
  3
BEM-ISBE
100
AcDbAlignedDimension
13
-83.9637480561802
23
-0.740603228204853
33
0.000000000000000
14
-51.9637480561802
24
-1.14060322820485
34
0.000000000000000
100
AcDbRotatedDimension
1001
ACAD
1000
DSTYLE
1002
{
1070
284
1070
8
1070
78
1070
8
1070
144
1040
1.00000000000000
1070
147
1040
0.625
1070
 72
1070
 0
1070
 71
1070
 0
1002
}
  0
DIMENSION
  5
F10026
330
261
100
AcDbEntity
  8
Bemassung
100
AcDbDimension
  2
*D10
10
-108.963748056180
20
-11.6406032282049
30
0.000000000000000
11
-99.4637480561802
21
-10.9739365615382
31
0.000000000000000
 70
32
 1
19
 71
     8
  3
BEM-ISBE
100
AcDbAlignedDimension
13
-89.9637480561802
23
-6.54060322820485
33
0.000000000000000
14
-108.963748056180
24
-13.6406032282049
34
0.000000000000000
100
AcDbRotatedDimension
1001
ACAD
1000
DSTYLE
1002
{
1070
284
1070
8
1070
78
1070
8
1070
144
1040
1.00000000000000
1070
147
1040
0.625
1070
 72
1070
 0
1070
 71
1070
 0
1002
}
  0
DIMENSION
  5
F1002B
330
261
100
AcDbEntity
  8
Bemassung
100
AcDbDimension
  2
*D11
10
-108.963748056180
20
24.3593967717951
30
0.000000000000000
11
-80.4637480561802
21
25.0260634384618
31
0.000000000000000
 70
32
 1
57
 71
     8
  3
BEM-ISBE
100
AcDbAlignedDimension
13
-51.9637480561802
23
-1.14060322820485
33
0.000000000000000
14
-108.963748056180
24
-13.6406032282049
34
0.000000000000000
100
AcDbRotatedDimension
1001
ACAD
1000
DSTYLE
1002
{
1070
284
1070
8
1070
78
1070
8
1070
144
1040
1.00000000000000
1070
147
1040
0.625
1070
 72
1070
 0
1070
 71
1070
 0
1002
}
  0
DIMENSION
  5
F10003
330
261
100
AcDbEntity
  8
Bemassung
100
AcDbDimension
  2
*D3
10
-108.963748056180
20
-0.740603228204853
30
0.000000000000000
11
-113.296694691911
21
6.68955918478789
31
0.000000000000000
 70
34
 1
2°
 71
     8
  3
BEM-ISBE
100
AcDb2LineAngularDimension
13
-108.963748056180
23
-0.740603228204853
33
0.000000000000000
14
-111.786029793180
24
7.38444851492513
34
0.000000000000000
15
-108.963748056180
25
7.86066063424831
35
0.000000000000000
16
-109.113860808982
26
7.85935062010090
36
0.000000000000000
1001
ACAD
1000
DSTYLE
1002
{
1070
284
1070
8
1070
79
1070
2
1070
147
1040
0.625
1070
 72
1070
 0
1070
 71
1070
 0
1002
}
  0
DIMENSION
  5
F1000D
330
261
100
AcDbEntity
  8
Bemassung
100
AcDbDimension
  2
*D5
10
-118.963748056180
20
-0.640603228204853
30
0.000000000000000
11
-118.297081389513
21
-3.64060322820485
31
0.000000000000000
 70
32
 1
6
 71
     8
  3
BEM-ISBE
100
AcDbAlignedDimension
13
-108.863748056180
23
-6.64060322820485
33
0.000000000000000
14
-108.863748056180
24
-0.640603228204853
34
0.000000000000000
50
90.0000000000000
100
AcDbRotatedDimension
1001
ACAD
1000
DSTYLE
1002
{
1070
284
1070
8
1070
78
1070
8
1070
144
1040
1.00000000000000
1070
147
1040
0.625
1070
 72
1070
 0
1070
 71
1070
 0
1002
}
  0
DIMENSION
  5
F10012
330
261
100
AcDbEntity
  8
Bemassung
100
AcDbDimension
  2
*D6
10
-84.9637480561802
20
-0.740603228204853
30
0.000000000000000
11
-84.2970813895135
21
-9.29013400952320
31
0.000000000000000
 70
32
 1
5.8
 71
     8
  3
BEM-ISBE
100
AcDbAlignedDimension
13
-89.9637480561802
23
-6.54060322820485
33
0.000000000000000
14
-89.9637480561802
24
-0.740603228204853
34
0.000000000000000
50
90.0000000000000
100
AcDbRotatedDimension
1001
ACAD
1000
DSTYLE
1002
{
1070
284
1070
8
1070
78
1070
8
1070
144
1040
1.00000000000000
1070
147
1040
0.625
1070
 72
1070
 0
1070
 71
1070
 0
1002
}
  0
DIMENSION
  5
F10021
330
261
100
AcDbEntity
  8
Bemassung
100
AcDbDimension
  2
*D9
10
-41.9637480561802
20
-0.640603228204853
30
0.000000000000000
11
-41.2970813895135
21
-3.64060322820485
31
0.000000000000000
 70
32
 1
6h6
 71
     8
  3
BEM-ISBE
100
AcDbAlignedDimension
13
-52.4637480561802
23
-6.64060322820485
33
0.000000000000000
14
-52.4637480561802
24
-0.640603228204853
34
0.000000000000000
50
90.0000000000000
100
AcDbRotatedDimension
1001
ACAD
1000
DSTYLE
1002
{
1070
284
1070
8
1070
78
1070
8
1070
144
1040
1.00000000000000
1070
147
1040
0.625
1070
 72
1070
 0
1070
 71
1070
 0
1002
}
  0
LINE
  5
F1008B
330
F1008C
100
AcDbEntity
8
Geo
100
AcDbLine
10
-108.862477824654
20
-3.64060322820485
30
0.000000000000000
11
-108.963748056180
21
-0.740603228204853
31
0.000000000000000
  0
LINE
  5
F1008D
330
F1008E
100
AcDbEntity
8
Geo
100
AcDbLine
10
-108.963748056180
20
-0.740603228204853
30
0.000000000000000
11
-108.863748056180
21
-0.640603228204853
31
0.000000000000000
  0
LINE
  5
F1008F
330
F10090
100
AcDbEntity
8
Geo
100
AcDbLine
10
-108.863748056180
20
-0.640603228204853
30
0.000000000000000
11
-89.9637480561802
21
-0.640603228204853
31
0.000000000000000
  0
LINE
  5
F10091
330
F10092
100
AcDbEntity
8
Geo
100
AcDbLine
10
-89.9637480561802
20
-0.640603228204853
30
0.000000000000000
11
-89.9637480561802
21
-0.740603228204853
31
0.000000000000000
  0
LINE
  5
F10093
330
F10094
100
AcDbEntity
8
Geo
100
AcDbLine
10
-89.9637480561802
20
-0.740603228204853
30
0.000000000000000
11
-83.9637480561802
21
-0.740603228204853
31
0.000000000000000
  0
LINE
  5
F10095
330
F10096
100
AcDbEntity
8
Geo
100
AcDbLine
10
-83.9637480561802
20
-0.740603228204853
30
0.000000000000000
11
-83.9637480561802
21
-0.640603228204853
31
0.000000000000000
  0
LINE
  5
F10097
330
F10098
100
AcDbEntity
8
Geo
100
AcDbLine
10
-83.9637480561802
20
-0.640603228204853
30
0.000000000000000
11
-52.4637480561802
21
-0.640603228204853
31
0.000000000000000
  0
LINE
  5
F10099
330
F1009A
100
AcDbEntity
8
Geo
100
AcDbLine
10
-52.4637480561802
20
-0.640603228204853
30
0.000000000000000
11
-51.9637480561802
21
-1.14060322820485
31
0.000000000000000
  0
LINE
  5
F1009B
330
F1009C
100
AcDbEntity
8
Geo
100
AcDbLine
10
-105.763748056180
20
-0.641537419094196
30
0.000000000000000
11
-105.663748056180
21
-0.640877958694703
31
0.000000000000000
  0
LINE
  5
F1009D
330
F1009E
100
AcDbEntity
8
Geo
100
AcDbLine
10
-105.663748056180
20
-0.640877958694703
30
0.000000000000000
11
-105.563748056180
21
-0.644661987112018
31
0.000000000000000
  0
LINE
  5
F1009F
330
F100A0
100
AcDbEntity
8
Geo
100
AcDbLine
10
-105.563748056180
20
-0.644661987112018
30
0.000000000000000
11
-105.463748056180
21
-0.652883899070176
31
0.000000000000000
  0
LINE
  5
F100A1
330
F100A2
100
AcDbEntity
8
Geo
100
AcDbLine
10
-105.463748056180
20
-0.652883899070176
30
0.000000000000000
11
-105.363748056180
21
-0.665531515462571
31
0.000000000000000
  0
LINE
  5
F100A3
330
F100A4
100
AcDbEntity
8
Geo
100
AcDbLine
10
-105.363748056180
20
-0.665531515462571
30
0.000000000000000
11
-105.263748056180
21
-0.682586101392856
31
0.000000000000000
  0
LINE
  5
F100A5
330
F100A6
100
AcDbEntity
8
Geo
100
AcDbLine
10
-105.263748056180
20
-0.682586101392856
30
0.000000000000000
11
-105.163748056180
21
-0.704022393926914
31
0.000000000000000
  0
LINE
  5
F100A7
330
F100A8
100
AcDbEntity
8
Geo
100
AcDbLine
10
-105.163748056180
20
-0.704022393926914
30
0.000000000000000
11
-105.063748056180
21
-0.729808639514804
31
0.000000000000000
  0
LINE
  5
F100A9
330
F100AA
100
AcDbEntity
8
Geo
100
AcDbLine
10
-105.063748056180
20
-0.729808639514804
30
0.000000000000000
11
-104.963748056180
21
-0.759906641027255
31
0.000000000000000
  0
LINE
  5
F100AB
330
F100AC
100
AcDbEntity
8
Geo
100
AcDbLine
10
-104.963748056180
20
-0.759906641027255
30
0.000000000000000
11
-104.863748056180
21
-0.794271814337018
31
0.000000000000000
  0
LINE
  5
F100AD
330
F100AE
100
AcDbEntity
8
Geo
100
AcDbLine
10
-104.863748056180
20
-0.794271814337018
30
0.000000000000000
11
-104.763748056180
21
-0.832853254361271
31
0.000000000000000
  0
LINE
  5
F100AF
330
F100B0
100
AcDbEntity
8
Geo
100
AcDbLine
10
-104.763748056180
20
-0.832853254361271
30
0.000000000000000
11
-104.663748056180
21
-0.875593810467245
31
0.000000000000000
  0
LINE
  5
F100B1
330
F100B2
100
AcDbEntity
8
Geo
100
AcDbLine
10
-104.663748056180
20
-0.875593810467245
30
0.000000000000000
11
-104.563748056180
21
-0.922430171129377
31
0.000000000000000
  0
LINE
  5
F100B3
330
F100B4
100
AcDbEntity
8
Geo
100
AcDbLine
10
-104.563748056180
20
-0.922430171129377
30
0.000000000000000
11
-104.463748056180
21
-0.973292957712585
31
0.000000000000000
  0
LINE
  5
F100B5
330
F100B6
100
AcDbEntity
8
Geo
100
AcDbLine
10
-104.463748056180
20
-0.973292957712585
30
0.000000000000000
11
-104.363748056180
21
-1.02810682724274
31
0.000000000000000
  0
LINE
  5
F100B7
330
F100B8
100
AcDbEntity
8
Geo
100
AcDbLine
10
-104.363748056180
20
-1.02810682724274
30
0.000000000000000
11
-104.263748056180
21
-1.08679058401211
31
0.000000000000000
  0
LINE
  5
F100B9
330
F100BA
100
AcDbEntity
8
Geo
100
AcDbLine
10
-104.263748056180
20
-1.08679058401211
30
0.000000000000000
11
-104.163748056180
21
-1.14925729985444
31
0.000000000000000
  0
LINE
  5
F100BB
330
F100BC
100
AcDbEntity
8
Geo
100
AcDbLine
10
-104.163748056180
20
-1.14925729985444
30
0.000000000000000
11
-104.063748056180
21
-1.21541444291154
31
0.000000000000000
  0
LINE
  5
F100BD
330
F100BE
100
AcDbEntity
8
Geo
100
AcDbLine
10
-104.063748056180
20
-1.21541444291154
30
0.000000000000000
11
-103.963748056180
21
-1.28516401470057
31
0.000000000000000
  0
LINE
  5
F100BF
330
F100C0
100
AcDbEntity
8
Geo
100
AcDbLine
10
-103.963748056180
20
-1.28516401470057
30
0.000000000000000
11
-103.863748056180
21
-1.35840269527909
31
0.000000000000000
  0
LINE
  5
F100C1
330
F100C2
100
AcDbEntity
8
Geo
100
AcDbLine
10
-103.863748056180
20
-1.35840269527909
30
0.000000000000000
11
-103.763748056180
21
-1.43502199629269
31
0.000000000000000
  0
LINE
  5
F100C3
330
F100C4
100
AcDbEntity
8
Geo
100
AcDbLine
10
-103.763748056180
20
-1.43502199629269
30
0.000000000000000
11
-103.663748056180
21
-1.51490842167871
31
0.000000000000000
  0
LINE
  5
F100C5
330
F100C6
100
AcDbEntity
8
Geo
100
AcDbLine
10
-103.663748056180
20
-1.51490842167871
30
0.000000000000000
11
-103.563748056180
21
-1.59794363578773
31
0.000000000000000
  0
LINE
  5
F100C7
330
F100C8
100
AcDbEntity
8
Geo
100
AcDbLine
10
-103.563748056180
20
-1.59794363578773
30
0.000000000000000
11
-103.463748056180
21
-1.68400463867405
31
0.000000000000000
  0
LINE
  5
F100C9
330
F100CA
100
AcDbEntity
8
Geo
100
AcDbLine
10
-103.463748056180
20
-1.68400463867405
30
0.000000000000000
11
-103.363748056180
21
-1.77296394829530
31
0.000000000000000
  0
LINE
  5
F100CB
330
F100CC
100
AcDbEntity
8
Geo
100
AcDbLine
10
-103.363748056180
20
-1.77296394829530
30
0.000000000000000
11
-103.263748056180
21
-1.86468978935143
31
0.000000000000000
  0
LINE
  5
F100CD
330
F100CE
100
AcDbEntity
8
Geo
100
AcDbLine
10
-103.263748056180
20
-1.86468978935143
30
0.000000000000000
11
-103.163748056180
21
-1.95904628848327
31
0.000000000000000
  0
LINE
  5
F100CF
330
F100D0
100
AcDbEntity
8
Geo
100
AcDbLine
10
-103.163748056180
20
-1.95904628848327
30
0.000000000000000
11
-103.063748056180
21
-2.05589367554156
31
0.000000000000000
  0
LINE
  5
F100D1
330
F100D2
100
AcDbEntity
8
Geo
100
AcDbLine
10
-103.063748056180
20
-2.05589367554156
30
0.000000000000000
11
-102.963748056180
21
-2.15508849062825
31
0.000000000000000
  0
LINE
  5
F100D3
330
F100D4
100
AcDbEntity
8
Geo
100
AcDbLine
10
-102.963748056180
20
-2.15508849062825
30
0.000000000000000
11
-102.863748056180
21
-2.25648379660346
31
0.000000000000000
  0
LINE
  5
F100D5
330
F100D6
100
AcDbEntity
8
Geo
100
AcDbLine
10
-102.863748056180
20
-2.25648379660346
30
0.000000000000000
11
-102.763748056180
21
-2.35992939674325
31
0.000000000000000
  0
LINE
  5
F100D7
330
F100D8
100
AcDbEntity
8
Geo
100
AcDbLine
10
-102.763748056180
20
-2.35992939674325
30
0.000000000000000
11
-102.663748056180
21
-2.46527205722585
31
0.000000000000000
  0
LINE
  5
F100D9
330
F100DA
100
AcDbEntity
8
Geo
100
AcDbLine
10
-102.663748056180
20
-2.46527205722585
30
0.000000000000000
11
-102.563748056180
21
-2.57235573411664
31
0.000000000000000
  0
LINE
  5
F100DB
330
F100DC
100
AcDbEntity
8
Geo
100
AcDbLine
10
-102.563748056180
20
-2.57235573411664
30
0.000000000000000
11
-102.463748056180
21
-2.68102180451587
31
0.000000000000000
  0
LINE
  5
F100DD
330
F100DE
100
AcDbEntity
8
Geo
100
AcDbLine
10
-102.463748056180
20
-2.68102180451587
30
0.000000000000000
11
-102.363748056180
21
-2.79110930152650
31
0.000000000000000
  0
LINE
  5
F100DF
330
F100E0
100
AcDbEntity
8
Geo
100
AcDbLine
10
-102.363748056180
20
-2.79110930152650
30
0.000000000000000
11
-102.263748056180
21
-2.90245515269426
31
0.000000000000000
  0
LINE
  5
F100E1
330
F100E2
100
AcDbEntity
8
Geo
100
AcDbLine
10
-102.263748056180
20
-2.90245515269426
30
0.000000000000000
11
-102.163748056180
21
-3.01489442156664
31
0.000000000000000
  0
LINE
  5
F100E3
330
F100E4
100
AcDbEntity
8
Geo
100
AcDbLine
10
-102.163748056180
20
-3.01489442156664
30
0.000000000000000
11
-102.063748056180
21
-3.12826055201302
31
0.000000000000000
  0
LINE
  5
F100E5
330
F100E6
100
AcDbEntity
8
Geo
100
AcDbLine
10
-102.063748056180
20
-3.12826055201302
30
0.000000000000000
11
-101.963748056180
21
-3.24238561494404
31
0.000000000000000
  0
LINE
  5
F100E7
330
F100E8
100
AcDbEntity
8
Geo
100
AcDbLine
10
-101.963748056180
20
-3.24238561494404
30
0.000000000000000
11
-101.863748056180
21
-3.35710055706473
31
0.000000000000000
  0
LINE
  5
F100E9
330
F100EA
100
AcDbEntity
8
Geo
100
AcDbLine
10
-101.863748056180
20
-3.35710055706473
30
0.000000000000000
11
-101.763748056180
21
-3.47223545129288
31
0.000000000000000
  0
LINE
  5
F100EB
330
F100EC
100
AcDbEntity
8
Geo
100
AcDbLine
10
-101.763748056180
20
-3.47223545129288
30
0.000000000000000
11
-101.663748056180
21
-3.58761974847183
31
0.000000000000000
  0
LINE
  5
F100ED
330
F100EE
100
AcDbEntity
8
Geo
100
AcDbLine
10
-101.663748056180
20
-3.58761974847183
30
0.000000000000000
11
-101.563748056180
21
-3.70308253000469
31
0.000000000000000
  0
LINE
  5
F100EF
330
F100F0
100
AcDbEntity
8
Geo
100
AcDbLine
10
-101.563748056180
20
-3.70308253000469
30
0.000000000000000
11
-101.463748056180
21
-3.81845276103579
31
0.000000000000000
  0
LINE
  5
F100F1
330
F100F2
100
AcDbEntity
8
Geo
100
AcDbLine
10
-101.463748056180
20
-3.81845276103579
30
0.000000000000000
11
-101.363748056180
21
-3.93355954380440
31
0.000000000000000
  0
LINE
  5
F100F3
330
F100F4
100
AcDbEntity
8
Geo
100
AcDbLine
10
-101.363748056180
20
-3.93355954380440
30
0.000000000000000
11
-101.263748056180
21
-4.04823237079532
31
0.000000000000000
  0
LINE
  5
F100F5
330
F100F6
100
AcDbEntity
8
Geo
100
AcDbLine
10
-101.263748056180
20
-4.04823237079532
30
0.000000000000000
11
-101.163748056180
21
-4.16230137731144
31
0.000000000000000
  0
LINE
  5
F100F7
330
F100F8
100
AcDbEntity
8
Geo
100
AcDbLine
10
-101.163748056180
20
-4.16230137731144
30
0.000000000000000
11
-101.063748056180
21
-4.27559759309406
31
0.000000000000000
  0
LINE
  5
F100F9
330
F100FA
100
AcDbEntity
8
Geo
100
AcDbLine
10
-101.063748056180
20
-4.27559759309406
30
0.000000000000000
11
-100.963748056180
21
-4.38795319261833
31
0.000000000000000
  0
LINE
  5
F100FB
330
F100FC
100
AcDbEntity
8
Geo
100
AcDbLine
10
-100.963748056180
20
-4.38795319261833
30
0.000000000000000
11
-100.863748056180
21
-4.49920174369290
31
0.000000000000000
  0
LINE
  5
F100FD
330
F100FE
100
AcDbEntity
8
Geo
100
AcDbLine
10
-100.863748056180
20
-4.49920174369290
30
0.000000000000000
11
-100.763748056180
21
-4.60917845399576
31
0.000000000000000
  0
LINE
  5
F100FF
330
F10100
100
AcDbEntity
8
Geo
100
AcDbLine
10
-100.763748056180
20
-4.60917845399576
30
0.000000000000000
11
-100.663748056180
21
-4.71772041518083
31
0.000000000000000
  0
LINE
  5
F10101
330
F10102
100
AcDbEntity
8
Geo
100
AcDbLine
10
-100.663748056180
20
-4.71772041518083
30
0.000000000000000
11
-100.563748056180
21
-4.82466684419389
31
0.000000000000000
  0
LINE
  5
F10103
330
F10104
100
AcDbEntity
8
Geo
100
AcDbLine
10
-100.563748056180
20
-4.82466684419389
30
0.000000000000000
11
-100.463748056180
21
-4.92985932144025
31
0.000000000000000
  0
LINE
  5
F10105
330
F10106
100
AcDbEntity
8
Geo
100
AcDbLine
10
-100.463748056180
20
-4.92985932144025
30
0.000000000000000
11
-100.363748056180
21
-5.03314202545154
31
0.000000000000000
  0
LINE
  5
F10107
330
F10108
100
AcDbEntity
8
Geo
100
AcDbLine
10
-100.363748056180
20
-5.03314202545154
30
0.000000000000000
11
-100.263748056180
21
-5.13436196370377
31
0.000000000000000
  0
LINE
  5
F10109
330
F1010A
100
AcDbEntity
8
Geo
100
AcDbLine
10
-100.263748056180
20
-5.13436196370377
30
0.000000000000000
11
-100.163748056180
21
-5.23336919924497
31
0.000000000000000
  0
LINE
  5
F1010B
330
F1010C
100
AcDbEntity
8
Geo
100
AcDbLine
10
-100.163748056180
20
-5.23336919924497
30
0.000000000000000
11
-100.063748056180
21
-5.33001707279657
31
0.000000000000000
  0
LINE
  5
F1010D
330
F1010E
100
AcDbEntity
8
Geo
100
AcDbLine
10
-100.063748056180
20
-5.33001707279657
30
0.000000000000000
11
-99.9637480561802
21
-5.42416241999960
31
0.000000000000000
  0
LINE
  5
F1010F
330
F10110
100
AcDbEntity
8
Geo
100
AcDbLine
10
-99.9637480561802
20
-5.42416241999960
30
0.000000000000000
11
-99.8637480561802
21
-5.51566578348386
31
0.000000000000000
  0
LINE
  5
F10111
330
F10112
100
AcDbEntity
8
Geo
100
AcDbLine
10
-99.8637480561802
20
-5.51566578348386
30
0.000000000000000
11
-99.7637480561802
21
-5.60439161944589
31
0.000000000000000
  0
LINE
  5
F10113
330
F10114
100
AcDbEntity
8
Geo
100
AcDbLine
10
-99.7637480561802
20
-5.60439161944589
30
0.000000000000000
11
-99.6637480561802
21
-5.69020849842985
31
0.000000000000000
  0
LINE
  5
F10115
330
F10116
100
AcDbEntity
8
Geo
100
AcDbLine
10
-99.6637480561802
20
-5.69020849842985
30
0.000000000000000
11
-99.5637480561802
21
-5.77298930001375
31
0.000000000000000
  0
LINE
  5
F10117
330
F10118
100
AcDbEntity
8
Geo
100
AcDbLine
10
-99.5637480561802
20
-5.77298930001375
30
0.000000000000000
11
-99.4637480561802
21
-5.85261140111281
31
0.000000000000000
  0
LINE
  5
F10119
330
F1011A
100
AcDbEntity
8
Geo
100
AcDbLine
10
-99.4637480561802
20
-5.85261140111281
30
0.000000000000000
11
-99.3637480561802
21
-5.92895685762081
31
0.000000000000000
  0
LINE
  5
F1011B
330
F1011C
100
AcDbEntity
8
Geo
100
AcDbLine
10
-99.3637480561802
20
-5.92895685762081
30
0.000000000000000
11
-99.2637480561802
21
-6.00191257912055
31
0.000000000000000
  0
LINE
  5
F1011D
330
F1011E
100
AcDbEntity
8
Geo
100
AcDbLine
10
-99.2637480561802
20
-6.00191257912055
30
0.000000000000000
11
-99.1637480561802
21
-6.07137049640454
31
0.000000000000000
  0
LINE
  5
F1011F
330
F10120
100
AcDbEntity
8
Geo
100
AcDbLine
10
-99.1637480561802
20
-6.07137049640454
30
0.000000000000000
11
-99.0637480561802
21
-6.13722772155772
31
0.000000000000000
  0
LINE
  5
F10121
330
F10122
100
AcDbEntity
8
Geo
100
AcDbLine
10
-99.0637480561802
20
-6.13722772155772
30
0.000000000000000
11
-98.9637480561802
21
-6.19938670036522
31
0.000000000000000
  0
LINE
  5
F10123
330
F10124
100
AcDbEntity
8
Geo
100
AcDbLine
10
-98.9637480561802
20
-6.19938670036522
30
0.000000000000000
11
-98.8637480561802
21
-6.25775535681930
31
0.000000000000000
  0
LINE
  5
F10125
330
F10126
100
AcDbEntity
8
Geo
100
AcDbLine
10
-98.8637480561802
20
-6.25775535681930
30
0.000000000000000
11
-98.7637480561802
21
-6.31224722951135
31
0.000000000000000
  0
LINE
  5
F10127
330
F10128
100
AcDbEntity
8
Geo
100
AcDbLine
10
-98.7637480561802
20
-6.31224722951135
30
0.000000000000000
11
-98.6637480561802
21
-6.36278159970710
31
0.000000000000000
  0
LINE
  5
F10129
330
F1012A
100
AcDbEntity
8
Geo
100
AcDbLine
10
-98.6637480561802
20
-6.36278159970710
30
0.000000000000000
11
-98.5637480561802
21
-6.40928361091516
31
0.000000000000000
  0
LINE
  5
F1012B
330
F1012C
100
AcDbEntity
8
Geo
100
AcDbLine
10
-98.5637480561802
20
-6.40928361091516
30
0.000000000000000
11
-98.4637480561802
21
-6.45168437977181
31
0.000000000000000
  0
LINE
  5
F1012D
330
F1012E
100
AcDbEntity
8
Geo
100
AcDbLine
10
-98.4637480561802
20
-6.45168437977181
30
0.000000000000000
11
-98.3637480561802
21
-6.48992109807787
31
0.000000000000000
  0
LINE
  5
F1012F
330
F10130
100
AcDbEntity
8
Geo
100
AcDbLine
10
-98.3637480561802
20
-6.48992109807787
30
0.000000000000000
11
-98.2637480561802
21
-6.52393712583637
31
0.000000000000000
  0
LINE
  5
F10131
330
F10132
100
AcDbEntity
8
Geo
100
AcDbLine
10
-98.2637480561802
20
-6.52393712583637
30
0.000000000000000
11
-98.1637480561802
21
-6.55368207515330
31
0.000000000000000
  0
LINE
  5
F10133
330
F10134
100
AcDbEntity
8
Geo
100
AcDbLine
10
-98.1637480561802
20
-6.55368207515330
30
0.000000000000000
11
-98.0637480561802
21
-6.57911188487712
31
0.000000000000000
  0
LINE
  5
F10135
330
F10136
100
AcDbEntity
8
Geo
100
AcDbLine
10
-98.0637480561802
20
-6.57911188487712
30
0.000000000000000
11
-97.9637480561802
21
-6.60018888586651
31
0.000000000000000
  0
LINE
  5
F10137
330
F10138
100
AcDbEntity
8
Geo
100
AcDbLine
10
-97.9637480561802
20
-6.60018888586651
30
0.000000000000000
11
-97.8637480561802
21
-6.61688185678960
31
0.000000000000000
  0
LINE
  5
F10139
330
F1013A
100
AcDbEntity
8
Geo
100
AcDbLine
10
-97.8637480561802
20
-6.61688185678960
30
0.000000000000000
11
-97.7637480561802
21
-6.62916607037205
31
0.000000000000000
  0
LINE
  5
F1013B
330
F1013C
100
AcDbEntity
8
Geo
100
AcDbLine
10
-97.7637480561802
20
-6.62916607037205
30
0.000000000000000
11
-97.6637480561802
21
-6.63702333002560
31
0.000000000000000
  0
LINE
  5
F1013D
330
F1013E
100
AcDbEntity
8
Geo
100
AcDbLine
10
-97.6637480561802
20
-6.63702333002560
30
0.000000000000000
11
-97.5637480561802
21
-6.64044199680259
31
0.000000000000000
  0
LINE
  5
F1013F
330
F10140
100
AcDbEntity
8
Geo
100
AcDbLine
10
-108.963748056180
20
-0.740603228204853
30
0.000000000000000
11
-108.863748056180
21
-0.642825176092200
31
0.000000000000000
  0
LINE
  5
F10141
330
F10142
100
AcDbEntity
8
Geo
100
AcDbLine
10
-108.863748056180
20
-0.642825176092200
30
0.000000000000000
11
-108.763748056180
21
-0.649487728385966
31
0.000000000000000
  0
LINE
  5
F10143
330
F10144
100
AcDbEntity
8
Geo
100
AcDbLine
10
-108.763748056180
20
-0.649487728385966
30
0.000000000000000
11
-108.663748056180
21
-0.660581015856823
31
0.000000000000000
  0
LINE
  5
F10145
330
F10146
100
AcDbEntity
8
Geo
100
AcDbLine
10
-108.663748056180
20
-0.660581015856823
30
0.000000000000000
11
-108.563748056180
21
-0.676088606033662
31
0.000000000000000
  0
LINE
  5
F10147
330
F10148
100
AcDbEntity
8
Geo
100
AcDbLine
10
-108.563748056180
20
-0.676088606033662
30
0.000000000000000
11
-108.463748056180
21
-0.695987527544998
31
0.000000000000000
  0
LINE
  5
F10149
330
F1014A
100
AcDbEntity
8
Geo
100
AcDbLine
10
-108.463748056180
20
-0.695987527544998
30
0.000000000000000
11
-108.363748056180
21
-0.720248304146420
31
0.000000000000000
  0
LINE
  5
F1014B
330
F1014C
100
AcDbEntity
8
Geo
100
AcDbLine
10
-108.363748056180
20
-0.720248304146420
30
0.000000000000000
11
-108.263748056180
21
-0.748834998383721
31
0.000000000000000
  0
LINE
  5
F1014D
330
F1014E
100
AcDbEntity
8
Geo
100
AcDbLine
10
-108.263748056180
20
-0.748834998383721
30
0.000000000000000
11
-108.163748056180
21
-0.781705264826988
31
0.000000000000000
  0
LINE
  5
F1014F
330
F10150
100
AcDbEntity
8
Geo
100
AcDbLine
10
-108.163748056180
20
-0.781705264826988
30
0.000000000000000
11
-108.063748056180
21
-0.818810412796834
31
0.000000000000000
  0
LINE
  5
F10151
330
F10152
100
AcDbEntity
8
Geo
100
AcDbLine
10
-108.063748056180
20
-0.818810412796834
30
0.000000000000000
11
-107.963748056180
21
-0.860095478489832
31
0.000000000000000
  0
LINE
  5
F10153
330
F10154
100
AcDbEntity
8
Geo
100
AcDbLine
10
-107.963748056180
20
-0.860095478489832
30
0.000000000000000
11
-107.863748056180
21
-0.905499306396319
31
0.000000000000000
  0
LINE
  5
F10155
330
F10156
100
AcDbEntity
8
Geo
100
AcDbLine
10
-107.863748056180
20
-0.905499306396319
30
0.000000000000000
11
-107.763748056180
21
-0.954954639889965
31
0.000000000000000
  0
LINE
  5
F10157
330
F10158
100
AcDbEntity
8
Geo
100
AcDbLine
10
-107.763748056180
20
-0.954954639889965
30
0.000000000000000
11
-107.663748056180
21
-1.00838822085492
31
0.000000000000000
  0
LINE
  5
F10159
330
F1015A
100
AcDbEntity
8
Geo
100
AcDbLine
10
-107.663748056180
20
-1.00838822085492
30
0.000000000000000
11
-107.563748056180
21
-1.06572089820296
31
0.000000000000000
  0
LINE
  5
F1015B
330
F1015C
100
AcDbEntity
8
Geo
100
AcDbLine
10
-107.563748056180
20
-1.06572089820296
30
0.000000000000000
11
-107.463748056180
21
-1.12686774511987
31
0.000000000000000
  0
LINE
  5
F1015D
330
F1015E
100
AcDbEntity
8
Geo
100
AcDbLine
10
-107.463748056180
20
-1.12686774511987
30
0.000000000000000
11
-107.363748056180
21
-1.19173818486745
31
0.000000000000000
  0
LINE
  5
F1015F
330
F10160
100
AcDbEntity
8
Geo
100
AcDbLine
10
-107.363748056180
20
-1.19173818486745
30
0.000000000000000
11
-107.263748056180
21
-1.26023612495466
31
0.000000000000000
  0
LINE
  5
F10161
330
F10162
100
AcDbEntity
8
Geo
100
AcDbLine
10
-107.263748056180
20
-1.26023612495466
30
0.000000000000000
11
-107.163748056180
21
-1.33226009947931
31
0.000000000000000
  0
LINE
  5
F10163
330
F10164
100
AcDbEntity
8
Geo
100
AcDbLine
10
-107.163748056180
20
-1.33226009947931
30
0.000000000000000
11
-107.063748056180
21
-1.40770341942940
31
0.000000000000000
  0
LINE
  5
F10165
330
F10166
100
AcDbEntity
8
Geo
100
AcDbLine
10
-107.063748056180
20
-1.40770341942940
30
0.000000000000000
11
-106.963748056180
21
-1.48645433072133
31
0.000000000000000
  0
LINE
  5
F10167
330
F10168
100
AcDbEntity
8
Geo
100
AcDbLine
10
-106.963748056180
20
-1.48645433072133
30
0.000000000000000
11
-106.863748056180
21
-1.56839617974113
31
0.000000000000000
  0
LINE
  5
F10169
330
F1016A
100
AcDbEntity
8
Geo
100
AcDbLine
10
-106.863748056180
20
-1.56839617974113
30
0.000000000000000
11
-106.763748056180
21
-1.65340758614324
31
0.000000000000000
  0
LINE
  5
F1016B
330
F1016C
100
AcDbEntity
8
Geo
100
AcDbLine
10
-106.763748056180
20
-1.65340758614324
30
0.000000000000000
11
-106.663748056180
21
-1.74136262265111
31
0.000000000000000
  0
LINE
  5
F1016D
330
F1016E
100
AcDbEntity
8
Geo
100
AcDbLine
10
-106.663748056180
20
-1.74136262265111
30
0.000000000000000
11
-106.563748056180
21
-1.83213100159302
31
0.000000000000000
  0
LINE
  5
F1016F
330
F10170
100
AcDbEntity
8
Geo
100
AcDbLine
10
-106.563748056180
20
-1.83213100159302
30
0.000000000000000
11
-106.463748056180
21
-1.92557826789710
31
0.000000000000000
  0
LINE
  5
F10171
330
F10172
100
AcDbEntity
8
Geo
100
AcDbLine
10
-106.463748056180
20
-1.92557826789710
30
0.000000000000000
11
-106.363748056180
21
-2.02156599825938
31
0.000000000000000
  0
LINE
  5
F10173
330
F10174
100
AcDbEntity
8
Geo
100
AcDbLine
10
-106.363748056180
20
-2.02156599825938
30
0.000000000000000
11
-106.263748056180
21
-2.11995200619007
31
0.000000000000000
  0
LINE
  5
F10175
330
F10176
100
AcDbEntity
8
Geo
100
AcDbLine
10
-106.263748056180
20
-2.11995200619007
30
0.000000000000000
11
-106.163748056180
21
-2.22059055263420
31
0.000000000000000
  0
LINE
  5
F10177
330
F10178
100
AcDbEntity
8
Geo
100
AcDbLine
10
-106.163748056180
20
-2.22059055263420
30
0.000000000000000
11
-106.063748056180
21
-2.32333256185465
31
0.000000000000000
  0
LINE
  5
F10179
330
F1017A
100
AcDbEntity
8
Geo
100
AcDbLine
10
-106.063748056180
20
-2.32333256185465
30
0.000000000000000
11
-105.963748056180
21
-2.42802584225787
31
0.000000000000000
  0
LINE
  5
F1017B
330
F1017C
100
AcDbEntity
8
Geo
100
AcDbLine
10
-105.963748056180
20
-2.42802584225787
30
0.000000000000000
11
-105.863748056180
21
-2.53451531183506
31
0.000000000000000
  0
LINE
  5
F1017D
330
F1017E
100
AcDbEntity
8
Geo
100
AcDbLine
10
-105.863748056180
20
-2.53451531183506
30
0.000000000000000
11
-105.763748056180
21
-2.64264322788492
31
0.000000000000000
  0
LINE
  5
F1017F
330
F10180
100
AcDbEntity
8
Geo
100
AcDbLine
10
-105.763748056180
20
-2.64264322788492
30
0.000000000000000
11
-105.663748056180
21
-2.75224942067769
31
0.000000000000000
  0
LINE
  5
F10181
330
F10182
100
AcDbEntity
8
Geo
100
AcDbLine
10
-105.663748056180
20
-2.75224942067769
30
0.000000000000000
11
-105.563748056180
21
-2.86317153071436
31
0.000000000000000
  0
LINE
  5
F10183
330
F10184
100
AcDbEntity
8
Geo
100
AcDbLine
10
-105.563748056180
20
-2.86317153071436
30
0.000000000000000
11
-105.463748056180
21
-2.97524524922956
31
0.000000000000000
  0
LINE
  5
F10185
330
F10186
100
AcDbEntity
8
Geo
100
AcDbLine
10
-105.463748056180
20
-2.97524524922956
30
0.000000000000000
11
-105.363748056180
21
-3.08830456158191
31
0.000000000000000
  0
LINE
  5
F10187
330
F10188
100
AcDbEntity
8
Geo
100
AcDbLine
10
-105.363748056180
20
-3.08830456158191
30
0.000000000000000
11
-105.263748056180
21
-3.20218199317124
31
0.000000000000000
  0
LINE
  5
F10189
330
F1018A
100
AcDbEntity
8
Geo
100
AcDbLine
10
-105.263748056180
20
-3.20218199317124
30
0.000000000000000
11
-105.163748056180
21
-3.31670885751855
31
0.000000000000000
  0
LINE
  5
F1018B
330
F1018C
100
AcDbEntity
8
Geo
100
AcDbLine
10
-105.163748056180
20
-3.31670885751855
30
0.000000000000000
11
-105.063748056180
21
-3.43171550614096
31
0.000000000000000
  0
LINE
  5
F1018D
330
F1018E
100
AcDbEntity
8
Geo
100
AcDbLine
10
-105.063748056180
20
-3.43171550614096
30
0.000000000000000
11
-104.963748056180
21
-3.54703157985187
31
0.000000000000000
  0
LINE
  5
F1018F
330
F10190
100
AcDbEntity
8
Geo
100
AcDbLine
10
-104.963748056180
20
-3.54703157985187
30
0.000000000000000
11
-104.863748056180
21
-3.66248626111369
31
0.000000000000000
  0
LINE
  5
F10191
330
F10192
100
AcDbEntity
8
Geo
100
AcDbLine
10
-104.863748056180
20
-3.66248626111369
30
0.000000000000000
11
-104.763748056180
21
-3.77790852706968
31
0.000000000000000
  0
LINE
  5
F10193
330
F10194
100
AcDbEntity
8
Geo
100
AcDbLine
10
-104.763748056180
20
-3.77790852706968
30
0.000000000000000
11
-104.663748056180
21
-3.89312740287985
31
0.000000000000000
  0
LINE
  5
F10195
330
F10196
100
AcDbEntity
8
Geo
100
AcDbLine
10
-104.663748056180
20
-3.89312740287985
30
0.000000000000000
11
-104.563748056180
21
-4.00797221498574
31
0.000000000000000
  0
LINE
  5
F10197
330
F10198
100
AcDbEntity
8
Geo
100
AcDbLine
10
-104.563748056180
20
-4.00797221498574
30
0.000000000000000
11
-104.463748056180
21
-4.12227284392893
31
0.000000000000000
  0
LINE
  5
F10199
330
F1019A
100
AcDbEntity
8
Geo
100
AcDbLine
10
-104.463748056180
20
-4.12227284392893
30
0.000000000000000
11
-104.363748056180
21
-4.23585997634874
31
0.000000000000000
  0
LINE
  5
F1019B
330
F1019C
100
AcDbEntity
8
Geo
100
AcDbLine
10
-104.363748056180
20
-4.23585997634874
30
0.000000000000000
11
-104.263748056180
21
-4.34856535578591
31
0.000000000000000
  0
LINE
  5
F1019D
330
F1019E
100
AcDbEntity
8
Geo
100
AcDbLine
10
-104.263748056180
20
-4.34856535578591
30
0.000000000000000
11
-104.163748056180
21
-4.46022203192061
31
0.000000000000000
  0
LINE
  5
F1019F
330
F101A0
100
AcDbEntity
8
Geo
100
AcDbLine
10
-104.163748056180
20
-4.46022203192061
30
0.000000000000000
11
-104.063748056180
21
-4.57066460787575
31
0.000000000000000
  0
LINE
  5
F101A1
330
F101A2
100
AcDbEntity
8
Geo
100
AcDbLine
10
-104.063748056180
20
-4.57066460787575
30
0.000000000000000
11
-103.963748056180
21
-4.67972948521911
31
0.000000000000000
  0
LINE
  5
F101A3
330
F101A4
100
AcDbEntity
8
Geo
100
AcDbLine
10
-103.963748056180
20
-4.67972948521911
30
0.000000000000000
11
-103.863748056180
21
-4.78725510630150
31
0.000000000000000
  0
LINE
  5
F101A5
330
F101A6
100
AcDbEntity
8
Geo
100
AcDbLine
10
-103.863748056180
20
-4.78725510630150
30
0.000000000000000
11
-103.763748056180
21
-4.89308219357184
31
0.000000000000000
  0
LINE
  5
F101A7
330
F101A8
100
AcDbEntity
8
Geo
100
AcDbLine
10
-103.763748056180
20
-4.89308219357184
30
0.000000000000000
11
-103.663748056180
21
-4.99705398551483
31
0.000000000000000
  0
LINE
  5
F101A9
330
F101AA
100
AcDbEntity
8
Geo
100
AcDbLine
10
-103.663748056180
20
-4.99705398551483
30
0.000000000000000
11
-103.563748056180
21
-5.09901646886149
31
0.000000000000000
  0
LINE
  5
F101AB
330
F101AC
100
AcDbEntity
8
Geo
100
AcDbLine
10
-103.563748056180
20
-5.09901646886149
30
0.000000000000000
11
-103.463748056180
21
-5.19881860672884
31
0.000000000000000
  0
LINE
  5
F101AD
330
F101AE
100
AcDbEntity
8
Geo
100
AcDbLine
10
-103.463748056180
20
-5.19881860672884
30
0.000000000000000
11
-103.363748056180
21
-5.29631256235062
31
0.000000000000000
  0
LINE
  5
F101AF
330
F101B0
100
AcDbEntity
8
Geo
100
AcDbLine
10
-103.363748056180
20
-5.29631256235062
30
0.000000000000000
11
-103.263748056180
21
-5.39135391806770
31
0.000000000000000
  0
LINE
  5
F101B1
330
F101B2
100
AcDbEntity
8
Geo
100
AcDbLine
10
-103.263748056180
20
-5.39135391806770
30
0.000000000000000
11
-103.163748056180
21
-5.48380188925370
31
0.000000000000000
  0
LINE
  5
F101B3
330
F101B4
100
AcDbEntity
8
Geo
100
AcDbLine
10
-103.163748056180
20
-5.48380188925370
30
0.000000000000000
11
-103.063748056180
21
-5.57351953285912
31
0.000000000000000
  0
LINE
  5
F101B5
330
F101B6
100
AcDbEntity
8
Geo
100
AcDbLine
10
-103.063748056180
20
-5.57351953285912
30
0.000000000000000
11
-102.963748056180
21
-5.66037395026484
31
0.000000000000000
  0
LINE
  5
F101B7
330
F101B8
100
AcDbEntity
8
Geo
100
AcDbLine
10
-102.963748056180
20
-5.66037395026484
30
0.000000000000000
11
-102.863748056180
21
-5.74423648414469
31
0.000000000000000
  0
LINE
  5
F101B9
330
F101BA
100
AcDbEntity
8
Geo
100
AcDbLine
10
-102.863748056180
20
-5.74423648414469
30
0.000000000000000
11
-102.763748056180
21
-5.82498290904534
31
0.000000000000000
  0
LINE
  5
F101BB
330
F101BC
100
AcDbEntity
8
Geo
100
AcDbLine
10
-102.763748056180
20
-5.82498290904534
30
0.000000000000000
11
-102.663748056180
21
-5.90249361540132
31
0.000000000000000
  0
LINE
  5
F101BD
330
F101BE
100
AcDbEntity
8
Geo
100
AcDbLine
10
-102.663748056180
20
-5.90249361540132
30
0.000000000000000
11
-102.563748056180
21
-5.97665378671248
31
0.000000000000000
  0
LINE
  5
F101BF
330
F101C0
100
AcDbEntity
8
Geo
100
AcDbLine
10
-102.563748056180
20
-5.97665378671248
30
0.000000000000000
11
-102.463748056180
21
-6.04735356962149
31
0.000000000000000
  0
LINE
  5
F101C1
330
F101C2
100
AcDbEntity
8
Geo
100
AcDbLine
10
-102.463748056180
20
-6.04735356962149
30
0.000000000000000
11
-102.363748056180
21
-6.11448823663951
31
0.000000000000000
  0
LINE
  5
F101C3
330
F101C4
100
AcDbEntity
8
Geo
100
AcDbLine
10
-102.363748056180
20
-6.11448823663951
30
0.000000000000000
11
-102.263748056180
21
-6.17795834127884
31
0.000000000000000
  0
LINE
  5
F101C5
330
F101C6
100
AcDbEntity
8
Geo
100
AcDbLine
10
-102.263748056180
20
-6.17795834127884
30
0.000000000000000
11
-102.163748056180
21
-6.23766986536288
31
0.000000000000000
  0
LINE
  5
F101C7
330
F101C8
100
AcDbEntity
8
Geo
100
AcDbLine
10
-102.163748056180
20
-6.23766986536288
30
0.000000000000000
11
-102.063748056180
21
-6.29353435829510
31
0.000000000000000
  0
LINE
  5
F101C9
330
F101CA
100
AcDbEntity
8
Geo
100
AcDbLine
10
-102.063748056180
20
-6.29353435829510
30
0.000000000000000
11
-101.963748056180
21
-6.34546906808079
31
0.000000000000000
  0
LINE
  5
F101CB
330
F101CC
100
AcDbEntity
8
Geo
100
AcDbLine
10
-101.963748056180
20
-6.34546906808079
30
0.000000000000000
11
-101.863748056180
21
-6.39339706390751
31
0.000000000000000
  0
LINE
  5
F101CD
330
F101CE
100
AcDbEntity
8
Geo
100
AcDbLine
10
-101.863748056180
20
-6.39339706390751
30
0.000000000000000
11
-101.763748056180
21
-6.43724735010253
31
0.000000000000000
  0
LINE
  5
F101CF
330
F101D0
100
AcDbEntity
8
Geo
100
AcDbLine
10
-101.763748056180
20
-6.43724735010253
30
0.000000000000000
11
-101.663748056180
21
-6.47695497129867
31
0.000000000000000
  0
LINE
  5
F101D1
330
F101D2
100
AcDbEntity
8
Geo
100
AcDbLine
10
-101.663748056180
20
-6.47695497129867
30
0.000000000000000
11
-101.563748056180
21
-6.51246110865258
31
0.000000000000000
  0
LINE
  5
F101D3
330
F101D4
100
AcDbEntity
8
Geo
100
AcDbLine
10
-101.563748056180
20
-6.51246110865258
30
0.000000000000000
11
-101.463748056180
21
-6.54371316697302
31
0.000000000000000
  0
LINE
  5
F101D5
330
F101D6
100
AcDbEntity
8
Geo
100
AcDbLine
10
-101.463748056180
20
-6.54371316697302
30
0.000000000000000
11
-101.363748056180
21
-6.57066485263000
31
0.000000000000000
  0
LINE
  5
F101D7
330
F101D8
100
AcDbEntity
8
Geo
100
AcDbLine
10
-101.363748056180
20
-6.57066485263000
30
0.000000000000000
11
-101.263748056180
21
-6.59327624212952
31
0.000000000000000
  0
LINE
  5
F101D9
330
F101DA
100
AcDbEntity
8
Geo
100
AcDbLine
10
-101.263748056180
20
-6.59327624212952
30
0.000000000000000
11
-101.163748056180
21
-6.61151384125216
31
0.000000000000000
  0
LINE
  5
F101DB
330
F101DC
100
AcDbEntity
8
Geo
100
AcDbLine
10
-101.163748056180
20
-6.61151384125216
30
0.000000000000000
11
-101.063748056180
21
-6.62535063466802
31
0.000000000000000
  0
LINE
  5
F101DD
330
F101DE
100
AcDbEntity
8
Geo
100
AcDbLine
10
-101.063748056180
20
-6.62535063466802
30
0.000000000000000
11
-100.963748056180
21
-6.63476612595452
31
0.000000000000000
  0
LINE
  5
F101DF
330
F101E0
100
AcDbEntity
8
Geo
100
AcDbLine
10
-100.963748056180
20
-6.63476612595452
30
0.000000000000000
11
-100.863748056180
21
-6.63974636795767
31
0.000000000000000
  0
LINE
  5
F101E1
330
F101E2
100
AcDbEntity
8
Geo
100
AcDbLine
10
-108.963748056180
20
-0.882539330948910
30
0.000000000000000
11
-108.863748056180
21
-0.825220276544466
31
0.000000000000000
  0
LINE
  5
F101E3
330
F101E4
100
AcDbEntity
8
Geo
100
AcDbLine
10
-108.863748056180
20
-0.825220276544466
30
0.000000000000000
11
-108.763748056180
21
-0.867177296570547
31
0.000000000000000
  0
LINE
  5
F101E5
330
F101E6
100
AcDbEntity
8
Geo
100
AcDbLine
10
-108.763748056180
20
-0.867177296570547
30
0.000000000000000
11
-108.663748056180
21
-0.913242588522968
31
0.000000000000000
  0
LINE
  5
F101E7
330
F101E8
100
AcDbEntity
8
Geo
100
AcDbLine
10
-108.663748056180
20
-0.913242588522968
30
0.000000000000000
11
-108.563748056180
21
-0.963347915949639
31
0.000000000000000
  0
LINE
  5
F101E9
330
F101EA
100
AcDbEntity
8
Geo
100
AcDbLine
10
-108.563748056180
20
-0.963347915949639
30
0.000000000000000
11
-108.463748056180
21
-1.01741905789961
31
0.000000000000000
  0
LINE
  5
F101EB
330
F101EC
100
AcDbEntity
8
Geo
100
AcDbLine
10
-108.463748056180
20
-1.01741905789961
30
0.000000000000000
11
-108.363748056180
21
-1.07537591886648
31
0.000000000000000
  0
LINE
  5
F101ED
330
F101EE
100
AcDbEntity
8
Geo
100
AcDbLine
10
-108.363748056180
20
-1.07537591886648
30
0.000000000000000
11
-108.263748056180
21
-1.13713264743371
31
0.000000000000000
  0
LINE
  5
F101EF
330
F101F0
100
AcDbEntity
8
Geo
100
AcDbLine
10
-108.263748056180
20
-1.13713264743371
30
0.000000000000000
11
-108.163748056180
21
-1.20259776344626
31
0.000000000000000
  0
LINE
  5
F101F1
330
F101F2
100
AcDbEntity
8
Geo
100
AcDbLine
10
-108.163748056180
20
-1.20259776344626
30
0.000000000000000
11
-108.063748056180
21
-1.27167429351998
31
0.000000000000000
  0
LINE
  5
F101F3
330
F101F4
100
AcDbEntity
8
Geo
100
AcDbLine
10
-108.063748056180
20
-1.27167429351998
30
0.000000000000000
11
-107.963748056180
21
-1.34425991468818
31
0.000000000000000
  0
LINE
  5
F101F5
330
F101F6
100
AcDbEntity
8
Geo
100
AcDbLine
10
-107.963748056180
20
-1.34425991468818
30
0.000000000000000
11
-107.863748056180
21
-1.42024710597243
31
0.000000000000000
  0
LINE
  5
F101F7
330
F101F8
100
AcDbEntity
8
Geo
100
AcDbLine
10
-107.863748056180
20
-1.42024710597243
30
0.000000000000000
11
-107.763748056180
21
-1.49952330765332
31
0.000000000000000
  0
LINE
  5
F101F9
330
F101FA
100
AcDbEntity
8
Geo
100
AcDbLine
10
-107.763748056180
20
-1.49952330765332
30
0.000000000000000
11
-107.663748056180
21
-1.58197108800495
31
0.000000000000000
  0
LINE
  5
F101FB
330
F101FC
100
AcDbEntity
8
Geo
100
AcDbLine
10
-107.663748056180
20
-1.58197108800495
30
0.000000000000000
11
-107.563748056180
21
-1.66746831724641
31
0.000000000000000
  0
LINE
  5
F101FD
330
F101FE
100
AcDbEntity
8
Geo
100
AcDbLine
10
-107.563748056180
20
-1.66746831724641
30
0.000000000000000
11
-107.463748056180
21
-1.75588834845244
31
0.000000000000000
  0
LINE
  5
F101FF
330
F10200
100
AcDbEntity
8
Geo
100
AcDbLine
10
-107.463748056180
20
-1.75588834845244
30
0.000000000000000
11
-107.363748056180
21
-1.84710020515534
31
0.000000000000000
  0
LINE
  5
F10201
330
F10202
100
AcDbEntity
8
Geo
100
AcDbLine
10
-107.363748056180
20
-1.84710020515534
30
0.000000000000000
11
-107.263748056180
21
-1.94096877536026
31
0.000000000000000
  0
LINE
  5
F10203
330
F10204
100
AcDbEntity
8
Geo
100
AcDbLine
10
-107.263748056180
20
-1.94096877536026
30
0.000000000000000
11
-107.163748056180
21
-2.03735501168635
31
0.000000000000000
  0
LINE
  5
F10205
330
F10206
100
AcDbEntity
8
Geo
100
AcDbLine
10
-107.163748056180
20
-2.03735501168635
30
0.000000000000000
11
-107.063748056180
21
-2.13611613733750
31
0.000000000000000
  0
LINE
  5
F10207
330
F10208
100
AcDbEntity
8
Geo
100
AcDbLine
10
-107.063748056180
20
-2.13611613733750
30
0.000000000000000
11
-106.963748056180
21
-2.23710585759738
31
0.000000000000000
  0
LINE
  5
F10209
330
F1020A
100
AcDbEntity
8
Geo
100
AcDbLine
10
-106.963748056180
20
-2.23710585759738
30
0.000000000000000
11
-106.863748056180
21
-2.34017457653561
31
0.000000000000000
  0
LINE
  5
F1020B
330
F1020C
100
AcDbEntity
8
Geo
100
AcDbLine
10
-106.863748056180
20
-2.34017457653561
30
0.000000000000000
11
-106.763748056180
21
-2.44516961860398
31
0.000000000000000
  0
LINE
  5
F1020D
330
F1020E
100
AcDbEntity
8
Geo
100
AcDbLine
10
-106.763748056180
20
-2.44516961860398
30
0.000000000000000
11
-106.663748056180
21
-2.55193545479457
31
0.000000000000000
  0
LINE
  5
F1020F
330
F10210
100
AcDbEntity
8
Geo
100
AcDbLine
10
-106.663748056180
20
-2.55193545479457
30
0.000000000000000
11
-106.563748056180
21
-2.66031393302459
31
0.000000000000000
  0
LINE
  5
F10211
330
F10212
100
AcDbEntity
8
Geo
100
AcDbLine
10
-106.563748056180
20
-2.66031393302459
30
0.000000000000000
11
-106.463748056180
21
-2.77014451240689
31
0.000000000000000
  0
LINE
  5
F10213
330
F10214
100
AcDbEntity
8
Geo
100
AcDbLine
10
-106.463748056180
20
-2.77014451240689
30
0.000000000000000
11
-106.363748056180
21
-2.88126450105891
31
0.000000000000000
  0
LINE
  5
F10215
330
F10216
100
AcDbEntity
8
Geo
100
AcDbLine
10
-106.363748056180
20
-2.88126450105891
30
0.000000000000000
11
-106.263748056180
21
-2.99350929709798
31
0.000000000000000
  0
LINE
  5
F10217
330
F10218
100
AcDbEntity
8
Geo
100
AcDbLine
10
-106.263748056180
20
-2.99350929709798
30
0.000000000000000
11
-106.163748056180
21
-3.10671263246580
31
0.000000000000000
  0
LINE
  5
F10219
330
F1021A
100
AcDbEntity
8
Geo
100
AcDbLine
10
-106.163748056180
20
-3.10671263246580
30
0.000000000000000
11
-106.063748056180
21
-3.22070681922114
31
0.000000000000000
  0
LINE
  5
F1021B
330
F1021C
100
AcDbEntity
8
Geo
100
AcDbLine
10
-106.063748056180
20
-3.22070681922114
30
0.000000000000000
11
-105.963748056180
21
-3.33532299793572
31
0.000000000000000
  0
LINE
  5
F1021D
330
F1021E
100
AcDbEntity
8
Geo
100
AcDbLine
10
-105.963748056180
20
-3.33532299793572
30
0.000000000000000
11
-105.863748056180
21
-3.45039138782542
31
0.000000000000000
  0
LINE
  5
F1021F
330
F10220
100
AcDbEntity
8
Geo
100
AcDbLine
10
-105.863748056180
20
-3.45039138782542
30
0.000000000000000
11
-105.763748056180
21
-3.56574153824638
31
0.000000000000000
  0
LINE
  5
F10221
330
F10222
100
AcDbEntity
8
Geo
100
AcDbLine
10
-105.763748056180
20
-3.56574153824638
30
0.000000000000000
11
-105.663748056180
21
-3.68120258118323
31
0.000000000000000
  0
LINE
  5
F10223
330
F10224
100
AcDbEntity
8
Geo
100
AcDbLine
10
-105.663748056180
20
-3.68120258118323
30
0.000000000000000
11
-105.563748056180
21
-3.79660348435570
31
0.000000000000000
  0
LINE
  5
F10225
330
F10226
100
AcDbEntity
8
Geo
100
AcDbLine
10
-105.563748056180
20
-3.79660348435570
30
0.000000000000000
11
-105.463748056180
21
-3.91177330456845
31
0.000000000000000
  0
LINE
  5
F10227
330
F10228
100
AcDbEntity
8
Geo
100
AcDbLine
10
-105.463748056180
20
-3.91177330456845
30
0.000000000000000
11
-105.363748056180
21
-4.02654144092901
31
0.000000000000000
  0
LINE
  5
F10229
330
F1022A
100
AcDbEntity
8
Geo
100
AcDbLine
10
-105.363748056180
20
-4.02654144092901
30
0.000000000000000
11
-105.263748056180
21
-4.14073788755863
31
0.000000000000000
  0
LINE
  5
F1022B
330
F1022C
100
AcDbEntity
8
Geo
100
AcDbLine
10
-105.263748056180
20
-4.14073788755863
30
0.000000000000000
11
-105.163748056180
21
-4.25419348542175
31
0.000000000000000
  0
LINE
  5
F1022D
330
F1022E
100
AcDbEntity
8
Geo
100
AcDbLine
10
-105.163748056180
20
-4.25419348542175
30
0.000000000000000
11
-105.063748056180
21
-4.36674017290106
31
0.000000000000000
  0
LINE
  5
F1022F
330
F10230
100
AcDbEntity
8
Geo
100
AcDbLine
10
-105.063748056180
20
-4.36674017290106
30
0.000000000000000
11
-104.963748056180
21
-4.47821123474691
31
0.000000000000000
  0
LINE
  5
F10231
330
F10232
100
AcDbEntity
8
Geo
100
AcDbLine
10
-104.963748056180
20
-4.47821123474691
30
0.000000000000000
11
-104.863748056180
21
-4.58844154903238
31
0.000000000000000
  0
LINE
  5
F10233
330
F10234
100
AcDbEntity
8
Geo
100
AcDbLine
10
-104.863748056180
20
-4.58844154903238
30
0.000000000000000
11
-104.763748056180
21
-4.69726783174818
31
0.000000000000000
  0
LINE
  5
F10235
330
F10236
100
AcDbEntity
8
Geo
100
AcDbLine
10
-104.763748056180
20
-4.69726783174818
30
0.000000000000000
11
-104.663748056180
21
-4.80452887867500
31
0.000000000000000
  0
LINE
  5
F10237
330
F10238
100
AcDbEntity
8
Geo
100
AcDbLine
10
-104.663748056180
20
-4.80452887867500
30
0.000000000000000
11
-104.563748056180
21
-4.91006580417509
31
0.000000000000000
  0
LINE
  5
F10239
330
F1023A
100
AcDbEntity
8
Geo
100
AcDbLine
10
-104.563748056180
20
-4.91006580417509
30
0.000000000000000
11
-104.463748056180
21
-5.01372227654935
31
0.000000000000000
  0
LINE
  5
F1023B
330
F1023C
100
AcDbEntity
8
Geo
100
AcDbLine
10
-104.463748056180
20
-5.01372227654935
30
0.000000000000000
11
-104.363748056180
21
-5.11534474961124
31
0.000000000000000
  0
LINE
  5
F1023D
330
F1023E
100
AcDbEntity
8
Geo
100
AcDbLine
10
-104.363748056180
20
-5.11534474961124
30
0.000000000000000
11
-104.263748056180
21
-5.21478269013456
31
0.000000000000000
  0
LINE
  5
F1023F
330
F10240
100
AcDbEntity
8
Geo
100
AcDbLine
10
-104.263748056180
20
-5.21478269013456
30
0.000000000000000
11
-104.163748056180
21
-5.31188880083804
31
0.000000000000000
  0
LINE
  5
F10241
330
F10242
100
AcDbEntity
8
Geo
100
AcDbLine
10
-104.163748056180
20
-5.31188880083804
30
0.000000000000000
11
-104.063748056180
21
-5.40651923857669
31
0.000000000000000
  0
LINE
  5
F10243
330
F10244
100
AcDbEntity
8
Geo
100
AcDbLine
10
-104.063748056180
20
-5.40651923857669
30
0.000000000000000
11
-103.963748056180
21
-5.49853382741634
31
0.000000000000000
  0
LINE
  5
F10245
330
F10246
100
AcDbEntity
8
Geo
100
AcDbLine
10
-103.963748056180
20
-5.49853382741634
30
0.000000000000000
11
-103.863748056180
21
-5.58779626627616
31
0.000000000000000
  0
LINE
  5
F10247
330
F10248
100
AcDbEntity
8
Geo
100
AcDbLine
10
-103.863748056180
20
-5.58779626627616
30
0.000000000000000
11
-103.763748056180
21
-5.67417433083118
31
0.000000000000000
  0
LINE
  5
F10249
330
F1024A
100
AcDbEntity
8
Geo
100
AcDbLine
10
-103.763748056180
20
-5.67417433083118
30
0.000000000000000
11
-103.663748056180
21
-5.75754006937603
31
0.000000000000000
  0
LINE
  5
F1024B
330
F1024C
100
AcDbEntity
8
Geo
100
AcDbLine
10
-103.663748056180
20
-5.75754006937603
30
0.000000000000000
11
-103.563748056180
21
-5.83776999235963
31
0.000000000000000
  0
LINE
  5
F1024D
330
F1024E
100
AcDbEntity
8
Geo
100
AcDbLine
10
-103.563748056180
20
-5.83776999235963
30
0.000000000000000
11
-103.463748056180
21
-5.91474525531004
31
0.000000000000000
  0
LINE
  5
F1024F
330
F10250
100
AcDbEntity
8
Geo
100
AcDbLine
10
-103.463748056180
20
-5.91474525531004
30
0.000000000000000
11
-103.363748056180
21
-5.98835183487869
31
0.000000000000000
  0
LINE
  5
F10251
330
F10252
100
AcDbEntity
8
Geo
100
AcDbLine
10
-103.363748056180
20
-5.98835183487869
30
0.000000000000000
11
-103.263748056180
21
-6.05848069774292
31
0.000000000000000
  0
LINE
  5
F10253
330
F10254
100
AcDbEntity
8
Geo
100
AcDbLine
10
-103.263748056180
20
-6.05848069774292
30
0.000000000000000
11
-103.163748056180
21
-6.12502796211695
31
0.000000000000000
  0
LINE
  5
F10255
330
F10256
100
AcDbEntity
8
Geo
100
AcDbLine
10
-103.163748056180
20
-6.12502796211695
30
0.000000000000000
11
-103.063748056180
21
-6.18789505163179
31
0.000000000000000
  0
LINE
  5
F10257
330
F10258
100
AcDbEntity
8
Geo
100
AcDbLine
10
-103.063748056180
20
-6.18789505163179
30
0.000000000000000
11
-102.963748056180
21
-6.24698884135628
31
0.000000000000000
  0
LINE
  5
F10259
330
F1025A
100
AcDbEntity
8
Geo
100
AcDbLine
10
-102.963748056180
20
-6.24698884135628
30
0.000000000000000
11
-102.863748056180
21
-6.30222179574293
31
0.000000000000000
  0
LINE
  5
F1025B
330
F1025C
100
AcDbEntity
8
Geo
100
AcDbLine
10
-102.863748056180
20
-6.30222179574293
30
0.000000000000000
11
-102.763748056180
21
-6.35351209829421
31
0.000000000000000
  0
LINE
  5
F1025D
330
F1025E
100
AcDbEntity
8
Geo
100
AcDbLine
10
-102.763748056180
20
-6.35351209829421
30
0.000000000000000
11
-102.663748056180
21
-6.40078377275717
31
0.000000000000000
  0
LINE
  5
F1025F
330
F10260
100
AcDbEntity
8
Geo
100
AcDbLine
10
-102.663748056180
20
-6.40078377275717
30
0.000000000000000
11
-102.563748056180
21
-6.44396679566703
31
0.000000000000000
  0
LINE
  5
F10261
330
F10262
100
AcDbEntity
8
Geo
100
AcDbLine
10
-102.563748056180
20
-6.44396679566703
30
0.000000000000000
11
-102.463748056180
21
-6.48299720007276
31
0.000000000000000
  0
LINE
  5
F10263
330
F10264
100
AcDbEntity
8
Geo
100
AcDbLine
10
-102.463748056180
20
-6.48299720007276
30
0.000000000000000
11
-102.363748056180
21
-6.51781717029129
31
0.000000000000000
  0
LINE
  5
F10265
330
F10266
100
AcDbEntity
8
Geo
100
AcDbLine
10
-102.363748056180
20
-6.51781717029129
30
0.000000000000000
11
-102.263748056180
21
-6.54837512754978
31
0.000000000000000
  0
LINE
  5
F10267
330
F10268
100
AcDbEntity
8
Geo
100
AcDbLine
10
-102.263748056180
20
-6.54837512754978
30
0.000000000000000
11
-102.163748056180
21
-6.57462580638918
31
0.000000000000000
  0
LINE
  5
F10269
330
F1026A
100
AcDbEntity
8
Geo
100
AcDbLine
10
-102.163748056180
20
-6.57462580638918
30
0.000000000000000
11
-102.063748056180
21
-6.59653032171589
31
0.000000000000000
  0
LINE
  5
F1026B
330
F1026C
100
AcDbEntity
8
Geo
100
AcDbLine
10
-102.063748056180
20
-6.59653032171589
30
0.000000000000000
11
-101.963748056180
21
-6.61405622640221
31
0.000000000000000
  0
LINE
  5
F1026D
330
F1026E
100
AcDbEntity
8
Geo
100
AcDbLine
10
-101.963748056180
20
-6.61405622640221
30
0.000000000000000
11
-101.863748056180
21
-6.62717755935022
31
0.000000000000000
  0
LINE
  5
F1026F
330
F10270
100
AcDbEntity
8
Geo
100
AcDbLine
10
-101.863748056180
20
-6.62717755935022
30
0.000000000000000
11
-101.763748056180
21
-6.63587488394790
31
0.000000000000000
  0
LINE
  5
F10271
330
F10272
100
AcDbEntity
8
Geo
100
AcDbLine
10
-101.763748056180
20
-6.63587488394790
30
0.000000000000000
11
-101.663748056180
21
-6.64013531686058
31
0.000000000000000
  0
LINE
  5
F10273
330
F10274
100
AcDbEntity
8
Geo
100
AcDbLine
10
-93.4637480561802
20
-0.640603228204853
30
0.000000000000000
11
-93.3637480561802
21
-0.640724928133915
31
0.000000000000000
  0
LINE
  5
F10275
330
F10276
100
AcDbEntity
8
Geo
100
AcDbLine
10
-93.3637480561802
20
-0.640724928133915
30
0.000000000000000
11
-93.2637480561802
21
-0.642853765954478
31
0.000000000000000
  0
LINE
  5
F10277
330
F10278
100
AcDbEntity
8
Geo
100
AcDbLine
10
-93.2637480561802
20
-0.642853765954478
30
0.000000000000000
11
-93.1637480561802
21
-0.647461311748051
31
0.000000000000000
  0
LINE
  5
F10279
330
F1027A
100
AcDbEntity
8
Geo
100
AcDbLine
10
-93.1637480561802
20
-0.647461311748051
30
0.000000000000000
11
-93.0637480561802
21
-0.654326577425020
31
0.000000000000000
  0
LINE
  5
F1027B
330
F1027C
100
AcDbEntity
8
Geo
100
AcDbLine
10
-93.0637480561802
20
-0.654326577425020
30
0.000000000000000
11
-92.9637480561802
21
-0.663233702424389
31
0.000000000000000
  0
LINE
  5
F1027D
330
F1027E
100
AcDbEntity
8
Geo
100
AcDbLine
10
-92.9637480561802
20
-0.663233702424389
30
0.000000000000000
11
-92.8637480561802
21
-0.673972439147172
31
0.000000000000000
  0
LINE
  5
F1027F
330
F10280
100
AcDbEntity
8
Geo
100
AcDbLine
10
-92.8637480561802
20
-0.673972439147172
30
0.000000000000000
11
-92.7637480561802
21
-0.686338568328376
31
0.000000000000000
  0
LINE
  5
F10281
330
F10282
100
AcDbEntity
8
Geo
100
AcDbLine
10
-92.7637480561802
20
-0.686338568328376
30
0.000000000000000
11
-92.6637480561802
21
-0.700134249022895
31
0.000000000000000
  0
LINE
  5
F10283
330
F10284
100
AcDbEntity
8
Geo
100
AcDbLine
10
-92.6637480561802
20
-0.700134249022895
30
0.000000000000000
11
-92.5637480561801
21
-0.715168307892330
31
0.000000000000000
  0
LINE
  5
F10285
330
F10286
100
AcDbEntity
8
Geo
100
AcDbLine
10
-92.5637480561801
20
-0.715168307892330
30
0.000000000000000
11
-92.4637480561802
21
-0.731256472455499
31
0.000000000000000
  0
LINE
  5
F10287
330
F10288
100
AcDbEntity
8
Geo
100
AcDbLine
10
-92.4637480561802
20
-0.731256472455499
30
0.000000000000000
11
-92.3637480561802
21
-0.748221552909651
31
0.000000000000000
  0
LINE
  5
F10289
330
F1028A
100
AcDbEntity
8
Geo
100
AcDbLine
10
-92.3637480561802
20
-0.748221552909651
30
0.000000000000000
11
-92.2637480561801
21
-0.765893577046211
31
0.000000000000000
  0
LINE
  5
F1028B
330
F1028C
100
AcDbEntity
8
Geo
100
AcDbLine
10
-92.2637480561801
20
-0.765893577046211
30
0.000000000000000
11
-92.1637480561801
21
-0.784109882678296
31
0.000000000000000
  0
LINE
  5
F1028D
330
F1028E
100
AcDbEntity
8
Geo
100
AcDbLine
10
-92.1637480561801
20
-0.784109882678296
30
0.000000000000000
11
-92.0637480561801
21
-0.802715171870718
31
0.000000000000000
  0
LINE
  5
F1028F
330
F10290
100
AcDbEntity
8
Geo
100
AcDbLine
10
-92.0637480561801
20
-0.802715171870718
30
0.000000000000000
11
-91.9637480561802
21
-0.821561531120221
31
0.000000000000000
  0
LINE
  5
F10291
330
F10292
100
AcDbEntity
8
Geo
100
AcDbLine
10
-91.9637480561802
20
-0.821561531120221
30
0.000000000000000
11
-91.8637480561801
21
-0.840508421477209
31
0.000000000000000
  0
LINE
  5
F10293
330
F10294
100
AcDbEntity
8
Geo
100
AcDbLine
10
-91.8637480561801
20
-0.840508421477209
30
0.000000000000000
11
-91.7637480561801
21
-0.859422642433081
31
0.000000000000000
  0
LINE
  5
F10295
330
F10296
100
AcDbEntity
8
Geo
100
AcDbLine
10
-91.7637480561801
20
-0.859422642433081
30
0.000000000000000
11
-91.6637480561801
21
-0.878178273222010
31
0.000000000000000
  0
LINE
  5
F10297
330
F10298
100
AcDbEntity
8
Geo
100
AcDbLine
10
-91.6637480561801
20
-0.878178273222010
30
0.000000000000000
11
-91.5637480561801
21
-0.896656595004745
31
0.000000000000000
  0
LINE
  5
F10299
330
F1029A
100
AcDbEntity
8
Geo
100
AcDbLine
10
-91.5637480561801
20
-0.896656595004745
30
0.000000000000000
11
-91.4637480561801
21
-0.914745997216912
31
0.000000000000000
  0
LINE
  5
F1029B
330
F1029C
100
AcDbEntity
8
Geo
100
AcDbLine
10
-91.4637480561801
20
-0.914745997216912
30
0.000000000000000
11
-91.3637480561801
21
-0.932341871176966
31
0.000000000000000
  0
LINE
  5
F1029D
330
F1029E
100
AcDbEntity
8
Geo
100
AcDbLine
10
-91.3637480561801
20
-0.932341871176966
30
0.000000000000000
11
-91.2637480561801
21
-0.949346493860957
31
0.000000000000000
  0
LINE
  5
F1029F
330
F102A0
100
AcDbEntity
8
Geo
100
AcDbLine
10
-91.2637480561801
20
-0.949346493860957
30
0.000000000000000
11
-91.1637480561801
21
-0.965668904563954
31
0.000000000000000
  0
LINE
  5
F102A1
330
F102A2
100
AcDbEntity
8
Geo
100
AcDbLine
10
-91.1637480561801
20
-0.965668904563954
30
0.000000000000000
11
-91.0637480561801
21
-0.981224776982345
31
0.000000000000000
  0
LINE
  5
F102A3
330
F102A4
100
AcDbEntity
8
Geo
100
AcDbLine
10
-91.0637480561801
20
-0.981224776982345
30
0.000000000000000
11
-90.9637480561801
21
-0.995936289068210
31
0.000000000000000
  0
LINE
  5
F102A5
330
F102A6
100
AcDbEntity
8
Geo
100
AcDbLine
10
-90.9637480561801
20
-0.995936289068210
30
0.000000000000000
11
-90.8637480561801
21
-1.00973199282724
31
0.000000000000000
  0
LINE
  5
F102A7
330
F102A8
100
AcDbEntity
8
Geo
100
AcDbLine
10
-90.8637480561801
20
-1.00973199282724
30
0.000000000000000
11
-90.7637480561801
21
-1.02254668605583
31
0.000000000000000
  0
LINE
  5
F102A9
330
F102AA
100
AcDbEntity
8
Geo
100
AcDbLine
10
-90.7637480561801
20
-1.02254668605583
30
0.000000000000000
11
-90.6637480561801
21
-1.03432128784130
31
0.000000000000000
  0
LINE
  5
F102AB
330
F102AC
100
AcDbEntity
8
Geo
100
AcDbLine
10
-90.6637480561801
20
-1.03432128784130
30
0.000000000000000
11
-90.5637480561801
21
-1.04500271948203
31
0.000000000000000
  0
LINE
  5
F102AD
330
F102AE
100
AcDbEntity
8
Geo
100
AcDbLine
10
-90.5637480561801
20
-1.04500271948203
30
0.000000000000000
11
-90.4637480561801
21
-1.05454379232163
31
0.000000000000000
  0
LINE
  5
F102AF
330
F102B0
100
AcDbEntity
8
Geo
100
AcDbLine
10
-90.4637480561801
20
-1.05454379232163
30
0.000000000000000
11
-90.3637480561801
21
-1.06290310383317
31
0.000000000000000
  0
LINE
  5
F102B1
330
F102B2
100
AcDbEntity
8
Geo
100
AcDbLine
10
-90.3637480561801
20
-1.06290310383317
30
0.000000000000000
11
-90.2637480561801
21
-1.07004494313588
31
0.000000000000000
  0
LINE
  5
F102B3
330
F102B4
100
AcDbEntity
8
Geo
100
AcDbLine
10
-90.2637480561801
20
-1.07004494313588
30
0.000000000000000
11
-90.1637480561801
21
-1.07593920697717
31
0.000000000000000
  0
LINE
  5
F102B5
330
F102B6
100
AcDbEntity
8
Geo
100
AcDbLine
10
-90.1637480561801
20
-1.07593920697717
30
0.000000000000000
11
-90.0637480561801
21
-1.08056132706731
31
0.000000000000000
  0
LINE
  5
F102B7
330
F102B8
100
AcDbEntity
8
Geo
100
AcDbLine
10
-90.0637480561801
20
-1.08056132706731
30
0.000000000000000
11
-89.9637480561802
21
-1.08389220951214
31
0.000000000000000
  0
LINE
  5
F102B9
330
F102BA
100
AcDbEntity
8
Geo
100
AcDbLine
10
-108.963748056180
20
-3.64060322820486
30
0.000000000000000
11
-108.863748056180
21
-3.75604477303024
31
0.000000000000000
  0
LINE
  5
F102BB
330
F102BC
100
AcDbEntity
8
Geo
100
AcDbLine
10
-108.863748056180
20
-3.75604477303024
30
0.000000000000000
11
-108.763748056180
21
-3.87131531445787
31
0.000000000000000
  0
LINE
  5
F102BD
330
F102BE
100
AcDbEntity
8
Geo
100
AcDbLine
10
-108.763748056180
20
-3.87131531445787
30
0.000000000000000
11
-108.663748056180
21
-3.98624410239707
31
0.000000000000000
  0
LINE
  5
F102BF
330
F102C0
100
AcDbEntity
8
Geo
100
AcDbLine
10
-108.663748056180
20
-3.98624410239707
30
0.000000000000000
11
-108.563748056180
21
-4.10066089299614
31
0.000000000000000
  0
LINE
  5
F102C1
330
F102C2
100
AcDbEntity
8
Geo
100
AcDbLine
10
-108.563748056180
20
-4.10066089299614
30
0.000000000000000
11
-108.463748056180
21
-4.21439620082432
31
0.000000000000000
  0
LINE
  5
F102C3
330
F102C4
100
AcDbEntity
8
Geo
100
AcDbLine
10
-108.463748056180
20
-4.21439620082432
30
0.000000000000000
11
-108.363748056180
21
-4.32728154993030
31
0.000000000000000
  0
LINE
  5
F102C5
330
F102C6
100
AcDbEntity
8
Geo
100
AcDbLine
10
-108.363748056180
20
-4.32728154993030
30
0.000000000000000
11
-108.263748056180
21
-4.43914972340546
31
0.000000000000000
  0
LINE
  5
F102C7
330
F102C8
100
AcDbEntity
8
Geo
100
AcDbLine
10
-108.263748056180
20
-4.43914972340546
30
0.000000000000000
11
-108.163748056180
21
-4.54983501108198
31
0.000000000000000
  0
LINE
  5
F102C9
330
F102CA
100
AcDbEntity
8
Geo
100
AcDbLine
10
-108.163748056180
20
-4.54983501108198
30
0.000000000000000
11
-108.063748056180
21
-4.65917345499911
31
0.000000000000000
  0
LINE
  5
F102CB
330
F102CC
100
AcDbEntity
8
Geo
100
AcDbLine
10
-108.063748056180
20
-4.65917345499911
30
0.000000000000000
11
-107.963748056180
21
-4.76700309227389
31
0.000000000000000
  0
LINE
  5
F102CD
330
F102CE
100
AcDbEntity
8
Geo
100
AcDbLine
10
-107.963748056180
20
-4.76700309227389
30
0.000000000000000
11
-107.863748056180
21
-4.87316419501648
31
0.000000000000000
  0
LINE
  5
F102CF
330
F102D0
100
AcDbEntity
8
Geo
100
AcDbLine
10
-107.863748056180
20
-4.87316419501648
30
0.000000000000000
11
-107.763748056180
21
-4.97749950693491
31
0.000000000000000
  0
LINE
  5
F102D1
330
F102D2
100
AcDbEntity
8
Geo
100
AcDbLine
10
-107.763748056180
20
-4.97749950693491
30
0.000000000000000
11
-107.663748056180
21
-5.07985447627859
31
0.000000000000000
  0
LINE
  5
F102D3
330
F102D4
100
AcDbEntity
8
Geo
100
AcDbLine
10
-107.663748056180
20
-5.07985447627859
30
0.000000000000000
11
-107.563748056180
21
-5.18007748477560
31
0.000000000000000
  0
LINE
  5
F102D5
330
F102D6
100
AcDbEntity
8
Geo
100
AcDbLine
10
-107.563748056180
20
-5.18007748477560
30
0.000000000000000
11
-107.463748056180
21
-5.27802007222459
31
0.000000000000000
  0
LINE
  5
F102D7
330
F102D8
100
AcDbEntity
8
Geo
100
AcDbLine
10
-107.463748056180
20
-5.27802007222459
30
0.000000000000000
11
-107.363748056180
21
-5.37353715640873
31
0.000000000000000
  0
LINE
  5
F102D9
330
F102DA
100
AcDbEntity
8
Geo
100
AcDbLine
10
-107.363748056180
20
-5.37353715640873
30
0.000000000000000
11
-107.263748056180
21
-5.46648724800575
31
0.000000000000000
  0
LINE
  5
F102DB
330
F102DC
100
AcDbEntity
8
Geo
100
AcDbLine
10
-107.263748056180
20
-5.46648724800575
30
0.000000000000000
11
-107.163748056180
21
-5.55673266017588
31
0.000000000000000
  0
LINE
  5
F102DD
330
F102DE
100
AcDbEntity
8
Geo
100
AcDbLine
10
-107.163748056180
20
-5.55673266017588
30
0.000000000000000
11
-107.063748056180
21
-5.64413971251717
31
0.000000000000000
  0
LINE
  5
F102DF
330
F102E0
100
AcDbEntity
8
Geo
100
AcDbLine
10
-107.063748056180
20
-5.64413971251717
30
0.000000000000000
11
-106.963748056180
21
-5.72857892908610
31
0.000000000000000
  0
LINE
  5
F102E1
330
F102E2
100
AcDbEntity
8
Geo
100
AcDbLine
10
-106.963748056180
20
-5.72857892908610
30
0.000000000000000
11
-106.863748056180
21
-5.80992523019010
31
0.000000000000000
  0
LINE
  5
F102E3
330
F102E4
100
AcDbEntity
8
Geo
100
AcDbLine
10
-106.863748056180
20
-5.80992523019010
30
0.000000000000000
11
-106.763748056180
21
-5.88805811766790
31
0.000000000000000
  0
LINE
  5
F102E5
330
F102E6
100
AcDbEntity
8
Geo
100
AcDbLine
10
-106.763748056180
20
-5.88805811766790
30
0.000000000000000
11
-106.663748056180
21
-5.96286185338334
31
0.000000000000000
  0
LINE
  5
F102E7
330
F102E8
100
AcDbEntity
8
Geo
100
AcDbLine
10
-106.663748056180
20
-5.96286185338334
30
0.000000000000000
11
-106.563748056180
21
-6.03422563066805
31
0.000000000000000
  0
LINE
  5
F102E9
330
F102EA
100
AcDbEntity
8
Geo
100
AcDbLine
10
-106.563748056180
20
-6.03422563066805
30
0.000000000000000
11
-106.463748056180
21
-6.10204373845925
31
0.000000000000000
  0
LINE
  5
F102EB
330
F102EC
100
AcDbEntity
8
Geo
100
AcDbLine
10
-106.463748056180
20
-6.10204373845925
30
0.000000000000000
11
-106.363748056180
21
-6.16621571788939
31
0.000000000000000
  0
LINE
  5
F102ED
330
F102EE
100
AcDbEntity
8
Geo
100
AcDbLine
10
-106.363748056180
20
-6.16621571788939
30
0.000000000000000
11
-106.263748056180
21
-6.22664651109572
31
0.000000000000000
  0
LINE
  5
F102EF
330
F102F0
100
AcDbEntity
8
Geo
100
AcDbLine
10
-106.263748056180
20
-6.22664651109572
30
0.000000000000000
11
-106.163748056180
21
-6.28324660202938
31
0.000000000000000
  0
LINE
  5
F102F1
330
F102F2
100
AcDbEntity
8
Geo
100
AcDbLine
10
-106.163748056180
20
-6.28324660202938
30
0.000000000000000
11
-106.063748056180
21
-6.33593214905539
31
0.000000000000000
  0
LINE
  5
F102F3
330
F102F4
100
AcDbEntity
8
Geo
100
AcDbLine
10
-106.063748056180
20
-6.33593214905539
30
0.000000000000000
11
-105.963748056180
21
-6.38462510914713
31
0.000000000000000
  0
LINE
  5
F102F5
330
F102F6
100
AcDbEntity
8
Geo
100
AcDbLine
10
-105.963748056180
20
-6.38462510914713
30
0.000000000000000
11
-105.863748056180
21
-6.42925335349142
31
0.000000000000000
  0
LINE
  5
F102F7
330
F102F8
100
AcDbEntity
8
Geo
100
AcDbLine
10
-105.863748056180
20
-6.42925335349142
30
0.000000000000000
11
-105.763748056180
21
-6.46975077433274
31
0.000000000000000
  0
LINE
  5
F102F9
330
F102FA
100
AcDbEntity
8
Geo
100
AcDbLine
10
-105.763748056180
20
-6.46975077433274
30
0.000000000000000
11
-105.663748056180
21
-6.50605738289866
31
0.000000000000000
  0
LINE
  5
F102FB
330
F102FC
100
AcDbEntity
8
Geo
100
AcDbLine
10
-105.663748056180
20
-6.50605738289866
30
0.000000000000000
11
-105.563748056180
21
-6.53811939826104
31
0.000000000000000
  0
LINE
  5
F102FD
330
F102FE
100
AcDbEntity
8
Geo
100
AcDbLine
10
-105.563748056180
20
-6.53811939826104
30
0.000000000000000
11
-105.463748056180
21
-6.56588932700168
31
0.000000000000000
  0
LINE
  5
F102FF
330
F10300
100
AcDbEntity
8
Geo
100
AcDbLine
10
-105.463748056180
20
-6.56588932700168
30
0.000000000000000
11
-105.363748056180
21
-6.58932603356424
31
0.000000000000000
  0
LINE
  5
F10301
330
F10302
100
AcDbEntity
8
Geo
100
AcDbLine
10
-105.363748056180
20
-6.58932603356424
30
0.000000000000000
11
-105.263748056180
21
-6.60839480118831
31
0.000000000000000
  0
LINE
  5
F10303
330
F10304
100
AcDbEntity
8
Geo
100
AcDbLine
10
-105.263748056180
20
-6.60839480118831
30
0.000000000000000
11
-105.163748056180
21
-6.62306738333526
31
0.000000000000000
  0
LINE
  5
F10305
330
F10306
100
AcDbEntity
8
Geo
100
AcDbLine
10
-105.163748056180
20
-6.62306738333526
30
0.000000000000000
11
-105.063748056180
21
-6.63332204552982
31
0.000000000000000
  0
LINE
  5
F10307
330
F10308
100
AcDbEntity
8
Geo
100
AcDbLine
10
-105.063748056180
20
-6.63332204552982
30
0.000000000000000
11
-104.963748056180
21
-6.63914359755533
31
0.000000000000000
  0
LINE
  5
F10309
330
F1030A
100
AcDbEntity
8
Geo
100
AcDbLine
10
-96.7637480561802
20
-0.641016896957502
30
0.000000000000000
11
-96.6637480561802
21
-0.641321512974024
31
0.000000000000000
  0
LINE
  5
F1030B
330
F1030C
100
AcDbEntity
8
Geo
100
AcDbLine
10
-96.6637480561802
20
-0.641321512974024
30
0.000000000000000
11
-96.5637480561802
21
-0.646068960771024
31
0.000000000000000
  0
LINE
  5
F1030D
330
F1030E
100
AcDbEntity
8
Geo
100
AcDbLine
10
-96.5637480561802
20
-0.646068960771024
30
0.000000000000000
11
-96.4637480561802
21
-0.655252207960766
31
0.000000000000000
  0
LINE
  5
F1030F
330
F10310
100
AcDbEntity
8
Geo
100
AcDbLine
10
-96.4637480561802
20
-0.655252207960766
30
0.000000000000000
11
-96.3637480561802
21
-0.668857651412123
31
0.000000000000000
  0
LINE
  5
F10311
330
F10312
100
AcDbEntity
8
Geo
100
AcDbLine
10
-96.3637480561802
20
-0.668857651412123
30
0.000000000000000
11
-96.2637480561802
21
-0.686865137400872
31
0.000000000000000
  0
LINE
  5
F10313
330
F10314
100
AcDbEntity
8
Geo
100
AcDbLine
10
-96.2637480561802
20
-0.686865137400872
30
0.000000000000000
11
-96.1637480561802
21
-0.709247991463381
31
0.000000000000000
  0
LINE
  5
F10315
330
F10316
100
AcDbEntity
8
Geo
100
AcDbLine
10
-96.1637480561802
20
-0.709247991463381
30
0.000000000000000
11
-96.0637480561802
21
-0.735973057909451
31
0.000000000000000
  0
LINE
  5
F10317
330
F10318
100
AcDbEntity
8
Geo
100
AcDbLine
10
-96.0637480561802
20
-0.735973057909451
30
0.000000000000000
11
-95.9637480561802
21
-0.767000748935797
31
0.000000000000000
  0
LINE
  5
F10319
330
F1031A
100
AcDbEntity
8
Geo
100
AcDbLine
10
-95.9637480561802
20
-0.767000748935797
30
0.000000000000000
11
-95.8637480561802
21
-0.802285103267403
31
0.000000000000000
  0
LINE
  5
F1031B
330
F1031C
100
AcDbEntity
8
Geo
100
AcDbLine
10
-95.8637480561802
20
-0.802285103267403
30
0.000000000000000
11
-95.7637480561802
21
-0.841773854239891
31
0.000000000000000
  0
LINE
  5
F1031D
330
F1031E
100
AcDbEntity
8
Geo
100
AcDbLine
10
-95.7637480561802
20
-0.841773854239891
30
0.000000000000000
11
-95.6637480561802
21
-0.885408507222064
31
0.000000000000000
  0
LINE
  5
F1031F
330
F10320
100
AcDbEntity
8
Geo
100
AcDbLine
10
-95.6637480561802
20
-0.885408507222064
30
0.000000000000000
11
-95.5637480561802
21
-0.933124426263917
31
0.000000000000000
  0
LINE
  5
F10321
330
F10322
100
AcDbEntity
8
Geo
100
AcDbLine
10
-95.5637480561802
20
-0.933124426263917
30
0.000000000000000
11
-95.4637480561802
21
-0.984850929841776
31
0.000000000000000
  0
LINE
  5
F10323
330
F10324
100
AcDbEntity
8
Geo
100
AcDbLine
10
-95.4637480561802
20
-0.984850929841776
30
0.000000000000000
11
-95.3637480561802
21
-1.04051139555875
31
0.000000000000000
  0
LINE
  5
F10325
330
F10326
100
AcDbEntity
8
Geo
100
AcDbLine
10
-95.3637480561802
20
-1.04051139555875
30
0.000000000000000
11
-95.2637480561802
21
-1.10002337364535
31
0.000000000000000
  0
LINE
  5
F10327
330
F10328
100
AcDbEntity
8
Geo
100
AcDbLine
10
-95.2637480561802
20
-1.10002337364535
30
0.000000000000000
11
-95.1637480561802
21
-1.16329870909228
31
0.000000000000000
  0
LINE
  5
F10329
330
F1032A
100
AcDbEntity
8
Geo
100
AcDbLine
10
-95.1637480561802
20
-1.16329870909228
30
0.000000000000000
11
-95.0637480561802
21
-1.23024367223424
31
0.000000000000000
  0
LINE
  5
F1032B
330
F1032C
100
AcDbEntity
8
Geo
100
AcDbLine
10
-95.0637480561802
20
-1.23024367223424
30
0.000000000000000
11
-94.9637480561802
21
-1.30075909759166
31
0.000000000000000
  0
LINE
  5
F1032D
330
F1032E
100
AcDbEntity
8
Geo
100
AcDbLine
10
-94.9637480561802
20
-1.30075909759166
30
0.000000000000000
11
-94.8637480561802
21
-1.29179198077722
31
0.000000000000000
  0
LINE
  5
F1032F
330
F10330
100
AcDbEntity
8
Geo
100
AcDbLine
10
-94.8637480561802
20
-1.29179198077722
30
0.000000000000000
11
-94.7637480561801
21
-1.28305118103796
31
0.000000000000000
  0
LINE
  5
F10331
330
F10332
100
AcDbEntity
8
Geo
100
AcDbLine
10
-94.7637480561801
20
-1.28305118103796
30
0.000000000000000
11
-94.6637480561802
21
-1.27453380931953
31
0.000000000000000
  0
LINE
  5
F10333
330
F10334
100
AcDbEntity
8
Geo
100
AcDbLine
10
-94.6637480561802
20
-1.27453380931953
30
0.000000000000000
11
-94.5637480561801
21
-1.26623701417262
31
0.000000000000000
  0
LINE
  5
F10335
330
F10336
100
AcDbEntity
8
Geo
100
AcDbLine
10
-94.5637480561801
20
-1.26623701417262
30
0.000000000000000
11
-94.4637480561802
21
-1.25815798306707
31
0.000000000000000
  0
LINE
  5
F10337
330
F10338
100
AcDbEntity
8
Geo
100
AcDbLine
10
-94.4637480561802
20
-1.25815798306707
30
0.000000000000000
11
-94.3637480561802
21
-1.25029394366597
31
0.000000000000000
  0
LINE
  5
F10339
330
F1033A
100
AcDbEntity
8
Geo
100
AcDbLine
10
-94.3637480561802
20
-1.25029394366597
30
0.000000000000000
11
-94.2637480561801
21
-1.24264216506013
31
0.000000000000000
  0
LINE
  5
F1033B
330
F1033C
100
AcDbEntity
8
Geo
100
AcDbLine
10
-94.2637480561801
20
-1.24264216506013
30
0.000000000000000
11
-94.1637480561802
21
-1.23519995896398
31
0.000000000000000
  0
LINE
  5
F1033D
330
F1033E
100
AcDbEntity
8
Geo
100
AcDbLine
10
-94.1637480561802
20
-1.23519995896398
30
0.000000000000000
11
-94.0637480561802
21
-1.22796468087342
31
0.000000000000000
  0
LINE
  5
F1033F
330
F10340
100
AcDbEntity
8
Geo
100
AcDbLine
10
-94.0637480561802
20
-1.22796468087342
30
0.000000000000000
11
-93.9637480561802
21
-1.22093373118638
31
0.000000000000000
  0
LINE
  5
F10341
330
F10342
100
AcDbEntity
8
Geo
100
AcDbLine
10
-93.9637480561802
20
-1.22093373118638
30
0.000000000000000
11
-93.8637480561802
21
-1.21410455628694
31
0.000000000000000
  0
LINE
  5
F10343
330
F10344
100
AcDbEntity
8
Geo
100
AcDbLine
10
-93.8637480561802
20
-1.21410455628694
30
0.000000000000000
11
-93.7637480561802
21
-1.20747464959349
31
0.000000000000000
  0
LINE
  5
F10345
330
F10346
100
AcDbEntity
8
Geo
100
AcDbLine
10
-93.7637480561802
20
-1.20747464959349
30
0.000000000000000
11
-93.6637480561802
21
-1.20104155257187
31
0.000000000000000
  0
LINE
  5
F10347
330
F10348
100
AcDbEntity
8
Geo
100
AcDbLine
10
-93.6637480561802
20
-1.20104155257187
30
0.000000000000000
11
-93.5637480561802
21
-1.19480285571396
31
0.000000000000000
  0
LINE
  5
F10349
330
F1034A
100
AcDbEntity
8
Geo
100
AcDbLine
10
-93.5637480561802
20
-1.19480285571396
30
0.000000000000000
11
-93.4637480561802
21
-1.18875619948261
31
0.000000000000000
  0
LINE
  5
F1034B
330
F1034C
100
AcDbEntity
8
Geo
100
AcDbLine
10
-93.4637480561802
20
-1.18875619948261
30
0.000000000000000
11
-93.3637480561802
21
-1.18289927522339
31
0.000000000000000
  0
LINE
  5
F1034D
330
F1034E
100
AcDbEntity
8
Geo
100
AcDbLine
10
-93.3637480561802
20
-1.18289927522339
30
0.000000000000000
11
-93.2637480561802
21
-1.17722982604402
31
0.000000000000000
  0
LINE
  5
F1034F
330
F10350
100
AcDbEntity
8
Geo
100
AcDbLine
10
-93.2637480561802
20
-1.17722982604402
30
0.000000000000000
11
-93.1637480561802
21
-1.17174564766192
31
0.000000000000000
  0
LINE
  5
F10351
330
F10352
100
AcDbEntity
8
Geo
100
AcDbLine
10
-93.1637480561802
20
-1.17174564766192
30
0.000000000000000
11
-93.0637480561802
21
-1.16644458922070
31
0.000000000000000
  0
LINE
  5
F10353
330
F10354
100
AcDbEntity
8
Geo
100
AcDbLine
10
-93.0637480561802
20
-1.16644458922070
30
0.000000000000000
11
-92.9637480561802
21
-1.16132455407612
31
0.000000000000000
  0
LINE
  5
F10355
330
F10356
100
AcDbEntity
8
Geo
100
AcDbLine
10
-92.9637480561802
20
-1.16132455407612
30
0.000000000000000
11
-92.8637480561802
21
-1.15638350055213
31
0.000000000000000
  0
LINE
  5
F10357
330
F10358
100
AcDbEntity
8
Geo
100
AcDbLine
10
-92.8637480561802
20
-1.15638350055213
30
0.000000000000000
11
-92.7637480561802
21
-1.15161944266765
31
0.000000000000000
  0
LINE
  5
F10359
330
F1035A
100
AcDbEntity
8
Geo
100
AcDbLine
10
-92.7637480561802
20
-1.15161944266765
30
0.000000000000000
11
-92.6637480561802
21
-1.14703045083465
31
0.000000000000000
  0
LINE
  5
F1035B
330
F1035C
100
AcDbEntity
8
Geo
100
AcDbLine
10
-92.6637480561802
20
-1.14703045083465
30
0.000000000000000
11
-92.5637480561801
21
-1.14261465252809
31
0.000000000000000
  0
LINE
  5
F1035D
330
F1035E
100
AcDbEntity
8
Geo
100
AcDbLine
10
-92.5637480561801
20
-1.14261465252809
30
0.000000000000000
11
-92.4637480561802
21
-1.13837023292824
31
0.000000000000000
  0
LINE
  5
F1035F
330
F10360
100
AcDbEntity
8
Geo
100
AcDbLine
10
-92.4637480561802
20
-1.13837023292824
30
0.000000000000000
11
-92.3637480561802
21
-1.13429543553608
31
0.000000000000000
  0
LINE
  5
F10361
330
F10362
100
AcDbEntity
8
Geo
100
AcDbLine
10
-92.3637480561802
20
-1.13429543553608
30
0.000000000000000
11
-92.2637480561801
21
-1.13038856276209
31
0.000000000000000
  0
LINE
  5
F10363
330
F10364
100
AcDbEntity
8
Geo
100
AcDbLine
10
-92.2637480561801
20
-1.13038856276209
30
0.000000000000000
11
-92.1637480561801
21
-1.12664797648912
31
0.000000000000000
  0
LINE
  5
F10365
330
F10366
100
AcDbEntity
8
Geo
100
AcDbLine
10
-92.1637480561801
20
-1.12664797648912
30
0.000000000000000
11
-92.0637480561801
21
-1.12307209860978
31
0.000000000000000
  0
LINE
  5
F10367
330
F10368
100
AcDbEntity
8
Geo
100
AcDbLine
10
-92.0637480561801
20
-1.12307209860978
30
0.000000000000000
11
-91.9637480561802
21
-1.11965941153875
31
0.000000000000000
  0
LINE
  5
F10369
330
F1036A
100
AcDbEntity
8
Geo
100
AcDbLine
10
-91.9637480561802
20
-1.11965941153875
30
0.000000000000000
11
-91.8637480561801
21
-1.11640845870067
31
0.000000000000000
  0
LINE
  5
F1036B
330
F1036C
100
AcDbEntity
8
Geo
100
AcDbLine
10
-91.8637480561801
20
-1.11640845870067
30
0.000000000000000
11
-91.7637480561801
21
-1.11331784499380
31
0.000000000000000
  0
LINE
  5
F1036D
330
F1036E
100
AcDbEntity
8
Geo
100
AcDbLine
10
-91.7637480561801
20
-1.11331784499380
30
0.000000000000000
11
-91.6637480561801
21
-1.11038623723015
31
0.000000000000000
  0
LINE
  5
F1036F
330
F10370
100
AcDbEntity
8
Geo
100
AcDbLine
10
-91.6637480561801
20
-1.11038623723015
30
0.000000000000000
11
-91.5637480561801
21
-1.10761236455226
31
0.000000000000000
  0
LINE
  5
F10371
330
F10372
100
AcDbEntity
8
Geo
100
AcDbLine
10
-91.5637480561801
20
-1.10761236455226
30
0.000000000000000
11
-91.4637480561801
21
-1.10499501882719
31
0.000000000000000
  0
LINE
  5
F10373
330
F10374
100
AcDbEntity
8
Geo
100
AcDbLine
10
-91.4637480561801
20
-1.10499501882719
30
0.000000000000000
11
-91.3637480561801
21
-1.10253305501799
31
0.000000000000000
  0
LINE
  5
F10375
330
F10376
100
AcDbEntity
8
Geo
100
AcDbLine
10
-91.3637480561801
20
-1.10253305501799
30
0.000000000000000
11
-91.2637480561801
21
-1.10022539153314
31
0.000000000000000
  0
LINE
  5
F10377
330
F10378
100
AcDbEntity
8
Geo
100
AcDbLine
10
-91.2637480561801
20
-1.10022539153314
30
0.000000000000000
11
-91.1637480561801
21
-1.09807101055411
31
0.000000000000000
  0
LINE
  5
F10379
330
F1037A
100
AcDbEntity
8
Geo
100
AcDbLine
10
-91.1637480561801
20
-1.09807101055411
30
0.000000000000000
11
-91.0637480561801
21
-1.09606895834153
31
0.000000000000000
  0
LINE
  5
F1037B
330
F1037C
100
AcDbEntity
8
Geo
100
AcDbLine
10
-91.0637480561801
20
-1.09606895834153
30
0.000000000000000
11
-90.9637480561801
21
-1.09421834552026
31
0.000000000000000
  0
LINE
  5
F1037D
330
F1037E
100
AcDbEntity
8
Geo
100
AcDbLine
10
-90.9637480561801
20
-1.09421834552026
30
0.000000000000000
11
-90.8637480561801
21
-1.09251834734348
31
0.000000000000000
  0
LINE
  5
F1037F
330
F10380
100
AcDbEntity
8
Geo
100
AcDbLine
10
-90.8637480561801
20
-1.09251834734348
30
0.000000000000000
11
-90.7637480561801
21
-1.09096820393633
31
0.000000000000000
  0
LINE
  5
F10381
330
F10382
100
AcDbEntity
8
Geo
100
AcDbLine
10
-90.7637480561801
20
-1.09096820393633
30
0.000000000000000
11
-90.6637480561801
21
-1.08956722051912
31
0.000000000000000
  0
LINE
  5
F10383
330
F10384
100
AcDbEntity
8
Geo
100
AcDbLine
10
-90.6637480561801
20
-1.08956722051912
30
0.000000000000000
11
-90.5637480561801
21
-1.08831476761045
31
0.000000000000000
  0
LINE
  5
F10385
330
F10386
100
AcDbEntity
8
Geo
100
AcDbLine
10
-90.5637480561801
20
-1.08831476761045
30
0.000000000000000
11
-90.4637480561801
21
-1.08721028121039
31
0.000000000000000
  0
LINE
  5
F10387
330
F10388
100
AcDbEntity
8
Geo
100
AcDbLine
10
-90.4637480561801
20
-1.08721028121039
30
0.000000000000000
11
-90.3637480561801
21
-1.08625326296405
31
0.000000000000000
  0
LINE
  5
F10389
330
F1038A
100
AcDbEntity
8
Geo
100
AcDbLine
10
-90.3637480561801
20
-1.08625326296405
30
0.000000000000000
11
-90.2637480561801
21
-1.08544328030547
31
0.000000000000000
  0
LINE
  5
F1038B
330
F1038C
100
AcDbEntity
8
Geo
100
AcDbLine
10
-90.2637480561801
20
-1.08544328030547
30
0.000000000000000
11
-90.1637480561801
21
-1.08477996658222
31
0.000000000000000
  0
LINE
  5
F1038D
330
F1038E
100
AcDbEntity
8
Geo
100
AcDbLine
10
-90.1637480561801
20
-1.08477996658222
30
0.000000000000000
11
-90.0637480561801
21
-1.08426302116067
31
0.000000000000000
  0
LINE
  5
F1038F
330
F10390
100
AcDbEntity
8
Geo
100
AcDbLine
10
-90.0637480561801
20
-1.08426302116067
30
0.000000000000000
11
-89.9637480561802
21
-1.08389220951214
31
0.000000000000000
  0
LINE
  5
F10391
330
F10392
100
AcDbEntity
8
Geo
100
AcDbLine
10
-108.963748056180
20
-4.53675251189219
30
0.000000000000000
11
-108.863748056180
21
-4.67675902512924
31
0.000000000000000
  0
LINE
  5
F10393
330
F10394
100
AcDbEntity
8
Geo
100
AcDbLine
10
-108.863748056180
20
-4.67675902512924
30
0.000000000000000
11
-108.763748056180
21
-4.78432898280616
31
0.000000000000000
  0
LINE
  5
F10395
330
F10396
100
AcDbEntity
8
Geo
100
AcDbLine
10
-108.763748056180
20
-4.78432898280616
30
0.000000000000000
11
-108.663748056180
21
-4.89020474113366
31
0.000000000000000
  0
LINE
  5
F10397
330
F10398
100
AcDbEntity
8
Geo
100
AcDbLine
10
-108.663748056180
20
-4.89020474113366
30
0.000000000000000
11
-108.563748056180
21
-4.99422946650004
31
0.000000000000000
  0
LINE
  5
F10399
330
F1039A
100
AcDbEntity
8
Geo
100
AcDbLine
10
-108.563748056180
20
-4.99422946650004
30
0.000000000000000
11
-108.463748056180
21
-5.09624906722613
31
0.000000000000000
  0
LINE
  5
F1039B
330
F1039C
100
AcDbEntity
8
Geo
100
AcDbLine
10
-108.463748056180
20
-5.09624906722613
30
0.000000000000000
11
-108.363748056180
21
-5.19611242182106
31
0.000000000000000
  0
LINE
  5
F1039D
330
F1039E
100
AcDbEntity
8
Geo
100
AcDbLine
10
-108.363748056180
20
-5.19611242182106
30
0.000000000000000
11
-108.263748056180
21
-5.29367160283832
31
0.000000000000000
  0
LINE
  5
F1039F
330
F103A0
100
AcDbEntity
8
Geo
100
AcDbLine
10
-108.263748056180
20
-5.29367160283832
30
0.000000000000000
11
-108.163748056180
21
-5.38878209600047
31
0.000000000000000
  0
LINE
  5
F103A1
330
F103A2
100
AcDbEntity
8
Geo
100
AcDbLine
10
-108.163748056180
20
-5.38878209600047
30
0.000000000000000
11
-108.063748056180
21
-5.48130301426796
31
0.000000000000000
  0
LINE
  5
F103A3
330
F103A4
100
AcDbEntity
8
Geo
100
AcDbLine
10
-108.063748056180
20
-5.48130301426796
30
0.000000000000000
11
-107.963748056180
21
-5.57109730653485
31
0.000000000000000
  0
LINE
  5
F103A5
330
F103A6
100
AcDbEntity
8
Geo
100
AcDbLine
10
-107.963748056180
20
-5.57109730653485
30
0.000000000000000
11
-107.863748056180
21
-5.65803196064249
31
0.000000000000000
  0
LINE
  5
F103A7
330
F103A8
100
AcDbEntity
8
Geo
100
AcDbLine
10
-107.863748056180
20
-5.65803196064249
30
0.000000000000000
11
-107.763748056180
21
-5.74197820041019
31
0.000000000000000
  0
LINE
  5
F103A9
330
F103AA
100
AcDbEntity
8
Geo
100
AcDbLine
10
-107.763748056180
20
-5.74197820041019
30
0.000000000000000
11
-107.663748056180
21
-5.82281167639121
31
0.000000000000000
  0
LINE
  5
F103AB
330
F103AC
100
AcDbEntity
8
Geo
100
AcDbLine
10
-107.663748056180
20
-5.82281167639121
30
0.000000000000000
11
-107.563748056180
21
-5.90041265007143
31
0.000000000000000
  0
LINE
  5
F103AD
330
F103AE
100
AcDbEntity
8
Geo
100
AcDbLine
10
-107.563748056180
20
-5.90041265007143
30
0.000000000000000
11
-107.463748056180
21
-5.97466617123783
31
0.000000000000000
  0
LINE
  5
F103AF
330
F103B0
100
AcDbEntity
8
Geo
100
AcDbLine
10
-107.463748056180
20
-5.97466617123783
30
0.000000000000000
11
-107.363748056180
21
-6.04546224825410
31
0.000000000000000
  0
LINE
  5
F103B1
330
F103B2
100
AcDbEntity
8
Geo
100
AcDbLine
10
-107.363748056180
20
-6.04546224825410
30
0.000000000000000
11
-107.263748056180
21
-6.11269601099105
31
0.000000000000000
  0
LINE
  5
F103B3
330
F103B4
100
AcDbEntity
8
Geo
100
AcDbLine
10
-107.263748056180
20
-6.11269601099105
30
0.000000000000000
11
-107.163748056180
21
-6.17626786617065
31
0.000000000000000
  0
LINE
  5
F103B5
330
F103B6
100
AcDbEntity
8
Geo
100
AcDbLine
10
-107.163748056180
20
-6.17626786617065
30
0.000000000000000
11
-107.063748056180
21
-6.23608364489334
31
0.000000000000000
  0
LINE
  5
F103B7
330
F103B8
100
AcDbEntity
8
Geo
100
AcDbLine
10
-107.063748056180
20
-6.23608364489334
30
0.000000000000000
11
-106.963748056180
21
-6.29205474213036
31
0.000000000000000
  0
LINE
  5
F103B9
330
F103BA
100
AcDbEntity
8
Geo
100
AcDbLine
10
-106.963748056180
20
-6.29205474213036
30
0.000000000000000
11
-106.863748056180
21
-6.34409824797420
31
0.000000000000000
  0
LINE
  5
F103BB
330
F103BC
100
AcDbEntity
8
Geo
100
AcDbLine
10
-106.863748056180
20
-6.34409824797420
30
0.000000000000000
11
-106.763748056180
21
-6.39213707045295
31
0.000000000000000
  0
LINE
  5
F103BD
330
F103BE
100
AcDbEntity
8
Geo
100
AcDbLine
10
-106.763748056180
20
-6.39213707045295
30
0.000000000000000
11
-106.663748056180
21
-6.43610004972654
31
0.000000000000000
  0
LINE
  5
F103BF
330
F103C0
100
AcDbEntity
8
Geo
100
AcDbLine
10
-106.663748056180
20
-6.43610004972654
30
0.000000000000000
11
-106.563748056180
21
-6.47592206349568
31
0.000000000000000
  0
LINE
  5
F103C1
330
F103C2
100
AcDbEntity
8
Geo
100
AcDbLine
10
-106.563748056180
20
-6.47592206349568
30
0.000000000000000
11
-106.463748056180
21
-6.51154412346747
31
0.000000000000000
  0
LINE
  5
F103C3
330
F103C4
100
AcDbEntity
8
Geo
100
AcDbLine
10
-106.463748056180
20
-6.51154412346747
30
0.000000000000000
11
-106.363748056180
21
-6.54291346273464
31
0.000000000000000
  0
LINE
  5
F103C5
330
F103C6
100
AcDbEntity
8
Geo
100
AcDbLine
10
-106.363748056180
20
-6.54291346273464
30
0.000000000000000
11
-106.263748056180
21
-6.56998361393912
31
0.000000000000000
  0
LINE
  5
F103C7
330
F103C8
100
AcDbEntity
8
Geo
100
AcDbLine
10
-106.263748056180
20
-6.56998361393912
30
0.000000000000000
11
-106.163748056180
21
-6.59271447810405
31
0.000000000000000
  0
LINE
  5
F103C9
330
F103CA
100
AcDbEntity
8
Geo
100
AcDbLine
10
-106.163748056180
20
-6.59271447810405
30
0.000000000000000
11
-106.063748056180
21
-6.61107238403236
31
0.000000000000000
  0
LINE
  5
F103CB
330
F103CC
100
AcDbEntity
8
Geo
100
AcDbLine
10
-106.063748056180
20
-6.61107238403236
30
0.000000000000000
11
-105.963748056180
21
-6.62503013818385
31
0.000000000000000
  0
LINE
  5
F103CD
330
F103CE
100
AcDbEntity
8
Geo
100
AcDbLine
10
-105.963748056180
20
-6.62503013818385
30
0.000000000000000
11
-105.863748056180
21
-6.63456706495697
31
0.000000000000000
  0
LINE
  5
F103CF
330
F103D0
100
AcDbEntity
8
Geo
100
AcDbLine
10
-105.863748056180
20
-6.63456706495697
30
0.000000000000000
11
-105.763748056180
21
-6.63966903731551
31
0.000000000000000
  0
LINE
  5
F103D1
330
F103D2
100
AcDbEntity
8
Geo
100
AcDbLine
10
-97.5637480561802
20
-0.640764459607115
30
0.000000000000000
11
-97.4637480561802
21
-0.641789449772974
31
0.000000000000000
  0
LINE
  5
F103D3
330
F103D4
100
AcDbEntity
8
Geo
100
AcDbLine
10
-97.4637480561802
20
-0.641789449772974
30
0.000000000000000
11
-97.3637480561802
21
-0.647256578565190
31
0.000000000000000
  0
LINE
  5
F103D5
330
F103D6
100
AcDbEntity
8
Geo
100
AcDbLine
10
-97.3637480561802
20
-0.647256578565190
30
0.000000000000000
11
-97.2637480561802
21
-0.657157747533582
31
0.000000000000000
  0
LINE
  5
F103D7
330
F103D8
100
AcDbEntity
8
Geo
100
AcDbLine
10
-97.2637480561802
20
-0.657157747533582
30
0.000000000000000
11
-97.1637480561802
21
-0.671478290090504
31
0.000000000000000
  0
LINE
  5
F103D9
330
F103DA
100
AcDbEntity
8
Geo
100
AcDbLine
10
-97.1637480561802
20
-0.671478290090504
30
0.000000000000000
11
-97.0637480561802
21
-0.690196993236435
31
0.000000000000000
  0
LINE
  5
F103DB
330
F103DC
100
AcDbEntity
8
Geo
100
AcDbLine
10
-97.0637480561802
20
-0.690196993236435
30
0.000000000000000
11
-96.9637480561802
21
-0.713286128982769
31
0.000000000000000
  0
LINE
  5
F103DD
330
F103DE
100
AcDbEntity
8
Geo
100
AcDbLine
10
-96.9637480561802
20
-0.713286128982769
30
0.000000000000000
11
-96.8637480561802
21
-0.740711495425245
31
0.000000000000000
  0
LINE
  5
F103DF
330
F103E0
100
AcDbEntity
8
Geo
100
AcDbLine
10
-96.8637480561802
20
-0.740711495425245
30
0.000000000000000
11
-96.7637480561802
21
-0.772432467407177
31
0.000000000000000
  0
LINE
  5
F103E1
330
F103E2
100
AcDbEntity
8
Geo
100
AcDbLine
10
-96.7637480561802
20
-0.772432467407177
30
0.000000000000000
11
-96.6637480561802
21
-0.808402056697447
31
0.000000000000000
  0
LINE
  5
F103E3
330
F103E4
100
AcDbEntity
8
Geo
100
AcDbLine
10
-96.6637480561802
20
-0.808402056697447
30
0.000000000000000
11
-96.5637480561802
21
-0.848566981594100
31
0.000000000000000
  0
LINE
  5
F103E5
330
F103E6
100
AcDbEntity
8
Geo
100
AcDbLine
10
-96.5637480561802
20
-0.848566981594100
30
0.000000000000000
11
-96.4637480561802
21
-0.892867745850456
31
0.000000000000000
  0
LINE
  5
F103E7
330
F103E8
100
AcDbEntity
8
Geo
100
AcDbLine
10
-96.4637480561802
20
-0.892867745850456
30
0.000000000000000
11
-96.3637480561802
21
-0.941238726806816
31
0.000000000000000
  0
LINE
  5
F103E9
330
F103EA
100
AcDbEntity
8
Geo
100
AcDbLine
10
-96.3637480561802
20
-0.941238726806816
30
0.000000000000000
11
-96.2637480561802
21
-0.993608272597217
31
0.000000000000000
  0
LINE
  5
F103EB
330
F103EC
100
AcDbEntity
8
Geo
100
AcDbLine
10
-96.2637480561802
20
-0.993608272597217
30
0.000000000000000
11
-96.1637480561802
21
-1.04989880828724
31
0.000000000000000
  0
LINE
  5
F103ED
330
F103EE
100
AcDbEntity
8
Geo
100
AcDbLine
10
-96.1637480561802
20
-1.04989880828724
30
0.000000000000000
11
-96.0637480561802
21
-1.11002695078565
31
0.000000000000000
  0
LINE
  5
F103EF
330
F103F0
100
AcDbEntity
8
Geo
100
AcDbLine
10
-96.0637480561802
20
-1.11002695078565
30
0.000000000000000
11
-95.9637480561802
21
-1.17390363235964
31
0.000000000000000
  0
LINE
  5
F103F1
330
F103F2
100
AcDbEntity
8
Geo
100
AcDbLine
10
-95.9637480561802
20
-1.17390363235964
30
0.000000000000000
11
-95.8637480561802
21
-1.24143423257078
31
0.000000000000000
  0
LINE
  5
F103F3
330
F103F4
100
AcDbEntity
8
Geo
100
AcDbLine
10
-95.8637480561802
20
-1.24143423257078
30
0.000000000000000
11
-95.7637480561802
21
-1.31251871843607
31
0.000000000000000
  0
LINE
  5
F103F5
330
F103F6
100
AcDbEntity
8
Geo
100
AcDbLine
10
-95.7637480561802
20
-1.31251871843607
30
0.000000000000000
11
-95.6637480561802
21
-1.38705179260674
31
0.000000000000000
  0
LINE
  5
F103F7
330
F103F8
100
AcDbEntity
8
Geo
100
AcDbLine
10
-95.6637480561802
20
-1.38705179260674
30
0.000000000000000
11
-95.5637480561802
21
-1.46492304934497
31
0.000000000000000
  0
LINE
  5
F103F9
330
F103FA
100
AcDbEntity
8
Geo
100
AcDbLine
10
-95.5637480561802
20
-1.46492304934497
30
0.000000000000000
11
-95.4637480561802
21
-1.54601713806784
31
0.000000000000000
  0
LINE
  5
F103FB
330
F103FC
100
AcDbEntity
8
Geo
100
AcDbLine
10
-95.4637480561802
20
-1.54601713806784
30
0.000000000000000
11
-95.3637480561802
21
-1.63021393421594
31
0.000000000000000
  0
LINE
  5
F103FD
330
F103FE
100
AcDbEntity
8
Geo
100
AcDbLine
10
-95.3637480561802
20
-1.63021393421594
30
0.000000000000000
11
-95.2637480561802
21
-1.71738871719373
31
0.000000000000000
  0
LINE
  5
F103FF
330
F10400
100
AcDbEntity
8
Geo
100
AcDbLine
10
-95.2637480561802
20
-1.71738871719373
30
0.000000000000000
11
-95.1637480561802
21
-1.80741235511795
31
0.000000000000000
  0
LINE
  5
F10401
330
F10402
100
AcDbEntity
8
Geo
100
AcDbLine
10
-95.1637480561802
20
-1.80741235511795
30
0.000000000000000
11
-95.0637480561802
21
-1.90015149610055
31
0.000000000000000
  0
LINE
  5
F10403
330
F10404
100
AcDbEntity
8
Geo
100
AcDbLine
10
-95.0637480561802
20
-1.90015149610055
30
0.000000000000000
11
-94.9637480561802
21
-1.99546876578263
31
0.000000000000000
  0
LINE
  5
F10405
330
F10406
100
AcDbEntity
8
Geo
100
AcDbLine
10
-94.9637480561802
20
-1.99546876578263
30
0.000000000000000
11
-94.8637480561802
21
-2.10512104223797
31
0.000000000000000
  0
LINE
  5
F10407
330
F10408
100
AcDbEntity
8
Geo
100
AcDbLine
10
-94.8637480561802
20
-2.10512104223797
30
0.000000000000000
11
-94.7637480561801
21
-2.21541826151823
31
0.000000000000000
  0
LINE
  5
F10409
330
F1040A
100
AcDbEntity
8
Geo
100
AcDbLine
10
-94.7637480561801
20
-2.21541826151823
30
0.000000000000000
11
-94.6637480561802
21
-2.32600622625593
31
0.000000000000000
  0
LINE
  5
F1040B
330
F1040C
100
AcDbEntity
8
Geo
100
AcDbLine
10
-94.6637480561802
20
-2.32600622625593
30
0.000000000000000
11
-94.5637480561801
21
-2.43655254416962
31
0.000000000000000
  0
LINE
  5
F1040D
330
F1040E
100
AcDbEntity
8
Geo
100
AcDbLine
10
-94.5637480561801
20
-2.43655254416962
30
0.000000000000000
11
-94.4637480561802
21
-2.54674661180198
31
0.000000000000000
  0
LINE
  5
F1040F
330
F10410
100
AcDbEntity
8
Geo
100
AcDbLine
10
-94.4637480561802
20
-2.54674661180198
30
0.000000000000000
11
-94.3637480561802
21
-2.65629946264563
31
0.000000000000000
  0
LINE
  5
F10411
330
F10412
100
AcDbEntity
8
Geo
100
AcDbLine
10
-94.3637480561802
20
-2.65629946264563
30
0.000000000000000
11
-94.2637480561801
21
-2.76494349322890
31
0.000000000000000
  0
LINE
  5
F10413
330
F10414
100
AcDbEntity
8
Geo
100
AcDbLine
10
-94.2637480561801
20
-2.76494349322890
30
0.000000000000000
11
-94.1637480561802
21
-2.87243208030992
31
0.000000000000000
  0
LINE
  5
F10415
330
F10416
100
AcDbEntity
8
Geo
100
AcDbLine
10
-94.1637480561802
20
-2.87243208030992
30
0.000000000000000
11
-94.0637480561802
21
-2.97853910183425
31
0.000000000000000
  0
LINE
  5
F10417
330
F10418
100
AcDbEntity
8
Geo
100
AcDbLine
10
-94.0637480561802
20
-2.97853910183425
30
0.000000000000000
11
-93.9637480561802
21
-3.08305837376119
31
0.000000000000000
  0
LINE
  5
F10419
330
F1041A
100
AcDbEntity
8
Geo
100
AcDbLine
10
-93.9637480561802
20
-3.08305837376119
30
0.000000000000000
11
-93.8637480561802
21
-3.18580301426939
31
0.000000000000000
  0
LINE
  5
F1041B
330
F1041C
100
AcDbEntity
8
Geo
100
AcDbLine
10
-93.8637480561802
20
-3.18580301426939
30
0.000000000000000
11
-93.7637480561802
21
-3.28660474622377
31
0.000000000000000
  0
LINE
  5
F1041D
330
F1041E
100
AcDbEntity
8
Geo
100
AcDbLine
10
-93.7637480561802
20
-3.28660474622377
30
0.000000000000000
11
-93.6637480561802
21
-3.38531314813327
31
0.000000000000000
  0
LINE
  5
F1041F
330
F10420
100
AcDbEntity
8
Geo
100
AcDbLine
10
-93.6637480561802
20
-3.38531314813327
30
0.000000000000000
11
-93.5637480561802
21
-3.48179486316151
31
0.000000000000000
  0
LINE
  5
F10421
330
F10422
100
AcDbEntity
8
Geo
100
AcDbLine
10
-93.5637480561802
20
-3.48179486316151
30
0.000000000000000
11
-93.4637480561802
21
-3.57593277507790
31
0.000000000000000
  0
LINE
  5
F10423
330
F10424
100
AcDbEntity
8
Geo
100
AcDbLine
10
-93.4637480561802
20
-3.57593277507790
30
0.000000000000000
11
-93.3637480561802
21
-3.66762515936259
31
0.000000000000000
  0
LINE
  5
F10425
330
F10426
100
AcDbEntity
8
Geo
100
AcDbLine
10
-93.3637480561802
20
-3.66762515936259
30
0.000000000000000
11
-93.2637480561802
21
-3.75678481701126
31
0.000000000000000
  0
LINE
  5
F10427
330
F10428
100
AcDbEntity
8
Geo
100
AcDbLine
10
-93.2637480561802
20
-3.75678481701126
30
0.000000000000000
11
-93.1637480561802
21
-3.84333819792960
31
0.000000000000000
  0
LINE
  5
F10429
330
F1042A
100
AcDbEntity
8
Geo
100
AcDbLine
10
-93.1637480561802
20
-3.84333819792960
30
0.000000000000000
11
-93.0637480561802
21
-3.92722452016895
31
0.000000000000000
  0
LINE
  5
F1042B
330
F1042C
100
AcDbEntity
8
Geo
100
AcDbLine
10
-93.0637480561802
20
-3.92722452016895
30
0.000000000000000
11
-92.9637480561802
21
-4.00839489063590
31
0.000000000000000
  0
LINE
  5
F1042D
330
F1042E
100
AcDbEntity
8
Geo
100
AcDbLine
10
-92.9637480561802
20
-4.00839489063590
30
0.000000000000000
11
-92.8637480561802
21
-4.08681143231475
31
0.000000000000000
  0
LINE
  5
F1042F
330
F10430
100
AcDbEntity
8
Geo
100
AcDbLine
10
-92.8637480561802
20
-4.08681143231475
30
0.000000000000000
11
-92.7637480561802
21
-4.16244642247388
31
0.000000000000000
  0
LINE
  5
F10431
330
F10432
100
AcDbEntity
8
Geo
100
AcDbLine
10
-92.7637480561802
20
-4.16244642247388
30
0.000000000000000
11
-92.6637480561802
21
-4.23528144578861
31
0.000000000000000
  0
LINE
  5
F10433
330
F10434
100
AcDbEntity
8
Geo
100
AcDbLine
10
-92.6637480561802
20
-4.23528144578861
30
0.000000000000000
11
-92.5637480561801
21
-4.30530656580444
31
0.000000000000000
  0
LINE
  5
F10435
330
F10436
100
AcDbEntity
8
Geo
100
AcDbLine
10
-92.5637480561801
20
-4.30530656580444
30
0.000000000000000
11
-92.4637480561802
21
-4.37251951768793
31
0.000000000000000
  0
LINE
  5
F10437
330
F10438
100
AcDbEntity
8
Geo
100
AcDbLine
10
-92.4637480561802
20
-4.37251951768793
30
0.000000000000000
11
-92.3637480561802
21
-4.43692492476754
31
0.000000000000000
  0
LINE
  5
F10439
330
F1043A
100
AcDbEntity
8
Geo
100
AcDbLine
10
-92.3637480561802
20
-4.43692492476754
30
0.000000000000000
11
-92.2637480561801
21
-4.49853354095486
31
0.000000000000000
  0
LINE
  5
F1043B
330
F1043C
100
AcDbEntity
8
Geo
100
AcDbLine
10
-92.2637480561801
20
-4.49853354095486
30
0.000000000000000
11
-92.1637480561801
21
-4.55736152075663
31
0.000000000000000
  0
LINE
  5
F1043D
330
F1043E
100
AcDbEntity
8
Geo
100
AcDbLine
10
-92.1637480561801
20
-4.55736152075663
30
0.000000000000000
11
-92.0637480561801
21
-4.61342971824099
31
0.000000000000000
  0
LINE
  5
F1043F
330
F10440
100
AcDbEntity
8
Geo
100
AcDbLine
10
-92.0637480561801
20
-4.61342971824099
30
0.000000000000000
11
-91.9637480561802
21
-4.66676301600505
31
0.000000000000000
  0
LINE
  5
F10441
330
F10442
100
AcDbEntity
8
Geo
100
AcDbLine
10
-91.9637480561802
20
-4.66676301600505
30
0.000000000000000
11
-91.8637480561801
21
-4.71738968490684
31
0.000000000000000
  0
LINE
  5
F10443
330
F10444
100
AcDbEntity
8
Geo
100
AcDbLine
10
-91.8637480561801
20
-4.71738968490684
30
0.000000000000000
11
-91.7637480561801
21
-4.76534077506907
31
0.000000000000000
  0
LINE
  5
F10445
330
F10446
100
AcDbEntity
8
Geo
100
AcDbLine
10
-91.7637480561801
20
-4.76534077506907
30
0.000000000000000
11
-91.6637480561801
21
-4.81064953843706
31
0.000000000000000
  0
LINE
  5
F10447
330
F10448
100
AcDbEntity
8
Geo
100
AcDbLine
10
-91.6637480561801
20
-4.81064953843706
30
0.000000000000000
11
-91.5637480561801
21
-4.85335088297469
31
0.000000000000000
  0
LINE
  5
F10449
330
F1044A
100
AcDbEntity
8
Geo
100
AcDbLine
10
-91.5637480561801
20
-4.85335088297469
30
0.000000000000000
11
-91.4637480561801
21
-4.89348085841089
31
0.000000000000000
  0
LINE
  5
F1044B
330
F1044C
100
AcDbEntity
8
Geo
100
AcDbLine
10
-91.4637480561801
20
-4.89348085841089
30
0.000000000000000
11
-91.3637480561801
21
-4.93107617330266
31
0.000000000000000
  0
LINE
  5
F1044D
330
F1044E
100
AcDbEntity
8
Geo
100
AcDbLine
10
-91.3637480561801
20
-4.93107617330266
30
0.000000000000000
11
-91.2637480561801
21
-4.96617374305820
31
0.000000000000000
  0
LINE
  5
F1044F
330
F10450
100
AcDbEntity
8
Geo
100
AcDbLine
10
-91.2637480561801
20
-4.96617374305820
30
0.000000000000000
11
-91.1637480561801
21
-4.99881026846335
31
0.000000000000000
  0
LINE
  5
F10451
330
F10452
100
AcDbEntity
8
Geo
100
AcDbLine
10
-91.1637480561801
20
-4.99881026846335
30
0.000000000000000
11
-91.0637480561801
21
-5.02902184417531
31
0.000000000000000
  0
LINE
  5
F10453
330
F10454
100
AcDbEntity
8
Geo
100
AcDbLine
10
-91.0637480561801
20
-5.02902184417531
30
0.000000000000000
11
-90.9637480561801
21
-5.05684359658783
31
0.000000000000000
  0
LINE
  5
F10455
330
F10456
100
AcDbEntity
8
Geo
100
AcDbLine
10
-90.9637480561801
20
-5.05684359658783
30
0.000000000000000
11
-90.8637480561801
21
-5.08230935043040
31
0.000000000000000
  0
LINE
  5
F10457
330
F10458
100
AcDbEntity
8
Geo
100
AcDbLine
10
-90.8637480561801
20
-5.08230935043040
30
0.000000000000000
11
-90.7637480561801
21
-5.10545132343884
31
0.000000000000000
  0
LINE
  5
F10459
330
F1045A
100
AcDbEntity
8
Geo
100
AcDbLine
10
-90.7637480561801
20
-5.10545132343884
30
0.000000000000000
11
-90.6637480561801
21
-5.12629984842539
31
0.000000000000000
  0
LINE
  5
F1045B
330
F1045C
100
AcDbEntity
8
Geo
100
AcDbLine
10
-90.6637480561801
20
-5.12629984842539
30
0.000000000000000
11
-90.5637480561801
21
-5.14488312208025
31
0.000000000000000
  0
LINE
  5
F1045D
330
F1045E
100
AcDbEntity
8
Geo
100
AcDbLine
10
-90.5637480561801
20
-5.14488312208025
30
0.000000000000000
11
-90.4637480561801
21
-5.16122697985392
31
0.000000000000000
  0
LINE
  5
F1045F
330
F10460
100
AcDbEntity
8
Geo
100
AcDbLine
10
-90.4637480561801
20
-5.16122697985392
30
0.000000000000000
11
-90.3637480561801
21
-5.17535469629803
31
0.000000000000000
  0
LINE
  5
F10461
330
F10462
100
AcDbEntity
8
Geo
100
AcDbLine
10
-90.3637480561801
20
-5.17535469629803
30
0.000000000000000
11
-90.2637480561801
21
-5.18728681028078
31
0.000000000000000
  0
LINE
  5
F10463
330
F10464
100
AcDbEntity
8
Geo
100
AcDbLine
10
-90.2637480561801
20
-5.18728681028078
30
0.000000000000000
11
-90.1637480561801
21
-5.19704097454107
31
0.000000000000000
  0
LINE
  5
F10465
330
F10466
100
AcDbEntity
8
Geo
100
AcDbLine
10
-90.1637480561801
20
-5.19704097454107
30
0.000000000000000
11
-90.0637480561801
21
-5.20463182910064
31
0.000000000000000
  0
LINE
  5
F10467
330
F10468
100
AcDbEntity
8
Geo
100
AcDbLine
10
-90.0637480561801
20
-5.20463182910064
30
0.000000000000000
11
-89.9637480561802
21
-5.21007089811565
31
0.000000000000000
  0
LINE
  5
F10469
330
F1046A
100
AcDbEntity
8
Geo
100
AcDbLine
10
-100.863748056180
20
-0.641460088452039
30
0.000000000000000
11
-100.763748056180
21
-0.640922472957712
31
0.000000000000000
  0
LINE
  5
F1046B
330
F1046C
100
AcDbEntity
8
Geo
100
AcDbLine
10
-100.763748056180
20
-0.640922472957712
30
0.000000000000000
11
-100.663748056180
21
-0.644828280341277
31
0.000000000000000
  0
LINE
  5
F1046D
330
F1046E
100
AcDbEntity
8
Geo
100
AcDbLine
10
-100.663748056180
20
-0.644828280341277
30
0.000000000000000
11
-100.563748056180
21
-0.653171724935757
31
0.000000000000000
  0
LINE
  5
F1046F
330
F10470
100
AcDbEntity
8
Geo
100
AcDbLine
10
-100.563748056180
20
-0.653171724935757
30
0.000000000000000
11
-100.463748056180
21
-0.665940447608427
31
0.000000000000000
  0
LINE
  5
F10471
330
F10472
100
AcDbEntity
8
Geo
100
AcDbLine
10
-100.463748056180
20
-0.665940447608427
30
0.000000000000000
11
-100.363748056180
21
-0.683115534068375
31
0.000000000000000
  0
LINE
  5
F10473
330
F10474
100
AcDbEntity
8
Geo
100
AcDbLine
10
-100.363748056180
20
-0.683115534068375
30
0.000000000000000
11
-100.263748056180
21
-0.704671542884218
31
0.000000000000000
  0
LINE
  5
F10475
330
F10476
100
AcDbEntity
8
Geo
100
AcDbLine
10
-100.263748056180
20
-0.704671542884218
30
0.000000000000000
11
-100.163748056180
21
-0.730576543170457
31
0.000000000000000
  0
LINE
  5
F10477
330
F10478
100
AcDbEntity
8
Geo
100
AcDbLine
10
-100.163748056180
20
-0.730576543170457
30
0.000000000000000
11
-100.063748056180
21
-0.760792161886654
31
0.000000000000000
  0
LINE
  5
F10479
330
F1047A
100
AcDbEntity
8
Geo
100
AcDbLine
10
-100.063748056180
20
-0.760792161886654
30
0.000000000000000
11
-99.9637480561802
21
-0.795273640679362
31
0.000000000000000
  0
LINE
  5
F1047B
330
F1047C
100
AcDbEntity
8
Geo
100
AcDbLine
10
-99.9637480561802
20
-0.795273640679362
30
0.000000000000000
11
-99.8637480561802
21
-0.833969902182609
31
0.000000000000000
  0
LINE
  5
F1047D
330
F1047E
100
AcDbEntity
8
Geo
100
AcDbLine
10
-99.8637480561802
20
-0.833969902182609
30
0.000000000000000
11
-99.7637480561802
21
-0.876823625678732
31
0.000000000000000
  0
LINE
  5
F1047F
330
F10480
100
AcDbEntity
8
Geo
100
AcDbLine
10
-99.7637480561802
20
-0.876823625678732
30
0.000000000000000
11
-99.6637480561802
21
-0.923771332007473
31
0.000000000000000
  0
LINE
  5
F10481
330
F10482
100
AcDbEntity
8
Geo
100
AcDbLine
10
-99.6637480561802
20
-0.923771332007473
30
0.000000000000000
11
-99.5637480561802
21
-0.974743477597569
31
0.000000000000000
  0
LINE
  5
F10483
330
F10484
100
AcDbEntity
8
Geo
100
AcDbLine
10
-99.5637480561802
20
-0.974743477597569
30
0.000000000000000
11
-99.4637480561802
21
-1.02966455748155
31
0.000000000000000
  0
LINE
  5
F10485
330
F10486
100
AcDbEntity
8
Geo
100
AcDbLine
10
-99.4637480561802
20
-1.02966455748155
30
0.000000000000000
11
-99.3637480561802
21
-1.08845321714114
31
0.000000000000000
  0
LINE
  5
F10487
330
F10488
100
AcDbEntity
8
Geo
100
AcDbLine
10
-99.3637480561802
20
-1.08845321714114
30
0.000000000000000
11
-99.2637480561802
21
-1.15102237301757
31
0.000000000000000
  0
LINE
  5
F10489
330
F1048A
100
AcDbEntity
8
Geo
100
AcDbLine
10
-99.2637480561802
20
-1.15102237301757
30
0.000000000000000
11
-99.1637480561802
21
-1.21727934150839
31
0.000000000000000
  0
LINE
  5
F1048B
330
F1048C
100
AcDbEntity
8
Geo
100
AcDbLine
10
-99.1637480561802
20
-1.21727934150839
30
0.000000000000000
11
-99.0637480561802
21
-1.28712597625947
31
0.000000000000000
  0
LINE
  5
F1048D
330
F1048E
100
AcDbEntity
8
Geo
100
AcDbLine
10
-99.0637480561802
20
-1.28712597625947
30
0.000000000000000
11
-98.9637480561802
21
-1.36045881354914
31
0.000000000000000
  0
LINE
  5
F1048F
330
F10490
100
AcDbEntity
8
Geo
100
AcDbLine
10
-98.9637480561802
20
-1.36045881354914
30
0.000000000000000
11
-98.8637480561802
21
-1.43716922554880
31
0.000000000000000
  0
LINE
  5
F10491
330
F10492
100
AcDbEntity
8
Geo
100
AcDbLine
10
-98.8637480561802
20
-1.43716922554880
30
0.000000000000000
11
-98.7637480561802
21
-1.51714358123321
31
0.000000000000000
  0
LINE
  5
F10493
330
F10494
100
AcDbEntity
8
Geo
100
AcDbLine
10
-98.7637480561802
20
-1.51714358123321
30
0.000000000000000
11
-98.6637480561802
21
-1.60026341470192
31
0.000000000000000
  0
LINE
  5
F10495
330
F10496
100
AcDbEntity
8
Geo
100
AcDbLine
10
-98.6637480561802
20
-1.60026341470192
30
0.000000000000000
11
-98.5637480561802
21
-1.68640560066268
31
0.000000000000000
  0
LINE
  5
F10497
330
F10498
100
AcDbEntity
8
Geo
100
AcDbLine
10
-98.5637480561802
20
-1.68640560066268
30
0.000000000000000
11
-98.4637480561802
21
-1.77544253681676
31
0.000000000000000
  0
LINE
  5
F10499
330
F1049A
100
AcDbEntity
8
Geo
100
AcDbLine
10
-98.4637480561802
20
-1.77544253681676
30
0.000000000000000
11
-98.3637480561802
21
-1.86724233287604
31
0.000000000000000
  0
LINE
  5
F1049B
330
F1049C
100
AcDbEntity
8
Geo
100
AcDbLine
10
-98.3637480561802
20
-1.86724233287604
30
0.000000000000000
11
-98.2637480561802
21
-1.96166900593190
31
0.000000000000000
  0
LINE
  5
F1049D
330
F1049E
100
AcDbEntity
8
Geo
100
AcDbLine
10
-98.2637480561802
20
-1.96166900593190
30
0.000000000000000
11
-98.1637480561802
21
-2.05858268188655
31
0.000000000000000
  0
LINE
  5
F1049F
330
F104A0
100
AcDbEntity
8
Geo
100
AcDbLine
10
-98.1637480561802
20
-2.05858268188655
30
0.000000000000000
11
-98.0637480561802
21
-2.15783980264828
31
0.000000000000000
  0
LINE
  5
F104A1
330
F104A2
100
AcDbEntity
8
Geo
100
AcDbLine
10
-98.0637480561802
20
-2.15783980264828
30
0.000000000000000
11
-97.9637480561802
21
-2.25929333878392
31
0.000000000000000
  0
LINE
  5
F104A3
330
F104A4
100
AcDbEntity
8
Geo
100
AcDbLine
10
-97.9637480561802
20
-2.25929333878392
30
0.000000000000000
11
-97.8637480561802
21
-2.36279300731327
31
0.000000000000000
  0
LINE
  5
F104A5
330
F104A6
100
AcDbEntity
8
Geo
100
AcDbLine
10
-97.8637480561802
20
-2.36279300731327
30
0.000000000000000
11
-97.7637480561802
21
-2.46818549432311
31
0.000000000000000
  0
LINE
  5
F104A7
330
F104A8
100
AcDbEntity
8
Geo
100
AcDbLine
10
-97.7637480561802
20
-2.46818549432311
30
0.000000000000000
11
-97.6637480561802
21
-2.57531468207088
31
0.000000000000000
  0
LINE
  5
F104A9
330
F104AA
100
AcDbEntity
8
Geo
100
AcDbLine
10
-97.6637480561802
20
-2.57531468207088
30
0.000000000000000
11
-97.5637480561802
21
-2.68402188024165
31
0.000000000000000
  0
LINE
  5
F104AB
330
F104AC
100
AcDbEntity
8
Geo
100
AcDbLine
10
-97.5637480561802
20
-2.68402188024165
30
0.000000000000000
11
-97.4637480561802
21
-2.79414606101588
31
0.000000000000000
  0
LINE
  5
F104AD
330
F104AE
100
AcDbEntity
8
Geo
100
AcDbLine
10
-97.4637480561802
20
-2.79414606101588
30
0.000000000000000
11
-97.3637480561802
21
-2.90552409759968
31
0.000000000000000
  0
LINE
  5
F104AF
330
F104B0
100
AcDbEntity
8
Geo
100
AcDbLine
10
-97.3637480561802
20
-2.90552409759968
30
0.000000000000000
11
-97.2637480561802
21
-3.01799100586433
31
0.000000000000000
  0
LINE
  5
F104B1
330
F104B2
100
AcDbEntity
8
Geo
100
AcDbLine
10
-97.2637480561802
20
-3.01799100586433
30
0.000000000000000
11
-97.1637480561802
21
-3.13138018873703
31
0.000000000000000
  0
LINE
  5
F104B3
330
F104B4
100
AcDbEntity
8
Geo
100
AcDbLine
10
-97.1637480561802
20
-3.13138018873703
30
0.000000000000000
11
-97.0637480561802
21
-3.24552368298088
31
0.000000000000000
  0
LINE
  5
F104B5
330
F104B6
100
AcDbEntity
8
Geo
100
AcDbLine
10
-97.0637480561802
20
-3.24552368298088
30
0.000000000000000
11
-96.9637480561802
21
-3.36025240799863
31
0.000000000000000
  0
LINE
  5
F104B7
330
F104B8
100
AcDbEntity
8
Geo
100
AcDbLine
10
-96.9637480561802
20
-3.36025240799863
30
0.000000000000000
11
-96.8637480561802
21
-3.47539641629150
31
0.000000000000000
  0
LINE
  5
F104B9
330
F104BA
100
AcDbEntity
8
Geo
100
AcDbLine
10
-96.8637480561802
20
-3.47539641629150
30
0.000000000000000
11
-96.7637480561802
21
-3.59078514520217
31
0.000000000000000
  0
LINE
  5
F104BB
330
F104BC
100
AcDbEntity
8
Geo
100
AcDbLine
10
-96.7637480561802
20
-3.59078514520217
30
0.000000000000000
11
-96.6637480561802
21
-3.70624766956903
31
0.000000000000000
  0
LINE
  5
F104BD
330
F104BE
100
AcDbEntity
8
Geo
100
AcDbLine
10
-96.6637480561802
20
-3.70624766956903
30
0.000000000000000
11
-96.5637480561802
21
-3.82161295491735
31
0.000000000000000
  0
LINE
  5
F104BF
330
F104C0
100
AcDbEntity
8
Geo
100
AcDbLine
10
-96.5637480561802
20
-3.82161295491735
30
0.000000000000000
11
-96.4637480561802
21
-3.93671011081243
31
0.000000000000000
  0
LINE
  5
F104C1
330
F104C2
100
AcDbEntity
8
Geo
100
AcDbLine
10
-96.4637480561802
20
-3.93671011081243
30
0.000000000000000
11
-96.3637480561802
21
-4.05136864399935
31
0.000000000000000
  0
LINE
  5
F104C3
330
F104C4
100
AcDbEntity
8
Geo
100
AcDbLine
10
-96.3637480561802
20
-4.05136864399935
30
0.000000000000000
11
-96.2637480561802
21
-4.16541871095439
31
0.000000000000000
  0
LINE
  5
F104C5
330
F104C6
100
AcDbEntity
8
Geo
100
AcDbLine
10
-96.2637480561802
20
-4.16541871095439
30
0.000000000000000
11
-96.1637480561802
21
-4.27869136947401
31
0.000000000000000
  0
LINE
  5
F104C7
330
F104C8
100
AcDbEntity
8
Geo
100
AcDbLine
10
-96.1637480561802
20
-4.27869136947401
30
0.000000000000000
11
-96.0637480561802
21
-4.39101882892866
31
0.000000000000000
  0
LINE
  5
F104C9
330
F104CA
100
AcDbEntity
8
Geo
100
AcDbLine
10
-96.0637480561802
20
-4.39101882892866
30
0.000000000000000
11
-95.9637480561802
21
-4.50223469881088
31
0.000000000000000
  0
LINE
  5
F104CB
330
F104CC
100
AcDbEntity
8
Geo
100
AcDbLine
10
-95.9637480561802
20
-4.50223469881088
30
0.000000000000000
11
-95.8637480561802
21
-4.61217423520924
31
0.000000000000000
  0
LINE
  5
F104CD
330
F104CE
100
AcDbEntity
8
Geo
100
AcDbLine
10
-95.8637480561802
20
-4.61217423520924
30
0.000000000000000
11
-95.7637480561802
21
-4.72067458484332
31
0.000000000000000
  0
LINE
  5
F104CF
330
F104D0
100
AcDbEntity
8
Geo
100
AcDbLine
10
-95.7637480561802
20
-4.72067458484332
30
0.000000000000000
11
-95.6637480561802
21
-4.82757502629802
31
0.000000000000000
  0
LINE
  5
F104D1
330
F104D2
100
AcDbEntity
8
Geo
100
AcDbLine
10
-95.6637480561802
20
-4.82757502629802
30
0.000000000000000
11
-95.5637480561802
21
-4.93271720809998
31
0.000000000000000
  0
LINE
  5
F104D3
330
F104D4
100
AcDbEntity
8
Geo
100
AcDbLine
10
-95.5637480561802
20
-4.93271720809998
30
0.000000000000000
11
-95.4637480561802
21
-5.03594538328337
31
0.000000000000000
  0
LINE
  5
F104D5
330
F104D6
100
AcDbEntity
8
Geo
100
AcDbLine
10
-95.4637480561802
20
-5.03594538328337
30
0.000000000000000
11
-95.3637480561802
21
-5.13710664009770
31
0.000000000000000
  0
LINE
  5
F104D7
330
F104D8
100
AcDbEntity
8
Geo
100
AcDbLine
10
-95.3637480561802
20
-5.13710664009770
30
0.000000000000000
11
-95.2637480561802
21
-5.23605112851572
31
0.000000000000000
  0
LINE
  5
F104D9
330
F104DA
100
AcDbEntity
8
Geo
100
AcDbLine
10
-95.2637480561802
20
-5.23605112851572
30
0.000000000000000
11
-95.1637480561802
21
-5.33263228220610
31
0.000000000000000
  0
LINE
  5
F104DB
330
F104DC
100
AcDbEntity
8
Geo
100
AcDbLine
10
-95.1637480561802
20
-5.33263228220610
30
0.000000000000000
11
-95.0637480561802
21
-5.42670703564189
31
0.000000000000000
  0
LINE
  5
F104DD
330
F104DE
100
AcDbEntity
8
Geo
100
AcDbLine
10
-95.0637480561802
20
-5.42670703564189
30
0.000000000000000
11
-94.9637480561802
21
-5.51813603602338
31
0.000000000000000
  0
LINE
  5
F104DF
330
F104E0
100
AcDbEntity
8
Geo
100
AcDbLine
10
-94.9637480561802
20
-5.51813603602338
30
0.000000000000000
11
-94.8637480561802
21
-5.50690591639812
31
0.000000000000000
  0
LINE
  5
F104E1
330
F104E2
100
AcDbEntity
8
Geo
100
AcDbLine
10
-94.8637480561802
20
-5.50690591639812
30
0.000000000000000
11
-94.7637480561801
21
-5.49585209153805
31
0.000000000000000
  0
LINE
  5
F104E3
330
F104E4
100
AcDbEntity
8
Geo
100
AcDbLine
10
-94.7637480561801
20
-5.49585209153805
30
0.000000000000000
11
-94.6637480561802
21
-5.48497724261072
31
0.000000000000000
  0
LINE
  5
F104E5
330
F104E6
100
AcDbEntity
8
Geo
100
AcDbLine
10
-94.6637480561802
20
-5.48497724261072
30
0.000000000000000
11
-94.5637480561801
21
-5.47428397513496
31
0.000000000000000
  0
LINE
  5
F104E7
330
F104E8
100
AcDbEntity
8
Geo
100
AcDbLine
10
-94.5637480561801
20
-5.47428397513496
30
0.000000000000000
11
-94.4637480561802
21
-5.46377482021706
31
0.000000000000000
  0
LINE
  5
F104E9
330
F104EA
100
AcDbEntity
8
Geo
100
AcDbLine
10
-94.4637480561802
20
-5.46377482021706
30
0.000000000000000
11
-94.3637480561802
21
-5.45345223577475
31
0.000000000000000
  0
LINE
  5
F104EB
330
F104EC
100
AcDbEntity
8
Geo
100
AcDbLine
10
-94.3637480561802
20
-5.45345223577475
30
0.000000000000000
11
-94.2637480561801
21
-5.44331860774810
31
0.000000000000000
  0
LINE
  5
F104ED
330
F104EE
100
AcDbEntity
8
Geo
100
AcDbLine
10
-94.2637480561801
20
-5.44331860774810
30
0.000000000000000
11
-94.1637480561802
21
-5.43337625129653
31
0.000000000000000
  0
LINE
  5
F104EF
330
F104F0
100
AcDbEntity
8
Geo
100
AcDbLine
10
-94.1637480561802
20
-5.43337625129653
30
0.000000000000000
11
-94.0637480561802
21
-5.42362741198094
31
0.000000000000000
  0
LINE
  5
F104F1
330
F104F2
100
AcDbEntity
8
Geo
100
AcDbLine
10
-94.0637480561802
20
-5.42362741198094
30
0.000000000000000
11
-93.9637480561802
21
-5.41407426693041
31
0.000000000000000
  0
LINE
  5
F104F3
330
F104F4
100
AcDbEntity
8
Geo
100
AcDbLine
10
-93.9637480561802
20
-5.41407426693041
30
0.000000000000000
11
-93.8637480561802
21
-5.40471892599242
31
0.000000000000000
  0
LINE
  5
F104F5
330
F104F6
100
AcDbEntity
8
Geo
100
AcDbLine
10
-93.8637480561802
20
-5.40471892599242
30
0.000000000000000
11
-93.7637480561802
21
-5.39556343286609
31
0.000000000000000
  0
LINE
  5
F104F7
330
F104F8
100
AcDbEntity
8
Geo
100
AcDbLine
10
-93.7637480561802
20
-5.39556343286609
30
0.000000000000000
11
-93.6637480561802
21
-5.38660976621745
31
0.000000000000000
  0
LINE
  5
F104F9
330
F104FA
100
AcDbEntity
8
Geo
100
AcDbLine
10
-93.6637480561802
20
-5.38660976621745
30
0.000000000000000
11
-93.5637480561802
21
-5.37785984077634
31
0.000000000000000
  0
LINE
  5
F104FB
330
F104FC
100
AcDbEntity
8
Geo
100
AcDbLine
10
-93.5637480561802
20
-5.37785984077634
30
0.000000000000000
11
-93.4637480561802
21
-5.36931550841398
31
0.000000000000000
  0
LINE
  5
F104FD
330
F104FE
100
AcDbEntity
8
Geo
100
AcDbLine
10
-93.4637480561802
20
-5.36931550841398
30
0.000000000000000
11
-93.3637480561802
21
-5.36097855920074
31
0.000000000000000
  0
LINE
  5
F104FF
330
F10500
100
AcDbEntity
8
Geo
100
AcDbLine
10
-93.3637480561802
20
-5.36097855920074
30
0.000000000000000
11
-93.2637480561802
21
-5.35285072244349
31
0.000000000000000
  0
LINE
  5
F10501
330
F10502
100
AcDbEntity
8
Geo
100
AcDbLine
10
-93.2637480561802
20
-5.35285072244349
30
0.000000000000000
11
-93.1637480561802
21
-5.34493366770173
31
0.000000000000000
  0
LINE
  5
F10503
330
F10504
100
AcDbEntity
8
Geo
100
AcDbLine
10
-93.1637480561802
20
-5.34493366770173
30
0.000000000000000
11
-93.0637480561802
21
-5.33722900578223
31
0.000000000000000
  0
LINE
  5
F10505
330
F10506
100
AcDbEntity
8
Geo
100
AcDbLine
10
-93.0637480561802
20
-5.33722900578223
30
0.000000000000000
11
-92.9637480561802
21
-5.32973828971131
31
0.000000000000000
  0
LINE
  5
F10507
330
F10508
100
AcDbEntity
8
Geo
100
AcDbLine
10
-92.9637480561802
20
-5.32973828971131
30
0.000000000000000
11
-92.8637480561802
21
-5.32246301568447
31
0.000000000000000
  0
LINE
  5
F10509
330
F1050A
100
AcDbEntity
8
Geo
100
AcDbLine
10
-92.8637480561802
20
-5.32246301568447
30
0.000000000000000
11
-92.7637480561802
21
-5.31540462399267
31
0.000000000000000
  0
LINE
  5
F1050B
330
F1050C
100
AcDbEntity
8
Geo
100
AcDbLine
10
-92.7637480561802
20
-5.31540462399267
30
0.000000000000000
11
-92.6637480561802
21
-5.30856449992498
31
0.000000000000000
  0
LINE
  5
F1050D
330
F1050E
100
AcDbEntity
8
Geo
100
AcDbLine
10
-92.6637480561802
20
-5.30856449992498
30
0.000000000000000
11
-92.5637480561801
21
-5.30194397464681
31
0.000000000000000
  0
LINE
  5
F1050F
330
F10510
100
AcDbEntity
8
Geo
100
AcDbLine
10
-92.5637480561801
20
-5.30194397464681
30
0.000000000000000
11
-92.4637480561802
21
-5.29554432605365
31
0.000000000000000
  0
LINE
  5
F10511
330
F10512
100
AcDbEntity
8
Geo
100
AcDbLine
10
-92.4637480561802
20
-5.29554432605365
30
0.000000000000000
11
-92.3637480561802
21
-5.28936677959957
31
0.000000000000000
  0
LINE
  5
F10513
330
F10514
100
AcDbEntity
8
Geo
100
AcDbLine
10
-92.3637480561802
20
-5.28936677959957
30
0.000000000000000
11
-92.2637480561801
21
-5.28341250910024
31
0.000000000000000
  0
LINE
  5
F10515
330
F10516
100
AcDbEntity
8
Geo
100
AcDbLine
10
-92.2637480561801
20
-5.28341250910024
30
0.000000000000000
11
-92.1637480561801
21
-5.27768263750998
31
0.000000000000000
  0
LINE
  5
F10517
330
F10518
100
AcDbEntity
8
Geo
100
AcDbLine
10
-92.1637480561801
20
-5.27768263750998
30
0.000000000000000
11
-92.0637480561801
21
-5.27217823767260
31
0.000000000000000
  0
LINE
  5
F10519
330
F1051A
100
AcDbEntity
8
Geo
100
AcDbLine
10
-92.0637480561801
20
-5.27217823767260
30
0.000000000000000
11
-91.9637480561802
21
-5.26690033304545
31
0.000000000000000
  0
LINE
  5
F1051B
330
F1051C
100
AcDbEntity
8
Geo
100
AcDbLine
10
-91.9637480561802
20
-5.26690033304545
30
0.000000000000000
11
-91.8637480561801
21
-5.26184989839655
31
0.000000000000000
  0
LINE
  5
F1051D
330
F1051E
100
AcDbEntity
8
Geo
100
AcDbLine
10
-91.8637480561801
20
-5.26184989839655
30
0.000000000000000
11
-91.7637480561801
21
-5.25702786047439
31
0.000000000000000
  0
LINE
  5
F1051F
330
F10520
100
AcDbEntity
8
Geo
100
AcDbLine
10
-91.7637480561801
20
-5.25702786047439
30
0.000000000000000
11
-91.6637480561801
21
-5.25243509865006
31
0.000000000000000
  0
LINE
  5
F10521
330
F10522
100
AcDbEntity
8
Geo
100
AcDbLine
10
-91.6637480561801
20
-5.25243509865006
30
0.000000000000000
11
-91.5637480561801
21
-5.24807244553141
31
0.000000000000000
  0
LINE
  5
F10523
330
F10524
100
AcDbEntity
8
Geo
100
AcDbLine
10
-91.5637480561801
20
-5.24807244553141
30
0.000000000000000
11
-91.4637480561801
21
-5.24394068754912
31
0.000000000000000
  0
LINE
  5
F10525
330
F10526
100
AcDbEntity
8
Geo
100
AcDbLine
10
-91.4637480561801
20
-5.24394068754912
30
0.000000000000000
11
-91.3637480561801
21
-5.24004056551418
31
0.000000000000000
  0
LINE
  5
F10527
330
F10528
100
AcDbEntity
8
Geo
100
AcDbLine
10
-91.3637480561801
20
-5.24004056551418
30
0.000000000000000
11
-91.2637480561801
21
-5.23637277514673
31
0.000000000000000
  0
LINE
  5
F10529
330
F1052A
100
AcDbEntity
8
Geo
100
AcDbLine
10
-91.2637480561801
20
-5.23637277514673
30
0.000000000000000
11
-91.1637480561801
21
-5.23293796757592
31
0.000000000000000
  0
LINE
  5
F1052B
330
F1052C
100
AcDbEntity
8
Geo
100
AcDbLine
10
-91.1637480561801
20
-5.23293796757592
30
0.000000000000000
11
-91.0637480561801
21
-5.22973674981060
31
0.000000000000000
  0
LINE
  5
F1052D
330
F1052E
100
AcDbEntity
8
Geo
100
AcDbLine
10
-91.0637480561801
20
-5.22973674981060
30
0.000000000000000
11
-90.9637480561801
21
-5.22676968518069
31
0.000000000000000
  0
LINE
  5
F1052F
330
F10530
100
AcDbEntity
8
Geo
100
AcDbLine
10
-90.9637480561801
20
-5.22676968518069
30
0.000000000000000
11
-90.8637480561801
21
-5.22403729374898
31
0.000000000000000
  0
LINE
  5
F10531
330
F10532
100
AcDbEntity
8
Geo
100
AcDbLine
10
-90.8637480561801
20
-5.22403729374898
30
0.000000000000000
11
-90.7637480561801
21
-5.22154005269317
31
0.000000000000000
  0
LINE
  5
F10533
330
F10534
100
AcDbEntity
8
Geo
100
AcDbLine
10
-90.7637480561801
20
-5.22154005269317
30
0.000000000000000
11
-90.6637480561801
21
-5.21927839665807
31
0.000000000000000
  0
LINE
  5
F10535
330
F10536
100
AcDbEntity
8
Geo
100
AcDbLine
10
-90.6637480561801
20
-5.21927839665807
30
0.000000000000000
11
-90.5637480561801
21
-5.21725271807778
31
0.000000000000000
  0
LINE
  5
F10537
330
F10538
100
AcDbEntity
8
Geo
100
AcDbLine
10
-90.5637480561801
20
-5.21725271807778
30
0.000000000000000
11
-90.4637480561801
21
-5.21546336746766
31
0.000000000000000
  0
LINE
  5
F10539
330
F1053A
100
AcDbEntity
8
Geo
100
AcDbLine
10
-90.4637480561801
20
-5.21546336746766
30
0.000000000000000
11
-90.3637480561801
21
-5.21391065368604
31
0.000000000000000
  0
LINE
  5
F1053B
330
F1053C
100
AcDbEntity
8
Geo
100
AcDbLine
10
-90.3637480561801
20
-5.21391065368604
30
0.000000000000000
11
-90.2637480561801
21
-5.21259484416556
31
0.000000000000000
  0
LINE
  5
F1053D
330
F1053E
100
AcDbEntity
8
Geo
100
AcDbLine
10
-90.2637480561801
20
-5.21259484416556
30
0.000000000000000
11
-90.1637480561801
21
-5.21151616511402
31
0.000000000000000
  0
LINE
  5
F1053F
330
F10540
100
AcDbEntity
8
Geo
100
AcDbLine
10
-90.1637480561801
20
-5.21151616511402
30
0.000000000000000
11
-90.0637480561801
21
-5.21067480168462
31
0.000000000000000
  0
LINE
  5
F10541
330
F10542
100
AcDbEntity
8
Geo
100
AcDbLine
10
-90.0637480561801
20
-5.21067480168462
30
0.000000000000000
11
-89.9637480561802
21
-5.21007089811565
31
0.000000000000000
  0
LINE
  5
F10543
330
F10544
100
AcDbEntity
8
Geo
100
AcDbLine
10
-101.663748056180
20
-0.641071139549127
30
0.000000000000000
11
-101.563748056180
21
-0.641253909294732
31
0.000000000000000
  0
LINE
  5
F10545
330
F10546
100
AcDbEntity
8
Geo
100
AcDbLine
10
-101.563748056180
20
-0.641253909294732
30
0.000000000000000
11
-101.463748056180
21
-0.645879610962050
31
0.000000000000000
  0
LINE
  5
F10547
330
F10548
100
AcDbEntity
8
Geo
100
AcDbLine
10
-101.463748056180
20
-0.645879610962050
30
0.000000000000000
11
-101.363748056180
21
-0.654941392505716
31
0.000000000000000
  0
LINE
  5
F10549
330
F1054A
100
AcDbEntity
8
Geo
100
AcDbLine
10
-101.363748056180
20
-0.654941392505716
30
0.000000000000000
11
-101.263748056180
21
-0.668425830721493
31
0.000000000000000
  0
LINE
  5
F1054B
330
F1054C
100
AcDbEntity
8
Geo
100
AcDbLine
10
-101.263748056180
20
-0.668425830721493
30
0.000000000000000
11
-101.163748056180
21
-0.686312951130042
31
0.000000000000000
  0
LINE
  5
F1054D
330
F1054E
100
AcDbEntity
8
Geo
100
AcDbLine
10
-101.163748056180
20
-0.686312951130042
30
0.000000000000000
11
-101.063748056180
21
-0.708576257565096
31
0.000000000000000
  0
LINE
  5
F1054F
330
F10550
100
AcDbEntity
8
Geo
100
AcDbLine
10
-101.063748056180
20
-0.708576257565096
30
0.000000000000000
11
-100.963748056180
21
-0.735182771422190
31
0.000000000000000
  0
LINE
  5
F10551
330
F10552
100
AcDbEntity
8
Geo
100
AcDbLine
10
-100.963748056180
20
-0.735182771422190
30
0.000000000000000
11
-100.863748056180
21
-0.766093080509820
31
0.000000000000000
  0
LINE
  5
F10553
330
F10554
100
AcDbEntity
8
Geo
100
AcDbLine
10
-100.863748056180
20
-0.766093080509820
30
0.000000000000000
11
-100.763748056180
21
-0.801261397430670
31
0.000000000000000
  0
LINE
  5
F10555
330
F10556
100
AcDbEntity
8
Geo
100
AcDbLine
10
-100.763748056180
20
-0.801261397430670
30
0.000000000000000
11
-100.663748056180
21
-0.840635627406417
31
0.000000000000000
  0
LINE
  5
F10557
330
F10558
100
AcDbEntity
8
Geo
100
AcDbLine
10
-100.663748056180
20
-0.840635627406417
30
0.000000000000000
11
-100.563748056180
21
-0.884157445445654
31
0.000000000000000
  0
LINE
  5
F10559
330
F1055A
100
AcDbEntity
8
Geo
100
AcDbLine
10
-100.563748056180
20
-0.884157445445654
30
0.000000000000000
11
-100.463748056180
21
-0.931762382740617
31
0.000000000000000
  0
LINE
  5
F1055B
330
F1055C
100
AcDbEntity
8
Geo
100
AcDbLine
10
-100.463748056180
20
-0.931762382740617
30
0.000000000000000
11
-100.363748056180
21
-0.983379922164740
31
0.000000000000000
  0
LINE
  5
F1055D
330
F1055E
100
AcDbEntity
8
Geo
100
AcDbLine
10
-100.363748056180
20
-0.983379922164740
30
0.000000000000000
11
-100.263748056180
21
-1.03893360272957
31
0.000000000000000
  0
LINE
  5
F1055F
330
F10560
100
AcDbEntity
8
Geo
100
AcDbLine
10
-100.263748056180
20
-1.03893360272957
30
0.000000000000000
11
-100.163748056180
21
-1.09834113284634
31
0.000000000000000
  0
LINE
  5
F10561
330
F10562
100
AcDbEntity
8
Geo
100
AcDbLine
10
-100.163748056180
20
-1.09834113284634
30
0.000000000000000
11
-100.063748056180
21
-1.16151451222435
31
0.000000000000000
  0
LINE
  5
F10563
330
F10564
100
AcDbEntity
8
Geo
100
AcDbLine
10
-100.063748056180
20
-1.16151451222435
30
0.000000000000000
11
-99.9637480561802
21
-1.22836016222571
31
0.000000000000000
  0
LINE
  5
F10565
330
F10566
100
AcDbEntity
8
Geo
100
AcDbLine
10
-99.9637480561802
20
-1.22836016222571
30
0.000000000000000
11
-99.8637480561802
21
-1.29877906448322
31
0.000000000000000
  0
LINE
  5
F10567
330
F10568
100
AcDbEntity
8
Geo
100
AcDbLine
10
-99.8637480561802
20
-1.29877906448322
30
0.000000000000000
11
-99.7637480561802
21
-1.37266690757613
31
0.000000000000000
  0
LINE
  5
F10569
330
F1056A
100
AcDbEntity
8
Geo
100
AcDbLine
10
-99.7637480561802
20
-1.37266690757613
30
0.000000000000000
11
-99.6637480561802
21
-1.44991424154656
31
0.000000000000000
  0
LINE
  5
F1056B
330
F1056C
100
AcDbEntity
8
Geo
100
AcDbLine
10
-99.6637480561802
20
-1.44991424154656
30
0.000000000000000
11
-99.5637480561802
21
-1.53040664002748
31
0.000000000000000
  0
LINE
  5
F1056D
330
F1056E
100
AcDbEntity
8
Geo
100
AcDbLine
10
-99.5637480561802
20
-1.53040664002748
30
0.000000000000000
11
-99.4637480561802
21
-1.61402486974239
31
0.000000000000000
  0
LINE
  5
F1056F
330
F10570
100
AcDbEntity
8
Geo
100
AcDbLine
10
-99.4637480561802
20
-1.61402486974239
30
0.000000000000000
11
-99.3637480561802
21
-1.70064506712539
31
0.000000000000000
  0
LINE
  5
F10571
330
F10572
100
AcDbEntity
8
Geo
100
AcDbLine
10
-99.3637480561802
20
-1.70064506712539
30
0.000000000000000
11
-99.2637480561802
21
-1.79013892180009
31
0.000000000000000
  0
LINE
  5
F10573
330
F10574
100
AcDbEntity
8
Geo
100
AcDbLine
10
-99.2637480561802
20
-1.79013892180009
30
0.000000000000000
11
-99.1637480561802
21
-1.88237386664560
31
0.000000000000000
  0
LINE
  5
F10575
330
F10576
100
AcDbEntity
8
Geo
100
AcDbLine
10
-99.1637480561802
20
-1.88237386664560
30
0.000000000000000
11
-99.0637480561802
21
-1.97721327416805
31
0.000000000000000
  0
LINE
  5
F10577
330
F10578
100
AcDbEntity
8
Geo
100
AcDbLine
10
-99.0637480561802
20
-1.97721327416805
30
0.000000000000000
11
-98.9637480561802
21
-2.07451665888663
31
0.000000000000000
  0
LINE
  5
F10579
330
F1057A
100
AcDbEntity
8
Geo
100
AcDbLine
10
-98.9637480561802
20
-2.07451665888663
30
0.000000000000000
11
-98.8637480561802
21
-2.17413988543461
31
0.000000000000000
  0
LINE
  5
F1057B
330
F1057C
100
AcDbEntity
8
Geo
100
AcDbLine
10
-98.8637480561802
20
-2.17413988543461
30
0.000000000000000
11
-98.7637480561802
21
-2.27593538206682
31
0.000000000000000
  0
LINE
  5
F1057D
330
F1057E
100
AcDbEntity
8
Geo
100
AcDbLine
10
-98.7637480561802
20
-2.27593538206682
30
0.000000000000000
11
-98.6637480561802
21
-2.37975235925747
31
0.000000000000000
  0
LINE
  5
F1057F
330
F10580
100
AcDbEntity
8
Geo
100
AcDbLine
10
-98.6637480561802
20
-2.37975235925747
30
0.000000000000000
11
-98.5637480561802
21
-2.48543703306446
31
0.000000000000000
  0
LINE
  5
F10581
330
F10582
100
AcDbEntity
8
Geo
100
AcDbLine
10
-98.5637480561802
20
-2.48543703306446
30
0.000000000000000
11
-98.4637480561802
21
-2.59283285292934
31
0.000000000000000
  0
LINE
  5
F10583
330
F10584
100
AcDbEntity
8
Geo
100
AcDbLine
10
-98.4637480561802
20
-2.59283285292934
30
0.000000000000000
11
-98.3637480561802
21
-2.70178073357539
31
0.000000000000000
  0
LINE
  5
F10585
330
F10586
100
AcDbEntity
8
Geo
100
AcDbLine
10
-98.3637480561802
20
-2.70178073357539
30
0.000000000000000
11
-98.2637480561802
21
-2.81211929066047
31
0.000000000000000
  0
LINE
  5
F10587
330
F10588
100
AcDbEntity
8
Geo
100
AcDbLine
10
-98.2637480561802
20
-2.81211929066047
30
0.000000000000000
11
-98.1637480561802
21
-2.92368507983537
31
0.000000000000000
  0
LINE
  5
F10589
330
F1058A
100
AcDbEntity
8
Geo
100
AcDbLine
10
-98.1637480561802
20
-2.92368507983537
30
0.000000000000000
11
-98.0637480561802
21
-3.03631283885372
31
0.000000000000000
  0
LINE
  5
F1058B
330
F1058C
100
AcDbEntity
8
Geo
100
AcDbLine
10
-98.0637480561802
20
-3.03631283885372
30
0.000000000000000
11
-97.9637480561802
21
-3.14983573237471
31
0.000000000000000
  0
LINE
  5
F1058D
330
F1058E
100
AcDbEntity
8
Geo
100
AcDbLine
10
-97.9637480561802
20
-3.14983573237471
30
0.000000000000000
11
-97.8637480561802
21
-3.26408559909605
31
0.000000000000000
  0
LINE
  5
F1058F
330
F10590
100
AcDbEntity
8
Geo
100
AcDbLine
10
-97.8637480561802
20
-3.26408559909605
30
0.000000000000000
11
-97.7637480561802
21
-3.37889320085110
31
0.000000000000000
  0
LINE
  5
F10591
330
F10592
100
AcDbEntity
8
Geo
100
AcDbLine
10
-97.7637480561802
20
-3.37889320085110
30
0.000000000000000
11
-97.6637480561802
21
-3.49408847330106
31
0.000000000000000
  0
LINE
  5
F10593
330
F10594
100
AcDbEntity
8
Geo
100
AcDbLine
10
-97.6637480561802
20
-3.49408847330106
30
0.000000000000000
11
-97.5637480561802
21
-3.60950077785111
31
0.000000000000000
  0
LINE
  5
F10595
330
F10596
100
AcDbEntity
8
Geo
100
AcDbLine
10
-97.5637480561802
20
-3.60950077785111
30
0.000000000000000
11
-97.4637480561802
21
-3.72495915441706
31
0.000000000000000
  0
LINE
  5
F10597
330
F10598
100
AcDbEntity
8
Geo
100
AcDbLine
10
-97.4637480561802
20
-3.72495915441706
30
0.000000000000000
11
-97.3637480561802
21
-3.84029257466832
31
0.000000000000000
  0
LINE
  5
F10599
330
F1059A
100
AcDbEntity
8
Geo
100
AcDbLine
10
-97.3637480561802
20
-3.84029257466832
30
0.000000000000000
11
-97.2637480561802
21
-3.95533019537191
31
0.000000000000000
  0
LINE
  5
F1059B
330
F1059C
100
AcDbEntity
8
Geo
100
AcDbLine
10
-97.2637480561802
20
-3.95533019537191
30
0.000000000000000
11
-97.1637480561802
21
-4.06990161146231
31
0.000000000000000
  0
LINE
  5
F1059D
330
F1059E
100
AcDbEntity
8
Geo
100
AcDbLine
10
-97.1637480561802
20
-4.06990161146231
30
0.000000000000000
11
-97.0637480561802
21
-4.18383710846223
31
0.000000000000000
  0
LINE
  5
F1059F
330
F105A0
100
AcDbEntity
8
Geo
100
AcDbLine
10
-97.0637480561802
20
-4.18383710846223
30
0.000000000000000
11
-96.9637480561802
21
-4.29696791388044
31
0.000000000000000
  0
LINE
  5
F105A1
330
F105A2
100
AcDbEntity
8
Geo
100
AcDbLine
10
-96.9637480561802
20
-4.29696791388044
30
0.000000000000000
11
-96.8637480561802
21
-4.40912644721420
31
0.000000000000000
  0
LINE
  5
F105A3
330
F105A4
100
AcDbEntity
8
Geo
100
AcDbLine
10
-96.8637480561802
20
-4.40912644721420
30
0.000000000000000
11
-96.7637480561802
21
-4.52014656818606
31
0.000000000000000
  0
LINE
  5
F105A5
330
F105A6
100
AcDbEntity
8
Geo
100
AcDbLine
10
-96.7637480561802
20
-4.52014656818606
30
0.000000000000000
11
-96.6637480561802
21
-4.62986382284718
31
0.000000000000000
  0
LINE
  5
F105A7
330
F105A8
100
AcDbEntity
8
Geo
100
AcDbLine
10
-96.6637480561802
20
-4.62986382284718
30
0.000000000000000
11
-96.5637480561802
21
-4.73811568718277
31
0.000000000000000
  0
LINE
  5
F105A9
330
F105AA
100
AcDbEntity
8
Geo
100
AcDbLine
10
-96.5637480561802
20
-4.73811568718277
30
0.000000000000000
11
-96.4637480561802
21
-4.84474180785865
31
0.000000000000000
  0
LINE
  5
F105AB
330
F105AC
100
AcDbEntity
8
Geo
100
AcDbLine
10
-96.4637480561802
20
-4.84474180785865
30
0.000000000000000
11
-96.3637480561802
21
-4.94958423975244
31
0.000000000000000
  0
LINE
  5
F105AD
330
F105AE
100
AcDbEntity
8
Geo
100
AcDbLine
10
-96.3637480561802
20
-4.94958423975244
30
0.000000000000000
11
-96.2637480561802
21
-5.05248767991744
31
0.000000000000000
  0
LINE
  5
F105AF
330
F105B0
100
AcDbEntity
8
Geo
100
AcDbLine
10
-96.2637480561802
20
-5.05248767991744
30
0.000000000000000
11
-96.1637480561802
21
-5.15329969763267
31
0.000000000000000
  0
LINE
  5
F105B1
330
F105B2
100
AcDbEntity
8
Geo
100
AcDbLine
10
-96.1637480561802
20
-5.15329969763267
30
0.000000000000000
11
-96.0637480561802
21
-5.25187096019826
31
0.000000000000000
  0
LINE
  5
F105B3
330
F105B4
100
AcDbEntity
8
Geo
100
AcDbLine
10
-96.0637480561802
20
-5.25187096019826
30
0.000000000000000
11
-95.9637480561802
21
-5.34805545414182
31
0.000000000000000
  0
LINE
  5
F105B5
330
F105B6
100
AcDbEntity
8
Geo
100
AcDbLine
10
-95.9637480561802
20
-5.34805545414182
30
0.000000000000000
11
-95.8637480561802
21
-5.44171070150794
31
0.000000000000000
  0
LINE
  5
F105B7
330
F105B8
100
AcDbEntity
8
Geo
100
AcDbLine
10
-95.8637480561802
20
-5.44171070150794
30
0.000000000000000
11
-95.7637480561802
21
-5.53269797091059
31
0.000000000000000
  0
LINE
  5
F105B9
330
F105BA
100
AcDbEntity
8
Geo
100
AcDbLine
10
-95.7637480561802
20
-5.53269797091059
30
0.000000000000000
11
-95.6637480561802
21
-5.62088248303577
31
0.000000000000000
  0
LINE
  5
F105BB
330
F105BC
100
AcDbEntity
8
Geo
100
AcDbLine
10
-95.6637480561802
20
-5.62088248303577
30
0.000000000000000
11
-95.5637480561802
21
-5.70613361028986
31
0.000000000000000
  0
LINE
  5
F105BD
330
F105BE
100
AcDbEntity
8
Geo
100
AcDbLine
10
-95.5637480561802
20
-5.70613361028986
30
0.000000000000000
11
-95.4637480561802
21
-5.78832507029814
31
0.000000000000000
  0
LINE
  5
F105BF
330
F105C0
100
AcDbEntity
8
Geo
100
AcDbLine
10
-95.4637480561802
20
-5.78832507029814
30
0.000000000000000
11
-95.3637480561802
21
-5.86733511296664
31
0.000000000000000
  0
LINE
  5
F105C1
330
F105C2
100
AcDbEntity
8
Geo
100
AcDbLine
10
-95.3637480561802
20
-5.86733511296664
30
0.000000000000000
11
-95.2637480561802
21
-5.94304670083046
31
0.000000000000000
  0
LINE
  5
F105C3
330
F105C4
100
AcDbEntity
8
Geo
100
AcDbLine
10
-95.2637480561802
20
-5.94304670083046
30
0.000000000000000
11
-95.1637480561802
21
-6.01534768242112
31
0.000000000000000
  0
LINE
  5
F105C5
330
F105C6
100
AcDbEntity
8
Geo
100
AcDbLine
10
-95.1637480561802
20
-6.01534768242112
30
0.000000000000000
11
-95.0637480561802
21
-6.08413095839642
31
0.000000000000000
  0
LINE
  5
F105C7
330
F105C8
100
AcDbEntity
8
Geo
100
AcDbLine
10
-95.0637480561802
20
-6.08413095839642
30
0.000000000000000
11
-94.9637480561802
21
-6.14929464018656
31
0.000000000000000
  0
LINE
  5
F105C9
330
F105CA
100
AcDbEntity
8
Geo
100
AcDbLine
10
-94.9637480561802
20
-6.14929464018656
30
0.000000000000000
11
-94.8637480561802
21
-6.21786814601567
31
0.000000000000000
  0
LINE
  5
F105CB
330
F105CC
100
AcDbEntity
8
Geo
100
AcDbLine
10
-94.8637480561802
20
-6.21786814601567
30
0.000000000000000
11
-94.7637480561801
21
-6.28046076427200
31
0.000000000000000
  0
LINE
  5
F105CD
330
F105CE
100
AcDbEntity
8
Geo
100
AcDbLine
10
-94.7637480561801
20
-6.28046076427200
30
0.000000000000000
11
-94.6637480561802
21
-6.33723718973299
31
0.000000000000000
  0
LINE
  5
F105CF
330
F105D0
100
AcDbEntity
8
Geo
100
AcDbLine
10
-94.6637480561802
20
-6.33723718973299
30
0.000000000000000
11
-94.5637480561801
21
-6.38837722733111
31
0.000000000000000
  0
LINE
  5
F105D1
330
F105D2
100
AcDbEntity
8
Geo
100
AcDbLine
10
-94.5637480561801
20
-6.38837722733111
30
0.000000000000000
11
-94.4637480561802
21
-6.43407377624213
31
0.000000000000000
  0
LINE
  5
F105D3
330
F105D4
100
AcDbEntity
8
Geo
100
AcDbLine
10
-94.4637480561802
20
-6.43407377624213
30
0.000000000000000
11
-94.3637480561802
21
-6.47453090849346
31
0.000000000000000
  0
LINE
  5
F105D5
330
F105D6
100
AcDbEntity
8
Geo
100
AcDbLine
10
-94.3637480561802
20
-6.47453090849346
30
0.000000000000000
11
-94.2637480561801
21
-6.50996204657210
31
0.000000000000000
  0
LINE
  5
F105D7
330
F105D8
100
AcDbEntity
8
Geo
100
AcDbLine
10
-94.2637480561801
20
-6.50996204657210
30
0.000000000000000
11
-94.1637480561802
21
-6.54058824325955
31
0.000000000000000
  0
LINE
  5
F105D9
330
F105DA
100
AcDbEntity
8
Geo
100
AcDbLine
10
-94.1637480561802
20
-6.54058824325955
30
0.000000000000000
11
-94.0637480561802
21
-6.56663656577521
31
0.000000000000000
  0
LINE
  5
F105DB
330
F105DC
100
AcDbEntity
8
Geo
100
AcDbLine
10
-94.0637480561802
20
-6.56663656577521
30
0.000000000000000
11
-93.9637480561802
21
-6.58833858526854
31
0.000000000000000
  0
LINE
  5
F105DD
330
F105DE
100
AcDbEntity
8
Geo
100
AcDbLine
10
-93.9637480561802
20
-6.58833858526854
30
0.000000000000000
11
-93.8637480561802
21
-6.60592897176226
31
0.000000000000000
  0
LINE
  5
F105DF
330
F105E0
100
AcDbEntity
8
Geo
100
AcDbLine
10
-93.8637480561802
20
-6.60592897176226
30
0.000000000000000
11
-93.7637480561802
21
-6.61964419381024
31
0.000000000000000
  0
LINE
  5
F105E1
330
F105E2
100
AcDbEntity
8
Geo
100
AcDbLine
10
-93.7637480561802
20
-6.61964419381024
30
0.000000000000000
11
-93.6637480561802
21
-6.62972132139171
31
0.000000000000000
  0
LINE
  5
F105E3
330
F105E4
100
AcDbEntity
8
Geo
100
AcDbLine
10
-93.6637480561802
20
-6.62972132139171
30
0.000000000000000
11
-93.5637480561802
21
-6.63639692991268
31
0.000000000000000
  0
LINE
  5
F105E5
330
F105E6
100
AcDbEntity
8
Geo
100
AcDbLine
10
-93.5637480561802
20
-6.63639692991268
30
0.000000000000000
11
-93.4637480561802
21
-6.63990610262290
31
0.000000000000000
  0
LINE
  5
F105E7
330
F105E8
100
AcDbEntity
8
Geo
100
AcDbLine
10
-93.4637480561802
20
-6.63990610262290
30
0.000000000000000
11
-93.3637480561802
21
-6.64060322820485
31
0.000000000000000
  0
LINE
  5
F105E9
330
F105EA
100
AcDbEntity
8
Geo
100
AcDbLine
10
-104.963748056180
20
-0.642062858854374
30
0.000000000000000
11
-104.863748056180
21
-0.640683040454733
31
0.000000000000000
  0
LINE
  5
F105EB
330
F105EC
100
AcDbEntity
8
Geo
100
AcDbLine
10
-104.863748056180
20
-0.640683040454733
30
0.000000000000000
11
-104.763748056180
21
-0.643746999604014
31
0.000000000000000
  0
LINE
  5
F105ED
330
F105EE
100
AcDbEntity
8
Geo
100
AcDbLine
10
-104.763748056180
20
-0.643746999604014
30
0.000000000000000
11
-104.663748056180
21
-0.651250197663845
31
0.000000000000000
  0
LINE
  5
F105EF
330
F105F0
100
AcDbEntity
8
Geo
100
AcDbLine
10
-104.663748056180
20
-0.651250197663845
30
0.000000000000000
11
-104.563748056180
21
-0.663181520157506
31
0.000000000000000
  0
LINE
  5
F105F1
330
F105F2
100
AcDbEntity
8
Geo
100
AcDbLine
10
-104.563748056180
20
-0.663181520157506
30
0.000000000000000
11
-104.463748056180
21
-0.679523293233792
31
0.000000000000000
  0
LINE
  5
F105F3
330
F105F4
100
AcDbEntity
8
Geo
100
AcDbLine
10
-104.463748056180
20
-0.679523293233792
30
0.000000000000000
11
-104.363748056180
21
-0.700251309847262
31
0.000000000000000
  0
LINE
  5
F105F5
330
F105F6
100
AcDbEntity
8
Geo
100
AcDbLine
10
-104.363748056180
20
-0.700251309847262
30
0.000000000000000
11
-104.263748056180
21
-0.725334865616101
31
0.000000000000000
  0
LINE
  5
F105F7
330
F105F8
100
AcDbEntity
8
Geo
100
AcDbLine
10
-104.263748056180
20
-0.725334865616101
30
0.000000000000000
11
-104.163748056180
21
-0.754736804304476
31
0.000000000000000
  0
LINE
  5
F105F9
330
F105FA
100
AcDbEntity
8
Geo
100
AcDbLine
10
-104.163748056180
20
-0.754736804304476
30
0.000000000000000
11
-104.063748056180
21
-0.788413572862019
31
0.000000000000000
  0
LINE
  5
F105FB
330
F105FC
100
AcDbEntity
8
Geo
100
AcDbLine
10
-104.063748056180
20
-0.788413572862019
30
0.000000000000000
11
-103.963748056180
21
-0.826315285938898
31
0.000000000000000
  0
LINE
  5
F105FD
330
F105FE
100
AcDbEntity
8
Geo
100
AcDbLine
10
-103.963748056180
20
-0.826315285938898
30
0.000000000000000
11
-103.863748056180
21
-0.868385799780913
31
0.000000000000000
  0
LINE
  5
F105FF
330
F10600
100
AcDbEntity
8
Geo
100
AcDbLine
10
-103.863748056180
20
-0.868385799780913
30
0.000000000000000
11
-103.763748056180
21
-0.914562795395165
31
0.000000000000000
  0
LINE
  5
F10601
330
F10602
100
AcDbEntity
8
Geo
100
AcDbLine
10
-103.763748056180
20
-0.914562795395165
30
0.000000000000000
11
-103.663748056180
21
-0.964777870863087
31
0.000000000000000
  0
LINE
  5
F10603
330
F10604
100
AcDbEntity
8
Geo
100
AcDbLine
10
-103.663748056180
20
-0.964777870863087
30
0.000000000000000
11
-103.563748056180
21
-1.01895664266411
31
0.000000000000000
  0
LINE
  5
F10605
330
F10606
100
AcDbEntity
8
Geo
100
AcDbLine
10
-103.563748056180
20
-1.01895664266411
30
0.000000000000000
11
-103.463748056180
21
-1.07701885585988
31
0.000000000000000
  0
LINE
  5
F10607
330
F10608
100
AcDbEntity
8
Geo
100
AcDbLine
10
-103.463748056180
20
-1.07701885585988
30
0.000000000000000
11
-103.363748056180
21
-1.13887850297576
31
0.000000000000000
  0
LINE
  5
F10609
330
F1060A
100
AcDbEntity
8
Geo
100
AcDbLine
10
-103.363748056180
20
-1.13887850297576
30
0.000000000000000
11
-103.263748056180
21
-1.20444395140361
31
0.000000000000000
  0
LINE
  5
F1060B
330
F1060C
100
AcDbEntity
8
Geo
100
AcDbLine
10
-103.263748056180
20
-1.20444395140361
30
0.000000000000000
11
-103.163748056180
21
-1.27361807913701
31
0.000000000000000
  0
LINE
  5
F1060D
330
F1060E
100
AcDbEntity
8
Geo
100
AcDbLine
10
-103.163748056180
20
-1.27361807913701
30
0.000000000000000
11
-103.063748056180
21
-1.34629841863798
31
0.000000000000000
  0
LINE
  5
F1060F
330
F10610
100
AcDbEntity
8
Geo
100
AcDbLine
10
-103.063748056180
20
-1.34629841863798
30
0.000000000000000
11
-102.963748056180
21
-1.42237730862198
31
0.000000000000000
  0
LINE
  5
F10611
330
F10612
100
AcDbEntity
8
Geo
100
AcDbLine
10
-102.963748056180
20
-1.42237730862198
30
0.000000000000000
11
-102.863748056180
21
-1.50174205353643
31
0.000000000000000
  0
LINE
  5
F10613
330
F10614
100
AcDbEntity
8
Geo
100
AcDbLine
10
-102.863748056180
20
-1.50174205353643
30
0.000000000000000
11
-102.763748056180
21
-1.58427509049647
31
0.000000000000000
  0
LINE
  5
F10615
330
F10616
100
AcDbEntity
8
Geo
100
AcDbLine
10
-102.763748056180
20
-1.58427509049647
30
0.000000000000000
11
-102.663748056180
21
-1.66985416343070
31
0.000000000000000
  0
LINE
  5
F10617
330
F10618
100
AcDbEntity
8
Geo
100
AcDbLine
10
-102.663748056180
20
-1.66985416343070
30
0.000000000000000
11
-102.563748056180
21
-1.75835250417890
31
0.000000000000000
  0
LINE
  5
F10619
330
F1061A
100
AcDbEntity
8
Geo
100
AcDbLine
10
-102.563748056180
20
-1.75835250417890
30
0.000000000000000
11
-102.463748056180
21
-1.84963902027357
31
0.000000000000000
  0
LINE
  5
F1061B
330
F1061C
100
AcDbEntity
8
Geo
100
AcDbLine
10
-102.463748056180
20
-1.84963902027357
30
0.000000000000000
11
-102.363748056180
21
-1.94357848912700
31
0.000000000000000
  0
LINE
  5
F1061D
330
F1061E
100
AcDbEntity
8
Geo
100
AcDbLine
10
-102.363748056180
20
-1.94357848912700
30
0.000000000000000
11
-102.263748056180
21
-2.04003175833627
31
0.000000000000000
  0
LINE
  5
F1061F
330
F10620
100
AcDbEntity
8
Geo
100
AcDbLine
10
-102.263748056180
20
-2.04003175833627
30
0.000000000000000
11
-102.163748056180
21
-2.13885595180956
31
0.000000000000000
  0
LINE
  5
F10621
330
F10622
100
AcDbEntity
8
Geo
100
AcDbLine
10
-102.163748056180
20
-2.13885595180956
30
0.000000000000000
11
-102.063748056180
21
-2.23990468140826
31
0.000000000000000
  0
LINE
  5
F10623
330
F10624
100
AcDbEntity
8
Geo
100
AcDbLine
10
-102.063748056180
20
-2.23990468140826
30
0.000000000000000
11
-101.963748056180
21
-2.34302826379153
31
0.000000000000000
  0
LINE
  5
F10625
330
F10626
100
AcDbEntity
8
Geo
100
AcDbLine
10
-101.963748056180
20
-2.34302826379153
30
0.000000000000000
11
-101.863748056180
21
-2.44807394214204
31
0.000000000000000
  0
LINE
  5
F10627
330
F10628
100
AcDbEntity
8
Geo
100
AcDbLine
10
-101.863748056180
20
-2.44807394214204
30
0.000000000000000
11
-101.763748056180
21
-2.55488611244440
31
0.000000000000000
  0
LINE
  5
F10629
330
F1062A
100
AcDbEntity
8
Geo
100
AcDbLine
10
-101.763748056180
20
-2.55488611244440
30
0.000000000000000
11
-101.663748056180
21
-2.66330655398117
31
0.000000000000000
  0
LINE
  5
F1062B
330
F1062C
100
AcDbEntity
8
Geo
100
AcDbLine
10
-101.663748056180
20
-2.66330655398117
30
0.000000000000000
11
-101.563748056180
21
-2.77317466370501
31
0.000000000000000
  0
LINE
  5
F1062D
330
F1062E
100
AcDbEntity
8
Geo
100
AcDbLine
10
-101.563748056180
20
-2.77317466370501
30
0.000000000000000
11
-101.463748056180
21
-2.88432769413972
31
0.000000000000000
  0
LINE
  5
F1062F
330
F10630
100
AcDbEntity
8
Geo
100
AcDbLine
10
-101.463748056180
20
-2.88432769413972
30
0.000000000000000
11
-101.363748056180
21
-2.99660099445788
31
0.000000000000000
  0
LINE
  5
F10631
330
F10632
100
AcDbEntity
8
Geo
100
AcDbLine
10
-101.363748056180
20
-2.99660099445788
30
0.000000000000000
11
-101.263748056180
21
-3.10982825437786
31
0.000000000000000
  0
LINE
  5
F10633
330
F10634
100
AcDbEntity
8
Geo
100
AcDbLine
10
-101.263748056180
20
-3.10982825437786
30
0.000000000000000
11
-101.163748056180
21
-3.22384175051900
31
0.000000000000000
  0
LINE
  5
F10635
330
F10636
100
AcDbEntity
8
Geo
100
AcDbLine
10
-101.163748056180
20
-3.22384175051900
30
0.000000000000000
11
-101.063748056180
21
-3.33847259485006
31
0.000000000000000
  0
LINE
  5
F10637
330
F10638
100
AcDbEntity
8
Geo
100
AcDbLine
10
-101.063748056180
20
-3.33847259485006
30
0.000000000000000
11
-100.963748056180
21
-3.45355098486277
31
0.000000000000000
  0
LINE
  5
F10639
330
F1063A
100
AcDbEntity
8
Geo
100
AcDbLine
10
-100.963748056180
20
-3.45355098486277
30
0.000000000000000
11
-100.863748056180
21
-3.56890645510010
31
0.000000000000000
  0
LINE
  5
F1063B
330
F1063C
100
AcDbEntity
8
Geo
100
AcDbLine
10
-100.863748056180
20
-3.56890645510010
30
0.000000000000000
11
-100.763748056180
21
-3.68436812966645
31
0.000000000000000
  0
LINE
  5
F1063D
330
F1063E
100
AcDbEntity
8
Geo
100
AcDbLine
10
-100.763748056180
20
-3.68436812966645
30
0.000000000000000
11
-100.663748056180
21
-3.79976497534590
31
0.000000000000000
  0
LINE
  5
F1063F
330
F10640
100
AcDbEntity
8
Geo
100
AcDbLine
10
-100.663748056180
20
-3.79976497534590
30
0.000000000000000
11
-100.563748056180
21
-3.91492605495348
31
0.000000000000000
  0
LINE
  5
F10641
330
F10642
100
AcDbEntity
8
Geo
100
AcDbLine
10
-100.563748056180
20
-3.91492605495348
30
0.000000000000000
11
-100.463748056180
21
-4.02968078054416
31
0.000000000000000
  0
LINE
  5
F10643
330
F10644
100
AcDbEntity
8
Geo
100
AcDbLine
10
-100.463748056180
20
-4.02968078054416
30
0.000000000000000
11
-100.363748056180
21
-4.14385916610456
31
0.000000000000000
  0
LINE
  5
F10645
330
F10646
100
AcDbEntity
8
Geo
100
AcDbLine
10
-100.363748056180
20
-4.14385916610456
30
0.000000000000000
11
-100.263748056180
21
-4.25729207935294
31
0.000000000000000
  0
LINE
  5
F10647
330
F10648
100
AcDbEntity
8
Geo
100
AcDbLine
10
-100.263748056180
20
-4.25729207935294
30
0.000000000000000
11
-100.163748056180
21
-4.36981149227469
31
0.000000000000000
  0
LINE
  5
F10649
330
F1064A
100
AcDbEntity
8
Geo
100
AcDbLine
10
-100.163748056180
20
-4.36981149227469
30
0.000000000000000
11
-100.063748056180
21
-4.48125073002191
31
0.000000000000000
  0
LINE
  5
F1064B
330
F1064C
100
AcDbEntity
8
Geo
100
AcDbLine
10
-100.063748056180
20
-4.48125073002191
30
0.000000000000000
11
-99.9637480561802
21
-4.59144471780869
31
0.000000000000000
  0
LINE
  5
F1064D
330
F1064E
100
AcDbEntity
8
Geo
100
AcDbLine
10
-99.9637480561802
20
-4.59144471780869
30
0.000000000000000
11
-99.8637480561802
21
-4.70023022543611
31
0.000000000000000
  0
LINE
  5
F1064F
330
F10650
100
AcDbEntity
8
Geo
100
AcDbLine
10
-99.8637480561802
20
-4.70023022543611
30
0.000000000000000
11
-99.7637480561802
21
-4.80744610908496
31
0.000000000000000
  0
LINE
  5
F10651
330
F10652
100
AcDbEntity
8
Geo
100
AcDbLine
10
-99.7637480561802
20
-4.80744610908496
30
0.000000000000000
11
-99.6637480561802
21
-4.91293355001777
31
0.000000000000000
  0
LINE
  5
F10653
330
F10654
100
AcDbEntity
8
Geo
100
AcDbLine
10
-99.6637480561802
20
-4.91293355001777
30
0.000000000000000
11
-99.5637480561802
21
-5.01653628983688
31
0.000000000000000
  0
LINE
  5
F10655
330
F10656
100
AcDbEntity
8
Geo
100
AcDbLine
10
-99.5637480561802
20
-5.01653628983688
30
0.000000000000000
11
-99.4637480561802
21
-5.11810086194971
31
0.000000000000000
  0
LINE
  5
F10657
330
F10658
100
AcDbEntity
8
Geo
100
AcDbLine
10
-99.4637480561802
20
-5.11810086194971
30
0.000000000000000
11
-99.3637480561802
21
-5.21747681889863
31
0.000000000000000
  0
LINE
  5
F10659
330
F1065A
100
AcDbEntity
8
Geo
100
AcDbLine
10
-99.3637480561802
20
-5.21747681889863
30
0.000000000000000
11
-99.2637480561802
21
-5.31451695521859
31
0.000000000000000
  0
LINE
  5
F1065B
330
F1065C
100
AcDbEntity
8
Geo
100
AcDbLine
10
-99.2637480561802
20
-5.31451695521859
30
0.000000000000000
11
-99.1637480561802
21
-5.40907752549231
31
0.000000000000000
  0
LINE
  5
F1065D
330
F1065E
100
AcDbEntity
8
Geo
100
AcDbLine
10
-99.1637480561802
20
-5.40907752549231
30
0.000000000000000
11
-99.0637480561802
21
-5.50101845728025
31
0.000000000000000
  0
LINE
  5
F1065F
330
F10660
100
AcDbEntity
8
Geo
100
AcDbLine
10
-99.0637480561802
20
-5.50101845728025
30
0.000000000000000
11
-98.9637480561802
21
-5.59020355860962
31
0.000000000000000
  0
LINE
  5
F10661
330
F10662
100
AcDbEntity
8
Geo
100
AcDbLine
10
-98.9637480561802
20
-5.59020355860962
30
0.000000000000000
11
-98.8637480561802
21
-5.67650071971546
31
0.000000000000000
  0
LINE
  5
F10663
330
F10664
100
AcDbEntity
8
Geo
100
AcDbLine
10
-98.8637480561802
20
-5.67650071971546
30
0.000000000000000
11
-98.7637480561802
21
-5.75978210873455
31
0.000000000000000
  0
LINE
  5
F10665
330
F10666
100
AcDbEntity
8
Geo
100
AcDbLine
10
-98.7637480561802
20
-5.75978210873455
30
0.000000000000000
11
-98.6637480561802
21
-5.83992436106263
31
0.000000000000000
  0
LINE
  5
F10667
330
F10668
100
AcDbEntity
8
Geo
100
AcDbLine
10
-98.6637480561802
20
-5.83992436106263
30
0.000000000000000
11
-98.5637480561802
21
-5.91680876209422
31
0.000000000000000
  0
LINE
  5
F10669
330
F1066A
100
AcDbEntity
8
Geo
100
AcDbLine
10
-98.5637480561802
20
-5.91680876209422
30
0.000000000000000
11
-98.4637480561802
21
-5.99032142307434
31
0.000000000000000
  0
LINE
  5
F1066B
330
F1066C
100
AcDbEntity
8
Geo
100
AcDbLine
10
-98.4637480561802
20
-5.99032142307434
30
0.000000000000000
11
-98.3637480561802
21
-6.06035344980183
31
0.000000000000000
  0
LINE
  5
F1066D
330
F1066E
100
AcDbEntity
8
Geo
100
AcDbLine
10
-98.3637480561802
20
-6.06035344980183
30
0.000000000000000
11
-98.2637480561802
21
-6.12680110393413
31
0.000000000000000
  0
LINE
  5
F1066F
330
F10670
100
AcDbEntity
8
Geo
100
AcDbLine
10
-98.2637480561802
20
-6.12680110393413
30
0.000000000000000
11
-98.1637480561802
21
-6.18956595665475
31
0.000000000000000
  0
LINE
  5
F10671
330
F10672
100
AcDbEntity
8
Geo
100
AcDbLine
10
-98.1637480561802
20
-6.18956595665475
30
0.000000000000000
11
-98.0637480561802
21
-6.24855503447578
31
0.000000000000000
  0
LINE
  5
F10673
330
F10674
100
AcDbEntity
8
Geo
100
AcDbLine
10
-98.0637480561802
20
-6.24855503447578
30
0.000000000000000
11
-97.9637480561802
21
-6.30368095695930
31
0.000000000000000
  0
LINE
  5
F10675
330
F10676
100
AcDbEntity
8
Geo
100
AcDbLine
10
-97.9637480561802
20
-6.30368095695930
30
0.000000000000000
11
-97.8637480561802
21
-6.35486206615400
31
0.000000000000000
  0
LINE
  5
F10677
330
F10678
100
AcDbEntity
8
Geo
100
AcDbLine
10
-97.8637480561802
20
-6.35486206615400
30
0.000000000000000
11
-97.7637480561802
21
-6.40202254755489
31
0.000000000000000
  0
LINE
  5
F10679
330
F1067A
100
AcDbEntity
8
Geo
100
AcDbLine
10
-97.7637480561802
20
-6.40202254755489
30
0.000000000000000
11
-97.6637480561802
21
-6.44509254240731
31
0.000000000000000
  0
LINE
  5
F1067B
330
F1067C
100
AcDbEntity
8
Geo
100
AcDbLine
10
-97.6637480561802
20
-6.44509254240731
30
0.000000000000000
11
-97.5637480561802
21
-6.48400825118855
31
0.000000000000000
  0
LINE
  5
F1067D
330
F1067E
100
AcDbEntity
8
Geo
100
AcDbLine
10
-97.5637480561802
20
-6.48400825118855
30
0.000000000000000
11
-97.4637480561802
21
-6.51871202811399
31
0.000000000000000
  0
LINE
  5
F1067F
330
F10680
100
AcDbEntity
8
Geo
100
AcDbLine
10
-97.4637480561802
20
-6.51871202811399
30
0.000000000000000
11
-97.3637480561802
21
-6.54915246652776
31
0.000000000000000
  0
LINE
  5
F10681
330
F10682
100
AcDbEntity
8
Geo
100
AcDbLine
10
-97.3637480561802
20
-6.54915246652776
30
0.000000000000000
11
-97.2637480561802
21
-6.57528447505130
31
0.000000000000000
  0
LINE
  5
F10683
330
F10684
100
AcDbEntity
8
Geo
100
AcDbLine
10
-97.2637480561802
20
-6.57528447505130
30
0.000000000000000
11
-97.1637480561802
21
-6.59706934437719
31
0.000000000000000
  0
LINE
  5
F10685
330
F10686
100
AcDbEntity
8
Geo
100
AcDbLine
10
-97.1637480561802
20
-6.59706934437719
30
0.000000000000000
11
-97.0637480561802
21
-6.61447480460919
31
0.000000000000000
  0
LINE
  5
F10687
330
F10688
100
AcDbEntity
8
Geo
100
AcDbLine
10
-97.0637480561802
20
-6.61447480460919
30
0.000000000000000
11
-96.9637480561802
21
-6.62747507306357
31
0.000000000000000
  0
LINE
  5
F10689
330
F1068A
100
AcDbEntity
8
Geo
100
AcDbLine
10
-96.9637480561802
20
-6.62747507306357
30
0.000000000000000
11
-96.8637480561802
21
-6.63605089246097
31
0.000000000000000
  0
LINE
  5
F1068B
330
F1068C
100
AcDbEntity
8
Geo
100
AcDbLine
10
-96.8637480561802
20
-6.63605089246097
30
0.000000000000000
11
-96.7637480561802
21
-6.64018955945220
31
0.000000000000000
  0
LINE
  5
F1068D
330
F1068E
100
AcDbEntity
8
Geo
100
AcDbLine
10
-108.963748056180
20
-0.792697681504932
30
0.000000000000000
11
-108.863748056180
21
-0.706249818508502
31
0.000000000000000
  0
LINE
  5
F1068F
330
F10690
100
AcDbEntity
8
Geo
100
AcDbLine
10
-108.963748056180
20
-3.93604555410852
30
0.000000000000000
11
-108.863748056180
21
-4.04926365839468
31
0.000000000000000
  0
LINE
  5
F10691
330
F10692
100
AcDbEntity
8
Geo
100
AcDbLine
10
-108.863748056180
20
-0.706249818508502
30
0.000000000000000
11
-108.763748056180
21
-0.724148609085011
31
0.000000000000000
  0
LINE
  5
F10693
330
F10694
100
AcDbEntity
8
Geo
100
AcDbLine
10
-108.863748056180
20
-4.04926365839468
30
0.000000000000000
11
-108.763748056180
21
-4.16187641456117
31
0.000000000000000
  0
LINE
  5
F10695
330
F10696
100
AcDbEntity
8
Geo
100
AcDbLine
10
-108.763748056180
20
-0.724148609085011
30
0.000000000000000
11
-108.663748056180
21
-0.746367539781184
31
0.000000000000000
  0
LINE
  5
F10697
330
F10698
100
AcDbEntity
8
Geo
100
AcDbLine
10
-108.763748056180
20
-4.16187641456117
30
0.000000000000000
11
-108.663748056180
21
-4.27371700949089
31
0.000000000000000
  0
LINE
  5
F10699
330
F1069A
100
AcDbEntity
8
Geo
100
AcDbLine
10
-108.663748056180
20
-0.746367539781184
30
0.000000000000000
11
-108.563748056180
21
-0.772873697726276
31
0.000000000000000
  0
LINE
  5
F1069B
330
F1069C
100
AcDbEntity
8
Geo
100
AcDbLine
10
-108.663748056180
20
-4.27371700949089
30
0.000000000000000
11
-108.563748056180
21
-4.38461977386809
31
0.000000000000000
  0
LINE
  5
F1069D
330
F1069E
100
AcDbEntity
8
Geo
100
AcDbLine
10
-108.563748056180
20
-0.772873697726276
30
0.000000000000000
11
-108.463748056180
21
-0.803627819385855
31
0.000000000000000
  0
LINE
  5
F1069F
330
F106A0
100
AcDbEntity
8
Geo
100
AcDbLine
10
-108.563748056180
20
-4.38461977386809
30
0.000000000000000
11
-108.463748056180
21
-4.49442042758410
31
0.000000000000000
  0
LINE
  5
F106A1
330
F106A2
100
AcDbEntity
8
Geo
100
AcDbLine
10
-108.463748056180
20
-0.803627819385855
30
0.000000000000000
11
-108.363748056180
21
-0.838584348722823
31
0.000000000000000
  0
LINE
  5
F106A3
330
F106A4
100
AcDbEntity
8
Geo
100
AcDbLine
10
-108.463748056180
20
-4.49442042758410
30
0.000000000000000
11
-108.363748056180
21
-4.60295632308521
31
0.000000000000000
  0
LINE
  5
F106A5
330
F106A6
100
AcDbEntity
8
Geo
100
AcDbLine
10
-108.363748056180
20
-0.838584348722823
30
0.000000000000000
11
-108.263748056180
21
-0.877691504679505
31
0.000000000000000
  0
LINE
  5
F106A7
330
F106A8
100
AcDbEntity
8
Geo
100
AcDbLine
10
-108.363748056180
20
-4.60295632308521
30
0.000000000000000
11
-108.263748056180
21
-4.71006668630229
31
0.000000000000000
  0
LINE
  5
F106A9
330
F106AA
100
AcDbEntity
8
Geo
100
AcDbLine
10
-108.263748056180
20
-0.877691504679505
30
0.000000000000000
11
-108.163748056180
21
-0.920891357880864
31
0.000000000000000
  0
LINE
  5
F106AB
330
F106AC
100
AcDbEntity
8
Geo
100
AcDbLine
10
-108.263748056180
20
-4.71006668630229
30
0.000000000000000
11
-108.163748056180
21
-4.81559285480516
31
0.000000000000000
  0
LINE
  5
F106AD
330
F106AE
100
AcDbEntity
8
Geo
100
AcDbLine
10
-108.163748056180
20
-0.920891357880864
30
0.000000000000000
11
-108.063748056180
21
-0.968119916445196
31
0.000000000000000
  0
LINE
  5
F106AF
330
F106B0
100
AcDbEntity
8
Geo
100
AcDbLine
10
-108.163748056180
20
-4.81559285480516
30
0.000000000000000
11
-108.063748056180
21
-4.91937851282905
31
0.000000000000000
  0
LINE
  5
F106B1
330
F106B2
100
AcDbEntity
8
Geo
100
AcDbLine
10
-108.063748056180
20
-0.968119916445196
30
0.000000000000000
11
-107.963748056180
21
-1.01930722077522
31
0.000000000000000
  0
LINE
  5
F106B3
330
F106B4
100
AcDbEntity
8
Geo
100
AcDbLine
10
-108.063748056180
20
-4.91937851282905
30
0.000000000000000
11
-107.963748056180
21
-5.02126992282489
31
0.000000000000000
  0
LINE
  5
F106B5
330
F106B6
100
AcDbEntity
8
Geo
100
AcDbLine
10
-107.963748056180
20
-1.01930722077522
30
0.000000000000000
11
-107.863748056180
21
-1.07437744718912
31
0.000000000000000
  0
LINE
  5
F106B7
330
F106B8
100
AcDbEntity
8
Geo
100
AcDbLine
10
-107.963748056180
20
-5.02126992282489
30
0.000000000000000
11
-107.863748056180
21
-5.12111615319057
31
0.000000000000000
  0
LINE
  5
F106B9
330
F106BA
100
AcDbEntity
8
Geo
100
AcDbLine
10
-107.863748056180
20
-1.07437744718912
30
0.000000000000000
11
-107.763748056180
21
-1.13324902023808
31
0.000000000000000
  0
LINE
  5
F106BB
330
F106BC
100
AcDbEntity
8
Geo
100
AcDbLine
10
-107.863748056180
20
-5.12111615319057
30
0.000000000000000
11
-107.763748056180
21
-5.21876930184567
31
0.000000000000000
  0
LINE
  5
F106BD
330
F106BE
100
AcDbEntity
8
Geo
100
AcDbLine
10
-107.763748056180
20
-1.13324902023808
30
0.000000000000000
11
-107.663748056180
21
-1.19583473354386
31
0.000000000000000
  0
LINE
  5
F106BF
330
F106C0
100
AcDbEntity
8
Geo
100
AcDbLine
10
-107.763748056180
20
-5.21876930184567
30
0.000000000000000
11
-107.663748056180
21
-5.31408471531864
31
0.000000000000000
  0
LINE
  5
F106C1
330
F106C2
100
AcDbEntity
8
Geo
100
AcDbLine
10
-107.663748056180
20
-1.19583473354386
30
0.000000000000000
11
-107.563748056180
21
-1.26204187897748
31
0.000000000000000
  0
LINE
  5
F106C3
330
F106C4
100
AcDbEntity
8
Geo
100
AcDbLine
10
-107.663748056180
20
-5.31408471531864
30
0.000000000000000
11
-107.563748056180
21
-5.40692120302173
31
0.000000000000000
  0
LINE
  5
F106C5
330
F106C6
100
AcDbEntity
8
Geo
100
AcDbLine
10
-107.563748056180
20
-1.26204187897748
30
0.000000000000000
11
-107.463748056180
21
-1.33177238398766
31
0.000000000000000
  0
LINE
  5
F106C7
330
F106C8
100
AcDbEntity
8
Geo
100
AcDbLine
10
-107.563748056180
20
-5.40692120302173
30
0.000000000000000
11
-107.463748056180
21
-5.49714124639647
31
0.000000000000000
  0
LINE
  5
F106C9
330
F106CA
100
AcDbEntity
8
Geo
100
AcDbLine
10
-107.463748056180
20
-1.33177238398766
30
0.000000000000000
11
-107.363748056180
21
-1.40492295687554
31
0.000000000000000
  0
LINE
  5
F106CB
330
F106CC
100
AcDbEntity
8
Geo
100
AcDbLine
10
-107.463748056180
20
-5.49714124639647
30
0.000000000000000
11
-107.363748056180
21
-5.58461120261968
31
0.000000000000000
  0
LINE
  5
F106CD
330
F106CE
100
AcDbEntity
8
Geo
100
AcDbLine
10
-107.363748056180
20
-1.40492295687554
30
0.000000000000000
11
-107.263748056180
21
-1.48138523980053
31
0.000000000000000
  0
LINE
  5
F106CF
330
F106D0
100
AcDbEntity
8
Geo
100
AcDbLine
10
-107.363748056180
20
-5.58461120261968
30
0.000000000000000
11
-107.263748056180
21
-5.66920150256839
31
0.000000000000000
  0
LINE
  5
F106D1
330
F106D2
100
AcDbEntity
8
Geo
100
AcDbLine
10
-107.263748056180
20
-1.48138523980053
30
0.000000000000000
11
-107.163748056180
21
-1.56104596929062
31
0.000000000000000
  0
LINE
  5
F106D3
330
F106D4
100
AcDbEntity
8
Geo
100
AcDbLine
10
-107.263748056180
20
-5.66920150256839
30
0.000000000000000
11
-107.163748056180
21
-5.75078684275044
31
0.000000000000000
  0
LINE
  5
F106D5
330
F106D6
100
AcDbEntity
8
Geo
100
AcDbLine
10
-107.163748056180
20
-1.56104596929062
30
0.000000000000000
11
-107.063748056180
21
-1.64378714401943
31
0.000000000000000
  0
LINE
  5
F106D7
330
F106D8
100
AcDbEntity
8
Geo
100
AcDbLine
10
-107.163748056180
20
-5.75078684275044
30
0.000000000000000
11
-107.063748056180
21
-5.82924637091632
31
0.000000000000000
  0
LINE
  5
F106D9
330
F106DA
100
AcDbEntity
8
Geo
100
AcDbLine
10
-107.063748056180
20
-1.64378714401943
30
0.000000000000000
11
-106.963748056180
21
-1.72948619960135
31
0.000000000000000
  0
LINE
  5
F106DB
330
F106DC
100
AcDbEntity
8
Geo
100
AcDbLine
10
-107.063748056180
20
-5.82924637091632
30
0.000000000000000
11
-106.963748056180
21
-5.90446386507747
31
0.000000000000000
  0
LINE
  5
F106DD
330
F106DE
100
AcDbEntity
8
Geo
100
AcDbLine
10
-106.963748056180
20
-1.72948619960135
30
0.000000000000000
11
-106.863748056180
21
-1.81801619014606
31
0.000000000000000
  0
LINE
  5
F106DF
330
F106E0
100
AcDbEntity
8
Geo
100
AcDbLine
10
-106.963748056180
20
-5.90446386507747
30
0.000000000000000
11
-106.863748056180
21
-5.97632790566571
31
0.000000000000000
  0
LINE
  5
F106E1
330
F106E2
100
AcDbEntity
8
Geo
100
AcDbLine
10
-106.863748056180
20
-1.81801619014606
30
0.000000000000000
11
-106.763748056180
21
-1.90924597630325
31
0.000000000000000
  0
LINE
  5
F106E3
330
F106E4
100
AcDbEntity
8
Geo
100
AcDbLine
10
-106.863748056180
20
-5.97632790566571
30
0.000000000000000
11
-106.763748056180
21
-6.04473204057895
31
0.000000000000000
  0
LINE
  5
F106E5
330
F106E6
100
AcDbEntity
8
Geo
100
AcDbLine
10
-106.763748056180
20
-1.90924597630325
30
0.000000000000000
11
-106.663748056180
21
-2.00304041951917
31
0.000000000000000
  0
LINE
  5
F106E7
330
F106E8
100
AcDbEntity
8
Geo
100
AcDbLine
10
-106.763748056180
20
-6.04473204057895
30
0.000000000000000
11
-106.663748056180
21
-6.10957494286847
31
0.000000000000000
  0
LINE
  5
F106E9
330
F106EA
100
AcDbEntity
8
Geo
100
AcDbLine
10
-106.663748056180
20
-2.00304041951917
30
0.000000000000000
11
-106.563748056180
21
-2.09926058221721
31
0.000000000000000
  0
LINE
  5
F106EB
330
F106EC
100
AcDbEntity
8
Geo
100
AcDbLine
10
-106.663748056180
20
-6.10957494286847
30
0.000000000000000
11
-106.563748056180
21
-6.17076056083446
31
0.000000000000000
  0
LINE
  5
F106ED
330
F106EE
100
AcDbEntity
8
Geo
100
AcDbLine
10
-106.563748056180
20
-2.09926058221721
30
0.000000000000000
11
-106.463748056180
21
-2.19776393360586
31
0.000000000000000
  0
LINE
  5
F106EF
330
F106F0
100
AcDbEntity
8
Geo
100
AcDbLine
10
-106.563748056180
20
-6.17076056083446
30
0.000000000000000
11
-106.463748056180
21
-6.22819826030718
31
0.000000000000000
  0
LINE
  5
F106F1
330
F106F2
100
AcDbEntity
8
Geo
100
AcDbLine
10
-106.463748056180
20
-2.19776393360586
30
0.000000000000000
11
-106.363748056180
21
-2.29840456080946
31
0.000000000000000
  0
LINE
  5
F106F3
330
F106F4
100
AcDbEntity
8
Geo
100
AcDbLine
10
-106.463748056180
20
-6.22819826030718
30
0.000000000000000
11
-106.363748056180
21
-6.28180295890330
31
0.000000000000000
  0
LINE
  5
F106F5
330
F106F6
100
AcDbEntity
8
Geo
100
AcDbLine
10
-106.363748056180
20
-2.29840456080946
30
0.000000000000000
11
-106.263748056180
21
-2.40103338500867
31
0.000000000000000
  0
LINE
  5
F106F7
330
F106F8
100
AcDbEntity
8
Geo
100
AcDbLine
10
-106.363748056180
20
-6.28180295890330
30
0.000000000000000
11
-106.263748056180
21
-6.33149525205831
31
0.000000000000000
  0
LINE
  5
F106F9
330
F106FA
100
AcDbEntity
8
Geo
100
AcDbLine
10
-106.263748056180
20
-2.40103338500867
30
0.000000000000000
11
-106.163748056180
21
-2.50549838227075
31
0.000000000000000
  0
LINE
  5
F106FB
330
F106FC
100
AcDbEntity
8
Geo
100
AcDbLine
10
-106.263748056180
20
-6.33149525205831
30
0.000000000000000
11
-106.163748056180
21
-6.37720153064832
31
0.000000000000000
  0
LINE
  5
F106FD
330
F106FE
100
AcDbEntity
8
Geo
100
AcDbLine
10
-106.163748056180
20
-2.50549838227075
30
0.000000000000000
11
-106.063748056180
21
-2.61164480874239
31
0.000000000000000
  0
LINE
  5
F106FF
330
F10700
100
AcDbEntity
8
Geo
100
AcDbLine
10
-106.163748056180
20
-6.37720153064832
30
0.000000000000000
11
-106.063748056180
21
-6.41885409002724
31
0.000000000000000
  0
LINE
  5
F10701
330
F10702
100
AcDbEntity
8
Geo
100
AcDbLine
10
-106.063748056180
20
-2.61164480874239
30
0.000000000000000
11
-105.963748056180
21
-2.71931542987156
31
0.000000000000000
  0
LINE
  5
F10703
330
F10704
100
AcDbEntity
8
Geo
100
AcDbLine
10
-106.063748056180
20
-6.41885409002724
30
0.000000000000000
11
-105.963748056180
21
-6.45639123031754
31
0.000000000000000
  0
LINE
  5
F10705
330
F10706
100
AcDbEntity
8
Geo
100
AcDbLine
10
-105.963748056180
20
-2.71931542987156
30
0.000000000000000
11
-105.863748056180
21
-2.82835075331883
31
0.000000000000000
  0
LINE
  5
F10707
330
F10708
100
AcDbEntity
8
Geo
100
AcDbLine
10
-105.963748056180
20
-6.45639123031754
30
0.000000000000000
11
-105.863748056180
21
-6.48975734780616
31
0.000000000000000
  0
LINE
  5
F10709
330
F1070A
100
AcDbEntity
8
Geo
100
AcDbLine
10
-105.863748056180
20
-2.82835075331883
30
0.000000000000000
11
-105.763748056180
21
-2.93858926521315
31
0.000000000000000
  0
LINE
  5
F1070B
330
F1070C
100
AcDbEntity
8
Geo
100
AcDbLine
10
-105.863748056180
20
-6.48975734780616
30
0.000000000000000
11
-105.763748056180
21
-6.51890301731026
31
0.000000000000000
  0
LINE
  5
F1070D
330
F1070E
100
AcDbEntity
8
Geo
100
AcDbLine
10
-105.763748056180
20
-2.93858926521315
30
0.000000000000000
11
-105.663748056180
21
-3.04986766940210
31
0.000000000000000
  0
LINE
  5
F1070F
330
F10710
100
AcDbEntity
8
Geo
100
AcDbLine
10
-105.763748056180
20
-6.51890301731026
30
0.000000000000000
11
-105.663748056180
21
-6.54378506539066
31
0.000000000000000
  0
LINE
  5
F10711
330
F10712
100
AcDbEntity
8
Geo
100
AcDbLine
10
-105.663748056180
20
-3.04986766940210
30
0.000000000000000
11
-105.563748056180
21
-3.16202112934229
31
0.000000000000000
  0
LINE
  5
F10713
330
F10714
100
AcDbEntity
8
Geo
100
AcDbLine
10
-105.663748056180
20
-6.54378506539066
30
0.000000000000000
11
-105.563748056180
21
-6.56436663430457
31
0.000000000000000
  0
LINE
  5
F10715
330
F10716
100
AcDbEntity
8
Geo
100
AcDbLine
10
-105.563748056180
20
-3.16202112934229
30
0.000000000000000
11
-105.463748056180
21
-3.27488351227148
31
0.000000000000000
  0
LINE
  5
F10717
330
F10718
100
AcDbEntity
8
Geo
100
AcDbLine
10
-105.563748056180
20
-6.56436663430457
30
0.000000000000000
11
-105.463748056180
21
-6.58061723660297
31
0.000000000000000
  0
LINE
  5
F10719
330
F1071A
100
AcDbEntity
8
Geo
100
AcDbLine
10
-105.463748056180
20
-3.27488351227148
30
0.000000000000000
11
-105.363748056180
21
-3.38828763530079
31
0.000000000000000
  0
LINE
  5
F1071B
330
F1071C
100
AcDbEntity
8
Geo
100
AcDbLine
10
-105.463748056180
20
-6.58061723660297
30
0.000000000000000
11
-105.363748056180
21
-6.59251280029154
31
0.000000000000000
  0
LINE
  5
F1071D
330
F1071E
100
AcDbEntity
8
Geo
100
AcDbLine
10
-105.363748056180
20
-3.38828763530079
30
0.000000000000000
11
-105.263748056180
21
-3.50206551306249
31
0.000000000000000
  0
LINE
  5
F1071F
330
F10720
100
AcDbEntity
8
Geo
100
AcDbLine
10
-105.363748056180
20
-6.59251280029154
30
0.000000000000000
11
-105.263748056180
21
-6.60003570448855
31
0.000000000000000
  0
LINE
  5
F10721
330
F10722
100
AcDbEntity
8
Geo
100
AcDbLine
10
-105.263748056180
20
-3.50206551306249
30
0.000000000000000
11
-105.163748056180
21
-3.61604860654652
31
0.000000000000000
  0
LINE
  5
F10723
330
F10724
100
AcDbEntity
8
Geo
100
AcDbLine
10
-105.263748056180
20
-6.60003570448855
30
0.000000000000000
11
-105.163748056180
21
-6.60317480552661
31
0.000000000000000
  0
LINE
  5
F10725
330
F10726
100
AcDbEntity
8
Geo
100
AcDbLine
10
-105.163748056180
20
-3.61604860654652
30
0.000000000000000
11
-105.063748056180
21
-3.73006807275702
31
0.000000000000000
  0
LINE
  5
F10727
330
F10728
100
AcDbEntity
8
Geo
100
AcDbLine
10
-105.063748056180
20
-3.73006807275702
30
0.000000000000000
11
-104.963748056180
21
-3.84395501481929
31
0.000000000000000
  0
LINE
  5
F10729
330
F1072A
100
AcDbEntity
8
Geo
100
AcDbLine
10
-105.063748056180
20
-0.679281002949927
30
0.000000000000000
11
-104.963748056180
21
-0.684916957458203
31
0.000000000000000
  0
LINE
  5
F1072B
330
F1072C
100
AcDbEntity
8
Geo
100
AcDbLine
10
-104.963748056180
20
-3.84395501481929
30
0.000000000000000
11
-104.863748056180
21
-3.95754073216646
31
0.000000000000000
  0
LINE
  5
F1072D
330
F1072E
100
AcDbEntity
8
Geo
100
AcDbLine
10
-104.963748056180
20
-0.684916957458203
30
0.000000000000000
11
-104.863748056180
21
-0.694931165876442
31
0.000000000000000
  0
LINE
  5
F1072F
330
F10730
100
AcDbEntity
8
Geo
100
AcDbLine
10
-104.863748056180
20
-3.95754073216646
30
0.000000000000000
11
-104.763748056180
21
-4.07065697043540
31
0.000000000000000
  0
LINE
  5
F10731
330
F10732
100
AcDbEntity
8
Geo
100
AcDbLine
10
-104.863748056180
20
-0.694931165876442
30
0.000000000000000
11
-104.763748056180
21
-0.709308794171822
31
0.000000000000000
  0
LINE
  5
F10733
330
F10734
100
AcDbEntity
8
Geo
100
AcDbLine
10
-104.763748056180
20
-4.07065697043540
30
0.000000000000000
11
-104.663748056180
21
-4.18313617070167
31
0.000000000000000
  0
LINE
  5
F10735
330
F10736
100
AcDbEntity
8
Geo
100
AcDbLine
10
-104.763748056180
20
-0.709308794171822
30
0.000000000000000
11
-104.663748056180
21
-0.728028544783796
31
0.000000000000000
  0
LINE
  5
F10737
330
F10738
100
AcDbEntity
8
Geo
100
AcDbLine
10
-104.663748056180
20
-4.18313617070167
30
0.000000000000000
11
-104.563748056180
21
-4.29481171768435
31
0.000000000000000
  0
LINE
  5
F10739
330
F1073A
100
AcDbEntity
8
Geo
100
AcDbLine
10
-104.663748056180
20
-0.728028544783796
30
0.000000000000000
11
-104.563748056180
21
-0.751062688172149
31
0.000000000000000
  0
LINE
  5
F1073B
330
F1073C
100
AcDbEntity
8
Geo
100
AcDbLine
10
-104.563748056180
20
-4.29481171768435
30
0.000000000000000
11
-104.463748056180
21
-4.40551818655296
31
0.000000000000000
  0
LINE
  5
F1073D
330
F1073E
100
AcDbEntity
8
Geo
100
AcDbLine
10
-104.563748056180
20
-0.751062688172149
30
0.000000000000000
11
-104.463748056180
21
-0.778377103892724
31
0.000000000000000
  0
LINE
  5
F1073F
330
F10740
100
AcDbEntity
8
Geo
100
AcDbLine
10
-104.463748056180
20
-4.40551818655296
30
0.000000000000000
11
-104.363748056180
21
-4.51509158797112
31
0.000000000000000
  0
LINE
  5
F10741
330
F10742
100
AcDbEntity
8
Geo
100
AcDbLine
10
-104.463748056180
20
-0.778377103892724
30
0.000000000000000
11
-104.363748056180
21
-0.809931331139981
31
0.000000000000000
  0
LINE
  5
F10743
330
F10744
100
AcDbEntity
8
Geo
100
AcDbLine
10
-104.363748056180
20
-4.51509158797112
30
0.000000000000000
11
-104.263748056180
21
-4.62336961101360
31
0.000000000000000
  0
LINE
  5
F10745
330
F10746
100
AcDbEntity
8
Geo
100
AcDbLine
10
-104.363748056180
20
-0.809931331139981
30
0.000000000000000
11
-104.263748056180
21
-0.845678628681544
31
0.000000000000000
  0
LINE
  5
F10747
330
F10748
100
AcDbEntity
8
Geo
100
AcDbLine
10
-104.263748056180
20
-4.62336961101360
30
0.000000000000000
11
-104.163748056180
21
-4.73019186359740
31
0.000000000000000
  0
LINE
  5
F10749
330
F1074A
100
AcDbEntity
8
Geo
100
AcDbLine
10
-104.263748056180
20
-0.845678628681544
30
0.000000000000000
11
-104.163748056180
21
-0.885566044095911
31
0.000000000000000
  0
LINE
  5
F1074B
330
F1074C
100
AcDbEntity
8
Geo
100
AcDbLine
10
-104.163748056180
20
-4.73019186359740
30
0.000000000000000
11
-104.063748056180
21
-4.83540011007021
31
0.000000000000000
  0
LINE
  5
F1074D
330
F1074E
100
AcDbEntity
8
Geo
100
AcDbLine
10
-104.163748056180
20
-0.885566044095911
30
0.000000000000000
11
-104.063748056180
21
-0.929534492210808
31
0.000000000000000
  0
LINE
  5
F1074F
330
F10750
100
AcDbEntity
8
Geo
100
AcDbLine
10
-104.063748056180
20
-4.83540011007021
30
0.000000000000000
11
-103.963748056180
21
-4.93883850560470
31
0.000000000000000
  0
LINE
  5
F10751
330
F10752
100
AcDbEntity
8
Geo
100
AcDbLine
10
-104.063748056180
20
-0.929534492210808
30
0.000000000000000
11
-103.963748056180
21
-0.977518842625967
31
0.000000000000000
  0
LINE
  5
F10753
330
F10754
100
AcDbEntity
8
Geo
100
AcDbLine
10
-103.963748056180
20
-4.93883850560470
30
0.000000000000000
11
-103.863748056180
21
-5.04035382705126
31
0.000000000000000
  0
LINE
  5
F10755
330
F10756
100
AcDbEntity
8
Geo
100
AcDbLine
10
-103.963748056180
20
-0.977518842625967
30
0.000000000000000
11
-103.863748056180
21
-1.02944801619070
31
0.000000000000000
  0
LINE
  5
F10757
330
F10758
100
AcDbEntity
8
Geo
100
AcDbLine
10
-103.863748056180
20
-5.04035382705126
30
0.000000000000000
11
-103.763748056180
21
-5.13979569990720
31
0.000000000000000
  0
LINE
  5
F10759
330
F1075A
100
AcDbEntity
8
Geo
100
AcDbLine
10
-103.863748056180
20
-1.02944801619070
30
0.000000000000000
11
-103.763748056180
21
-1.08524509029335
31
0.000000000000000
  0
LINE
  5
F1075B
330
F1075C
100
AcDbEntity
8
Geo
100
AcDbLine
10
-103.763748056180
20
-5.13979569990720
30
0.000000000000000
11
-103.663748056180
21
-5.23701682106633
31
0.000000000000000
  0
LINE
  5
F1075D
330
F1075E
100
AcDbEntity
8
Geo
100
AcDbLine
10
-103.763748056180
20
-1.08524509029335
30
0.000000000000000
11
-103.663748056180
21
-1.14482741280664
31
0.000000000000000
  0
LINE
  5
F1075F
330
F10760
100
AcDbEntity
8
Geo
100
AcDbLine
10
-103.663748056180
20
-5.23701682106633
30
0.000000000000000
11
-103.563748056180
21
-5.33187317701880
31
0.000000000000000
  0
LINE
  5
F10761
330
F10762
100
AcDbEntity
8
Geo
100
AcDbLine
10
-103.663748056180
20
-1.14482741280664
30
0.000000000000000
11
-103.563748056180
21
-1.20810672452013
31
0.000000000000000
  0
LINE
  5
F10763
330
F10764
100
AcDbEntity
8
Geo
100
AcDbLine
10
-103.563748056180
20
-5.33187317701880
30
0.000000000000000
11
-103.463748056180
21
-5.42422425717814
31
0.000000000000000
  0
LINE
  5
F10765
330
F10766
100
AcDbEntity
8
Geo
100
AcDbLine
10
-103.563748056180
20
-1.20810672452013
30
0.000000000000000
11
-103.463748056180
21
-1.27498928987852
31
0.000000000000000
  0
LINE
  5
F10767
330
F10768
100
AcDbEntity
8
Geo
100
AcDbLine
10
-103.463748056180
20
-5.42422425717814
30
0.000000000000000
11
-103.363748056180
21
-5.51393326201936
31
0.000000000000000
  0
LINE
  5
F10769
330
F1076A
100
AcDbEntity
8
Geo
100
AcDbLine
10
-103.463748056180
20
-1.27498928987852
30
0.000000000000000
11
-103.363748056180
21
-1.34537603583194
31
0.000000000000000
  0
LINE
  5
F1076B
330
F1076C
100
AcDbEntity
8
Geo
100
AcDbLine
10
-103.363748056180
20
-5.51393326201936
30
0.000000000000000
11
-103.263748056180
21
-5.60086730571997
31
0.000000000000000
  0
LINE
  5
F1076D
330
F1076E
100
AcDbEntity
8
Geo
100
AcDbLine
10
-103.363748056180
20
-1.34537603583194
30
0.000000000000000
11
-103.263748056180
21
-1.41916269859274
31
0.000000000000000
  0
LINE
  5
F1076F
330
F10770
100
AcDbEntity
8
Geo
100
AcDbLine
10
-103.263748056180
20
-5.60086730571997
30
0.000000000000000
11
-103.163748056180
21
-5.68489761300345
31
0.000000000000000
  0
LINE
  5
F10771
330
F10772
100
AcDbEntity
8
Geo
100
AcDbLine
10
-103.263748056180
20
-1.41916269859274
30
0.000000000000000
11
-103.163748056180
21
-1.49623997808130
31
0.000000000000000
  0
LINE
  5
F10773
330
F10774
100
AcDbEntity
8
Geo
100
AcDbLine
10
-103.163748056180
20
-5.68489761300345
30
0.000000000000000
11
-103.063748056180
21
-5.76589970989399
31
0.000000000000000
  0
LINE
  5
F10775
330
F10776
100
AcDbEntity
8
Geo
100
AcDbLine
10
-103.163748056180
20
-1.49623997808130
30
0.000000000000000
11
-103.063748056180
21
-1.57649369983208
31
0.000000000000000
  0
LINE
  5
F10777
330
F10778
100
AcDbEntity
8
Geo
100
AcDbLine
10
-103.063748056180
20
-5.76589970989399
30
0.000000000000000
11
-102.963748056180
21
-5.84375360809955
31
0.000000000000000
  0
LINE
  5
F10779
330
F1077A
100
AcDbEntity
8
Geo
100
AcDbLine
10
-103.063748056180
20
-1.57649369983208
30
0.000000000000000
11
-102.963748056180
21
-1.65980498412006
31
0.000000000000000
  0
LINE
  5
F1077B
330
F1077C
100
AcDbEntity
8
Geo
100
AcDbLine
10
-102.963748056180
20
-5.84375360809955
30
0.000000000000000
11
-102.863748056180
21
-5.91834398275036
31
0.000000000000000
  0
LINE
  5
F1077D
330
F1077E
100
AcDbEntity
8
Geo
100
AcDbLine
10
-102.963748056180
20
-1.65980498412006
30
0.000000000000000
11
-102.863748056180
21
-1.74605042205719
31
0.000000000000000
  0
LINE
  5
F1077F
330
F10780
100
AcDbEntity
8
Geo
100
AcDbLine
10
-102.863748056180
20
-5.91834398275036
30
0.000000000000000
11
-102.763748056180
21
-5.98956034322951
31
0.000000000000000
  0
LINE
  5
F10781
330
F10782
100
AcDbEntity
8
Geo
100
AcDbLine
10
-102.863748056180
20
-1.74605042205719
30
0.000000000000000
11
-102.763748056180
21
-1.83510225839771
31
0.000000000000000
  0
LINE
  5
F10783
330
F10784
100
AcDbEntity
8
Geo
100
AcDbLine
10
-102.763748056180
20
-5.98956034322951
30
0.000000000000000
11
-102.663748056180
21
-6.05729719684254
31
0.000000000000000
  0
LINE
  5
F10785
330
F10786
100
AcDbEntity
8
Geo
100
AcDbLine
10
-102.763748056180
20
-1.83510225839771
30
0.000000000000000
11
-102.663748056180
21
-1.92682858078187
31
0.000000000000000
  0
LINE
  5
F10787
330
F10788
100
AcDbEntity
8
Geo
100
AcDbLine
10
-102.663748056180
20
-6.05729719684254
30
0.000000000000000
11
-102.563748056180
21
-6.12145420508357
31
0.000000000000000
  0
LINE
  5
F10789
330
F1078A
100
AcDbEntity
8
Geo
100
AcDbLine
10
-102.663748056180
20
-1.92682858078187
30
0.000000000000000
11
-102.563748056180
21
-2.02109351513752
31
0.000000000000000
  0
LINE
  5
F1078B
330
F1078C
100
AcDbEntity
8
Geo
100
AcDbLine
10
-102.563748056180
20
-6.12145420508357
30
0.000000000000000
11
-102.463748056180
21
-6.18193633226667
31
0.000000000000000
  0
LINE
  5
F1078D
330
F1078E
100
AcDbEntity
8
Geo
100
AcDbLine
10
-102.563748056180
20
-2.02109351513752
30
0.000000000000000
11
-102.463748056180
21
-2.11775742695016
31
0.000000000000000
  0
LINE
  5
F1078F
330
F10790
100
AcDbEntity
8
Geo
100
AcDbLine
10
-102.463748056180
20
-6.18193633226667
30
0.000000000000000
11
-102.363748056180
21
-6.23865398630203
31
0.000000000000000
  0
LINE
  5
F10791
330
F10792
100
AcDbEntity
8
Geo
100
AcDbLine
10
-102.463748056180
20
-2.11775742695016
30
0.000000000000000
11
-102.363748056180
21
-2.21667712810337
31
0.000000000000000
  0
LINE
  5
F10793
330
F10794
100
AcDbEntity
8
Geo
100
AcDbLine
10
-102.363748056180
20
-6.23865398630203
30
0.000000000000000
11
-102.263748056180
21
-6.29152315140860
31
0.000000000000000
  0
LINE
  5
F10795
330
F10796
100
AcDbEntity
8
Geo
100
AcDbLine
10
-102.363748056180
20
-2.21667712810337
30
0.000000000000000
11
-102.263748056180
21
-2.31770608898315
31
0.000000000000000
  0
LINE
  5
F10797
330
F10798
100
AcDbEntity
8
Geo
100
AcDbLine
10
-102.263748056180
20
-6.29152315140860
30
0.000000000000000
11
-102.163748056180
21
-6.34046551256658
31
0.000000000000000
  0
LINE
  5
F10799
330
F1079A
100
AcDbEntity
8
Geo
100
AcDbLine
10
-102.263748056180
20
-2.31770608898315
30
0.000000000000000
11
-102.163748056180
21
-2.42069465553205
31
0.000000000000000
  0
LINE
  5
F1079B
330
F1079C
100
AcDbEntity
8
Geo
100
AcDbLine
10
-102.163748056180
20
-6.34046551256658
30
0.000000000000000
11
-102.063748056180
21
-6.38540857152532
31
0.000000000000000
  0
LINE
  5
F1079D
330
F1079E
100
AcDbEntity
8
Geo
100
AcDbLine
10
-102.163748056180
20
-2.42069465553205
30
0.000000000000000
11
-102.063748056180
21
-2.52549027093148
31
0.000000000000000
  0
LINE
  5
F1079F
330
F107A0
100
AcDbEntity
8
Geo
100
AcDbLine
10
-102.063748056180
20
-6.38540857152532
30
0.000000000000000
11
-101.963748056180
21
-6.42628575419487
31
0.000000000000000
  0
LINE
  5
F107A1
330
F107A2
100
AcDbEntity
8
Geo
100
AcDbLine
10
-102.063748056180
20
-2.52549027093148
30
0.000000000000000
11
-101.963748056180
21
-2.63193770158396
31
0.000000000000000
  0
LINE
  5
F107A3
330
F107A4
100
AcDbEntity
8
Geo
100
AcDbLine
10
-101.963748056180
20
-6.42628575419487
30
0.000000000000000
11
-101.863748056180
21
-6.46303650926213
31
0.000000000000000
  0
LINE
  5
F107A5
330
F107A6
100
AcDbEntity
8
Geo
100
AcDbLine
10
-101.963748056180
20
-2.63193770158396
30
0.000000000000000
11
-101.863748056180
21
-2.73987926706039
31
0.000000000000000
  0
LINE
  5
F107A7
330
F107A8
100
AcDbEntity
8
Geo
100
AcDbLine
10
-101.863748056180
20
-6.46303650926213
30
0.000000000000000
11
-101.763748056180
21
-6.49560639788537
31
0.000000000000000
  0
LINE
  5
F107A9
330
F107AA
100
AcDbEntity
8
Geo
100
AcDbLine
10
-101.863748056180
20
-2.73987926706039
30
0.000000000000000
11
-101.763748056180
21
-2.84915507367184
31
0.000000000000000
  0
LINE
  5
F107AB
330
F107AC
100
AcDbEntity
8
Geo
100
AcDbLine
10
-101.763748056180
20
-6.49560639788537
30
0.000000000000000
11
-101.663748056180
21
-6.52394717433446
31
0.000000000000000
  0
LINE
  5
F107AD
330
F107AE
100
AcDbEntity
8
Geo
100
AcDbLine
10
-101.763748056180
20
-2.84915507367184
30
0.000000000000000
11
-101.663748056180
21
-2.95960325131991
31
0.000000000000000
  0
LINE
  5
F107AF
330
F107B0
100
AcDbEntity
8
Geo
100
AcDbLine
10
-101.663748056180
20
-6.52394717433446
30
0.000000000000000
11
-101.563748056180
21
-6.54801685745714
31
0.000000000000000
  0
LINE
  5
F107B1
330
F107B2
100
AcDbEntity
8
Geo
100
AcDbLine
10
-101.663748056180
20
-2.95960325131991
30
0.000000000000000
11
-101.563748056180
21
-3.07106019327458
31
0.000000000000000
  0
LINE
  5
F107B3
330
F107B4
100
AcDbEntity
8
Geo
100
AcDbLine
10
-101.563748056180
20
-6.54801685745714
30
0.000000000000000
11
-101.463748056180
21
-6.56777979286571
31
0.000000000000000
  0
LINE
  5
F107B5
330
F107B6
100
AcDbEntity
8
Geo
100
AcDbLine
10
-101.563748056180
20
-3.07106019327458
30
0.000000000000000
11
-101.463748056180
21
-3.18336079852474
31
0.000000000000000
  0
LINE
  5
F107B7
330
F107B8
100
AcDbEntity
8
Geo
100
AcDbLine
10
-101.463748056180
20
-6.56777979286571
30
0.000000000000000
11
-101.363748056180
21
-6.58320670575179
31
0.000000000000000
  0
LINE
  5
F107B9
330
F107BA
100
AcDbEntity
8
Geo
100
AcDbLine
10
-101.463748056180
20
-3.18336079852474
30
0.000000000000000
11
-101.363748056180
21
-3.29633871634198
31
0.000000000000000
  0
LINE
  5
F107BB
330
F107BC
100
AcDbEntity
8
Geo
100
AcDbLine
10
-101.363748056180
20
-6.58320670575179
30
0.000000000000000
11
-101.263748056180
21
-6.59427474425105
31
0.000000000000000
  0
LINE
  5
F107BD
330
F107BE
100
AcDbEntity
8
Geo
100
AcDbLine
10
-101.363748056180
20
-3.29633871634198
30
0.000000000000000
11
-101.263748056180
21
-3.40982659269578
31
0.000000000000000
  0
LINE
  5
F107BF
330
F107C0
100
AcDbEntity
8
Geo
100
AcDbLine
10
-101.263748056180
20
-6.59427474425105
30
0.000000000000000
11
-101.163748056180
21
-6.60096751329364
31
0.000000000000000
  0
LINE
  5
F107C1
330
F107C2
100
AcDbEntity
8
Geo
100
AcDbLine
10
-101.263748056180
20
-3.40982659269578
30
0.000000000000000
11
-101.163748056180
21
-3.52365631815472
31
0.000000000000000
  0
LINE
  5
F107C3
330
F107C4
100
AcDbEntity
8
Geo
100
AcDbLine
10
-101.163748056180
20
-6.60096751329364
30
0.000000000000000
11
-101.063748056180
21
-6.60327509889021
31
0.000000000000000
  0
LINE
  5
F107C5
330
F107C6
100
AcDbEntity
8
Geo
100
AcDbLine
10
-101.163748056180
20
-3.52365631815472
30
0.000000000000000
11
-101.063748056180
21
-3.63765927690680
31
0.000000000000000
  0
LINE
  5
F107C7
330
F107C8
100
AcDbEntity
8
Geo
100
AcDbLine
10
-101.063748056180
20
-3.63765927690680
30
0.000000000000000
11
-100.963748056180
21
-3.75166659652980
31
0.000000000000000
  0
LINE
  5
F107C9
330
F107CA
100
AcDbEntity
8
Geo
100
AcDbLine
10
-100.963748056180
20
-0.680012373592239
30
0.000000000000000
11
-100.863748056180
21
-0.686478908728122
31
0.000000000000000
  0
LINE
  5
F107CB
330
F107CC
100
AcDbEntity
8
Geo
100
AcDbLine
10
-100.963748056180
20
-3.75166659652980
30
0.000000000000000
11
-100.863748056180
21
-3.86550939814172
31
0.000000000000000
  0
LINE
  5
F107CD
330
F107CE
100
AcDbEntity
8
Geo
100
AcDbLine
10
-100.863748056180
20
-0.686478908728122
30
0.000000000000000
11
-100.763748056180
21
-0.697321384057752
31
0.000000000000000
  0
LINE
  5
F107CF
330
F107D0
100
AcDbEntity
8
Geo
100
AcDbLine
10
-100.863748056180
20
-3.86550939814172
30
0.000000000000000
11
-100.763748056180
21
-3.97901904656088
31
0.000000000000000
  0
LINE
  5
F107D1
330
F107D2
100
AcDbEntity
8
Geo
100
AcDbLine
10
-100.763748056180
20
-0.697321384057752
30
0.000000000000000
11
-100.663748056180
21
-0.712523738637697
31
0.000000000000000
  0
LINE
  5
F107D3
330
F107D4
100
AcDbEntity
8
Geo
100
AcDbLine
10
-100.763748056180
20
-3.97901904656088
30
0.000000000000000
11
-100.663748056180
21
-4.09202740010495
31
0.000000000000000
  0
LINE
  5
F107D5
330
F107D6
100
AcDbEntity
8
Geo
100
AcDbLine
10
-100.663748056180
20
-0.712523738637697
30
0.000000000000000
11
-100.563748056180
21
-0.732063453241529
31
0.000000000000000
  0
LINE
  5
F107D7
330
F107D8
100
AcDbEntity
8
Geo
100
AcDbLine
10
-100.663748056180
20
-4.09202740010495
30
0.000000000000000
11
-100.563748056180
21
-4.20436705965898
31
0.000000000000000
  0
LINE
  5
F107D9
330
F107DA
100
AcDbEntity
8
Geo
100
AcDbLine
10
-100.563748056180
20
-0.732063453241529
30
0.000000000000000
11
-100.463748056180
21
-0.755911583717524
31
0.000000000000000
  0
LINE
  5
F107DB
330
F107DC
100
AcDbEntity
8
Geo
100
AcDbLine
10
-100.563748056180
20
-4.20436705965898
30
0.000000000000000
11
-100.463748056180
21
-4.31587161664350
31
0.000000000000000
  0
LINE
  5
F107DD
330
F107DE
100
AcDbEntity
8
Geo
100
AcDbLine
10
-100.463748056180
20
-0.755911583717524
30
0.000000000000000
11
-100.363748056180
21
-0.784032803863596
31
0.000000000000000
  0
LINE
  5
F107DF
330
F107E0
100
AcDbEntity
8
Geo
100
AcDbLine
10
-100.463748056180
20
-4.31587161664350
30
0.000000000000000
11
-100.363748056180
21
-4.42637589951530
31
0.000000000000000
  0
LINE
  5
F107E1
330
F107E2
100
AcDbEntity
8
Geo
100
AcDbLine
10
-100.363748056180
20
-0.784032803863596
30
0.000000000000000
11
-100.263748056180
21
-0.816385457755953
31
0.000000000000000
  0
LINE
  5
F107E3
330
F107E4
100
AcDbEntity
8
Geo
100
AcDbLine
10
-100.363748056180
20
-4.42637589951530
30
0.000000000000000
11
-100.263748056180
21
-4.53571621843580
31
0.000000000000000
  0
LINE
  5
F107E5
330
F107E6
100
AcDbEntity
8
Geo
100
AcDbLine
10
-100.263748056180
20
-0.816385457755953
30
0.000000000000000
11
-100.163748056180
21
-0.852921621453947
31
0.000000000000000
  0
LINE
  5
F107E7
330
F107E8
100
AcDbEntity
8
Geo
100
AcDbLine
10
-100.263748056180
20
-4.53571621843580
30
0.000000000000000
11
-100.163748056180
21
-4.64373060774458
31
0.000000000000000
  0
LINE
  5
F107E9
330
F107EA
100
AcDbEntity
8
Geo
100
AcDbLine
10
-100.163748056180
20
-0.852921621453947
30
0.000000000000000
11
-100.063748056180
21
-0.893587173989753
31
0.000000000000000
  0
LINE
  5
F107EB
330
F107EC
100
AcDbEntity
8
Geo
100
AcDbLine
10
-100.163748056180
20
-4.64373060774458
30
0.000000000000000
11
-100.063748056180
21
-4.75025906587888
31
0.000000000000000
  0
LINE
  5
F107ED
330
F107EE
100
AcDbEntity
8
Geo
100
AcDbLine
10
-100.063748056180
20
-0.893587173989753
30
0.000000000000000
11
-99.9637480561802
21
-0.938321877537674
31
0.000000000000000
  0
LINE
  5
F107EF
330
F107F0
100
AcDbEntity
8
Geo
100
AcDbLine
10
-100.063748056180
20
-4.75025906587888
30
0.000000000000000
11
-99.9637480561802
21
-4.85514379238372
31
0.000000000000000
  0
LINE
  5
F107F1
330
F107F2
100
AcDbEntity
8
Geo
100
AcDbLine
10
-99.9637480561802
20
-0.938321877537674
30
0.000000000000000
11
-99.8637480561802
21
-0.987059466644350
31
0.000000000000000
  0
LINE
  5
F107F3
330
F107F4
100
AcDbEntity
8
Geo
100
AcDbLine
10
-99.9637480561802
20
-4.85514379238372
30
0.000000000000000
11
-99.8637480561802
21
-4.95822942166144
31
0.000000000000000
  0
LINE
  5
F107F5
330
F107F6
100
AcDbEntity
8
Geo
100
AcDbLine
10
-99.8637480561802
20
-0.987059466644350
30
0.000000000000000
11
-99.7637480561802
21
-1.03972774638768
31
0.000000000000000
  0
LINE
  5
F107F7
330
F107F8
100
AcDbEntity
8
Geo
100
AcDbLine
10
-99.8637480561802
20
-4.95822942166144
30
0.000000000000000
11
-99.7637480561802
21
-5.05936325311458
31
0.000000000000000
  0
LINE
  5
F107F9
330
F107FA
100
AcDbEntity
8
Geo
100
AcDbLine
10
-99.7637480561802
20
-1.03972774638768
30
0.000000000000000
11
-99.6637480561802
21
-1.09624869931907
31
0.000000000000000
  0
LINE
  5
F107FB
330
F107FC
100
AcDbEntity
8
Geo
100
AcDbLine
10
-99.7637480561802
20
-5.05936325311458
30
0.000000000000000
11
-99.6637480561802
21
-5.15839547734106
31
0.000000000000000
  0
LINE
  5
F107FD
330
F107FE
100
AcDbEntity
8
Geo
100
AcDbLine
10
-99.6637480561802
20
-1.09624869931907
30
0.000000000000000
11
-99.5637480561802
21
-1.15653860103053
31
0.000000000000000
  0
LINE
  5
F107FF
330
F10800
100
AcDbEntity
8
Geo
100
AcDbLine
10
-99.6637480561802
20
-5.15839547734106
30
0.000000000000000
11
-99.5637480561802
21
-5.25517939804660
31
0.000000000000000
  0
LINE
  5
F10801
330
F10802
100
AcDbEntity
8
Geo
100
AcDbLine
10
-99.5637480561802
20
-1.15653860103053
30
0.000000000000000
11
-99.4637480561802
21
-1.22050814417559
31
0.000000000000000
  0
LINE
  5
F10803
330
F10804
100
AcDbEntity
8
Geo
100
AcDbLine
10
-99.5637480561802
20
-5.25517939804660
30
0.000000000000000
11
-99.4637480561802
21
-5.34957164934578
31
0.000000000000000
  0
LINE
  5
F10805
330
F10806
100
AcDbEntity
8
Geo
100
AcDbLine
10
-99.4637480561802
20
-1.22050814417559
30
0.000000000000000
11
-99.3637480561802
21
-1.28806257076007
31
0.000000000000000
  0
LINE
  5
F10807
330
F10808
100
AcDbEntity
8
Geo
100
AcDbLine
10
-99.4637480561802
20
-5.34957164934578
30
0.000000000000000
11
-99.3637480561802
21
-5.44143240812970
31
0.000000000000000
  0
LINE
  5
F10809
330
F1080A
100
AcDbEntity
8
Geo
100
AcDbLine
10
-99.3637480561802
20
-1.28806257076007
30
0.000000000000000
11
-99.2637480561802
21
-1.35910181250702
31
0.000000000000000
  0
LINE
  5
F1080B
330
F1080C
100
AcDbEntity
8
Geo
100
AcDbLine
10
-99.3637480561802
20
-5.44143240812970
30
0.000000000000000
11
-99.2637480561802
21
-5.53062560118575
31
0.000000000000000
  0
LINE
  5
F1080D
330
F1080E
100
AcDbEntity
8
Geo
100
AcDbLine
10
-99.2637480561802
20
-1.35910181250702
30
0.000000000000000
11
-99.1637480561802
21
-1.43352063908770
31
0.000000000000000
  0
LINE
  5
F1080F
330
F10810
100
AcDbEntity
8
Geo
100
AcDbLine
10
-99.2637480561802
20
-5.53062560118575
30
0.000000000000000
11
-99.1637480561802
21
-5.61701910676267
31
0.000000000000000
  0
LINE
  5
F10811
330
F10812
100
AcDbEntity
8
Geo
100
AcDbLine
10
-99.1637480561802
20
-1.43352063908770
30
0.000000000000000
11
-99.0637480561802
21
-1.51120881399910
31
0.000000000000000
  0
LINE
  5
F10813
330
F10814
100
AcDbEntity
8
Geo
100
AcDbLine
10
-99.1637480561802
20
-5.61701910676267
30
0.000000000000000
11
-99.0637480561802
21
-5.70048495028234
31
0.000000000000000
  0
LINE
  5
F10815
330
F10816
100
AcDbEntity
8
Geo
100
AcDbLine
10
-99.0637480561802
20
-1.51120881399910
30
0.000000000000000
11
-98.9637480561802
21
-1.59205125785716
31
0.000000000000000
  0
LINE
  5
F10817
330
F10818
100
AcDbEntity
8
Geo
100
AcDbLine
10
-99.0637480561802
20
-5.70048495028234
30
0.000000000000000
11
-98.9637480561802
21
-5.78089949390830
31
0.000000000000000
  0
LINE
  5
F10819
330
F1081A
100
AcDbEntity
8
Geo
100
AcDbLine
10
-98.9637480561802
20
-1.59205125785716
30
0.000000000000000
11
-98.8637480561802
21
-1.67592821886364
31
0.000000000000000
  0
LINE
  5
F1081B
330
F1081C
100
AcDbEntity
8
Geo
100
AcDbLine
10
-98.9637480561802
20
-5.78089949390830
30
0.000000000000000
11
-98.8637480561802
21
-5.85814361969035
31
0.000000000000000
  0
LINE
  5
F1081D
330
F1081E
100
AcDbEntity
8
Geo
100
AcDbLine
10
-98.8637480561802
20
-1.67592821886364
30
0.000000000000000
11
-98.7637480561802
21
-1.76271545019433
31
0.000000000000000
  0
LINE
  5
F1081F
330
F10820
100
AcDbEntity
8
Geo
100
AcDbLine
10
-98.8637480561802
20
-5.85814361969035
30
0.000000000000000
11
-98.7637480561802
21
-5.93210290601375
31
0.000000000000000
  0
LINE
  5
F10821
330
F10822
100
AcDbEntity
8
Geo
100
AcDbLine
10
-98.7637480561802
20
-1.76271545019433
30
0.000000000000000
11
-98.6637480561802
21
-1.85228439404572
31
0.000000000000000
  0
LINE
  5
F10823
330
F10824
100
AcDbEntity
8
Geo
100
AcDbLine
10
-98.7637480561802
20
-5.93210290601375
30
0.000000000000000
11
-98.6637480561802
21
-6.00266779709184
31
0.000000000000000
  0
LINE
  5
F10825
330
F10826
100
AcDbEntity
8
Geo
100
AcDbLine
10
-98.6637480561802
20
-1.85228439404572
30
0.000000000000000
11
-98.5637480561802
21
-1.94450237206741
31
0.000000000000000
  0
LINE
  5
F10827
330
F10828
100
AcDbEntity
8
Geo
100
AcDbLine
10
-98.6637480561802
20
-6.00266779709184
30
0.000000000000000
11
-98.5637480561802
21
-6.06973376525085
31
0.000000000000000
  0
LINE
  5
F10829
330
F1082A
100
AcDbEntity
8
Geo
100
AcDbLine
10
-98.5637480561802
20
-1.94450237206741
30
0.000000000000000
11
-98.4637480561802
21
-2.03923278189845
31
0.000000000000000
  0
LINE
  5
F1082B
330
F1082C
100
AcDbEntity
8
Geo
100
AcDbLine
10
-98.5637480561802
20
-6.06973376525085
30
0.000000000000000
11
-98.4637480561802
21
-6.13320146576661
31
0.000000000000000
  0
LINE
  5
F1082D
330
F1082E
100
AcDbEntity
8
Geo
100
AcDbLine
10
-98.4637480561802
20
-2.03923278189845
30
0.000000000000000
11
-98.3637480561802
21
-2.13633529951617
31
0.000000000000000
  0
LINE
  5
F1082F
330
F10830
100
AcDbEntity
8
Geo
100
AcDbLine
10
-98.4637480561802
20
-6.13320146576661
30
0.000000000000000
11
-98.3637480561802
21
-6.19297688402373
31
0.000000000000000
  0
LINE
  5
F10831
330
F10832
100
AcDbEntity
8
Geo
100
AcDbLine
10
-98.3637480561802
20
-2.13633529951617
30
0.000000000000000
11
-98.2637480561802
21
-2.23566608709800
31
0.000000000000000
  0
LINE
  5
F10833
330
F10834
100
AcDbEntity
8
Geo
100
AcDbLine
10
-98.3637480561802
20
-6.19297688402373
30
0.000000000000000
11
-98.2637480561802
21
-6.24897147477934
31
0.000000000000000
  0
LINE
  5
F10835
330
F10836
100
AcDbEntity
8
Geo
100
AcDbLine
10
-98.2637480561802
20
-2.23566608709800
30
0.000000000000000
11
-98.1637480561802
21
-2.33707800608819
31
0.000000000000000
  0
LINE
  5
F10837
330
F10838
100
AcDbEntity
8
Geo
100
AcDbLine
10
-98.2637480561802
20
-6.24897147477934
30
0.000000000000000
11
-98.1637480561802
21
-6.30110229332502
31
0.000000000000000
  0
LINE
  5
F10839
330
F1083A
100
AcDbEntity
8
Geo
100
AcDbLine
10
-98.1637480561802
20
-2.33707800608819
30
0.000000000000000
11
-98.0637480561802
21
-2.44042083515397
31
0.000000000000000
  0
LINE
  5
F1083B
330
F1083C
100
AcDbEntity
8
Geo
100
AcDbLine
10
-98.1637480561802
20
-6.30110229332502
30
0.000000000000000
11
-98.0637480561802
21
-6.34929211835267
31
0.000000000000000
  0
LINE
  5
F1083D
330
F1083E
100
AcDbEntity
8
Geo
100
AcDbLine
10
-98.0637480561802
20
-2.44042083515397
30
0.000000000000000
11
-97.9637480561802
21
-2.54554149270820
31
0.000000000000000
  0
LINE
  5
F1083F
330
F10840
100
AcDbEntity
8
Geo
100
AcDbLine
10
-98.0637480561802
20
-6.34929211835267
30
0.000000000000000
11
-97.9637480561802
21
-6.39346956634236
31
0.000000000000000
  0
LINE
  5
F10841
330
F10842
100
AcDbEntity
8
Geo
100
AcDbLine
10
-97.9637480561802
20
-2.54554149270820
30
0.000000000000000
11
-97.8637480561802
21
-2.65228426366889
31
0.000000000000000
  0
LINE
  5
F10843
330
F10844
100
AcDbEntity
8
Geo
100
AcDbLine
10
-97.9637480561802
20
-6.39346956634236
30
0.000000000000000
11
-97.8637480561802
21
-6.43356919730260
31
0.000000000000000
  0
LINE
  5
F10845
330
F10846
100
AcDbEntity
8
Geo
100
AcDbLine
10
-97.8637480561802
20
-2.65228426366889
30
0.000000000000000
11
-97.7637480561802
21
-2.76049103011977
31
0.000000000000000
  0
LINE
  5
F10847
330
F10848
100
AcDbEntity
8
Geo
100
AcDbLine
10
-97.8637480561802
20
-6.43356919730260
30
0.000000000000000
11
-97.7637480561802
21
-6.46953161170653
31
0.000000000000000
  0
LINE
  5
F10849
330
F1084A
100
AcDbEntity
8
Geo
100
AcDbLine
10
-97.7637480561802
20
-2.76049103011977
30
0.000000000000000
11
-97.6637480561802
21
-2.87000150553009
31
0.000000000000000
  0
LINE
  5
F1084B
330
F1084C
100
AcDbEntity
8
Geo
100
AcDbLine
10
-97.7637480561802
20
-6.46953161170653
30
0.000000000000000
11
-97.6637480561802
21
-6.50130353848033
31
0.000000000000000
  0
LINE
  5
F1084D
330
F1084E
100
AcDbEntity
8
Geo
100
AcDbLine
10
-97.6637480561802
20
-2.87000150553009
30
0.000000000000000
11
-97.5637480561802
21
-2.98065347218687
31
0.000000000000000
  0
LINE
  5
F1084F
330
F10850
100
AcDbEntity
8
Geo
100
AcDbLine
10
-97.6637480561802
20
-6.50130353848033
30
0.000000000000000
11
-97.5637480561802
21
-6.52883791391364
31
0.000000000000000
  0
LINE
  5
F10851
330
F10852
100
AcDbEntity
8
Geo
100
AcDbLine
10
-97.5637480561802
20
-2.98065347218687
30
0.000000000000000
11
-97.4637480561802
21
-3.09228302148774
31
0.000000000000000
  0
LINE
  5
F10853
330
F10854
100
AcDbEntity
8
Geo
100
AcDbLine
10
-97.5637480561802
20
-6.52883791391364
30
0.000000000000000
11
-97.4637480561802
21
-6.55209395137490
31
0.000000000000000
  0
LINE
  5
F10855
330
F10856
100
AcDbEntity
8
Geo
100
AcDbLine
10
-97.4637480561802
20
-3.09228302148774
30
0.000000000000000
11
-97.3637480561802
21
-3.20472479673855
31
0.000000000000000
  0
LINE
  5
F10857
330
F10858
100
AcDbEntity
8
Geo
100
AcDbLine
10
-97.4637480561802
20
-6.55209395137490
30
0.000000000000000
11
-97.3637480561802
21
-6.57103720172857
31
0.000000000000000
  0
LINE
  5
F10859
330
F1085A
100
AcDbEntity
8
Geo
100
AcDbLine
10
-97.3637480561802
20
-3.20472479673855
30
0.000000000000000
11
-97.2637480561802
21
-3.31781223809598
31
0.000000000000000
  0
LINE
  5
F1085B
330
F1085C
100
AcDbEntity
8
Geo
100
AcDbLine
10
-97.3637480561802
20
-6.57103720172857
30
0.000000000000000
11
-97.2637480561802
21
-6.58563960436459
31
0.000000000000000
  0
LINE
  5
F1085D
330
F1085E
100
AcDbEntity
8
Geo
100
AcDbLine
10
-97.2637480561802
20
-3.31781223809598
30
0.000000000000000
11
-97.1637480561802
21
-3.43137782929243
31
0.000000000000000
  0
LINE
  5
F1085F
330
F10860
100
AcDbEntity
8
Geo
100
AcDbLine
10
-97.2637480561802
20
-6.58563960436459
30
0.000000000000000
11
-97.1637480561802
21
-6.59587952876449
31
0.000000000000000
  0
LINE
  5
F10861
330
F10862
100
AcDbEntity
8
Geo
100
AcDbLine
10
-97.1637480561802
20
-3.43137782929243
30
0.000000000000000
11
-97.0637480561802
21
-3.54525334577761
31
0.000000000000000
  0
LINE
  5
F10863
330
F10864
100
AcDbEntity
8
Geo
100
AcDbLine
10
-97.1637480561802
20
-6.59587952876449
30
0.000000000000000
11
-97.0637480561802
21
-6.60174180654269
31
0.000000000000000
  0
LINE
  5
F10865
330
F10866
100
AcDbEntity
8
Geo
100
AcDbLine
10
-97.0637480561802
20
-3.54525334577761
30
0.000000000000000
11
-96.9637480561802
21
-3.65927010390933
31
0.000000000000000
  0
LINE
  5
F10867
330
F10868
100
AcDbEntity
8
Geo
100
AcDbLine
10
-96.9637480561802
20
-0.677988702494335
30
0.000000000000000
11
-96.8637480561802
21
-0.680901271845940
31
0.000000000000000
  0
LINE
  5
F10869
330
F1086A
100
AcDbEntity
8
Geo
100
AcDbLine
10
-96.9637480561802
20
-3.65927010390933
30
0.000000000000000
11
-96.8637480561802
21
-3.77325921082437
31
0.000000000000000
  0
LINE
  5
F1086B
330
F1086C
100
AcDbEntity
8
Geo
100
AcDbLine
10
-96.8637480561802
20
-0.680901271845940
30
0.000000000000000
11
-96.7637480561802
21
-0.688198043536952
31
0.000000000000000
  0
LINE
  5
F1086D
330
F1086E
100
AcDbEntity
8
Geo
100
AcDbLine
10
-96.8637480561802
20
-3.77325921082437
30
0.000000000000000
11
-96.7637480561802
21
-3.88705181461918
31
0.000000000000000
  0
LINE
  5
F1086F
330
F10870
100
AcDbEntity
8
Geo
100
AcDbLine
10
-96.7637480561802
20
-0.688198043536952
30
0.000000000000000
11
-96.6637480561802
21
-0.699868208869745
31
0.000000000000000
  0
LINE
  5
F10871
330
F10872
100
AcDbEntity
8
Geo
100
AcDbLine
10
-96.7637480561802
20
-3.88705181461918
30
0.000000000000000
11
-96.6637480561802
21
-4.00047935447005
31
0.000000000000000
  0
LINE
  5
F10873
330
F10874
100
AcDbEntity
8
Geo
100
AcDbLine
10
-96.6637480561802
20
-0.699868208869745
30
0.000000000000000
11
-96.5637480561802
21
-0.715894480844840
31
0.000000000000000
  0
LINE
  5
F10875
330
F10876
100
AcDbEntity
8
Geo
100
AcDbLine
10
-96.6637480561802
20
-4.00047935447005
30
0.000000000000000
11
-96.5637480561802
21
-4.11337381032194
31
0.000000000000000
  0
LINE
  5
F10877
330
F10878
100
AcDbEntity
8
Geo
100
AcDbLine
10
-96.5637480561802
20
-0.715894480844840
30
0.000000000000000
11
-96.4637480561802
21
-0.736253119768139
31
0.000000000000000
  0
LINE
  5
F10879
330
F1087A
100
AcDbEntity
8
Geo
100
AcDbLine
10
-96.5637480561802
20
-4.11337381032194
30
0.000000000000000
11
-96.4637480561802
21
-4.22556795177641
31
0.000000000000000
  0
LINE
  5
F1087B
330
F1087C
100
AcDbEntity
8
Geo
100
AcDbLine
10
-96.4637480561802
20
-0.736253119768139
30
0.000000000000000
11
-96.3637480561802
21
-0.760913968416477
31
0.000000000000000
  0
LINE
  5
F1087D
330
F1087E
100
AcDbEntity
8
Geo
100
AcDbLine
10
-96.4637480561802
20
-4.22556795177641
30
0.000000000000000
11
-96.3637480561802
21
-4.33689558580974
31
0.000000000000000
  0
LINE
  5
F1087F
330
F10880
100
AcDbEntity
8
Geo
100
AcDbLine
10
-96.3637480561802
20
-0.760913968416477
30
0.000000000000000
11
-96.2637480561802
21
-0.789840496709484
31
0.000000000000000
  0
LINE
  5
F10881
330
F10882
100
AcDbEntity
8
Geo
100
AcDbLine
10
-96.3637480561802
20
-4.33689558580974
30
0.000000000000000
11
-96.2637480561802
21
-4.44719180295443
31
0.000000000000000
  0
LINE
  5
F10883
330
F10884
100
AcDbEntity
8
Geo
100
AcDbLine
10
-96.2637480561802
20
-0.789840496709484
30
0.000000000000000
11
-96.1637480561802
21
-0.822989855821541
31
0.000000000000000
  0
LINE
  5
F10885
330
F10886
100
AcDbEntity
8
Geo
100
AcDbLine
10
-96.2637480561802
20
-4.44719180295443
30
0.000000000000000
11
-96.1637480561802
21
-4.55629322157937
31
0.000000000000000
  0
LINE
  5
F10887
330
F10888
100
AcDbEntity
8
Geo
100
AcDbLine
10
-96.1637480561802
20
-0.822989855821541
30
0.000000000000000
11
-96.0637480561802
21
-0.860312941653684
31
0.000000000000000
  0
LINE
  5
F10889
330
F1088A
100
AcDbEntity
8
Geo
100
AcDbLine
10
-96.1637480561802
20
-4.55629322157937
30
0.000000000000000
11
-96.0637480561802
21
-4.66403822990682
31
0.000000000000000
  0
LINE
  5
F1088B
330
F1088C
100
AcDbEntity
8
Geo
100
AcDbLine
10
-96.0637480561802
20
-0.860312941653684
30
0.000000000000000
11
-95.9637480561802
21
-0.901754467571437
31
0.000000000000000
  0
LINE
  5
F1088D
330
F1088E
100
AcDbEntity
8
Geo
100
AcDbLine
10
-96.0637480561802
20
-4.66403822990682
30
0.000000000000000
11
-95.9637480561802
21
-4.77026722540769
31
0.000000000000000
  0
LINE
  5
F1088F
330
F10890
100
AcDbEntity
8
Geo
100
AcDbLine
10
-95.9637480561802
20
-0.901754467571437
30
0.000000000000000
11
-95.8637480561802
21
-0.947253046300825
31
0.000000000000000
  0
LINE
  5
F10891
330
F10892
100
AcDbEntity
8
Geo
100
AcDbLine
10
-95.9637480561802
20
-4.77026722540769
30
0.000000000000000
11
-95.8637480561802
21
-4.87482285122055
31
0.000000000000000
  0
LINE
  5
F10893
330
F10894
100
AcDbEntity
8
Geo
100
AcDbLine
10
-95.8637480561802
20
-0.947253046300825
30
0.000000000000000
11
-95.7637480561802
21
-0.996741280861259
31
0.000000000000000
  0
LINE
  5
F10895
330
F10896
100
AcDbEntity
8
Geo
100
AcDbLine
10
-95.8637480561802
20
-4.87482285122055
30
0.000000000000000
11
-95.7637480561802
21
-4.97755022924417
31
0.000000000000000
  0
LINE
  5
F10897
330
F10898
100
AcDbEntity
8
Geo
100
AcDbLine
10
-95.7637480561802
20
-0.996741280861259
30
0.000000000000000
11
-95.6637480561802
21
-1.05014586440059
31
0.000000000000000
  0
LINE
  5
F10899
330
F1089A
100
AcDbEntity
8
Geo
100
AcDbLine
10
-95.7637480561802
20
-4.97755022924417
30
0.000000000000000
11
-95.6637480561802
21
-5.07829718955815
31
0.000000000000000
  0
LINE
  5
F1089B
330
F1089C
100
AcDbEntity
8
Geo
100
AcDbLine
10
-95.6637480561802
20
-1.05014586440059
30
0.000000000000000
11
-95.5637480561802
21
-1.10738768878443
31
0.000000000000000
  0
LINE
  5
F1089D
330
F1089E
100
AcDbEntity
8
Geo
100
AcDbLine
10
-95.6637480561802
20
-5.07829718955815
30
0.000000000000000
11
-95.5637480561802
21
-5.17691449583207
31
0.000000000000000
  0
LINE
  5
F1089F
330
F108A0
100
AcDbEntity
8
Geo
100
AcDbLine
10
-95.5637480561802
20
-1.10738768878443
30
0.000000000000000
11
-95.4637480561802
21
-1.16838196177894
31
0.000000000000000
  0
LINE
  5
F108A1
330
F108A2
100
AcDbEntity
8
Geo
100
AcDbLine
10
-95.5637480561802
20
-5.17691449583207
30
0.000000000000000
11
-95.4637480561802
21
-5.27325606638905
31
0.000000000000000
  0
LINE
  5
F108A3
330
F108A4
100
AcDbEntity
8
Geo
100
AcDbLine
10
-95.4637480561802
20
-1.16838196177894
30
0.000000000000000
11
-95.3637480561802
21
-1.23303833265344
31
0.000000000000000
  0
LINE
  5
F108A5
330
F108A6
100
AcDbEntity
8
Geo
100
AcDbLine
10
-95.4637480561802
20
-5.27325606638905
30
0.000000000000000
11
-95.3637480561802
21
-5.36717919059632
31
0.000000000000000
  0
LINE
  5
F108A7
330
F108A8
100
AcDbEntity
8
Geo
100
AcDbLine
10
-95.3637480561802
20
-1.23303833265344
30
0.000000000000000
11
-95.2637480561802
21
-1.30126102601683
31
0.000000000000000
  0
LINE
  5
F108A9
330
F108AA
100
AcDbEntity
8
Geo
100
AcDbLine
10
-95.3637480561802
20
-5.36717919059632
30
0.000000000000000
11
-95.2637480561802
21
-5.45854474026226
31
0.000000000000000
  0
LINE
  5
F108AB
330
F108AC
100
AcDbEntity
8
Geo
100
AcDbLine
10
-95.2637480561802
20
-1.30126102601683
30
0.000000000000000
11
-95.1637480561802
21
-1.37294898368951
31
0.000000000000000
  0
LINE
  5
F108AD
330
F108AE
100
AcDbEntity
8
Geo
100
AcDbLine
10
-95.2637480561802
20
-5.45854474026226
30
0.000000000000000
11
-95.1637480561802
21
-5.54721737572685
31
0.000000000000000
  0
LINE
  5
F108AF
330
F108B0
100
AcDbEntity
8
Geo
100
AcDbLine
10
-95.1637480561802
20
-1.37294898368951
30
0.000000000000000
11
-95.0637480561802
21
-1.44799601440074
31
0.000000000000000
  0
LINE
  5
F108B1
330
F108B2
100
AcDbEntity
8
Geo
100
AcDbLine
10
-95.1637480561802
20
-5.54721737572685
30
0.000000000000000
11
-95.0637480561802
21
-5.63306574634005
31
0.000000000000000
  0
LINE
  5
F108B3
330
F108B4
100
AcDbEntity
8
Geo
100
AcDbLine
10
-95.0637480561802
20
-1.44799601440074
30
0.000000000000000
11
-94.9637480561802
21
-1.52629095108964
31
0.000000000000000
  0
LINE
  5
F108B5
330
F108B6
100
AcDbEntity
8
Geo
100
AcDbLine
10
-95.0637480561802
20
-5.63306574634005
30
0.000000000000000
11
-94.9637480561802
21
-5.71596268503139
31
0.000000000000000
  0
LINE
  5
F108B7
330
F108B8
100
AcDbEntity
8
Geo
100
AcDbLine
10
-108.963748056180
20
-3.64060322820485
30
0.000000000000000
11
-108.963748056180
21
-3.64060322820485
31
0.000000000000000
  0
LINE
  5
F108B9
330
F108BA
100
AcDbEntity
8
Geo
100
AcDbLine
10
-108.963748056180
20
-3.64060322820485
30
0.000000000000000
11
-108.963748056180
21
-3.64060322820485
31
0.000000000000000
  0
LINE
  5
F108BB
330
F108BC
100
AcDbEntity
8
Geo
100
AcDbLine
10
-109.963748056180
20
-3.64060322820485
30
0.000000000000000
11
-109.663748056180
21
-3.64060322820485
31
0.000000000000000
  0
LINE
  5
F108BD
330
F108BE
100
AcDbEntity
8
Geo
100
AcDbLine
10
-109.536248056180
20
-3.64060322820485
30
0.000000000000000
11
-109.451248056180
21
-3.64060322820485
31
0.000000000000000
  0
LINE
  5
F108BF
330
F108C0
100
AcDbEntity
8
Geo
100
AcDbLine
10
-109.238748056180
20
-3.64060322820485
30
0.000000000000000
11
-108.813748056180
21
-3.64060322820485
31
0.000000000000000
  0
LINE
  5
F108C1
330
F108C2
100
AcDbEntity
8
Geo
100
AcDbLine
10
-108.686248056180
20
-3.64060322820485
30
0.000000000000000
11
-108.601248056180
21
-3.64060322820485
31
0.000000000000000
  0
LINE
  5
F108C3
330
F108C4
100
AcDbEntity
8
Geo
100
AcDbLine
10
-108.388748056180
20
-3.64060322820485
30
0.000000000000000
11
-107.963748056180
21
-3.64060322820485
31
0.000000000000000
  0
LINE
  5
F108C5
330
F108C6
100
AcDbEntity
8
Geo
100
AcDbLine
10
-51.9637480561802
20
-1.14060322820485
30
0.000000000000000
11
-51.9637480561802
21
-3.64060322820485
31
0.000000000000000
  0
LINE
  5
F108C7
330
F108C8
100
AcDbEntity
8
Geo
100
AcDbLine
10
-108.862477824654
20
-3.64060322820485
30
0.000000000000000
11
-108.963748056180
21
-6.54060322820485
31
0.000000000000000
  0
LINE
  5
F108C9
330
F108CA
100
AcDbEntity
8
Geo
100
AcDbLine
10
-108.963748056180
20
-6.54060322820485
30
0.000000000000000
11
-108.863748056180
21
-6.64060322820485
31
0.000000000000000
  0
LINE
  5
F108CB
330
F108CC
100
AcDbEntity
8
Geo
100
AcDbLine
10
-108.863748056180
20
-6.64060322820485
30
0.000000000000000
11
-89.9637480561802
21
-6.64060322820485
31
0.000000000000000
  0
LINE
  5
F108CD
330
F108CE
100
AcDbEntity
8
Geo
100
AcDbLine
10
-89.9637480561802
20
-6.64060322820485
30
0.000000000000000
11
-89.9637480561802
21
-6.54060322820485
31
0.000000000000000
  0
LINE
  5
F108CF
330
F108D0
100
AcDbEntity
8
Geo
100
AcDbLine
10
-89.9637480561802
20
-6.54060322820485
30
0.000000000000000
11
-83.9637480561802
21
-6.54060322820485
31
0.000000000000000
  0
LINE
  5
F108D1
330
F108D2
100
AcDbEntity
8
Geo
100
AcDbLine
10
-83.9637480561802
20
-6.54060322820485
30
0.000000000000000
11
-83.9637480561802
21
-6.64060322820485
31
0.000000000000000
  0
LINE
  5
F108D3
330
F108D4
100
AcDbEntity
8
Geo
100
AcDbLine
10
-83.9637480561802
20
-6.64060322820485
30
0.000000000000000
11
-52.4637480561802
21
-6.64060322820485
31
0.000000000000000
  0
LINE
  5
F108D5
330
F108D6
100
AcDbEntity
8
Geo
100
AcDbLine
10
-52.4637480561802
20
-6.64060322820485
30
0.000000000000000
11
-51.9637480561802
21
-6.14060322820485
31
0.000000000000000
  0
LINE
  5
F108D7
330
F108D8
100
AcDbEntity
8
Geo
100
AcDbLine
10
-108.963748056180
20
-0.740603228204853
30
0.000000000000000
11
-108.963748056180
21
-6.54060322820485
31
0.000000000000000
  0
LINE
  5
F108D9
330
F108DA
100
AcDbEntity
8
Geo
100
AcDbLine
10
-89.9637480561802
20
-0.640603228204853
30
0.000000000000000
11
-89.9637480561802
21
-6.64060322820485
31
0.000000000000000
  0
LINE
  5
F108DB
330
F108DC
100
AcDbEntity
8
Geo
100
AcDbLine
10
-89.9637480561802
20
-0.740603228204853
30
0.000000000000000
11
-89.9637480561802
21
-6.54060322820485
31
0.000000000000000
  0
LINE
  5
F108DD
330
F108DE
100
AcDbEntity
8
Geo
100
AcDbLine
10
-83.9637480561802
20
-0.740603228204853
30
0.000000000000000
11
-83.9637480561802
21
-6.54060322820485
31
0.000000000000000
  0
LINE
  5
F108DF
330
F108E0
100
AcDbEntity
8
Geo
100
AcDbLine
10
-83.9637480561802
20
-0.740603228204853
30
0.000000000000000
11
-83.9637480561802
21
-6.54060322820485
31
0.000000000000000
  0
LINE
  5
F108E1
330
F108E2
100
AcDbEntity
8
Geo
100
AcDbLine
10
-52.4637480561802
20
-0.640603228204853
30
0.000000000000000
11
-52.4637480561802
21
-6.64060322820485
31
0.000000000000000
  0
LINE
  5
F108E3
330
F108E4
100
AcDbEntity
8
Geo
100
AcDbLine
10
-51.9637480561802
20
-1.14060322820485
30
0.000000000000000
11
-51.9637480561802
21
-6.14060322820485
31
0.000000000000000
  0
LWPOLYLINE
  5
F108E5
330
F108E6
100
AcDbEntity
8
Rahmen
100
AcDbPolyline
90
   4
70
   1
43
   0.0
 10
-125.539221972087
 20
102.916821530774
 10
134.339771191068
 20
102.916821530774
 10
134.339771191068
 20
-102.869711516972
 10
-125.539221972087
 20
-102.869711516972
  0
TEXT
  5
F108E7
330
F108E8
 100
AcDbEntity
8
Text
100
AcDbText
10
-124.559286100431
20
-102.369711516972
30
0.000000000000000
40
1.00000000000000
1
ISBESketcher
100
AcDbText
  0
LWPOLYLINE
  5
F108E9
330
F108EA
100
AcDbEntity
8
Rahmen
100
AcDbPolyline
90
   4
70
   1
43
   0.0
 10
94.3583876275054
 20
-99.9299039020047
 10
134.339771191068
 20
-99.9299039020047
 10
134.339771191068
 20
-102.869711516972
 10
94.3583876275054
 20
-102.869711516972
  0
TEXT
  5
F108EB
330
F108EC
 100
AcDbEntity
8
Text
100
AcDbText
10
95.5000000000000
20
-102.033948697325
30
0.000000000000000
40
0.750000000000000
1
Created by:
100
AcDbText
  0
TEXT
  5
F108ED
330
F108EE
 100
AcDbEntity
8
Text
100
AcDbText
10
120.148153908026
20
-102.033948697325
30
0.000000000000000
40
0.750000000000000
1
nsarkol
100
AcDbText
  0
LWPOLYLINE
  5
F108EF
330
F108F0
100
AcDbEntity
8
Rahmen
100
AcDbPolyline
90
   4
70
   1
43
   0.0
 10
54.3770040639432
 20
-99.9299039020047
 10
94.3583876275054
 20
-99.9299039020047
 10
94.3583876275054
 20
-102.869711516972
 10
54.3770040639432
 20
-102.869711516972
  0
TEXT
  5
F108F1
330
F108F2
 100
AcDbEntity
8
Text
100
AcDbText
10
55.5000000000000
20
-102.033948697325
30
0.000000000000000
40
0.750000000000000
1
Created for:
100
AcDbText
  0
TEXT
  5
F108F3
330
F108F4
 100
AcDbEntity
8
Text
100
AcDbText
10
0.000000000000000
20
0.250000000000000
30
0.000000000000000
40
0.750000000000000
1

100
AcDbText
  0
LWPOLYLINE
  5
F108F5
330
F108F6
100
AcDbEntity
8
Rahmen
100
AcDbPolyline
90
   4
70
   1
43
   0.0
 10
121.012643336547
 20
-97.1860834613681
 10
134.339771191068
 20
-97.1860834613681
 10
134.339771191068
 20
-99.9299039020047
 10
121.012643336547
 20
-99.9299039020047
  0
TEXT
  5
F108F7
330
F108F8
 100
AcDbEntity
8
Text
100
AcDbText
10
122.166666666667
20
-99.0339486973247
30
0.000000000000000
40
0.750000000000000
1
Pages
100
AcDbText
  0
TEXT
  5
F108F9
330
F108FA
 100
AcDbEntity
8
Text
100
AcDbText
10
0.000000000000000
20
0.250000000000000
30
0.000000000000000
40
0.750000000000000
1

100
AcDbText
  0
LWPOLYLINE
  5
F108FB
330
F108FC
100
AcDbEntity
8
Rahmen
100
AcDbPolyline
90
   4
70
   1
43
   0.0
 10
121.012643336547
 20
-94.0502886720691
 10
134.339771191068
 20
-94.0502886720691
 10
134.339771191068
 20
-97.1860834613681
 10
121.012643336547
 20
-97.1860834613681
  0
TEXT
  5
F108FD
330
F108FE
 100
AcDbEntity
8
Text
100
AcDbText
10
122.166666666667
20
-96.0339486973247
30
0.000000000000000
40
0.750000000000000
1
Page
100
AcDbText
  0
TEXT
  5
F108FF
330
F10900
 100
AcDbEntity
8
Text
100
AcDbText
10
0.000000000000000
20
0.250000000000000
30
0.000000000000000
40
0.750000000000000
1

100
AcDbText
  0
LWPOLYLINE
  5
F10901
330
F10902
100
AcDbEntity
8
Rahmen
100
AcDbPolyline
90
   4
70
   1
43
   0.0
 10
54.3770040639432
 20
-94.0502886720691
 10
121.012643336547
 20
-94.0502886720691
 10
121.012643336547
 20
-99.9299039020047
 10
54.3770040639432
 20
-99.9299039020047
  0
TEXT
  5
F10903
330
F10904
 100
AcDbEntity
8
Text
100
AcDbText
10
55.5000000000000
20
-96.0339486973247
30
0.000000000000000
40
0.750000000000000
1
Date:
100
AcDbText
  0
TEXT
  5
F10905
330
F10906
 100
AcDbEntity
8
Text
100
AcDbText
10
84.2075706082064
20
-99.0339486973247
30
0.000000000000000
40
0.750000000000000
1
05.07.2016
100
AcDbText
  0
LWPOLYLINE
  5
F10907
330
F10908
100
AcDbEntity
8
Rahmen
100
AcDbPolyline
90
   4
70
   1
43
   0.0
 10
54.3770040639432
 20
-88.1706734421334
 10
134.339771191068
 20
-88.1706734421334
 10
134.339771191068
 20
-94.0502886720691
 10
54.3770040639432
 20
-94.0502886720691
  0
TEXT
  5
F10909
330
F1090A
 100
AcDbEntity
8
Text
100
AcDbText
10
0.000000000000000
20
0.500000000000000
30
0.000000000000000
40
1.50000000000000
1

100
AcDbText
  0
TEXT
  5
F1090B
330
F1090C
 100
AcDbEntity
8
Text
100
AcDbText
10
71.4715070160855
20
-92.7144999329721
30
0.000000000000000
40
2.50000000000000
1
VHTS 4 060 057 06 03
100
AcDbText
  0
LWPOLYLINE
  5
F1090D
330
F1090E
100
AcDbEntity
8
Rahmen
100
AcDbPolyline
90
   4
70
   1
43
   0.0
 10
94.3583876275054
 20
-82.0950710378666
 10
134.339771191068
 20
-82.0950710378666
 10
134.339771191068
 20
-88.1706734421334
 10
94.3583876275054
 20
-88.1706734421334
  0
TEXT
  5
F1090F
330
F10910
 100
AcDbEntity
8
Text
100
AcDbText
10
95.5000000000000
20
-84.0339486973247
30
0.000000000000000
40
0.750000000000000
1
Work piece material:
100
AcDbText
  0
TEXT
  5
F10911
330
F10912
 100
AcDbEntity
8
Text
100
AcDbText
10
0.000000000000000
20
0.250000000000000
30
0.000000000000000
40
0.750000000000000
1

100
AcDbText
  0
LWPOLYLINE
  5
F10913
330
F10914
100
AcDbEntity
8
Rahmen
100
AcDbPolyline
90
   4
70
   1
43
   0.0
 10
54.3770040639432
 20
-82.0950710378666
 10
94.3583876275054
 20
-82.0950710378666
 10
94.3583876275054
 20
-88.1706734421334
 10
54.3770040639432
 20
-88.1706734421334
  0
TEXT
  5
F10915
330
F10916
 100
AcDbEntity
8
Text
100
AcDbText
10
55.5000000000000
20
-84.0339486973247
30
0.000000000000000
40
0.750000000000000
1
Tool material:
100
AcDbText
  0
TEXT
  5
F10917
330
F10918
 100
AcDbEntity
8
Text
100
AcDbText
10
0.000000000000000
20
0.250000000000000
30
0.000000000000000
40
0.750000000000000
1

100
AcDbText
  0
LWPOLYLINE
  5
F10919
330
F1091A
100
AcDbEntity
8
Rahmen
100
AcDbPolyline
90
   4
70
   1
43
   0.0
 10
94.3583876275054
 20
-79.1552634228988
 10
134.339771191068
 20
-79.1552634228988
 10
134.339771191068
 20
-82.0950710378666
 10
94.3583876275054
 20
-82.0950710378666
  0
TEXT
  5
F1091B
330
F1091C
 100
AcDbEntity
8
Text
100
AcDbText
10
0.000000000000000
20
0.500000000000000
30
0.000000000000000
40
1.50000000000000
1

100
AcDbText
  0
TEXT
  5
F1091D
330
F1091E
 100
AcDbEntity
8
Text
100
AcDbText
10
0.000000000000000
20
0.250000000000000
30
0.000000000000000
40
0.750000000000000
1

100
AcDbText
  0
LWPOLYLINE
  5
F1091F
330
F10920
100
AcDbEntity
8
Rahmen
100
AcDbPolyline
90
   4
70
   1
43
   0.0
 10
54.3770040639432
 20
-79.1552634228988
 10
94.3583876275054
 20
-79.1552634228988
 10
94.3583876275054
 20
-82.0950710378666
 10
54.3770040639432
 20
-82.0950710378666
  0
TEXT
  5
F10921
330
F10922
 100
AcDbEntity
8
Text
100
AcDbText
10
55.5000000000000
20
-81.0339486973247
30
0.000000000000000
40
0.750000000000000
1
Scale:
100
AcDbText
  0
TEXT
  5
F10923
330
F10924
 100
AcDbEntity
8
Text
100
AcDbText
10
81.0300961925161
20
-81.0339486973247
30
0.000000000000000
40
0.750000000000000
1
4 : 1
100
AcDbText
0
VIEWPORT
5
294
102
{ACAD_XDICTIONARY
360
58A
102
}
330
25D
100
AcDbEntity
67
1
8
0
60
1
100
AcDbViewport
10
0.0
20
0.0
30
0.0
40
10.0
41
10.0
68
-1
69
1
12
0.0
22
0.0
13
0.0
23
0.0
14
1.0
24
1.0
15
0.0
25
0.0
16
0.0
26
0.0
36
1.0
17
0.0
27
0.0
37
0.0
42
0.0
43
0.0
44
0.0
45
10.0
50
0.0
51
0.0000000000007958
72
100
90
32800
1

281
0
71
0
74
0
110
0.0
120
0.0
130
0.0
111
1.0
121
0.0
131
0.0
112
0.0
122
1.0
132
0.0
79
0
146
0.0
1001
VD_INVISIBLE_NOT_FOR_READ
1000
VD_INVISIBLE_NOT_FOR_READ
0
VIEWPORT
5
295
102
{ACAD_XDICTIONARY
360
58C
102
}
330
25D
100
AcDbEntity
67
1
8
0
60
1
100
AcDbViewport
10
0.0
20
0.0
30
0.0
40
10.0
41
10.0
68
0
69
2
12
0.0
22
0.0
13
0.0
23
0.0
14
1.0
24
1.0
15
0.0
25
0.0
16
0.0
26
0.0
36
1.0
17
0.0
27
0.0
37
0.0
42
0.0
43
0.0
44
0.0
45
10.0
50
0.0
51
0.0000000000007958
72
100
90
163872
1

281
0
71
0
74
0
110
0.0
120
0.0
130
0.0
111
1.0
121
0.0
131
0.0
112
0.0
122
1.0
132
0.0
79
0
146
0.0
1001
VD_INVISIBLE_NOT_FOR_READ
1000
VD_INVISIBLE_NOT_FOR_READ
0
ENDSEC
0
SECTION
2
OBJECTS
0
DICTIONARY
5
13
330
0
100
AcDbDictionary
281
1
3
ACAD_COLOR
350
FA7
3
ACAD_GROUP
350
14
3
ACAD_LAYOUT
350
FCF
3
ACAD_MATERIAL
350
F7A
3
ACAD_MLEADERSTYLE
350
FCD
3
ACAD_MLINESTYLE
350
16
3
ACAD_PLOTSETTINGS
350
17
3
ACAD_PLOTSTYLENAME
350
18
3
ACAD_SCALELIST
350
FAB
3
ACAD_TABLESTYLE
350
FA8
3
ACAD_VISUALSTYLE
350
F93
3
ACDB_RECOMPOSE_DATA
350
107E
3
AcDbVariableDictionary
350
FF0
3
DWGPROPS
350
107F
0
DICTIONARY
5
F1000A
330
F10009
100
AcDbDictionary
280
1
281
1
3
ACAD_MTEXT_2008_RT
360
F1000B
0
DICTIONARY
5
F10019
330
F10018
100
AcDbDictionary
280
1
281
1
3
ACAD_MTEXT_2008_RT
360
F1001A
0
DICTIONARY
5
F1001E
330
F1001D
100
AcDbDictionary
280
1
281
1
3
ACAD_MTEXT_2008_RT
360
F1001F
0
DICTIONARY
5
F10028
330
F10027
100
AcDbDictionary
280
1
281
1
3
ACAD_MTEXT_2008_RT
360
F10029
0
DICTIONARY
5
F1002D
330
F1002C
100
AcDbDictionary
280
1
281
1
3
ACAD_MTEXT_2008_RT
360
F1002E
0
DICTIONARY
5
F10005
330
F10004
100
AcDbDictionary
280
1
281
1
3
ACAD_MTEXT_2008_RT
360
F10006
0
DICTIONARY
5
F1000F
330
F1000E
100
AcDbDictionary
280
1
281
1
3
ACAD_MTEXT_2008_RT
360
F10010
0
DICTIONARY
5
F10014
330
F10013
100
AcDbDictionary
280
1
281
1
3
ACAD_MTEXT_2008_RT
360
F10015
0
DICTIONARY
5
F10023
330
F10022
100
AcDbDictionary
280
1
281
1
3
ACAD_MTEXT_2008_RT
360
F10024
0
DICTIONARY
5
FA7
102
{ACAD_REACTORS
330
13
102
}
330
13
100
AcDbDictionary
281
1
0
DICTIONARY
5
14
330
13
100
AcDbDictionary
281
1
0
DICTIONARY
5
FCF
102
{ACAD_REACTORS
330
13
102
}
330
13
100
AcDbDictionary
281
1
3
Layout1
350
FD1
3
Model
350
FD0
0
DICTIONARY
5
F7A
102
{ACAD_REACTORS
330
13
102
}
330
13
100
AcDbDictionary
281
1
3
ByBlock
350
F83
3
ByLayer
350
F7B
3
Global
350
F8B
0
DICTIONARY
5
FCD
102
{ACAD_REACTORS
330
13
102
}
330
13
100
AcDbDictionary
281
1
3
Standard
350
FCE
0
DICTIONARY
5
16
330
13
100
AcDbDictionary
281
1
3
Standard
350
FAA
0
DICTIONARY
5
17
102
{ACAD_REACTORS
330
13
102
}
330
13
100
AcDbDictionary
281
1
0
ACDBDICTIONARYWDFLT
5
18
102
{ACAD_REACTORS
330
13
102
}
330
13
100
AcDbDictionary
281
1
3
Normal
350
19
100
AcDbDictionaryWithDefault
340
19
0
DICTIONARY
5
FAB
102
{ACAD_REACTORS
330
13
102
}
330
13
100
AcDbDictionary
281
1
3
A0
350
FAC
3
A1
350
FAD
3
A2
350
FAE
3
A3
350
FAF
3
A4
350
FB0
3
A5
350
FB1
3
A6
350
FB2
3
A7
350
FB3
3
A8
350
FB4
3
A9
350
FB5
3
B0
350
FB6
3
B1
350
FB7
3
B2
350
FB8
3
B3
350
FB9
3
B4
350
FBA
3
B5
350
FBB
3
B6
350
FBC
3
B7
350
FBD
3
B8
350
FBE
3
B9
350
FBF
3
C0
350
FC0
3
C1
350
FC1
3
C2
350
FC2
3
C3
350
FC3
3
C4
350
FC4
3
C5
350
FC5
3
C6
350
FC6
3
C7
350
FC7
3
C8
350
FC8
3
C9
350
FC9
3
D0
350
FCA
3
D1
350
FCB
3
D2
350
FCC
0
DICTIONARY
5
FA8
102
{ACAD_REACTORS
330
13
102
}
330
13
100
AcDbDictionary
281
1
3
Standard
350
FA9
0
DICTIONARY
5
F93
102
{ACAD_REACTORS
330
13
102
}
330
13
100
AcDbDictionary
281
1
3
2dWireframe
350
F99
3
3D Hidden
350
F9B
3
3dWireframe
350
F9A
3
Basic
350
F98
3
Brighten
350
F9F
3
ColorChange
350
FA3
3
Conceptual
350
F9C
3
Dim
350
F9E
3
EdgeColorOff
350
FA6
3
Facepattern
350
FA2
3
Flat
350
F94
3
FlatWithEdges
350
F95
3
Gouraud
350
F96
3
GouraudWithEdges
350
F97
3
JitterOff
350
FA4
3
Linepattern
350
FA1
3
OverhangOff
350
FA5
3
Realistic
350
F9D
3
Thicken
350
FA0
0
XRECORD
5
107E
102
{ACAD_REACTORS
330
13
102
}
330
13
100
AcDbXrecord
280
1
90
1
330
FA9
330
F10009
330
F10018
330
F1001D
330
F10027
330
F1002C
330
F10004
330
F1000E
330
F10013
330
F10022
0
XRECORD
5
F1000B
102
{ACAD_REACTORS
330
F1000A
102
}
330
F1000A
100
AcDbXrecord
280
1
40
48458.0
1
0.1 x 45°
0
XRECORD
5
F1001A
102
{ACAD_REACTORS
330
F10019
102
}
330
F10019
100
AcDbXrecord
280
1
40
48458.0
1
25
0
XRECORD
5
F1001F
102
{ACAD_REACTORS
330
F1001E
102
}
330
F1001E
100
AcDbXrecord
280
1
40
48458.0
1
32
0
XRECORD
5
F10029
102
{ACAD_REACTORS
330
F10028
102
}
330
F10028
100
AcDbXrecord
280
1
40
48458.0
1
19
0
XRECORD
5
F1002E
102
{ACAD_REACTORS
330
F1002D
102
}
330
F1002D
100
AcDbXrecord
280
1
40
48458.0
1
57
0
XRECORD
5
F10006
102
{ACAD_REACTORS
330
F10005
102
}
330
F10005
100
AcDbXrecord
280
1
40
48458.0
1
2°
0
XRECORD
5
F10010
102
{ACAD_REACTORS
330
F1000F
102
}
330
F1000F
100
AcDbXrecord
280
1
40
48458.0
1
6
0
XRECORD
5
F10015
102
{ACAD_REACTORS
330
F10014
102
}
330
F10014
100
AcDbXrecord
280
1
40
48458.0
1
5.8
0
LAYOUT
5
FD1
102
{ACAD_XDICTIONARY
360
10A9
102
}
102
{ACAD_REACTORS
330
FCF
102
}
330
FCF
100
AcDbPlotSettings
1

2
Microsoft XPS Document Writer
4

6

40
0.0
41
0.0
42
0.0
43
0.0
44
0.0
45
0.0
46
0.0
47
0.0
48
0.0
49
0.0
140
0.0
141
0.0
142
1.0
143
1.0
70
688
72
0
73
0
74
5
7

75
16
147
1.0
148
0.0
149
0.0
100
AcDbLayout
1
Layout1
70
1
71
1
10
0.0
20
0.0
11
12.0
21
9.0
12
0.0
22
0.0
32
0.0
14
1.000000000000000E+20
24
1.000000000000000E+20
34
1.000000000000000E+20
15
-1.000000000000000E+20
25
-1.000000000000000E+20
35
-1.000000000000000E+20
146
0.0
13
0.0
23
0.0
33
0.0
16
1.0
26
0.0
36
0.0
17
0.0
27
1.0
37
0.0
76
0
330
25D
0
LAYOUT
5
FD0
102
{ACAD_XDICTIONARY
360
10A7
102
}
102
{ACAD_REACTORS
330
FCF
102
}
330
FCF
100
AcDbPlotSettings
1

2
Microsoft XPS Document Writer
4

6

40
0.0
41
0.0
42
0.0
43
0.0
44
0.0
45
0.0
46
0.0
47
0.0
48
0.0
49
0.0
140
0.0
141
0.0
142
1.0
143
1.0
70
1712
72
0
73
0
74
0
7

75
0
147
1.0
148
0.0
149
0.0
100
AcDbLayout
1
Model
70
1
71
0
10
0.0
20
0.0
11
12.0
21
9.0
12
0.0
22
0.0
32
0.0
14
0.0
24
0.0
34
0.0
15
0.0
25
0.0
35
0.0
146
0.0
13
0.0
23
0.0
33
0.0
16
1.0
26
0.0
36
0.0
17
0.0
27
1.0
37
0.0
76
0
330
261
331
26B
0
MATERIAL
5
F83
102
{ACAD_XDICTIONARY
360
F84
102
}
102
{ACAD_REACTORS
330
F7A
102
}
330
F7A
100
AcDbMaterial
1
ByBlock
72
0
43
0.0208333333333333
43
0.0
43
0.0
43
0.0
43
0.0
43
0.0208333333333333
43
0.0
43
0.0
43
0.0
43
0.0
43
1.0
43
0.0
43
0.0
43
0.0
43
0.0
43
1.0
77
0
47
0.0208333333333333
47
0.0
47
0.0
47
0.0
47
0.0
47
0.0208333333333333
47
0.0
47
0.0
47
0.0
47
0.0
47
1.0
47
0.0
47
0.0
47
0.0
47
0.0
47
1.0
171
0
49
0.0208333333333333
49
0.0
49
0.0
49
0.0
49
0.0
49
0.0208333333333333
49
0.0
49
0.0
49
0.0
49
0.0
49
1.0
49
0.0
49
0.0
49
0.0
49
0.0
49
1.0
175
0
142
0.0208333333333333
142
0.0
142
0.0
142
0.0
142
0.0
142
0.0208333333333333
142
0.0
142
0.0
142
0.0
142
0.0
142
1.0
142
0.0
142
0.0
142
0.0
142
0.0
142
1.0
179
0
144
0.0208333333333333
144
0.0
144
0.0
144
0.0
144
0.0
144
0.0208333333333333
144
0.0
144
0.0
144
0.0
144
0.0
144
1.0
144
0.0
144
0.0
144
0.0
144
0.0
144
1.0
147
0.0208333333333333
147
0.0
147
0.0
147
0.0
147
0.0
147
0.0208333333333333
147
0.0
147
0.0
147
0.0
147
0.0
147
1.0
147
0.0
147
0.0
147
0.0
147
0.0
147
1.0
0
MATERIAL
5
F7B
102
{ACAD_XDICTIONARY
360
F7C
102
}
102
{ACAD_REACTORS
330
F7A
102
}
330
F7A
100
AcDbMaterial
1
ByLayer
72
0
43
0.0208333333333333
43
0.0
43
0.0
43
0.0
43
0.0
43
0.0208333333333333
43
0.0
43
0.0
43
0.0
43
0.0
43
1.0
43
0.0
43
0.0
43
0.0
43
0.0
43
1.0
77
0
47
0.0208333333333333
47
0.0
47
0.0
47
0.0
47
0.0
47
0.0208333333333333
47
0.0
47
0.0
47
0.0
47
0.0
47
1.0
47
0.0
47
0.0
47
0.0
47
0.0
47
1.0
171
0
49
0.0208333333333333
49
0.0
49
0.0
49
0.0
49
0.0
49
0.0208333333333333
49
0.0
49
0.0
49
0.0
49
0.0
49
1.0
49
0.0
49
0.0
49
0.0
49
0.0
49
1.0
175
0
142
0.0208333333333333
142
0.0
142
0.0
142
0.0
142
0.0
142
0.0208333333333333
142
0.0
142
0.0
142
0.0
142
0.0
142
1.0
142
0.0
142
0.0
142
0.0
142
0.0
142
1.0
179
0
144
0.0208333333333333
144
0.0
144
0.0
144
0.0
144
0.0
144
0.0208333333333333
144
0.0
144
0.0
144
0.0
144
0.0
144
1.0
144
0.0
144
0.0
144
0.0
144
0.0
144
1.0
147
0.0208333333333333
147
0.0
147
0.0
147
0.0
147
0.0
147
0.0208333333333333
147
0.0
147
0.0
147
0.0
147
0.0
147
1.0
147
0.0
147
0.0
147
0.0
147
0.0
147
1.0
0
MATERIAL
5
F8B
102
{ACAD_XDICTIONARY
360
F8C
102
}
102
{ACAD_REACTORS
330
F7A
102
}
330
F7A
100
AcDbMaterial
1
Global
72
0
43
0.0208333333333333
43
0.0
43
0.0
43
0.0
43
0.0
43
0.0208333333333333
43
0.0
43
0.0
43
0.0
43
0.0
43
1.0
43
0.0
43
0.0
43
0.0
43
0.0
43
1.0
77
0
47
0.0208333333333333
47
0.0
47
0.0
47
0.0
47
0.0
47
0.0208333333333333
47
0.0
47
0.0
47
0.0
47
0.0
47
1.0
47
0.0
47
0.0
47
0.0
47
0.0
47
1.0
171
0
49
0.0208333333333333
49
0.0
49
0.0
49
0.0
49
0.0
49
0.0208333333333333
49
0.0
49
0.0
49
0.0
49
0.0
49
1.0
49
0.0
49
0.0
49
0.0
49
0.0
49
1.0
175
0
142
0.0208333333333333
142
0.0
142
0.0
142
0.0
142
0.0
142
0.0208333333333333
142
0.0
142
0.0
142
0.0
142
0.0
142
1.0
142
0.0
142
0.0
142
0.0
142
0.0
142
1.0
179
0
144
0.0208333333333333
144
0.0
144
0.0
144
0.0
144
0.0
144
0.0208333333333333
144
0.0
144
0.0
144
0.0
144
0.0
144
1.0
144
0.0
144
0.0
144
0.0
144
0.0
144
1.0
147
0.0208333333333333
147
0.0
147
0.0
147
0.0
147
0.0
147
0.0208333333333333
147
0.0
147
0.0
147
0.0
147
0.0
147
1.0
147
0.0
147
0.0
147
0.0
147
0.0
147
1.0
0
MLEADERSTYLE
5
FCE
102
{ACAD_REACTORS
330
FCD
102
}
330
FCD
100
AcDbMLeaderStyle
170
2
171
1
172
0
90
2
40
0.0
41
0.0
173
1
91
-1056964608
340
256
92
-2
290
1
42
0.09
291
1
43
0.36
3
Standard
44
0.18
300

342
253
174
1
178
6
175
1
176
0
93
-1056964608
45
0.18
292
0
297
0
46
0.18
94
-1056964608
47
1.0
49
1.0
140
1.0
293
1
141
0.0
294
1
177
0
142
1.0
295
0
296
0
143
0.125
1001
ACAD_MLEADERVER
1070
2
0
MLINESTYLE
5
FAA
102
{ACAD_REACTORS
330
16
102
}
330
16
100
AcDbMlineStyle
2
STANDARD
70
0
3

62
256
51
90.0
52
90.0
71
2
49
0.5
62
256
6
BYLAYER
49
-0.5
62
256
6
BYLAYER
0
ACDBPLACEHOLDER
5
19
102
{ACAD_REACTORS
330
18
102
}
330
18
0
SCALE
5
FAC
102
{ACAD_REACTORS
330
FAB
102
}
330
FAB
100
AcDbScale
70
0
300
1:1
140
1.0
141
1.0
290
1
0
SCALE
5
FAD
102
{ACAD_REACTORS
330
FAB
102
}
330
FAB
100
AcDbScale
70
0
300
1:2
140
1.0
141
2.0
290
0
0
SCALE
5
FAE
102
{ACAD_REACTORS
330
FAB
102
}
330
FAB
100
AcDbScale
70
0
300
1:4
140
1.0
141
4.0
290
0
0
SCALE
5
FAF
102
{ACAD_REACTORS
330
FAB
102
}
330
FAB
100
AcDbScale
70
0
300
1:5
140
1.0
141
5.0
290
0
0
SCALE
5
FB0
102
{ACAD_REACTORS
330
FAB
102
}
330
FAB
100
AcDbScale
70
0
300
1:8
140
1.0
141
8.0
290
0
0
SCALE
5
FB1
102
{ACAD_REACTORS
330
FAB
102
}
330
FAB
100
AcDbScale
70
0
300
1:10
140
1.0
141
10.0
290
0
0
SCALE
5
FB2
102
{ACAD_REACTORS
330
FAB
102
}
330
FAB
100
AcDbScale
70
0
300
1:16
140
1.0
141
16.0
290
0
0
SCALE
5
FB3
102
{ACAD_REACTORS
330
FAB
102
}
330
FAB
100
AcDbScale
70
0
300
1:20
140
1.0
141
20.0
290
0
0
SCALE
5
FB4
102
{ACAD_REACTORS
330
FAB
102
}
330
FAB
100
AcDbScale
70
0
300
1:30
140
1.0
141
30.0
290
0
0
SCALE
5
FB5
102
{ACAD_REACTORS
330
FAB
102
}
330
FAB
100
AcDbScale
70
0
300
1:40
140
1.0
141
40.0
290
0
0
SCALE
5
FB6
102
{ACAD_REACTORS
330
FAB
102
}
330
FAB
100
AcDbScale
70
0
300
1:50
140
1.0
141
50.0
290
0
0
SCALE
5
FB7
102
{ACAD_REACTORS
330
FAB
102
}
330
FAB
100
AcDbScale
70
0
300
1:100
140
1.0
141
100.0
290
0
0
SCALE
5
FB8
102
{ACAD_REACTORS
330
FAB
102
}
330
FAB
100
AcDbScale
70
0
300
2:1
140
2.0
141
1.0
290
0
0
SCALE
5
FB9
102
{ACAD_REACTORS
330
FAB
102
}
330
FAB
100
AcDbScale
70
0
300
4:1
140
4.0
141
1.0
290
0
0
SCALE
5
FBA
102
{ACAD_REACTORS
330
FAB
102
}
330
FAB
100
AcDbScale
70
0
300
8:1
140
8.0
141
1.0
290
0
0
SCALE
5
FBB
102
{ACAD_REACTORS
330
FAB
102
}
330
FAB
100
AcDbScale
70
0
300
10:1
140
10.0
141
1.0
290
0
0
SCALE
5
FBC
102
{ACAD_REACTORS
330
FAB
102
}
330
FAB
100
AcDbScale
70
0
300
100:1
140
100.0
141
1.0
290
0
0
SCALE
5
FBD
102
{ACAD_REACTORS
330
FAB
102
}
330
FAB
100
AcDbScale
70
0
300
1/128" = 1'-0"
140
0.0078125
141
12.0
290
0
0
SCALE
5
FBE
102
{ACAD_REACTORS
330
FAB
102
}
330
FAB
100
AcDbScale
70
0
300
1/64" = 1'-0"
140
0.015625
141
12.0
290
0
0
SCALE
5
FBF
102
{ACAD_REACTORS
330
FAB
102
}
330
FAB
100
AcDbScale
70
0
300
1/32" = 1'-0"
140
0.03125
141
12.0
290
0
0
SCALE
5
FC0
102
{ACAD_REACTORS
330
FAB
102
}
330
FAB
100
AcDbScale
70
0
300
1/16" = 1'-0"
140
0.0625
141
12.0
290
0
0
SCALE
5
FC1
102
{ACAD_REACTORS
330
FAB
102
}
330
FAB
100
AcDbScale
70
0
300
3/32" = 1'-0"
140
0.09375
141
12.0
290
0
0
SCALE
5
FC2
102
{ACAD_REACTORS
330
FAB
102
}
330
FAB
100
AcDbScale
70
0
300
1/8" = 1'-0"
140
0.125
141
12.0
290
0
0
SCALE
5
FC3
102
{ACAD_REACTORS
330
FAB
102
}
330
FAB
100
AcDbScale
70
0
300
3/16" = 1'-0"
140
0.1875
141
12.0
290
0
0
SCALE
5
FC4
102
{ACAD_REACTORS
330
FAB
102
}
330
FAB
100
AcDbScale
70
0
300
1/4" = 1'-0"
140
0.25
141
12.0
290
0
0
SCALE
5
FC5
102
{ACAD_REACTORS
330
FAB
102
}
330
FAB
100
AcDbScale
70
0
300
3/8" = 1'-0"
140
0.375
141
12.0
290
0
0
SCALE
5
FC6
102
{ACAD_REACTORS
330
FAB
102
}
330
FAB
100
AcDbScale
70
0
300
1/2" = 1'-0"
140
0.5
141
12.0
290
0
0
SCALE
5
FC7
102
{ACAD_REACTORS
330
FAB
102
}
330
FAB
100
AcDbScale
70
0
300
3/4" = 1'-0"
140
0.75
141
12.0
290
0
0
SCALE
5
FC8
102
{ACAD_REACTORS
330
FAB
102
}
330
FAB
100
AcDbScale
70
0
300
1" = 1'-0"
140
1.0
141
12.0
290
0
0
SCALE
5
FC9
102
{ACAD_REACTORS
330
FAB
102
}
330
FAB
100
AcDbScale
70
0
300
1-1/2" = 1'-0"
140
1.5
141
12.0
290
0
0
SCALE
5
FCA
102
{ACAD_REACTORS
330
FAB
102
}
330
FAB
100
AcDbScale
70
0
300
3" = 1'-0"
140
3.0
141
12.0
290
0
0
SCALE
5
FCB
102
{ACAD_REACTORS
330
FAB
102
}
330
FAB
100
AcDbScale
70
0
300
6" = 1'-0"
140
6.0
141
12.0
290
0
0
SCALE
5
FCC
102
{ACAD_REACTORS
330
FAB
102
}
330
FAB
100
AcDbScale
70
0
300
1'-0" = 1'-0"
140
12.0
141
12.0
290
0
0
TABLESTYLE
5
FA9
102
{ACAD_XDICTIONARY
360
FF8
102
}
102
{ACAD_REACTORS
330
FA8
102
}
330
FA8
100
AcDbTableStyle
3
Standard
70
0
71
0
40
0.06
41
0.06
280
0
281
0
7
Standard
140
0.18
170
2
62
0
63
7
283
0
274
-2
284
1
64
0
275
-2
285
1
65
0
276
-2
286
1
66
0
277
-2
287
1
67
0
278
-2
288
1
68
0
279
-2
289
1
69
0
7
Standard
140
0.25
170
5
62
0
63
7
283
0
274
-2
284
1
64
0
275
-2
285
1
65
0
276
-2
286
1
66
0
277
-2
287
1
67
0
278
-2
288
1
68
0
279
-2
289
1
69
0
7
Standard
140
0.18
170
5
62
0
63
7
283
0
274
-2
284
1
64
0
275
-2
285
1
65
0
276
-2
286
1
66
0
277
-2
287
1
67
0
278
-2
288
1
68
0
279
-2
289
1
69
0
0
VISUALSTYLE
5
F99
102
{ACAD_XDICTIONARY
360
108A
102
}
102
{ACAD_REACTORS
330
F93
102
}
330
F93
100
AcDbVisualStyle
2

70
4
71
0
72
2
73
0
90
0
40
-0.6
41
-30.0
62
5
63
7
74
1
91
4
64
7
65
257
75
1
175
1
42
1.0
92
0
66
257
43
1.0
76
1
77
6
78
2
67
7
79
5
170
0
171
0
290
0
174
0
93
1
44
0.0
173
0
291
0
45
0.0
1001
ACAD
1000
AcDbSavedByObjectVersion
1070
0
0
VISUALSTYLE
5
F9B
102
{ACAD_XDICTIONARY
360
108E
102
}
102
{ACAD_REACTORS
330
F93
102
}
330
F93
100
AcDbVisualStyle
2

70
6
71
1
72
2
73
2
90
0
40
-0.6
41
-30.0
62
5
63
7
74
2
91
2
64
7
65
257
75
2
175
1
42
179.0
92
0
66
257
43
1.0
76
1
77
6
78
2
67
7
79
3
170
0
171
0
290
0
174
0
93
1
44
0.0
173
0
291
0
45
0.0
1001
ACAD
1000
AcDbSavedByObjectVersion
1070
0
0
VISUALSTYLE
5
F9A
102
{ACAD_XDICTIONARY
360
108C
102
}
102
{ACAD_REACTORS
330
F93
102
}
330
F93
100
AcDbVisualStyle
2

70
5
71
0
72
2
73
0
90
0
40
-0.6
41
-30.0
62
5
63
7
74
1
91
4
64
7
65
257
75
1
175
1
42
1.0
92
0
66
257
43
1.0
76
1
77
6
78
2
67
7
79
5
170
0
171
0
290
0
174
0
93
1
44
0.0
173
0
291
0
45
0.0
1001
ACAD
1000
AcDbSavedByObjectVersion
1070
0
0
VISUALSTYLE
5
F98
102
{ACAD_XDICTIONARY
360
1088
102
}
102
{ACAD_REACTORS
330
F93
102
}
330
F93
100
AcDbVisualStyle
2

70
7
71
1
72
0
73
1
90
0
40
-0.6
41
-30.0
62
5
63
7
74
0
91
4
64
7
65
257
75
1
175
1
42
1.0
92
8
66
7
43
1.0
76
1
77
6
78
2
67
7
79
5
170
0
171
0
290
0
174
0
93
1
44
0.0
173
0
291
1
45
0.0
1001
ACAD
1000
AcDbSavedByObjectVersion
1070
0
0
VISUALSTYLE
5
F9F
102
{ACAD_XDICTIONARY
360
1096
102
}
102
{ACAD_REACTORS
330
F93
102
}
330
F93
100
AcDbVisualStyle
2

70
12
71
2
72
2
73
0
90
0
40
-0.6
41
-30.0
62
5
63
7
74
1
91
4
64
7
65
257
75
1
175
1
42
1.0
92
8
66
7
43
1.0
76
1
77
6
78
2
67
7
79
5
170
0
171
0
290
0
174
0
93
1
44
50.0
173
0
291
1
45
0.0
1001
ACAD
1000
AcDbSavedByObjectVersion
1070
0
0
VISUALSTYLE
5
FA3
102
{ACAD_XDICTIONARY
360
109E
102
}
102
{ACAD_REACTORS
330
F93
102
}
330
F93
100
AcDbVisualStyle
2

70
16
71
2
72
2
73
3
90
0
40
-0.6
41
-30.0
62
5
63
8
74
1
91
4
64
7
65
257
75
1
175
1
42
1.0
92
8
66
8
43
1.0
76
1
77
6
78
2
67
7
79
5
170
0
171
0
290
0
174
0
93
1
44
0.0
173
0
291
1
45
0.0
1001
ACAD
1000
AcDbSavedByObjectVersion
1070
0
0
VISUALSTYLE
5
F9C
102
{ACAD_XDICTIONARY
360
1090
102
}
102
{ACAD_REACTORS
330
F93
102
}
330
F93
100
AcDbVisualStyle
2

70
9
71
3
72
2
73
0
90
0
40
-0.6
41
-30.0
62
5
63
7
74
2
91
2
64
7
65
257
75
1
175
1
42
179.0
92
8
66
7
43
1.0
76
1
77
6
78
2
67
7
79
3
170
0
171
0
290
0
174
0
93
1
44
0.0
173
0
291
0
45
0.0
1001
ACAD
1000
AcDbSavedByObjectVersion
1070
0
0
VISUALSTYLE
5
F9E
102
{ACAD_XDICTIONARY
360
1094
102
}
102
{ACAD_REACTORS
330
F93
102
}
330
F93
100
AcDbVisualStyle
2

70
11
71
2
72
2
73
0
90
0
40
-0.6
41
-30.0
62
5
63
7
74
1
91
4
64
7
65
257
75
1
175
1
42
1.0
92
8
66
7
43
1.0
76
1
77
6
78
2
67
7
79
5
170
0
171
0
290
0
174
0
93
1
44
-50.0
173
0
291
1
45
0.0
1001
ACAD
1000
AcDbSavedByObjectVersion
1070
0
0
VISUALSTYLE
5
FA6
102
{ACAD_XDICTIONARY
360
10A4
102
}
102
{ACAD_REACTORS
330
F93
102
}
330
F93
100
AcDbVisualStyle
2

70
22
71
2
72
2
73
0
90
0
40
-0.6
41
-30.0
62
5
63
7
74
1
91
4
64
7
65
257
75
1
175
1
42
1.0
92
8
66
7
43
1.0
76
1
77
6
78
2
67
7
79
5
170
0
171
0
290
0
174
0
93
1
44
0.0
173
0
291
1
45
0.0
1001
ACAD
1000
AcDbSavedByObjectVersion
1070
0
0
VISUALSTYLE
5
FA2
102
{ACAD_XDICTIONARY
360
109C
102
}
102
{ACAD_REACTORS
330
F93
102
}
330
F93
100
AcDbVisualStyle
2

70
15
71
2
72
2
73
0
90
0
40
-0.6
41
-30.0
62
5
63
7
74
1
91
4
64
7
65
257
75
1
175
1
42
1.0
92
8
66
7
43
1.0
76
1
77
6
78
2
67
7
79
5
170
0
171
0
290
0
174
0
93
1
44
0.0
173
0
291
1
45
0.0
1001
ACAD
1000
AcDbSavedByObjectVersion
1070
0
0
VISUALSTYLE
5
F94
102
{ACAD_XDICTIONARY
360
1080
102
}
102
{ACAD_REACTORS
330
F93
102
}
330
F93
100
AcDbVisualStyle
2

70
0
71
2
72
1
73
1
90
2
40
-0.6
41
30.0
62
5
63
7
74
0
91
4
64
7
65
257
75
1
175
1
42
1.0
92
8
66
7
43
1.0
76
1
77
6
78
2
67
7
79
5
170
0
171
0
290
0
174
0
93
13
44
0.0
173
0
291
1
45
0.0
1001
ACAD
1000
AcDbSavedByObjectVersion
1070
0
0
VISUALSTYLE
5
F95
102
{ACAD_XDICTIONARY
360
1082
102
}
102
{ACAD_REACTORS
330
F93
102
}
330
F93
100
AcDbVisualStyle
2

70
1
71
2
72
1
73
1
90
2
40
-0.6
41
30.0
62
5
63
7
74
1
91
4
64
7
65
257
75
1
175
1
42
1.0
92
0
66
257
43
1.0
76
1
77
6
78
2
67
7
79
5
170
0
171
0
290
0
174
0
93
13
44
0.0
173
0
291
1
45
0.0
1001
ACAD
1000
AcDbSavedByObjectVersion
1070
0
0
VISUALSTYLE
5
F96
102
{ACAD_XDICTIONARY
360
1084
102
}
102
{ACAD_REACTORS
330
F93
102
}
330
F93
100
AcDbVisualStyle
2

70
2
71
2
72
2
73
1
90
2
40
-0.6
41
30.0
62
5
63
7
74
0
91
4
64
7
65
257
75
1
175
1
42
1.0
92
0
66
7
43
1.0
76
1
77
6
78
2
67
7
79
5
170
0
171
0
290
0
174
0
93
13
44
0.0
173
0
291
1
45
0.0
1001
ACAD
1000
AcDbSavedByObjectVersion
1070
0
0
VISUALSTYLE
5
F97
102
{ACAD_XDICTIONARY
360
1086
102
}
102
{ACAD_REACTORS
330
F93
102
}
330
F93
100
AcDbVisualStyle
2

70
3
71
2
72
2
73
1
90
2
40
-0.6
41
30.0
62
5
63
7
74
1
91
4
64
7
65
257
75
1
175
1
42
1.0
92
0
66
257
43
1.0
76
1
77
6
78
2
67
7
79
5
170
0
171
0
290
0
174
0
93
13
44
0.0
173
0
291
1
45
0.0
1001
ACAD
1000
AcDbSavedByObjectVersion
1070
0
0
VISUALSTYLE
5
FA4
102
{ACAD_XDICTIONARY
360
10A0
102
}
102
{ACAD_REACTORS
330
F93
102
}
330
F93
100
AcDbVisualStyle
2

70
20
71
2
72
2
73
0
90
0
40
-0.6
41
-30.0
62
5
63
7
74
1
91
4
64
7
65
257
75
1
175
1
42
1.0
92
10
66
7
43
1.0
76
1
77
6
78
2
67
7
79
5
170
0
171
0
290
0
174
0
93
1
44
0.0
173
0
291
1
45
0.0
1001
ACAD
1000
AcDbSavedByObjectVersion
1070
0
0
VISUALSTYLE
5
FA1
102
{ACAD_XDICTIONARY
360
109A
102
}
102
{ACAD_REACTORS
330
F93
102
}
330
F93
100
AcDbVisualStyle
2

70
14
71
2
72
2
73
0
90
0
40
-0.6
41
-30.0
62
5
63
7
74
1
91
4
64
7
65
257
75
7
175
7
42
1.0
92
8
66
7
43
1.0
76
1
77
6
78
2
67
7
79
5
170
0
171
0
290
0
174
0
93
1
44
0.0
173
0
291
1
45
0.0
1001
ACAD
1000
AcDbSavedByObjectVersion
1070
0
0
VISUALSTYLE
5
FA5
102
{ACAD_XDICTIONARY
360
10A2
102
}
102
{ACAD_REACTORS
330
F93
102
}
330
F93
100
AcDbVisualStyle
2

70
21
71
2
72
2
73
0
90
0
40
-0.6
41
-30.0
62
5
63
7
74
1
91
4
64
7
65
257
75
1
175
1
42
1.0
92
9
66
7
43
1.0
76
1
77
6
78
2
67
7
79
5
170
0
171
0
290
0
174
0
93
1
44
0.0
173
0
291
1
45
0.0
1001
ACAD
1000
AcDbSavedByObjectVersion
1070
0
0
VISUALSTYLE
5
F9D
102
{ACAD_XDICTIONARY
360
1092
102
}
102
{ACAD_REACTORS
330
F93
102
}
330
F93
100
AcDbVisualStyle
2

70
8
71
2
72
2
73
0
90
0
40
-0.6
41
-30.0
62
5
63
7
74
1
91
0
64
7
65
257
75
1
175
1
42
1.0
92
8
66
8
43
1.0
76
1
77
6
78
2
67
7
79
5
170
0
171
0
290
0
174
0
93
13
44
0.0
173
0
291
0
45
0.0
1001
ACAD
1000
AcDbSavedByObjectVersion
1070
0
0
VISUALSTYLE
5
FA0
102
{ACAD_XDICTIONARY
360
1098
102
}
102
{ACAD_REACTORS
330
F93
102
}
330
F93
100
AcDbVisualStyle
2

70
13
71
2
72
2
73
0
90
0
40
-0.6
41
-30.0
62
5
63
7
74
1
91
4
64
7
65
257
75
1
175
1
42
1.0
92
12
66
7
43
1.0
76
1
77
6
78
2
67
7
79
5
170
0
171
0
290
0
174
0
93
1
44
0.0
173
0
291
1
45
0.0
1001
ACAD
1000
AcDbSavedByObjectVersion
1070
0
0
DICTIONARYVAR
5
FF3
102
{ACAD_REACTORS
330
FF0
102
}
330
FF0
100
DictionaryVariables
280
0
1
1:1
0
DICTIONARYVAR
5
FF2
102
{ACAD_REACTORS
330
FF0
102
}
330
FF0
100
DictionaryVariables
280
0
1
STANDARD
0
DICTIONARYVAR
5
FF1
102
{ACAD_REACTORS
330
FF0
102
}
330
FF0
100
DictionaryVariables
280
0
1
STANDARD
0
DICTIONARYVAR
5
FF6
102
{ACAD_REACTORS
330
FF0
102
}
330
FF0
100
DictionaryVariables
280
0
1
1
0
DICTIONARYVAR
5
FF5
102
{ACAD_REACTORS
330
FF0
102
}
330
FF0
100
DictionaryVariables
280
0
1
0
0
DICTIONARYVAR
5
FF4
102
{ACAD_REACTORS
330
FF0
102
}
330
FF0
100
DictionaryVariables
280
0
1
127
0
DICTIONARYVAR
5
1078
102
{ACAD_REACTORS
330
FF0
102
}
330
FF0
100
DictionaryVariables
280
0
1
2
0
DICTIONARY
5
10A9
330
FD1
100
AcDbDictionary
280
1
281
1
3
ACAD_XREC_ROUNDTRIP
360
10AA
0
DICTIONARY
5
10A7
330
FD0
100
AcDbDictionary
280
1
281
1
3
ACAD_XREC_ROUNDTRIP
360
10A8
0
DICTIONARY
5
F84
330
F83
100
AcDbDictionary
280
1
281
1
3
ACAD_XREC_ROUNDTRIP
360
FFF
3
BUMPTILE
360
F86
3
DIFFUSETILE
360
F85
3
OPACITYTILE
360
F89
3
REFLECTIONTILE
360
F88
3
REFRACTIONTILE
360
F8A
3
SPECULARTILE
360
F87
0
DICTIONARY
5
F7C
330
F7B
100
AcDbDictionary
280
1
281
1
3
ACAD_XREC_ROUNDTRIP
360
FFE
3
BUMPTILE
360
F7E
3
DIFFUSETILE
360
F7D
3
OPACITYTILE
360
F81
3
REFLECTIONTILE
360
F80
3
REFRACTIONTILE
360
F82
3
SPECULARTILE
360
F7F
0
DICTIONARY
5
F8C
330
F8B
100
AcDbDictionary
280
1
281
1
3
ACAD_XREC_ROUNDTRIP
360
1000
3
BUMPTILE
360
F8E
3
DIFFUSETILE
360
F8D
3
OPACITYTILE
360
F91
3
REFLECTIONTILE
360
F90
3
REFRACTIONTILE
360
F92
3
SPECULARTILE
360
F8F
0
DICTIONARY
5
FF8
330
FA9
100
AcDbDictionary
280
1
281
1
3
ACAD_ROUNDTRIP_2008_TABLESTYLE_CELLSTYLEMAP
360
1079
3
ACAD_XREC_ROUNDTRIP
360
10A6
0
DICTIONARY
5
108A
330
F99
100
AcDbDictionary
280
1
281
1
3
ACAD_XREC_ROUNDTRIP
360
108B
0
DICTIONARY
5
108E
330
F9B
100
AcDbDictionary
280
1
281
1
3
ACAD_XREC_ROUNDTRIP
360
108F
0
DICTIONARY
5
108C
330
F9A
100
AcDbDictionary
280
1
281
1
3
ACAD_XREC_ROUNDTRIP
360
108D
0
DICTIONARY
5
1088
330
F98
100
AcDbDictionary
280
1
281
1
3
ACAD_XREC_ROUNDTRIP
360
1089
0
DICTIONARY
5
1096
330
F9F
100
AcDbDictionary
280
1
281
1
3
ACAD_XREC_ROUNDTRIP
360
1097
0
DICTIONARY
5
109E
330
FA3
100
AcDbDictionary
280
1
281
1
3
ACAD_XREC_ROUNDTRIP
360
109F
0
DICTIONARY
5
1090
330
F9C
100
AcDbDictionary
280
1
281
1
3
ACAD_XREC_ROUNDTRIP
360
1091
0
DICTIONARY
5
1094
330
F9E
100
AcDbDictionary
280
1
281
1
3
ACAD_XREC_ROUNDTRIP
360
1095
0
DICTIONARY
5
10A4
330
FA6
100
AcDbDictionary
280
1
281
1
3
ACAD_XREC_ROUNDTRIP
360
10A5
0
DICTIONARY
5
109C
330
FA2
100
AcDbDictionary
280
1
281
1
3
ACAD_XREC_ROUNDTRIP
360
109D
0
DICTIONARY
5
1080
330
F94
100
AcDbDictionary
280
1
281
1
3
ACAD_XREC_ROUNDTRIP
360
1081
0
DICTIONARY
5
1082
330
F95
100
AcDbDictionary
280
1
281
1
3
ACAD_XREC_ROUNDTRIP
360
1083
0
DICTIONARY
5
1084
330
F96
100
AcDbDictionary
280
1
281
1
3
ACAD_XREC_ROUNDTRIP
360
1085
0
DICTIONARY
5
1086
330
F97
100
AcDbDictionary
280
1
281
1
3
ACAD_XREC_ROUNDTRIP
360
1087
0
DICTIONARY
5
10A0
330
FA4
100
AcDbDictionary
280
1
281
1
3
ACAD_XREC_ROUNDTRIP
360
10A1
0
DICTIONARY
5
109A
330
FA1
100
AcDbDictionary
280
1
281
1
3
ACAD_XREC_ROUNDTRIP
360
109B
0
DICTIONARY
5
10A2
330
FA5
100
AcDbDictionary
280
1
281
1
3
ACAD_XREC_ROUNDTRIP
360
10A3
0
DICTIONARY
5
1092
330
F9D
100
AcDbDictionary
280
1
281
1
3
ACAD_XREC_ROUNDTRIP
360
1093
0
DICTIONARY
5
1098
330
FA0
100
AcDbDictionary
280
1
281
1
3
ACAD_XREC_ROUNDTRIP
360
1099
0
XRECORD
5
10AA
102
{ACAD_REACTORS
330
10A9
102
}
330
10A9
100
AcDbXrecord
280
1
102
SHADEPLOT
70
0
102
SHADEPLOTRESLEVEL
70
2
102
SHADEPLOTCUSTOMDPI
70
300
0
XRECORD
5
10A8
102
{ACAD_REACTORS
330
10A7
102
}
330
10A7
100
AcDbXrecord
280
1
102
SHADEPLOT
70
0
102
SHADEPLOTRESLEVEL
70
2
102
SHADEPLOTCUSTOMDPI
70
300
0
XRECORD
5
FFF
102
{ACAD_REACTORS
330
F84
102
}
330
F84
100
AcDbXrecord
280
1
102
MATERIAL
148
0.0
149
0.0
149
0.0
93
0
94
127
282
0
72
0
77
0
171
0
175
0
179
0
273
0
0
XRECORD
5
F86
102
{ACAD_REACTORS
330
F84
102
}
330
F84
100
AcDbXrecord
280
1
270
1
271
1
0
XRECORD
5
F85
102
{ACAD_REACTORS
330
F84
102
}
330
F84
100
AcDbXrecord
280
1
270
1
271
1
0
XRECORD
5
F89
102
{ACAD_REACTORS
330
F84
102
}
330
F84
100
AcDbXrecord
280
1
270
1
271
1
0
XRECORD
5
F88
102
{ACAD_REACTORS
330
F84
102
}
330
F84
100
AcDbXrecord
280
1
270
1
271
1
0
XRECORD
5
F8A
102
{ACAD_REACTORS
330
F84
102
}
330
F84
100
AcDbXrecord
280
1
270
1
271
1
0
XRECORD
5
F87
102
{ACAD_REACTORS
330
F84
102
}
330
F84
100
AcDbXrecord
280
1
270
1
271
1
0
XRECORD
5
FFE
102
{ACAD_REACTORS
330
F7C
102
}
330
F7C
100
AcDbXrecord
280
1
102
MATERIAL
148
0.0
149
0.0
149
0.0
93
0
94
127
282
0
72
0
77
0
171
0
175
0
179
0
273
0
0
XRECORD
5
F7E
102
{ACAD_REACTORS
330
F7C
102
}
330
F7C
100
AcDbXrecord
280
1
270
1
271
1
0
XRECORD
5
F7D
102
{ACAD_REACTORS
330
F7C
102
}
330
F7C
100
AcDbXrecord
280
1
270
1
271
1
0
XRECORD
5
F81
102
{ACAD_REACTORS
330
F7C
102
}
330
F7C
100
AcDbXrecord
280
1
270
1
271
1
0
XRECORD
5
F80
102
{ACAD_REACTORS
330
F7C
102
}
330
F7C
100
AcDbXrecord
280
1
270
1
271
1
0
XRECORD
5
F82
102
{ACAD_REACTORS
330
F7C
102
}
330
F7C
100
AcDbXrecord
280
1
270
1
271
1
0
XRECORD
5
F7F
102
{ACAD_REACTORS
330
F7C
102
}
330
F7C
100
AcDbXrecord
280
1
270
1
271
1
0
XRECORD
5
1000
102
{ACAD_REACTORS
330
F8C
102
}
330
F8C
100
AcDbXrecord
280
1
102
MATERIAL
148
0.0
149
0.0
149
0.0
93
0
94
127
282
0
72
0
77
0
171
0
175
0
179
0
273
0
0
XRECORD
5
F8E
102
{ACAD_REACTORS
330
F8C
102
}
330
F8C
100
AcDbXrecord
280
1
270
1
271
1
0
XRECORD
5
F8D
102
{ACAD_REACTORS
330
F8C
102
}
330
F8C
100
AcDbXrecord
280
1
270
1
271
1
0
XRECORD
5
F91
102
{ACAD_REACTORS
330
F8C
102
}
330
F8C
100
AcDbXrecord
280
1
270
1
271
1
0
XRECORD
5
F90
102
{ACAD_REACTORS
330
F8C
102
}
330
F8C
100
AcDbXrecord
280
1
270
1
271
1
0
XRECORD
5
F92
102
{ACAD_REACTORS
330
F8C
102
}
330
F8C
100
AcDbXrecord
280
1
270
1
271
1
0
XRECORD
5
F8F
102
{ACAD_REACTORS
330
F8C
102
}
330
F8C
100
AcDbXrecord
280
1
270
1
271
1
0
CELLSTYLEMAP
5
1079
102
{ACAD_REACTORS
330
FF8
102
}
330
FF8
100
AcDbCellStyleMap
90
3
300
CELLSTYLE
1
TABLEFORMAT_BEGIN
90
5
170
1
91
0
92
32768
62
257
93
1
300
CONTENTFORMAT
1
CONTENTFORMAT_BEGIN
90
0
91
0
92
512
93
0
300

40
0.0
140
1.0
94
5
62
0
340
253
144
0.25
309
CONTENTFORMAT_END
171
1
301
MARGIN
1
CELLMARGIN_BEGIN
40
0.06
40
0.06
40
0.06
40
0.06
40
0.18
40
0.18
309
CELLMARGIN_END
94
6
95
1
302
GRIDFORMAT
1
GRIDFORMAT_BEGIN
90
0
91
1
62
0
92
-2
340
0
93
0
40
0.045
309
GRIDFORMAT_END
95
2
302
GRIDFORMAT
1
GRIDFORMAT_BEGIN
90
0
91
1
62
0
92
-2
340
0
93
0
40
0.045
309
GRIDFORMAT_END
95
4
302
GRIDFORMAT
1
GRIDFORMAT_BEGIN
90
0
91
1
62
0
92
-2
340
0
93
0
40
0.045
309
GRIDFORMAT_END
95
8
302
GRIDFORMAT
1
GRIDFORMAT_BEGIN
90
0
91
1
62
0
92
-2
340
0
93
0
40
0.045
309
GRIDFORMAT_END
95
16
302
GRIDFORMAT
1
GRIDFORMAT_BEGIN
90
0
91
1
62
0
92
-2
340
0
93
0
40
0.045
309
GRIDFORMAT_END
95
32
302
GRIDFORMAT
1
GRIDFORMAT_BEGIN
90
0
91
1
62
0
92
-2
340
0
93
0
40
0.045
309
GRIDFORMAT_END
309
TABLEFORMAT_END
1
CELLSTYLE_BEGIN
90
1
91
1
300
_TITLE
309
CELLSTYLE_END
300
CELLSTYLE
1
TABLEFORMAT_BEGIN
90
5
170
1
91
0
92
0
62
257
93
1
300
CONTENTFORMAT
1
CONTENTFORMAT_BEGIN
90
0
91
0
92
512
93
0
300

40
0.0
140
1.0
94
5
62
0
340
253
144
0.18
309
CONTENTFORMAT_END
171
1
301
MARGIN
1
CELLMARGIN_BEGIN
40
0.06
40
0.06
40
0.06
40
0.06
40
0.18
40
0.18
309
CELLMARGIN_END
94
6
95
1
302
GRIDFORMAT
1
GRIDFORMAT_BEGIN
90
0
91
1
62
0
92
-2
340
0
93
0
40
0.045
309
GRIDFORMAT_END
95
2
302
GRIDFORMAT
1
GRIDFORMAT_BEGIN
90
0
91
1
62
0
92
-2
340
0
93
0
40
0.045
309
GRIDFORMAT_END
95
4
302
GRIDFORMAT
1
GRIDFORMAT_BEGIN
90
0
91
1
62
0
92
-2
340
0
93
0
40
0.045
309
GRIDFORMAT_END
95
8
302
GRIDFORMAT
1
GRIDFORMAT_BEGIN
90
0
91
1
62
0
92
-2
340
0
93
0
40
0.045
309
GRIDFORMAT_END
95
16
302
GRIDFORMAT
1
GRIDFORMAT_BEGIN
90
0
91
1
62
0
92
-2
340
0
93
0
40
0.045
309
GRIDFORMAT_END
95
32
302
GRIDFORMAT
1
GRIDFORMAT_BEGIN
90
0
91
1
62
0
92
-2
340
0
93
0
40
0.045
309
GRIDFORMAT_END
309
TABLEFORMAT_END
1
CELLSTYLE_BEGIN
90
2
91
1
300
_HEADER
309
CELLSTYLE_END
300
CELLSTYLE
1
TABLEFORMAT_BEGIN
90
5
170
1
91
0
92
0
62
257
93
1
300
CONTENTFORMAT
1
CONTENTFORMAT_BEGIN
90
0
91
0
92
512
93
0
300

40
0.0
140
1.0
94
2
62
0
340
253
144
0.18
309
CONTENTFORMAT_END
171
1
301
MARGIN
1
CELLMARGIN_BEGIN
40
0.06
40
0.06
40
0.06
40
0.06
40
0.18
40
0.18
309
CELLMARGIN_END
94
6
95
1
302
GRIDFORMAT
1
GRIDFORMAT_BEGIN
90
0
91
1
62
0
92
-2
340
0
93
0
40
0.045
309
GRIDFORMAT_END
95
2
302
GRIDFORMAT
1
GRIDFORMAT_BEGIN
90
0
91
1
62
0
92
-2
340
0
93
0
40
0.045
309
GRIDFORMAT_END
95
4
302
GRIDFORMAT
1
GRIDFORMAT_BEGIN
90
0
91
1
62
0
92
-2
340
0
93
0
40
0.045
309
GRIDFORMAT_END
95
8
302
GRIDFORMAT
1
GRIDFORMAT_BEGIN
90
0
91
1
62
0
92
-2
340
0
93
0
40
0.045
309
GRIDFORMAT_END
95
16
302
GRIDFORMAT
1
GRIDFORMAT_BEGIN
90
0
91
1
62
0
92
-2
340
0
93
0
40
0.045
309
GRIDFORMAT_END
95
32
302
GRIDFORMAT
1
GRIDFORMAT_BEGIN
90
0
91
1
62
0
92
-2
340
0
93
0
40
0.045
309
GRIDFORMAT_END
309
TABLEFORMAT_END
1
CELLSTYLE_BEGIN
90
3
91
2
300
_DATA
309
CELLSTYLE_END
0
XRECORD
5
10A6
102
{ACAD_REACTORS
330
FF8
102
}
330
FF8
100
AcDbXrecord
280
1
102
ACAD_ROUNDTRIP_PRE2007_TABLESTYLE
90
512
91
0
1

92
512
93
0
2

94
512
95
0
3

0
XRECORD
5
108B
102
{ACAD_REACTORS
330
108A
102
}
330
108A
100
AcDbXrecord
280
1
102
RTVSPropertyOp0
70
1
102
RTVSPropertyOp1
70
1
102
RTVSPropertyOp2
70
1
102
RTVSPropertyOp3
70
1
102
RTVSPropertyOp4
70
1
102
RTVSPropertyOp5
70
1
102
RTVSPropertyOp6
70
1
102
RTVSPropertyOp7
70
1
102
RTVSPropertyOp8
70
1
102
RTVSPropertyOp9
70
1
102
RTVSPropertyOp10
70
1
102
RTVSPropertyOp11
70
1
102
RTVSPropertyOp12
70
1
102
RTVSPropertyOp13
70
1
102
RTVSPropertyOp14
70
1
102
RTVSPropertyOp15
70
1
102
RTVSPropertyOp16
70
1
102
RTVSPropertyOp17
70
1
102
RTVSPropertyOp18
70
1
102
RTVSPropertyOp19
70
1
102
RTVSPropertyOp20
70
1
102
RTVSPropertyOp21
70
1
102
RTVSPropertyOp22
70
1
102
RTVSPropertyOp23
70
1
102
RTVSPropertyOp24
70
1
102
RTVSPropertyOp25
70
1
102
RTVSPropertyOp26
70
1
102
RTVSPropertyOp27
70
1
0
XRECORD
5
108F
102
{ACAD_REACTORS
330
108E
102
}
330
108E
100
AcDbXrecord
280
1
102
RTVSPropertyOp0
70
1
102
RTVSPropertyOp1
70
1
102
RTVSPropertyOp2
70
1
102
RTVSPropertyOp3
70
1
102
RTVSPropertyOp4
70
1
102
RTVSPropertyOp5
70
1
102
RTVSPropertyOp6
70
1
102
RTVSPropertyOp7
70
1
102
RTVSPropertyOp8
70
1
102
RTVSPropertyOp9
70
1
102
RTVSPropertyOp10
70
1
102
RTVSPropertyOp11
70
1
102
RTVSPropertyOp12
70
1
102
RTVSPropertyOp13
70
1
102
RTVSPropertyOp14
70
1
102
RTVSPropertyOp15
70
1
102
RTVSPropertyOp16
70
1
102
RTVSPropertyOp17
70
1
102
RTVSPropertyOp18
70
1
102
RTVSPropertyOp19
70
1
102
RTVSPropertyOp20
70
1
102
RTVSPropertyOp21
70
1
102
RTVSPropertyOp22
70
1
102
RTVSPropertyOp23
70
1
102
RTVSPropertyOp24
70
1
102
RTVSPropertyOp25
70
1
102
RTVSPropertyOp26
70
1
102
RTVSPropertyOp27
70
1
0
XRECORD
5
108D
102
{ACAD_REACTORS
330
108C
102
}
330
108C
100
AcDbXrecord
280
1
102
RTVSPropertyOp0
70
1
102
RTVSPropertyOp1
70
1
102
RTVSPropertyOp2
70
1
102
RTVSPropertyOp3
70
1
102
RTVSPropertyOp4
70
1
102
RTVSPropertyOp5
70
1
102
RTVSPropertyOp6
70
1
102
RTVSPropertyOp7
70
1
102
RTVSPropertyOp8
70
1
102
RTVSPropertyOp9
70
1
102
RTVSPropertyOp10
70
1
102
RTVSPropertyOp11
70
1
102
RTVSPropertyOp12
70
1
102
RTVSPropertyOp13
70
1
102
RTVSPropertyOp14
70
1
102
RTVSPropertyOp15
70
1
102
RTVSPropertyOp16
70
1
102
RTVSPropertyOp17
70
1
102
RTVSPropertyOp18
70
1
102
RTVSPropertyOp19
70
1
102
RTVSPropertyOp20
70
1
102
RTVSPropertyOp21
70
1
102
RTVSPropertyOp22
70
1
102
RTVSPropertyOp23
70
1
102
RTVSPropertyOp24
70
1
102
RTVSPropertyOp25
70
1
102
RTVSPropertyOp26
70
1
102
RTVSPropertyOp27
70
1
0
XRECORD
5
1089
102
{ACAD_REACTORS
330
1088
102
}
330
1088
100
AcDbXrecord
280
1
102
RTVSPropertyOp0
70
1
102
RTVSPropertyOp1
70
1
102
RTVSPropertyOp2
70
1
102
RTVSPropertyOp3
70
1
102
RTVSPropertyOp4
70
1
102
RTVSPropertyOp5
70
1
102
RTVSPropertyOp6
70
1
102
RTVSPropertyOp7
70
1
102
RTVSPropertyOp8
70
1
102
RTVSPropertyOp9
70
1
102
RTVSPropertyOp10
70
1
102
RTVSPropertyOp11
70
1
102
RTVSPropertyOp12
70
1
102
RTVSPropertyOp13
70
1
102
RTVSPropertyOp14
70
1
102
RTVSPropertyOp15
70
1
102
RTVSPropertyOp16
70
1
102
RTVSPropertyOp17
70
1
102
RTVSPropertyOp18
70
1
102
RTVSPropertyOp19
70
1
102
RTVSPropertyOp20
70
1
102
RTVSPropertyOp21
70
1
102
RTVSPropertyOp22
70
1
102
RTVSPropertyOp23
70
1
102
RTVSPropertyOp24
70
1
102
RTVSPropertyOp25
70
1
102
RTVSPropertyOp26
70
1
102
RTVSPropertyOp27
70
1
0
XRECORD
5
1097
102
{ACAD_REACTORS
330
1096
102
}
330
1096
100
AcDbXrecord
280
1
102
RTVSPropertyOp0
70
1
102
RTVSPropertyOp1
70
1
102
RTVSPropertyOp2
70
1
102
RTVSPropertyOp3
70
1
102
RTVSPropertyOp4
70
1
102
RTVSPropertyOp5
70
1
102
RTVSPropertyOp6
70
1
102
RTVSPropertyOp7
70
1
102
RTVSPropertyOp8
70
1
102
RTVSPropertyOp9
70
1
102
RTVSPropertyOp10
70
1
102
RTVSPropertyOp11
70
1
102
RTVSPropertyOp12
70
1
102
RTVSPropertyOp13
70
1
102
RTVSPropertyOp14
70
1
102
RTVSPropertyOp15
70
1
102
RTVSPropertyOp16
70
1
102
RTVSPropertyOp17
70
1
102
RTVSPropertyOp18
70
1
102
RTVSPropertyOp19
70
1
102
RTVSPropertyOp20
70
1
102
RTVSPropertyOp21
70
1
102
RTVSPropertyOp22
70
1
102
RTVSPropertyOp23
70
1
102
RTVSPropertyOp24
70
1
102
RTVSPropertyOp25
70
1
102
RTVSPropertyOp26
70
1
102
RTVSPropertyOp27
70
1
0
XRECORD
5
109F
102
{ACAD_REACTORS
330
109E
102
}
330
109E
100
AcDbXrecord
280
1
102
RTVSPropertyOp0
70
1
102
RTVSPropertyOp1
70
1
102
RTVSPropertyOp2
70
1
102
RTVSPropertyOp3
70
1
102
RTVSPropertyOp4
70
1
102
RTVSPropertyOp5
70
1
102
RTVSPropertyOp6
70
1
102
RTVSPropertyOp7
70
1
102
RTVSPropertyOp8
70
1
102
RTVSPropertyOp9
70
1
102
RTVSPropertyOp10
70
1
102
RTVSPropertyOp11
70
1
102
RTVSPropertyOp12
70
1
102
RTVSPropertyOp13
70
1
102
RTVSPropertyOp14
70
1
102
RTVSPropertyOp15
70
1
102
RTVSPropertyOp16
70
1
102
RTVSPropertyOp17
70
1
102
RTVSPropertyOp18
70
1
102
RTVSPropertyOp19
70
1
102
RTVSPropertyOp20
70
1
102
RTVSPropertyOp21
70
1
102
RTVSPropertyOp22
70
1
102
RTVSPropertyOp23
70
1
102
RTVSPropertyOp24
70
1
102
RTVSPropertyOp25
70
1
102
RTVSPropertyOp26
70
1
102
RTVSPropertyOp27
70
1
0
XRECORD
5
1091
102
{ACAD_REACTORS
330
1090
102
}
330
1090
100
AcDbXrecord
280
1
102
RTVSPropertyOp0
70
1
102
RTVSPropertyOp1
70
1
102
RTVSPropertyOp2
70
1
102
RTVSPropertyOp3
70
1
102
RTVSPropertyOp4
70
1
102
RTVSPropertyOp5
70
1
102
RTVSPropertyOp6
70
1
102
RTVSPropertyOp7
70
1
102
RTVSPropertyOp8
70
1
102
RTVSPropertyOp9
70
1
102
RTVSPropertyOp10
70
1
102
RTVSPropertyOp11
70
1
102
RTVSPropertyOp12
70
1
102
RTVSPropertyOp13
70
1
102
RTVSPropertyOp14
70
1
102
RTVSPropertyOp15
70
1
102
RTVSPropertyOp16
70
1
102
RTVSPropertyOp17
70
1
102
RTVSPropertyOp18
70
1
102
RTVSPropertyOp19
70
1
102
RTVSPropertyOp20
70
1
102
RTVSPropertyOp21
70
1
102
RTVSPropertyOp22
70
1
102
RTVSPropertyOp23
70
1
102
RTVSPropertyOp24
70
1
102
RTVSPropertyOp25
70
1
102
RTVSPropertyOp26
70
1
102
RTVSPropertyOp27
70
1
0
XRECORD
5
1095
102
{ACAD_REACTORS
330
1094
102
}
330
1094
100
AcDbXrecord
280
1
102
RTVSPropertyOp0
70
1
102
RTVSPropertyOp1
70
1
102
RTVSPropertyOp2
70
1
102
RTVSPropertyOp3
70
1
102
RTVSPropertyOp4
70
1
102
RTVSPropertyOp5
70
1
102
RTVSPropertyOp6
70
1
102
RTVSPropertyOp7
70
1
102
RTVSPropertyOp8
70
1
102
RTVSPropertyOp9
70
1
102
RTVSPropertyOp10
70
1
102
RTVSPropertyOp11
70
1
102
RTVSPropertyOp12
70
1
102
RTVSPropertyOp13
70
1
102
RTVSPropertyOp14
70
1
102
RTVSPropertyOp15
70
1
102
RTVSPropertyOp16
70
1
102
RTVSPropertyOp17
70
1
102
RTVSPropertyOp18
70
1
102
RTVSPropertyOp19
70
1
102
RTVSPropertyOp20
70
1
102
RTVSPropertyOp21
70
1
102
RTVSPropertyOp22
70
1
102
RTVSPropertyOp23
70
1
102
RTVSPropertyOp24
70
1
102
RTVSPropertyOp25
70
1
102
RTVSPropertyOp26
70
1
102
RTVSPropertyOp27
70
1
0
XRECORD
5
10A5
102
{ACAD_REACTORS
330
10A4
102
}
330
10A4
100
AcDbXrecord
280
1
102
RTVSPropertyOp0
70
0
102
RTVSPropertyOp1
70
0
102
RTVSPropertyOp2
70
0
102
RTVSPropertyOp3
70
0
102
RTVSPropertyOp4
70
0
102
RTVSPropertyOp5
70
0
102
RTVSPropertyOp6
70
0
102
RTVSPropertyOp7
70
0
102
RTVSPropertyOp8
70
0
102
RTVSPropertyOp9
70
0
102
RTVSPropertyOp10
70
0
102
RTVSPropertyOp11
70
0
102
RTVSPropertyOp12
70
0
102
RTVSPropertyOp13
70
0
102
RTVSPropertyOp14
70
2
102
RTVSPropertyOp15
70
0
102
RTVSPropertyOp16
70
0
102
RTVSPropertyOp17
70
0
102
RTVSPropertyOp18
70
0
102
RTVSPropertyOp19
70
0
102
RTVSPropertyOp20
70
0
102
RTVSPropertyOp21
70
0
102
RTVSPropertyOp22
70
0
102
RTVSPropertyOp23
70
0
102
RTVSPropertyOp24
70
0
102
RTVSPropertyOp25
70
0
102
RTVSPropertyOp26
70
0
102
RTVSPropertyOp27
70
0
0
XRECORD
5
109D
102
{ACAD_REACTORS
330
109C
102
}
330
109C
100
AcDbXrecord
280
1
102
RTVSPropertyOp0
70
1
102
RTVSPropertyOp1
70
1
102
RTVSPropertyOp2
70
1
102
RTVSPropertyOp3
70
1
102
RTVSPropertyOp4
70
1
102
RTVSPropertyOp5
70
1
102
RTVSPropertyOp6
70
1
102
RTVSPropertyOp7
70
1
102
RTVSPropertyOp8
70
1
102
RTVSPropertyOp9
70
1
102
RTVSPropertyOp10
70
1
102
RTVSPropertyOp11
70
1
102
RTVSPropertyOp12
70
1
102
RTVSPropertyOp13
70
1
102
RTVSPropertyOp14
70
1
102
RTVSPropertyOp15
70
1
102
RTVSPropertyOp16
70
1
102
RTVSPropertyOp17
70
1
102
RTVSPropertyOp18
70
1
102
RTVSPropertyOp19
70
1
102
RTVSPropertyOp20
70
1
102
RTVSPropertyOp21
70
1
102
RTVSPropertyOp22
70
1
102
RTVSPropertyOp23
70
1
102
RTVSPropertyOp24
70
1
102
RTVSPropertyOp25
70
1
102
RTVSPropertyOp26
70
1
102
RTVSPropertyOp27
70
1
0
XRECORD
5
1081
102
{ACAD_REACTORS
330
1080
102
}
330
1080
100
AcDbXrecord
280
1
102
RTVSPropertyOp0
70
1
102
RTVSPropertyOp1
70
1
102
RTVSPropertyOp2
70
1
102
RTVSPropertyOp3
70
1
102
RTVSPropertyOp4
70
1
102
RTVSPropertyOp5
70
1
102
RTVSPropertyOp6
70
1
102
RTVSPropertyOp7
70
1
102
RTVSPropertyOp8
70
1
102
RTVSPropertyOp9
70
1
102
RTVSPropertyOp10
70
1
102
RTVSPropertyOp11
70
1
102
RTVSPropertyOp12
70
1
102
RTVSPropertyOp13
70
1
102
RTVSPropertyOp14
70
1
102
RTVSPropertyOp15
70
1
102
RTVSPropertyOp16
70
1
102
RTVSPropertyOp17
70
1
102
RTVSPropertyOp18
70
1
102
RTVSPropertyOp19
70
1
102
RTVSPropertyOp20
70
1
102
RTVSPropertyOp21
70
1
102
RTVSPropertyOp22
70
1
102
RTVSPropertyOp23
70
1
102
RTVSPropertyOp24
70
1
102
RTVSPropertyOp25
70
1
102
RTVSPropertyOp26
70
1
102
RTVSPropertyOp27
70
1
0
XRECORD
5
1083
102
{ACAD_REACTORS
330
1082
102
}
330
1082
100
AcDbXrecord
280
1
102
RTVSPropertyOp0
70
1
102
RTVSPropertyOp1
70
1
102
RTVSPropertyOp2
70
1
102
RTVSPropertyOp3
70
1
102
RTVSPropertyOp4
70
1
102
RTVSPropertyOp5
70
1
102
RTVSPropertyOp6
70
1
102
RTVSPropertyOp7
70
1
102
RTVSPropertyOp8
70
1
102
RTVSPropertyOp9
70
1
102
RTVSPropertyOp10
70
1
102
RTVSPropertyOp11
70
1
102
RTVSPropertyOp12
70
1
102
RTVSPropertyOp13
70
1
102
RTVSPropertyOp14
70
1
102
RTVSPropertyOp15
70
1
102
RTVSPropertyOp16
70
1
102
RTVSPropertyOp17
70
1
102
RTVSPropertyOp18
70
1
102
RTVSPropertyOp19
70
1
102
RTVSPropertyOp20
70
1
102
RTVSPropertyOp21
70
1
102
RTVSPropertyOp22
70
1
102
RTVSPropertyOp23
70
1
102
RTVSPropertyOp24
70
1
102
RTVSPropertyOp25
70
1
102
RTVSPropertyOp26
70
1
102
RTVSPropertyOp27
70
1
0
XRECORD
5
1085
102
{ACAD_REACTORS
330
1084
102
}
330
1084
100
AcDbXrecord
280
1
102
RTVSPropertyOp0
70
1
102
RTVSPropertyOp1
70
1
102
RTVSPropertyOp2
70
1
102
RTVSPropertyOp3
70
1
102
RTVSPropertyOp4
70
1
102
RTVSPropertyOp5
70
1
102
RTVSPropertyOp6
70
1
102
RTVSPropertyOp7
70
1
102
RTVSPropertyOp8
70
1
102
RTVSPropertyOp9
70
1
102
RTVSPropertyOp10
70
1
102
RTVSPropertyOp11
70
1
102
RTVSPropertyOp12
70
1
102
RTVSPropertyOp13
70
1
102
RTVSPropertyOp14
70
1
102
RTVSPropertyOp15
70
1
102
RTVSPropertyOp16
70
1
102
RTVSPropertyOp17
70
1
102
RTVSPropertyOp18
70
1
102
RTVSPropertyOp19
70
1
102
RTVSPropertyOp20
70
1
102
RTVSPropertyOp21
70
1
102
RTVSPropertyOp22
70
1
102
RTVSPropertyOp23
70
1
102
RTVSPropertyOp24
70
1
102
RTVSPropertyOp25
70
1
102
RTVSPropertyOp26
70
1
102
RTVSPropertyOp27
70
1
0
XRECORD
5
1087
102
{ACAD_REACTORS
330
1086
102
}
330
1086
100
AcDbXrecord
280
1
102
RTVSPropertyOp0
70
1
102
RTVSPropertyOp1
70
1
102
RTVSPropertyOp2
70
1
102
RTVSPropertyOp3
70
1
102
RTVSPropertyOp4
70
1
102
RTVSPropertyOp5
70
1
102
RTVSPropertyOp6
70
1
102
RTVSPropertyOp7
70
1
102
RTVSPropertyOp8
70
1
102
RTVSPropertyOp9
70
1
102
RTVSPropertyOp10
70
1
102
RTVSPropertyOp11
70
1
102
RTVSPropertyOp12
70
1
102
RTVSPropertyOp13
70
1
102
RTVSPropertyOp14
70
1
102
RTVSPropertyOp15
70
1
102
RTVSPropertyOp16
70
1
102
RTVSPropertyOp17
70
1
102
RTVSPropertyOp18
70
1
102
RTVSPropertyOp19
70
1
102
RTVSPropertyOp20
70
1
102
RTVSPropertyOp21
70
1
102
RTVSPropertyOp22
70
1
102
RTVSPropertyOp23
70
1
102
RTVSPropertyOp24
70
1
102
RTVSPropertyOp25
70
1
102
RTVSPropertyOp26
70
1
102
RTVSPropertyOp27
70
1
0
XRECORD
5
10A1
102
{ACAD_REACTORS
330
10A0
102
}
330
10A0
100
AcDbXrecord
280
1
102
RTVSPropertyOp0
70
0
102
RTVSPropertyOp1
70
0
102
RTVSPropertyOp2
70
0
102
RTVSPropertyOp3
70
0
102
RTVSPropertyOp4
70
0
102
RTVSPropertyOp5
70
0
102
RTVSPropertyOp6
70
0
102
RTVSPropertyOp7
70
0
102
RTVSPropertyOp8
70
0
102
RTVSPropertyOp9
70
0
102
RTVSPropertyOp10
70
0
102
RTVSPropertyOp11
70
0
102
RTVSPropertyOp12
70
0
102
RTVSPropertyOp13
70
0
102
RTVSPropertyOp14
70
2
102
RTVSPropertyOp15
70
0
102
RTVSPropertyOp16
70
0
102
RTVSPropertyOp17
70
0
102
RTVSPropertyOp18
70
0
102
RTVSPropertyOp19
70
0
102
RTVSPropertyOp20
70
0
102
RTVSPropertyOp21
70
0
102
RTVSPropertyOp22
70
0
102
RTVSPropertyOp23
70
0
102
RTVSPropertyOp24
70
0
102
RTVSPropertyOp25
70
0
102
RTVSPropertyOp26
70
0
102
RTVSPropertyOp27
70
0
0
XRECORD
5
109B
102
{ACAD_REACTORS
330
109A
102
}
330
109A
100
AcDbXrecord
280
1
102
RTVSPropertyOp0
70
1
102
RTVSPropertyOp1
70
1
102
RTVSPropertyOp2
70
1
102
RTVSPropertyOp3
70
1
102
RTVSPropertyOp4
70
1
102
RTVSPropertyOp5
70
1
102
RTVSPropertyOp6
70
1
102
RTVSPropertyOp7
70
1
102
RTVSPropertyOp8
70
1
102
RTVSPropertyOp9
70
1
102
RTVSPropertyOp10
70
1
102
RTVSPropertyOp11
70
1
102
RTVSPropertyOp12
70
1
102
RTVSPropertyOp13
70
1
102
RTVSPropertyOp14
70
1
102
RTVSPropertyOp15
70
1
102
RTVSPropertyOp16
70
1
102
RTVSPropertyOp17
70
1
102
RTVSPropertyOp18
70
1
102
RTVSPropertyOp19
70
1
102
RTVSPropertyOp20
70
1
102
RTVSPropertyOp21
70
1
102
RTVSPropertyOp22
70
1
102
RTVSPropertyOp23
70
1
102
RTVSPropertyOp24
70
1
102
RTVSPropertyOp25
70
1
102
RTVSPropertyOp26
70
1
102
RTVSPropertyOp27
70
1
0
XRECORD
5
10A3
102
{ACAD_REACTORS
330
10A2
102
}
330
10A2
100
AcDbXrecord
280
1
102
RTVSPropertyOp0
70
0
102
RTVSPropertyOp1
70
0
102
RTVSPropertyOp2
70
0
102
RTVSPropertyOp3
70
0
102
RTVSPropertyOp4
70
0
102
RTVSPropertyOp5
70
0
102
RTVSPropertyOp6
70
0
102
RTVSPropertyOp7
70
0
102
RTVSPropertyOp8
70
0
102
RTVSPropertyOp9
70
0
102
RTVSPropertyOp10
70
0
102
RTVSPropertyOp11
70
0
102
RTVSPropertyOp12
70
0
102
RTVSPropertyOp13
70
0
102
RTVSPropertyOp14
70
2
102
RTVSPropertyOp15
70
0
102
RTVSPropertyOp16
70
0
102
RTVSPropertyOp17
70
0
102
RTVSPropertyOp18
70
0
102
RTVSPropertyOp19
70
0
102
RTVSPropertyOp20
70
0
102
RTVSPropertyOp21
70
0
102
RTVSPropertyOp22
70
0
102
RTVSPropertyOp23
70
0
102
RTVSPropertyOp24
70
0
102
RTVSPropertyOp25
70
0
102
RTVSPropertyOp26
70
0
102
RTVSPropertyOp27
70
0
0
XRECORD
5
1093
102
{ACAD_REACTORS
330
1092
102
}
330
1092
100
AcDbXrecord
280
1
102
RTVSPropertyOp0
70
1
102
RTVSPropertyOp1
70
1
102
RTVSPropertyOp2
70
1
102
RTVSPropertyOp3
70
1
102
RTVSPropertyOp4
70
1
102
RTVSPropertyOp5
70
1
102
RTVSPropertyOp6
70
1
102
RTVSPropertyOp7
70
1
102
RTVSPropertyOp8
70
1
102
RTVSPropertyOp9
70
1
102
RTVSPropertyOp10
70
1
102
RTVSPropertyOp11
70
1
102
RTVSPropertyOp12
70
1
102
RTVSPropertyOp13
70
1
102
RTVSPropertyOp14
70
1
102
RTVSPropertyOp15
70
1
102
RTVSPropertyOp16
70
1
102
RTVSPropertyOp17
70
1
102
RTVSPropertyOp18
70
1
102
RTVSPropertyOp19
70
1
102
RTVSPropertyOp20
70
1
102
RTVSPropertyOp21
70
1
102
RTVSPropertyOp22
70
1
102
RTVSPropertyOp23
70
1
102
RTVSPropertyOp24
70
1
102
RTVSPropertyOp25
70
1
102
RTVSPropertyOp26
70
1
102
RTVSPropertyOp27
70
1
0
XRECORD
5
1099
102
{ACAD_REACTORS
330
1098
102
}
330
1098
100
AcDbXrecord
280
1
102
RTVSPropertyOp0
70
1
102
RTVSPropertyOp1
70
1
102
RTVSPropertyOp2
70
1
102
RTVSPropertyOp3
70
1
102
RTVSPropertyOp4
70
1
102
RTVSPropertyOp5
70
1
102
RTVSPropertyOp6
70
1
102
RTVSPropertyOp7
70
1
102
RTVSPropertyOp8
70
1
102
RTVSPropertyOp9
70
1
102
RTVSPropertyOp10
70
1
102
RTVSPropertyOp11
70
1
102
RTVSPropertyOp12
70
1
102
RTVSPropertyOp13
70
1
102
RTVSPropertyOp14
70
1
102
RTVSPropertyOp15
70
1
102
RTVSPropertyOp16
70
1
102
RTVSPropertyOp17
70
1
102
RTVSPropertyOp18
70
1
102
RTVSPropertyOp19
70
1
102
RTVSPropertyOp20
70
1
102
RTVSPropertyOp21
70
1
102
RTVSPropertyOp22
70
1
102
RTVSPropertyOp23
70
1
102
RTVSPropertyOp24
70
1
102
RTVSPropertyOp25
70
1
102
RTVSPropertyOp26
70
1
102
RTVSPropertyOp27
70
1
0
ENDSEC
0
EOF
