0
SECTION
2
HEADER
9
$ACADVER
1
AC1015
9
$ACADMAINTVER
70
20
9
$DWGCODEPAGE
3
ANSI_1252
9
$INSBASE
10
0.0
20
0.0
30
0.0
9
$EXTMIN
10
-150.000000000000
20
-105.000000000000
30
0.0
9
$EXTMAX
10
150.000000000000
20
105.000000000000
30
0.0
9
$LIMMIN
10
0.0
20
0.0
9
$LIMMAX
10
12.0
20
9.0
9
$ORTHOMODE
70
0
9
$REGENMODE
70
1
9
$FILLMODE
70
1
9
$QTEXTMODE
70
0
9
$MIRRTEXT
70
1
9
$LTSCALE
40
1.0
9
$ATTMODE
70
1
9
$TEXTSIZE
40
0.2
9
$TRACEWID
40
0.05
9
$TEXTSTYLE
7
Standard
9
$CLAYER
8
0
9
$CELTYPE
6
ByLayer
9
$CECOLOR
62
256
9
$CELTSCALE
40
1.0
9
$DISPSILH
70
0
9
$DIMSCALE
40
1.0
9
$DIMASZ
40
2.5
9
$DIMEXO
40
0.625
9
$DIMDLI
40
0.38
9
$DIMRND
40
0.0
9
$DIMDLE
40
0.0
9
$DIMEXE
40
1.25
9
$DIMTP
40
0.0
9
$DIMTM
40
0.000000001
9
$DIMTXT
40
2.5
9
$DIMCEN
40
0.09
9
$DIMTSZ
40
0.0
9
$DIMTOL
70
1
9
$DIMLIM
70
0
9
$DIMTIH
70
0
9
$DIMTOH
70
0
9
$DIMSE1
70
0
9
$DIMSE2
70
0
9
$DIMTAD
70
1
9
$DIMZIN
70
0
9
$DIMBLK
1
VDDIM_DEFAULT
9
$DIMASO
70
1
9
$DIMSHO
70
1
9
$DIMPOST
1

9
$DIMAPOST
1

9
$DIMALT
70
0
9
$DIMALTD
70
2
9
$DIMALTF
40
25.4
9
$DIMLFAC
40
1.00000000000000
9
$DIMTOFL
70
0
9
$DIMTVP
40
0.0
9
$DIMTIX
70
0
9
$DIMSOXD
70
0
9
$DIMSAH
70
0
9
$DIMBLK1
1

9
$DIMBLK2
1

9
$DIMSTYLE
2
BEM-ISBE
9
$DIMCLRD
70
0
9
$DIMCLRE
70
0
9
$DIMCLRT
70
0
9
$DIMTFAC
40
0.5
9
$DIMGAP
40
0.625
9
$DIMJUST
70
0
9
$DIMSD1
70
0
9
$DIMSD2
70
0
9
$DIMTOLJ
70
1
9
$DIMTZIN
70
0
9
$DIMALTZ
70
0
9
$DIMALTTZ
70
0
9
$DIMUPT
70
0
9
$DIMDEC
70
3
9
$DIMTDEC
70
3
9
$DIMALTU
70
2
9
$DIMALTTD
70
2
9
$DIMTXSTY
7
Standard
9
$DIMAUNIT
70
0
9
$DIMADEC
70
3
9
$DIMALTRND
40
0.0
9
$DIMAZIN
70
0
9
$DIMDSEP
70
46
9
$DIMATFIT
70
3
9
$DIMFRAC
70
0
9
$DIMLDRBLK
1

9
$DIMLUNIT
70
2
9
$DIMLWD
70
-2
9
$DIMLWE
70
-2
9
$DIMTMOVE
70
0
9
$LUNITS
70
2
9
$LUPREC
70
4
9
$SKETCHINC
40
0.1
9
$FILLETRAD
40
0.5
9
$AUNITS
70
0
9
$AUPREC
70
0
9
$MENU
1
.
9
$ELEVATION
40
0.0
9
$PELEVATION
40
0.0
9
$THICKNESS
40
0.0
9
$LIMCHECK
70
0
9
$CHAMFERA
40
0.5
9
$CHAMFERB
40
0.5
9
$CHAMFERC
40
1.0
9
$CHAMFERD
40
0.0
9
$SKPOLY
70
0
9
$TDCREATE
40
0.0
9
$TDUCREATE
40
0.0
9
$TDUPDATE
40
0.0
9
$TDUUPDATE
40
0.0
9
$TDINDWG
40
0.0
9
$TDUSRTIMER
40
0.0
9
$USRTIMER
70
1
9
$ANGBASE
50
0.0
9
$ANGDIR
70
0
9
$PDMODE
70
0
9
$PDSIZE
40
0.0
9
$PLINEWID
40
0.0
9
$SPLFRAME
70
0
9
$SPLINETYPE
70
6
9
$SPLINESEGS
70
8
9
$HANDSEED
5
10AB
9
$SURFTAB1
70
6
9
$SURFTAB2
70
6
9
$SURFTYPE
70
6
9
$SURFU
70
6
9
$SURFV
70
6
9
$UCSBASE
2

9
$UCSNAME
2

9
$UCSORG
10
0.0
20
0.0
30
0.0
9
$UCSXDIR
10
1.0
20
0.0
30
0.0
9
$UCSYDIR
10
0.0
20
1.0
30
0.0
9
$UCSORTHOREF
2

9
$UCSORTHOVIEW
70
0
9
$UCSORGTOP
10
0.0
20
0.0
30
0.0
9
$UCSORGBOTTOM
10
0.0
20
0.0
30
0.0
9
$UCSORGLEFT
10
0.0
20
0.0
30
0.0
9
$UCSORGRIGHT
10
0.0
20
0.0
30
0.0
9
$UCSORGFRONT
10
0.0
20
0.0
30
0.0
9
$UCSORGBACK
10
0.0
20
0.0
30
0.0
9
$PUCSBASE
2

9
$PUCSNAME
2

9
$PUCSORG
10
0.0
20
0.0
30
0.0
9
$PUCSXDIR
10
1.0
20
0.0
30
0.0
9
$PUCSYDIR
10
0.0
20
1.0
30
0.0
9
$PUCSORTHOREF
2

9
$PUCSORTHOVIEW
70
0
9
$PUCSORGTOP
10
0.0
20
0.0
30
0.0
9
$PUCSORGBOTTOM
10
0.0
20
0.0
30
0.0
9
$PUCSORGLEFT
10
0.0
20
0.0
30
0.0
9
$PUCSORGRIGHT
10
0.0
20
0.0
30
0.0
9
$PUCSORGFRONT
10
0.0
20
0.0
30
0.0
9
$PUCSORGBACK
10
0.0
20
0.0
30
0.0
9
$USERI1
70
0
9
$USERI2
70
0
9
$USERI3
70
0
9
$USERI4
70
0
9
$USERI5
70
0
9
$USERR1
40
0.0
9
$USERR2
40
0.0
9
$USERR3
40
0.0
9
$USERR4
40
0.0
9
$USERR5
40
0.0
9
$WORLDVIEW
70
1
9
$SHADEDGE
70
3
9
$SHADEDIF
70
70
9
$TILEMODE
70
1
9
$MAXACTVP
70
64
9
$PINSBASE
10
0.0
20
0.0
30
0.0
9
$PLIMCHECK
70
0
9
$PEXTMIN
10
1.000000000000000E+20
20
1.000000000000000E+20
30
1.000000000000000E+20
9
$PEXTMAX
10
-1.000000000000000E+20
20
-1.000000000000000E+20
30
-1.000000000000000E+20
9
$PLIMMIN
10
0.0
20
0.0
9
$PLIMMAX
10
12.0
20
9.0
9
$UNITMODE
70
0
9
$VISRETAIN
70
1
9
$PLINEGEN
70
0
9
$PSLTSCALE
70
1
9
$TREEDEPTH
70
3020
9
$CMLSTYLE
2
Standard
9
$CMLJUST
70
0
9
$CMLSCALE
40
1.0
9
$PROXYGRAPHICS
70
1
9
$MEASUREMENT
70
0
9
$CELWEIGHT
370
-1
9
$ENDCAPS
280
0
9
$JOINSTYLE
280
0
9
$LWDISPLAY
290
0
9
$INSUNITS
70
4
9
$HYPERLINKBASE
1

9
$STYLESHEET
1

9
$XEDIT
290
1
9
$CEPSNTYPE
380
0
9
$PSTYLEMODE
290
0
9
$FINGERPRINTGUID
2
{FAEB1C30-E019-11D5-929B-00C0DF256EC4}
9
$VERSIONGUID
2
{04C5C4E4-4947-4D90-8812-D401569E61F7}
9
$EXTNAMES
290
1
9
$PSVPSCALE
40
0.0
9
$OLESTARTUP
290
0
0
ENDSEC
0
SECTION
2
TABLES
0
TABLE
2
VPORT
5
24A
330
0
100
AcDbSymbolTable
70
1
0
VPORT
5
26B
330
24A
100
AcDbSymbolTableRecord
100
AcDbViewportTableRecord
2
*Active
70
0
10
0.0
20
0.0
11
1.0
21
1.0
12
0.000000000000000
22
0.000000000000000
13
0.0
23
0.0
14
10.0
24
10.0
15
10.0
25
10.0
16
0.0
26
0.0
36
1.0
17
0.0
27
0.0
37
0.0
40
210.000000000000
41
1.42857142857143
42
1.0
43
0.0
44
0.0
50
0.0
51
0.0000000000007958
71
0
72
100
73
1
74
3
75
0
76
0
77
0
78
1
281
0
65
1
110
0.0
120
0.0
130
0.0
111
1.0
121
0.0
131
0.0
112
0.0
122
1.0
132
0.0
79
0
146
0.0
0
ENDTAB
0
TABLE
2
LTYPE
5
247
330
0
100
AcDbSymbolTable
70
25
0
LTYPE
5
256
330
247
100
AcDbSymbolTableRecord
100
AcDbLinetypeTableRecord
2
ByBlock
70
0
3

72
65
73
0
40
0.0
0
LTYPE
5
257
330
247
100
AcDbSymbolTableRecord
100
AcDbLinetypeTableRecord
2
ByLayer
70
0
3

72
65
73
0
40
0.0
0
LTYPE
5
258
330
247
100
AcDbSymbolTableRecord
100
AcDbLinetypeTableRecord
2
Continuous
70
0
3
Solid line
72
65
73
0
40
0.0
0
LTYPE
5
273
330
247
100
AcDbSymbolTableRecord
100
AcDbLinetypeTableRecord
2
CENTER
70
0
3
Center ____ _ ____ _ ____ _ ____ _ ____ _ ____
72
65
73
4
40
2.0
49
1.25
74
0
49
-0.25
74
0
49
0.25
74
0
49
-0.25
74
0
0
LTYPE
5
274
330
247
100
AcDbSymbolTableRecord
100
AcDbLinetypeTableRecord
2
DASHDOT
70
0
3
Dashdot __ . __ . __ . __ . __ . __ . __ . __
72
65
73
4
40
1.0
49
0.5
74
0
49
-0.25
74
0
49
0.0
74
0
49
-0.25
74
0
0
LTYPE
5
275
330
247
100
AcDbSymbolTableRecord
100
AcDbLinetypeTableRecord
2
DASHED
70
0
3
Dashed __ __ __ __ __ __ __ __ __ __ __ __ __ _
72
65
73
2
40
0.75
49
0.5
74
0
49
-0.25
74
0
0
LTYPE
5
276
330
247
100
AcDbSymbolTableRecord
100
AcDbLinetypeTableRecord
2
HIDDEN
70
0
3
Hidden __ __ __ __ __ __ __ __ __ __ __ __ __ __
72
65
73
2
40
0.375
49
0.25
74
0
49
-0.125
74
0
0
LTYPE
5
277
330
247
100
AcDbSymbolTableRecord
100
AcDbLinetypeTableRecord
2
HIDDEN2
70
0
3
Hidden2 _ _ _ _ _ _ _ _ _ _ _ _ _ _ _ _ _
72
65
73
2
40
0.1875
49
0.125
74
0
49
-0.0625
74
0
0
LTYPE
5
278
330
247
100
AcDbSymbolTableRecord
100
AcDbLinetypeTableRecord
2
BORDER
70
0
3
Border __ __ . __ __ . __ __ . __ __ . __ __ .
72
65
73
6
40
1.75
49
0.5
74
0
49
-0.25
74
0
49
0.5
74
0
49
-0.25
74
0
49
0.0
74
0
49
-0.25
74
0
0
LTYPE
5
279
330
247
100
AcDbSymbolTableRecord
100
AcDbLinetypeTableRecord
2
BORDER2
70
0
3
Border2 __.__.__.__.__.__.__.__.__.__.__.
72
65
73
6
40
0.875
49
0.25
74
0
49
-0.125
74
0
49
0.25
74
0
49
-0.125
74
0
49
0.0
74
0
49
-0.125
74
0
0
LTYPE
5
27A
330
247
100
AcDbSymbolTableRecord
100
AcDbLinetypeTableRecord
2
BORDERX2
70
0
3
Borderx2  ____  ____  .  ____  ____  .  ___
72
65
73
6
40
3.5
49
1.0
74
0
49
-0.5
74
0
49
1.0
74
0
49
-0.5
74
0
49
0.0
74
0
49
-0.5
74
0
0
LTYPE
5
27B
330
247
100
AcDbSymbolTableRecord
100
AcDbLinetypeTableRecord
2
CENTER2
70
0
3
Center2  ___ _ ___ _ ___ _ ___ _ ___ _ ___
72
65
73
4
40
1.125
49
0.75
74
0
49
-0.125
74
0
49
0.125
74
0
49
-0.125
74
0
0
LTYPE
5
27C
330
247
100
AcDbSymbolTableRecord
100
AcDbLinetypeTableRecord
2
CENTERX2
70
0
3
Centerx2  ________  __  ________  __  _____
72
65
73
4
40
4.0
49
2.5
74
0
49
-0.5
74
0
49
0.5
74
0
49
-0.5
74
0
0
LTYPE
5
27D
330
247
100
AcDbSymbolTableRecord
100
AcDbLinetypeTableRecord
2
DASHDOT2
70
0
3
Dashdot2  _._._._._._._._._._._._._._._.
72
65
73
4
40
0.5
49
0.25
74
0
49
-0.125
74
0
49
0.0
74
0
49
-0.125
74
0
0
LTYPE
5
27E
330
247
100
AcDbSymbolTableRecord
100
AcDbLinetypeTableRecord
2
DASHDOTX2
70
0
3
Dashdotx2 ____  .  ____  .  ____  .  ___
72
65
73
4
40
2.0
49
1.0
74
0
49
-0.5
74
0
49
0.0
74
0
49
-0.5
74
0
0
LTYPE
5
27F
330
247
100
AcDbSymbolTableRecord
100
AcDbLinetypeTableRecord
2
DASHED2
70
0
3
Dashed2 _ _ _ _ _ _ _ _ _ _ _ _ _ _ _ _ _
72
65
73
2
40
0.375
49
0.25
74
0
49
-0.125
74
0
0
LTYPE
5
280
330
247
100
AcDbSymbolTableRecord
100
AcDbLinetypeTableRecord
2
DASHEDX2
70
0
3
Dashedx2 ____  ____  ____  ____  ____  ___
72
65
73
2
40
1.5
49
1.0
74
0
49
-0.5
74
0
0
LTYPE
5
281
330
247
100
AcDbSymbolTableRecord
100
AcDbLinetypeTableRecord
2
DIVIDE
70
0
3
Divide ____ . . ____ . . ____ . . ____ . . ____
72
65
73
6
40
1.25
49
0.5
74
0
49
-0.25
74
0
49
0.0
74
0
49
-0.25
74
0
49
0.0
74
0
49
-0.25
74
0
0
LTYPE
5
282
330
247
100
AcDbSymbolTableRecord
100
AcDbLinetypeTableRecord
2
DIVIDE2
70
0
3
Divide2 __..__..__..__..__..__..__..__.._
72
65
73
6
40
0.625
49
0.25
74
0
49
-0.125
74
0
49
0.0
74
0
49
-0.125
74
0
49
0.0
74
0
49
-0.125
74
0
0
LTYPE
5
283
330
247
100
AcDbSymbolTableRecord
100
AcDbLinetypeTableRecord
2
DIVIDEX2
70
0
3
Dividex2 ________  .  .  ________  .  .  _
72
65
73
6
40
2.5
49
1.0
74
0
49
-0.5
74
0
49
0.0
74
0
49
-0.5
74
0
49
0.0
74
0
49
-0.5
74
0
0
LTYPE
5
284
330
247
100
AcDbSymbolTableRecord
100
AcDbLinetypeTableRecord
2
DOT
70
0
3
Dot . . . . . . . . . . . . . . . . . . . . . . . .
72
65
73
2
40
0.25
49
0.0
74
0
49
-0.25
74
0
0
LTYPE
5
285
330
247
100
AcDbSymbolTableRecord
100
AcDbLinetypeTableRecord
2
DOT2
70
0
3
Dot2 ........................................
72
65
73
2
40
0.125
49
0.0
74
0
49
-0.125
74
0
0
LTYPE
5
286
330
247
100
AcDbSymbolTableRecord
100
AcDbLinetypeTableRecord
2
DOTX2
70
0
3
Dotx2 .  .  .  .  .  .  .  .  .  .  .  .  .  .
72
65
73
2
40
0.5
49
0.0
74
0
49
-0.5
74
0
0
LTYPE
5
287
330
247
100
AcDbSymbolTableRecord
100
AcDbLinetypeTableRecord
2
HIDDENX2
70
0
3
Hiddenx2 ____ ____ ____ ____ ____ ____ ____
72
65
73
2
40
0.75
49
0.5
74
0
49
-0.25
74
0
0
LTYPE
5
288
330
247
100
AcDbSymbolTableRecord
100
AcDbLinetypeTableRecord
2
PHANTOM
70
0
3
Phantom ______  __  __  ______  __  __  ______
72
65
73
6
40
2.5
49
1.25
74
0
49
-0.25
74
0
49
0.25
74
0
49
-0.25
74
0
49
0.25
74
0
49
-0.25
74
0
0
LTYPE
5
289
330
247
100
AcDbSymbolTableRecord
100
AcDbLinetypeTableRecord
2
PHANTOM2
70
0
3
Phantom2 ___ _ _ ___ _ _ ___ _ _ ___ _ _
72
65
73
6
40
1.25
49
0.625
74
0
49
-0.125
74
0
49
0.125
74
0
49
-0.125
74
0
49
0.125
74
0
49
-0.125
74
0
0
LTYPE
5
28A
330
247
100
AcDbSymbolTableRecord
100
AcDbLinetypeTableRecord
2
PHANTOMX2
70
0
3
Phantomx2 ____________    ____    ____   _
72
65
73
6
40
5.0
49
2.5
74
0
49
-0.5
74
0
49
0.5
74
0
49
-0.5
74
0
49
0.5
74
0
49
-0.5
74
0
0
ENDTAB
0
TABLE
2
LAYER
5
244
330
0
100
AcDbSymbolTable
70
6
0
LAYER
5
252
330
244
100
AcDbSymbolTableRecord
100
AcDbLayerTableRecord
2
0
70
0
62
7
6
Continuous
370
0
390
251
0
LAYER
5
23F
330
244
100
AcDbSymbolTableRecord
100
AcDbLayerTableRecord
2
Bemassung
70
0
 62
   7
6
Continuous
370
0
390
251
0
LAYER
5
240
330
244
100
AcDbSymbolTableRecord
100
AcDbLayerTableRecord
2
Rahmen
70
0
 62
   7
6
Continuous
370
0
390
251
0
LAYER
5
241
330
244
100
AcDbSymbolTableRecord
100
AcDbLayerTableRecord
2
Geo
70
0
 62
   7
6
Continuous
370
0
390
251
0
LAYER
5
33A
330
244
100
AcDbSymbolTableRecord
100
AcDbLayerTableRecord
2
Defpoints
70
0
62
7
6
Continuous
290
0
370
-3
390
251
0
LAYER
5
57E
330
244
100
AcDbSymbolTableRecord
100
AcDbLayerTableRecord
2
Text
70
0
 62
   7
6
Continuous
370
0
390
251
1001
AcAecLayerStandard
1000

1000

0
ENDTAB
0
TABLE
2
STYLE
5
245
330
0
100
AcDbSymbolTable
70
2
0
STYLE
5
253
330
245
100
AcDbSymbolTableRecord
100
AcDbTextStyleTableRecord
2
Standard
70
0
40
0.0
41
1.0
50
0.0
71
0
42
0.2
3
Arial
4

1001
ACAD
1000
Arial
1071
0
0
STYLE
5
132
330
245
100
AcDbSymbolTableRecord
100
AcDbTextStyleTableRecord
2
Beschriftung
70
0
40
0.0
41
1.0
50
0.0
71
0
42
0.2
3
Arial
4

1001
ACAD
1000
Arial
1071
0
1001
AcadAnnotative
1000
AnnotativeData
1070
1
1070
1
0
ENDTAB
0
TABLE
2
VIEW
5
248
330
0
100
AcDbSymbolTable
70
0
0
ENDTAB
0
TABLE
2
UCS
5
249
330
0
100
AcDbSymbolTable
70
0
0
ENDTAB
0
TABLE
2
APPID
5
24B
330
0
100
AcDbSymbolTable
70
13
0
APPID
5
254
330
24B
100
AcDbSymbolTableRecord
100
AcDbRegAppTableRecord
2
ACAD
70
0
0
APPID
5
26C
330
24B
100
AcDbSymbolTableRecord
100
AcDbRegAppTableRecord
2
VD_INVISIBLE_NOT_FOR_READ
70
0
0
APPID
5
26D
330
24B
100
AcDbSymbolTableRecord
100
AcDbRegAppTableRecord
2
VD_TEMPHATCH
70
0
0
APPID
5
26E
330
24B
100
AcDbSymbolTableRecord
100
AcDbRegAppTableRecord
2
VDEXTRAPARAM
70
0
0
APPID
5
26F
330
24B
100
AcDbSymbolTableRecord
100
AcDbRegAppTableRecord
2
PE_URL
70
0
0
APPID
5
270
330
24B
100
AcDbSymbolTableRecord
100
AcDbRegAppTableRecord
2
VD_UNKNOWN
70
0
0
APPID
5
28F
330
24B
100
AcDbSymbolTableRecord
100
AcDbRegAppTableRecord
2
AcadAnnotative
70
0
0
APPID
5
290
330
24B
100
AcDbSymbolTableRecord
100
AcDbRegAppTableRecord
2
ACAD_DSTYLE_DIMJAG
70
0
0
APPID
5
291
330
24B
100
AcDbSymbolTableRecord
100
AcDbRegAppTableRecord
2
ACAD_DSTYLE_DIMTALN
70
0
0
APPID
5
293
330
24B
100
AcDbSymbolTableRecord
100
AcDbRegAppTableRecord
2
ACAD_PSEXT
70
0
0
APPID
5
42A
330
24B
100
AcDbSymbolTableRecord
100
AcDbRegAppTableRecord
2
ACAD_MLEADERVER
70
0
0
APPID
5
532
330
24B
100
AcDbSymbolTableRecord
100
AcDbRegAppTableRecord
2
ACAD_EXEMPT_FROM_CAD_STANDARDS
70
0
0
APPID
5
57F
330
24B
100
AcDbSymbolTableRecord
100
AcDbRegAppTableRecord
2
AcAecLayerStandard
70
0
0
ENDTAB
0
TABLE
2
DIMSTYLE
5
24C
330
0
100
AcDbSymbolTable
70
3
100
AcDbDimStyleTable
71
2
340
27
340
269
0
DIMSTYLE
105
269
330
24C
100
AcDbSymbolTableRecord
100
AcDbDimStyleTableRecord
2
Standard
70
0
172
1
174
1
288
1
340
253
342
23C
0
DIMSTYLE
105
137
330
24C
100
AcDbSymbolTableRecord
100
AcDbDimStyleTableRecord
2
Beschriftung
70
0
41
2.5
42
0.625
44
1.25
73
0
74
0
77
1
140
2.5
147
0.625
172
1
174
1
271
2
288
1
340
253
342
23C
1001
AcadAnnotative
1000
AnnotativeData
1070
1
1070
1
1001
ACAD_DSTYLE_DIMJAG
1070
388
1040
1.5
1001
ACAD_DSTYLE_DIMTALN
1070
392
1070
0
0
DIMSTYLE
105
27
102
{ACAD_REACTORS
330
F10017
330
F1001C
330
F10026
330
F1002B
330
F10003
330
F1000D
330
F10008
330
F10012
330
F10021
102
}
330
24C
100
AcDbSymbolTableRecord
100
AcDbDimStyleTableRecord
2
BEM-ISBE
70
0
41
2.5
42
0.625
44
1.25
48
0.000000001
71
1
73
0
74
0
77
1
140
2.5
144
1.00000000000000
146
0.5
147
0.625
171
 3
172
 1
179
 3
271
 3
272
 3
274
 3
340
253
342
23C
1001
ACAD_DSTYLE_DIMJAG
1070
388
1040
1.5
1001
ACAD_DSTYLE_DIMTALN
1070
392
1070
1
0
ENDTAB
0
TABLE
2
BLOCK_RECORD
5
243
330
0
100
AcDbSymbolTable
70
5
0
BLOCK_RECORD
5
261
330
243
100
AcDbSymbolTableRecord
100
AcDbBlockTableRecord
2
*Model_Space
340
FD0
0
BLOCK_RECORD
5
25D
330
243
100
AcDbSymbolTableRecord
100
AcDbBlockTableRecord
2
*Paper_Space
340
FD1
0
BLOCK_RECORD
5
265
330
243
100
AcDbSymbolTableRecord
100
AcDbBlockTableRecord
2
*Paper_Space0
340
0
0
BLOCK_RECORD
5
23C
330
243
100
AcDbSymbolTableRecord
100
AcDbBlockTableRecord
2
VDDIM_DEFAULT
340
0
102
{BLKREFS
102
}
0
BLOCK_RECORD
5
23E
330
243
100
AcDbSymbolTableRecord
100
AcDbBlockTableRecord
2
VDDIM_NONE
340
0
0
BLOCK_RECORD
5
F10016
330
243
100
AcDbSymbolTableRecord
100
AcDbBlockTableRecord
2
*D7
340
0
0
BLOCK_RECORD
5
F1001B
330
243
100
AcDbSymbolTableRecord
100
AcDbBlockTableRecord
2
*D8
340
0
0
BLOCK_RECORD
5
F10025
330
243
100
AcDbSymbolTableRecord
100
AcDbBlockTableRecord
2
*D10
340
0
0
BLOCK_RECORD
5
F1002A
330
243
100
AcDbSymbolTableRecord
100
AcDbBlockTableRecord
2
*D11
340
0
0
BLOCK_RECORD
5
F10002
330
243
100
AcDbSymbolTableRecord
100
AcDbBlockTableRecord
2
*D3
340
0
0
BLOCK_RECORD
5
F1000C
330
243
100
AcDbSymbolTableRecord
100
AcDbBlockTableRecord
2
*D5
340
0
0
BLOCK_RECORD
5
F10007
330
243
100
AcDbSymbolTableRecord
100
AcDbBlockTableRecord
2
*D4
340
0
0
BLOCK_RECORD
5
F10011
330
243
100
AcDbSymbolTableRecord
100
AcDbBlockTableRecord
2
*D6
340
0
0
BLOCK_RECORD
5
F10020
330
243
100
AcDbSymbolTableRecord
100
AcDbBlockTableRecord
2
*D9
340
0
0
ENDTAB
0
ENDSEC
0
SECTION
2
BLOCKS
0
BLOCK
5
262
330
261
100
AcDbEntity
8
0
100
AcDbBlockBegin
2
*Model_Space
70
0
10
0.0
20
0.0
30
0.0
3
*Model_Space
1

0
ENDBLK
5
263
330
261
100
AcDbEntity
8
0
100
AcDbBlockEnd
0
BLOCK
5
25E
330
25D
100
AcDbEntity
67
1
8
0
100
AcDbBlockBegin
2
*Paper_Space
70
0
10
0.0
20
0.0
30
0.0
3
*Paper_Space
1

0
ENDBLK
5
25F
330
25D
100
AcDbEntity
67
1
8
0
100
AcDbBlockEnd
0
BLOCK
5
266
330
265
100
AcDbEntity
8
0
100
AcDbBlockBegin
2
*Paper_Space0
70
0
10
0.0
20
0.0
30
0.0
3
*Paper_Space0
1

0
VIEWPORT
5
296
102
{ACAD_XDICTIONARY
360
58E
102
}
330
265
100
AcDbEntity
8
0
60
1
100
AcDbViewport
10
0.0
20
0.0
30
0.0
40
10.0
41
10.0
69
0
12
0.0
22
0.0
13
0.0
23
0.0
14
1.0
24
1.0
15
0.0
25
0.0
16
0.0
26
0.0
36
1.0
17
0.0
27
0.0
37
0.0
42
0.0
43
0.0
44
0.0
45
10.0
50
0.0
51
0.0000000000007958
72
100
90
163872
1

281
0
71
0
74
0
110
0.0
120
0.0
130
0.0
111
1.0
121
0.0
131
0.0
112
0.0
122
1.0
132
0.0
79
0
146
0.0
1001
VD_INVISIBLE_NOT_FOR_READ
1000
VD_INVISIBLE_NOT_FOR_READ
0
VIEWPORT
5
297
102
{ACAD_XDICTIONARY
360
590
102
}
330
265
100
AcDbEntity
8
0
60
1
100
AcDbViewport
10
0.0
20
0.0
30
0.0
40
10.0
41
10.0
69
0
12
0.0
22
0.0
13
0.0
23
0.0
14
1.0
24
1.0
15
0.0
25
0.0
16
0.0
26
0.0
36
1.0
17
0.0
27
0.0
37
0.0
42
0.0
43
0.0
44
0.0
45
10.0
50
0.0
51
0.0000000000007958
72
100
90
163872
1

281
0
71
0
74
0
110
0.0
120
0.0
130
0.0
111
1.0
121
0.0
131
0.0
112
0.0
122
1.0
132
0.0
79
0
146
0.0
1001
VD_INVISIBLE_NOT_FOR_READ
1000
VD_INVISIBLE_NOT_FOR_READ
0
ENDBLK
5
267
330
265
100
AcDbEntity
8
0
100
AcDbBlockEnd
0
BLOCK
5
28B
330
23C
100
AcDbEntity
8
0
100
AcDbBlockBegin
2
VDDIM_DEFAULT
70
0
10
0.0
20
0.0
30
0.0
3
VDDIM_DEFAULT
1

0
LWPOLYLINE
5
23D
330
23C
100
AcDbEntity
8
0
6
Continuous
62
0
100
AcDbPolyline
90
4
70
0
43
0.0
10
0.0
20
0.0
10
-1.0
20
-0.1665
10
-1.0
20
0.1665
10
0.0
20
0.0
1001
VDEXTRAPARAM
1071
1
1071
0
1071
0
1040
1.0
1000

1000

1040
0.0
1040
0.0
0
HATCH
5
292
330
23C
100
AcDbEntity
8
0
6
Continuous
62
0
100
AcDbHatch
10
0.0
20
0.0
30
0.0
210
0.0
220
0.0
230
1.0
2
SOLID
70
1
71
0
91
1
92
2
72
0
73
1
93
3
10
0.0
20
0.0
10
-1.0
20
-0.1665
10
-1.0
20
0.1665
97
0
75
0
76
1
98
1
10
0.0
20
0.0
1001
VDEXTRAPARAM
1071
1
1071
0
1071
0
1040
1.0
1000

1000

1040
0.0
1040
0.0
1001
VD_TEMPHATCH
1000
VD_TEMPHATCH
0
ENDBLK
5
28C
330
23C
100
AcDbEntity
8
0
100
AcDbBlockEnd
0
BLOCK
5
28D
330
23E
100
AcDbEntity
8
0
100
AcDbBlockBegin
2
VDDIM_NONE
70
0
10
0.0
20
0.0
30
0.0
3
VDDIM_NONE
1

0
ENDBLK
5
28E
330
23E
100
AcDbEntity
8
0
100
AcDbBlockEnd
  0
BLOCK
  5
F1002F
330
F10016
100
AcDbEntity
  8
0
100
AcDbBlockBegin
  2
*D7
 70
     1
 10
0.0
 20
0.0
 30
0.0
  3
*D7
  1

  0
LINE
  5
F10030
330
F10016
100
AcDbEntity
  8
Bemassung
 62
     0
370
    -2
100
AcDbLine
10
-99.1566125290019
20
-9.99535962877022
30
0.000000000000000
11
-99.1566125290019
21
29.0046403712298
31
0.000000000000000
  0
LINE
  5
F10031
330
F10016
100
AcDbEntity
  8
Bemassung
 62
     0
370
    -2
100
AcDbLine
10
-69.1566125290019
20
6.70464037122978
30
0.000000000000000
11
-69.1566125290019
21
19.0046403712298
31
0.000000000000000
  0
LINE
  5
F10032
330
F10016
100
AcDbEntity
  8
Bemassung
 62
     0
370
    -2
100
AcDbLine
10
-99.1566125290019
20
17.0046403712298
30
0.000000000000000
11
-53.3735498839907
21
17.0046403712298
31
0.000000000000000
  0
INSERT
  5
F10033
330
F10016
100
AcDbEntity
  8
Bemassung
 62
     0
370
    -2
100
AcDbBlockReference
  2
VDDIM_DEFAULT
10
-99.1566125290019
20
17.0046403712298
30
0.000000000000000
 41
2.50000000000000
 42
2.50000000000000
 43
2.50000000000000
 50
180.000000000000
  0
INSERT
  5
F10034
330
F10016
100
AcDbEntity
  8
Bemassung
 62
     0
370
    -2
100
AcDbBlockReference
  2
VDDIM_DEFAULT
10
-69.1566125290019
20
17.0046403712298
30
0.000000000000000
 41
2.50000000000000
 42
2.50000000000000
 43
2.50000000000000
  0
MTEXT
  5
F10035
330
F10016
100
AcDbEntity
  8
Bemassung
 62
     0
100
AcDbMText
10
-84.1566125290019
20
17.6713070378965
30
0.000000000000000
 40
2.50000000000000
 41
0.0
 71
     8
 72
     1
  1
30
 11
1.00000000000000
 21
0.000000000000000
 31
0.0
 73
     1
 44
1.0
1001
ACAD
1000
MTEXTBEGIN
1070
73
1070
1
1070
44
1040
1.0
1070
74
1070
0
1000
MTEXTEND
  0
POINT
  5
F10036
330
F10016
100
AcDbEntity
  8
Bemassung
 62
     0
100
AcDbPoint
10
-99.1566125290019
20
-9.99535962877022
30
0.000000000000000
  0
POINT
  5
F10037
330
F10016
100
AcDbEntity
  8
Bemassung
 62
     0
100
AcDbPoint
10
-69.1566125290019
20
6.70464037122978
30
0.000000000000000
  0
ENDBLK
  5
F10038
330
F10016
100
AcDbEntity
  8
0
100
AcDbBlockEnd
  0
BLOCK
  5
F10039
330
F1001B
100
AcDbEntity
  8
0
100
AcDbBlockBegin
  2
*D8
 70
     1
 10
0.0
 20
0.0
 30
0.0
  3
*D8
  1

  0
LINE
  5
F1003A
330
F1001B
100
AcDbEntity
  8
Bemassung
 62
     0
370
    -2
100
AcDbLine
10
-69.1566125290019
20
6.70464037122978
30
0.000000000000000
11
-69.1566125290019
21
24.0046403712298
31
0.000000000000000
  0
LINE
  5
F1003B
330
F1001B
100
AcDbEntity
  8
Bemassung
 62
     0
370
    -2
100
AcDbLine
10
-29.1566125290019
20
6.50464037122978
30
0.000000000000000
11
-29.1566125290019
21
29.0046403712298
31
0.000000000000000
  0
LINE
  5
F1003C
330
F1001B
100
AcDbEntity
  8
Bemassung
 62
     0
370
    -2
100
AcDbLine
10
-69.1566125290019
20
22.0046403712298
30
0.000000000000000
11
51.6194895591647
21
22.0046403712298
31
0.000000000000000
  0
INSERT
  5
F1003D
330
F1001B
100
AcDbEntity
  8
Bemassung
 62
     0
370
    -2
100
AcDbBlockReference
  2
VDDIM_DEFAULT
10
-69.1566125290019
20
22.0046403712298
30
0.000000000000000
 41
2.50000000000000
 42
2.50000000000000
 43
2.50000000000000
 50
180.000000000000
  0
INSERT
  5
F1003E
330
F1001B
100
AcDbEntity
  8
Bemassung
 62
     0
370
    -2
100
AcDbBlockReference
  2
VDDIM_DEFAULT
10
-29.1566125290019
20
22.0046403712298
30
0.000000000000000
 41
2.50000000000000
 42
2.50000000000000
 43
2.50000000000000
  0
MTEXT
  5
F1003F
330
F1001B
100
AcDbEntity
  8
Bemassung
 62
     0
100
AcDbMText
10
-49.1566125290019
20
22.6713070378965
30
0.000000000000000
 40
2.50000000000000
 41
0.0
 71
     8
 72
     1
  1
40
 11
1.00000000000000
 21
0.000000000000000
 31
0.0
 73
     1
 44
1.0
1001
ACAD
1000
MTEXTBEGIN
1070
73
1070
1
1070
44
1040
1.0
1070
74
1070
0
1000
MTEXTEND
  0
POINT
  5
F10040
330
F1001B
100
AcDbEntity
  8
Bemassung
 62
     0
100
AcDbPoint
10
-69.1566125290019
20
6.70464037122978
30
0.000000000000000
  0
POINT
  5
F10041
330
F1001B
100
AcDbEntity
  8
Bemassung
 62
     0
100
AcDbPoint
10
-29.1566125290019
20
6.50464037122978
30
0.000000000000000
  0
ENDBLK
  5
F10042
330
F1001B
100
AcDbEntity
  8
0
100
AcDbBlockEnd
  0
BLOCK
  5
F10043
330
F10025
100
AcDbEntity
  8
0
100
AcDbBlockBegin
  2
*D10
 70
     1
 10
0.0
 20
0.0
 30
0.0
  3
*D10
  1

  0
LINE
  5
F10044
330
F10025
100
AcDbEntity
  8
Bemassung
 62
     0
370
    -2
100
AcDbLine
10
-77.1566125290019
20
-2.69535962877022
30
0.000000000000000
11
-77.1566125290019
21
-9.99535962877022
31
0.000000000000000
  0
LINE
  5
F10045
330
F10025
100
AcDbEntity
  8
Bemassung
 62
     0
370
    -2
100
AcDbLine
10
-99.1566125290019
20
-9.99535962877022
30
0.000000000000000
11
-99.1566125290019
21
29.0046403712298
31
0.000000000000000
  0
LINE
  5
F10046
330
F10025
100
AcDbEntity
  8
Bemassung
 62
     0
370
    -2
100
AcDbLine
10
-65.4013921113689
20
-7.99535962877022
30
0.000000000000000
11
-99.1566125290019
21
-7.99535962877022
31
0.000000000000000
  0
INSERT
  5
F10047
330
F10025
100
AcDbEntity
  8
Bemassung
 62
     0
370
    -2
100
AcDbBlockReference
  2
VDDIM_DEFAULT
10
-77.1566125290019
20
-7.99535962877022
30
0.000000000000000
 41
2.50000000000000
 42
2.50000000000000
 43
2.50000000000000
  0
INSERT
  5
F10048
330
F10025
100
AcDbEntity
  8
Bemassung
 62
     0
370
    -2
100
AcDbBlockReference
  2
VDDIM_DEFAULT
10
-99.1566125290019
20
-7.99535962877022
30
0.000000000000000
 41
2.50000000000000
 42
2.50000000000000
 43
2.50000000000000
 50
180.000000000000
  0
MTEXT
  5
F10049
330
F10025
100
AcDbEntity
  8
Bemassung
 62
     0
100
AcDbMText
10
-88.1566125290019
20
-7.32869296210355
30
0.000000000000000
 40
2.50000000000000
 41
0.0
 71
     8
 72
     1
  1
22
 11
1.00000000000000
 21
0.000000000000000
 31
0.0
 73
     1
 44
1.0
1001
ACAD
1000
MTEXTBEGIN
1070
73
1070
1
1070
44
1040
1.0
1070
74
1070
0
1000
MTEXTEND
  0
POINT
  5
F1004A
330
F10025
100
AcDbEntity
  8
Bemassung
 62
     0
100
AcDbPoint
10
-77.1566125290019
20
-2.69535962877022
30
0.000000000000000
  0
POINT
  5
F1004B
330
F10025
100
AcDbEntity
  8
Bemassung
 62
     0
100
AcDbPoint
10
-99.1566125290019
20
-9.99535962877022
30
0.000000000000000
  0
ENDBLK
  5
F1004C
330
F10025
100
AcDbEntity
  8
0
100
AcDbBlockEnd
  0
BLOCK
  5
F1004D
330
F1002A
100
AcDbEntity
  8
0
100
AcDbBlockBegin
  2
*D11
 70
     1
 10
0.0
 20
0.0
 30
0.0
  3
*D11
  1

  0
LINE
  5
F1004E
330
F1002A
100
AcDbEntity
  8
Bemassung
 62
     0
370
    -2
100
AcDbLine
10
-29.1566125290019
20
6.50464037122978
30
0.000000000000000
11
-29.1566125290019
21
29.0046403712298
31
0.000000000000000
  0
LINE
  5
F1004F
330
F1002A
100
AcDbEntity
  8
Bemassung
 62
     0
370
    -2
100
AcDbLine
10
-99.1566125290019
20
-9.99535962877022
30
0.000000000000000
11
-99.1566125290019
21
29.0046403712298
31
0.000000000000000
  0
LINE
  5
F10050
330
F1002A
100
AcDbEntity
  8
Bemassung
 62
     0
370
    -2
100
AcDbLine
10
6.76566125290023
20
27.0046403712298
30
0.000000000000000
11
-99.1566125290019
21
27.0046403712298
31
0.000000000000000
  0
INSERT
  5
F10051
330
F1002A
100
AcDbEntity
  8
Bemassung
 62
     0
370
    -2
100
AcDbBlockReference
  2
VDDIM_DEFAULT
10
-29.1566125290019
20
27.0046403712298
30
0.000000000000000
 41
2.50000000000000
 42
2.50000000000000
 43
2.50000000000000
  0
INSERT
  5
F10052
330
F1002A
100
AcDbEntity
  8
Bemassung
 62
     0
370
    -2
100
AcDbBlockReference
  2
VDDIM_DEFAULT
10
-99.1566125290019
20
27.0046403712298
30
0.000000000000000
 41
2.50000000000000
 42
2.50000000000000
 43
2.50000000000000
 50
180.000000000000
  0
MTEXT
  5
F10053
330
F1002A
100
AcDbEntity
  8
Bemassung
 62
     0
100
AcDbMText
10
-64.1566125290019
20
27.6713070378965
30
0.000000000000000
 40
2.50000000000000
 41
0.0
 71
     8
 72
     1
  1
70
 11
1.00000000000000
 21
0.000000000000000
 31
0.0
 73
     1
 44
1.0
1001
ACAD
1000
MTEXTBEGIN
1070
73
1070
1
1070
44
1040
1.0
1070
74
1070
0
1000
MTEXTEND
  0
POINT
  5
F10054
330
F1002A
100
AcDbEntity
  8
Bemassung
 62
     0
100
AcDbPoint
10
-29.1566125290019
20
6.50464037122978
30
0.000000000000000
  0
POINT
  5
F10055
330
F1002A
100
AcDbEntity
  8
Bemassung
 62
     0
100
AcDbPoint
10
-99.1566125290019
20
-9.99535962877022
30
0.000000000000000
  0
ENDBLK
  5
F10056
330
F1002A
100
AcDbEntity
  8
0
100
AcDbBlockEnd
  0
BLOCK
  5
F10057
330
F10002
100
AcDbEntity
  8
0
100
AcDbBlockBegin
  2
*D3
 70
     1
 10
0.0
 20
0.0
 30
0.0
  3
*D3
  1

 0
ARC
  5
F10058
330
F10002
100
AcDbEntity
  8
Bemassung
 62
     0
370
   -2
100
AcDbCircle
10
-99.1564297771076
20
6.69417052221903
30
0.000000000000000
 40
13.3806233427542
100
AcDbArc
 50
90.0000000000000
 51
111.350457863959
  0
LINE
  5
F10059
330
F10002
100
AcDbEntity
  8
Bemassung
 62
     0
370
    -2
100
AcDbLine
10
-99.1564297771076
20
6.69417052221903
30
0.000000000000000
11
-99.1564297771076
21
22.0747938649732
31
0.000000000000000
  0
LINE
  5
F1005A
330
F10002
100
AcDbEntity
  8
Bemassung
 62
     0
370
    -2
100
AcDbLine
10
-99.1564297771076
20
6.69417052221903
30
0.000000000000000
11
-99.6932057907405
21
22.0654244048034
31
0.000000000000000
  0
INSERT
  5
F1005B
330
F10002
100
AcDbEntity
  8
Bemassung
 62
     0
370
    -2
100
AcDbBlockReference
  2
VDDIM_DEFAULT
10
-99.1564297771076
20
20.0747938649732
30
0.000000000000000
 41
2.50000000000000
 42
2.50000000000000
 43
2.50000000000000
 50
179.785899687237
  0
INSERT
  5
F1005C
330
F10002
100
AcDbEntity
  8
Bemassung
 62
     0
370
    -2
100
AcDbBlockReference
  2
VDDIM_DEFAULT
10
-99.6234067973355
20
20.0666427507652
30
0.000000000000000
 41
2.50000000000000
 42
2.50000000000000
 43
2.50000000000000
 50
2.21410031276606
  0
MTEXT
  5
F1005D
330
F10002
100
AcDbEntity
  8
Bemassung
 62
     0
100
AcDbMText
10
-105.746424349415
20
18.3394722605864
30
0.000000000000000
 40
2.50000000000000
 41
0.0
 71
     8
 72
     1
  1
2°
 11
0.867105542470769
 21
0.498124460568314
 31
0.0
 73
     1
 44
1.0
1001
ACAD
1000
MTEXTBEGIN
1070
73
1070
1
1070
44
1040
1.0
1070
74
1070
0
1000
MTEXTEND
  0
POINT
  5
F1005E
330
F10002
100
AcDbEntity
  8
Bemassung
 62
     0
100
AcDbPoint
10
-99.1564297771076
20
6.69417052221903
30
0.000000000000000
  0
POINT
  5
F1005F
330
F10002
100
AcDbEntity
  8
Bemassung
 62
     0
100
AcDbPoint
10
-99.1564297771076
20
20.0747938649732
30
0.000000000000000
  0
POINT
  5
F10060
330
F10002
100
AcDbEntity
  8
Bemassung
 62
     0
100
AcDbPoint
10
-99.6234067973355
20
20.0666427507652
30
0.000000000000000
  0
POINT
  5
F10061
330
F10002
100
AcDbEntity
  8
Bemassung
 62
     0
100
AcDbPoint
10
-99.3899538540696
20
20.0727559312276
30
0.000000000000000
  0
ENDBLK
  5
F10062
330
F10002
100
AcDbEntity
  8
0
100
AcDbBlockEnd
  0
BLOCK
  5
F10063
330
F1000C
100
AcDbEntity
  8
0
100
AcDbBlockBegin
  2
*D5
 70
     1
 10
0.0
 20
0.0
 30
0.0
  3
*D5
  1

  0
LINE
  5
F10064
330
F1000C
100
AcDbEntity
  8
Bemassung
 62
     0
370
    -2
100
AcDbLine
10
-99.0724144691035
20
6.91303788236748
30
0.000000000000000
11
-112.499622858801
21
19.8795423012936
31
0.000000000000000
  0
INSERT
  5
F10065
330
F1000C
100
AcDbEntity
  8
Bemassung
 62
     0
370
    -2
100
AcDbBlockReference
  2
VDDIM_DEFAULT
10
-99.0724144691035
20
6.91303788236748
30
0.000000000000000
 41
2.50000000000000
 42
2.50000000000000
 43
2.50000000000000
 50
316.000000000000
  0
MTEXT
  5
F10066
330
F1000C
100
AcDbEntity
  8
Bemassung
 62
     0
100
AcDbMText
10
-106.265812472490
20
13.8596215869574
30
0.000000000000000
 40
2.50000000000000
 41
0.0
 71
     8
 72
     1
  1
R0.3
 11
0.719339800338652
 21
-0.694658370458996
 31
0.0
 73
     1
 44
1.0
1001
ACAD
1000
MTEXTBEGIN
1070
73
1070
1
1070
44
1040
1.0
1070
74
1070
0
1000
MTEXTEND
  0
POINT
  5
F10067
330
F1000C
100
AcDbEntity
  8
Bemassung
 62
     0
100
AcDbPoint
10
-99.0724144691035
20
6.91303788236748
30
0.000000000000000
  0
POINT
  5
F10068
330
F1000C
100
AcDbEntity
  8
Bemassung
 62
     0
100
AcDbPoint
10
-98.8566125290019
20
6.70464037122978
30
0.000000000000000
  0
ENDBLK
  5
F10069
330
F1000C
100
AcDbEntity
  8
0
100
AcDbBlockEnd
  0
BLOCK
  5
F1006A
330
F10007
100
AcDbEntity
  8
0
100
AcDbBlockBegin
  2
*D4
 70
     1
 10
0.0
 20
0.0
 30
0.0
  3
*D4
  1

  0
LINE
  5
F1006B
330
F10007
100
AcDbEntity
  8
Bemassung
 62
     0
370
    -2
100
AcDbLine
10
-98.8566125290019
20
-2.99535962877022
30
0.000000000000000
11
-111.156612529002
21
-2.99535962877022
31
0.000000000000000
  0
LINE
  5
F1006C
330
F10007
100
AcDbEntity
  8
Bemassung
 62
     0
370
    -2
100
AcDbLine
10
-98.8566125290019
20
7.00464037122978
30
0.000000000000000
11
-111.156612529002
21
7.00464037122978
31
0.000000000000000
  0
LINE
  5
F1006D
330
F10007
100
AcDbEntity
  8
Bemassung
 62
     0
370
    -2
100
AcDbLine
10
-109.156612529002
20
-2.99535962877022
30
0.000000000000000
11
-109.156612529002
21
7.00464037122978
31
0.000000000000000
  0
INSERT
  5
F1006E
330
F10007
100
AcDbEntity
  8
Bemassung
 62
     0
370
    -2
100
AcDbBlockReference
  2
VDDIM_DEFAULT
10
-109.156612529002
20
-2.99535962877022
30
0.000000000000000
 41
2.50000000000000
 42
2.50000000000000
 43
2.50000000000000
 50
270.000000000000
  0
INSERT
  5
F1006F
330
F10007
100
AcDbEntity
  8
Bemassung
 62
     0
370
    -2
100
AcDbBlockReference
  2
VDDIM_DEFAULT
10
-109.156612529002
20
7.00464037122978
30
0.000000000000000
 41
2.50000000000000
 42
2.50000000000000
 43
2.50000000000000
 50
90.0000000000000
  0
MTEXT
  5
F10070
330
F10007
100
AcDbEntity
  8
Bemassung
 62
     0
100
AcDbMText
10
-108.489945862335
20
2.00464037122978
30
0.000000000000000
 40
2.50000000000000
 41
0.0
 71
     8
 72
     1
  1
10
 11
6.12323399573677e-017
 21
1.00000000000000
 31
0.0
 73
     1
 44
1.0
1001
ACAD
1000
MTEXTBEGIN
1070
73
1070
1
1070
44
1040
1.0
1070
74
1070
0
1000
MTEXTEND
  0
POINT
  5
F10071
330
F10007
100
AcDbEntity
  8
Bemassung
 62
     0
100
AcDbPoint
10
-98.8566125290019
20
-2.99535962877022
30
0.000000000000000
  0
POINT
  5
F10072
330
F10007
100
AcDbEntity
  8
Bemassung
 62
     0
100
AcDbPoint
10
-98.8566125290019
20
7.00464037122978
30
0.000000000000000
  0
ENDBLK
  5
F10073
330
F10007
100
AcDbEntity
  8
0
100
AcDbBlockEnd
  0
BLOCK
  5
F10074
330
F10011
100
AcDbEntity
  8
0
100
AcDbBlockBegin
  2
*D6
 70
     1
 10
0.0
 20
0.0
 30
0.0
  3
*D6
  1

  0
LINE
  5
F10075
330
F10011
100
AcDbEntity
  8
Bemassung
 62
     0
370
    -2
100
AcDbLine
10
-77.1566125290019
20
-2.69535962877022
30
0.000000000000000
11
-71.1566125290019
21
-2.69535962877022
31
0.000000000000000
  0
LINE
  5
F10076
330
F10011
100
AcDbEntity
  8
Bemassung
 62
     0
370
    -2
100
AcDbLine
10
-77.1566125290019
20
6.70464037122978
30
0.000000000000000
11
-71.1566125290019
21
6.70464037122978
31
0.000000000000000
  0
LINE
  5
F10077
330
F10011
100
AcDbEntity
  8
Bemassung
 62
     0
370
    -2
100
AcDbLine
10
-73.1566125290019
20
-31.5730858468677
30
0.000000000000000
11
-73.1566125290019
21
6.70464037122978
31
0.000000000000000
  0
INSERT
  5
F10078
330
F10011
100
AcDbEntity
  8
Bemassung
 62
     0
370
    -2
100
AcDbBlockReference
  2
VDDIM_DEFAULT
10
-73.1566125290019
20
-2.69535962877022
30
0.000000000000000
 41
2.50000000000000
 42
2.50000000000000
 43
2.50000000000000
 50
270.000000000000
  0
INSERT
  5
F10079
330
F10011
100
AcDbEntity
  8
Bemassung
 62
     0
370
    -2
100
AcDbBlockReference
  2
VDDIM_DEFAULT
10
-73.1566125290019
20
6.70464037122978
30
0.000000000000000
 41
2.50000000000000
 42
2.50000000000000
 43
2.50000000000000
 50
90.0000000000000
  0
MTEXT
  5
F1007A
330
F10011
100
AcDbEntity
  8
Bemassung
 62
     0
100
AcDbMText
10
-72.4899458623352
20
-7.93503480278416
30
0.000000000000000
 40
2.50000000000000
 41
0.0
 71
     8
 72
     1
  1
9.4
 11
6.12323399573677e-017
 21
1.00000000000000
 31
0.0
 73
     1
 44
1.0
1001
ACAD
1000
MTEXTBEGIN
1070
73
1070
1
1070
44
1040
1.0
1070
74
1070
0
1000
MTEXTEND
  0
POINT
  5
F1007B
330
F10011
100
AcDbEntity
  8
Bemassung
 62
     0
100
AcDbPoint
10
-77.1566125290019
20
-2.69535962877022
30
0.000000000000000
  0
POINT
  5
F1007C
330
F10011
100
AcDbEntity
  8
Bemassung
 62
     0
100
AcDbPoint
10
-77.1566125290019
20
6.70464037122978
30
0.000000000000000
  0
ENDBLK
  5
F1007D
330
F10011
100
AcDbEntity
  8
0
100
AcDbBlockEnd
  0
BLOCK
  5
F1007E
330
F10020
100
AcDbEntity
  8
0
100
AcDbBlockBegin
  2
*D9
 70
     1
 10
0.0
 20
0.0
 30
0.0
  3
*D9
  1

  0
LINE
  5
F1007F
330
F10020
100
AcDbEntity
  8
Bemassung
 62
     0
370
    -2
100
AcDbLine
10
-30.8232791956686
20
-2.99535962877022
30
0.000000000000000
11
-29.4899458623352
21
-2.99535962877022
31
0.000000000000000
  0
LINE
  5
F10080
330
F10020
100
AcDbEntity
  8
Bemassung
 62
     0
370
    -2
100
AcDbLine
10
-30.8232791956686
20
7.00464037122978
30
0.000000000000000
11
-29.4899458623352
21
7.00464037122978
31
0.000000000000000
  0
LINE
  5
F10081
330
F10020
100
AcDbEntity
  8
Bemassung
 62
     0
370
    -2
100
AcDbLine
10
-30.1566125290019
20
-2.99535962877022
30
0.000000000000000
11
-30.1566125290019
21
7.00464037122978
31
0.000000000000000
  0
INSERT
  5
F10082
330
F10020
100
AcDbEntity
  8
Bemassung
 62
     0
370
    -2
100
AcDbBlockReference
  2
VDDIM_DEFAULT
10
-30.1566125290019
20
-2.99535962877022
30
0.000000000000000
 41
2.50000000000000
 42
2.50000000000000
 43
2.50000000000000
 50
270.000000000000
  0
INSERT
  5
F10083
330
F10020
100
AcDbEntity
  8
Bemassung
 62
     0
370
    -2
100
AcDbBlockReference
  2
VDDIM_DEFAULT
10
-30.1566125290019
20
7.00464037122978
30
0.000000000000000
 41
2.50000000000000
 42
2.50000000000000
 43
2.50000000000000
 50
90.0000000000000
  0
MTEXT
  5
F10084
330
F10020
100
AcDbEntity
  8
Bemassung
 62
     0
100
AcDbMText
10
-29.4899458623353
20
2.00464037122978
30
0.000000000000000
 40
2.50000000000000
 41
0.0
 71
     8
 72
     1
  1
10h6
 11
6.12323399573677e-017
 21
1.00000000000000
 31
0.0
 73
     1
 44
1.0
  0
POINT
  5
F10085
330
F10020
100
AcDbEntity
  8
Bemassung
 62
     0
100
AcDbPoint
10
-30.8232791956686
20
-2.99535962877022
30
0.000000000000000
  0
POINT
  5
F10086
330
F10020
100
AcDbEntity
  8
Bemassung
 62
     0
100
AcDbPoint
10
-30.8232791956686
20
7.00464037122978
30
0.000000000000000
  0
ENDBLK
  5
F10087
330
F10020
100
AcDbEntity
  8
0
100
AcDbBlockEnd
0
ENDSEC
0
SECTION
2
ENTITIES
  0
DIMENSION
  5
F10017
330
261
100
AcDbEntity
  8
Bemassung
100
AcDbDimension
  2
*D7
10
-69.1566125290019
20
17.0046403712298
30
0.000000000000000
11
-84.1566125290019
21
17.6713070378965
31
0.000000000000000
 70
32
 1
30
 71
     8
  3
BEM-ISBE
100
AcDbAlignedDimension
13
-99.1566125290019
23
-9.99535962877022
33
0.000000000000000
14
-69.1566125290019
24
6.70464037122978
34
0.000000000000000
100
AcDbRotatedDimension
1001
ACAD
1000
DSTYLE
1002
{
1070
284
1070
8
1070
78
1070
8
1070
144
1040
1.00000000000000
1070
147
1040
0.625
1070
 72
1070
 0
1070
 71
1070
 0
1002
}
  0
DIMENSION
  5
F1001C
330
261
100
AcDbEntity
  8
Bemassung
100
AcDbDimension
  2
*D8
10
-29.1566125290019
20
22.0046403712298
30
0.000000000000000
11
-49.1566125290019
21
22.6713070378965
31
0.000000000000000
 70
32
 1
40
 71
     8
  3
BEM-ISBE
100
AcDbAlignedDimension
13
-69.1566125290019
23
6.70464037122978
33
0.000000000000000
14
-29.1566125290019
24
6.50464037122978
34
0.000000000000000
100
AcDbRotatedDimension
1001
ACAD
1000
DSTYLE
1002
{
1070
284
1070
8
1070
78
1070
8
1070
144
1040
1.00000000000000
1070
147
1040
0.625
1070
 72
1070
 0
1070
 71
1070
 0
1002
}
  0
DIMENSION
  5
F10026
330
261
100
AcDbEntity
  8
Bemassung
100
AcDbDimension
  2
*D10
10
-99.1566125290019
20
-7.99535962877022
30
0.000000000000000
11
-88.1566125290019
21
-7.32869296210355
31
0.000000000000000
 70
32
 1
22
 71
     8
  3
BEM-ISBE
100
AcDbAlignedDimension
13
-77.1566125290019
23
-2.69535962877022
33
0.000000000000000
14
-99.1566125290019
24
-9.99535962877022
34
0.000000000000000
100
AcDbRotatedDimension
1001
ACAD
1000
DSTYLE
1002
{
1070
284
1070
8
1070
78
1070
8
1070
144
1040
1.00000000000000
1070
147
1040
0.625
1070
 72
1070
 0
1070
 71
1070
 0
1002
}
  0
DIMENSION
  5
F1002B
330
261
100
AcDbEntity
  8
Bemassung
100
AcDbDimension
  2
*D11
10
-99.1566125290019
20
27.0046403712298
30
0.000000000000000
11
-64.1566125290019
21
27.6713070378965
31
0.000000000000000
 70
32
 1
70
 71
     8
  3
BEM-ISBE
100
AcDbAlignedDimension
13
-29.1566125290019
23
6.50464037122978
33
0.000000000000000
14
-99.1566125290019
24
-9.99535962877022
34
0.000000000000000
100
AcDbRotatedDimension
1001
ACAD
1000
DSTYLE
1002
{
1070
284
1070
8
1070
78
1070
8
1070
144
1040
1.00000000000000
1070
147
1040
0.625
1070
 72
1070
 0
1070
 71
1070
 0
1002
}
  0
DIMENSION
  5
F10003
330
261
100
AcDbEntity
  8
Bemassung
100
AcDbDimension
  2
*D3
10
-99.1564297771076
20
6.69417052221903
30
0.000000000000000
11
-105.746424349415
21
18.3394722605864
31
0.000000000000000
 70
34
 1
2°
 71
     8
  3
BEM-ISBE
100
AcDb2LineAngularDimension
13
-99.1564297771076
23
6.69417052221903
33
0.000000000000000
14
-104.027934577244
24
19.1564946242037
34
0.000000000000000
15
-99.1564297771076
25
20.0747938649732
35
0.000000000000000
16
-99.3899538540696
26
20.0727559312276
36
0.000000000000000
1001
ACAD
1000
DSTYLE
1002
{
1070
284
1070
8
1070
79
1070
2
1070
147
1040
0.625
1070
 72
1070
 0
1070
 71
1070
 0
1002
}
  0
DIMENSION
  5
F1000D
330
261
100
AcDbEntity
  8
Bemassung
100
AcDbDimension
  2
*D5
10
-98.8566125290019
20
6.70464037122978
30
0.000000000000000
11
-106.265812472490
21
13.8596215869574
31
0.000000000000000
 70
164
 1
R0.3
 71
     8
  3
BEM-ISBE
100
AcDbRadialDimension
15
-99.0724144691035
25
6.91303788236748
35
0.000000000000000
40
0.0
1001
ACAD
1000
DSTYLE
1002
{
1070
284
1070
8
1070
78
1070
8
1070
144
1040
1.00000000000000
1070
147
1040
0.625
1070
 72
1070
 0
1070
 71
1070
 0
1002
}
  0
DIMENSION
  5
F10008
330
261
100
AcDbEntity
  8
Bemassung
100
AcDbDimension
  2
*D4
10
-109.156612529002
20
7.00464037122978
30
0.000000000000000
11
-108.489945862335
21
2.00464037122978
31
0.000000000000000
 70
32
 1
10
 71
     8
  3
BEM-ISBE
100
AcDbAlignedDimension
13
-98.8566125290019
23
-2.99535962877022
33
0.000000000000000
14
-98.8566125290019
24
7.00464037122978
34
0.000000000000000
50
90.0000000000000
100
AcDbRotatedDimension
1001
ACAD
1000
DSTYLE
1002
{
1070
284
1070
8
1070
78
1070
8
1070
144
1040
1.00000000000000
1070
147
1040
0.625
1070
 72
1070
 0
1070
 71
1070
 0
1002
}
  0
DIMENSION
  5
F10012
330
261
100
AcDbEntity
  8
Bemassung
100
AcDbDimension
  2
*D6
10
-73.1566125290019
20
6.70464037122978
30
0.000000000000000
11
-72.4899458623352
21
-7.93503480278416
31
0.000000000000000
 70
32
 1
9.4
 71
     8
  3
BEM-ISBE
100
AcDbAlignedDimension
13
-77.1566125290019
23
-2.69535962877022
33
0.000000000000000
14
-77.1566125290019
24
6.70464037122978
34
0.000000000000000
50
90.0000000000000
100
AcDbRotatedDimension
1001
ACAD
1000
DSTYLE
1002
{
1070
284
1070
8
1070
78
1070
8
1070
144
1040
1.00000000000000
1070
147
1040
0.625
1070
 72
1070
 0
1070
 71
1070
 0
1002
}
  0
DIMENSION
  5
F10021
330
261
100
AcDbEntity
  8
Bemassung
100
AcDbDimension
  2
*D9
10
-30.1566125290019
20
7.00464037122978
30
0.000000000000000
11
-29.4899458623353
21
2.00464037122978
31
0.000000000000000
 70
32
 1
10h6
 71
     8
  3
BEM-ISBE
100
AcDbAlignedDimension
13
-30.8232791956686
23
-2.99535962877022
33
0.000000000000000
14
-30.8232791956686
24
7.00464037122978
34
0.000000000000000
50
90.0000000000000
100
AcDbRotatedDimension
1001
ACAD
1000
DSTYLE
1002
{
1070
284
1070
8
1070
78
1070
8
1070
144
1040
1.00000000000000
1070
147
1040
0.625
1070
 72
1070
 0
1070
 71
1070
 0
1002
}
  0
LINE
  5
F10088
330
F10089
100
AcDbEntity
8
Geo
100
AcDbLine
10
-98.9926677756803
20
2.00464037122978
30
0.000000000000000
11
-99.1564297771076
21
6.69417052221903
31
0.000000000000000
  0
ARC
  5
F1008A
330
F1008B
100
AcDbEntity
8
Geo
100
AcDbCircle
10
-98.8566125290019
20
6.70464037122978
30
0.000000000000000
 40
0.300000000000001
100
AcDbArc
 50
90.0000000000000
 51
182.000000000000
  0
LINE
  5
F1008C
330
F1008D
100
AcDbEntity
8
Geo
100
AcDbLine
10
-98.8566125290019
20
7.00464037122978
30
0.000000000000000
11
-77.1566125290019
21
7.00464037122978
31
0.000000000000000
  0
LINE
  5
F1008E
330
F1008F
100
AcDbEntity
8
Geo
100
AcDbLine
10
-77.1566125290019
20
7.00464037122978
30
0.000000000000000
11
-77.1566125290019
21
6.70464037122978
31
0.000000000000000
  0
LINE
  5
F10090
330
F10091
100
AcDbEntity
8
Geo
100
AcDbLine
10
-77.1566125290019
20
6.70464037122978
30
0.000000000000000
11
-69.1566125290019
21
6.70464037122978
31
0.000000000000000
  0
LINE
  5
F10092
330
F10093
100
AcDbEntity
8
Geo
100
AcDbLine
10
-69.1566125290019
20
6.70464037122978
30
0.000000000000000
11
-69.1566125290019
21
7.00464037122978
31
0.000000000000000
  0
LINE
  5
F10094
330
F10095
100
AcDbEntity
8
Geo
100
AcDbLine
10
-69.1566125290019
20
7.00464037122978
30
0.000000000000000
11
-29.6566125290019
21
7.00464037122978
31
0.000000000000000
  0
LINE
  5
F10096
330
F10097
100
AcDbEntity
8
Geo
100
AcDbLine
10
-29.6566125290019
20
7.00464037122978
30
0.000000000000000
11
-29.1566125290019
21
6.50464037122978
31
0.000000000000000
  0
LINE
  5
F10098
330
F10099
100
AcDbEntity
8
Geo
100
AcDbLine
10
-95.9566125290019
20
7.00308338641421
30
0.000000000000000
11
-95.8566125290019
21
7.00418248708003
31
0.000000000000000
  0
LINE
  5
F1009A
330
F1009B
100
AcDbEntity
8
Geo
100
AcDbLine
10
-95.8566125290019
20
7.00418248708003
30
0.000000000000000
11
-95.7566125290019
21
6.99787577305117
31
0.000000000000000
  0
LINE
  5
F1009C
330
F1009D
100
AcDbEntity
8
Geo
100
AcDbLine
10
-95.7566125290019
20
6.99787577305117
30
0.000000000000000
11
-95.6566125290019
21
6.98417258645425
31
0.000000000000000
  0
LINE
  5
F1009E
330
F1009F
100
AcDbEntity
8
Geo
100
AcDbLine
10
-95.6566125290019
20
6.98417258645425
30
0.000000000000000
11
-95.5566125290019
21
6.96309322580025
31
0.000000000000000
  0
LINE
  5
F100A0
330
F100A1
100
AcDbEntity
8
Geo
100
AcDbLine
10
-95.5566125290019
20
6.96309322580025
30
0.000000000000000
11
-95.4566125290019
21
6.93466891591644
31
0.000000000000000
  0
LINE
  5
F100A2
330
F100A3
100
AcDbEntity
8
Geo
100
AcDbLine
10
-95.4566125290019
20
6.93466891591644
30
0.000000000000000
11
-95.3566125290019
21
6.89894176169302
31
0.000000000000000
  0
LINE
  5
F100A4
330
F100A5
100
AcDbEntity
8
Geo
100
AcDbLine
10
-95.3566125290019
20
6.89894176169302
30
0.000000000000000
11
-95.2566125290019
21
6.85596468571320
31
0.000000000000000
  0
LINE
  5
F100A6
330
F100A7
100
AcDbEntity
8
Geo
100
AcDbLine
10
-95.2566125290019
20
6.85596468571320
30
0.000000000000000
11
-95.1566125290019
21
6.80580134985911
31
0.000000000000000
  0
LINE
  5
F100A8
330
F100A9
100
AcDbEntity
8
Geo
100
AcDbLine
10
-95.1566125290019
20
6.80580134985911
30
0.000000000000000
11
-95.0566125290019
21
6.74852606100951
31
0.000000000000000
  0
LINE
  5
F100AA
330
F100AB
100
AcDbEntity
8
Geo
100
AcDbLine
10
-95.0566125290019
20
6.74852606100951
30
0.000000000000000
11
-94.9566125290019
21
6.68422366096909
31
0.000000000000000
  0
LINE
  5
F100AC
330
F100AD
100
AcDbEntity
8
Geo
100
AcDbLine
10
-94.9566125290019
20
6.68422366096909
30
0.000000000000000
11
-94.8566125290019
21
6.61298940079246
31
0.000000000000000
  0
LINE
  5
F100AE
330
F100AF
100
AcDbEntity
8
Geo
100
AcDbLine
10
-94.8566125290019
20
6.61298940079246
30
0.000000000000000
11
-94.7566125290019
21
6.53492879968891
31
0.000000000000000
  0
LINE
  5
F100B0
330
F100B1
100
AcDbEntity
8
Geo
100
AcDbLine
10
-94.7566125290019
20
6.53492879968891
30
0.000000000000000
11
-94.6566125290019
21
6.45015748871690
31
0.000000000000000
  0
LINE
  5
F100B2
330
F100B3
100
AcDbEntity
8
Geo
100
AcDbLine
10
-94.6566125290019
20
6.45015748871690
30
0.000000000000000
11
-94.5566125290019
21
6.35880103949997
31
0.000000000000000
  0
LINE
  5
F100B4
330
F100B5
100
AcDbEntity
8
Geo
100
AcDbLine
10
-94.5566125290019
20
6.35880103949997
30
0.000000000000000
11
-94.4566125290019
21
6.26099477821769
31
0.000000000000000
  0
LINE
  5
F100B6
330
F100B7
100
AcDbEntity
8
Geo
100
AcDbLine
10
-94.4566125290019
20
6.26099477821769
30
0.000000000000000
11
-94.3566125290019
21
6.15688358514714
31
0.000000000000000
  0
LINE
  5
F100B8
330
F100B9
100
AcDbEntity
8
Geo
100
AcDbLine
10
-94.3566125290019
20
6.15688358514714
30
0.000000000000000
11
-94.2566125290019
21
6.04662168005197
31
0.000000000000000
  0
LINE
  5
F100BA
330
F100BB
100
AcDbEntity
8
Geo
100
AcDbLine
10
-94.2566125290019
20
6.04662168005197
30
0.000000000000000
11
-94.1566125290019
21
5.93037239373692
31
0.000000000000000
  0
LINE
  5
F100BC
330
F100BD
100
AcDbEntity
8
Geo
100
AcDbLine
10
-94.1566125290019
20
5.93037239373692
30
0.000000000000000
11
-94.0566125290019
21
5.80830792610606
31
0.000000000000000
  0
LINE
  5
F100BE
330
F100BF
100
AcDbEntity
8
Geo
100
AcDbLine
10
-94.0566125290019
20
5.80830792610606
30
0.000000000000000
11
-93.9566125290019
21
5.68060909108339
31
0.000000000000000
  0
LINE
  5
F100C0
330
F100C1
100
AcDbEntity
8
Geo
100
AcDbLine
10
-93.9566125290019
20
5.68060909108339
30
0.000000000000000
11
-93.8566125290019
21
5.54746504877336
31
0.000000000000000
  0
LINE
  5
F100C2
330
F100C3
100
AcDbEntity
8
Geo
100
AcDbLine
10
-93.8566125290019
20
5.54746504877336
30
0.000000000000000
11
-93.7566125290019
21
5.40907302525832
31
0.000000000000000
  0
LINE
  5
F100C4
330
F100C5
100
AcDbEntity
8
Geo
100
AcDbLine
10
-93.7566125290019
20
5.40907302525832
30
0.000000000000000
11
-93.6566125290019
21
5.26563802044779
31
0.000000000000000
  0
LINE
  5
F100C6
330
F100C7
100
AcDbEntity
8
Geo
100
AcDbLine
10
-93.6566125290019
20
5.26563802044779
30
0.000000000000000
11
-93.5566125290019
21
5.11737250441238
31
0.000000000000000
  0
LINE
  5
F100C8
330
F100C9
100
AcDbEntity
8
Geo
100
AcDbLine
10
-93.5566125290019
20
5.11737250441238
30
0.000000000000000
11
-93.4566125290019
21
4.96449610265216
31
0.000000000000000
  0
LINE
  5
F100CA
330
F100CB
100
AcDbEntity
8
Geo
100
AcDbLine
10
-93.4566125290019
20
4.96449610265216
30
0.000000000000000
11
-93.3566125290019
21
4.80723527076576
31
0.000000000000000
  0
LINE
  5
F100CC
330
F100CD
100
AcDbEntity
8
Geo
100
AcDbLine
10
-93.3566125290019
20
4.80723527076576
30
0.000000000000000
11
-93.2566125290019
21
4.64582295900194
31
0.000000000000000
  0
LINE
  5
F100CE
330
F100CF
100
AcDbEntity
8
Geo
100
AcDbLine
10
-93.2566125290019
20
4.64582295900194
30
0.000000000000000
11
-93.1566125290019
21
4.48049826719080
31
0.000000000000000
  0
LINE
  5
F100D0
330
F100D1
100
AcDbEntity
8
Geo
100
AcDbLine
10
-93.1566125290019
20
4.48049826719080
30
0.000000000000000
11
-93.0566125290019
21
4.31150609056545
31
0.000000000000000
  0
LINE
  5
F100D2
330
F100D3
100
AcDbEntity
8
Geo
100
AcDbLine
10
-93.0566125290019
20
4.31150609056545
30
0.000000000000000
11
-92.9566125290019
21
4.13909675699911
31
0.000000000000000
  0
LINE
  5
F100D4
330
F100D5
100
AcDbEntity
8
Geo
100
AcDbLine
10
-92.9566125290019
20
4.13909675699911
30
0.000000000000000
11
-92.8566125290019
21
3.96352565619479
31
0.000000000000000
  0
LINE
  5
F100D6
330
F100D7
100
AcDbEntity
8
Geo
100
AcDbLine
10
-92.8566125290019
20
3.96352565619479
30
0.000000000000000
11
-92.7566125290019
21
3.78505286137680
31
0.000000000000000
  0
LINE
  5
F100D8
330
F100D9
100
AcDbEntity
8
Geo
100
AcDbLine
10
-92.7566125290019
20
3.78505286137680
30
0.000000000000000
11
-92.6566125290019
21
3.60394274404476
31
0.000000000000000
  0
LINE
  5
F100DA
330
F100DB
100
AcDbEntity
8
Geo
100
AcDbLine
10
-92.6566125290019
20
3.60394274404476
30
0.000000000000000
11
-92.5566125290019
21
3.42046358236038
31
0.000000000000000
  0
LINE
  5
F100DC
330
F100DD
100
AcDbEntity
8
Geo
100
AcDbLine
10
-92.5566125290019
20
3.42046358236038
30
0.000000000000000
11
-92.4566125290019
21
3.23488716374744
31
0.000000000000000
  0
LINE
  5
F100DE
330
F100DF
100
AcDbEntity
8
Geo
100
AcDbLine
10
-92.4566125290019
20
3.23488716374744
30
0.000000000000000
11
-92.3566125290019
21
3.04748838229348
31
0.000000000000000
  0
LINE
  5
F100E0
330
F100E1
100
AcDbEntity
8
Geo
100
AcDbLine
10
-92.3566125290019
20
3.04748838229348
30
0.000000000000000
11
-92.2566125290019
21
2.85854483154951
31
0.000000000000000
  0
LINE
  5
F100E2
330
F100E3
100
AcDbEntity
8
Geo
100
AcDbLine
10
-92.2566125290019
20
2.85854483154951
30
0.000000000000000
11
-92.1566125290019
21
2.66833639333113
31
0.000000000000000
  0
LINE
  5
F100E4
330
F100E5
100
AcDbEntity
8
Geo
100
AcDbLine
10
-92.1566125290019
20
2.66833639333113
30
0.000000000000000
11
-92.0566125290019
21
2.47714482312999
31
0.000000000000000
  0
LINE
  5
F100E6
330
F100E7
100
AcDbEntity
8
Geo
100
AcDbLine
10
-92.0566125290019
20
2.47714482312999
30
0.000000000000000
11
-91.9566125290019
21
2.28525333274974
31
0.000000000000000
  0
LINE
  5
F100E8
330
F100E9
100
AcDbEntity
8
Geo
100
AcDbLine
10
-91.9566125290019
20
2.28525333274974
30
0.000000000000000
11
-91.8566125290019
21
2.09294617078482
31
0.000000000000000
  0
LINE
  5
F100EA
330
F100EB
100
AcDbEntity
8
Geo
100
AcDbLine
10
-91.8566125290019
20
2.09294617078482
30
0.000000000000000
11
-91.7566125290019
21
1.90050820156339
31
0.000000000000000
  0
LINE
  5
F100EC
330
F100ED
100
AcDbEntity
8
Geo
100
AcDbLine
10
-91.7566125290019
20
1.90050820156339
30
0.000000000000000
11
-91.6566125290019
21
1.70822448317822
31
0.000000000000000
  0
LINE
  5
F100EE
330
F100EF
100
AcDbEntity
8
Geo
100
AcDbLine
10
-91.6566125290019
20
1.70822448317822
30
0.000000000000000
11
-91.5566125290019
21
1.51637984523054
31
0.000000000000000
  0
LINE
  5
F100F0
330
F100F1
100
AcDbEntity
8
Geo
100
AcDbLine
10
-91.5566125290019
20
1.51637984523054
30
0.000000000000000
11
-91.4566125290019
21
1.32525846691234
31
0.000000000000000
  0
LINE
  5
F100F2
330
F100F3
100
AcDbEntity
8
Geo
100
AcDbLine
10
-91.4566125290019
20
1.32525846691234
30
0.000000000000000
11
-91.3566125290019
21
1.13514345605214
31
0.000000000000000
  0
LINE
  5
F100F4
330
F100F5
100
AcDbEntity
8
Geo
100
AcDbLine
10
-91.3566125290019
20
1.13514345605214
30
0.000000000000000
11
-91.2566125290019
21
0.946316429747763
31
0.000000000000000
  0
LINE
  5
F100F6
330
F100F7
100
AcDbEntity
8
Geo
100
AcDbLine
10
-91.2566125290019
20
0.946316429747763
30
0.000000000000000
11
-91.1566125290019
21
0.759057097207323
31
0.000000000000000
  0
LINE
  5
F100F8
330
F100F9
100
AcDbEntity
8
Geo
100
AcDbLine
10
-91.1566125290019
20
0.759057097207323
30
0.000000000000000
11
-91.0566125290019
21
0.573642845416370
31
0.000000000000000
  0
LINE
  5
F100FA
330
F100FB
100
AcDbEntity
8
Geo
100
AcDbLine
10
-91.0566125290019
20
0.573642845416370
30
0.000000000000000
11
-90.9566125290019
21
0.390348328244934
31
0.000000000000000
  0
LINE
  5
F100FC
330
F100FD
100
AcDbEntity
8
Geo
100
AcDbLine
10
-90.9566125290019
20
0.390348328244934
30
0.000000000000000
11
-90.8566125290019
21
0.209445059603149
31
0.000000000000000
  0
LINE
  5
F100FE
330
F100FF
100
AcDbEntity
8
Geo
100
AcDbLine
10
-90.8566125290019
20
0.209445059603149
30
0.000000000000000
11
-90.7566125290019
21
0.0312010112480607
31
0.000000000000000
  0
LINE
  5
F10100
330
F10101
100
AcDbEntity
8
Geo
100
AcDbLine
10
-90.7566125290019
20
0.0312010112480607
30
0.000000000000000
11
-90.6566125290019
21
-0.144119784162548
31
0.000000000000000
  0
LINE
  5
F10102
330
F10103
100
AcDbEntity
8
Geo
100
AcDbLine
10
-90.6566125290019
20
-0.144119784162548
30
0.000000000000000
11
-90.5566125290019
21
-0.316257624181364
31
0.000000000000000
  0
LINE
  5
F10104
330
F10105
100
AcDbEntity
8
Geo
100
AcDbLine
10
-90.5566125290019
20
-0.316257624181364
30
0.000000000000000
11
-90.4566125290019
21
-0.484957521268413
31
0.000000000000000
  0
LINE
  5
F10106
330
F10107
100
AcDbEntity
8
Geo
100
AcDbLine
10
-90.4566125290019
20
-0.484957521268413
30
0.000000000000000
11
-90.3566125290019
21
-0.649969580503739
31
0.000000000000000
  0
LINE
  5
F10108
330
F10109
100
AcDbEntity
8
Geo
100
AcDbLine
10
-90.3566125290019
20
-0.649969580503739
30
0.000000000000000
11
-90.2566125290019
21
-0.811049369756408
31
0.000000000000000
  0
LINE
  5
F1010A
330
F1010B
100
AcDbEntity
8
Geo
100
AcDbLine
10
-90.2566125290019
20
-0.811049369756408
30
0.000000000000000
11
-90.1566125290019
21
-0.967958281761470
31
0.000000000000000
  0
LINE
  5
F1010C
330
F1010D
100
AcDbEntity
8
Geo
100
AcDbLine
10
-90.1566125290019
20
-0.967958281761470
30
0.000000000000000
11
-90.0566125290019
21
-1.12046388756857
31
0.000000000000000
  0
LINE
  5
F1010E
330
F1010F
100
AcDbEntity
8
Geo
100
AcDbLine
10
-90.0566125290019
20
-1.12046388756857
30
0.000000000000000
11
-89.9566125290019
21
-1.26834028083862
31
0.000000000000000
  0
LINE
  5
F10110
330
F10111
100
AcDbEntity
8
Geo
100
AcDbLine
10
-89.9566125290019
20
-1.26834028083862
30
0.000000000000000
11
-89.8566125290019
21
-1.41136841247854
31
0.000000000000000
  0
LINE
  5
F10112
330
F10113
100
AcDbEntity
8
Geo
100
AcDbLine
10
-89.8566125290019
20
-1.41136841247854
30
0.000000000000000
11
-89.7566125290019
21
-1.54933641511838
31
0.000000000000000
  0
LINE
  5
F10114
330
F10115
100
AcDbEntity
8
Geo
100
AcDbLine
10
-89.7566125290019
20
-1.54933641511838
30
0.000000000000000
11
-89.6566125290019
21
-1.68203991695014
31
0.000000000000000
  0
LINE
  5
F10116
330
F10117
100
AcDbEntity
8
Geo
100
AcDbLine
10
-89.6566125290019
20
-1.68203991695014
30
0.000000000000000
11
-89.5566125290019
21
-1.80928234446348
31
0.000000000000000
  0
LINE
  5
F10118
330
F10119
100
AcDbEntity
8
Geo
100
AcDbLine
10
-89.5566125290019
20
-1.80928234446348
30
0.000000000000000
11
-89.4566125290019
21
-1.93087521362972
31
0.000000000000000
  0
LINE
  5
F1011A
330
F1011B
100
AcDbEntity
8
Geo
100
AcDbLine
10
-89.4566125290019
20
-1.93087521362972
30
0.000000000000000
11
-89.3566125290019
21
-2.04663840910303
31
0.000000000000000
  0
LINE
  5
F1011C
330
F1011D
100
AcDbEntity
8
Geo
100
AcDbLine
10
-89.3566125290019
20
-2.04663840910303
30
0.000000000000000
11
-89.2566125290019
21
-2.15640045102499
31
0.000000000000000
  0
LINE
  5
F1011E
330
F1011F
100
AcDbEntity
8
Geo
100
AcDbLine
10
-89.2566125290019
20
-2.15640045102499
30
0.000000000000000
11
-89.1566125290019
21
-2.25999874903750
31
0.000000000000000
  0
LINE
  5
F10120
330
F10121
100
AcDbEntity
8
Geo
100
AcDbLine
10
-89.1566125290019
20
-2.25999874903750
30
0.000000000000000
11
-89.0566125290019
21
-2.35727984312763
31
0.000000000000000
  0
LINE
  5
F10122
330
F10123
100
AcDbEntity
8
Geo
100
AcDbLine
10
-89.0566125290019
20
-2.35727984312763
30
0.000000000000000
11
-88.9566125290019
21
-2.44809963094771
31
0.000000000000000
  0
LINE
  5
F10124
330
F10125
100
AcDbEntity
8
Geo
100
AcDbLine
10
-88.9566125290019
20
-2.44809963094771
30
0.000000000000000
11
-88.8566125290019
21
-2.53232358127396
31
0.000000000000000
  0
LINE
  5
F10126
330
F10127
100
AcDbEntity
8
Geo
100
AcDbLine
10
-88.8566125290019
20
-2.53232358127396
30
0.000000000000000
11
-88.7566125290019
21
-2.60982693328739
31
0.000000000000000
  0
LINE
  5
F10128
330
F10129
100
AcDbEntity
8
Geo
100
AcDbLine
10
-88.7566125290019
20
-2.60982693328739
30
0.000000000000000
11
-88.6566125290019
21
-2.68049488138181
31
0.000000000000000
  0
LINE
  5
F1012A
330
F1012B
100
AcDbEntity
8
Geo
100
AcDbLine
10
-88.6566125290019
20
-2.68049488138181
30
0.000000000000000
11
-88.5566125290019
21
-2.74422274522525
31
0.000000000000000
  0
LINE
  5
F1012C
330
F1012D
100
AcDbEntity
8
Geo
100
AcDbLine
10
-88.5566125290019
20
-2.74422274522525
30
0.000000000000000
11
-88.4566125290019
21
-2.80091612482275
31
0.000000000000000
  0
LINE
  5
F1012E
330
F1012F
100
AcDbEntity
8
Geo
100
AcDbLine
10
-88.4566125290019
20
-2.80091612482275
30
0.000000000000000
11
-88.3566125290019
21
-2.85049104035096
31
0.000000000000000
  0
LINE
  5
F10130
330
F10131
100
AcDbEntity
8
Geo
100
AcDbLine
10
-88.3566125290019
20
-2.85049104035096
30
0.000000000000000
11
-88.2566125290019
21
-2.89287405655733
31
0.000000000000000
  0
LINE
  5
F10132
330
F10133
100
AcDbEntity
8
Geo
100
AcDbLine
10
-88.2566125290019
20
-2.89287405655733
30
0.000000000000000
11
-88.1566125290019
21
-2.92800239153965
31
0.000000000000000
  0
LINE
  5
F10134
330
F10135
100
AcDbEntity
8
Geo
100
AcDbLine
10
-88.1566125290019
20
-2.92800239153965
30
0.000000000000000
11
-88.0566125290019
21
-2.95582400974479
31
0.000000000000000
  0
LINE
  5
F10136
330
F10137
100
AcDbEntity
8
Geo
100
AcDbLine
10
-88.0566125290019
20
-2.95582400974479
30
0.000000000000000
11
-87.9566125290019
21
-2.97629769904889
31
0.000000000000000
  0
LINE
  5
F10138
330
F10139
100
AcDbEntity
8
Geo
100
AcDbLine
10
-87.9566125290019
20
-2.97629769904889
30
0.000000000000000
11
-87.8566125290020
21
-2.98939313180480
31
0.000000000000000
  0
LINE
  5
F1013A
330
F1013B
100
AcDbEntity
8
Geo
100
AcDbLine
10
-87.8566125290020
20
-2.98939313180480
30
0.000000000000000
11
-87.7566125290019
21
-2.99509090976645
31
0.000000000000000
  0
LINE
  5
F1013C
330
F1013D
100
AcDbEntity
8
Geo
100
AcDbLine
10
-78.8566125290019
20
7.00464037122978
30
0.000000000000000
11
-78.7566125290019
21
7.00464036160376
31
0.000000000000000
  0
LINE
  5
F1013E
330
F1013F
100
AcDbEntity
8
Geo
100
AcDbLine
10
-78.7566125290019
20
7.00464036160376
30
0.000000000000000
11
-78.6566125290019
21
7.00409757561998
31
0.000000000000000
  0
LINE
  5
F10140
330
F10141
100
AcDbEntity
8
Geo
100
AcDbLine
10
-78.6566125290019
20
7.00409757561998
30
0.000000000000000
11
-78.5566125290019
21
7.00259966756143
31
0.000000000000000
  0
LINE
  5
F10142
330
F10143
100
AcDbEntity
8
Geo
100
AcDbLine
10
-78.5566125290019
20
7.00259966756143
30
0.000000000000000
11
-78.4566125290019
21
7.00032048015323
31
0.000000000000000
  0
LINE
  5
F10144
330
F10145
100
AcDbEntity
8
Geo
100
AcDbLine
10
-78.4566125290019
20
7.00032048015323
30
0.000000000000000
11
-78.3566125290019
21
6.99742340267735
31
0.000000000000000
  0
LINE
  5
F10146
330
F10147
100
AcDbEntity
8
Geo
100
AcDbLine
10
-78.3566125290019
20
6.99742340267735
30
0.000000000000000
11
-78.2566125290019
21
6.99406130223787
31
0.000000000000000
  0
LINE
  5
F10148
330
F10149
100
AcDbEntity
8
Geo
100
AcDbLine
10
-78.2566125290019
20
6.99406130223787
30
0.000000000000000
11
-78.1566125290019
21
6.99037647820869
31
0.000000000000000
  0
LINE
  5
F1014A
330
F1014B
100
AcDbEntity
8
Geo
100
AcDbLine
10
-78.1566125290019
20
6.99037647820869
30
0.000000000000000
11
-78.0566125290019
21
6.98650063612414
31
0.000000000000000
  0
LINE
  5
F1014C
330
F1014D
100
AcDbEntity
8
Geo
100
AcDbLine
10
-78.0566125290019
20
6.98650063612414
30
0.000000000000000
11
-77.9566125290019
21
6.98255487752382
31
0.000000000000000
  0
LINE
  5
F1014E
330
F1014F
100
AcDbEntity
8
Geo
100
AcDbLine
10
-77.9566125290019
20
6.98255487752382
30
0.000000000000000
11
-77.8566125290019
21
6.97864970251845
31
0.000000000000000
  0
LINE
  5
F10150
330
F10151
100
AcDbEntity
8
Geo
100
AcDbLine
10
-77.8566125290019
20
6.97864970251845
30
0.000000000000000
11
-77.7566125290019
21
6.97488502210110
31
0.000000000000000
  0
LINE
  5
F10152
330
F10153
100
AcDbEntity
8
Geo
100
AcDbLine
10
-77.7566125290019
20
6.97488502210110
30
0.000000000000000
11
-77.6566125290018
21
6.97135017748775
31
0.000000000000000
  0
LINE
  5
F10154
330
F10155
100
AcDbEntity
8
Geo
100
AcDbLine
10
-77.6566125290018
20
6.97135017748775
30
0.000000000000000
11
-77.5566125290019
21
6.96812396403104
31
0.000000000000000
  0
LINE
  5
F10156
330
F10157
100
AcDbEntity
8
Geo
100
AcDbLine
10
-77.5566125290019
20
6.96812396403104
30
0.000000000000000
11
-77.4566125290019
21
6.96527465751171
31
0.000000000000000
  0
LINE
  5
F10158
330
F10159
100
AcDbEntity
8
Geo
100
AcDbLine
10
-77.4566125290019
20
6.96527465751171
30
0.000000000000000
11
-77.3566125290019
21
6.96286004087189
31
0.000000000000000
  0
LINE
  5
F1015A
330
F1015B
100
AcDbEntity
8
Geo
100
AcDbLine
10
-77.3566125290019
20
6.96286004087189
30
0.000000000000000
11
-77.2566125290018
21
6.96092742971368
31
0.000000000000000
  0
LINE
  5
F1015C
330
F1015D
100
AcDbEntity
8
Geo
100
AcDbLine
10
-77.2566125290018
20
6.96092742971368
30
0.000000000000000
11
-77.1566125290019
21
6.95951369514521
31
0.000000000000000
  0
LINE
  5
F1015E
330
F1015F
100
AcDbEntity
8
Geo
100
AcDbLine
10
-99.1566125290019
20
6.70464037122978
30
0.000000000000000
11
-99.0566125290019
21
6.92460050307230
31
0.000000000000000
  0
LINE
  5
F10160
330
F10161
100
AcDbEntity
8
Geo
100
AcDbLine
10
-99.0566125290019
20
6.92460050307230
30
0.000000000000000
11
-98.9566125290019
21
6.97272639471058
31
0.000000000000000
  0
LINE
  5
F10162
330
F10163
100
AcDbEntity
8
Geo
100
AcDbLine
10
-98.9566125290019
20
6.97272639471058
30
0.000000000000000
11
-98.8566125290019
21
6.97134405847650
31
0.000000000000000
  0
LINE
  5
F10164
330
F10165
100
AcDbEntity
8
Geo
100
AcDbLine
10
-98.8566125290019
20
6.97134405847650
30
0.000000000000000
11
-98.7566125290019
21
6.94549807484843
31
0.000000000000000
  0
LINE
  5
F10166
330
F10167
100
AcDbEntity
8
Geo
100
AcDbLine
10
-98.7566125290019
20
6.94549807484843
30
0.000000000000000
11
-98.6566125290019
21
6.91233320566288
31
0.000000000000000
  0
LINE
  5
F10168
330
F10169
100
AcDbEntity
8
Geo
100
AcDbLine
10
-98.6566125290019
20
6.91233320566288
30
0.000000000000000
11
-98.5566125290019
21
6.87189857799384
31
0.000000000000000
  0
LINE
  5
F1016A
330
F1016B
100
AcDbEntity
8
Geo
100
AcDbLine
10
-98.5566125290019
20
6.87189857799384
30
0.000000000000000
11
-98.4566125290019
21
6.82425408759834
31
0.000000000000000
  0
LINE
  5
F1016C
330
F1016D
100
AcDbEntity
8
Geo
100
AcDbLine
10
-98.4566125290019
20
6.82425408759834
30
0.000000000000000
11
-98.3566125290019
21
6.76947031019289
31
0.000000000000000
  0
LINE
  5
F1016E
330
F1016F
100
AcDbEntity
8
Geo
100
AcDbLine
10
-98.3566125290019
20
6.76947031019289
30
0.000000000000000
11
-98.2566125290019
21
6.70762839690981
31
0.000000000000000
  0
LINE
  5
F10170
330
F10171
100
AcDbEntity
8
Geo
100
AcDbLine
10
-98.2566125290019
20
6.70762839690981
30
0.000000000000000
11
-98.1566125290019
21
6.63881995408815
31
0.000000000000000
  0
LINE
  5
F10172
330
F10173
100
AcDbEntity
8
Geo
100
AcDbLine
10
-98.1566125290019
20
6.63881995408815
30
0.000000000000000
11
-98.0566125290019
21
6.56314690757734
31
0.000000000000000
  0
LINE
  5
F10174
330
F10175
100
AcDbEntity
8
Geo
100
AcDbLine
10
-98.0566125290019
20
6.56314690757734
30
0.000000000000000
11
-97.9566125290019
21
6.48072135175460
31
0.000000000000000
  0
LINE
  5
F10176
330
F10177
100
AcDbEntity
8
Geo
100
AcDbLine
10
-97.9566125290019
20
6.48072135175460
30
0.000000000000000
11
-97.8566125290019
21
6.39166538347967
31
0.000000000000000
  0
LINE
  5
F10178
330
F10179
100
AcDbEntity
8
Geo
100
AcDbLine
10
-97.8566125290019
20
6.39166538347967
30
0.000000000000000
11
-97.7566125290019
21
6.29611092123294
31
0.000000000000000
  0
LINE
  5
F1017A
330
F1017B
100
AcDbEntity
8
Geo
100
AcDbLine
10
-97.7566125290019
20
6.29611092123294
30
0.000000000000000
11
-97.6566125290019
21
6.19419950970475
31
0.000000000000000
  0
LINE
  5
F1017C
330
F1017D
100
AcDbEntity
8
Geo
100
AcDbLine
10
-97.6566125290019
20
6.19419950970475
30
0.000000000000000
11
-97.5566125290019
21
6.08608211012545
31
0.000000000000000
  0
LINE
  5
F1017E
330
F1017F
100
AcDbEntity
8
Geo
100
AcDbLine
10
-97.5566125290019
20
6.08608211012545
30
0.000000000000000
11
-97.4566125290019
21
5.97191887664678
31
0.000000000000000
  0
LINE
  5
F10180
330
F10181
100
AcDbEntity
8
Geo
100
AcDbLine
10
-97.4566125290019
20
5.97191887664678
30
0.000000000000000
11
-97.3566125290019
21
5.85187891910569
31
0.000000000000000
  0
LINE
  5
F10182
330
F10183
100
AcDbEntity
8
Geo
100
AcDbLine
10
-97.3566125290019
20
5.85187891910569
30
0.000000000000000
11
-97.2566125290019
21
5.72614005252221
31
0.000000000000000
  0
LINE
  5
F10184
330
F10185
100
AcDbEntity
8
Geo
100
AcDbLine
10
-97.2566125290019
20
5.72614005252221
30
0.000000000000000
11
-97.1566125290019
21
5.59488853370232
31
0.000000000000000
  0
LINE
  5
F10186
330
F10187
100
AcDbEntity
8
Geo
100
AcDbLine
10
-97.1566125290019
20
5.59488853370232
30
0.000000000000000
11
-97.0566125290019
21
5.45831878533600
31
0.000000000000000
  0
LINE
  5
F10188
330
F10189
100
AcDbEntity
8
Geo
100
AcDbLine
10
-97.0566125290019
20
5.45831878533600
30
0.000000000000000
11
-96.9566125290019
21
5.31663310799914
31
0.000000000000000
  0
LINE
  5
F1018A
330
F1018B
100
AcDbEntity
8
Geo
100
AcDbLine
10
-96.9566125290019
20
5.31663310799914
30
0.000000000000000
11
-96.8566125290019
21
5.17004138048603
31
0.000000000000000
  0
LINE
  5
F1018C
330
F1018D
100
AcDbEntity
8
Geo
100
AcDbLine
10
-96.8566125290019
20
5.17004138048603
30
0.000000000000000
11
-96.7566125290019
21
5.01876074891617
31
0.000000000000000
  0
LINE
  5
F1018E
330
F1018F
100
AcDbEntity
8
Geo
100
AcDbLine
10
-96.7566125290019
20
5.01876074891617
30
0.000000000000000
11
-96.6566125290019
21
4.86301530507604
31
0.000000000000000
  0
LINE
  5
F10190
330
F10191
100
AcDbEntity
8
Geo
100
AcDbLine
10
-96.6566125290019
20
4.86301530507604
30
0.000000000000000
11
-96.5566125290019
21
4.70303575447224
31
0.000000000000000
  0
LINE
  5
F10192
330
F10193
100
AcDbEntity
8
Geo
100
AcDbLine
10
-96.5566125290019
20
4.70303575447224
30
0.000000000000000
11
-96.4566125290019
21
4.53905907458775
31
0.000000000000000
  0
LINE
  5
F10194
330
F10195
100
AcDbEntity
8
Geo
100
AcDbLine
10
-96.4566125290019
20
4.53905907458775
30
0.000000000000000
11
-96.3566125290019
21
4.37132816384754
31
0.000000000000000
  0
LINE
  5
F10196
330
F10197
100
AcDbEntity
8
Geo
100
AcDbLine
10
-96.3566125290019
20
4.37132816384754
30
0.000000000000000
11
-96.2566125290019
21
4.20009148181346
31
0.000000000000000
  0
LINE
  5
F10198
330
F10199
100
AcDbEntity
8
Geo
100
AcDbLine
10
-96.2566125290019
20
4.20009148181346
30
0.000000000000000
11
-96.1566125290019
21
4.02560268114142
31
0.000000000000000
  0
LINE
  5
F1019A
330
F1019B
100
AcDbEntity
8
Geo
100
AcDbLine
10
-96.1566125290019
20
4.02560268114142
30
0.000000000000000
11
-96.0566125290019
21
3.84812023184610
31
0.000000000000000
  0
LINE
  5
F1019C
330
F1019D
100
AcDbEntity
8
Geo
100
AcDbLine
10
-96.0566125290019
20
3.84812023184610
30
0.000000000000000
11
-95.9566125290019
21
3.66790703842967
31
0.000000000000000
  0
LINE
  5
F1019E
330
F1019F
100
AcDbEntity
8
Geo
100
AcDbLine
10
-95.9566125290019
20
3.66790703842967
30
0.000000000000000
11
-95.8566125290019
21
3.48523005044172
31
0.000000000000000
  0
LINE
  5
F101A0
330
F101A1
100
AcDbEntity
8
Geo
100
AcDbLine
10
-95.8566125290019
20
3.48523005044172
30
0.000000000000000
11
-95.7566125290019
21
3.30035986704727
31
0.000000000000000
  0
LINE
  5
F101A2
330
F101A3
100
AcDbEntity
8
Geo
100
AcDbLine
10
-95.7566125290019
20
3.30035986704727
30
0.000000000000000
11
-95.6566125290019
21
3.11357033618860
31
0.000000000000000
  0
LINE
  5
F101A4
330
F101A5
100
AcDbEntity
8
Geo
100
AcDbLine
10
-95.6566125290019
20
3.11357033618860
30
0.000000000000000
11
-95.5566125290019
21
2.92513814893469
31
0.000000000000000
  0
LINE
  5
F101A6
330
F101A7
100
AcDbEntity
8
Geo
100
AcDbLine
10
-95.5566125290019
20
2.92513814893469
30
0.000000000000000
11
-95.4566125290019
21
2.73534242961913
31
0.000000000000000
  0
LINE
  5
F101A8
330
F101A9
100
AcDbEntity
8
Geo
100
AcDbLine
10
-95.4566125290019
20
2.73534242961913
30
0.000000000000000
11
-95.3566125290019
21
2.54446432237363
31
0.000000000000000
  0
LINE
  5
F101AA
330
F101AB
100
AcDbEntity
8
Geo
100
AcDbLine
10
-95.3566125290019
20
2.54446432237363
30
0.000000000000000
11
-95.2566125290019
21
2.35278657466960
31
0.000000000000000
  0
LINE
  5
F101AC
330
F101AD
100
AcDbEntity
8
Geo
100
AcDbLine
10
-95.2566125290019
20
2.35278657466960
30
0.000000000000000
11
-95.1566125290019
21
2.16059311848476
31
0.000000000000000
  0
LINE
  5
F101AE
330
F101AF
100
AcDbEntity
8
Geo
100
AcDbLine
10
-95.1566125290019
20
2.16059311848476
30
0.000000000000000
11
-95.0566125290019
21
1.96816864971506
31
0.000000000000000
  0
LINE
  5
F101B0
330
F101B1
100
AcDbEntity
8
Geo
100
AcDbLine
10
-95.0566125290019
20
1.96816864971506
30
0.000000000000000
11
-94.9566125290019
21
1.77579820645507
31
0.000000000000000
  0
LINE
  5
F101B2
330
F101B3
100
AcDbEntity
8
Geo
100
AcDbLine
10
-94.9566125290019
20
1.77579820645507
30
0.000000000000000
11
-94.8566125290019
21
1.58376674677145
31
0.000000000000000
  0
LINE
  5
F101B4
330
F101B5
100
AcDbEntity
8
Geo
100
AcDbLine
10
-94.8566125290019
20
1.58376674677145
30
0.000000000000000
11
-94.7566125290019
21
1.39235872659497
31
0.000000000000000
  0
LINE
  5
F101B6
330
F101B7
100
AcDbEntity
8
Geo
100
AcDbLine
10
-94.7566125290019
20
1.39235872659497
30
0.000000000000000
11
-94.6566125290019
21
1.20185767835633
31
0.000000000000000
  0
LINE
  5
F101B8
330
F101B9
100
AcDbEntity
8
Geo
100
AcDbLine
10
-94.6566125290019
20
1.20185767835633
30
0.000000000000000
11
-94.5566125290019
21
1.01254579098997
31
0.000000000000000
  0
LINE
  5
F101BA
330
F101BB
100
AcDbEntity
8
Geo
100
AcDbLine
10
-94.5566125290019
20
1.01254579098997
30
0.000000000000000
11
-94.4566125290019
21
0.824703491928023
31
0.000000000000000
  0
LINE
  5
F101BC
330
F101BD
100
AcDbEntity
8
Geo
100
AcDbLine
10
-94.4566125290019
20
0.824703491928023
30
0.000000000000000
11
-94.3566125290019
21
0.638609031703521
31
0.000000000000000
  0
LINE
  5
F101BE
330
F101BF
100
AcDbEntity
8
Geo
100
AcDbLine
10
-94.3566125290019
20
0.638609031703521
30
0.000000000000000
11
-94.2566125290019
21
0.454538071778292
31
0.000000000000000
  0
LINE
  5
F101C0
330
F101C1
100
AcDbEntity
8
Geo
100
AcDbLine
10
-94.2566125290019
20
0.454538071778292
30
0.000000000000000
11
-94.1566125290019
21
0.272763276206023
31
0.000000000000000
  0
LINE
  5
F101C2
330
F101C3
100
AcDbEntity
8
Geo
100
AcDbLine
10
-94.1566125290019
20
0.272763276206023
30
0.000000000000000
11
-94.0566125290019
21
0.0935539077353758
31
0.000000000000000
  0
LINE
  5
F101C4
330
F101C5
100
AcDbEntity
8
Geo
100
AcDbLine
10
-94.0566125290019
20
0.0935539077353758
30
0.000000000000000
11
-93.9566125290019
21
-0.0828245710485369
31
0.000000000000000
  0
LINE
  5
F101C6
330
F101C7
100
AcDbEntity
8
Geo
100
AcDbLine
10
-93.9566125290019
20
-0.0828245710485369
30
0.000000000000000
11
-93.8566125290019
21
-0.256110890953514
31
0.000000000000000
  0
LINE
  5
F101C8
330
F101C9
100
AcDbEntity
8
Geo
100
AcDbLine
10
-93.8566125290019
20
-0.256110890953514
30
0.000000000000000
11
-93.7566125290019
21
-0.426048363197939
31
0.000000000000000
  0
LINE
  5
F101CA
330
F101CB
100
AcDbEntity
8
Geo
100
AcDbLine
10
-93.7566125290019
20
-0.426048363197939
30
0.000000000000000
11
-93.6566125290019
21
-0.592385259643523
31
0.000000000000000
  0
LINE
  5
F101CC
330
F101CD
100
AcDbEntity
8
Geo
100
AcDbLine
10
-93.6566125290019
20
-0.592385259643523
30
0.000000000000000
11
-93.5566125290019
21
-0.754875185679836
31
0.000000000000000
  0
LINE
  5
F101CE
330
F101CF
100
AcDbEntity
8
Geo
100
AcDbLine
10
-93.5566125290019
20
-0.754875185679836
30
0.000000000000000
11
-93.4566125290019
21
-0.913277445208299
31
0.000000000000000
  0
LINE
  5
F101D0
330
F101D1
100
AcDbEntity
8
Geo
100
AcDbLine
10
-93.4566125290019
20
-0.913277445208299
30
0.000000000000000
11
-93.3566125290019
21
-1.06735739718497
31
0.000000000000000
  0
LINE
  5
F101D2
330
F101D3
100
AcDbEntity
8
Geo
100
AcDbLine
10
-93.3566125290019
20
-1.06735739718497
30
0.000000000000000
11
-93.2566125290019
21
-1.21688680319399
31
0.000000000000000
  0
LINE
  5
F101D4
330
F101D5
100
AcDbEntity
8
Geo
100
AcDbLine
10
-93.2566125290019
20
-1.21688680319399
30
0.000000000000000
11
-93.1566125290019
21
-1.36164416553686
31
0.000000000000000
  0
LINE
  5
F101D6
330
F101D7
100
AcDbEntity
8
Geo
100
AcDbLine
10
-93.1566125290019
20
-1.36164416553686
30
0.000000000000000
11
-93.0566125290019
21
-1.50141505533660
31
0.000000000000000
  0
LINE
  5
F101D8
330
F101D9
100
AcDbEntity
8
Geo
100
AcDbLine
10
-93.0566125290019
20
-1.50141505533660
30
0.000000000000000
11
-92.9566125290019
21
-1.63599243017103
31
0.000000000000000
  0
LINE
  5
F101DA
330
F101DB
100
AcDbEntity
8
Geo
100
AcDbLine
10
-92.9566125290019
20
-1.63599243017103
30
0.000000000000000
11
-92.8566125290019
21
-1.76517694076433
31
0.000000000000000
  0
LINE
  5
F101DC
330
F101DD
100
AcDbEntity
8
Geo
100
AcDbLine
10
-92.8566125290019
20
-1.76517694076433
30
0.000000000000000
11
-92.7566125290019
21
-1.88877722628292
31
0.000000000000000
  0
LINE
  5
F101DE
330
F101DF
100
AcDbEntity
8
Geo
100
AcDbLine
10
-92.7566125290019
20
-1.88877722628292
30
0.000000000000000
11
-92.6566125290019
21
-2.00661019779794
31
0.000000000000000
  0
LINE
  5
F101E0
330
F101E1
100
AcDbEntity
8
Geo
100
AcDbLine
10
-92.6566125290019
20
-2.00661019779794
30
0.000000000000000
11
-92.5566125290019
21
-2.11850130949464
31
0.000000000000000
  0
LINE
  5
F101E2
330
F101E3
100
AcDbEntity
8
Geo
100
AcDbLine
10
-92.5566125290019
20
-2.11850130949464
30
0.000000000000000
11
-92.4566125290019
21
-2.22428481722687
31
0.000000000000000
  0
LINE
  5
F101E4
330
F101E5
100
AcDbEntity
8
Geo
100
AcDbLine
10
-92.4566125290019
20
-2.22428481722687
30
0.000000000000000
11
-92.3566125290019
21
-2.32380402403360
31
0.000000000000000
  0
LINE
  5
F101E6
330
F101E7
100
AcDbEntity
8
Geo
100
AcDbLine
10
-92.3566125290019
20
-2.32380402403360
30
0.000000000000000
11
-92.2566125290019
21
-2.41691151225396
31
0.000000000000000
  0
LINE
  5
F101E8
330
F101E9
100
AcDbEntity
8
Geo
100
AcDbLine
10
-92.2566125290019
20
-2.41691151225396
30
0.000000000000000
11
-92.1566125290019
21
-2.50346936189678
31
0.000000000000000
  0
LINE
  5
F101EA
330
F101EB
100
AcDbEntity
8
Geo
100
AcDbLine
10
-92.1566125290019
20
-2.50346936189678
30
0.000000000000000
11
-92.0566125290019
21
-2.58334935494131
31
0.000000000000000
  0
LINE
  5
F101EC
330
F101ED
100
AcDbEntity
8
Geo
100
AcDbLine
10
-92.0566125290019
20
-2.58334935494131
30
0.000000000000000
11
-91.9566125290019
21
-2.65643316526634
31
0.000000000000000
  0
LINE
  5
F101EE
330
F101EF
100
AcDbEntity
8
Geo
100
AcDbLine
10
-91.9566125290019
20
-2.65643316526634
30
0.000000000000000
11
-91.8566125290019
21
-2.72261253392658
31
0.000000000000000
  0
LINE
  5
F101F0
330
F101F1
100
AcDbEntity
8
Geo
100
AcDbLine
10
-91.8566125290019
20
-2.72261253392658
30
0.000000000000000
11
-91.7566125290019
21
-2.78178942951644
31
0.000000000000000
  0
LINE
  5
F101F2
330
F101F3
100
AcDbEntity
8
Geo
100
AcDbLine
10
-91.7566125290019
20
-2.78178942951644
30
0.000000000000000
11
-91.6566125290019
21
-2.83387619338383
31
0.000000000000000
  0
LINE
  5
F101F4
330
F101F5
100
AcDbEntity
8
Geo
100
AcDbLine
10
-91.6566125290019
20
-2.83387619338383
30
0.000000000000000
11
-91.5566125290019
21
-2.87879566947879
31
0.000000000000000
  0
LINE
  5
F101F6
330
F101F7
100
AcDbEntity
8
Geo
100
AcDbLine
10
-91.5566125290019
20
-2.87879566947879
30
0.000000000000000
11
-91.4566125290019
21
-2.91648131864466
31
0.000000000000000
  0
LINE
  5
F101F8
330
F101F9
100
AcDbEntity
8
Geo
100
AcDbLine
10
-91.4566125290019
20
-2.91648131864466
30
0.000000000000000
11
-91.3566125290019
21
-2.94687731718239
31
0.000000000000000
  0
LINE
  5
F101FA
330
F101FB
100
AcDbEntity
8
Geo
100
AcDbLine
10
-91.3566125290019
20
-2.94687731718239
30
0.000000000000000
11
-91.2566125290019
21
-2.96993863954217
31
0.000000000000000
  0
LINE
  5
F101FC
330
F101FD
100
AcDbEntity
8
Geo
100
AcDbLine
10
-91.2566125290019
20
-2.96993863954217
30
0.000000000000000
11
-91.1566125290019
21
-2.98563112501967
31
0.000000000000000
  0
LINE
  5
F101FE
330
F101FF
100
AcDbEntity
8
Geo
100
AcDbLine
10
-91.1566125290019
20
-2.98563112501967
30
0.000000000000000
11
-91.0566125290019
21
-2.99393152835824
31
0.000000000000000
  0
LINE
  5
F10200
330
F10201
100
AcDbEntity
8
Geo
100
AcDbLine
10
-82.8566125290020
20
7.00442357165092
30
0.000000000000000
11
-82.7566125290020
21
7.00251218611874
31
0.000000000000000
  0
LINE
  5
F10202
330
F10203
100
AcDbEntity
8
Geo
100
AcDbLine
10
-82.7566125290020
20
7.00251218611874
30
0.000000000000000
11
-82.6566125290020
21
6.99319746010633
31
0.000000000000000
  0
LINE
  5
F10204
330
F10205
100
AcDbEntity
8
Geo
100
AcDbLine
10
-82.6566125290020
20
6.99319746010633
30
0.000000000000000
11
-82.5566125290020
21
6.97649319150424
31
0.000000000000000
  0
LINE
  5
F10206
330
F10207
100
AcDbEntity
8
Geo
100
AcDbLine
10
-82.5566125290020
20
6.97649319150424
30
0.000000000000000
11
-82.4566125290019
21
6.95242412432200
31
0.000000000000000
  0
LINE
  5
F10208
330
F10209
100
AcDbEntity
8
Geo
100
AcDbLine
10
-82.4566125290019
20
6.95242412432200
30
0.000000000000000
11
-82.3566125290020
21
6.92102591203494
31
0.000000000000000
  0
LINE
  5
F1020A
330
F1020B
100
AcDbEntity
8
Geo
100
AcDbLine
10
-82.3566125290020
20
6.92102591203494
30
0.000000000000000
11
-82.2566125290020
21
6.88234506477070
31
0.000000000000000
  0
LINE
  5
F1020C
330
F1020D
100
AcDbEntity
8
Geo
100
AcDbLine
10
-82.2566125290020
20
6.88234506477070
30
0.000000000000000
11
-82.1566125290019
21
6.83643888041383
31
0.000000000000000
  0
LINE
  5
F1020E
330
F1020F
100
AcDbEntity
8
Geo
100
AcDbLine
10
-82.1566125290019
20
6.83643888041383
30
0.000000000000000
11
-82.0566125290019
21
6.84254364466310
31
0.000000000000000
  0
LINE
  5
F10210
330
F10211
100
AcDbEntity
8
Geo
100
AcDbLine
10
-82.0566125290019
20
6.84254364466310
30
0.000000000000000
11
-81.9566125290019
21
6.84842216004529
31
0.000000000000000
  0
LINE
  5
F10212
330
F10213
100
AcDbEntity
8
Geo
100
AcDbLine
10
-81.9566125290019
20
6.84842216004529
30
0.000000000000000
11
-81.8566125290019
21
6.85408063697786
31
0.000000000000000
  0
LINE
  5
F10214
330
F10215
100
AcDbEntity
8
Geo
100
AcDbLine
10
-81.8566125290019
20
6.85408063697786
30
0.000000000000000
11
-81.7566125290019
21
6.85952517758999
31
0.000000000000000
  0
LINE
  5
F10216
330
F10217
100
AcDbEntity
8
Geo
100
AcDbLine
10
-81.7566125290019
20
6.85952517758999
30
0.000000000000000
11
-81.6566125290019
21
6.86476177455197
31
0.000000000000000
  0
LINE
  5
F10218
330
F10219
100
AcDbEntity
8
Geo
100
AcDbLine
10
-81.6566125290019
20
6.86476177455197
30
0.000000000000000
11
-81.5566125290019
21
6.86979630995750
31
0.000000000000000
  0
LINE
  5
F1021A
330
F1021B
100
AcDbEntity
8
Geo
100
AcDbLine
10
-81.5566125290019
20
6.86979630995750
30
0.000000000000000
11
-81.4566125290019
21
6.87463455425741
31
0.000000000000000
  0
LINE
  5
F1021C
330
F1021D
100
AcDbEntity
8
Geo
100
AcDbLine
10
-81.4566125290019
20
6.87463455425741
30
0.000000000000000
11
-81.3566125290019
21
6.87928216524302
31
0.000000000000000
  0
LINE
  5
F1021E
330
F1021F
100
AcDbEntity
8
Geo
100
AcDbLine
10
-81.3566125290019
20
6.87928216524302
30
0.000000000000000
11
-81.2566125290019
21
6.88374468707742
31
0.000000000000000
  0
LINE
  5
F10220
330
F10221
100
AcDbEntity
8
Geo
100
AcDbLine
10
-81.2566125290019
20
6.88374468707742
30
0.000000000000000
11
-81.1566125290019
21
6.88802754937302
31
0.000000000000000
  0
LINE
  5
F10222
330
F10223
100
AcDbEntity
8
Geo
100
AcDbLine
10
-81.1566125290019
20
6.88802754937302
30
0.000000000000000
11
-81.0566125290019
21
6.89213606631392
31
0.000000000000000
  0
LINE
  5
F10224
330
F10225
100
AcDbEntity
8
Geo
100
AcDbLine
10
-81.0566125290019
20
6.89213606631392
30
0.000000000000000
11
-80.9566125290019
21
6.89607543582127
31
0.000000000000000
  0
LINE
  5
F10226
330
F10227
100
AcDbEntity
8
Geo
100
AcDbLine
10
-80.9566125290019
20
6.89607543582127
30
0.000000000000000
11
-80.8566125290019
21
6.89985073876022
31
0.000000000000000
  0
LINE
  5
F10228
330
F10229
100
AcDbEntity
8
Geo
100
AcDbLine
10
-80.8566125290019
20
6.89985073876022
30
0.000000000000000
11
-80.7566125290019
21
6.90346693818692
31
0.000000000000000
  0
LINE
  5
F1022A
330
F1022B
100
AcDbEntity
8
Geo
100
AcDbLine
10
-80.7566125290019
20
6.90346693818692
30
0.000000000000000
11
-80.6566125290019
21
6.90692887863401
31
0.000000000000000
  0
LINE
  5
F1022C
330
F1022D
100
AcDbEntity
8
Geo
100
AcDbLine
10
-80.6566125290019
20
6.90692887863401
30
0.000000000000000
11
-80.5566125290019
21
6.91024128543321
31
0.000000000000000
  0
LINE
  5
F1022E
330
F1022F
100
AcDbEntity
8
Geo
100
AcDbLine
10
-80.5566125290019
20
6.91024128543321
30
0.000000000000000
11
-80.4566125290019
21
6.91340876407352
31
0.000000000000000
  0
LINE
  5
F10230
330
F10231
100
AcDbEntity
8
Geo
100
AcDbLine
10
-80.4566125290019
20
6.91340876407352
30
0.000000000000000
11
-80.3566125290019
21
6.91643579959370
31
0.000000000000000
  0
LINE
  5
F10232
330
F10233
100
AcDbEntity
8
Geo
100
AcDbLine
10
-80.3566125290019
20
6.91643579959370
30
0.000000000000000
11
-80.2566125290019
21
6.91932675600752
31
0.000000000000000
  0
LINE
  5
F10234
330
F10235
100
AcDbEntity
8
Geo
100
AcDbLine
10
-80.2566125290019
20
6.91932675600752
30
0.000000000000000
11
-80.1566125290019
21
6.92208587576073
31
0.000000000000000
  0
LINE
  5
F10236
330
F10237
100
AcDbEntity
8
Geo
100
AcDbLine
10
-80.1566125290019
20
6.92208587576073
30
0.000000000000000
11
-80.0566125290019
21
6.92471727921808
31
0.000000000000000
  0
LINE
  5
F10238
330
F10239
100
AcDbEntity
8
Geo
100
AcDbLine
10
-80.0566125290019
20
6.92471727921808
30
0.000000000000000
11
-79.9566125290019
21
6.92722496417945
31
0.000000000000000
  0
LINE
  5
F1023A
330
F1023B
100
AcDbEntity
8
Geo
100
AcDbLine
10
-79.9566125290019
20
6.92722496417945
30
0.000000000000000
11
-79.8566125290019
21
6.92961280542370
31
0.000000000000000
  0
LINE
  5
F1023C
330
F1023D
100
AcDbEntity
8
Geo
100
AcDbLine
10
-79.8566125290019
20
6.92961280542370
30
0.000000000000000
11
-79.7566125290019
21
6.93188455427906
31
0.000000000000000
  0
LINE
  5
F1023E
330
F1023F
100
AcDbEntity
8
Geo
100
AcDbLine
10
-79.7566125290019
20
6.93188455427906
30
0.000000000000000
11
-79.6566125290019
21
6.93404383821895
31
0.000000000000000
  0
LINE
  5
F10240
330
F10241
100
AcDbEntity
8
Geo
100
AcDbLine
10
-79.6566125290019
20
6.93404383821895
30
0.000000000000000
11
-79.5566125290019
21
6.93609416048209
31
0.000000000000000
  0
LINE
  5
F10242
330
F10243
100
AcDbEntity
8
Geo
100
AcDbLine
10
-79.5566125290019
20
6.93609416048209
30
0.000000000000000
11
-79.4566125290019
21
6.93803889971575
31
0.000000000000000
  0
LINE
  5
F10244
330
F10245
100
AcDbEntity
8
Geo
100
AcDbLine
10
-79.4566125290019
20
6.93803889971575
30
0.000000000000000
11
-79.3566125290019
21
6.93988130964122
31
0.000000000000000
  0
LINE
  5
F10246
330
F10247
100
AcDbEntity
8
Geo
100
AcDbLine
10
-79.3566125290019
20
6.93988130964122
30
0.000000000000000
11
-79.2566125290019
21
6.94162451874037
31
0.000000000000000
  0
LINE
  5
F10248
330
F10249
100
AcDbEntity
8
Geo
100
AcDbLine
10
-79.2566125290019
20
6.94162451874037
30
0.000000000000000
11
-79.1566125290019
21
6.94327152996239
31
0.000000000000000
  0
LINE
  5
F1024A
330
F1024B
100
AcDbEntity
8
Geo
100
AcDbLine
10
-79.1566125290019
20
6.94327152996239
30
0.000000000000000
11
-79.0566125290019
21
6.94482522044970
31
0.000000000000000
  0
LINE
  5
F1024C
330
F1024D
100
AcDbEntity
8
Geo
100
AcDbLine
10
-79.0566125290019
20
6.94482522044970
30
0.000000000000000
11
-78.9566125290019
21
6.94628834128225
31
0.000000000000000
  0
LINE
  5
F1024E
330
F1024F
100
AcDbEntity
8
Geo
100
AcDbLine
10
-78.9566125290019
20
6.94628834128225
30
0.000000000000000
11
-78.8566125290019
21
6.94766351723923
31
0.000000000000000
  0
LINE
  5
F10250
330
F10251
100
AcDbEntity
8
Geo
100
AcDbLine
10
-78.8566125290019
20
6.94766351723923
30
0.000000000000000
11
-78.7566125290019
21
6.94895324657738
31
0.000000000000000
  0
LINE
  5
F10252
330
F10253
100
AcDbEntity
8
Geo
100
AcDbLine
10
-78.7566125290019
20
6.94895324657738
30
0.000000000000000
11
-78.6566125290019
21
6.95015990082520
31
0.000000000000000
  0
LINE
  5
F10254
330
F10255
100
AcDbEntity
8
Geo
100
AcDbLine
10
-78.6566125290019
20
6.95015990082520
30
0.000000000000000
11
-78.5566125290019
21
6.95128572459216
31
0.000000000000000
  0
LINE
  5
F10256
330
F10257
100
AcDbEntity
8
Geo
100
AcDbLine
10
-78.5566125290019
20
6.95128572459216
30
0.000000000000000
11
-78.4566125290019
21
6.95233283539233
31
0.000000000000000
  0
LINE
  5
F10258
330
F10259
100
AcDbEntity
8
Geo
100
AcDbLine
10
-78.4566125290019
20
6.95233283539233
30
0.000000000000000
11
-78.3566125290019
21
6.95330322348173
31
0.000000000000000
  0
LINE
  5
F1025A
330
F1025B
100
AcDbEntity
8
Geo
100
AcDbLine
10
-78.3566125290019
20
6.95330322348173
30
0.000000000000000
11
-78.2566125290019
21
6.95419875170860
31
0.000000000000000
  0
LINE
  5
F1025C
330
F1025D
100
AcDbEntity
8
Geo
100
AcDbLine
10
-78.2566125290019
20
6.95419875170860
30
0.000000000000000
11
-78.1566125290019
21
6.95502115537631
31
0.000000000000000
  0
LINE
  5
F1025E
330
F1025F
100
AcDbEntity
8
Geo
100
AcDbLine
10
-78.1566125290019
20
6.95502115537631
30
0.000000000000000
11
-78.0566125290019
21
6.95577204211797
31
0.000000000000000
  0
LINE
  5
F10260
330
F10261
100
AcDbEntity
8
Geo
100
AcDbLine
10
-78.0566125290019
20
6.95577204211797
30
0.000000000000000
11
-77.9566125290019
21
6.95645289178256
31
0.000000000000000
  0
LINE
  5
F10262
330
F10263
100
AcDbEntity
8
Geo
100
AcDbLine
10
-77.9566125290019
20
6.95645289178256
30
0.000000000000000
11
-77.8566125290019
21
6.95706505633184
31
0.000000000000000
  0
LINE
  5
F10264
330
F10265
100
AcDbEntity
8
Geo
100
AcDbLine
10
-77.8566125290019
20
6.95706505633184
30
0.000000000000000
11
-77.7566125290019
21
6.95760975974774
31
0.000000000000000
  0
LINE
  5
F10266
330
F10267
100
AcDbEntity
8
Geo
100
AcDbLine
10
-77.7566125290019
20
6.95760975974774
30
0.000000000000000
11
-77.6566125290018
21
6.95808809794973
31
0.000000000000000
  0
LINE
  5
F10268
330
F10269
100
AcDbEntity
8
Geo
100
AcDbLine
10
-77.6566125290018
20
6.95808809794973
30
0.000000000000000
11
-77.5566125290019
21
6.95850103872194
31
0.000000000000000
  0
LINE
  5
F1026A
330
F1026B
100
AcDbEntity
8
Geo
100
AcDbLine
10
-77.5566125290019
20
6.95850103872194
30
0.000000000000000
11
-77.4566125290019
21
6.95884942164949
31
0.000000000000000
  0
LINE
  5
F1026C
330
F1026D
100
AcDbEntity
8
Geo
100
AcDbLine
10
-77.4566125290019
20
6.95884942164949
30
0.000000000000000
11
-77.3566125290019
21
6.95913395806389
31
0.000000000000000
  0
LINE
  5
F1026E
330
F1026F
100
AcDbEntity
8
Geo
100
AcDbLine
10
-77.3566125290019
20
6.95913395806389
30
0.000000000000000
11
-77.2566125290018
21
6.95935523099730
31
0.000000000000000
  0
LINE
  5
F10270
330
F10271
100
AcDbEntity
8
Geo
100
AcDbLine
10
-77.2566125290018
20
6.95935523099730
30
0.000000000000000
11
-77.1566125290019
21
6.95951369514521
31
0.000000000000000
  0
LINE
  5
F10272
330
F10273
100
AcDbEntity
8
Geo
100
AcDbLine
10
-99.1566125290019
20
6.47460599781700
30
0.000000000000000
11
-99.0566125290019
21
6.62525325091794
31
0.000000000000000
  0
LINE
  5
F10274
330
F10275
100
AcDbEntity
8
Geo
100
AcDbLine
10
-99.0566125290019
20
6.62525325091794
30
0.000000000000000
11
-98.9566125290019
21
6.61115543524049
31
0.000000000000000
  0
LINE
  5
F10276
330
F10277
100
AcDbEntity
8
Geo
100
AcDbLine
10
-98.9566125290019
20
6.61115543524049
30
0.000000000000000
11
-98.8566125290019
21
6.55024143736626
31
0.000000000000000
  0
LINE
  5
F10278
330
F10279
100
AcDbEntity
8
Geo
100
AcDbLine
10
-98.8566125290019
20
6.55024143736626
30
0.000000000000000
11
-98.7566125290019
21
6.46673255832181
31
0.000000000000000
  0
LINE
  5
F1027A
330
F1027B
100
AcDbEntity
8
Geo
100
AcDbLine
10
-98.7566125290019
20
6.46673255832181
30
0.000000000000000
11
-98.6566125290019
21
6.37661398840518
31
0.000000000000000
  0
LINE
  5
F1027C
330
F1027D
100
AcDbEntity
8
Geo
100
AcDbLine
10
-98.6566125290019
20
6.37661398840518
30
0.000000000000000
11
-98.5566125290019
21
6.28001922012708
31
0.000000000000000
  0
LINE
  5
F1027E
330
F1027F
100
AcDbEntity
8
Geo
100
AcDbLine
10
-98.5566125290019
20
6.28001922012708
30
0.000000000000000
11
-98.4566125290019
21
6.17709133918169
31
0.000000000000000
  0
LINE
  5
F10280
330
F10281
100
AcDbEntity
8
Geo
100
AcDbLine
10
-98.4566125290019
20
6.17709133918169
30
0.000000000000000
11
-98.3566125290019
21
6.06798281249411
31
0.000000000000000
  0
LINE
  5
F10282
330
F10283
100
AcDbEntity
8
Geo
100
AcDbLine
10
-98.3566125290019
20
6.06798281249411
30
0.000000000000000
11
-98.2566125290019
21
5.95285526237123
31
0.000000000000000
  0
LINE
  5
F10284
330
F10285
100
AcDbEntity
8
Geo
100
AcDbLine
10
-98.2566125290019
20
5.95285526237123
30
0.000000000000000
11
-98.1566125290019
21
5.83187922709091
31
0.000000000000000
  0
LINE
  5
F10286
330
F10287
100
AcDbEntity
8
Geo
100
AcDbLine
10
-98.1566125290019
20
5.83187922709091
30
0.000000000000000
11
-98.0566125290019
21
5.70523390828382
31
0.000000000000000
  0
LINE
  5
F10288
330
F10289
100
AcDbEntity
8
Geo
100
AcDbLine
10
-98.0566125290019
20
5.70523390828382
30
0.000000000000000
11
-97.9566125290019
21
5.57310690548234
31
0.000000000000000
  0
LINE
  5
F1028A
330
F1028B
100
AcDbEntity
8
Geo
100
AcDbLine
10
-97.9566125290019
20
5.57310690548234
30
0.000000000000000
11
-97.8566125290019
21
5.43569393822963
31
0.000000000000000
  0
LINE
  5
F1028C
330
F1028D
100
AcDbEntity
8
Geo
100
AcDbLine
10
-97.8566125290019
20
5.43569393822963
30
0.000000000000000
11
-97.7566125290019
21
5.29319855616053
31
0.000000000000000
  0
LINE
  5
F1028E
330
F1028F
100
AcDbEntity
8
Geo
100
AcDbLine
10
-97.7566125290019
20
5.29319855616053
30
0.000000000000000
11
-97.6566125290019
21
5.14583183748381
31
0.000000000000000
  0
LINE
  5
F10290
330
F10291
100
AcDbEntity
8
Geo
100
AcDbLine
10
-97.6566125290019
20
5.14583183748381
30
0.000000000000000
11
-97.5566125290019
21
4.99381207631230
31
0.000000000000000
  0
LINE
  5
F10292
330
F10293
100
AcDbEntity
8
Geo
100
AcDbLine
10
-97.5566125290019
20
4.99381207631230
30
0.000000000000000
11
-97.4566125290019
21
4.83736445930410
31
0.000000000000000
  0
LINE
  5
F10294
330
F10295
100
AcDbEntity
8
Geo
100
AcDbLine
10
-97.4566125290019
20
4.83736445930410
30
0.000000000000000
11
-97.3566125290019
21
4.67672073209395
31
0.000000000000000
  0
LINE
  5
F10296
330
F10297
100
AcDbEntity
8
Geo
100
AcDbLine
10
-97.3566125290019
20
4.67672073209395
30
0.000000000000000
11
-97.2566125290019
21
4.51211885600870
31
0.000000000000000
  0
LINE
  5
F10298
330
F10299
100
AcDbEntity
8
Geo
100
AcDbLine
10
-97.2566125290019
20
4.51211885600870
30
0.000000000000000
11
-97.1566125290019
21
4.34380265557556
31
0.000000000000000
  0
LINE
  5
F1029A
330
F1029B
100
AcDbEntity
8
Geo
100
AcDbLine
10
-97.1566125290019
20
4.34380265557556
30
0.000000000000000
11
-97.0566125290019
21
4.17202145734519
31
0.000000000000000
  0
LINE
  5
F1029C
330
F1029D
100
AcDbEntity
8
Geo
100
AcDbLine
10
-97.0566125290019
20
4.17202145734519
30
0.000000000000000
11
-96.9566125290019
21
3.99702972056457
31
0.000000000000000
  0
LINE
  5
F1029E
330
F1029F
100
AcDbEntity
8
Geo
100
AcDbLine
10
-96.9566125290019
20
3.99702972056457
30
0.000000000000000
11
-96.8566125290019
21
3.81908666024692
31
0.000000000000000
  0
LINE
  5
F102A0
330
F102A1
100
AcDbEntity
8
Geo
100
AcDbLine
10
-96.8566125290019
20
3.81908666024692
30
0.000000000000000
11
-96.7566125290019
21
3.63845586319689
31
0.000000000000000
  0
LINE
  5
F102A2
330
F102A3
100
AcDbEntity
8
Geo
100
AcDbLine
10
-96.7566125290019
20
3.63845586319689
30
0.000000000000000
11
-96.6566125290019
21
3.45540489755973
31
0.000000000000000
  0
LINE
  5
F102A4
330
F102A5
100
AcDbEntity
8
Geo
100
AcDbLine
10
-96.6566125290019
20
3.45540489755973
30
0.000000000000000
11
-96.5566125290019
21
3.27020491647302
31
0.000000000000000
  0
LINE
  5
F102A6
330
F102A7
100
AcDbEntity
8
Geo
100
AcDbLine
10
-96.5566125290019
20
3.27020491647302
30
0.000000000000000
11
-96.4566125290019
21
3.08313025640791
31
0.000000000000000
  0
LINE
  5
F102A8
330
F102A9
100
AcDbEntity
8
Geo
100
AcDbLine
10
-96.4566125290019
20
3.08313025640791
30
0.000000000000000
11
-96.3566125290019
21
2.89445803079487
31
0.000000000000000
  0
LINE
  5
F102AA
330
F102AB
100
AcDbEntity
8
Geo
100
AcDbLine
10
-96.3566125290019
20
2.89445803079487
30
0.000000000000000
11
-96.2566125290019
21
2.70446771953597
31
0.000000000000000
  0
LINE
  5
F102AC
330
F102AD
100
AcDbEntity
8
Geo
100
AcDbLine
10
-96.2566125290019
20
2.70446771953597
30
0.000000000000000
11
-96.1566125290019
21
2.51344075501168
31
0.000000000000000
  0
LINE
  5
F102AE
330
F102AF
100
AcDbEntity
8
Geo
100
AcDbLine
10
-96.1566125290019
20
2.51344075501168
30
0.000000000000000
11
-96.0566125290019
21
2.32166010519550
31
0.000000000000000
  0
LINE
  5
F102B0
330
F102B1
100
AcDbEntity
8
Geo
100
AcDbLine
10
-96.0566125290019
20
2.32166010519550
30
0.000000000000000
11
-95.9566125290019
21
2.12940985449391
31
0.000000000000000
  0
LINE
  5
F102B2
330
F102B3
100
AcDbEntity
8
Geo
100
AcDbLine
10
-95.9566125290019
20
2.12940985449391
30
0.000000000000000
11
-95.8566125290019
21
1.93697478293248
31
0.000000000000000
  0
LINE
  5
F102B4
330
F102B5
100
AcDbEntity
8
Geo
100
AcDbLine
10
-95.8566125290019
20
1.93697478293248
30
0.000000000000000
11
-95.7566125290019
21
1.74463994431170
31
0.000000000000000
  0
LINE
  5
F102B6
330
F102B7
100
AcDbEntity
8
Geo
100
AcDbLine
10
-95.7566125290019
20
1.74463994431170
30
0.000000000000000
11
-95.6566125290019
21
1.55269024395712
31
0.000000000000000
  0
LINE
  5
F102B8
330
F102B9
100
AcDbEntity
8
Geo
100
AcDbLine
10
-95.6566125290019
20
1.55269024395712
30
0.000000000000000
11
-95.5566125290019
21
1.36141001668953
31
0.000000000000000
  0
LINE
  5
F102BA
330
F102BB
100
AcDbEntity
8
Geo
100
AcDbLine
10
-95.5566125290019
20
1.36141001668953
30
0.000000000000000
11
-95.4566125290019
21
1.17108260564016
31
0.000000000000000
  0
LINE
  5
F102BC
330
F102BD
100
AcDbEntity
8
Geo
100
AcDbLine
10
-95.4566125290019
20
1.17108260564016
30
0.000000000000000
11
-95.3566125290019
21
0.981989942534956
31
0.000000000000000
  0
LINE
  5
F102BE
330
F102BF
100
AcDbEntity
8
Geo
100
AcDbLine
10
-95.3566125290019
20
0.981989942534956
30
0.000000000000000
11
-95.2566125290019
21
0.794412130069437
31
0.000000000000000
  0
LINE
  5
F102C0
330
F102C1
100
AcDbEntity
8
Geo
100
AcDbLine
10
-95.2566125290019
20
0.794412130069437
30
0.000000000000000
11
-95.1566125290019
21
0.608627026993023
31
0.000000000000000
  0
LINE
  5
F102C2
330
F102C3
100
AcDbEntity
8
Geo
100
AcDbLine
10
-95.1566125290019
20
0.608627026993023
30
0.000000000000000
11
-95.0566125290019
21
0.424909836517233
31
0.000000000000000
  0
LINE
  5
F102C4
330
F102C5
100
AcDbEntity
8
Geo
100
AcDbLine
10
-95.0566125290019
20
0.424909836517233
30
0.000000000000000
11
-94.9566125290019
21
0.243532698657564
31
0.000000000000000
  0
LINE
  5
F102C6
330
F102C7
100
AcDbEntity
8
Geo
100
AcDbLine
10
-94.9566125290019
20
0.243532698657564
30
0.000000000000000
11
-94.8566125290019
21
0.0647642871128706
31
0.000000000000000
  0
LINE
  5
F102C8
330
F102C9
100
AcDbEntity
8
Geo
100
AcDbLine
10
-94.8566125290019
20
0.0647642871128706
30
0.000000000000000
11
-94.7566125290019
21
-0.111130588720610
31
0.000000000000000
  0
LINE
  5
F102CA
330
F102CB
100
AcDbEntity
8
Geo
100
AcDbLine
10
-94.7566125290019
20
-0.111130588720610
30
0.000000000000000
11
-94.6566125290019
21
-0.283891376011042
31
0.000000000000000
  0
LINE
  5
F102CC
330
F102CD
100
AcDbEntity
8
Geo
100
AcDbLine
10
-94.6566125290019
20
-0.283891376011042
30
0.000000000000000
11
-94.5566125290019
21
-0.453262164447535
31
0.000000000000000
  0
LINE
  5
F102CE
330
F102CF
100
AcDbEntity
8
Geo
100
AcDbLine
10
-94.5566125290019
20
-0.453262164447535
30
0.000000000000000
11
-94.4566125290019
21
-0.618992065319725
31
0.000000000000000
  0
LINE
  5
F102D0
330
F102D1
100
AcDbEntity
8
Geo
100
AcDbLine
10
-94.4566125290019
20
-0.618992065319725
30
0.000000000000000
11
-94.3566125290019
21
-0.780835583158869
31
0.000000000000000
  0
LINE
  5
F102D2
330
F102D3
100
AcDbEntity
8
Geo
100
AcDbLine
10
-94.3566125290019
20
-0.780835583158869
30
0.000000000000000
11
-94.2566125290019
21
-0.938552979389939
31
0.000000000000000
  0
LINE
  5
F102D4
330
F102D5
100
AcDbEntity
8
Geo
100
AcDbLine
10
-94.2566125290019
20
-0.938552979389939
30
0.000000000000000
11
-94.1566125290019
21
-1.09191062745603
31
0.000000000000000
  0
LINE
  5
F102D6
330
F102D7
100
AcDbEntity
8
Geo
100
AcDbLine
10
-94.1566125290019
20
-1.09191062745603
30
0.000000000000000
11
-94.0566125290019
21
-1.24068135888907
31
0.000000000000000
  0
LINE
  5
F102D8
330
F102D9
100
AcDbEntity
8
Geo
100
AcDbLine
10
-94.0566125290019
20
-1.24068135888907
30
0.000000000000000
11
-93.9566125290019
21
-1.38464479981410
31
0.000000000000000
  0
LINE
  5
F102DA
330
F102DB
100
AcDbEntity
8
Geo
100
AcDbLine
10
-93.9566125290019
20
-1.38464479981410
30
0.000000000000000
11
-93.8566125290019
21
-1.52358769738885
31
0.000000000000000
  0
LINE
  5
F102DC
330
F102DD
100
AcDbEntity
8
Geo
100
AcDbLine
10
-93.8566125290019
20
-1.52358769738885
30
0.000000000000000
11
-93.7566125290019
21
-1.65730423569484
31
0.000000000000000
  0
LINE
  5
F102DE
330
F102DF
100
AcDbEntity
8
Geo
100
AcDbLine
10
-93.7566125290019
20
-1.65730423569484
30
0.000000000000000
11
-93.6566125290019
21
-1.78559634061220
31
0.000000000000000
  0
LINE
  5
F102E0
330
F102E1
100
AcDbEntity
8
Geo
100
AcDbLine
10
-93.6566125290019
20
-1.78559634061220
30
0.000000000000000
11
-93.5566125290019
21
-1.90827397322661
31
0.000000000000000
  0
LINE
  5
F102E2
330
F102E3
100
AcDbEntity
8
Geo
100
AcDbLine
10
-93.5566125290019
20
-1.90827397322661
30
0.000000000000000
11
-93.4566125290019
21
-2.02515541133367
31
0.000000000000000
  0
LINE
  5
F102E4
330
F102E5
100
AcDbEntity
8
Geo
100
AcDbLine
10
-93.4566125290019
20
-2.02515541133367
30
0.000000000000000
11
-93.3566125290019
21
-2.13606751862372
31
0.000000000000000
  0
LINE
  5
F102E6
330
F102E7
100
AcDbEntity
8
Geo
100
AcDbLine
10
-93.3566125290019
20
-2.13606751862372
30
0.000000000000000
11
-93.2566125290019
21
-2.24084600114844
31
0.000000000000000
  0
LINE
  5
F102E8
330
F102E9
100
AcDbEntity
8
Geo
100
AcDbLine
10
-93.2566125290019
20
-2.24084600114844
30
0.000000000000000
11
-93.1566125290019
21
-2.33933565068926
31
0.000000000000000
  0
LINE
  5
F102EA
330
F102EB
100
AcDbEntity
8
Geo
100
AcDbLine
10
-93.1566125290019
20
-2.33933565068926
30
0.000000000000000
11
-93.0566125290019
21
-2.43139057466701
31
0.000000000000000
  0
LINE
  5
F102EC
330
F102ED
100
AcDbEntity
8
Geo
100
AcDbLine
10
-93.0566125290019
20
-2.43139057466701
30
0.000000000000000
11
-92.9566125290019
21
-2.51687441225247
31
0.000000000000000
  0
LINE
  5
F102EE
330
F102EF
100
AcDbEntity
8
Geo
100
AcDbLine
10
-92.9566125290019
20
-2.51687441225247
30
0.000000000000000
11
-92.8566125290019
21
-2.59566053635742
31
0.000000000000000
  0
LINE
  5
F102F0
330
F102F1
100
AcDbEntity
8
Geo
100
AcDbLine
10
-92.8566125290019
20
-2.59566053635742
30
0.000000000000000
11
-92.7566125290019
21
-2.66763224120718
31
0.000000000000000
  0
LINE
  5
F102F2
330
F102F3
100
AcDbEntity
8
Geo
100
AcDbLine
10
-92.7566125290019
20
-2.66763224120718
30
0.000000000000000
11
-92.6566125290019
21
-2.73268291521673
31
0.000000000000000
  0
LINE
  5
F102F4
330
F102F5
100
AcDbEntity
8
Geo
100
AcDbLine
10
-92.6566125290019
20
-2.73268291521673
30
0.000000000000000
11
-92.5566125290019
21
-2.79071619891429
31
0.000000000000000
  0
LINE
  5
F102F6
330
F102F7
100
AcDbEntity
8
Geo
100
AcDbLine
10
-92.5566125290019
20
-2.79071619891429
30
0.000000000000000
11
-92.4566125290019
21
-2.84164612767843
31
0.000000000000000
  0
LINE
  5
F102F8
330
F102F9
100
AcDbEntity
8
Geo
100
AcDbLine
10
-92.4566125290019
20
-2.84164612767843
30
0.000000000000000
11
-92.3566125290019
21
-2.88539725907742
31
0.000000000000000
  0
LINE
  5
F102FA
330
F102FB
100
AcDbEntity
8
Geo
100
AcDbLine
10
-92.3566125290019
20
-2.88539725907742
30
0.000000000000000
11
-92.2566125290019
21
-2.92190478462194
31
0.000000000000000
  0
LINE
  5
F102FC
330
F102FD
100
AcDbEntity
8
Geo
100
AcDbLine
10
-92.2566125290019
20
-2.92190478462194
30
0.000000000000000
11
-92.1566125290019
21
-2.95111462576582
31
0.000000000000000
  0
LINE
  5
F102FE
330
F102FF
100
AcDbEntity
8
Geo
100
AcDbLine
10
-92.1566125290019
20
-2.95111462576582
30
0.000000000000000
11
-92.0566125290019
21
-2.97298351401250
31
0.000000000000000
  0
LINE
  5
F10300
330
F10301
100
AcDbEntity
8
Geo
100
AcDbLine
10
-92.0566125290019
20
-2.97298351401250
30
0.000000000000000
11
-91.9566125290019
21
-2.98747905500864
31
0.000000000000000
  0
LINE
  5
F10302
330
F10303
100
AcDbEntity
8
Geo
100
AcDbLine
10
-91.9566125290019
20
-2.98747905500864
30
0.000000000000000
11
-91.8566125290019
21
-2.99457977652976
31
0.000000000000000
  0
LINE
  5
F10304
330
F10305
100
AcDbEntity
8
Geo
100
AcDbLine
10
-83.6566125290020
20
7.00461675892781
30
0.000000000000000
11
-83.5566125290020
21
7.00150483218070
31
0.000000000000000
  0
LINE
  5
F10306
330
F10307
100
AcDbEntity
8
Geo
100
AcDbLine
10
-83.5566125290020
20
7.00150483218070
30
0.000000000000000
11
-83.4566125290020
21
6.99099105714534
31
0.000000000000000
  0
LINE
  5
F10308
330
F10309
100
AcDbEntity
8
Geo
100
AcDbLine
10
-83.4566125290020
20
6.99099105714534
30
0.000000000000000
11
-83.3566125290020
21
6.97309100786189
31
0.000000000000000
  0
LINE
  5
F1030A
330
F1030B
100
AcDbEntity
8
Geo
100
AcDbLine
10
-83.3566125290020
20
6.97309100786189
30
0.000000000000000
11
-83.2566125290020
21
6.94783119964813
31
0.000000000000000
  0
LINE
  5
F1030C
330
F1030D
100
AcDbEntity
8
Geo
100
AcDbLine
10
-83.2566125290020
20
6.94783119964813
30
0.000000000000000
11
-83.1566125290020
21
6.91524904982240
31
0.000000000000000
  0
LINE
  5
F1030E
330
F1030F
100
AcDbEntity
8
Geo
100
AcDbLine
10
-83.1566125290020
20
6.91524904982240
30
0.000000000000000
11
-83.0566125290020
21
6.87539282227735
31
0.000000000000000
  0
LINE
  5
F10310
330
F10311
100
AcDbEntity
8
Geo
100
AcDbLine
10
-83.0566125290020
20
6.87539282227735
30
0.000000000000000
11
-82.9566125290020
21
6.82832155598669
31
0.000000000000000
  0
LINE
  5
F10312
330
F10313
100
AcDbEntity
8
Geo
100
AcDbLine
10
-82.9566125290020
20
6.82832155598669
30
0.000000000000000
11
-82.8566125290020
21
6.77410497755090
31
0.000000000000000
  0
LINE
  5
F10314
330
F10315
100
AcDbEntity
8
Geo
100
AcDbLine
10
-82.8566125290020
20
6.77410497755090
30
0.000000000000000
11
-82.7566125290020
21
6.71282339791124
31
0.000000000000000
  0
LINE
  5
F10316
330
F10317
100
AcDbEntity
8
Geo
100
AcDbLine
10
-82.7566125290020
20
6.71282339791124
30
0.000000000000000
11
-82.6566125290020
21
6.64456759338533
31
0.000000000000000
  0
LINE
  5
F10318
330
F10319
100
AcDbEntity
8
Geo
100
AcDbLine
10
-82.6566125290020
20
6.64456759338533
30
0.000000000000000
11
-82.5566125290020
21
6.56943867120028
31
0.000000000000000
  0
LINE
  5
F1031A
330
F1031B
100
AcDbEntity
8
Geo
100
AcDbLine
10
-82.5566125290020
20
6.56943867120028
30
0.000000000000000
11
-82.4566125290019
21
6.48754791972270
31
0.000000000000000
  0
LINE
  5
F1031C
330
F1031D
100
AcDbEntity
8
Geo
100
AcDbLine
10
-82.4566125290019
20
6.48754791972270
30
0.000000000000000
11
-82.3566125290020
21
6.39901664360742
31
0.000000000000000
  0
LINE
  5
F1031E
330
F1031F
100
AcDbEntity
8
Geo
100
AcDbLine
10
-82.3566125290020
20
6.39901664360742
30
0.000000000000000
11
-82.2566125290020
21
6.30397598410907
31
0.000000000000000
  0
LINE
  5
F10320
330
F10321
100
AcDbEntity
8
Geo
100
AcDbLine
10
-82.2566125290020
20
6.30397598410907
30
0.000000000000000
11
-82.1566125290019
21
6.20256672482266
31
0.000000000000000
  0
LINE
  5
F10322
330
F10323
100
AcDbEntity
8
Geo
100
AcDbLine
10
-82.1566125290019
20
6.20256672482266
30
0.000000000000000
11
-82.0566125290019
21
6.08160141179759
31
0.000000000000000
  0
LINE
  5
F10324
330
F10325
100
AcDbEntity
8
Geo
100
AcDbLine
10
-82.0566125290019
20
6.08160141179759
30
0.000000000000000
11
-81.9566125290019
21
5.95562386197131
31
0.000000000000000
  0
LINE
  5
F10326
330
F10327
100
AcDbEntity
8
Geo
100
AcDbLine
10
-81.9566125290019
20
5.95562386197131
30
0.000000000000000
11
-81.8566125290019
21
5.82528498117119
31
0.000000000000000
  0
LINE
  5
F10328
330
F10329
100
AcDbEntity
8
Geo
100
AcDbLine
10
-81.8566125290019
20
5.82528498117119
30
0.000000000000000
11
-81.7566125290019
21
5.69121261333519
31
0.000000000000000
  0
LINE
  5
F1032A
330
F1032B
100
AcDbEntity
8
Geo
100
AcDbLine
10
-81.7566125290019
20
5.69121261333519
30
0.000000000000000
11
-81.6566125290019
21
5.55401020727524
31
0.000000000000000
  0
LINE
  5
F1032C
330
F1032D
100
AcDbEntity
8
Geo
100
AcDbLine
10
-81.6566125290019
20
5.55401020727524
30
0.000000000000000
11
-81.5566125290019
21
5.41425575384948
31
0.000000000000000
  0
LINE
  5
F1032E
330
F1032F
100
AcDbEntity
8
Geo
100
AcDbLine
10
-81.5566125290019
20
5.41425575384948
30
0.000000000000000
11
-81.4566125290019
21
5.27250097587074
31
0.000000000000000
  0
LINE
  5
F10330
330
F10331
100
AcDbEntity
8
Geo
100
AcDbLine
10
-81.4566125290019
20
5.27250097587074
30
0.000000000000000
11
-81.3566125290019
21
5.12927075288123
31
0.000000000000000
  0
LINE
  5
F10332
330
F10333
100
AcDbEntity
8
Geo
100
AcDbLine
10
-81.3566125290019
20
5.12927075288123
30
0.000000000000000
11
-81.2566125290019
21
4.98506276290343
31
0.000000000000000
  0
LINE
  5
F10334
330
F10335
100
AcDbEntity
8
Geo
100
AcDbLine
10
-81.2566125290019
20
4.98506276290343
30
0.000000000000000
11
-81.1566125290019
21
4.84034732341415
31
0.000000000000000
  0
LINE
  5
F10336
330
F10337
100
AcDbEntity
8
Geo
100
AcDbLine
10
-81.1566125290019
20
4.84034732341415
30
0.000000000000000
11
-81.0566125290019
21
4.69556741406320
31
0.000000000000000
  0
LINE
  5
F10338
330
F10339
100
AcDbEntity
8
Geo
100
AcDbLine
10
-81.0566125290019
20
4.69556741406320
30
0.000000000000000
11
-80.9566125290019
21
4.55113886405150
31
0.000000000000000
  0
LINE
  5
F1033A
330
F1033B
100
AcDbEntity
8
Geo
100
AcDbLine
10
-80.9566125290019
20
4.55113886405150
30
0.000000000000000
11
-80.8566125290019
21
4.40745068757821
31
0.000000000000000
  0
LINE
  5
F1033C
330
F1033D
100
AcDbEntity
8
Geo
100
AcDbLine
10
-80.8566125290019
20
4.40745068757821
30
0.000000000000000
11
-80.7566125290019
21
4.26486555134577
31
0.000000000000000
  0
LINE
  5
F1033E
330
F1033F
100
AcDbEntity
8
Geo
100
AcDbLine
10
-80.7566125290019
20
4.26486555134577
30
0.000000000000000
11
-80.6566125290019
21
4.12372035876078
31
0.000000000000000
  0
LINE
  5
F10340
330
F10341
100
AcDbEntity
8
Geo
100
AcDbLine
10
-80.6566125290019
20
4.12372035876078
30
0.000000000000000
11
-80.5566125290019
21
3.98432693617246
31
0.000000000000000
  0
LINE
  5
F10342
330
F10343
100
AcDbEntity
8
Geo
100
AcDbLine
10
-80.5566125290019
20
3.98432693617246
30
0.000000000000000
11
-80.4566125290019
21
3.84697280723644
31
0.000000000000000
  0
LINE
  5
F10344
330
F10345
100
AcDbEntity
8
Geo
100
AcDbLine
10
-80.4566125290019
20
3.84697280723644
30
0.000000000000000
11
-80.3566125290019
21
3.71192204226784
31
0.000000000000000
  0
LINE
  5
F10346
330
F10347
100
AcDbEntity
8
Geo
100
AcDbLine
10
-80.3566125290019
20
3.71192204226784
30
0.000000000000000
11
-80.2566125290019
21
3.57941617024286
31
0.000000000000000
  0
LINE
  5
F10348
330
F10349
100
AcDbEntity
8
Geo
100
AcDbLine
10
-80.2566125290019
20
3.57941617024286
30
0.000000000000000
11
-80.1566125290019
21
3.44967514191311
31
0.000000000000000
  0
LINE
  5
F1034A
330
F1034B
100
AcDbEntity
8
Geo
100
AcDbLine
10
-80.1566125290019
20
3.44967514191311
30
0.000000000000000
11
-80.0566125290019
21
3.32289833330297
31
0.000000000000000
  0
LINE
  5
F1034C
330
F1034D
100
AcDbEntity
8
Geo
100
AcDbLine
10
-80.0566125290019
20
3.32289833330297
30
0.000000000000000
11
-79.9566125290019
21
3.19926557965946
31
0.000000000000000
  0
LINE
  5
F1034E
330
F1034F
100
AcDbEntity
8
Geo
100
AcDbLine
10
-79.9566125290019
20
3.19926557965946
30
0.000000000000000
11
-79.8566125290019
21
3.07893823071031
31
0.000000000000000
  0
LINE
  5
F10350
330
F10351
100
AcDbEntity
8
Geo
100
AcDbLine
10
-79.8566125290019
20
3.07893823071031
30
0.000000000000000
11
-79.7566125290019
21
2.96206021885301
31
0.000000000000000
  0
LINE
  5
F10352
330
F10353
100
AcDbEntity
8
Geo
100
AcDbLine
10
-79.7566125290019
20
2.96206021885301
30
0.000000000000000
11
-79.6566125290019
21
2.84875913264095
31
0.000000000000000
  0
LINE
  5
F10354
330
F10355
100
AcDbEntity
8
Geo
100
AcDbLine
10
-79.6566125290019
20
2.84875913264095
30
0.000000000000000
11
-79.5566125290019
21
2.73914728864822
31
0.000000000000000
  0
LINE
  5
F10356
330
F10357
100
AcDbEntity
8
Geo
100
AcDbLine
10
-79.5566125290019
20
2.73914728864822
30
0.000000000000000
11
-79.4566125290019
21
2.63332279547907
31
0.000000000000000
  0
LINE
  5
F10358
330
F10359
100
AcDbEntity
8
Geo
100
AcDbLine
10
-79.4566125290019
20
2.63332279547907
30
0.000000000000000
11
-79.3566125290019
21
2.53137060433870
31
0.000000000000000
  0
LINE
  5
F1035A
330
F1035B
100
AcDbEntity
8
Geo
100
AcDbLine
10
-79.3566125290019
20
2.53137060433870
30
0.000000000000000
11
-79.2566125290019
21
2.43336354119660
31
0.000000000000000
  0
LINE
  5
F1035C
330
F1035D
100
AcDbEntity
8
Geo
100
AcDbLine
10
-79.2566125290019
20
2.43336354119660
30
0.000000000000000
11
-79.1566125290019
21
2.33936331615171
31
0.000000000000000
  0
LINE
  5
F1035E
330
F1035F
100
AcDbEntity
8
Geo
100
AcDbLine
10
-79.1566125290019
20
2.33936331615171
30
0.000000000000000
11
-79.0566125290019
21
2.24942150614803
31
0.000000000000000
  0
LINE
  5
F10360
330
F10361
100
AcDbEntity
8
Geo
100
AcDbLine
10
-79.0566125290019
20
2.24942150614803
30
0.000000000000000
11
-78.9566125290019
21
2.16358050769021
31
0.000000000000000
  0
LINE
  5
F10362
330
F10363
100
AcDbEntity
8
Geo
100
AcDbLine
10
-78.9566125290019
20
2.16358050769021
30
0.000000000000000
11
-78.8566125290019
21
2.08187445667131
31
0.000000000000000
  0
LINE
  5
F10364
330
F10365
100
AcDbEntity
8
Geo
100
AcDbLine
10
-78.8566125290019
20
2.08187445667131
30
0.000000000000000
11
-78.7566125290019
21
2.00433011284858
31
0.000000000000000
  0
LINE
  5
F10366
330
F10367
100
AcDbEntity
8
Geo
100
AcDbLine
10
-78.7566125290019
20
2.00433011284858
30
0.000000000000000
11
-78.6566125290019
21
1.93096770688948
31
0.000000000000000
  0
LINE
  5
F10368
330
F10369
100
AcDbEntity
8
Geo
100
AcDbLine
10
-78.6566125290019
20
1.93096770688948
30
0.000000000000000
11
-78.5566125290019
21
1.86180174825955
31
0.000000000000000
  0
LINE
  5
F1036A
330
F1036B
100
AcDbEntity
8
Geo
100
AcDbLine
10
-78.5566125290019
20
1.86180174825955
30
0.000000000000000
11
-78.4566125290019
21
1.79684179253718
31
0.000000000000000
  0
LINE
  5
F1036C
330
F1036D
100
AcDbEntity
8
Geo
100
AcDbLine
10
-78.4566125290019
20
1.79684179253718
30
0.000000000000000
11
-78.3566125290019
21
1.73609316701927
31
0.000000000000000
  0
LINE
  5
F1036E
330
F1036F
100
AcDbEntity
8
Geo
100
AcDbLine
10
-78.3566125290019
20
1.73609316701927
30
0.000000000000000
11
-78.2566125290019
21
1.67955765372784
31
0.000000000000000
  0
LINE
  5
F10370
330
F10371
100
AcDbEntity
8
Geo
100
AcDbLine
10
-78.2566125290019
20
1.67955765372784
30
0.000000000000000
11
-78.1566125290019
21
1.62723412914199
31
0.000000000000000
  0
LINE
  5
F10372
330
F10373
100
AcDbEntity
8
Geo
100
AcDbLine
10
-78.1566125290019
20
1.62723412914199
30
0.000000000000000
11
-78.0566125290019
21
1.57911916016416
31
0.000000000000000
  0
LINE
  5
F10374
330
F10375
100
AcDbEntity
8
Geo
100
AcDbLine
10
-78.0566125290019
20
1.57911916016416
30
0.000000000000000
11
-77.9566125290019
21
1.53520755598629
31
0.000000000000000
  0
LINE
  5
F10376
330
F10377
100
AcDbEntity
8
Geo
100
AcDbLine
10
-77.9566125290019
20
1.53520755598629
30
0.000000000000000
11
-77.8566125290019
21
1.49549287565181
31
0.000000000000000
  0
LINE
  5
F10378
330
F10379
100
AcDbEntity
8
Geo
100
AcDbLine
10
-77.8566125290019
20
1.49549287565181
30
0.000000000000000
11
-77.7566125290019
21
1.45996789121539
31
0.000000000000000
  0
LINE
  5
F1037A
330
F1037B
100
AcDbEntity
8
Geo
100
AcDbLine
10
-77.7566125290019
20
1.45996789121539
30
0.000000000000000
11
-77.6566125290018
21
1.42862500648597
31
0.000000000000000
  0
LINE
  5
F1037C
330
F1037D
100
AcDbEntity
8
Geo
100
AcDbLine
10
-77.6566125290018
20
1.42862500648597
30
0.000000000000000
11
-77.5566125290019
21
1.40145663140189
31
0.000000000000000
  0
LINE
  5
F1037E
330
F1037F
100
AcDbEntity
8
Geo
100
AcDbLine
10
-77.5566125290019
20
1.40145663140189
30
0.000000000000000
11
-77.4566125290019
21
1.37845551213129
31
0.000000000000000
  0
LINE
  5
F10380
330
F10381
100
AcDbEntity
8
Geo
100
AcDbLine
10
-77.4566125290019
20
1.37845551213129
30
0.000000000000000
11
-77.3566125290019
21
1.35961501701945
31
0.000000000000000
  0
LINE
  5
F10382
330
F10383
100
AcDbEntity
8
Geo
100
AcDbLine
10
-77.3566125290019
20
1.35961501701945
30
0.000000000000000
11
-77.2566125290018
21
1.34492937851781
31
0.000000000000000
  0
LINE
  5
F10384
330
F10385
100
AcDbEntity
8
Geo
100
AcDbLine
10
-77.2566125290018
20
1.34492937851781
30
0.000000000000000
11
-77.1566125290019
21
1.33439389123061
31
0.000000000000000
  0
LINE
  5
F10386
330
F10387
100
AcDbEntity
8
Geo
100
AcDbLine
10
-99.1566125290019
20
2.00464037122977
30
0.000000000000000
11
-99.0566125290019
21
1.81517744628143
31
0.000000000000000
  0
LINE
  5
F10388
330
F10389
100
AcDbEntity
8
Geo
100
AcDbLine
10
-99.0566125290019
20
1.81517744628143
30
0.000000000000000
11
-98.9566125290019
21
1.62143969200790
31
0.000000000000000
  0
LINE
  5
F1038A
330
F1038B
100
AcDbEntity
8
Geo
100
AcDbLine
10
-98.9566125290019
20
1.62143969200790
30
0.000000000000000
11
-98.8566125290019
21
1.42857224757609
31
0.000000000000000
  0
LINE
  5
F1038C
330
F1038D
100
AcDbEntity
8
Geo
100
AcDbLine
10
-98.8566125290019
20
1.42857224757609
30
0.000000000000000
11
-98.7566125290019
21
1.23787759657764
31
0.000000000000000
  0
LINE
  5
F1038E
330
F1038F
100
AcDbEntity
8
Geo
100
AcDbLine
10
-98.7566125290019
20
1.23787759657764
30
0.000000000000000
11
-98.6566125290019
21
1.04831875019734
31
0.000000000000000
  0
LINE
  5
F10390
330
F10391
100
AcDbEntity
8
Geo
100
AcDbLine
10
-98.6566125290019
20
1.04831875019734
30
0.000000000000000
11
-98.5566125290019
21
0.860176501687365
31
0.000000000000000
  0
LINE
  5
F10392
330
F10393
100
AcDbEntity
8
Geo
100
AcDbLine
10
-98.5566125290019
20
0.860176501687365
30
0.000000000000000
11
-98.4566125290019
21
0.673729545895437
31
0.000000000000000
  0
LINE
  5
F10394
330
F10395
100
AcDbEntity
8
Geo
100
AcDbLine
10
-98.4566125290019
20
0.673729545895437
30
0.000000000000000
11
-98.3566125290019
21
0.489254066434576
31
0.000000000000000
  0
LINE
  5
F10396
330
F10397
100
AcDbEntity
8
Geo
100
AcDbLine
10
-98.3566125290019
20
0.489254066434576
30
0.000000000000000
11
-98.2566125290019
21
0.307023326572685
31
0.000000000000000
  0
LINE
  5
F10398
330
F10399
100
AcDbEntity
8
Geo
100
AcDbLine
10
-98.2566125290019
20
0.307023326572685
30
0.000000000000000
11
-98.1566125290019
21
0.127307264448061
31
0.000000000000000
  0
LINE
  5
F1039A
330
F1039B
100
AcDbEntity
8
Geo
100
AcDbLine
10
-98.1566125290019
20
0.127307264448061
30
0.000000000000000
11
-98.0566125290019
21
-0.0496279067895893
31
0.000000000000000
  0
LINE
  5
F1039C
330
F1039D
100
AcDbEntity
8
Geo
100
AcDbLine
10
-98.0566125290019
20
-0.0496279067895893
30
0.000000000000000
11
-97.9566125290019
21
-0.223520093320312
31
0.000000000000000
  0
LINE
  5
F1039E
330
F1039F
100
AcDbEntity
8
Geo
100
AcDbLine
10
-97.9566125290019
20
-0.223520093320312
30
0.000000000000000
11
-97.8566125290019
21
-0.394111708893118
31
0.000000000000000
  0
LINE
  5
F103A0
330
F103A1
100
AcDbEntity
8
Geo
100
AcDbLine
10
-97.8566125290019
20
-0.394111708893118
30
0.000000000000000
11
-97.7566125290019
21
-0.561150056388121
31
0.000000000000000
  0
LINE
  5
F103A2
330
F103A3
100
AcDbEntity
8
Geo
100
AcDbLine
10
-97.7566125290019
20
-0.561150056388121
30
0.000000000000000
11
-97.6566125290019
21
-0.724387702136446
31
0.000000000000000
  0
LINE
  5
F103A4
330
F103A5
100
AcDbEntity
8
Geo
100
AcDbLine
10
-97.6566125290019
20
-0.724387702136446
30
0.000000000000000
11
-97.5566125290019
21
-0.883582842443350
31
0.000000000000000
  0
LINE
  5
F103A6
330
F103A7
100
AcDbEntity
8
Geo
100
AcDbLine
10
-97.5566125290019
20
-0.883582842443350
30
0.000000000000000
11
-97.4566125290019
21
-1.03849966177172
31
0.000000000000000
  0
LINE
  5
F103A8
330
F103A9
100
AcDbEntity
8
Geo
100
AcDbLine
10
-97.4566125290019
20
-1.03849966177172
30
0.000000000000000
11
-97.3566125290019
21
-1.18890868205526
31
0.000000000000000
  0
LINE
  5
F103AA
330
F103AB
100
AcDbEntity
8
Geo
100
AcDbLine
10
-97.3566125290019
20
-1.18890868205526
30
0.000000000000000
11
-97.2566125290019
21
-1.33458710262408
31
0.000000000000000
  0
LINE
  5
F103AC
330
F103AD
100
AcDbEntity
8
Geo
100
AcDbLine
10
-97.2566125290019
20
-1.33458710262408
30
0.000000000000000
11
-97.1566125290019
21
-1.47531913023897
31
0.000000000000000
  0
LINE
  5
F103AE
330
F103AF
100
AcDbEntity
8
Geo
100
AcDbLine
10
-97.1566125290019
20
-1.47531913023897
30
0.000000000000000
11
-97.0566125290019
21
-1.61089629874563
31
0.000000000000000
  0
LINE
  5
F103B0
330
F103B1
100
AcDbEntity
8
Geo
100
AcDbLine
10
-97.0566125290019
20
-1.61089629874563
30
0.000000000000000
11
-96.9566125290019
21
-1.74111777787530
31
0.000000000000000
  0
LINE
  5
F103B2
330
F103B3
100
AcDbEntity
8
Geo
100
AcDbLine
10
-96.9566125290019
20
-1.74111777787530
30
0.000000000000000
11
-96.8566125290019
21
-1.86579067073436
31
0.000000000000000
  0
LINE
  5
F103B4
330
F103B5
100
AcDbEntity
8
Geo
100
AcDbLine
10
-96.8566125290019
20
-1.86579067073436
30
0.000000000000000
11
-96.7566125290019
21
-1.98473029954221
31
0.000000000000000
  0
LINE
  5
F103B6
330
F103B7
100
AcDbEntity
8
Geo
100
AcDbLine
10
-96.7566125290019
20
-1.98473029954221
30
0.000000000000000
11
-96.6566125290019
21
-2.09776047919421
31
0.000000000000000
  0
LINE
  5
F103B8
330
F103B9
100
AcDbEntity
8
Geo
100
AcDbLine
10
-96.6566125290019
20
-2.09776047919421
30
0.000000000000000
11
-96.5566125290019
21
-2.20471377824444
31
0.000000000000000
  0
LINE
  5
F103BA
330
F103BB
100
AcDbEntity
8
Geo
100
AcDbLine
10
-96.5566125290019
20
-2.20471377824444
30
0.000000000000000
11
-96.4566125290019
21
-2.30543176692167
31
0.000000000000000
  0
LINE
  5
F103BC
330
F103BD
100
AcDbEntity
8
Geo
100
AcDbLine
10
-96.4566125290019
20
-2.30543176692167
30
0.000000000000000
11
-96.3566125290019
21
-2.39976525181110
31
0.000000000000000
  0
LINE
  5
F103BE
330
F103BF
100
AcDbEntity
8
Geo
100
AcDbLine
10
-96.3566125290019
20
-2.39976525181110
30
0.000000000000000
11
-96.2566125290019
21
-2.48757449685444
31
0.000000000000000
  0
LINE
  5
F103C0
330
F103C1
100
AcDbEntity
8
Geo
100
AcDbLine
10
-96.2566125290019
20
-2.48757449685444
30
0.000000000000000
11
-96.1566125290019
21
-2.56872943034068
31
0.000000000000000
  0
LINE
  5
F103C2
330
F103C3
100
AcDbEntity
8
Geo
100
AcDbLine
10
-96.1566125290019
20
-2.56872943034068
30
0.000000000000000
11
-96.0566125290019
21
-2.64310983758115
31
0.000000000000000
  0
LINE
  5
F103C4
330
F103C5
100
AcDbEntity
8
Geo
100
AcDbLine
10
-96.0566125290019
20
-2.64310983758115
30
0.000000000000000
11
-95.9566125290019
21
-2.71060553898337
31
0.000000000000000
  0
LINE
  5
F103C6
330
F103C7
100
AcDbEntity
8
Geo
100
AcDbLine
10
-95.9566125290019
20
-2.71060553898337
30
0.000000000000000
11
-95.8566125290019
21
-2.77111655325990
31
0.000000000000000
  0
LINE
  5
F103C8
330
F103C9
100
AcDbEntity
8
Geo
100
AcDbLine
10
-95.8566125290019
20
-2.77111655325990
30
0.000000000000000
11
-95.7566125290019
21
-2.82455324553053
31
0.000000000000000
  0
LINE
  5
F103CA
330
F103CB
100
AcDbEntity
8
Geo
100
AcDbLine
10
-95.7566125290019
20
-2.82455324553053
30
0.000000000000000
11
-95.6566125290019
21
-2.87083646009825
31
0.000000000000000
  0
LINE
  5
F103CC
330
F103CD
100
AcDbEntity
8
Geo
100
AcDbLine
10
-95.6566125290019
20
-2.87083646009825
30
0.000000000000000
11
-95.5566125290019
21
-2.90989763770253
31
0.000000000000000
  0
LINE
  5
F103CE
330
F103CF
100
AcDbEntity
8
Geo
100
AcDbLine
10
-95.5566125290019
20
-2.90989763770253
30
0.000000000000000
11
-95.4566125290019
21
-2.94167891707598
31
0.000000000000000
  0
LINE
  5
F103D0
330
F103D1
100
AcDbEntity
8
Geo
100
AcDbLine
10
-95.4566125290019
20
-2.94167891707598
30
0.000000000000000
11
-95.3566125290019
21
-2.96613322065423
31
0.000000000000000
  0
LINE
  5
F103D2
330
F103D3
100
AcDbEntity
8
Geo
100
AcDbLine
10
-95.3566125290019
20
-2.96613322065423
30
0.000000000000000
11
-95.2566125290019
21
-2.98322432431183
31
0.000000000000000
  0
LINE
  5
F103D4
330
F103D5
100
AcDbEntity
8
Geo
100
AcDbLine
10
-95.2566125290019
20
-2.98322432431183
30
0.000000000000000
11
-95.1566125290019
21
-2.99292691102101
31
0.000000000000000
  0
LINE
  5
F103D6
330
F103D7
100
AcDbEntity
8
Geo
100
AcDbLine
10
-86.9566125290019
20
7.00395092330870
30
0.000000000000000
11
-86.8566125290020
21
7.00344322994783
31
0.000000000000000
  0
LINE
  5
F103D8
330
F103D9
100
AcDbEntity
8
Geo
100
AcDbLine
10
-86.8566125290020
20
7.00344322994783
30
0.000000000000000
11
-86.7566125290019
21
6.99553081695283
31
0.000000000000000
  0
LINE
  5
F103DA
330
F103DB
100
AcDbEntity
8
Geo
100
AcDbLine
10
-86.7566125290019
20
6.99553081695283
30
0.000000000000000
11
-86.6566125290019
21
6.98022540496993
31
0.000000000000000
  0
LINE
  5
F103DC
330
F103DD
100
AcDbEntity
8
Geo
100
AcDbLine
10
-86.6566125290019
20
6.98022540496993
30
0.000000000000000
11
-86.5566125290020
21
6.95754966588433
31
0.000000000000000
  0
LINE
  5
F103DE
330
F103DF
100
AcDbEntity
8
Geo
100
AcDbLine
10
-86.5566125290020
20
6.95754966588433
30
0.000000000000000
11
-86.4566125290019
21
6.92753718923642
31
0.000000000000000
  0
LINE
  5
F103E0
330
F103E1
100
AcDbEntity
8
Geo
100
AcDbLine
10
-86.4566125290019
20
6.92753718923642
30
0.000000000000000
11
-86.3566125290020
21
6.89023243246557
31
0.000000000000000
  0
LINE
  5
F103E2
330
F103E3
100
AcDbEntity
8
Geo
100
AcDbLine
10
-86.3566125290020
20
6.89023243246557
30
0.000000000000000
11
-86.2566125290020
21
6.84569065505545
31
0.000000000000000
  0
LINE
  5
F103E4
330
F103E5
100
AcDbEntity
8
Geo
100
AcDbLine
10
-86.2566125290020
20
6.84569065505545
30
0.000000000000000
11
-86.1566125290019
21
6.79397783667821
31
0.000000000000000
  0
LINE
  5
F103E6
330
F103E7
100
AcDbEntity
8
Geo
100
AcDbLine
10
-86.1566125290019
20
6.79397783667821
30
0.000000000000000
11
-86.0566125290020
21
6.73517057945887
31
0.000000000000000
  0
LINE
  5
F103E8
330
F103E9
100
AcDbEntity
8
Geo
100
AcDbLine
10
-86.0566125290020
20
6.73517057945887
30
0.000000000000000
11
-85.9566125290019
21
6.66935599450472
31
0.000000000000000
  0
LINE
  5
F103EA
330
F103EB
100
AcDbEntity
8
Geo
100
AcDbLine
10
-85.9566125290019
20
6.66935599450472
30
0.000000000000000
11
-85.8566125290020
21
6.59663157286776
31
0.000000000000000
  0
LINE
  5
F103EC
330
F103ED
100
AcDbEntity
8
Geo
100
AcDbLine
10
-85.8566125290020
20
6.59663157286776
30
0.000000000000000
11
-85.7566125290020
21
6.51710504113134
31
0.000000000000000
  0
LINE
  5
F103EE
330
F103EF
100
AcDbEntity
8
Geo
100
AcDbLine
10
-85.7566125290020
20
6.51710504113134
30
0.000000000000000
11
-85.6566125290019
21
6.43089420183491
31
0.000000000000000
  0
LINE
  5
F103F0
330
F103F1
100
AcDbEntity
8
Geo
100
AcDbLine
10
-85.6566125290019
20
6.43089420183491
30
0.000000000000000
11
-85.5566125290020
21
6.33812675897330
31
0.000000000000000
  0
LINE
  5
F103F2
330
F103F3
100
AcDbEntity
8
Geo
100
AcDbLine
10
-85.5566125290020
20
6.33812675897330
30
0.000000000000000
11
-85.4566125290019
21
6.23894012882895
31
0.000000000000000
  0
LINE
  5
F103F4
330
F103F5
100
AcDbEntity
8
Geo
100
AcDbLine
10
-85.4566125290019
20
6.23894012882895
30
0.000000000000000
11
-85.3566125290020
21
6.13348123641741
31
0.000000000000000
  0
LINE
  5
F103F6
330
F103F7
100
AcDbEntity
8
Geo
100
AcDbLine
10
-85.3566125290020
20
6.13348123641741
30
0.000000000000000
11
-85.2566125290020
21
6.02190629784747
31
0.000000000000000
  0
LINE
  5
F103F8
330
F103F9
100
AcDbEntity
8
Geo
100
AcDbLine
10
-85.2566125290020
20
6.02190629784747
30
0.000000000000000
11
-85.1566125290019
21
5.90438058891849
31
0.000000000000000
  0
LINE
  5
F103FA
330
F103FB
100
AcDbEntity
8
Geo
100
AcDbLine
10
-85.1566125290019
20
5.90438058891849
30
0.000000000000000
11
-85.0566125290020
21
5.78107820029757
31
0.000000000000000
  0
LINE
  5
F103FC
330
F103FD
100
AcDbEntity
8
Geo
100
AcDbLine
10
-85.0566125290020
20
5.78107820029757
30
0.000000000000000
11
-84.9566125290020
21
5.65218177963933
31
0.000000000000000
  0
LINE
  5
F103FE
330
F103FF
100
AcDbEntity
8
Geo
100
AcDbLine
10
-84.9566125290020
20
5.65218177963933
30
0.000000000000000
11
-84.8566125290020
21
5.51788226103013
31
0.000000000000000
  0
LINE
  5
F10400
330
F10401
100
AcDbEntity
8
Geo
100
AcDbLine
10
-84.8566125290020
20
5.51788226103013
30
0.000000000000000
11
-84.7566125290020
21
5.37837858215775
31
0.000000000000000
  0
LINE
  5
F10402
330
F10403
100
AcDbEntity
8
Geo
100
AcDbLine
10
-84.7566125290020
20
5.37837858215775
30
0.000000000000000
11
-84.6566125290020
21
5.23387738962521
31
0.000000000000000
  0
LINE
  5
F10404
330
F10405
100
AcDbEntity
8
Geo
100
AcDbLine
10
-84.6566125290020
20
5.23387738962521
30
0.000000000000000
11
-84.5566125290020
21
5.08459273284549
31
0.000000000000000
  0
LINE
  5
F10406
330
F10407
100
AcDbEntity
8
Geo
100
AcDbLine
10
-84.5566125290020
20
5.08459273284549
30
0.000000000000000
11
-84.4566125290020
21
4.93074574697043
31
0.000000000000000
  0
LINE
  5
F10408
330
F10409
100
AcDbEntity
8
Geo
100
AcDbLine
10
-84.4566125290020
20
4.93074574697043
30
0.000000000000000
11
-84.3566125290020
21
4.77256432532351
31
0.000000000000000
  0
LINE
  5
F1040A
330
F1040B
100
AcDbEntity
8
Geo
100
AcDbLine
10
-84.3566125290020
20
4.77256432532351
30
0.000000000000000
11
-84.2566125290020
21
4.61028278182183
31
0.000000000000000
  0
LINE
  5
F1040C
330
F1040D
100
AcDbEntity
8
Geo
100
AcDbLine
10
-84.2566125290020
20
4.61028278182183
30
0.000000000000000
11
-84.1566125290020
21
4.44414150388722
31
0.000000000000000
  0
LINE
  5
F1040E
330
F1040F
100
AcDbEntity
8
Geo
100
AcDbLine
10
-84.1566125290020
20
4.44414150388722
30
0.000000000000000
11
-84.0566125290020
21
4.27438659636068
31
0.000000000000000
  0
LINE
  5
F10410
330
F10411
100
AcDbEntity
8
Geo
100
AcDbLine
10
-84.0566125290020
20
4.27438659636068
30
0.000000000000000
11
-83.9566125290020
21
4.10126951694764
31
0.000000000000000
  0
LINE
  5
F10412
330
F10413
100
AcDbEntity
8
Geo
100
AcDbLine
10
-83.9566125290020
20
4.10126951694764
30
0.000000000000000
11
-83.8566125290020
21
3.92504670373402
31
0.000000000000000
  0
LINE
  5
F10414
330
F10415
100
AcDbEntity
8
Geo
100
AcDbLine
10
-83.8566125290020
20
3.92504670373402
30
0.000000000000000
11
-83.7566125290020
21
3.74597919532483
31
0.000000000000000
  0
LINE
  5
F10416
330
F10417
100
AcDbEntity
8
Geo
100
AcDbLine
10
-83.7566125290020
20
3.74597919532483
30
0.000000000000000
11
-83.6566125290020
21
3.56433224416807
31
0.000000000000000
  0
LINE
  5
F10418
330
F10419
100
AcDbEntity
8
Geo
100
AcDbLine
10
-83.6566125290020
20
3.56433224416807
30
0.000000000000000
11
-83.5566125290020
21
3.38037492363665
31
0.000000000000000
  0
LINE
  5
F1041A
330
F1041B
100
AcDbEntity
8
Geo
100
AcDbLine
10
-83.5566125290020
20
3.38037492363665
30
0.000000000000000
11
-83.4566125290020
21
3.19437972945038
31
0.000000000000000
  0
LINE
  5
F1041C
330
F1041D
100
AcDbEntity
8
Geo
100
AcDbLine
10
-83.4566125290020
20
3.19437972945038
30
0.000000000000000
11
-83.3566125290020
21
3.00662217602845
31
0.000000000000000
  0
LINE
  5
F1041E
330
F1041F
100
AcDbEntity
8
Geo
100
AcDbLine
10
-83.3566125290020
20
3.00662217602845
30
0.000000000000000
11
-83.2566125290020
21
2.81738038837030
31
0.000000000000000
  0
LINE
  5
F10420
330
F10421
100
AcDbEntity
8
Geo
100
AcDbLine
10
-83.2566125290020
20
2.81738038837030
30
0.000000000000000
11
-83.1566125290020
21
2.62693469006946
31
0.000000000000000
  0
LINE
  5
F10422
330
F10423
100
AcDbEntity
8
Geo
100
AcDbLine
10
-83.1566125290020
20
2.62693469006946
30
0.000000000000000
11
-83.0566125290020
21
2.43556718807057
31
0.000000000000000
  0
LINE
  5
F10424
330
F10425
100
AcDbEntity
8
Geo
100
AcDbLine
10
-83.0566125290020
20
2.43556718807057
30
0.000000000000000
11
-82.9566125290020
21
2.24356135478483
31
0.000000000000000
  0
LINE
  5
F10426
330
F10427
100
AcDbEntity
8
Geo
100
AcDbLine
10
-82.9566125290020
20
2.24356135478483
30
0.000000000000000
11
-82.8566125290020
21
2.05120160818265
31
0.000000000000000
  0
LINE
  5
F10428
330
F10429
100
AcDbEntity
8
Geo
100
AcDbLine
10
-82.8566125290020
20
2.05120160818265
30
0.000000000000000
11
-82.7566125290020
21
1.85877289048575
31
0.000000000000000
  0
LINE
  5
F1042A
330
F1042B
100
AcDbEntity
8
Geo
100
AcDbLine
10
-82.7566125290020
20
1.85877289048575
30
0.000000000000000
11
-82.6566125290020
21
1.66656024608263
31
0.000000000000000
  0
LINE
  5
F1042C
330
F1042D
100
AcDbEntity
8
Geo
100
AcDbLine
10
-82.6566125290020
20
1.66656024608263
30
0.000000000000000
11
-82.5566125290020
21
1.47484839929273
31
0.000000000000000
  0
LINE
  5
F1042E
330
F1042F
100
AcDbEntity
8
Geo
100
AcDbLine
10
-82.5566125290020
20
1.47484839929273
30
0.000000000000000
11
-82.4566125290019
21
1.28392133260468
31
0.000000000000000
  0
LINE
  5
F10430
330
F10431
100
AcDbEntity
8
Geo
100
AcDbLine
10
-82.4566125290019
20
1.28392133260468
30
0.000000000000000
11
-82.3566125290020
21
1.09406186601347
31
0.000000000000000
  0
LINE
  5
F10432
330
F10433
100
AcDbEntity
8
Geo
100
AcDbLine
10
-82.3566125290020
20
1.09406186601347
30
0.000000000000000
11
-82.2566125290020
21
0.905551238079539
31
0.000000000000000
  0
LINE
  5
F10434
330
F10435
100
AcDbEntity
8
Geo
100
AcDbLine
10
-82.2566125290020
20
0.905551238079539
30
0.000000000000000
11
-82.1566125290019
21
0.718668689330491
31
0.000000000000000
  0
LINE
  5
F10436
330
F10437
100
AcDbEntity
8
Geo
100
AcDbLine
10
-82.1566125290019
20
0.718668689330491
30
0.000000000000000
11
-82.0566125290019
21
0.741829254354735
31
0.000000000000000
  0
LINE
  5
F10438
330
F10439
100
AcDbEntity
8
Geo
100
AcDbLine
10
-82.0566125290019
20
0.741829254354735
30
0.000000000000000
11
-81.9566125290019
21
0.764568606234203
31
0.000000000000000
  0
LINE
  5
F1043A
330
F1043B
100
AcDbEntity
8
Geo
100
AcDbLine
10
-81.9566125290019
20
0.764568606234203
30
0.000000000000000
11
-81.8566125290019
21
0.786884603868649
31
0.000000000000000
  0
LINE
  5
F1043C
330
F1043D
100
AcDbEntity
8
Geo
100
AcDbLine
10
-81.8566125290019
20
0.786884603868649
30
0.000000000000000
11
-81.7566125290019
21
0.808775196148230
31
0.000000000000000
  0
LINE
  5
F1043E
330
F1043F
100
AcDbEntity
8
Geo
100
AcDbLine
10
-81.7566125290019
20
0.808775196148230
30
0.000000000000000
11
-81.6566125290019
21
0.830238419183720
31
0.000000000000000
  0
LINE
  5
F10440
330
F10441
100
AcDbEntity
8
Geo
100
AcDbLine
10
-81.6566125290019
20
0.830238419183720
30
0.000000000000000
11
-81.5566125290019
21
0.851272393582359
31
0.000000000000000
  0
LINE
  5
F10442
330
F10443
100
AcDbEntity
8
Geo
100
AcDbLine
10
-81.5566125290019
20
0.851272393582359
30
0.000000000000000
11
-81.4566125290019
21
0.871875321770219
31
0.000000000000000
  0
LINE
  5
F10444
330
F10445
100
AcDbEntity
8
Geo
100
AcDbLine
10
-81.4566125290019
20
0.871875321770219
30
0.000000000000000
11
-81.3566125290019
21
0.892045485361881
31
0.000000000000000
  0
LINE
  5
F10446
330
F10447
100
AcDbEntity
8
Geo
100
AcDbLine
10
-81.3566125290019
20
0.892045485361881
30
0.000000000000000
11
-81.2566125290019
21
0.911781242578228
31
0.000000000000000
  0
LINE
  5
F10448
330
F10449
100
AcDbEntity
8
Geo
100
AcDbLine
10
-81.2566125290019
20
0.911781242578228
30
0.000000000000000
11
-81.1566125290019
21
0.931081025713069
31
0.000000000000000
  0
LINE
  5
F1044A
330
F1044B
100
AcDbEntity
8
Geo
100
AcDbLine
10
-81.1566125290019
20
0.931081025713069
30
0.000000000000000
11
-81.0566125290019
21
0.949943338649317
31
0.000000000000000
  0
LINE
  5
F1044C
330
F1044D
100
AcDbEntity
8
Geo
100
AcDbLine
10
-81.0566125290019
20
0.949943338649317
30
0.000000000000000
11
-80.9566125290019
21
0.968366754425367
31
0.000000000000000
  0
LINE
  5
F1044E
330
F1044F
100
AcDbEntity
8
Geo
100
AcDbLine
10
-80.9566125290019
20
0.968366754425367
30
0.000000000000000
11
-80.8566125290019
21
0.986349912852334
31
0.000000000000000
  0
LINE
  5
F10450
330
F10451
100
AcDbEntity
8
Geo
100
AcDbLine
10
-80.8566125290019
20
0.986349912852334
30
0.000000000000000
11
-80.7566125290019
21
1.00389151818272
31
0.000000000000000
  0
LINE
  5
F10452
330
F10453
100
AcDbEntity
8
Geo
100
AcDbLine
10
-80.7566125290019
20
1.00389151818272
30
0.000000000000000
11
-80.6566125290019
21
1.02099033683112
31
0.000000000000000
  0
LINE
  5
F10454
330
F10455
100
AcDbEntity
8
Geo
100
AcDbLine
10
-80.6566125290019
20
1.02099033683112
30
0.000000000000000
11
-80.5566125290019
21
1.03764519514742
31
0.000000000000000
  0
LINE
  5
F10456
330
F10457
100
AcDbEntity
8
Geo
100
AcDbLine
10
-80.5566125290019
20
1.03764519514742
30
0.000000000000000
11
-80.4566125290019
21
1.05385497724316
31
0.000000000000000
  0
LINE
  5
F10458
330
F10459
100
AcDbEntity
8
Geo
100
AcDbLine
10
-80.4566125290019
20
1.05385497724316
30
0.000000000000000
11
-80.3566125290019
21
1.06961862287128
31
0.000000000000000
  0
LINE
  5
F1045A
330
F1045B
100
AcDbEntity
8
Geo
100
AcDbLine
10
-80.3566125290019
20
1.06961862287128
30
0.000000000000000
11
-80.2566125290019
21
1.08493512536004
31
0.000000000000000
  0
LINE
  5
F1045C
330
F1045D
100
AcDbEntity
8
Geo
100
AcDbLine
10
-80.2566125290019
20
1.08493512536004
30
0.000000000000000
11
-80.1566125290019
21
1.09980352960121
31
0.000000000000000
  0
LINE
  5
F1045E
330
F1045F
100
AcDbEntity
8
Geo
100
AcDbLine
10
-80.1566125290019
20
1.09980352960121
30
0.000000000000000
11
-80.0566125290019
21
1.11422293009314
31
0.000000000000000
  0
LINE
  5
F10460
330
F10461
100
AcDbEntity
8
Geo
100
AcDbLine
10
-80.0566125290019
20
1.11422293009314
30
0.000000000000000
11
-79.9566125290019
21
1.12819246903903
31
0.000000000000000
  0
LINE
  5
F10462
330
F10463
100
AcDbEntity
8
Geo
100
AcDbLine
10
-79.9566125290019
20
1.12819246903903
30
0.000000000000000
11
-79.8566125290019
21
1.14171133450075
31
0.000000000000000
  0
LINE
  5
F10464
330
F10465
100
AcDbEntity
8
Geo
100
AcDbLine
10
-79.8566125290019
20
1.14171133450075
30
0.000000000000000
11
-79.7566125290019
21
1.15477875860857
31
0.000000000000000
  0
LINE
  5
F10466
330
F10467
100
AcDbEntity
8
Geo
100
AcDbLine
10
-79.7566125290019
20
1.15477875860857
30
0.000000000000000
11
-79.6566125290019
21
1.16739401582702
31
0.000000000000000
  0
LINE
  5
F10468
330
F10469
100
AcDbEntity
8
Geo
100
AcDbLine
10
-79.6566125290019
20
1.16739401582702
30
0.000000000000000
11
-79.5566125290019
21
1.17955642127734
31
0.000000000000000
  0
LINE
  5
F1046A
330
F1046B
100
AcDbEntity
8
Geo
100
AcDbLine
10
-79.5566125290019
20
1.17955642127734
30
0.000000000000000
11
-79.4566125290019
21
1.19126532911664
31
0.000000000000000
  0
LINE
  5
F1046C
330
F1046D
100
AcDbEntity
8
Geo
100
AcDbLine
10
-79.4566125290019
20
1.19126532911664
30
0.000000000000000
11
-79.3566125290019
21
1.20252013097410
31
0.000000000000000
  0
LINE
  5
F1046E
330
F1046F
100
AcDbEntity
8
Geo
100
AcDbLine
10
-79.3566125290019
20
1.20252013097410
30
0.000000000000000
11
-79.2566125290019
21
1.21332025444445
31
0.000000000000000
  0
LINE
  5
F10470
330
F10471
100
AcDbEntity
8
Geo
100
AcDbLine
10
-79.2566125290019
20
1.21332025444445
30
0.000000000000000
11
-79.1566125290019
21
1.22366516163894
31
0.000000000000000
  0
LINE
  5
F10472
330
F10473
100
AcDbEntity
8
Geo
100
AcDbLine
10
-79.1566125290019
20
1.22366516163894
30
0.000000000000000
11
-79.0566125290019
21
1.23355434779398
31
0.000000000000000
  0
LINE
  5
F10474
330
F10475
100
AcDbEntity
8
Geo
100
AcDbLine
10
-79.0566125290019
20
1.23355434779398
30
0.000000000000000
11
-78.9566125290019
21
1.24298733993774
31
0.000000000000000
  0
LINE
  5
F10476
330
F10477
100
AcDbEntity
8
Geo
100
AcDbLine
10
-78.9566125290019
20
1.24298733993774
30
0.000000000000000
11
-78.8566125290019
21
1.25196369561475
31
0.000000000000000
  0
LINE
  5
F10478
330
F10479
100
AcDbEntity
8
Geo
100
AcDbLine
10
-78.8566125290019
20
1.25196369561475
30
0.000000000000000
11
-78.7566125290019
21
1.26048300166877
31
0.000000000000000
  0
LINE
  5
F1047A
330
F1047B
100
AcDbEntity
8
Geo
100
AcDbLine
10
-78.7566125290019
20
1.26048300166877
30
0.000000000000000
11
-78.6566125290019
21
1.26854487308410
31
0.000000000000000
  0
LINE
  5
F1047C
330
F1047D
100
AcDbEntity
8
Geo
100
AcDbLine
10
-78.6566125290019
20
1.26854487308410
30
0.000000000000000
11
-78.5566125290019
21
1.27614895188536
31
0.000000000000000
  0
LINE
  5
F1047E
330
F1047F
100
AcDbEntity
8
Geo
100
AcDbLine
10
-78.5566125290019
20
1.27614895188536
30
0.000000000000000
11
-78.4566125290019
21
1.28329490609596
31
0.000000000000000
  0
LINE
  5
F10480
330
F10481
100
AcDbEntity
8
Geo
100
AcDbLine
10
-78.4566125290019
20
1.28329490609596
30
0.000000000000000
11
-78.3566125290019
21
1.28998242875542
31
0.000000000000000
  0
LINE
  5
F10482
330
F10483
100
AcDbEntity
8
Geo
100
AcDbLine
10
-78.3566125290019
20
1.28998242875542
30
0.000000000000000
11
-78.2566125290019
21
1.29621123699551
31
0.000000000000000
  0
LINE
  5
F10484
330
F10485
100
AcDbEntity
8
Geo
100
AcDbLine
10
-78.2566125290019
20
1.29621123699551
30
0.000000000000000
11
-78.1566125290019
21
1.30198107117543
31
0.000000000000000
  0
LINE
  5
F10486
330
F10487
100
AcDbEntity
8
Geo
100
AcDbLine
10
-78.1566125290019
20
1.30198107117543
30
0.000000000000000
11
-78.0566125290019
21
1.30729169407611
31
0.000000000000000
  0
LINE
  5
F10488
330
F10489
100
AcDbEntity
8
Geo
100
AcDbLine
10
-78.0566125290019
20
1.30729169407611
30
0.000000000000000
11
-77.9566125290019
21
1.31214289015367
31
0.000000000000000
  0
LINE
  5
F1048A
330
F1048B
100
AcDbEntity
8
Geo
100
AcDbLine
10
-77.9566125290019
20
1.31214289015367
30
0.000000000000000
11
-77.8566125290019
21
1.31653446485215
31
0.000000000000000
  0
LINE
  5
F1048C
330
F1048D
100
AcDbEntity
8
Geo
100
AcDbLine
10
-77.8566125290019
20
1.31653446485215
30
0.000000000000000
11
-77.7566125290019
21
1.32046624397554
31
0.000000000000000
  0
LINE
  5
F1048E
330
F1048F
100
AcDbEntity
8
Geo
100
AcDbLine
10
-77.7566125290019
20
1.32046624397554
30
0.000000000000000
11
-77.6566125290018
21
1.32393807311924
31
0.000000000000000
  0
LINE
  5
F10490
330
F10491
100
AcDbEntity
8
Geo
100
AcDbLine
10
-77.6566125290018
20
1.32393807311924
30
0.000000000000000
11
-77.5566125290019
21
1.32694981716094
31
0.000000000000000
  0
LINE
  5
F10492
330
F10493
100
AcDbEntity
8
Geo
100
AcDbLine
10
-77.5566125290019
20
1.32694981716094
30
0.000000000000000
11
-77.4566125290019
21
1.32950135981101
31
0.000000000000000
  0
LINE
  5
F10494
330
F10495
100
AcDbEntity
8
Geo
100
AcDbLine
10
-77.4566125290019
20
1.32950135981101
30
0.000000000000000
11
-77.3566125290019
21
1.33159260322243
31
0.000000000000000
  0
LINE
  5
F10496
330
F10497
100
AcDbEntity
8
Geo
100
AcDbLine
10
-77.3566125290019
20
1.33159260322243
30
0.000000000000000
11
-77.2566125290018
21
1.33322346766022
31
0.000000000000000
  0
LINE
  5
F10498
330
F10499
100
AcDbEntity
8
Geo
100
AcDbLine
10
-77.2566125290018
20
1.33322346766022
30
0.000000000000000
11
-77.1566125290019
21
1.33439389123061
31
0.000000000000000
  0
LINE
  5
F1049A
330
F1049B
100
AcDbEntity
8
Geo
100
AcDbLine
10
-99.1566125290019
20
0.552260497667545
30
0.000000000000000
11
-99.0566125290019
21
0.304099129474799
31
0.000000000000000
  0
LINE
  5
F1049C
330
F1049D
100
AcDbEntity
8
Geo
100
AcDbLine
10
-99.0566125290019
20
0.304099129474799
30
0.000000000000000
11
-98.9566125290019
21
0.104971857434891
31
0.000000000000000
  0
LINE
  5
F1049E
330
F1049F
100
AcDbEntity
8
Geo
100
AcDbLine
10
-98.9566125290019
20
0.104971857434891
30
0.000000000000000
11
-98.8566125290019
21
-0.0780288169849026
31
0.000000000000000
  0
LINE
  5
F104A0
330
F104A1
100
AcDbEntity
8
Geo
100
AcDbLine
10
-98.8566125290019
20
-0.0780288169849026
30
0.000000000000000
11
-98.7566125290019
21
-0.251403359262201
31
0.000000000000000
  0
LINE
  5
F104A2
330
F104A3
100
AcDbEntity
8
Geo
100
AcDbLine
10
-98.7566125290019
20
-0.251403359262201
30
0.000000000000000
11
-98.6566125290019
21
-0.421436027139015
31
0.000000000000000
  0
LINE
  5
F104A4
330
F104A5
100
AcDbEntity
8
Geo
100
AcDbLine
10
-98.6566125290019
20
-0.421436027139015
30
0.000000000000000
11
-98.5566125290019
21
-0.587874951463895
31
0.000000000000000
  0
LINE
  5
F104A6
330
F104A7
100
AcDbEntity
8
Geo
100
AcDbLine
10
-98.5566125290019
20
-0.587874951463895
30
0.000000000000000
11
-98.4566125290019
21
-0.750473586492658
31
0.000000000000000
  0
LINE
  5
F104A8
330
F104A9
100
AcDbEntity
8
Geo
100
AcDbLine
10
-98.4566125290019
20
-0.750473586492658
30
0.000000000000000
11
-98.3566125290019
21
-0.908991075096247
31
0.000000000000000
  0
LINE
  5
F104AA
330
F104AB
100
AcDbEntity
8
Geo
100
AcDbLine
10
-98.3566125290019
20
-0.908991075096247
30
0.000000000000000
11
-98.2566125290019
21
-1.06319260554206
31
0.000000000000000
  0
LINE
  5
F104AC
330
F104AD
100
AcDbEntity
8
Geo
100
AcDbLine
10
-98.2566125290019
20
-1.06319260554206
30
0.000000000000000
11
-98.1566125290019
21
-1.21284975932021
31
0.000000000000000
  0
LINE
  5
F104AE
330
F104AF
100
AcDbEntity
8
Geo
100
AcDbLine
10
-98.1566125290019
20
-1.21284975932021
30
0.000000000000000
11
-98.0566125290019
21
-1.35774084949961
31
0.000000000000000
  0
LINE
  5
F104B0
330
F104B1
100
AcDbEntity
8
Geo
100
AcDbLine
10
-98.0566125290019
20
-1.35774084949961
30
0.000000000000000
11
-97.9566125290019
21
-1.49765124911244
31
0.000000000000000
  0
LINE
  5
F104B2
330
F104B3
100
AcDbEntity
8
Geo
100
AcDbLine
10
-97.9566125290019
20
-1.49765124911244
30
0.000000000000000
11
-97.8566125290019
21
-1.63237370908081
31
0.000000000000000
  0
LINE
  5
F104B4
330
F104B5
100
AcDbEntity
8
Geo
100
AcDbLine
10
-97.8566125290019
20
-1.63237370908081
30
0.000000000000000
11
-97.7566125290019
21
-1.76170866521451
31
0.000000000000000
  0
LINE
  5
F104B6
330
F104B7
100
AcDbEntity
8
Geo
100
AcDbLine
10
-97.7566125290019
20
-1.76170866521451
30
0.000000000000000
11
-97.6566125290019
21
-1.88546453382518
31
0.000000000000000
  0
LINE
  5
F104B8
330
F104B9
100
AcDbEntity
8
Geo
100
AcDbLine
10
-97.6566125290019
20
-1.88546453382518
30
0.000000000000000
11
-97.5566125290019
21
-2.00345799551896
31
0.000000000000000
  0
LINE
  5
F104BA
330
F104BB
100
AcDbEntity
8
Geo
100
AcDbLine
10
-97.5566125290019
20
-2.00345799551896
30
0.000000000000000
11
-97.4566125290019
21
-2.11551426674721
31
0.000000000000000
  0
LINE
  5
F104BC
330
F104BD
100
AcDbEntity
8
Geo
100
AcDbLine
10
-97.4566125290019
20
-2.11551426674721
30
0.000000000000000
11
-97.3566125290019
21
-2.22146735871321
31
0.000000000000000
  0
LINE
  5
F104BE
330
F104BF
100
AcDbEntity
8
Geo
100
AcDbLine
10
-97.3566125290019
20
-2.22146735871321
30
0.000000000000000
11
-97.2566125290019
21
-2.32116032325103
31
0.000000000000000
  0
LINE
  5
F104C0
330
F104C1
100
AcDbEntity
8
Geo
100
AcDbLine
10
-97.2566125290019
20
-2.32116032325103
30
0.000000000000000
11
-97.1566125290019
21
-2.41444548531273
31
0.000000000000000
  0
LINE
  5
F104C2
330
F104C3
100
AcDbEntity
8
Geo
100
AcDbLine
10
-97.1566125290019
20
-2.41444548531273
30
0.000000000000000
11
-97.0566125290019
21
-2.50118466171913
31
0.000000000000000
  0
LINE
  5
F104C4
330
F104C5
100
AcDbEntity
8
Geo
100
AcDbLine
10
-97.0566125290019
20
-2.50118466171913
30
0.000000000000000
11
-96.9566125290019
21
-2.58124936585038
31
0.000000000000000
  0
LINE
  5
F104C6
330
F104C7
100
AcDbEntity
8
Geo
100
AcDbLine
10
-96.9566125290019
20
-2.58124936585038
30
0.000000000000000
11
-96.8566125290019
21
-2.65452099797303
31
0.000000000000000
  0
LINE
  5
F104C8
330
F104C9
100
AcDbEntity
8
Geo
100
AcDbLine
10
-96.8566125290019
20
-2.65452099797303
30
0.000000000000000
11
-96.7566125290019
21
-2.72089102092160
31
0.000000000000000
  0
LINE
  5
F104CA
330
F104CB
100
AcDbEntity
8
Geo
100
AcDbLine
10
-96.7566125290019
20
-2.72089102092160
30
0.000000000000000
11
-96.6566125290019
21
-2.78026112087458
31
0.000000000000000
  0
LINE
  5
F104CC
330
F104CD
100
AcDbEntity
8
Geo
100
AcDbLine
10
-96.6566125290019
20
-2.78026112087458
30
0.000000000000000
11
-96.5566125290019
21
-2.83254335298653
31
0.000000000000000
  0
LINE
  5
F104CE
330
F104CF
100
AcDbEntity
8
Geo
100
AcDbLine
10
-96.5566125290019
20
-2.83254335298653
30
0.000000000000000
11
-96.4566125290019
21
-2.87766027166066
31
0.000000000000000
  0
LINE
  5
F104D0
330
F104D1
100
AcDbEntity
8
Geo
100
AcDbLine
10
-96.4566125290019
20
-2.87766027166066
30
0.000000000000000
11
-96.3566125290019
21
-2.91554504526887
31
0.000000000000000
  0
LINE
  5
F104D2
330
F104D3
100
AcDbEntity
8
Geo
100
AcDbLine
10
-96.3566125290019
20
-2.91554504526887
30
0.000000000000000
11
-96.2566125290019
21
-2.94614155514939
31
0.000000000000000
  0
LINE
  5
F104D4
330
F104D5
100
AcDbEntity
8
Geo
100
AcDbLine
10
-96.2566125290019
20
-2.94614155514939
30
0.000000000000000
11
-96.1566125290019
21
-2.96940447873522
31
0.000000000000000
  0
LINE
  5
F104D6
330
F104D7
100
AcDbEntity
8
Geo
100
AcDbLine
10
-96.1566125290019
20
-2.96940447873522
30
0.000000000000000
11
-96.0566125290019
21
-2.98529935669041
31
0.000000000000000
  0
LINE
  5
F104D8
330
F104D9
100
AcDbEntity
8
Geo
100
AcDbLine
10
-96.0566125290019
20
-2.98529935669041
30
0.000000000000000
11
-95.9566125290019
21
-2.99380264395464
31
0.000000000000000
  0
LINE
  5
F104DA
330
F104DB
100
AcDbEntity
8
Geo
100
AcDbLine
10
-87.7566125290019
20
7.00437165222601
30
0.000000000000000
11
-87.6566125290019
21
7.00266333528291
31
0.000000000000000
  0
LINE
  5
F104DC
330
F104DD
100
AcDbEntity
8
Geo
100
AcDbLine
10
-87.6566125290019
20
7.00266333528291
30
0.000000000000000
11
-87.5566125290019
21
6.99355145396255
31
0.000000000000000
  0
LINE
  5
F104DE
330
F104DF
100
AcDbEntity
8
Geo
100
AcDbLine
10
-87.5566125290019
20
6.99355145396255
30
0.000000000000000
11
-87.4566125290019
21
6.97704950568190
31
0.000000000000000
  0
LINE
  5
F104E0
330
F104E1
100
AcDbEntity
8
Geo
100
AcDbLine
10
-87.4566125290019
20
6.97704950568190
30
0.000000000000000
11
-87.3566125290020
21
6.95318193475370
31
0.000000000000000
  0
LINE
  5
F104E2
330
F104E3
100
AcDbEntity
8
Geo
100
AcDbLine
10
-87.3566125290020
20
6.95318193475370
30
0.000000000000000
11
-87.2566125290019
21
6.92198409617715
31
0.000000000000000
  0
LINE
  5
F104E4
330
F104E5
100
AcDbEntity
8
Geo
100
AcDbLine
10
-87.2566125290019
20
6.92198409617715
30
0.000000000000000
11
-87.1566125290019
21
6.88350220326659
31
0.000000000000000
  0
LINE
  5
F104E6
330
F104E7
100
AcDbEntity
8
Geo
100
AcDbLine
10
-87.1566125290019
20
6.88350220326659
30
0.000000000000000
11
-87.0566125290019
21
6.83779325919580
31
0.000000000000000
  0
LINE
  5
F104E8
330
F104E9
100
AcDbEntity
8
Geo
100
AcDbLine
10
-87.0566125290019
20
6.83779325919580
30
0.000000000000000
11
-86.9566125290019
21
6.78492497255924
31
0.000000000000000
  0
LINE
  5
F104EA
330
F104EB
100
AcDbEntity
8
Geo
100
AcDbLine
10
-86.9566125290019
20
6.78492497255924
30
0.000000000000000
11
-86.8566125290020
21
6.72497565707546
31
0.000000000000000
  0
LINE
  5
F104EC
330
F104ED
100
AcDbEntity
8
Geo
100
AcDbLine
10
-86.8566125290020
20
6.72497565707546
30
0.000000000000000
11
-86.7566125290019
21
6.65803411558104
31
0.000000000000000
  0
LINE
  5
F104EE
330
F104EF
100
AcDbEntity
8
Geo
100
AcDbLine
10
-86.7566125290019
20
6.65803411558104
30
0.000000000000000
11
-86.6566125290019
21
6.58419950848711
31
0.000000000000000
  0
LINE
  5
F104F0
330
F104F1
100
AcDbEntity
8
Geo
100
AcDbLine
10
-86.6566125290019
20
6.58419950848711
30
0.000000000000000
11
-86.5566125290020
21
6.50358120689318
31
0.000000000000000
  0
LINE
  5
F104F2
330
F104F3
100
AcDbEntity
8
Geo
100
AcDbLine
10
-86.5566125290020
20
6.50358120689318
30
0.000000000000000
11
-86.4566125290019
21
6.41629863057584
31
0.000000000000000
  0
LINE
  5
F104F4
330
F104F5
100
AcDbEntity
8
Geo
100
AcDbLine
10
-86.4566125290019
20
6.41629863057584
30
0.000000000000000
11
-86.3566125290020
21
6.32248107109247
31
0.000000000000000
  0
LINE
  5
F104F6
330
F104F7
100
AcDbEntity
8
Geo
100
AcDbLine
10
-86.3566125290020
20
6.32248107109247
30
0.000000000000000
11
-86.2566125290020
21
6.22226750026179
31
0.000000000000000
  0
LINE
  5
F104F8
330
F104F9
100
AcDbEntity
8
Geo
100
AcDbLine
10
-86.2566125290020
20
6.22226750026179
30
0.000000000000000
11
-86.1566125290019
21
6.11580636430513
31
0.000000000000000
  0
LINE
  5
F104FA
330
F104FB
100
AcDbEntity
8
Geo
100
AcDbLine
10
-86.1566125290019
20
6.11580636430513
30
0.000000000000000
11
-86.0566125290020
21
6.00325536395324
31
0.000000000000000
  0
LINE
  5
F104FC
330
F104FD
100
AcDbEntity
8
Geo
100
AcDbLine
10
-86.0566125290020
20
6.00325536395324
30
0.000000000000000
11
-85.9566125290019
21
5.88478122084442
31
0.000000000000000
  0
LINE
  5
F104FE
330
F104FF
100
AcDbEntity
8
Geo
100
AcDbLine
10
-85.9566125290019
20
5.88478122084442
30
0.000000000000000
11
-85.8566125290020
21
5.76055943055998
31
0.000000000000000
  0
LINE
  5
F10500
330
F10501
100
AcDbEntity
8
Geo
100
AcDbLine
10
-85.8566125290020
20
5.76055943055998
30
0.000000000000000
11
-85.7566125290020
21
5.63077400266293
31
0.000000000000000
  0
LINE
  5
F10502
330
F10503
100
AcDbEntity
8
Geo
100
AcDbLine
10
-85.7566125290020
20
5.63077400266293
30
0.000000000000000
11
-85.6566125290019
21
5.49561718812481
31
0.000000000000000
  0
LINE
  5
F10504
330
F10505
100
AcDbEntity
8
Geo
100
AcDbLine
10
-85.6566125290019
20
5.49561718812481
30
0.000000000000000
11
-85.5566125290020
21
5.35528919454464
31
0.000000000000000
  0
LINE
  5
F10506
330
F10507
100
AcDbEntity
8
Geo
100
AcDbLine
10
-85.5566125290020
20
5.35528919454464
30
0.000000000000000
11
-85.4566125290019
21
5.20999788958166
31
0.000000000000000
  0
LINE
  5
F10508
330
F10509
100
AcDbEntity
8
Geo
100
AcDbLine
10
-85.4566125290019
20
5.20999788958166
30
0.000000000000000
11
-85.3566125290020
21
5.05995849304129
31
0.000000000000000
  0
LINE
  5
F1050A
330
F1050B
100
AcDbEntity
8
Geo
100
AcDbLine
10
-85.3566125290020
20
5.05995849304129
30
0.000000000000000
11
-85.2566125290020
21
4.90539325807030
31
0.000000000000000
  0
LINE
  5
F1050C
330
F1050D
100
AcDbEntity
8
Geo
100
AcDbLine
10
-85.2566125290020
20
4.90539325807030
30
0.000000000000000
11
-85.1566125290019
21
4.74653114193355
31
0.000000000000000
  0
LINE
  5
F1050E
330
F1050F
100
AcDbEntity
8
Geo
100
AcDbLine
10
-85.1566125290019
20
4.74653114193355
30
0.000000000000000
11
-85.0566125290020
21
4.58360746685993
31
0.000000000000000
  0
LINE
  5
F10510
330
F10511
100
AcDbEntity
8
Geo
100
AcDbLine
10
-85.0566125290020
20
4.58360746685993
30
0.000000000000000
11
-84.9566125290020
21
4.41686357145986
31
0.000000000000000
  0
LINE
  5
F10512
330
F10513
100
AcDbEntity
8
Geo
100
AcDbLine
10
-84.9566125290020
20
4.41686357145986
30
0.000000000000000
11
-84.8566125290020
21
4.24654645323075
31
0.000000000000000
  0
LINE
  5
F10514
330
F10515
100
AcDbEntity
8
Geo
100
AcDbLine
10
-84.8566125290020
20
4.24654645323075
30
0.000000000000000
11
-84.7566125290020
21
4.07290840267996
31
0.000000000000000
  0
LINE
  5
F10516
330
F10517
100
AcDbEntity
8
Geo
100
AcDbLine
10
-84.7566125290020
20
4.07290840267996
30
0.000000000000000
11
-84.6566125290020
21
3.89620662960719
31
0.000000000000000
  0
LINE
  5
F10518
330
F10519
100
AcDbEntity
8
Geo
100
AcDbLine
10
-84.6566125290020
20
3.89620662960719
30
0.000000000000000
11
-84.5566125290020
21
3.71670288210004
31
0.000000000000000
  0
LINE
  5
F1051A
330
F1051B
100
AcDbEntity
8
Geo
100
AcDbLine
10
-84.5566125290020
20
3.71670288210004
30
0.000000000000000
11
-84.4566125290020
21
3.53466305880687
31
0.000000000000000
  0
LINE
  5
F1051C
330
F1051D
100
AcDbEntity
8
Geo
100
AcDbLine
10
-84.4566125290020
20
3.53466305880687
30
0.000000000000000
11
-84.3566125290020
21
3.35035681506153
31
0.000000000000000
  0
LINE
  5
F1051E
330
F1051F
100
AcDbEntity
8
Geo
100
AcDbLine
10
-84.3566125290020
20
3.35035681506153
30
0.000000000000000
11
-84.2566125290020
21
3.16405716344329
31
0.000000000000000
  0
LINE
  5
F10520
330
F10521
100
AcDbEntity
8
Geo
100
AcDbLine
10
-84.2566125290020
20
3.16405716344329
30
0.000000000000000
11
-84.1566125290020
21
2.97604006936371
31
0.000000000000000
  0
LINE
  5
F10522
330
F10523
100
AcDbEntity
8
Geo
100
AcDbLine
10
-84.1566125290020
20
2.97604006936371
30
0.000000000000000
11
-84.0566125290020
21
2.78658404227944
31
0.000000000000000
  0
LINE
  5
F10524
330
F10525
100
AcDbEntity
8
Geo
100
AcDbLine
10
-84.0566125290020
20
2.78658404227944
30
0.000000000000000
11
-83.9566125290020
21
2.59596972313656
31
0.000000000000000
  0
LINE
  5
F10526
330
F10527
100
AcDbEntity
8
Geo
100
AcDbLine
10
-83.9566125290020
20
2.59596972313656
30
0.000000000000000
11
-83.8566125290020
21
2.40447946865754
31
0.000000000000000
  0
LINE
  5
F10528
330
F10529
100
AcDbEntity
8
Geo
100
AcDbLine
10
-83.8566125290020
20
2.40447946865754
30
0.000000000000000
11
-83.7566125290020
21
2.21239693308666
31
0.000000000000000
  0
LINE
  5
F1052A
330
F1052B
100
AcDbEntity
8
Geo
100
AcDbLine
10
-83.7566125290020
20
2.21239693308666
30
0.000000000000000
11
-83.6566125290020
21
2.02000664801330
31
0.000000000000000
  0
LINE
  5
F1052C
330
F1052D
100
AcDbEntity
8
Geo
100
AcDbLine
10
-83.6566125290020
20
2.02000664801330
30
0.000000000000000
11
-83.5566125290020
21
1.82759360089580
31
0.000000000000000
  0
LINE
  5
F1052E
330
F1052F
100
AcDbEntity
8
Geo
100
AcDbLine
10
-83.5566125290020
20
1.82759360089580
30
0.000000000000000
11
-83.4566125290020
21
1.63544281290983
31
0.000000000000000
  0
LINE
  5
F10530
330
F10531
100
AcDbEntity
8
Geo
100
AcDbLine
10
-83.4566125290020
20
1.63544281290983
30
0.000000000000000
11
-83.3566125290020
21
1.44383891674700
31
0.000000000000000
  0
LINE
  5
F10532
330
F10533
100
AcDbEntity
8
Geo
100
AcDbLine
10
-83.3566125290020
20
1.44383891674700
30
0.000000000000000
11
-83.2566125290020
21
1.25306573498886
31
0.000000000000000
  0
LINE
  5
F10534
330
F10535
100
AcDbEntity
8
Geo
100
AcDbLine
10
-83.2566125290020
20
1.25306573498886
30
0.000000000000000
11
-83.1566125290020
21
1.06340585968083
31
0.000000000000000
  0
LINE
  5
F10536
330
F10537
100
AcDbEntity
8
Geo
100
AcDbLine
10
-83.1566125290020
20
1.06340585968083
30
0.000000000000000
11
-83.0566125290020
21
0.875140233729086
31
0.000000000000000
  0
LINE
  5
F10538
330
F10539
100
AcDbEntity
8
Geo
100
AcDbLine
10
-83.0566125290020
20
0.875140233729086
30
0.000000000000000
11
-82.9566125290020
21
0.688547734740198
31
0.000000000000000
  0
LINE
  5
F1053A
330
F1053B
100
AcDbEntity
8
Geo
100
AcDbLine
10
-82.9566125290020
20
0.688547734740198
30
0.000000000000000
11
-82.8566125290020
21
0.503904761920103
31
0.000000000000000
  0
LINE
  5
F1053C
330
F1053D
100
AcDbEntity
8
Geo
100
AcDbLine
10
-82.8566125290020
20
0.503904761920103
30
0.000000000000000
11
-82.7566125290020
21
0.321484826644399
31
0.000000000000000
  0
LINE
  5
F1053E
330
F1053F
100
AcDbEntity
8
Geo
100
AcDbLine
10
-82.7566125290020
20
0.321484826644399
30
0.000000000000000
11
-82.6566125290020
21
0.141558147306264
31
0.000000000000000
  0
LINE
  5
F10540
330
F10541
100
AcDbEntity
8
Geo
100
AcDbLine
10
-82.6566125290020
20
0.141558147306264
30
0.000000000000000
11
-82.5566125290020
21
-0.0356087509575937
31
0.000000000000000
  0
LINE
  5
F10542
330
F10543
100
AcDbEntity
8
Geo
100
AcDbLine
10
-82.5566125290020
20
-0.0356087509575937
30
0.000000000000000
11
-82.4566125290019
21
-0.209753431070322
31
0.000000000000000
  0
LINE
  5
F10544
330
F10545
100
AcDbEntity
8
Geo
100
AcDbLine
10
-82.4566125290019
20
-0.209753431070322
30
0.000000000000000
11
-82.3566125290020
21
-0.380617932762525
31
0.000000000000000
  0
LINE
  5
F10546
330
F10547
100
AcDbEntity
8
Geo
100
AcDbLine
10
-82.3566125290020
20
-0.380617932762525
30
0.000000000000000
11
-82.2566125290020
21
-0.547949154688505
31
0.000000000000000
  0
LINE
  5
F10548
330
F10549
100
AcDbEntity
8
Geo
100
AcDbLine
10
-82.2566125290020
20
-0.547949154688505
30
0.000000000000000
11
-82.1566125290019
21
-0.711499229344951
31
0.000000000000000
  0
LINE
  5
F1054A
330
F1054B
100
AcDbEntity
8
Geo
100
AcDbLine
10
-82.1566125290019
20
-0.711499229344951
30
0.000000000000000
11
-82.0566125290019
21
-0.889904268897936
31
0.000000000000000
  0
LINE
  5
F1054C
330
F1054D
100
AcDbEntity
8
Geo
100
AcDbLine
10
-82.0566125290019
20
-0.889904268897936
30
0.000000000000000
11
-81.9566125290019
21
-1.05962617329400
31
0.000000000000000
  0
LINE
  5
F1054E
330
F1054F
100
AcDbEntity
8
Geo
100
AcDbLine
10
-81.9566125290019
20
-1.05962617329400
30
0.000000000000000
11
-81.8566125290019
21
-1.22067740606371
31
0.000000000000000
  0
LINE
  5
F10550
330
F10551
100
AcDbEntity
8
Geo
100
AcDbLine
10
-81.8566125290019
20
-1.22067740606371
30
0.000000000000000
11
-81.7566125290019
21
-1.37310815459888
31
0.000000000000000
  0
LINE
  5
F10552
330
F10553
100
AcDbEntity
8
Geo
100
AcDbLine
10
-81.7566125290019
20
-1.37310815459888
30
0.000000000000000
11
-81.6566125290019
21
-1.51700324602772
31
0.000000000000000
  0
LINE
  5
F10554
330
F10555
100
AcDbEntity
8
Geo
100
AcDbLine
10
-81.6566125290019
20
-1.51700324602772
30
0.000000000000000
11
-81.5566125290019
21
-1.65247911582598
31
0.000000000000000
  0
LINE
  5
F10556
330
F10557
100
AcDbEntity
8
Geo
100
AcDbLine
10
-81.5566125290019
20
-1.65247911582598
30
0.000000000000000
11
-81.4566125290019
21
-1.77968084513590
31
0.000000000000000
  0
LINE
  5
F10558
330
F10559
100
AcDbEntity
8
Geo
100
AcDbLine
10
-81.4566125290019
20
-1.77968084513590
30
0.000000000000000
11
-81.3566125290019
21
-1.89877928057049
31
0.000000000000000
  0
LINE
  5
F1055A
330
F1055B
100
AcDbEntity
8
Geo
100
AcDbLine
10
-81.3566125290019
20
-1.89877928057049
30
0.000000000000000
11
-81.2566125290019
21
-2.00996824820128
31
0.000000000000000
  0
LINE
  5
F1055C
330
F1055D
100
AcDbEntity
8
Geo
100
AcDbLine
10
-81.2566125290019
20
-2.00996824820128
30
0.000000000000000
11
-81.1566125290019
21
-2.11346187147050
31
0.000000000000000
  0
LINE
  5
F1055E
330
F1055F
100
AcDbEntity
8
Geo
100
AcDbLine
10
-81.1566125290019
20
-2.11346187147050
30
0.000000000000000
11
-81.0566125290019
21
-2.20949200093743
31
0.000000000000000
  0
LINE
  5
F10560
330
F10561
100
AcDbEntity
8
Geo
100
AcDbLine
10
-81.0566125290019
20
-2.20949200093743
30
0.000000000000000
11
-80.9566125290019
21
-2.29830576206733
31
0.000000000000000
  0
LINE
  5
F10562
330
F10563
100
AcDbEntity
8
Geo
100
AcDbLine
10
-80.9566125290019
20
-2.29830576206733
30
0.000000000000000
11
-80.8566125290019
21
-2.38016322570012
31
0.000000000000000
  0
LINE
  5
F10564
330
F10565
100
AcDbEntity
8
Geo
100
AcDbLine
10
-80.8566125290019
20
-2.38016322570012
30
0.000000000000000
11
-80.7566125290019
21
-2.45533520439499
31
0.000000000000000
  0
LINE
  5
F10566
330
F10567
100
AcDbEntity
8
Geo
100
AcDbLine
10
-80.7566125290019
20
-2.45533520439499
30
0.000000000000000
11
-80.6566125290019
21
-2.52410117653440
31
0.000000000000000
  0
LINE
  5
F10568
330
F10569
100
AcDbEntity
8
Geo
100
AcDbLine
10
-80.6566125290019
20
-2.52410117653440
30
0.000000000000000
11
-80.5566125290019
21
-2.58674733888416
31
0.000000000000000
  0
LINE
  5
F1056A
330
F1056B
100
AcDbEntity
8
Geo
100
AcDbLine
10
-80.5566125290019
20
-2.58674733888416
30
0.000000000000000
11
-80.4566125290019
21
-2.64356478724135
31
0.000000000000000
  0
LINE
  5
F1056C
330
F1056D
100
AcDbEntity
8
Geo
100
AcDbLine
10
-80.4566125290019
20
-2.64356478724135
30
0.000000000000000
11
-80.3566125290019
21
-2.69484782385459
31
0.000000000000000
  0
LINE
  5
F1056E
330
F1056F
100
AcDbEntity
8
Geo
100
AcDbLine
10
-80.3566125290019
20
-2.69484782385459
30
0.000000000000000
11
-80.2566125290019
21
-2.74089238946660
31
0.000000000000000
  0
LINE
  5
F10570
330
F10571
100
AcDbEntity
8
Geo
100
AcDbLine
10
-80.2566125290019
20
-2.74089238946660
30
0.000000000000000
11
-80.1566125290019
21
-2.78199461710138
31
0.000000000000000
  0
LINE
  5
F10572
330
F10573
100
AcDbEntity
8
Geo
100
AcDbLine
10
-80.1566125290019
20
-2.78199461710138
30
0.000000000000000
11
-80.0566125290019
21
-2.81844950409190
31
0.000000000000000
  0
LINE
  5
F10574
330
F10575
100
AcDbEntity
8
Geo
100
AcDbLine
10
-80.0566125290019
20
-2.81844950409190
30
0.000000000000000
11
-79.9566125290019
21
-2.85054969831273
31
0.000000000000000
  0
LINE
  5
F10576
330
F10577
100
AcDbEntity
8
Geo
100
AcDbLine
10
-79.9566125290019
20
-2.85054969831273
30
0.000000000000000
11
-79.8566125290019
21
-2.87858439413946
31
0.000000000000000
  0
LINE
  5
F10578
330
F10579
100
AcDbEntity
8
Geo
100
AcDbLine
10
-79.8566125290019
20
-2.87858439413946
30
0.000000000000000
11
-79.7566125290019
21
-2.90283833329630
31
0.000000000000000
  0
LINE
  5
F1057A
330
F1057B
100
AcDbEntity
8
Geo
100
AcDbLine
10
-79.7566125290019
20
-2.90283833329630
30
0.000000000000000
11
-79.6566125290019
21
-2.92359090546915
31
0.000000000000000
  0
LINE
  5
F1057C
330
F1057D
100
AcDbEntity
8
Geo
100
AcDbLine
10
-79.6566125290019
20
-2.92359090546915
30
0.000000000000000
11
-79.5566125290019
21
-2.94111534334655
31
0.000000000000000
  0
LINE
  5
F1057E
330
F1057F
100
AcDbEntity
8
Geo
100
AcDbLine
10
-79.5566125290019
20
-2.94111534334655
30
0.000000000000000
11
-79.4566125290019
21
-2.95567800660041
31
0.000000000000000
  0
LINE
  5
F10580
330
F10581
100
AcDbEntity
8
Geo
100
AcDbLine
10
-79.4566125290019
20
-2.95567800660041
30
0.000000000000000
11
-79.3566125290019
21
-2.96753774922497
31
0.000000000000000
  0
LINE
  5
F10582
330
F10583
100
AcDbEntity
8
Geo
100
AcDbLine
10
-79.3566125290019
20
-2.96753774922497
30
0.000000000000000
11
-79.2566125290019
21
-2.97694536461112
31
0.000000000000000
  0
LINE
  5
F10584
330
F10585
100
AcDbEntity
8
Geo
100
AcDbLine
10
-79.2566125290019
20
-2.97694536461112
30
0.000000000000000
11
-79.1566125290019
21
-2.98414310273887
31
0.000000000000000
  0
LINE
  5
F10586
330
F10587
100
AcDbEntity
8
Geo
100
AcDbLine
10
-79.1566125290019
20
-2.98414310273887
30
0.000000000000000
11
-79.0566125290019
21
-2.98936425391707
31
0.000000000000000
  0
LINE
  5
F10588
330
F10589
100
AcDbEntity
8
Geo
100
AcDbLine
10
-79.0566125290019
20
-2.98936425391707
30
0.000000000000000
11
-78.9566125290019
21
-2.99283279358280
31
0.000000000000000
  0
LINE
  5
F1058A
330
F1058B
100
AcDbEntity
8
Geo
100
AcDbLine
10
-78.9566125290019
20
-2.99283279358280
30
0.000000000000000
11
-78.8566125290019
21
-2.99476308278811
31
0.000000000000000
  0
LINE
  5
F1058C
330
F1058D
100
AcDbEntity
8
Geo
100
AcDbLine
10
-78.8566125290019
20
-2.99476308278811
30
0.000000000000000
11
-78.7566125290019
21
-2.99535962877022
31
0.000000000000000
  0
LINE
  5
F1058E
330
F1058F
100
AcDbEntity
8
Geo
100
AcDbLine
10
-91.0566125290019
20
7.00321227081781
30
0.000000000000000
11
-90.9566125290019
21
7.00410829664169
31
0.000000000000000
  0
LINE
  5
F10590
330
F10591
100
AcDbEntity
8
Geo
100
AcDbLine
10
-90.9566125290019
20
7.00410829664169
30
0.000000000000000
11
-90.8566125290019
21
6.99759861766908
31
0.000000000000000
  0
LINE
  5
F10592
330
F10593
100
AcDbEntity
8
Geo
100
AcDbLine
10
-90.8566125290019
20
6.99759861766908
30
0.000000000000000
11
-90.7566125290019
21
6.98369287667828
31
0.000000000000000
  0
LINE
  5
F10594
330
F10595
100
AcDbEntity
8
Geo
100
AcDbLine
10
-90.7566125290019
20
6.98369287667828
30
0.000000000000000
11
-90.6566125290019
21
6.96241167222383
31
0.000000000000000
  0
LINE
  5
F10596
330
F10597
100
AcDbEntity
8
Geo
100
AcDbLine
10
-90.6566125290019
20
6.96241167222383
30
0.000000000000000
11
-90.5566125290019
21
6.93378652812391
31
0.000000000000000
  0
LINE
  5
F10598
330
F10599
100
AcDbEntity
8
Geo
100
AcDbLine
10
-90.5566125290019
20
6.93378652812391
30
0.000000000000000
11
-90.4566125290019
21
6.89785984676417
31
0.000000000000000
  0
LINE
  5
F1059A
330
F1059B
100
AcDbEntity
8
Geo
100
AcDbLine
10
-90.4566125290019
20
6.89785984676417
30
0.000000000000000
11
-90.3566125290019
21
6.85468484628711
31
0.000000000000000
  0
LINE
  5
F1059C
330
F1059D
100
AcDbEntity
8
Geo
100
AcDbLine
10
-90.3566125290019
20
6.85468484628711
30
0.000000000000000
11
-90.2566125290019
21
6.80432548176011
31
0.000000000000000
  0
LINE
  5
F1059E
330
F1059F
100
AcDbEntity
8
Geo
100
AcDbLine
10
-90.2566125290019
20
6.80432548176011
30
0.000000000000000
11
-90.1566125290019
21
6.74685635043893
31
0.000000000000000
  0
LINE
  5
F105A0
330
F105A1
100
AcDbEntity
8
Geo
100
AcDbLine
10
-90.1566125290019
20
6.74685635043893
30
0.000000000000000
11
-90.0566125290019
21
6.68236258126686
31
0.000000000000000
  0
LINE
  5
F105A2
330
F105A3
100
AcDbEntity
8
Geo
100
AcDbLine
10
-90.0566125290019
20
6.68236258126686
30
0.000000000000000
11
-89.9566125290019
21
6.61093970877332
31
0.000000000000000
  0
LINE
  5
F105A4
330
F105A5
100
AcDbEntity
8
Geo
100
AcDbLine
10
-89.9566125290019
20
6.61093970877332
30
0.000000000000000
11
-89.8566125290019
21
6.53269353155875
31
0.000000000000000
  0
LINE
  5
F105A6
330
F105A7
100
AcDbEntity
8
Geo
100
AcDbLine
10
-89.8566125290019
20
6.53269353155875
30
0.000000000000000
11
-89.7566125290019
21
6.44773995557526
31
0.000000000000000
  0
LINE
  5
F105A8
330
F105A9
100
AcDbEntity
8
Geo
100
AcDbLine
10
-89.7566125290019
20
6.44773995557526
30
0.000000000000000
11
-89.6566125290019
21
6.35620482243529
31
0.000000000000000
  0
LINE
  5
F105AA
330
F105AB
100
AcDbEntity
8
Geo
100
AcDbLine
10
-89.6566125290019
20
6.35620482243529
30
0.000000000000000
11
-89.5566125290019
21
6.25822372300264
31
0.000000000000000
  0
LINE
  5
F105AC
330
F105AD
100
AcDbEntity
8
Geo
100
AcDbLine
10
-89.5566125290019
20
6.25822372300264
30
0.000000000000000
11
-89.4566125290019
21
6.15394179654191
31
0.000000000000000
  0
LINE
  5
F105AE
330
F105AF
100
AcDbEntity
8
Geo
100
AcDbLine
10
-89.4566125290019
20
6.15394179654191
30
0.000000000000000
11
-89.3566125290019
21
6.04351351572389
31
0.000000000000000
  0
LINE
  5
F105B0
330
F105B1
100
AcDbEntity
8
Geo
100
AcDbLine
10
-89.3566125290019
20
6.04351351572389
30
0.000000000000000
11
-89.2566125290019
21
5.92710245780542
31
0.000000000000000
  0
LINE
  5
F105B2
330
F105B3
100
AcDbEntity
8
Geo
100
AcDbLine
10
-89.2566125290019
20
5.92710245780542
30
0.000000000000000
11
-89.1566125290019
21
5.80488106232264
31
0.000000000000000
  0
LINE
  5
F105B4
330
F105B5
100
AcDbEntity
8
Geo
100
AcDbLine
10
-89.1566125290019
20
5.80488106232264
30
0.000000000000000
11
-89.0566125290019
21
5.67703037565653
31
0.000000000000000
  0
LINE
  5
F105B6
330
F105B7
100
AcDbEntity
8
Geo
100
AcDbLine
10
-89.0566125290019
20
5.67703037565653
30
0.000000000000000
11
-88.9566125290019
21
5.54373978284919
31
0.000000000000000
  0
LINE
  5
F105B8
330
F105B9
100
AcDbEntity
8
Geo
100
AcDbLine
10
-88.9566125290019
20
5.54373978284919
30
0.000000000000000
11
-88.8566125290019
21
5.40520672706801
31
0.000000000000000
  0
LINE
  5
F105BA
330
F105BB
100
AcDbEntity
8
Geo
100
AcDbLine
10
-88.8566125290019
20
5.40520672706801
30
0.000000000000000
11
-88.7566125290019
21
5.26163641713341
31
0.000000000000000
  0
LINE
  5
F105BC
330
F105BD
100
AcDbEntity
8
Geo
100
AcDbLine
10
-88.7566125290019
20
5.26163641713341
30
0.000000000000000
11
-88.6566125290019
21
5.11324152354327
31
0.000000000000000
  0
LINE
  5
F105BE
330
F105BF
100
AcDbEntity
8
Geo
100
AcDbLine
10
-88.6566125290019
20
5.11324152354327
30
0.000000000000000
11
-88.5566125290019
21
4.96024186344447
31
0.000000000000000
  0
LINE
  5
F105C0
330
F105C1
100
AcDbEntity
8
Geo
100
AcDbLine
10
-88.5566125290019
20
4.96024186344447
30
0.000000000000000
11
-88.4566125290019
21
4.80286407501803
31
0.000000000000000
  0
LINE
  5
F105C2
330
F105C3
100
AcDbEntity
8
Geo
100
AcDbLine
10
-88.4566125290019
20
4.80286407501803
30
0.000000000000000
11
-88.3566125290019
21
4.64134128176029
31
0.000000000000000
  0
LINE
  5
F105C4
330
F105C5
100
AcDbEntity
8
Geo
100
AcDbLine
10
-88.3566125290019
20
4.64134128176029
30
0.000000000000000
11
-88.2566125290019
21
4.47591274715740
31
0.000000000000000
  0
LINE
  5
F105C6
330
F105C7
100
AcDbEntity
8
Geo
100
AcDbLine
10
-88.2566125290019
20
4.47591274715740
30
0.000000000000000
11
-88.1566125290019
21
4.30682352026467
31
0.000000000000000
  0
LINE
  5
F105C8
330
F105C9
100
AcDbEntity
8
Geo
100
AcDbLine
10
-88.1566125290019
20
4.30682352026467
30
0.000000000000000
11
-88.0566125290019
21
4.13432407271575
31
0.000000000000000
  0
LINE
  5
F105CA
330
F105CB
100
AcDbEntity
8
Geo
100
AcDbLine
10
-88.0566125290019
20
4.13432407271575
30
0.000000000000000
11
-87.9566125290019
21
3.95866992769935
31
0.000000000000000
  0
LINE
  5
F105CC
330
F105CD
100
AcDbEntity
8
Geo
100
AcDbLine
10
-87.9566125290019
20
3.95866992769935
30
0.000000000000000
11
-87.8566125290020
21
3.78012128145307
31
0.000000000000000
  0
LINE
  5
F105CE
330
F105CF
100
AcDbEntity
8
Geo
100
AcDbLine
10
-87.8566125290020
20
3.78012128145307
30
0.000000000000000
11
-87.7566125290019
21
3.59894261783512
31
0.000000000000000
  0
LINE
  5
F105D0
330
F105D1
100
AcDbEntity
8
Geo
100
AcDbLine
10
-87.7566125290019
20
3.59894261783512
30
0.000000000000000
11
-87.6566125290019
21
3.41540231654474
31
0.000000000000000
  0
LINE
  5
F105D2
330
F105D3
100
AcDbEntity
8
Geo
100
AcDbLine
10
-87.6566125290019
20
3.41540231654474
30
0.000000000000000
11
-87.5566125290019
21
3.22977225557175
31
0.000000000000000
  0
LINE
  5
F105D4
330
F105D5
100
AcDbEntity
8
Geo
100
AcDbLine
10
-87.5566125290019
20
3.22977225557175
30
0.000000000000000
11
-87.4566125290019
21
3.04232740846399
31
0.000000000000000
  0
LINE
  5
F105D6
330
F105D7
100
AcDbEntity
8
Geo
100
AcDbLine
10
-87.4566125290019
20
3.04232740846399
30
0.000000000000000
11
-87.3566125290020
21
2.85334543700949
31
0.000000000000000
  0
LINE
  5
F105D8
330
F105D9
100
AcDbEntity
8
Geo
100
AcDbLine
10
-87.3566125290020
20
2.85334543700949
30
0.000000000000000
11
-87.2566125290019
21
2.66310627993640
31
0.000000000000000
  0
LINE
  5
F105DA
330
F105DB
100
AcDbEntity
8
Geo
100
AcDbLine
10
-87.2566125290019
20
2.66310627993640
30
0.000000000000000
11
-87.1566125290019
21
2.47189173824015
31
0.000000000000000
  0
LINE
  5
F105DC
330
F105DD
100
AcDbEntity
8
Geo
100
AcDbLine
10
-87.1566125290019
20
2.47189173824015
30
0.000000000000000
11
-87.0566125290019
21
2.27998505775204
31
0.000000000000000
  0
LINE
  5
F105DE
330
F105DF
100
AcDbEntity
8
Geo
100
AcDbLine
10
-87.0566125290019
20
2.27998505775204
30
0.000000000000000
11
-86.9566125290019
21
2.08767050956759
31
0.000000000000000
  0
LINE
  5
F105E0
330
F105E1
100
AcDbEntity
8
Geo
100
AcDbLine
10
-86.9566125290019
20
2.08767050956759
30
0.000000000000000
11
-86.8566125290020
21
1.89523296895616
31
0.000000000000000
  0
LINE
  5
F105E2
330
F105E3
100
AcDbEntity
8
Geo
100
AcDbLine
10
-86.8566125290020
20
1.89523296895616
30
0.000000000000000
11
-86.7566125290019
21
1.70295749337563
31
0.000000000000000
  0
LINE
  5
F105E4
330
F105E5
100
AcDbEntity
8
Geo
100
AcDbLine
10
-86.7566125290019
20
1.70295749337563
30
0.000000000000000
11
-86.6566125290019
21
1.51112890021716
31
0.000000000000000
  0
LINE
  5
F105E6
330
F105E7
100
AcDbEntity
8
Geo
100
AcDbLine
10
-86.6566125290019
20
1.51112890021716
30
0.000000000000000
11
-86.5566125290020
21
1.32003134490562
31
0.000000000000000
  0
LINE
  5
F105E8
330
F105E9
100
AcDbEntity
8
Geo
100
AcDbLine
10
-86.5566125290020
20
1.32003134490562
30
0.000000000000000
11
-86.4566125290019
21
1.12994789998055
31
0.000000000000000
  0
LINE
  5
F105EA
330
F105EB
100
AcDbEntity
8
Geo
100
AcDbLine
10
-86.4566125290019
20
1.12994789998055
30
0.000000000000000
11
-86.3566125290020
21
0.941160135781195
31
0.000000000000000
  0
LINE
  5
F105EC
330
F105ED
100
AcDbEntity
8
Geo
100
AcDbLine
10
-86.3566125290020
20
0.941160135781195
30
0.000000000000000
11
-86.2566125290020
21
0.753947703356767
31
0.000000000000000
  0
LINE
  5
F105EE
330
F105EF
100
AcDbEntity
8
Geo
100
AcDbLine
10
-86.2566125290020
20
0.753947703356767
30
0.000000000000000
11
-86.1566125290019
21
0.568587920219739
31
0.000000000000000
  0
LINE
  5
F105F0
330
F105F1
100
AcDbEntity
8
Geo
100
AcDbLine
10
-86.1566125290019
20
0.568587920219739
30
0.000000000000000
11
-86.0566125290020
21
0.385355359555806
31
0.000000000000000
  0
LINE
  5
F105F2
330
F105F3
100
AcDbEntity
8
Geo
100
AcDbLine
10
-86.0566125290020
20
0.385355359555806
30
0.000000000000000
11
-85.9566125290019
21
0.204521443499008
31
0.000000000000000
  0
LINE
  5
F105F4
330
F105F5
100
AcDbEntity
8
Geo
100
AcDbLine
10
-85.9566125290019
20
0.204521443499008
30
0.000000000000000
11
-85.8566125290020
21
0.0263540410745067
31
0.000000000000000
  0
LINE
  5
F105F6
330
F105F7
100
AcDbEntity
8
Geo
100
AcDbLine
10
-85.8566125290020
20
0.0263540410745067
30
0.000000000000000
11
-85.7566125290020
21
-0.148882928595424
31
0.000000000000000
  0
LINE
  5
F105F8
330
F105F9
100
AcDbEntity
8
Geo
100
AcDbLine
10
-85.7566125290020
20
-0.148882928595424
30
0.000000000000000
11
-85.6566125290019
21
-0.320929887234420
31
0.000000000000000
  0
LINE
  5
F105FA
330
F105FB
100
AcDbEntity
8
Geo
100
AcDbLine
10
-85.6566125290019
20
-0.320929887234420
30
0.000000000000000
11
-85.5566125290020
21
-0.489531981924968
31
0.000000000000000
  0
LINE
  5
F105FC
330
F105FD
100
AcDbEntity
8
Geo
100
AcDbLine
10
-85.5566125290020
20
-0.489531981924968
30
0.000000000000000
11
-85.4566125290019
21
-0.654439462621669
31
0.000000000000000
  0
LINE
  5
F105FE
330
F105FF
100
AcDbEntity
8
Geo
100
AcDbLine
10
-85.4566125290019
20
-0.654439462621669
30
0.000000000000000
11
-85.3566125290020
21
-0.815408052105625
31
0.000000000000000
  0
LINE
  5
F10600
330
F10601
100
AcDbEntity
8
Geo
100
AcDbLine
10
-85.3566125290020
20
-0.815408052105625
30
0.000000000000000
11
-85.2566125290020
21
-0.972199307831950
31
0.000000000000000
  0
LINE
  5
F10602
330
F10603
100
AcDbEntity
8
Geo
100
AcDbLine
10
-85.2566125290020
20
-0.972199307831950
30
0.000000000000000
11
-85.1566125290019
21
-1.12458097513437
31
0.000000000000000
  0
LINE
  5
F10604
330
F10605
100
AcDbEntity
8
Geo
100
AcDbLine
10
-85.1566125290019
20
-1.12458097513437
30
0.000000000000000
11
-85.0566125290020
21
-1.27232733126372
31
0.000000000000000
  0
LINE
  5
F10606
330
F10607
100
AcDbEntity
8
Geo
100
AcDbLine
10
-85.0566125290020
20
-1.27232733126372
30
0.000000000000000
11
-84.9566125290020
21
-1.41521951975076
31
0.000000000000000
  0
LINE
  5
F10608
330
F10609
100
AcDbEntity
8
Geo
100
AcDbLine
10
-84.9566125290020
20
-1.41521951975076
30
0.000000000000000
11
-84.8566125290020
21
-1.55304587459796
31
0.000000000000000
  0
LINE
  5
F1060A
330
F1060B
100
AcDbEntity
8
Geo
100
AcDbLine
10
-84.8566125290020
20
-1.55304587459796
30
0.000000000000000
11
-84.7566125290020
21
-1.68560223381997
31
0.000000000000000
  0
LINE
  5
F1060C
330
F1060D
100
AcDbEntity
8
Geo
100
AcDbLine
10
-84.7566125290020
20
-1.68560223381997
30
0.000000000000000
11
-84.6566125290020
21
-1.81269224186859
31
0.000000000000000
  0
LINE
  5
F1060E
330
F1060F
100
AcDbEntity
8
Geo
100
AcDbLine
10
-84.6566125290020
20
-1.81269224186859
30
0.000000000000000
11
-84.5566125290020
21
-1.93412764049389
31
0.000000000000000
  0
LINE
  5
F10610
330
F10611
100
AcDbEntity
8
Geo
100
AcDbLine
10
-84.5566125290020
20
-1.93412764049389
30
0.000000000000000
11
-84.4566125290020
21
-2.04972854761092
31
0.000000000000000
  0
LINE
  5
F10612
330
F10613
100
AcDbEntity
8
Geo
100
AcDbLine
10
-84.4566125290020
20
-2.04972854761092
30
0.000000000000000
11
-84.3566125290020
21
-2.15932372375879
31
0.000000000000000
  0
LINE
  5
F10614
330
F10615
100
AcDbEntity
8
Geo
100
AcDbLine
10
-84.3566125290020
20
-2.15932372375879
30
0.000000000000000
11
-84.2566125290020
21
-2.26275082575743
31
0.000000000000000
  0
LINE
  5
F10616
330
F10617
100
AcDbEntity
8
Geo
100
AcDbLine
10
-84.2566125290020
20
-2.26275082575743
30
0.000000000000000
11
-84.1566125290020
21
-2.35985664718631
31
0.000000000000000
  0
LINE
  5
F10618
330
F10619
100
AcDbEntity
8
Geo
100
AcDbLine
10
-84.1566125290020
20
-2.35985664718631
30
0.000000000000000
11
-84.0566125290020
21
-2.45049734532892
31
0.000000000000000
  0
LINE
  5
F1061A
330
F1061B
100
AcDbEntity
8
Geo
100
AcDbLine
10
-84.0566125290020
20
-2.45049734532892
30
0.000000000000000
11
-83.9566125290020
21
-2.53453865424677
31
0.000000000000000
  0
LINE
  5
F1061C
330
F1061D
100
AcDbEntity
8
Geo
100
AcDbLine
10
-83.9566125290020
20
-2.53453865424677
30
0.000000000000000
11
-83.8566125290020
21
-2.61185608366732
31
0.000000000000000
  0
LINE
  5
F1061E
330
F1061F
100
AcDbEntity
8
Geo
100
AcDbLine
10
-83.8566125290020
20
-2.61185608366732
30
0.000000000000000
11
-83.7566125290020
21
-2.68233510339126
31
0.000000000000000
  0
LINE
  5
F10620
330
F10621
100
AcDbEntity
8
Geo
100
AcDbLine
10
-83.7566125290020
20
-2.68233510339126
30
0.000000000000000
11
-83.6566125290020
21
-2.74587131294595
31
0.000000000000000
  0
LINE
  5
F10622
330
F10623
100
AcDbEntity
8
Geo
100
AcDbLine
10
-83.6566125290020
20
-2.74587131294595
30
0.000000000000000
11
-83.5566125290020
21
-2.80237059623366
31
0.000000000000000
  0
LINE
  5
F10624
330
F10625
100
AcDbEntity
8
Geo
100
AcDbLine
10
-83.5566125290020
20
-2.80237059623366
30
0.000000000000000
11
-83.4566125290020
21
-2.85174926094562
31
0.000000000000000
  0
LINE
  5
F10626
330
F10627
100
AcDbEntity
8
Geo
100
AcDbLine
10
-83.4566125290020
20
-2.85174926094562
30
0.000000000000000
11
-83.3566125290020
21
-2.89393416253535
31
0.000000000000000
  0
LINE
  5
F10628
330
F10629
100
AcDbEntity
8
Geo
100
AcDbLine
10
-83.3566125290020
20
-2.89393416253535
30
0.000000000000000
11
-83.2566125290020
21
-2.92886281256755
31
0.000000000000000
  0
LINE
  5
F1062A
330
F1062B
100
AcDbEntity
8
Geo
100
AcDbLine
10
-83.2566125290020
20
-2.92886281256755
30
0.000000000000000
11
-83.1566125290020
21
-2.95648347128210
31
0.000000000000000
  0
LINE
  5
F1062C
330
F1062D
100
AcDbEntity
8
Geo
100
AcDbLine
10
-83.1566125290020
20
-2.95648347128210
30
0.000000000000000
11
-83.0566125290020
21
-2.97675522423615
31
0.000000000000000
  0
LINE
  5
F1062E
330
F1062F
100
AcDbEntity
8
Geo
100
AcDbLine
10
-83.0566125290020
20
-2.97675522423615
30
0.000000000000000
11
-82.9566125290020
21
-2.98964804291062
31
0.000000000000000
  0
LINE
  5
F10630
330
F10631
100
AcDbEntity
8
Geo
100
AcDbLine
10
-82.9566125290020
20
-2.98964804291062
30
0.000000000000000
11
-82.8566125290020
21
-2.99514282919135
31
0.000000000000000
  0
LINE
  5
F10632
330
F10633
100
AcDbEntity
8
Geo
100
AcDbLine
10
-91.8566125290019
20
7.00386051898933
30
0.000000000000000
11
-91.7566125290019
21
7.00355590274665
31
0.000000000000000
  0
LINE
  5
F10634
330
F10635
100
AcDbEntity
8
Geo
100
AcDbLine
10
-91.7566125290019
20
7.00355590274665
30
0.000000000000000
11
-91.6566125290019
21
6.99584639996779
31
0.000000000000000
  0
LINE
  5
F10636
330
F10637
100
AcDbEntity
8
Geo
100
AcDbLine
10
-91.6566125290019
20
6.99584639996779
30
0.000000000000000
11
-91.5566125290019
21
6.98074343072834
31
0.000000000000000
  0
LINE
  5
F10638
330
F10639
100
AcDbEntity
8
Geo
100
AcDbLine
10
-91.5566125290019
20
6.98074343072834
30
0.000000000000000
11
-91.4566125290019
21
6.95826936703538
31
0.000000000000000
  0
LINE
  5
F1063A
330
F1063B
100
AcDbEntity
8
Geo
100
AcDbLine
10
-91.4566125290019
20
6.95826936703538
30
0.000000000000000
11
-91.3566125290019
21
6.92845749968780
31
0.000000000000000
  0
LINE
  5
F1063C
330
F1063D
100
AcDbEntity
8
Geo
100
AcDbLine
10
-91.3566125290019
20
6.92845749968780
30
0.000000000000000
11
-91.2566125290019
21
6.89135198896271
31
0.000000000000000
  0
LINE
  5
F1063E
330
F1063F
100
AcDbEntity
8
Geo
100
AcDbLine
10
-91.2566125290019
20
6.89135198896271
30
0.000000000000000
11
-91.1566125290019
21
6.84700779920089
31
0.000000000000000
  0
LINE
  5
F10640
330
F10641
100
AcDbEntity
8
Geo
100
AcDbLine
10
-91.1566125290019
20
6.84700779920089
30
0.000000000000000
11
-91.0566125290019
21
6.79549061738817
31
0.000000000000000
  0
LINE
  5
F10642
330
F10643
100
AcDbEntity
8
Geo
100
AcDbLine
10
-91.0566125290019
20
6.79549061738817
30
0.000000000000000
11
-90.9566125290019
21
6.73687675585342
31
0.000000000000000
  0
LINE
  5
F10644
330
F10645
100
AcDbEntity
8
Geo
100
AcDbLine
10
-90.9566125290019
20
6.73687675585342
30
0.000000000000000
11
-90.8566125290019
21
6.67125303922718
31
0.000000000000000
  0
LINE
  5
F10646
330
F10647
100
AcDbEntity
8
Geo
100
AcDbLine
10
-90.8566125290019
20
6.67125303922718
30
0.000000000000000
11
-90.7566125290019
21
6.59871667582845
31
0.000000000000000
  0
LINE
  5
F10648
330
F10649
100
AcDbEntity
8
Geo
100
AcDbLine
10
-90.7566125290019
20
6.59871667582845
30
0.000000000000000
11
-90.6566125290019
21
6.51937511367018
31
0.000000000000000
  0
LINE
  5
F1064A
330
F1064B
100
AcDbEntity
8
Geo
100
AcDbLine
10
-90.6566125290019
20
6.51937511367018
30
0.000000000000000
11
-90.5566125290019
21
6.43334588129664
31
0.000000000000000
  0
LINE
  5
F1064C
330
F1064D
100
AcDbEntity
8
Geo
100
AcDbLine
10
-90.5566125290019
20
6.43334588129664
30
0.000000000000000
11
-90.4566125290019
21
6.34075641368858
31
0.000000000000000
  0
LINE
  5
F1064E
330
F1064F
100
AcDbEntity
8
Geo
100
AcDbLine
10
-90.4566125290019
20
6.34075641368858
30
0.000000000000000
11
-90.3566125290019
21
6.24174386349397
31
0.000000000000000
  0
LINE
  5
F10650
330
F10651
100
AcDbEntity
8
Geo
100
AcDbLine
10
-90.3566125290019
20
6.24174386349397
30
0.000000000000000
11
-90.2566125290019
21
6.13645489786395
31
0.000000000000000
  0
LINE
  5
F10652
330
F10653
100
AcDbEntity
8
Geo
100
AcDbLine
10
-90.2566125290019
20
6.13645489786395
30
0.000000000000000
11
-90.1566125290019
21
6.02504548119502
31
0.000000000000000
  0
LINE
  5
F10654
330
F10655
100
AcDbEntity
8
Geo
100
AcDbLine
10
-90.1566125290019
20
6.02504548119502
30
0.000000000000000
11
-90.0566125290019
21
5.90768064409918
31
0.000000000000000
  0
LINE
  5
F10656
330
F10657
100
AcDbEntity
8
Geo
100
AcDbLine
10
-90.0566125290019
20
5.90768064409918
30
0.000000000000000
11
-89.9566125290019
21
5.78453423894431
31
0.000000000000000
  0
LINE
  5
F10658
330
F10659
100
AcDbEntity
8
Geo
100
AcDbLine
10
-89.9566125290019
20
5.78453423894431
30
0.000000000000000
11
-89.8566125290019
21
5.65578868232694
31
0.000000000000000
  0
LINE
  5
F1065A
330
F1065B
100
AcDbEntity
8
Geo
100
AcDbLine
10
-89.8566125290019
20
5.65578868232694
30
0.000000000000000
11
-89.7566125290019
21
5.52163468485874
31
0.000000000000000
  0
LINE
  5
F1065C
330
F1065D
100
AcDbEntity
8
Geo
100
AcDbLine
10
-89.7566125290019
20
5.52163468485874
30
0.000000000000000
11
-89.6566125290019
21
5.38227096866722
31
0.000000000000000
  0
LINE
  5
F1065E
330
F1065F
100
AcDbEntity
8
Geo
100
AcDbLine
10
-89.6566125290019
20
5.38227096866722
30
0.000000000000000
11
-89.5566125290019
21
5.23790397302890
31
0.000000000000000
  0
LINE
  5
F10660
330
F10661
100
AcDbEntity
8
Geo
100
AcDbLine
10
-89.5566125290019
20
5.23790397302890
30
0.000000000000000
11
-89.4566125290019
21
5.08874754857106
31
0.000000000000000
  0
LINE
  5
F10662
330
F10663
100
AcDbEntity
8
Geo
100
AcDbLine
10
-89.4566125290019
20
5.08874754857106
30
0.000000000000000
11
-89.3566125290019
21
4.93502264049520
31
0.000000000000000
  0
LINE
  5
F10664
330
F10665
100
AcDbEntity
8
Geo
100
AcDbLine
10
-89.3566125290019
20
4.93502264049520
30
0.000000000000000
11
-89.2566125290019
21
4.77695696129113
31
0.000000000000000
  0
LINE
  5
F10666
330
F10667
100
AcDbEntity
8
Geo
100
AcDbLine
10
-89.2566125290019
20
4.77695696129113
30
0.000000000000000
11
-89.1566125290019
21
4.61478465342682
31
0.000000000000000
  0
LINE
  5
F10668
330
F10669
100
AcDbEntity
8
Geo
100
AcDbLine
10
-89.1566125290019
20
4.61478465342682
30
0.000000000000000
11
-89.0566125290019
21
4.44874594251352
31
0.000000000000000
  0
LINE
  5
F1066A
330
F1066B
100
AcDbEntity
8
Geo
100
AcDbLine
10
-89.0566125290019
20
4.44874594251352
30
0.000000000000000
11
-88.9566125290019
21
4.27908678145984
31
0.000000000000000
  0
LINE
  5
F1066C
330
F1066D
100
AcDbEntity
8
Geo
100
AcDbLine
10
-88.9566125290019
20
4.27908678145984
30
0.000000000000000
11
-88.8566125290019
21
4.10605848614209
31
0.000000000000000
  0
LINE
  5
F1066E
330
F1066F
100
AcDbEntity
8
Geo
100
AcDbLine
10
-88.8566125290019
20
4.10605848614209
30
0.000000000000000
11
-88.7566125290019
21
3.92991736313044
31
0.000000000000000
  0
LINE
  5
F10670
330
F10671
100
AcDbEntity
8
Geo
100
AcDbLine
10
-88.7566125290019
20
3.92991736313044
30
0.000000000000000
11
-88.6566125290019
21
3.75092433002231
31
0.000000000000000
  0
LINE
  5
F10672
330
F10673
100
AcDbEntity
8
Geo
100
AcDbLine
10
-88.6566125290019
20
3.75092433002231
30
0.000000000000000
11
-88.5566125290019
21
3.56934452894555
31
0.000000000000000
  0
LINE
  5
F10674
330
F10675
100
AcDbEntity
8
Geo
100
AcDbLine
10
-88.5566125290019
20
3.56934452894555
30
0.000000000000000
11
-88.4566125290019
21
3.38544693380375
31
0.000000000000000
  0
LINE
  5
F10676
330
F10677
100
AcDbEntity
8
Geo
100
AcDbLine
10
-88.4566125290019
20
3.38544693380375
30
0.000000000000000
11
-88.3566125290019
21
3.19950395184558
31
0.000000000000000
  0
LINE
  5
F10678
330
F10679
100
AcDbEntity
8
Geo
100
AcDbLine
10
-88.3566125290019
20
3.19950395184558
30
0.000000000000000
11
-88.2566125290019
21
3.01179102014834
31
0.000000000000000
  0
LINE
  5
F1067A
330
F1067B
100
AcDbEntity
8
Geo
100
AcDbLine
10
-88.2566125290019
20
3.01179102014834
30
0.000000000000000
11
-88.1566125290019
21
2.82258619761336
31
0.000000000000000
  0
LINE
  5
F1067C
330
F1067D
100
AcDbEntity
8
Geo
100
AcDbLine
10
-88.1566125290019
20
2.82258619761336
30
0.000000000000000
11
-88.0566125290019
21
2.63216975307778
31
0.000000000000000
  0
LINE
  5
F1067E
330
F1067F
100
AcDbEntity
8
Geo
100
AcDbLine
10
-88.0566125290019
20
2.63216975307778
30
0.000000000000000
11
-87.9566125290019
21
2.44082375015270
31
0.000000000000000
  0
LINE
  5
F10680
330
F10681
100
AcDbEntity
8
Geo
100
AcDbLine
10
-87.9566125290019
20
2.44082375015270
30
0.000000000000000
11
-87.8566125290020
21
2.24883162940277
31
0.000000000000000
  0
LINE
  5
F10682
330
F10683
100
AcDbEntity
8
Geo
100
AcDbLine
10
-87.8566125290020
20
2.24883162940277
30
0.000000000000000
11
-87.7566125290019
21
2.05647778848602
31
0.000000000000000
  0
LINE
  5
F10684
330
F10685
100
AcDbEntity
8
Geo
100
AcDbLine
10
-87.7566125290019
20
2.05647778848602
30
0.000000000000000
11
-87.6566125290019
21
1.86404716087611
31
0.000000000000000
  0
LINE
  5
F10686
330
F10687
100
AcDbEntity
8
Geo
100
AcDbLine
10
-87.6566125290019
20
1.86404716087611
30
0.000000000000000
11
-87.5566125290019
21
1.67182479379067
31
0.000000000000000
  0
LINE
  5
F10688
330
F10689
100
AcDbEntity
8
Geo
100
AcDbLine
10
-87.5566125290019
20
1.67182479379067
30
0.000000000000000
11
-87.4566125290019
21
1.48009542595135
31
0.000000000000000
  0
LINE
  5
F1068A
330
F1068B
100
AcDbEntity
8
Geo
100
AcDbLine
10
-87.4566125290019
20
1.48009542595135
30
0.000000000000000
11
-87.3566125290020
21
1.28914306580068
31
0.000000000000000
  0
LINE
  5
F1068C
330
F1068D
100
AcDbEntity
8
Geo
100
AcDbLine
10
-87.3566125290020
20
1.28914306580068
30
0.000000000000000
11
-87.2566125290019
21
1.09925057080082
31
0.000000000000000
  0
LINE
  5
F1068E
330
F1068F
100
AcDbEntity
8
Geo
100
AcDbLine
10
-87.2566125290019
20
1.09925057080082
30
0.000000000000000
11
-87.1566125290019
21
0.910699228437142
31
0.000000000000000
  0
LINE
  5
F10690
330
F10691
100
AcDbEntity
8
Geo
100
AcDbLine
10
-87.1566125290019
20
0.910699228437142
30
0.000000000000000
11
-87.0566125290019
21
0.723768339547540
31
0.000000000000000
  0
LINE
  5
F10692
330
F10693
100
AcDbEntity
8
Geo
100
AcDbLine
10
-87.0566125290019
20
0.723768339547540
30
0.000000000000000
11
-86.9566125290019
21
0.538734804594444
31
0.000000000000000
  0
LINE
  5
F10694
330
F10695
100
AcDbEntity
8
Geo
100
AcDbLine
10
-86.9566125290019
20
0.538734804594444
30
0.000000000000000
11
-86.8566125290020
21
0.355872713492563
31
0.000000000000000
  0
LINE
  5
F10696
330
F10697
100
AcDbEntity
8
Geo
100
AcDbLine
10
-86.8566125290020
20
0.355872713492563
30
0.000000000000000
11
-86.7566125290019
21
0.175452939599916
31
0.000000000000000
  0
LINE
  5
F10698
330
F10699
100
AcDbEntity
8
Geo
100
AcDbLine
10
-86.7566125290019
20
0.175452939599916
30
0.000000000000000
11
-86.6566125290019
21
-0.00225726152655037
31
0.000000000000000
  0
LINE
  5
F1069A
330
F1069B
100
AcDbEntity
8
Geo
100
AcDbLine
10
-86.6566125290019
20
-0.00225726152655037
30
0.000000000000000
11
-86.5566125290020
21
-0.176994648016199
31
0.000000000000000
  0
LINE
  5
F1069C
330
F1069D
100
AcDbEntity
8
Geo
100
AcDbLine
10
-86.5566125290020
20
-0.176994648016199
30
0.000000000000000
11
-86.4566125290019
21
-0.348500381624531
31
0.000000000000000
  0
LINE
  5
F1069E
330
F1069F
100
AcDbEntity
8
Geo
100
AcDbLine
10
-86.4566125290019
20
-0.348500381624531
30
0.000000000000000
11
-86.3566125290020
21
-0.516520411149905
31
0.000000000000000
  0
LINE
  5
F106A0
330
F106A1
100
AcDbEntity
8
Geo
100
AcDbLine
10
-86.3566125290020
20
-0.516520411149905
30
0.000000000000000
11
-86.2566125290020
21
-0.680805848759231
31
0.000000000000000
  0
LINE
  5
F106A2
330
F106A3
100
AcDbEntity
8
Geo
100
AcDbLine
10
-86.2566125290020
20
-0.680805848759231
30
0.000000000000000
11
-86.1566125290019
21
-0.841113338665165
31
0.000000000000000
  0
LINE
  5
F106A4
330
F106A5
100
AcDbEntity
8
Geo
100
AcDbLine
10
-86.1566125290019
20
-0.841113338665165
30
0.000000000000000
11
-86.0566125290020
21
-0.997205417608690
31
0.000000000000000
  0
LINE
  5
F106A6
330
F106A7
100
AcDbEntity
8
Geo
100
AcDbLine
10
-86.0566125290020
20
-0.997205417608690
30
0.000000000000000
11
-85.9566125290019
21
-1.14885086661311
31
0.000000000000000
  0
LINE
  5
F106A8
330
F106A9
100
AcDbEntity
8
Geo
100
AcDbLine
10
-85.9566125290019
20
-1.14885086661311
30
0.000000000000000
11
-85.8566125290020
21
-1.29582505348841
31
0.000000000000000
  0
LINE
  5
F106AA
330
F106AB
100
AcDbEntity
8
Geo
100
AcDbLine
10
-85.8566125290020
20
-1.29582505348841
30
0.000000000000000
11
-85.7566125290020
21
-1.43791026557856
31
0.000000000000000
  0
LINE
  5
F106AC
330
F106AD
100
AcDbEntity
8
Geo
100
AcDbLine
10
-85.7566125290020
20
-1.43791026557856
30
0.000000000000000
11
-85.6566125290019
21
-1.57489603225902
31
0.000000000000000
  0
LINE
  5
F106AE
330
F106AF
100
AcDbEntity
8
Geo
100
AcDbLine
10
-85.6566125290019
20
-1.57489603225902
30
0.000000000000000
11
-85.5566125290020
21
-1.70657943670653
31
0.000000000000000
  0
LINE
  5
F106B0
330
F106B1
100
AcDbEntity
8
Geo
100
AcDbLine
10
-85.5566125290020
20
-1.70657943670653
30
0.000000000000000
11
-85.4566125290019
21
-1.83276541647956
31
0.000000000000000
  0
LINE
  5
F106B2
330
F106B3
100
AcDbEntity
8
Geo
100
AcDbLine
10
-85.4566125290019
20
-1.83276541647956
30
0.000000000000000
11
-85.3566125290020
21
-1.95326705246399
31
0.000000000000000
  0
LINE
  5
F106B4
330
F106B5
100
AcDbEntity
8
Geo
100
AcDbLine
10
-85.3566125290020
20
-1.95326705246399
30
0.000000000000000
11
-85.2566125290020
21
-2.06790584575616
31
0.000000000000000
  0
LINE
  5
F106B6
330
F106B7
100
AcDbEntity
8
Geo
100
AcDbLine
10
-85.2566125290020
20
-2.06790584575616
30
0.000000000000000
11
-85.1566125290019
21
-2.17651198207302
31
0.000000000000000
  0
LINE
  5
F106B8
330
F106B9
100
AcDbEntity
8
Geo
100
AcDbLine
10
-85.1566125290019
20
-2.17651198207302
30
0.000000000000000
11
-85.0566125290020
21
-2.27892458329782
31
0.000000000000000
  0
LINE
  5
F106BA
330
F106BB
100
AcDbEntity
8
Geo
100
AcDbLine
10
-85.0566125290020
20
-2.27892458329782
30
0.000000000000000
11
-84.9566125290020
21
-2.37499194578860
31
0.000000000000000
  0
LINE
  5
F106BC
330
F106BD
100
AcDbEntity
8
Geo
100
AcDbLine
10
-84.9566125290020
20
-2.37499194578860
30
0.000000000000000
11
-84.8566125290020
21
-2.46457176509661
31
0.000000000000000
  0
LINE
  5
F106BE
330
F106BF
100
AcDbEntity
8
Geo
100
AcDbLine
10
-84.8566125290020
20
-2.46457176509661
30
0.000000000000000
11
-84.7566125290020
21
-2.54753134676167
31
0.000000000000000
  0
LINE
  5
F106C0
330
F106C1
100
AcDbEntity
8
Geo
100
AcDbLine
10
-84.7566125290020
20
-2.54753134676167
30
0.000000000000000
11
-84.6566125290020
21
-2.62374780287231
31
0.000000000000000
  0
LINE
  5
F106C2
330
F106C3
100
AcDbEntity
8
Geo
100
AcDbLine
10
-84.6566125290020
20
-2.62374780287231
30
0.000000000000000
11
-84.5566125290020
21
-2.69310823409944
31
0.000000000000000
  0
LINE
  5
F106C4
330
F106C5
100
AcDbEntity
8
Geo
100
AcDbLine
10
-84.5566125290020
20
-2.69310823409944
30
0.000000000000000
11
-84.4566125290020
21
-2.75550989693397
31
0.000000000000000
  0
LINE
  5
F106C6
330
F106C7
100
AcDbEntity
8
Geo
100
AcDbLine
10
-84.4566125290020
20
-2.75550989693397
30
0.000000000000000
11
-84.3566125290020
21
-2.81086035588063
31
0.000000000000000
  0
LINE
  5
F106C8
330
F106C9
100
AcDbEntity
8
Geo
100
AcDbLine
10
-84.3566125290020
20
-2.81086035588063
30
0.000000000000000
11
-84.2566125290020
21
-2.85907762038254
31
0.000000000000000
  0
LINE
  5
F106CA
330
F106CB
100
AcDbEntity
8
Geo
100
AcDbLine
10
-84.2566125290020
20
-2.85907762038254
30
0.000000000000000
11
-84.1566125290020
21
-2.90009026627370
31
0.000000000000000
  0
LINE
  5
F106CC
330
F106CD
100
AcDbEntity
8
Geo
100
AcDbLine
10
-84.1566125290020
20
-2.90009026627370
30
0.000000000000000
11
-84.0566125290020
21
-2.93383754157953
31
0.000000000000000
  0
LINE
  5
F106CE
330
F106CF
100
AcDbEntity
8
Geo
100
AcDbLine
10
-84.0566125290020
20
-2.93383754157953
30
0.000000000000000
11
-83.9566125290020
21
-2.96026945650864
31
0.000000000000000
  0
LINE
  5
F106D0
330
F106D1
100
AcDbEntity
8
Geo
100
AcDbLine
10
-83.9566125290020
20
-2.96026945650864
30
0.000000000000000
11
-83.8566125290020
21
-2.97934685750267
31
0.000000000000000
  0
LINE
  5
F106D2
330
F106D3
100
AcDbEntity
8
Geo
100
AcDbLine
10
-83.8566125290020
20
-2.97934685750267
30
0.000000000000000
11
-83.7566125290020
21
-2.99104148523440
31
0.000000000000000
  0
LINE
  5
F106D4
330
F106D5
100
AcDbEntity
8
Geo
100
AcDbLine
10
-83.7566125290020
20
-2.99104148523440
30
0.000000000000000
11
-83.6566125290020
21
-2.99533601646824
31
0.000000000000000
  0
LINE
  5
F106D6
330
F106D7
100
AcDbEntity
8
Geo
100
AcDbLine
10
-95.1566125290019
20
7.00220765348058
30
0.000000000000000
11
-95.0566125290019
21
7.00450735081332
31
0.000000000000000
  0
LINE
  5
F106D8
330
F106D9
100
AcDbEntity
8
Geo
100
AcDbLine
10
-95.0566125290019
20
7.00450735081332
30
0.000000000000000
11
-94.9566125290019
21
6.99940075223118
31
0.000000000000000
  0
LINE
  5
F106DA
330
F106DB
100
AcDbEntity
8
Geo
100
AcDbLine
10
-94.9566125290019
20
6.99940075223118
30
0.000000000000000
11
-94.8566125290019
21
6.98689542213146
31
0.000000000000000
  0
LINE
  5
F106DC
330
F106DD
100
AcDbEntity
8
Geo
100
AcDbLine
10
-94.8566125290019
20
6.98689542213146
30
0.000000000000000
11
-94.7566125290019
21
6.96700988464203
31
0.000000000000000
  0
LINE
  5
F106DE
330
F106DF
100
AcDbEntity
8
Geo
100
AcDbLine
10
-94.7566125290019
20
6.96700988464203
30
0.000000000000000
11
-94.6566125290019
21
6.93977359618155
31
0.000000000000000
  0
LINE
  5
F106E0
330
F106E1
100
AcDbEntity
8
Geo
100
AcDbLine
10
-94.6566125290019
20
6.93977359618155
30
0.000000000000000
11
-94.5566125290019
21
6.90522690182577
31
0.000000000000000
  0
LINE
  5
F106E2
330
F106E3
100
AcDbEntity
8
Geo
100
AcDbLine
10
-94.5566125290019
20
6.90522690182577
30
0.000000000000000
11
-94.4566125290019
21
6.86342097554437
31
0.000000000000000
  0
LINE
  5
F106E4
330
F106E5
100
AcDbEntity
8
Geo
100
AcDbLine
10
-94.4566125290019
20
6.86342097554437
30
0.000000000000000
11
-94.3566125290019
21
6.81441774439708
31
0.000000000000000
  0
LINE
  5
F106E6
330
F106E7
100
AcDbEntity
8
Geo
100
AcDbLine
10
-94.3566125290019
20
6.81441774439708
30
0.000000000000000
11
-94.2566125290019
21
6.75828979680117
31
0.000000000000000
  0
LINE
  5
F106E8
330
F106E9
100
AcDbEntity
8
Geo
100
AcDbLine
10
-94.2566125290019
20
6.75828979680117
30
0.000000000000000
11
-94.1566125290019
21
6.69512027500637
31
0.000000000000000
  0
LINE
  5
F106EA
330
F106EB
100
AcDbEntity
8
Geo
100
AcDbLine
10
-94.1566125290019
20
6.69512027500637
30
0.000000000000000
11
-94.0566125290019
21
6.62500275193635
31
0.000000000000000
  0
LINE
  5
F106EC
330
F106ED
100
AcDbEntity
8
Geo
100
AcDbLine
10
-94.0566125290019
20
6.62500275193635
30
0.000000000000000
11
-93.9566125290019
21
6.54804109257926
31
0.000000000000000
  0
LINE
  5
F106EE
330
F106EF
100
AcDbEntity
8
Geo
100
AcDbLine
10
-93.9566125290019
20
6.54804109257926
30
0.000000000000000
11
-93.8566125290019
21
6.46434930013273
31
0.000000000000000
  0
LINE
  5
F106F0
330
F106F1
100
AcDbEntity
8
Geo
100
AcDbLine
10
-93.8566125290019
20
6.46434930013273
30
0.000000000000000
11
-93.7566125290019
21
6.37405134713102
31
0.000000000000000
  0
LINE
  5
F106F2
330
F106F3
100
AcDbEntity
8
Geo
100
AcDbLine
10
-93.7566125290019
20
6.37405134713102
30
0.000000000000000
11
-93.6566125290019
21
6.27728099180474
31
0.000000000000000
  0
LINE
  5
F106F4
330
F106F5
100
AcDbEntity
8
Geo
100
AcDbLine
10
-93.6566125290019
20
6.27728099180474
30
0.000000000000000
11
-93.5566125290019
21
6.17418157994493
31
0.000000000000000
  0
LINE
  5
F106F6
330
F106F7
100
AcDbEntity
8
Geo
100
AcDbLine
10
-93.5566125290019
20
6.17418157994493
30
0.000000000000000
11
-93.4566125290019
21
6.06490583256519
31
0.000000000000000
  0
LINE
  5
F106F8
330
F106F9
100
AcDbEntity
8
Geo
100
AcDbLine
10
-93.4566125290019
20
6.06490583256519
30
0.000000000000000
11
-93.3566125290019
21
5.94961561967619
31
0.000000000000000
  0
LINE
  5
F106FA
330
F106FB
100
AcDbEntity
8
Geo
100
AcDbLine
10
-93.3566125290019
20
5.94961561967619
30
0.000000000000000
11
-93.2566125290019
21
5.82848172050791
31
0.000000000000000
  0
LINE
  5
F106FC
330
F106FD
100
AcDbEntity
8
Geo
100
AcDbLine
10
-93.2566125290019
20
5.82848172050791
30
0.000000000000000
11
-93.1566125290019
21
5.70168357053457
31
0.000000000000000
  0
LINE
  5
F106FE
330
F106FF
100
AcDbEntity
8
Geo
100
AcDbLine
10
-93.1566125290019
20
5.70168357053457
30
0.000000000000000
11
-93.0566125290019
21
5.56940899567715
31
0.000000000000000
  0
LINE
  5
F10700
330
F10701
100
AcDbEntity
8
Geo
100
AcDbLine
10
-93.0566125290019
20
5.56940899567715
30
0.000000000000000
11
-92.9566125290019
21
5.43185393407708
31
0.000000000000000
  0
LINE
  5
F10702
330
F10703
100
AcDbEntity
8
Geo
100
AcDbLine
10
-92.9566125290019
20
5.43185393407708
30
0.000000000000000
11
-92.8566125290019
21
5.28922214585337
31
0.000000000000000
  0
LINE
  5
F10704
330
F10705
100
AcDbEntity
8
Geo
100
AcDbLine
10
-92.8566125290019
20
5.28922214585337
30
0.000000000000000
11
-92.7566125290019
21
5.14172491127304
31
0.000000000000000
  0
LINE
  5
F10706
330
F10707
100
AcDbEntity
8
Geo
100
AcDbLine
10
-92.7566125290019
20
5.14172491127304
30
0.000000000000000
11
-92.6566125290019
21
4.98958071778192
31
0.000000000000000
  0
LINE
  5
F10708
330
F10709
100
AcDbEntity
8
Geo
100
AcDbLine
10
-92.6566125290019
20
4.98958071778192
30
0.000000000000000
11
-92.5566125290019
21
4.83301493635954
31
0.000000000000000
  0
LINE
  5
F1070A
330
F1070B
100
AcDbEntity
8
Geo
100
AcDbLine
10
-92.5566125290019
20
4.83301493635954
30
0.000000000000000
11
-92.4566125290019
21
4.67225948767742
31
0.000000000000000
  0
LINE
  5
F1070C
330
F1070D
100
AcDbEntity
8
Geo
100
AcDbLine
10
-92.4566125290019
20
4.67225948767742
30
0.000000000000000
11
-92.3566125290019
21
4.50755249855527
31
0.000000000000000
  0
LINE
  5
F1070E
330
F1070F
100
AcDbEntity
8
Geo
100
AcDbLine
10
-92.3566125290019
20
4.50755249855527
30
0.000000000000000
11
-92.2566125290019
21
4.33913794922411
31
0.000000000000000
  0
LINE
  5
F10710
330
F10711
100
AcDbEntity
8
Geo
100
AcDbLine
10
-92.2566125290019
20
4.33913794922411
30
0.000000000000000
11
-92.1566125290019
21
4.16726531191865
31
0.000000000000000
  0
LINE
  5
F10712
330
F10713
100
AcDbEntity
8
Geo
100
AcDbLine
10
-92.1566125290019
20
4.16726531191865
30
0.000000000000000
11
-92.0566125290019
21
3.99218918133447
31
0.000000000000000
  0
LINE
  5
F10714
330
F10715
100
AcDbEntity
8
Geo
100
AcDbLine
10
-92.0566125290019
20
3.99218918133447
30
0.000000000000000
11
-91.9566125290019
21
3.81416889749721
31
0.000000000000000
  0
LINE
  5
F10716
330
F10717
100
AcDbEntity
8
Geo
100
AcDbLine
10
-91.9566125290019
20
3.81416889749721
30
0.000000000000000
11
-91.8566125290019
21
3.63346816160259
31
0.000000000000000
  0
LINE
  5
F10718
330
F10719
100
AcDbEntity
8
Geo
100
AcDbLine
10
-91.8566125290019
20
3.63346816160259
30
0.000000000000000
11
-91.7566125290019
21
3.45035464539619
31
0.000000000000000
  0
LINE
  5
F1071A
330
F1071B
100
AcDbEntity
8
Geo
100
AcDbLine
10
-91.7566125290019
20
3.45035464539619
30
0.000000000000000
11
-91.6566125290019
21
3.26509959467167
31
0.000000000000000
  0
LINE
  5
F1071C
330
F1071D
100
AcDbEntity
8
Geo
100
AcDbLine
10
-91.6566125290019
20
3.26509959467167
30
0.000000000000000
11
-91.5566125290019
21
3.07797742747473
31
0.000000000000000
  0
LINE
  5
F1071E
330
F1071F
100
AcDbEntity
8
Geo
100
AcDbLine
10
-91.5566125290019
20
3.07797742747473
30
0.000000000000000
11
-91.4566125290019
21
2.88926532760810
31
0.000000000000000
  0
LINE
  5
F10720
330
F10721
100
AcDbEntity
8
Geo
100
AcDbLine
10
-91.4566125290019
20
2.88926532760810
30
0.000000000000000
11
-91.3566125290019
21
2.69924283403953
31
0.000000000000000
  0
LINE
  5
F10722
330
F10723
100
AcDbEntity
8
Geo
100
AcDbLine
10
-91.3566125290019
20
2.69924283403953
30
0.000000000000000
11
-91.2566125290019
21
2.50819142682110
31
0.000000000000000
  0
LINE
  5
F10724
330
F10725
100
AcDbEntity
8
Geo
100
AcDbLine
10
-91.2566125290019
20
2.50819142682110
30
0.000000000000000
11
-91.1566125290019
21
2.31639411013325
31
0.000000000000000
  0
LINE
  5
F10726
330
F10727
100
AcDbEntity
8
Geo
100
AcDbLine
10
-91.1566125290019
20
2.31639411013325
30
0.000000000000000
11
-91.0566125290019
21
2.12413499307104
31
0.000000000000000
  0
LINE
  5
F10728
330
F10729
100
AcDbEntity
8
Geo
100
AcDbLine
10
-91.0566125290019
20
2.12413499307104
30
0.000000000000000
11
-90.9566125290019
21
1.93169886879379
31
0.000000000000000
  0
LINE
  5
F1072A
330
F1072B
100
AcDbEntity
8
Geo
100
AcDbLine
10
-90.9566125290019
20
1.93169886879379
30
0.000000000000000
11
-90.8566125290019
21
1.73937079266137
31
0.000000000000000
  0
LINE
  5
F1072C
330
F1072D
100
AcDbEntity
8
Geo
100
AcDbLine
10
-90.8566125290019
20
1.73937079266137
30
0.000000000000000
11
-90.7566125290019
21
1.54743565998207
31
0.000000000000000
  0
LINE
  5
F1072E
330
F1072F
100
AcDbEntity
8
Geo
100
AcDbLine
10
-90.7566125290019
20
1.54743565998207
30
0.000000000000000
11
-90.6566125290019
21
1.35617778399760
31
0.000000000000000
  0
LINE
  5
F10730
330
F10731
100
AcDbEntity
8
Geo
100
AcDbLine
10
-90.6566125290019
20
1.35617778399760
30
0.000000000000000
11
-90.5566125290019
21
1.16588047473028
31
0.000000000000000
  0
LINE
  5
F10732
330
F10733
100
AcDbEntity
8
Geo
100
AcDbLine
10
-90.5566125290019
20
1.16588047473028
30
0.000000000000000
11
-90.4566125290019
21
0.976825619316303
31
0.000000000000000
  0
LINE
  5
F10734
330
F10735
100
AcDbEntity
8
Geo
100
AcDbLine
10
-90.4566125290019
20
0.976825619316303
30
0.000000000000000
11
-90.3566125290019
21
0.789293264446727
31
0.000000000000000
  0
LINE
  5
F10736
330
F10737
100
AcDbEntity
8
Geo
100
AcDbLine
10
-90.3566125290019
20
0.789293264446727
30
0.000000000000000
11
-90.2566125290019
21
0.603561201534690
31
0.000000000000000
  0
LINE
  5
F10738
330
F10739
100
AcDbEntity
8
Geo
100
AcDbLine
10
-90.2566125290019
20
0.603561201534690
30
0.000000000000000
11
-90.1566125290019
21
0.419904555223394
31
0.000000000000000
  0
LINE
  5
F1073A
330
F1073B
100
AcDbEntity
8
Geo
100
AcDbLine
10
-90.1566125290019
20
0.419904555223394
30
0.000000000000000
11
-90.0566125290019
21
0.238595375844350
31
0.000000000000000
  0
LINE
  5
F1073C
330
F1073D
100
AcDbEntity
8
Geo
100
AcDbLine
10
-90.0566125290019
20
0.238595375844350
30
0.000000000000000
11
-89.9566125290019
21
0.0599022364296118
31
0.000000000000000
  0
LINE
  5
F1073E
330
F1073F
100
AcDbEntity
8
Geo
100
AcDbLine
10
-89.9566125290019
20
0.0599022364296118
30
0.000000000000000
11
-89.8566125290019
21
-0.115910165125085
31
0.000000000000000
  0
LINE
  5
F10740
330
F10741
100
AcDbEntity
8
Geo
100
AcDbLine
10
-89.8566125290019
20
-0.115910165125085
30
0.000000000000000
11
-89.7566125290019
21
-0.288581398156937
31
0.000000000000000
  0
LINE
  5
F10742
330
F10743
100
AcDbEntity
8
Geo
100
AcDbLine
10
-89.7566125290019
20
-0.288581398156937
30
0.000000000000000
11
-89.6566125290019
21
-0.457855685011650
31
0.000000000000000
  0
LINE
  5
F10744
330
F10745
100
AcDbEntity
8
Geo
100
AcDbLine
10
-89.6566125290019
20
-0.457855685011650
30
0.000000000000000
11
-89.5566125290019
21
-0.623482279926519
31
0.000000000000000
  0
LINE
  5
F10746
330
F10747
100
AcDbEntity
8
Geo
100
AcDbLine
10
-89.5566125290019
20
-0.623482279926519
30
0.000000000000000
11
-89.4566125290019
21
-0.785215840459776
31
0.000000000000000
  0
LINE
  5
F10748
330
F10749
100
AcDbEntity
8
Geo
100
AcDbLine
10
-89.4566125290019
20
-0.785215840459776
30
0.000000000000000
11
-89.3566125290019
21
-0.942816790915983
31
0.000000000000000
  0
LINE
  5
F1074A
330
F1074B
100
AcDbEntity
8
Geo
100
AcDbLine
10
-89.3566125290019
20
-0.942816790915983
30
0.000000000000000
11
-89.2566125290019
21
-1.09605167722920
31
0.000000000000000
  0
LINE
  5
F1074C
330
F1074D
100
AcDbEntity
8
Geo
100
AcDbLine
10
-89.2566125290019
20
-1.09605167722920
30
0.000000000000000
11
-89.1566125290019
21
-1.24469351277817
31
0.000000000000000
  0
LINE
  5
F1074E
330
F1074F
100
AcDbEntity
8
Geo
100
AcDbLine
10
-89.1566125290019
20
-1.24469351277817
30
0.000000000000000
11
-89.0566125290019
21
-1.38852211462122
31
0.000000000000000
  0
LINE
  5
F10750
330
F10751
100
AcDbEntity
8
Geo
100
AcDbLine
10
-89.0566125290019
20
-1.38852211462122
30
0.000000000000000
11
-88.9566125290019
21
-1.52732442965304
31
0.000000000000000
  0
LINE
  5
F10752
330
F10753
100
AcDbEntity
8
Geo
100
AcDbLine
10
-88.9566125290019
20
-1.52732442965304
30
0.000000000000000
11
-88.8566125290019
21
-1.66089485019985
31
0.000000000000000
  0
LINE
  5
F10754
330
F10755
100
AcDbEntity
8
Geo
100
AcDbLine
10
-88.8566125290019
20
-1.66089485019985
30
0.000000000000000
11
-88.7566125290019
21
-1.78903551858583
31
0.000000000000000
  0
LINE
  5
F10756
330
F10757
100
AcDbEntity
8
Geo
100
AcDbLine
10
-88.7566125290019
20
-1.78903551858583
30
0.000000000000000
11
-88.6566125290019
21
-1.91155662021936
31
0.000000000000000
  0
LINE
  5
F10758
330
F10759
100
AcDbEntity
8
Geo
100
AcDbLine
10
-88.6566125290019
20
-1.91155662021936
30
0.000000000000000
11
-88.5566125290019
21
-2.02827666476518
31
0.000000000000000
  0
LINE
  5
F1075A
330
F1075B
100
AcDbEntity
8
Geo
100
AcDbLine
10
-88.5566125290019
20
-2.02827666476518
30
0.000000000000000
11
-88.4566125290019
21
-2.13902275498567
31
0.000000000000000
  0
LINE
  5
F1075C
330
F1075D
100
AcDbEntity
8
Geo
100
AcDbLine
10
-88.4566125290019
20
-2.13902275498567
30
0.000000000000000
11
-88.3566125290019
21
-2.24363084285339
31
0.000000000000000
  0
LINE
  5
F1075E
330
F1075F
100
AcDbEntity
8
Geo
100
AcDbLine
10
-88.3566125290019
20
-2.24363084285339
30
0.000000000000000
11
-88.2566125290019
21
-2.34194597255509
31
0.000000000000000
  0
LINE
  5
F10760
330
F10761
100
AcDbEntity
8
Geo
100
AcDbLine
10
-88.2566125290019
20
-2.34194597255509
30
0.000000000000000
11
-88.1566125290019
21
-2.43382251002763
31
0.000000000000000
  0
LINE
  5
F10762
330
F10763
100
AcDbEntity
8
Geo
100
AcDbLine
10
-88.1566125290019
20
-2.43382251002763
30
0.000000000000000
11
-88.0566125290019
21
-2.51912435868545
31
0.000000000000000
  0
LINE
  5
F10764
330
F10765
100
AcDbEntity
8
Geo
100
AcDbLine
10
-88.0566125290019
20
-2.51912435868545
30
0.000000000000000
11
-87.9566125290019
21
-2.59772516102028
31
0.000000000000000
  0
LINE
  5
F10766
330
F10767
100
AcDbEntity
8
Geo
100
AcDbLine
10
-87.9566125290019
20
-2.59772516102028
30
0.000000000000000
11
-87.8566125290020
21
-2.66950848577432
31
0.000000000000000
  0
LINE
  5
F10768
330
F10769
100
AcDbEntity
8
Geo
100
AcDbLine
10
-87.8566125290020
20
-2.66950848577432
30
0.000000000000000
11
-87.7566125290019
21
-2.73436800040971
31
0.000000000000000
  0
LINE
  5
F1076A
330
F1076B
100
AcDbEntity
8
Geo
100
AcDbLine
10
-87.7566125290019
20
-2.73436800040971
30
0.000000000000000
11
-87.6566125290019
21
-2.79220762861878
31
0.000000000000000
  0
LINE
  5
F1076C
330
F1076D
100
AcDbEntity
8
Geo
100
AcDbLine
10
-87.6566125290019
20
-2.79220762861878
30
0.000000000000000
11
-87.5566125290019
21
-2.84294169264172
31
0.000000000000000
  0
LINE
  5
F1076E
330
F1076F
100
AcDbEntity
8
Geo
100
AcDbLine
10
-87.5566125290019
20
-2.84294169264172
30
0.000000000000000
11
-87.4566125290019
21
-2.88649504018096
31
0.000000000000000
  0
LINE
  5
F10770
330
F10771
100
AcDbEntity
8
Geo
100
AcDbLine
10
-87.4566125290019
20
-2.88649504018096
30
0.000000000000000
11
-87.3566125290020
21
-2.92280315572412
31
0.000000000000000
  0
LINE
  5
F10772
330
F10773
100
AcDbEntity
8
Geo
100
AcDbLine
10
-87.3566125290020
20
-2.92280315572412
30
0.000000000000000
11
-87.2566125290019
21
-2.95181225611078
31
0.000000000000000
  0
LINE
  5
F10774
330
F10775
100
AcDbEntity
8
Geo
100
AcDbLine
10
-87.2566125290019
20
-2.95181225611078
30
0.000000000000000
11
-87.1566125290019
21
-2.97347937020141
31
0.000000000000000
  0
LINE
  5
F10776
330
F10777
100
AcDbEntity
8
Geo
100
AcDbLine
10
-87.1566125290019
20
-2.97347937020141
30
0.000000000000000
11
-87.0566125290019
21
-2.98777240253041
31
0.000000000000000
  0
LINE
  5
F10778
330
F10779
100
AcDbEntity
8
Geo
100
AcDbLine
10
-87.0566125290019
20
-2.98777240253041
30
0.000000000000000
11
-86.9566125290019
21
-2.99467018084913
31
0.000000000000000
  0
LINE
  5
F1077A
330
F1077B
100
AcDbEntity
8
Geo
100
AcDbLine
10
-99.1566125290019
20
6.69595796234644
30
0.000000000000000
11
-99.0566125290019
21
6.91402972933625
31
0.000000000000000
  0
LINE
  5
F1077C
330
F1077D
100
AcDbEntity
8
Geo
100
AcDbLine
10
-99.1566125290019
20
1.95539998357917
30
0.000000000000000
11
-99.0566125290019
21
1.76630763205402
31
0.000000000000000
  0
LINE
  5
F1077E
330
F1077F
100
AcDbEntity
8
Geo
100
AcDbLine
10
-99.0566125290019
20
6.91402972933625
30
0.000000000000000
11
-98.9566125290019
21
6.96028291459408
31
0.000000000000000
  0
LINE
  5
F10780
330
F10781
100
AcDbEntity
8
Geo
100
AcDbLine
10
-99.0566125290019
20
1.76630763205402
30
0.000000000000000
11
-98.9566125290019
21
1.57301284199068
31
0.000000000000000
  0
LINE
  5
F10782
330
F10783
100
AcDbEntity
8
Geo
100
AcDbLine
10
-98.9566125290019
20
6.96028291459408
30
0.000000000000000
11
-98.8566125290019
21
6.95704630448911
31
0.000000000000000
  0
LINE
  5
F10784
330
F10785
100
AcDbEntity
8
Geo
100
AcDbLine
10
-98.9566125290019
20
1.57301284199068
30
0.000000000000000
11
-98.8566125290019
21
1.38066009639379
31
0.000000000000000
  0
LINE
  5
F10786
330
F10787
100
AcDbEntity
8
Geo
100
AcDbLine
10
-98.8566125290019
20
6.95704630448911
30
0.000000000000000
11
-98.7566125290019
21
6.92936722623300
31
0.000000000000000
  0
LINE
  5
F10788
330
F10789
100
AcDbEntity
8
Geo
100
AcDbLine
10
-98.8566125290019
20
1.38066009639379
30
0.000000000000000
11
-98.7566125290019
21
1.19055111643231
31
0.000000000000000
  0
LINE
  5
F1078A
330
F1078B
100
AcDbEntity
8
Geo
100
AcDbLine
10
-98.7566125290019
20
6.92936722623300
30
0.000000000000000
11
-98.6566125290019
21
6.89439315702273
31
0.000000000000000
  0
LINE
  5
F1078C
330
F1078D
100
AcDbEntity
8
Geo
100
AcDbLine
10
-98.7566125290019
20
1.19055111643231
30
0.000000000000000
11
-98.6566125290019
21
1.00164804573738
31
0.000000000000000
  0
LINE
  5
F1078E
330
F1078F
100
AcDbEntity
8
Geo
100
AcDbLine
10
-98.6566125290019
20
6.89439315702273
30
0.000000000000000
11
-98.5566125290019
21
6.85217590389777
31
0.000000000000000
  0
LINE
  5
F10790
330
F10791
100
AcDbEntity
8
Geo
100
AcDbLine
10
-98.6566125290019
20
1.00164804573738
30
0.000000000000000
11
-98.5566125290019
21
0.814230706161546
31
0.000000000000000
  0
LINE
  5
F10792
330
F10793
100
AcDbEntity
8
Geo
100
AcDbLine
10
-98.5566125290019
20
6.85217590389777
30
0.000000000000000
11
-98.4566125290019
21
6.80277800321571
31
0.000000000000000
  0
LINE
  5
F10794
330
F10795
100
AcDbEntity
8
Geo
100
AcDbLine
10
-98.5566125290019
20
0.814230706161546
30
0.000000000000000
11
-98.4566125290019
21
0.628576718745965
31
0.000000000000000
  0
LINE
  5
F10796
330
F10797
100
AcDbEntity
8
Geo
100
AcDbLine
10
-98.4566125290019
20
6.80277800321571
30
0.000000000000000
11
-98.3566125290019
21
6.74627262801725
31
0.000000000000000
  0
LINE
  5
F10798
330
F10799
100
AcDbEntity
8
Geo
100
AcDbLine
10
-98.4566125290019
20
0.628576718745965
30
0.000000000000000
11
-98.3566125290019
21
0.444961092480711
31
0.000000000000000
  0
LINE
  5
F1079A
330
F1079B
100
AcDbEntity
8
Geo
100
AcDbLine
10
-98.3566125290019
20
6.74627262801725
30
0.000000000000000
11
-98.2566125290019
21
6.68274347963509
31
0.000000000000000
  0
LINE
  5
F1079C
330
F1079D
100
AcDbEntity
8
Geo
100
AcDbLine
10
-98.3566125290019
20
0.444961092480711
30
0.000000000000000
11
-98.2566125290019
21
0.263655816934363
31
0.000000000000000
  0
LINE
  5
F1079E
330
F1079F
100
AcDbEntity
8
Geo
100
AcDbLine
10
-98.2566125290019
20
6.68274347963509
30
0.000000000000000
11
-98.1566125290019
21
6.61228466370725
31
0.000000000000000
  0
LINE
  5
F107A0
330
F107A1
100
AcDbEntity
8
Geo
100
AcDbLine
10
-98.2566125290019
20
0.263655816934363
30
0.000000000000000
11
-98.1566125290019
21
0.0849294593562271
31
0.000000000000000
  0
LINE
  5
F107A2
330
F107A3
100
AcDbEntity
8
Geo
100
AcDbLine
10
-98.1566125290019
20
6.61228466370725
30
0.000000000000000
11
-98.0566125290019
21
6.53500055077854
31
0.000000000000000
  0
LINE
  5
F107A4
330
F107A5
100
AcDbEntity
8
Geo
100
AcDbLine
10
-98.1566125290019
20
0.0849294593562271
30
0.000000000000000
11
-98.0566125290019
21
-0.0909532331519385
31
0.000000000000000
  0
LINE
  5
F107A6
330
F107A7
100
AcDbEntity
8
Geo
100
AcDbLine
10
-98.0566125290019
20
6.53500055077854
30
0.000000000000000
11
-97.9566125290019
21
6.45100562169658
31
0.000000000000000
  0
LINE
  5
F107A8
330
F107A9
100
AcDbEntity
8
Geo
100
AcDbLine
10
-98.0566125290019
20
-0.0909532331519385
30
0.000000000000000
11
-97.9566125290019
21
-0.263731725805439
31
0.000000000000000
  0
LINE
  5
F107AA
330
F107AB
100
AcDbEntity
8
Geo
100
AcDbLine
10
-97.9566125290019
20
6.45100562169658
30
0.000000000000000
11
-97.8566125290019
21
6.36042429803152
31
0.000000000000000
  0
LINE
  5
F107AC
330
F107AD
100
AcDbEntity
8
Geo
100
AcDbLine
10
-97.9566125290019
20
-0.263731725805439
30
0.000000000000000
11
-97.8566125290019
21
-0.433150082066458
31
0.000000000000000
  0
LINE
  5
F107AE
330
F107AF
100
AcDbEntity
8
Geo
100
AcDbLine
10
-97.8566125290019
20
6.36042429803152
30
0.000000000000000
11
-97.7566125290019
21
6.26339075777052
31
0.000000000000000
  0
LINE
  5
F107B0
330
F107B1
100
AcDbEntity
8
Geo
100
AcDbLine
10
-97.8566125290019
20
-0.433150082066458
30
0.000000000000000
11
-97.7566125290019
21
-0.598957342762477
31
0.000000000000000
  0
LINE
  5
F107B2
330
F107B3
100
AcDbEntity
8
Geo
100
AcDbLine
10
-97.7566125290019
20
6.26339075777052
30
0.000000000000000
11
-97.6566125290019
21
6.16004873656012
31
0.000000000000000
  0
LINE
  5
F107B4
330
F107B5
100
AcDbEntity
8
Geo
100
AcDbLine
10
-97.7566125290019
20
-0.598957342762477
30
0.000000000000000
11
-97.6566125290019
21
-0.760907897831760
31
0.000000000000000
  0
LINE
  5
F107B6
330
F107B7
100
AcDbEntity
8
Geo
100
AcDbLine
10
-97.6566125290019
20
6.16004873656012
30
0.000000000000000
11
-97.5566125290019
21
6.05055131479077
31
0.000000000000000
  0
LINE
  5
F107B8
330
F107B9
100
AcDbEntity
8
Geo
100
AcDbLine
10
-97.6566125290019
20
-0.760907897831760
30
0.000000000000000
11
-97.5566125290019
21
-0.918761850145175
31
0.000000000000000
  0
LINE
  5
F107BA
330
F107BB
100
AcDbEntity
8
Geo
100
AcDbLine
10
-97.5566125290019
20
6.05055131479077
30
0.000000000000000
11
-97.4566125290019
21
5.93506069083913
31
0.000000000000000
  0
LINE
  5
F107BC
330
F107BD
100
AcDbEntity
8
Geo
100
AcDbLine
10
-97.5566125290019
20
-0.918761850145175
30
0.000000000000000
11
-97.4566125290019
21
-1.07228537086549
31
0.000000000000000
  0
LINE
  5
F107BE
330
F107BF
100
AcDbEntity
8
Geo
100
AcDbLine
10
-97.4566125290019
20
5.93506069083913
30
0.000000000000000
11
-97.3566125290019
21
5.81374794080380
31
0.000000000000000
  0
LINE
  5
F107C0
330
F107C1
100
AcDbEntity
8
Geo
100
AcDbLine
10
-97.4566125290019
20
-1.07228537086549
30
0.000000000000000
11
-97.3566125290019
21
-1.22125104581769
31
0.000000000000000
  0
LINE
  5
F107C2
330
F107C3
100
AcDbEntity
8
Geo
100
AcDbLine
10
-97.3566125290019
20
5.81374794080380
30
0.000000000000000
11
-97.2566125290019
21
5.68679276509054
31
0.000000000000000
  0
LINE
  5
F107C4
330
F107C5
100
AcDbEntity
8
Geo
100
AcDbLine
10
-97.3566125290019
20
-1.22125104581769
30
0.000000000000000
11
-97.2566125290019
21
-1.36543821235728
31
0.000000000000000
  0
LINE
  5
F107C6
330
F107C7
100
AcDbEntity
8
Geo
100
AcDbLine
10
-97.2566125290019
20
5.68679276509054
30
0.000000000000000
11
-97.1566125290019
21
5.55438322222232
31
0.000000000000000
  0
LINE
  5
F107C8
330
F107C9
100
AcDbEntity
8
Geo
100
AcDbLine
10
-97.2566125290019
20
-1.36543821235728
30
0.000000000000000
11
-97.1566125290019
21
-1.50463328623753
31
0.000000000000000
  0
LINE
  5
F107CA
330
F107CB
100
AcDbEntity
8
Geo
100
AcDbLine
10
-97.1566125290019
20
5.55438322222232
30
0.000000000000000
11
-97.0566125290019
21
5.41671545026851
31
0.000000000000000
  0
LINE
  5
F107CC
330
F107CD
100
AcDbEntity
8
Geo
100
AcDbLine
10
-97.1566125290019
20
-1.50463328623753
30
0.000000000000000
11
-97.0566125290019
21
-1.63863007799156
31
0.000000000000000
  0
LINE
  5
F107CE
330
F107CF
100
AcDbEntity
8
Geo
100
AcDbLine
10
-97.0566125290019
20
5.41671545026851
30
0.000000000000000
11
-96.9566125290019
21
5.27399337630580
31
0.000000000000000
  0
LINE
  5
F107D0
330
F107D1
100
AcDbEntity
8
Geo
100
AcDbLine
10
-97.0566125290019
20
-1.63863007799156
30
0.000000000000000
11
-96.9566125290019
21
-1.76723009836047
31
0.000000000000000
  0
LINE
  5
F107D2
330
F107D3
100
AcDbEntity
8
Geo
100
AcDbLine
10
-96.9566125290019
20
5.27399337630580
30
0.000000000000000
11
-96.8566125290019
21
5.12642841434135
31
0.000000000000000
  0
LINE
  5
F107D4
330
F107D5
100
AcDbEntity
8
Geo
100
AcDbLine
10
-96.9566125290019
20
-1.76723009836047
30
0.000000000000000
11
-96.8566125290019
21
-1.89024285231521
31
0.000000000000000
  0
LINE
  5
F107D6
330
F107D7
100
AcDbEntity
8
Geo
100
AcDbLine
10
-96.8566125290019
20
5.12642841434135
30
0.000000000000000
11
-96.7566125290019
21
4.97423915214547
31
0.000000000000000
  0
LINE
  5
F107D8
330
F107D9
100
AcDbEntity
8
Geo
100
AcDbLine
10
-96.8566125290019
20
-1.89024285231521
30
0.000000000000000
11
-96.7566125290019
21
-2.00748612123661
31
0.000000000000000
  0
LINE
  5
F107DA
330
F107DB
100
AcDbEntity
8
Geo
100
AcDbLine
10
-96.7566125290019
20
4.97423915214547
30
0.000000000000000
11
-96.6566125290019
21
4.81765102745791
31
0.000000000000000
  0
LINE
  5
F107DC
330
F107DD
100
AcDbEntity
8
Geo
100
AcDbLine
10
-96.7566125290019
20
-2.00748612123661
30
0.000000000000000
11
-96.6566125290019
21
-2.11878623283553
31
0.000000000000000
  0
LINE
  5
F107DE
330
F107DF
100
AcDbEntity
8
Geo
100
AcDbLine
10
-96.6566125290019
20
4.81765102745791
30
0.000000000000000
11
-96.5566125290019
21
4.65689599404722
31
0.000000000000000
  0
LINE
  5
F107E0
330
F107E1
100
AcDbEntity
8
Geo
100
AcDbLine
10
-96.6566125290019
20
-2.11878623283553
30
0.000000000000000
11
-96.5566125290019
21
-2.22397831841343
31
0.000000000000000
  0
LINE
  5
F107E2
330
F107E3
100
AcDbEntity
8
Geo
100
AcDbLine
10
-96.5566125290019
20
4.65689599404722
30
0.000000000000000
11
-96.4566125290019
21
4.49221217811798
31
0.000000000000000
  0
LINE
  5
F107E4
330
F107E5
100
AcDbEntity
8
Geo
100
AcDbLine
10
-96.5566125290019
20
-2.22397831841343
30
0.000000000000000
11
-96.4566125290019
21
-2.32290655708210
31
0.000000000000000
  0
LINE
  5
F107E6
330
F107E7
100
AcDbEntity
8
Geo
100
AcDbLine
10
-96.4566125290019
20
4.49221217811798
30
0.000000000000000
11
-96.3566125290019
21
4.32384352557478
31
0.000000000000000
  0
LINE
  5
F107E8
330
F107E9
100
AcDbEntity
8
Geo
100
AcDbLine
10
-96.4566125290019
20
-2.32290655708210
30
0.000000000000000
11
-96.3566125290019
21
-2.41542440658092
31
0.000000000000000
  0
LINE
  5
F107EA
330
F107EB
100
AcDbEntity
8
Geo
100
AcDbLine
10
-96.3566125290019
20
4.32384352557478
30
0.000000000000000
11
-96.2566125290019
21
4.15203944066550
31
0.000000000000000
  0
LINE
  5
F107EC
330
F107ED
100
AcDbEntity
8
Geo
100
AcDbLine
10
-96.3566125290019
20
-2.41542440658092
30
0.000000000000000
11
-96.2566125290019
21
-2.50139482034975
31
0.000000000000000
  0
LINE
  5
F107EE
330
F107EF
100
AcDbEntity
8
Geo
100
AcDbLine
10
-96.2566125290019
20
4.15203944066550
30
0.000000000000000
11
-96.1566125290019
21
3.97705441653914
31
0.000000000000000
  0
LINE
  5
F107F0
330
F107F1
100
AcDbEntity
8
Geo
100
AcDbLine
10
-96.2566125290019
20
-2.50139482034975
30
0.000000000000000
11
-96.1566125290019
21
-2.58069045053575
31
0.000000000000000
  0
LINE
  5
F107F2
330
F107F3
100
AcDbEntity
8
Geo
100
AcDbLine
10
-96.1566125290019
20
3.97705441653914
30
0.000000000000000
11
-96.0566125290019
21
3.79914765826547
31
0.000000000000000
  0
LINE
  5
F107F4
330
F107F5
100
AcDbEntity
8
Geo
100
AcDbLine
10
-96.1566125290019
20
-2.58069045053575
30
0.000000000000000
11
-96.0566125290019
21
-2.65319383663361
31
0.000000000000000
  0
LINE
  5
F107F6
330
F107F7
100
AcDbEntity
8
Geo
100
AcDbLine
10
-96.0566125290019
20
3.79914765826547
30
0.000000000000000
11
-95.9566125290019
21
3.61858269887496
31
0.000000000000000
  0
LINE
  5
F107F8
330
F107F9
100
AcDbEntity
8
Geo
100
AcDbLine
10
-96.0566125290019
20
-2.65319383663361
30
0.000000000000000
11
-95.9566125290019
21
-2.71879757947962
31
0.000000000000000
  0
LINE
  5
F107FA
330
F107FB
100
AcDbEntity
8
Geo
100
AcDbLine
10
-95.9566125290019
20
3.61858269887496
30
0.000000000000000
11
-95.8566125290019
21
3.43562700898765
31
0.000000000000000
  0
LINE
  5
F107FC
330
F107FD
100
AcDbEntity
8
Geo
100
AcDbLine
10
-95.9566125290019
20
-2.71879757947962
30
0.000000000000000
11
-95.8566125290019
21
-2.77740450034190
31
0.000000000000000
  0
LINE
  5
F107FE
330
F107FF
100
AcDbEntity
8
Geo
100
AcDbLine
10
-95.8566125290019
20
3.43562700898765
30
0.000000000000000
11
-95.7566125290019
21
3.25055160060928
31
0.000000000000000
  0
LINE
  5
F10800
330
F10801
100
AcDbEntity
8
Geo
100
AcDbLine
10
-95.8566125290019
20
-2.77740450034190
30
0.000000000000000
11
-95.7566125290019
21
-2.82892778487112
31
0.000000000000000
  0
LINE
  5
F10802
330
F10803
100
AcDbEntity
8
Geo
100
AcDbLine
10
-95.7566125290019
20
3.25055160060928
30
0.000000000000000
11
-95.6566125290019
21
3.06363062568161
31
0.000000000000000
  0
LINE
  5
F10804
330
F10805
100
AcDbEntity
8
Geo
100
AcDbLine
10
-95.7566125290019
20
-2.82892778487112
30
0.000000000000000
11
-95.6566125290019
21
-2.87329111169847
31
0.000000000000000
  0
LINE
  5
F10806
330
F10807
100
AcDbEntity
8
Geo
100
AcDbLine
10
-95.6566125290019
20
3.06363062568161
30
0.000000000000000
11
-95.5566125290019
21
2.87514096998154
31
0.000000000000000
  0
LINE
  5
F10808
330
F10809
100
AcDbEntity
8
Geo
100
AcDbLine
10
-95.6566125290019
20
-2.87329111169847
30
0.000000000000000
11
-95.5566125290019
21
-2.91042876549041
31
0.000000000000000
  0
LINE
  5
F1080A
330
F1080B
100
AcDbEntity
8
Geo
100
AcDbLine
10
-95.5566125290019
20
2.87514096998154
30
0.000000000000000
11
-95.4566125290019
21
2.68536184297059
31
0.000000000000000
  0
LINE
  5
F1080C
330
F1080D
100
AcDbEntity
8
Geo
100
AcDbLine
10
-95.5566125290019
20
-2.91042876549041
30
0.000000000000000
11
-95.4566125290019
21
-2.94028573429268
31
0.000000000000000
  0
LINE
  5
F1080E
330
F1080F
100
AcDbEntity
8
Geo
100
AcDbLine
10
-95.4566125290019
20
2.68536184297059
30
0.000000000000000
11
-95.3566125290019
21
2.49457436420230
31
0.000000000000000
  0
LINE
  5
F10810
330
F10811
100
AcDbEntity
8
Geo
100
AcDbLine
10
-95.4566125290019
20
-2.94028573429268
30
0.000000000000000
11
-95.3566125290019
21
-2.96281779101945
31
0.000000000000000
  0
LINE
  5
F10812
330
F10813
100
AcDbEntity
8
Geo
100
AcDbLine
10
-95.3566125290019
20
2.49457436420230
30
0.000000000000000
11
-95.2566125290019
21
2.30306114690025
31
0.000000000000000
  0
LINE
  5
F10814
330
F10815
100
AcDbEntity
8
Geo
100
AcDbLine
10
-95.3566125290019
20
-2.96281779101945
30
0.000000000000000
11
-95.2566125290019
21
-2.97799155896683
31
0.000000000000000
  0
LINE
  5
F10816
330
F10817
100
AcDbEntity
8
Geo
100
AcDbLine
10
-95.2566125290019
20
2.30306114690025
30
0.000000000000000
11
-95.1566125290019
21
2.11110587932352
31
0.000000000000000
  0
LINE
  5
F10818
330
F10819
100
AcDbEntity
8
Geo
100
AcDbLine
10
-95.2566125290019
20
-2.97799155896683
30
0.000000000000000
11
-95.1566125290019
21
-2.98578456125371
31
0.000000000000000
  0
LINE
  5
F1081A
330
F1081B
100
AcDbEntity
8
Geo
100
AcDbLine
10
-95.1566125290019
20
2.11110587932352
30
0.000000000000000
11
-95.0566125290019
21
1.91899290453959
31
0.000000000000000
  0
LINE
  5
F1081C
330
F1081D
100
AcDbEntity
8
Geo
100
AcDbLine
10
-95.0566125290019
20
1.91899290453959
30
0.000000000000000
11
-94.9566125290019
21
1.72700679922745
31
0.000000000000000
  0
LINE
  5
F1081E
330
F1081F
100
AcDbEntity
8
Geo
100
AcDbLine
10
-95.0566125290019
20
6.99546599657637
30
0.000000000000000
11
-94.9566125290019
21
6.98847378646988
31
0.000000000000000
  0
LINE
  5
F10820
330
F10821
100
AcDbEntity
8
Geo
100
AcDbLine
10
-94.9566125290019
20
1.72700679922745
30
0.000000000000000
11
-94.8566125290019
21
1.53543195213448
31
0.000000000000000
  0
LINE
  5
F10822
330
F10823
100
AcDbEntity
8
Geo
100
AcDbLine
10
-94.9566125290019
20
6.98847378646988
30
0.000000000000000
11
-94.8566125290019
21
6.97409903094480
31
0.000000000000000
  0
LINE
  5
F10824
330
F10825
100
AcDbEntity
8
Geo
100
AcDbLine
10
-94.8566125290019
20
1.53543195213448
30
0.000000000000000
11
-94.7566125290019
21
1.34455214281187
31
0.000000000000000
  0
LINE
  5
F10826
330
F10827
100
AcDbEntity
8
Geo
100
AcDbLine
10
-94.8566125290019
20
6.97409903094480
30
0.000000000000000
11
-94.7566125290019
21
6.95236302330625
31
0.000000000000000
  0
LINE
  5
F10828
330
F10829
100
AcDbEntity
8
Geo
100
AcDbLine
10
-94.7566125290019
20
1.34455214281187
30
0.000000000000000
11
-94.6566125290019
21
1.15465012125232
31
0.000000000000000
  0
LINE
  5
F1082A
330
F1082B
100
AcDbEntity
8
Geo
100
AcDbLine
10
-94.7566125290019
20
6.95236302330625
30
0.000000000000000
11
-94.6566125290019
21
6.92329796107173
31
0.000000000000000
  0
LINE
  5
F1082C
330
F1082D
100
AcDbEntity
8
Geo
100
AcDbLine
10
-94.6566125290019
20
1.15465012125232
30
0.000000000000000
11
-94.5566125290019
21
0.966007189052907
31
0.000000000000000
  0
LINE
  5
F1082E
330
F1082F
100
AcDbEntity
8
Geo
100
AcDbLine
10
-94.6566125290019
20
6.92329796107173
30
0.000000000000000
11
-94.5566125290019
21
6.88694689827698
31
0.000000000000000
  0
LINE
  5
F10830
330
F10831
100
AcDbEntity
8
Geo
100
AcDbLine
10
-94.5566125290019
20
0.966007189052907
30
0.000000000000000
11
-94.4566125290019
21
0.778902782723407
31
0.000000000000000
  0
LINE
  5
F10832
330
F10833
100
AcDbEntity
8
Geo
100
AcDbLine
10
-94.5566125290019
20
6.88694689827698
30
0.000000000000000
11
-94.4566125290019
21
6.84336368170013
31
0.000000000000000
  0
LINE
  5
F10834
330
F10835
100
AcDbEntity
8
Geo
100
AcDbLine
10
-94.4566125290019
20
0.778902782723407
30
0.000000000000000
11
-94.3566125290019
21
0.593614059757389
31
0.000000000000000
  0
LINE
  5
F10836
330
F10837
100
AcDbEntity
8
Geo
100
AcDbLine
10
-94.4566125290019
20
6.84336368170013
30
0.000000000000000
11
-94.3566125290019
21
6.79261287109851
31
0.000000000000000
  0
LINE
  5
F10838
330
F10839
100
AcDbEntity
8
Geo
100
AcDbLine
10
-94.3566125290019
20
0.593614059757389
30
0.000000000000000
11
-94.2566125290019
21
0.410415488079215
31
0.000000000000000
  0
LINE
  5
F1083A
330
F1083B
100
AcDbEntity
8
Geo
100
AcDbLine
10
-94.3566125290019
20
6.79261287109851
30
0.000000000000000
11
-94.2566125290019
21
6.73476964357638
31
0.000000000000000
  0
LINE
  5
F1083C
330
F1083D
100
AcDbEntity
8
Geo
100
AcDbLine
10
-94.2566125290019
20
0.410415488079215
30
0.000000000000000
11
-94.1566125290019
21
0.229578439475091
31
0.000000000000000
  0
LINE
  5
F1083E
330
F1083F
100
AcDbEntity
8
Geo
100
AcDbLine
10
-94.2566125290019
20
6.73476964357638
30
0.000000000000000
11
-94.1566125290019
21
6.66991968222520
31
0.000000000000000
  0
LINE
  5
F10840
330
F10841
100
AcDbEntity
8
Geo
100
AcDbLine
10
-94.1566125290019
20
0.229578439475091
30
0.000000000000000
11
-94.0566125290019
21
0.0513707876104152
31
0.000000000000000
  0
LINE
  5
F10842
330
F10843
100
AcDbEntity
8
Geo
100
AcDbLine
10
-94.1566125290019
20
6.66991968222520
30
0.000000000000000
11
-94.0566125290019
21
6.59815904920138
31
0.000000000000000
  0
LINE
  5
F10844
330
F10845
100
AcDbEntity
8
Geo
100
AcDbLine
10
-94.0566125290019
20
0.0513707876104152
30
0.000000000000000
11
-93.9566125290019
21
-0.123943488771097
31
0.000000000000000
  0
LINE
  5
F10846
330
F10847
100
AcDbEntity
8
Geo
100
AcDbLine
10
-94.0566125290019
20
6.59815904920138
30
0.000000000000000
11
-93.9566125290019
21
6.51959404342957
31
0.000000000000000
  0
LINE
  5
F10848
330
F10849
100
AcDbEntity
8
Geo
100
AcDbLine
10
-93.9566125290019
20
-0.123943488771097
30
0.000000000000000
11
-93.8566125290019
21
-0.296104696878765
31
0.000000000000000
  0
LINE
  5
F1084A
330
F1084B
100
AcDbEntity
8
Geo
100
AcDbLine
10
-93.9566125290019
20
6.51959404342957
30
0.000000000000000
11
-93.8566125290019
21
6.43434104314214
31
0.000000000000000
  0
LINE
  5
F1084C
330
F1084D
100
AcDbEntity
8
Geo
100
AcDbLine
10
-93.8566125290019
20
-0.296104696878765
30
0.000000000000000
11
-93.7566125290019
21
-0.464857814557492
31
0.000000000000000
  0
LINE
  5
F1084E
330
F1084F
100
AcDbEntity
8
Geo
100
AcDbLine
10
-93.8566125290019
20
6.43434104314214
30
0.000000000000000
11
-93.7566125290019
21
6.34252633348835
31
0.000000000000000
  0
LINE
  5
F10850
330
F10851
100
AcDbEntity
8
Geo
100
AcDbLine
10
-93.7566125290019
20
-0.464857814557492
30
0.000000000000000
11
-93.6566125290019
21
-0.629952868051739
31
0.000000000000000
  0
LINE
  5
F10852
330
F10853
100
AcDbEntity
8
Geo
100
AcDbLine
10
-93.7566125290019
20
6.34252633348835
30
0.000000000000000
11
-93.6566125290019
21
6.24428591946830
31
0.000000000000000
  0
LINE
  5
F10854
330
F10855
100
AcDbEntity
8
Geo
100
AcDbLine
10
-93.6566125290019
20
-0.629952868051739
30
0.000000000000000
11
-93.5566125290019
21
-0.791145302291293
31
0.000000000000000
  0
LINE
  5
F10856
330
F10857
100
AcDbEntity
8
Geo
100
AcDbLine
10
-93.6566125290019
20
6.24428591946830
30
0.000000000000000
11
-93.5566125290019
21
6.13976532446891
31
0.000000000000000
  0
LINE
  5
F10858
330
F10859
100
AcDbEntity
8
Geo
100
AcDbLine
10
-93.5566125290019
20
-0.791145302291293
30
0.000000000000000
11
-93.4566125290019
21
-0.948196343150344
31
0.000000000000000
  0
LINE
  5
F1085A
330
F1085B
100
AcDbEntity
8
Geo
100
AcDbLine
10
-93.5566125290019
20
6.13976532446891
30
0.000000000000000
11
-93.4566125290019
21
6.02911937470033
31
0.000000000000000
  0
LINE
  5
F1085C
330
F1085D
100
AcDbEntity
8
Geo
100
AcDbLine
10
-93.4566125290019
20
-0.948196343150344
30
0.000000000000000
11
-93.3566125290019
21
-1.10087335114326
31
0.000000000000000
  0
LINE
  5
F1085E
330
F1085F
100
AcDbEntity
8
Geo
100
AcDbLine
10
-93.4566125290019
20
6.02911937470033
30
0.000000000000000
11
-93.3566125290019
21
5.91251196985214
31
0.000000000000000
  0
LINE
  5
F10860
330
F10861
100
AcDbEntity
8
Geo
100
AcDbLine
10
-93.3566125290019
20
-1.10087335114326
30
0.000000000000000
11
-93.2566125290019
21
-1.24895016603314
31
0.000000000000000
  0
LINE
  5
F10862
330
F10863
100
AcDbEntity
8
Geo
100
AcDbLine
10
-93.3566125290019
20
5.91251196985214
30
0.000000000000000
11
-93.2566125290019
21
5.79011584030889
31
0.000000000000000
  0
LINE
  5
F10864
330
F10865
100
AcDbEntity
8
Geo
100
AcDbLine
10
-93.2566125290019
20
-1.24895016603314
30
0.000000000000000
11
-93.1566125290019
21
-1.39220744184264
31
0.000000000000000
  0
LINE
  5
F10866
330
F10867
100
AcDbEntity
8
Geo
100
AcDbLine
10
-93.2566125290019
20
5.79011584030889
30
0.000000000000000
11
-93.1566125290019
21
5.66211229128489
31
0.000000000000000
  0
LINE
  5
F10868
330
F10869
100
AcDbEntity
8
Geo
100
AcDbLine
10
-93.1566125290019
20
-1.39220744184264
30
0.000000000000000
11
-93.0566125290019
21
-1.53043297177088
31
0.000000000000000
  0
LINE
  5
F1086A
330
F1086B
100
AcDbEntity
8
Geo
100
AcDbLine
10
-93.1566125290019
20
5.66211229128489
30
0.000000000000000
11
-93.0566125290019
21
5.52869093425703
31
0.000000000000000
  0
LINE
  5
F1086C
330
F1086D
100
AcDbEntity
8
Geo
100
AcDbLine
10
-93.0566125290019
20
-1.53043297177088
30
0.000000000000000
11
-92.9566125290019
21
-1.66342200253506
31
0.000000000000000
  0
LINE
  5
F1086E
330
F1086F
100
AcDbEntity
8
Geo
100
AcDbLine
10
-93.0566125290019
20
5.52869093425703
30
0.000000000000000
11
-92.9566125290019
21
5.39004940609354
31
0.000000000000000
  0
LINE
  5
F10870
330
F10871
100
AcDbEntity
8
Geo
100
AcDbLine
10
-92.9566125290019
20
-1.66342200253506
30
0.000000000000000
11
-92.8566125290019
21
-1.79097753767120
31
0.000000000000000
  0
LINE
  5
F10872
330
F10873
100
AcDbEntity
8
Geo
100
AcDbLine
10
-92.9566125290019
20
5.39004940609354
30
0.000000000000000
11
-92.8566125290019
21
5.24639307629485
31
0.000000000000000
  0
LINE
  5
F10874
330
F10875
100
AcDbEntity
8
Geo
100
AcDbLine
10
-92.8566125290019
20
-1.79097753767120
30
0.000000000000000
11
-92.7566125290019
21
-1.91291062934477
31
0.000000000000000
  0
LINE
  5
F10876
330
F10877
100
AcDbEntity
8
Geo
100
AcDbLine
10
-92.8566125290019
20
5.24639307629485
30
0.000000000000000
11
-92.7566125290019
21
5.09793474277994
31
0.000000000000000
  0
LINE
  5
F10878
330
F10879
100
AcDbEntity
8
Geo
100
AcDbLine
10
-92.7566125290019
20
-1.91291062934477
30
0.000000000000000
11
-92.6566125290019
21
-2.02904065823881
31
0.000000000000000
  0
LINE
  5
F1087A
330
F1087B
100
AcDbEntity
8
Geo
100
AcDbLine
10
-92.7566125290019
20
5.09793474277994
30
0.000000000000000
11
-92.6566125290019
21
4.94489431666915
31
0.000000000000000
  0
LINE
  5
F1087C
330
F1087D
100
AcDbEntity
8
Geo
100
AcDbLine
10
-92.6566125290019
20
-2.02904065823881
30
0.000000000000000
11
-92.5566125290019
21
-2.13919560110507
31
0.000000000000000
  0
LINE
  5
F1087E
330
F1087F
100
AcDbEntity
8
Geo
100
AcDbLine
10
-92.6566125290019
20
4.94489431666915
30
0.000000000000000
11
-92.5566125290019
21
4.78749849653014
31
0.000000000000000
  0
LINE
  5
F10880
330
F10881
100
AcDbEntity
8
Geo
100
AcDbLine
10
-92.5566125290019
20
-2.13919560110507
30
0.000000000000000
11
-92.4566125290019
21
-2.24321228558183
31
0.000000000000000
  0
LINE
  5
F10882
330
F10883
100
AcDbEntity
8
Geo
100
AcDbLine
10
-92.5566125290019
20
4.78749849653014
30
0.000000000000000
11
-92.4566125290019
21
4.62598043256961
31
0.000000000000000
  0
LINE
  5
F10884
330
F10885
100
AcDbEntity
8
Geo
100
AcDbLine
10
-92.4566125290019
20
-2.24321228558183
30
0.000000000000000
11
-92.3566125290019
21
-2.34093663190088
31
0.000000000000000
  0
LINE
  5
F10886
330
F10887
100
AcDbEntity
8
Geo
100
AcDbLine
10
-92.4566125290019
20
4.62598043256961
30
0.000000000000000
11
-92.3566125290019
21
4.46057938126819
31
0.000000000000000
  0
LINE
  5
F10888
330
F10889
100
AcDbEntity
8
Geo
100
AcDbLine
10
-92.3566125290019
20
-2.34093663190088
30
0.000000000000000
11
-92.2566125290019
21
-2.43222388112566
31
0.000000000000000
  0
LINE
  5
F1088A
330
F1088B
100
AcDbEntity
8
Geo
100
AcDbLine
10
-92.3566125290019
20
4.46057938126819
30
0.000000000000000
11
-92.2566125290019
21
4.29154035097024
31
0.000000000000000
  0
LINE
  5
F1088C
330
F1088D
100
AcDbEntity
8
Geo
100
AcDbLine
10
-92.2566125290019
20
-2.43222388112566
30
0.000000000000000
11
-92.1566125290019
21
-2.51693880958246
31
0.000000000000000
  0
LINE
  5
F1088E
330
F1088F
100
AcDbEntity
8
Geo
100
AcDbLine
10
-92.2566125290019
20
4.29154035097024
30
0.000000000000000
11
-92.1566125290019
21
4.11911373895324
31
0.000000000000000
  0
LINE
  5
F10890
330
F10891
100
AcDbEntity
8
Geo
100
AcDbLine
10
-92.1566125290019
20
-2.51693880958246
30
0.000000000000000
11
-92.0566125290019
21
-2.59495592916708
31
0.000000000000000
  0
LINE
  5
F10892
330
F10893
100
AcDbEntity
8
Geo
100
AcDbLine
10
-92.1566125290019
20
4.11911373895324
30
0.000000000000000
11
-92.0566125290019
21
3.94355496051474
31
0.000000000000000
  0
LINE
  5
F10894
330
F10895
100
AcDbEntity
8
Geo
100
AcDbLine
10
-92.0566125290019
20
-2.59495592916708
30
0.000000000000000
11
-91.9566125290019
21
-2.66615967323015
31
0.000000000000000
  0
LINE
  5
F10896
330
F10897
100
AcDbEntity
8
Geo
100
AcDbLine
10
-92.0566125290019
20
3.94355496051474
30
0.000000000000000
11
-91.9566125290019
21
3.76512407062596
31
0.000000000000000
  0
LINE
  5
F10898
330
F10899
100
AcDbEntity
8
Geo
100
AcDbLine
10
-91.9566125290019
20
-2.66615967323015
30
0.000000000000000
11
-91.8566125290019
21
-2.73044456776588
31
0.000000000000000
  0
LINE
  5
F1089A
330
F1089B
100
AcDbEntity
8
Geo
100
AcDbLine
10
-91.9566125290019
20
3.76512407062596
30
0.000000000000000
11
-91.8566125290019
21
3.58408537871280
31
0.000000000000000
  0
LINE
  5
F1089C
330
F1089D
100
AcDbEntity
8
Geo
100
AcDbLine
10
-91.8566125290019
20
-2.73044456776588
30
0.000000000000000
11
-91.7566125290019
21
-2.78771538765053
31
0.000000000000000
  0
LINE
  5
F1089E
330
F1089F
100
AcDbEntity
8
Geo
100
AcDbLine
10
-91.8566125290019
20
3.58408537871280
30
0.000000000000000
11
-91.7566125290019
21
3.40070705713460
31
0.000000000000000
  0
LINE
  5
F108A0
330
F108A1
100
AcDbEntity
8
Geo
100
AcDbLine
10
-91.7566125290019
20
-2.78771538765053
30
0.000000000000000
11
-91.6566125290019
21
-2.83788729769928
31
0.000000000000000
  0
LINE
  5
F108A2
330
F108A3
100
AcDbEntity
8
Geo
100
AcDbLine
10
-91.7566125290019
20
3.40070705713460
30
0.000000000000000
11
-91.6566125290019
21
3.21526074394083
31
0.000000000000000
  0
LINE
  5
F108A4
330
F108A5
100
AcDbEntity
8
Geo
100
AcDbLine
10
-91.6566125290019
20
-2.83788729769928
30
0.000000000000000
11
-91.5566125290019
21
-2.88088597833242
31
0.000000000000000
  0
LINE
  5
F108A6
330
F108A7
100
AcDbEntity
8
Geo
100
AcDbLine
10
-91.6566125290019
20
3.21526074394083
30
0.000000000000000
11
-91.5566125290019
21
3.02802114049405
31
0.000000000000000
  0
LINE
  5
F108A8
330
F108A9
100
AcDbEntity
8
Geo
100
AcDbLine
10
-91.5566125290019
20
-2.88088597833242
30
0.000000000000000
11
-91.4566125290019
21
-2.91664773566491
31
0.000000000000000
  0
LINE
  5
F108AA
330
F108AB
100
AcDbEntity
8
Geo
100
AcDbLine
10
-91.5566125290019
20
3.02802114049405
30
0.000000000000000
11
-91.4566125290019
21
2.83926560455512
31
0.000000000000000
  0
LINE
  5
F108AC
330
F108AD
100
AcDbEntity
8
Geo
100
AcDbLine
10
-91.4566125290019
20
-2.91664773566491
30
0.000000000000000
11
-91.3566125290019
21
-2.94511959585597
31
0.000000000000000
  0
LINE
  5
F108AE
330
F108AF
100
AcDbEntity
8
Geo
100
AcDbLine
10
-91.4566125290019
20
2.83926560455512
30
0.000000000000000
11
-91.3566125290019
21
2.64927373943358
31
0.000000000000000
  0
LINE
  5
F108B0
330
F108B1
100
AcDbEntity
8
Geo
100
AcDbLine
10
-91.3566125290019
20
-2.94511959585597
30
0.000000000000000
11
-91.2566125290019
21
-2.96625938357920
31
0.000000000000000
  0
LINE
  5
F108B2
330
F108B3
100
AcDbEntity
8
Geo
100
AcDbLine
10
-91.3566125290019
20
2.64927373943358
30
0.000000000000000
11
-91.2566125290019
21
2.45832697981165
31
0.000000000000000
  0
LINE
  5
F108B4
330
F108B5
100
AcDbEntity
8
Geo
100
AcDbLine
10
-91.2566125290019
20
-2.96625938357920
30
0.000000000000000
11
-91.1566125290019
21
-2.98003578449682
31
0.000000000000000
  0
LINE
  5
F108B6
330
F108B7
100
AcDbEntity
8
Geo
100
AcDbLine
10
-91.2566125290019
20
2.45832697981165
30
0.000000000000000
11
-91.1566125290019
21
2.26670817485541
31
0.000000000000000
  0
LINE
  5
F108B8
330
F108B9
100
AcDbEntity
8
Geo
100
AcDbLine
10
-91.1566125290019
20
-2.98003578449682
30
0.000000000000000
11
-91.0566125290019
21
-2.98642839164556
31
0.000000000000000
  0
LINE
  5
F108BA
330
F108BB
100
AcDbEntity
8
Geo
100
AcDbLine
10
-91.1566125290019
20
2.26670817485541
30
0.000000000000000
11
-91.0566125290019
21
2.07470116923077
31
0.000000000000000
  0
LINE
  5
F108BC
330
F108BD
100
AcDbEntity
8
Geo
100
AcDbLine
10
-91.0566125290019
20
2.07470116923077
30
0.000000000000000
11
-90.9566125290019
21
1.88259038264472
31
0.000000000000000
  0
LINE
  5
F108BE
330
F108BF
100
AcDbEntity
8
Geo
100
AcDbLine
10
-90.9566125290019
20
6.99470847812501
30
0.000000000000000
11
-90.8566125290019
21
6.98631604128634
31
0.000000000000000
  0
LINE
  5
F108C0
330
F108C1
100
AcDbEntity
8
Geo
100
AcDbLine
10
-90.9566125290019
20
1.88259038264472
30
0.000000000000000
11
-90.8566125290019
21
1.69066038853486
31
0.000000000000000
  0
LINE
  5
F108C2
330
F108C3
100
AcDbEntity
8
Geo
100
AcDbLine
10
-90.8566125290019
20
6.98631604128634
30
0.000000000000000
11
-90.7566125290019
21
6.97054425529398
31
0.000000000000000
  0
LINE
  5
F108C4
330
F108C5
100
AcDbEntity
8
Geo
100
AcDbLine
10
-90.8566125290019
20
1.69066038853486
30
0.000000000000000
11
-90.7566125290019
21
1.49919549253116
31
0.000000000000000
  0
LINE
  5
F108C6
330
F108C7
100
AcDbEntity
8
Geo
100
AcDbLine
10
-90.7566125290019
20
6.97054425529398
30
0.000000000000000
11
-90.6566125290019
21
6.94741648287231
31
0.000000000000000
  0
LINE
  5
F108C8
330
F108C9
100
AcDbEntity
8
Geo
100
AcDbLine
10
-90.7566125290019
20
1.49919549253116
30
0.000000000000000
11
-90.6566125290019
21
1.30847931131438
31
0.000000000000000
  0
LINE
  5
F108CA
330
F108CB
100
AcDbEntity
8
Geo
100
AcDbLine
10
-90.6566125290019
20
6.94741648287231
30
0.000000000000000
11
-90.5566125290019
21
6.91696698315804
31
0.000000000000000
  0
LINE
  5
F108CC
330
F108CD
100
AcDbEntity
8
Geo
100
AcDbLine
10
-90.6566125290019
20
1.30847931131438
30
0.000000000000000
11
-90.5566125290019
21
1.11879435249515
31
0.000000000000000
  0
LINE
  5
F108CE
330
F108CF
100
AcDbEntity
8
Geo
100
AcDbLine
10
-90.5566125290019
20
6.91696698315804
30
0.000000000000000
11
-90.4566125290019
21
6.87924086095222
31
0.000000000000000
  0
LINE
  5
F108D0
330
F108D1
100
AcDbEntity
8
Geo
100
AcDbLine
10
-90.5566125290019
20
1.11879435249515
30
0.000000000000000
11
-90.4566125290019
21
0.930421596135827
31
0.000000000000000
  0
LINE
  5
F108D2
330
F108D3
100
AcDbEntity
8
Geo
100
AcDbLine
10
-90.4566125290019
20
6.87924086095222
30
0.000000000000000
11
-90.3566125290019
21
6.83429399990653
31
0.000000000000000
  0
LINE
  5
F108D4
330
F108D5
100
AcDbEntity
8
Geo
100
AcDbLine
10
-90.4566125290019
20
0.930421596135827
30
0.000000000000000
11
-90.3566125290019
21
0.743640078535078
31
0.000000000000000
  0
LINE
  5
F108D6
330
F108D7
100
AcDbEntity
8
Geo
100
AcDbLine
10
-90.3566125290019
20
6.83429399990653
30
0.000000000000000
11
-90.2566125290019
21
6.78219297974293
31
0.000000000000000
  0
LINE
  5
F108D8
330
F108D9
100
AcDbEntity
8
Geo
100
AcDbLine
10
-90.3566125290019
20
0.743640078535078
30
0.000000000000000
11
-90.2566125290019
21
0.558726478891861
31
0.000000000000000
  0
LINE
  5
F108DA
330
F108DB
100
AcDbEntity
8
Geo
100
AcDbLine
10
-90.2566125290019
20
6.78219297974293
30
0.000000000000000
11
-90.1566125290019
21
6.72301497762922
31
0.000000000000000
  0
LINE
  5
F108DC
330
F108DD
100
AcDbEntity
8
Geo
100
AcDbLine
10
-90.2566125290019
20
0.558726478891861
30
0.000000000000000
11
-90.1566125290019
21
0.375954709460888
31
0.000000000000000
  0
LINE
  5
F108DE
330
F108DF
100
AcDbEntity
8
Geo
100
AcDbLine
10
-90.1566125290019
20
6.72301497762922
30
0.000000000000000
11
-90.0566125290019
21
6.65684765385657
31
0.000000000000000
  0
LINE
  5
F108E0
330
F108E1
100
AcDbEntity
8
Geo
100
AcDbLine
10
-90.1566125290019
20
0.375954709460888
30
0.000000000000000
11
-90.0566125290019
21
0.195595509806796
31
0.000000000000000
  0
LINE
  5
F108E2
330
F108E3
100
AcDbEntity
8
Geo
100
AcDbLine
10
-90.0566125290019
20
6.65684765385657
30
0.000000000000000
11
-89.9566125290019
21
6.58378902198849
31
0.000000000000000
  0
LINE
  5
F108E4
330
F108E5
100
AcDbEntity
8
Geo
100
AcDbLine
10
-90.0566125290019
20
0.195595509806796
30
0.000000000000000
11
-89.9566125290019
21
0.0179160457580074
31
0.000000000000000
  0
LINE
  5
F108E6
330
F108E7
100
AcDbEntity
8
Geo
100
AcDbLine
10
-89.9566125290019
20
6.58378902198849
30
0.000000000000000
11
-89.8566125290019
21
6.50394730367348
31
0.000000000000000
  0
LINE
  5
F108E8
330
F108E9
100
AcDbEntity
8
Geo
100
AcDbLine
10
-89.9566125290019
20
0.0179160457580074
30
0.000000000000000
11
-89.8566125290019
21
-0.156820486345632
31
0.000000000000000
  0
LINE
  5
F108EA
330
F108EB
100
AcDbEntity
8
Geo
100
AcDbLine
10
-89.8566125290019
20
6.50394730367348
30
0.000000000000000
11
-89.7566125290019
21
6.41744076833643
31
0.000000000000000
  0
LINE
  5
F108EC
330
F108ED
100
AcDbEntity
8
Geo
100
AcDbLine
10
-89.8566125290019
20
-0.156820486345632
30
0.000000000000000
11
-89.7566125290019
21
-0.328355249525222
31
0.000000000000000
  0
LINE
  5
F108EE
330
F108EF
100
AcDbEntity
8
Geo
100
AcDbLine
10
-89.7566125290019
20
6.41744076833643
30
0.000000000000000
11
-89.6566125290019
21
6.32439755798628
31
0.000000000000000
  0
LINE
  5
F108F0
330
F108F1
100
AcDbEntity
8
Geo
100
AcDbLine
10
-89.7566125290019
20
-0.328355249525222
30
0.000000000000000
11
-89.6566125290019
21
-0.496434149577663
31
0.000000000000000
  0
LINE
  5
F108F2
330
F108F3
100
AcDbEntity
8
Geo
100
AcDbLine
10
-89.6566125290019
20
6.32439755798628
30
0.000000000000000
11
-89.5566125290019
21
6.22495549739949
31
0.000000000000000
  0
LINE
  5
F108F4
330
F108F5
100
AcDbEntity
8
Geo
100
AcDbLine
10
-89.6566125290019
20
-0.496434149577663
30
0.000000000000000
11
-89.5566125290019
21
-0.660808211465031
31
0.000000000000000
  0
LINE
  5
F108F6
330
F108F7
100
AcDbEntity
8
Geo
100
AcDbLine
10
-89.5566125290019
20
6.22495549739949
30
0.000000000000000
11
-89.4566125290019
21
6.11926188996034
31
0.000000000000000
  0
LINE
  5
F108F8
330
F108F9
100
AcDbEntity
8
Geo
100
AcDbLine
10
-89.5566125290019
20
-0.660808211465031
30
0.000000000000000
11
-89.4566125290019
21
-0.821233948120971
31
0.000000000000000
  0
LINE
  5
F108FA
330
F108FB
100
AcDbEntity
8
Geo
100
AcDbLine
10
-89.4566125290019
20
6.11926188996034
30
0.000000000000000
11
-89.3566125290019
21
6.00747329946067
31
0.000000000000000
  0
LINE
  5
F108FC
330
F108FD
100
AcDbEntity
8
Geo
100
AcDbLine
10
-89.4566125290019
20
-0.821233948120971
30
0.000000000000000
11
-89.3566125290019
21
-0.977473721127708
31
0.000000000000000
  0
LINE
  5
F108FE
330
F108FF
100
AcDbEntity
8
Geo
100
AcDbLine
10
-89.3566125290019
20
6.00747329946067
30
0.000000000000000
11
-89.2566125290019
21
5.88975531818215
31
0.000000000000000
  0
LINE
  5
F10900
330
F10901
100
AcDbEntity
8
Geo
100
AcDbLine
10
-89.3566125290019
20
-0.977473721127708
30
0.000000000000000
11
-89.2566125290019
21
-1.12929609272955
31
0.000000000000000
  0
LINE
  5
F10902
330
F10903
100
AcDbEntity
8
Geo
100
AcDbLine
10
-89.2566125290019
20
5.88975531818215
30
0.000000000000000
11
-89.1566125290019
21
5.76628232160463
31
0.000000000000000
  0
LINE
  5
F10904
330
F10905
100
AcDbEntity
8
Geo
100
AcDbLine
10
-89.2566125290019
20
-1.12929609272955
30
0.000000000000000
11
-89.1566125290019
21
-1.27647616866128
31
0.000000000000000
  0
LINE
  5
F10906
330
F10907
100
AcDbEntity
8
Geo
100
AcDbLine
10
-89.1566125290019
20
5.76628232160463
30
0.000000000000000
11
-89.0566125290019
21
5.63723721010406
31
0.000000000000000
  0
LINE
  5
F10908
330
F10909
100
AcDbEntity
8
Geo
100
AcDbLine
10
-89.1566125290019
20
-1.27647616866128
30
0.000000000000000
11
-89.0566125290019
21
-1.41879593128371
31
0.000000000000000
  0
LINE
  5
F1090A
330
F1090B
100
AcDbEntity
8
Geo
100
AcDbLine
10
-89.0566125290019
20
5.63723721010406
30
0.000000000000000
11
-88.9566125290019
21
5.50281113802234
31
0.000000000000000
  0
LINE
  5
F1090C
330
F1090D
100
AcDbEntity
8
Geo
100
AcDbLine
10
-89.0566125290019
20
-1.41879593128371
30
0.000000000000000
11
-88.9566125290019
21
-1.55604456253291
31
0.000000000000000
  0
LINE
  5
F1090E
330
F1090F
100
AcDbEntity
8
Geo
100
AcDbLine
10
-88.9566125290019
20
5.50281113802234
30
0.000000000000000
11
-88.8566125290019
21
5.36320323051071
31
0.000000000000000
  0
LINE
  5
F10910
330
F10911
100
AcDbEntity
8
Geo
100
AcDbLine
10
-88.9566125290019
20
-1.55604456253291
30
0.000000000000000
11
-88.8566125290019
21
-1.68801875620472
31
0.000000000000000
  0
LINE
  5
F10912
330
F10913
100
AcDbEntity
8
Geo
100
AcDbLine
10
-88.8566125290019
20
5.36320323051071
30
0.000000000000000
11
-88.7566125290019
21
5.21862028856595
31
0.000000000000000
  0
LINE
  5
F10914
330
F10915
100
AcDbEntity
8
Geo
100
AcDbLine
10
-88.8566125290019
20
-1.68801875620472
30
0.000000000000000
11
-88.7566125290019
21
-1.81452301911193
31
0.000000000000000
  0
LINE
  5
F10916
330
F10917
100
AcDbEntity
8
Geo
100
AcDbLine
10
-88.7566125290019
20
5.21862028856595
30
0.000000000000000
11
-88.6566125290019
21
5.06927648269632
31
0.000000000000000
  0
LINE
  5
F10918
330
F10919
100
AcDbEntity
8
Geo
100
AcDbLine
10
-88.7566125290019
20
-1.81452301911193
30
0.000000000000000
11
-88.6566125290019
21
-1.93536996066808
31
0.000000000000000
  0
LINE
  5
F1091A
330
F1091B
100
AcDbEntity
8
Geo
100
AcDbLine
10
-88.6566125290019
20
5.06927648269632
30
0.000000000000000
11
-88.5566125290019
21
4.91539303567112
31
0.000000000000000
  0
LINE
  5
F1091C
330
F1091D
100
AcDbEntity
8
Geo
100
AcDbLine
10
-88.6566125290019
20
-1.93536996066808
30
0.000000000000000
11
-88.5566125290019
21
-2.05038057046883
31
0.000000000000000
  0
LINE
  5
F1091E
330
F1091F
100
AcDbEntity
8
Geo
100
AcDbLine
10
-88.5566125290019
20
4.91539303567112
30
0.000000000000000
11
-88.4566125290019
21
4.75719789482368
31
0.000000000000000
  0
LINE
  5
F10920
330
F10921
100
AcDbEntity
8
Geo
100
AcDbLine
10
-88.5566125290019
20
-2.05038057046883
30
0.000000000000000
11
-88.4566125290019
21
-2.15938448345988
31
0.000000000000000
  0
LINE
  5
F10922
330
F10923
100
AcDbEntity
8
Geo
100
AcDbLine
10
-88.4566125290019
20
4.75719789482368
30
0.000000000000000
11
-88.3566125290019
21
4.59492539439335
31
0.000000000000000
  0
LINE
  5
F10924
330
F10925
100
AcDbEntity
8
Geo
100
AcDbLine
10
-88.4566125290019
20
-2.15938448345988
30
0.000000000000000
11
-88.3566125290019
21
-2.26222023229843
31
0.000000000000000
  0
LINE
  5
F10926
330
F10927
100
AcDbEntity
8
Geo
100
AcDbLine
10
-88.3566125290019
20
4.59492539439335
30
0.000000000000000
11
-88.2566125290019
21
4.42881590840645
31
0.000000000000000
  0
LINE
  5
F10928
330
F10929
100
AcDbEntity
8
Geo
100
AcDbLine
10
-88.3566125290019
20
-2.26222023229843
30
0.000000000000000
11
-88.2566125290019
21
-2.35873548653457
31
0.000000000000000
  0
LINE
  5
F1092A
330
F1092B
100
AcDbEntity
8
Geo
100
AcDbLine
10
-88.2566125290019
20
4.42881590840645
30
0.000000000000000
11
-88.1566125290019
21
4.25911549461062
31
0.000000000000000
  0
LINE
  5
F1092C
330
F1092D
100
AcDbEntity
8
Geo
100
AcDbLine
10
-88.2566125290019
20
-2.35873548653457
30
0.000000000000000
11
-88.1566125290019
21
-2.44878727825814
31
0.000000000000000
  0
LINE
  5
F1092E
330
F1092F
100
AcDbEntity
8
Geo
100
AcDbLine
10
-88.1566125290019
20
4.25911549461062
30
0.000000000000000
11
-88.0566125290019
21
4.08607552998982
31
0.000000000000000
  0
LINE
  5
F10930
330
F10931
100
AcDbEntity
8
Geo
100
AcDbLine
10
-88.1566125290019
20
-2.44878727825814
30
0.000000000000000
11
-88.0566125290019
21
-2.53224221387689
31
0.000000000000000
  0
LINE
  5
F10932
330
F10933
100
AcDbEntity
8
Geo
100
AcDbLine
10
-88.0566125290019
20
4.08607552998982
30
0.000000000000000
11
-87.9566125290019
21
3.90995233839990
31
0.000000000000000
  0
LINE
  5
F10934
330
F10935
100
AcDbEntity
8
Geo
100
AcDbLine
10
-88.0566125290019
20
-2.53224221387689
30
0.000000000000000
11
-87.9566125290019
21
-2.60897667171222
31
0.000000000000000
  0
LINE
  5
F10936
330
F10937
100
AcDbEntity
8
Geo
100
AcDbLine
10
-87.9566125290019
20
3.90995233839990
30
0.000000000000000
11
-87.8566125290020
21
3.73100681087653
31
0.000000000000000
  0
LINE
  5
F10938
330
F10939
100
AcDbEntity
8
Geo
100
AcDbLine
10
-87.9566125290019
20
-2.60897667171222
30
0.000000000000000
11
-87.8566125290020
21
-2.67887698511982
31
0.000000000000000
  0
LINE
  5
F1093A
330
F1093B
100
AcDbEntity
8
Geo
100
AcDbLine
10
-87.8566125290020
20
3.73100681087653
30
0.000000000000000
11
-87.7566125290019
21
3.54950401917757
31
0.000000000000000
  0
LINE
  5
F1093C
330
F1093D
100
AcDbEntity
8
Geo
100
AcDbLine
10
-87.8566125290020
20
-2.67887698511982
30
0.000000000000000
11
-87.7566125290019
21
-2.74183961086390
31
0.000000000000000
  0
LINE
  5
F1093E
330
F1093F
100
AcDbEntity
8
Geo
100
AcDbLine
10
-87.7566125290019
20
3.54950401917757
30
0.000000000000000
11
-87.6566125290019
21
3.36571282313276
31
0.000000000000000
  0
LINE
  5
F10940
330
F10941
100
AcDbEntity
8
Geo
100
AcDbLine
10
-87.7566125290019
20
-2.74183961086390
30
0.000000000000000
11
-87.6566125290019
21
-2.79777128249560
31
0.000000000000000
  0
LINE
  5
F10942
330
F10943
100
AcDbEntity
8
Geo
100
AcDbLine
10
-87.6566125290019
20
3.36571282313276
30
0.000000000000000
11
-87.5566125290019
21
3.17990547238193
31
0.000000000000000
  0
LINE
  5
F10944
330
F10945
100
AcDbEntity
8
Geo
100
AcDbLine
10
-87.6566125290019
20
-2.79777128249560
30
0.000000000000000
11
-87.5566125290019
21
-2.84658914850853
31
0.000000000000000
  0
LINE
  5
F10946
330
F10947
100
AcDbEntity
8
Geo
100
AcDbLine
10
-87.5566125290019
20
3.17990547238193
30
0.000000000000000
11
-87.4566125290019
21
2.99235720309204
31
0.000000000000000
  0
LINE
  5
F10948
330
F10949
100
AcDbEntity
8
Geo
100
AcDbLine
10
-87.5566125290019
20
-2.84658914850853
30
0.000000000000000
11
-87.4566125290019
21
-2.88822089506651
31
0.000000000000000
  0
LINE
  5
F1094A
330
F1094B
100
AcDbEntity
8
Geo
100
AcDbLine
10
-87.4566125290019
20
2.99235720309204
30
0.000000000000000
11
-87.3566125290020
21
2.80334583025025
31
0.000000000000000
  0
LINE
  5
F1094C
330
F1094D
100
AcDbEntity
8
Geo
100
AcDbLine
10
-87.4566125290019
20
-2.88822089506651
30
0.000000000000000
11
-87.3566125290020
21
-2.92260485312200
31
0.000000000000000
  0
LINE
  5
F1094E
330
F1094F
100
AcDbEntity
8
Geo
100
AcDbLine
10
-87.3566125290020
20
2.80334583025025
30
0.000000000000000
11
-87.2566125290019
21
2.61315133613694
31
0.000000000000000
  0
LINE
  5
F10950
330
F10951
100
AcDbEntity
8
Geo
100
AcDbLine
10
-87.3566125290020
20
-2.92260485312200
30
0.000000000000000
11
-87.2566125290019
21
-2.94969008976637
31
0.000000000000000
  0
LINE
  5
F10952
330
F10953
100
AcDbEntity
8
Geo
100
AcDbLine
10
-87.2566125290019
20
2.61315133613694
30
0.000000000000000
11
-87.1566125290019
21
2.42205545558836
31
0.000000000000000
  0
LINE
  5
F10954
330
F10955
100
AcDbEntity
8
Geo
100
AcDbLine
10
-87.2566125290019
20
-2.94969008976637
30
0.000000000000000
11
-87.1566125290019
21
-2.96943648367671
31
0.000000000000000
  0
LINE
  5
F10956
330
F10957
100
AcDbEntity
8
Geo
100
AcDbLine
10
-87.1566125290019
20
2.42205545558836
30
0.000000000000000
11
-87.0566125290019
21
2.23034125866323
31
0.000000000000000
  0
LINE
  5
F10958
330
F10959
100
AcDbEntity
8
Geo
100
AcDbLine
10
-87.1566125290019
20
-2.96943648367671
30
0.000000000000000
11
-87.0566125290019
21
-2.98181478454755
31
0.000000000000000
  0
LINE
  5
F1095A
330
F1095B
100
AcDbEntity
8
Geo
100
AcDbLine
10
-87.0566125290019
20
2.23034125866323
30
0.000000000000000
11
-86.9566125290019
21
2.03829273133142
31
0.000000000000000
  0
LINE
  5
F1095C
330
F1095D
100
AcDbEntity
8
Geo
100
AcDbLine
10
-87.0566125290019
20
-2.98181478454755
30
0.000000000000000
11
-86.9566125290019
21
-2.98680665641923
31
0.000000000000000
  0
LINE
  5
F1095E
330
F1095F
100
AcDbEntity
8
Geo
100
AcDbLine
10
-86.9566125290019
20
2.03829273133142
30
0.000000000000000
11
-86.8566125290020
21
1.84619435480599
31
0.000000000000000
  0
LINE
  5
F10960
330
F10961
100
AcDbEntity
8
Geo
100
AcDbLine
10
-86.8566125290020
20
6.99368544729855
30
0.000000000000000
11
-86.7566125290019
21
6.98389323027386
31
0.000000000000000
  0
LINE
  5
F10962
330
F10963
100
AcDbEntity
8
Geo
100
AcDbLine
10
-86.8566125290020
20
1.84619435480599
30
0.000000000000000
11
-86.7566125290019
21
1.65433068414153
31
0.000000000000000
  0
LINE
  5
F10964
330
F10965
100
AcDbEntity
8
Geo
100
AcDbLine
10
-86.7566125290019
20
6.98389323027386
30
0.000000000000000
11
-86.6566125290019
21
6.96672525300203
31
0.000000000000000
  0
LINE
  5
F10966
330
F10967
100
AcDbEntity
8
Geo
100
AcDbLine
10
-86.7566125290019
20
1.65433068414153
30
0.000000000000000
11
-86.6566125290019
21
1.46298592672316
31
0.000000000000000
  0
LINE
  5
F10968
330
F10969
100
AcDbEntity
8
Geo
100
AcDbLine
10
-86.6566125290019
20
6.96672525300203
30
0.000000000000000
11
-86.5566125290020
21
6.94220694638361
31
0.000000000000000
  0
LINE
  5
F1096A
330
F1096B
100
AcDbEntity
8
Geo
100
AcDbLine
10
-86.6566125290019
20
1.46298592672316
30
0.000000000000000
11
-86.5566125290020
21
1.27244352127056
31
0.000000000000000
  0
LINE
  5
F1096C
330
F1096D
100
AcDbEntity
8
Geo
100
AcDbLine
10
-86.5566125290020
20
6.94220694638361
30
0.000000000000000
11
-86.4566125290019
21
6.91037462935165
31
0.000000000000000
  0
LINE
  5
F1096E
330
F1096F
100
AcDbEntity
8
Geo
100
AcDbLine
10
-86.5566125290020
20
1.27244352127056
30
0.000000000000000
11
-86.4566125290019
21
1.08298571798054
31
0.000000000000000
  0
LINE
  5
F10970
330
F10971
100
AcDbEntity
8
Geo
100
AcDbLine
10
-86.4566125290019
20
6.91037462935165
30
0.000000000000000
11
-86.3566125290020
21
6.87127545507254
31
0.000000000000000
  0
LINE
  5
F10972
330
F10973
100
AcDbEntity
8
Geo
100
AcDbLine
10
-86.4566125290019
20
1.08298571798054
30
0.000000000000000
11
-86.3566125290020
21
0.894893160430300
31
0.000000000000000
  0
LINE
  5
F10974
330
F10975
100
AcDbEntity
8
Geo
100
AcDbLine
10
-86.3566125290020
20
6.87127545507254
30
0.000000000000000
11
-86.2566125290020
21
6.82496734109808
31
0.000000000000000
  0
LINE
  5
F10976
330
F10977
100
AcDbEntity
8
Geo
100
AcDbLine
10
-86.3566125290020
20
0.894893160430300
30
0.000000000000000
11
-86.2566125290020
21
0.708444469860407
31
0.000000000000000
  0
LINE
  5
F10978
330
F10979
100
AcDbEntity
8
Geo
100
AcDbLine
10
-86.2566125290020
20
6.82496734109808
30
0.000000000000000
11
-86.1566125290019
21
6.77151888357227
31
0.000000000000000
  0
LINE
  5
F1097A
330
F1097B
100
AcDbEntity
8
Geo
100
AcDbLine
10
-86.2566125290020
20
0.708444469860407
30
0.000000000000000
11
-86.1566125290019
21
0.523915832453604
31
0.000000000000000
  0
LINE
  5
F1097C
330
F1097D
100
AcDbEntity
8
Geo
100
AcDbLine
10
-86.1566125290019
20
6.77151888357227
30
0.000000000000000
11
-86.0566125290020
21
6.71100925561996
31
0.000000000000000
  0
LINE
  5
F1097E
330
F1097F
100
AcDbEntity
8
Geo
100
AcDbLine
10
-86.1566125290019
20
0.523915832453604
30
0.000000000000000
11
-86.0566125290020
21
0.341580590220587
31
0.000000000000000
  0
LINE
  5
F10980
330
F10981
100
AcDbEntity
8
Geo
100
AcDbLine
10
-86.0566125290020
20
6.71100925561996
30
0.000000000000000
11
-85.9566125290019
21
6.64352809006783
31
0.000000000000000
  0
LINE
  5
F10982
330
F10983
100
AcDbEntity
8
Geo
100
AcDbLine
10
-86.0566125290020
20
0.341580590220587
30
0.000000000000000
11
-85.9566125290019
21
0.161708836098866
31
0.000000000000000
  0
LINE
  5
F10984
330
F10985
100
AcDbEntity
8
Geo
100
AcDbLine
10
-85.9566125290019
20
6.64352809006783
30
0.000000000000000
11
-85.8566125290020
21
6.56917534667134
31
0.000000000000000
  0
LINE
  5
F10986
330
F10987
100
AcDbEntity
8
Geo
100
AcDbLine
10
-85.9566125290019
20
0.161708836098866
30
0.000000000000000
11
-85.8566125290020
21
-0.0154329861355227
31
0.000000000000000
  0
LINE
  5
F10988
330
F10989
100
AcDbEntity
8
Geo
100
AcDbLine
10
-85.8566125290020
20
6.56917534667134
30
0.000000000000000
11
-85.7566125290020
21
6.48806116404459
31
0.000000000000000
  0
LINE
  5
F1098A
330
F1098B
100
AcDbEntity
8
Geo
100
AcDbLine
10
-85.8566125290020
20
-0.0154329861355227
30
0.000000000000000
11
-85.7566125290020
21
-0.189582476550781
31
0.000000000000000
  0
LINE
  5
F1098C
330
F1098D
100
AcDbEntity
8
Geo
100
AcDbLine
10
-85.7566125290020
20
6.48806116404459
30
0.000000000000000
11
-85.6566125290019
21
6.40030569651205
31
0.000000000000000
  0
LINE
  5
F1098E
330
F1098F
100
AcDbEntity
8
Geo
100
AcDbLine
10
-85.7566125290020
20
-0.189582476550781
30
0.000000000000000
11
-85.6566125290019
21
-0.360481667752039
31
0.000000000000000
  0
LINE
  5
F10990
330
F10991
100
AcDbEntity
8
Geo
100
AcDbLine
10
-85.6566125290019
20
6.40030569651205
30
0.000000000000000
11
-85.5566125290020
21
6.30603893612418
31
0.000000000000000
  0
LINE
  5
F10992
330
F10993
100
AcDbEntity
8
Geo
100
AcDbLine
10
-85.6566125290019
20
-0.360481667752039
30
0.000000000000000
11
-85.5566125290020
21
-0.527877407008079
31
0.000000000000000
  0
LINE
  5
F10994
330
F10995
100
AcDbEntity
8
Geo
100
AcDbLine
10
-85.5566125290020
20
6.30603893612418
30
0.000000000000000
11
-85.4566125290019
21
6.20540052010037
31
0.000000000000000
  0
LINE
  5
F10996
330
F10997
100
AcDbEntity
8
Geo
100
AcDbLine
10
-85.5566125290020
20
-0.527877407008079
30
0.000000000000000
11
-85.4566125290019
21
-0.691521731246099
31
0.000000000000000
  0
LINE
  5
F10998
330
F10999
100
AcDbEntity
8
Geo
100
AcDbLine
10
-85.4566125290019
20
6.20540052010037
30
0.000000000000000
11
-85.3566125290020
21
6.09853952398454
31
0.000000000000000
  0
LINE
  5
F1099A
330
F1099B
100
AcDbEntity
8
Geo
100
AcDbLine
10
-85.4566125290019
20
-0.691521731246099
30
0.000000000000000
11
-85.3566125290020
21
-0.851172234359090
31
0.000000000000000
  0
LINE
  5
F1099C
330
F1099D
100
AcDbEntity
8
Geo
100
AcDbLine
10
-85.3566125290020
20
6.09853952398454
30
0.000000000000000
11
-85.2566125290020
21
5.98561424081972
31
0.000000000000000
  0
LINE
  5
F1099E
330
F1099F
100
AcDbEntity
8
Geo
100
AcDbLine
10
-85.3566125290020
20
-0.851172234359090
30
0.000000000000000
11
-85.2566125290020
21
-1.00659242628165
31
0.000000000000000
  0
LINE
  5
F109A0
330
F109A1
100
AcDbEntity
8
Geo
100
AcDbLine
10
-85.2566125290020
20
5.98561424081972
30
0.000000000000000
11
-85.1566125290019
21
5.86679194666882
31
0.000000000000000
  0
LINE
  5
F109A2
330
F109A3
100
AcDbEntity
8
Geo
100
AcDbLine
10
-85.2566125290020
20
-1.00659242628165
30
0.000000000000000
11
-85.1566125290019
21
-1.15755208330238
31
0.000000000000000
  0
LINE
  5
F109A4
330
F109A5
100
AcDbEntity
8
Geo
100
AcDbLine
10
-85.1566125290019
20
5.86679194666882
30
0.000000000000000
11
-85.0566125290020
21
5.74224865282881
31
0.000000000000000
  0
LINE
  5
F109A6
330
F109A7
100
AcDbEntity
8
Geo
100
AcDbLine
10
-85.1566125290019
20
-1.15755208330238
30
0.000000000000000
11
-85.0566125290020
21
-1.30382758909396
31
0.000000000000000
  0
LINE
  5
F109A8
330
F109A9
100
AcDbEntity
8
Geo
100
AcDbLine
10
-85.0566125290020
20
5.74224865282881
30
0.000000000000000
11
-84.9566125290020
21
5.61216884510545
31
0.000000000000000
  0
LINE
  5
F109AA
330
F109AB
100
AcDbEntity
8
Geo
100
AcDbLine
10
-85.0566125290020
20
-1.30382758909396
30
0.000000000000000
11
-84.9566125290020
21
-1.44520226595567
31
0.000000000000000
  0
LINE
  5
F109AC
330
F109AD
100
AcDbEntity
8
Geo
100
AcDbLine
10
-84.9566125290020
20
5.61216884510545
30
0.000000000000000
11
-84.8566125290020
21
5.47674521053470
31
0.000000000000000
  0
LINE
  5
F109AE
330
F109AF
100
AcDbEntity
8
Geo
100
AcDbLine
10
-84.9566125290020
20
-1.44520226595567
30
0.000000000000000
11
-84.8566125290020
21
-1.58146669577780
31
0.000000000000000
  0
LINE
  5
F109B0
330
F109B1
100
AcDbEntity
8
Geo
100
AcDbLine
10
-84.8566125290020
20
5.47674521053470
30
0.000000000000000
11
-84.7566125290020
21
5.33617835195573
31
0.000000000000000
  0
LINE
  5
F109B2
330
F109B3
100
AcDbEntity
8
Geo
100
AcDbLine
10
-84.8566125290020
20
-1.58146669577780
30
0.000000000000000
11
-84.7566125290020
21
-1.71241903025237
31
0.000000000000000
  0
LINE
  5
F109B4
330
F109B5
100
AcDbEntity
8
Geo
100
AcDbLine
10
-84.7566125290020
20
5.33617835195573
30
0.000000000000000
11
-84.6566125290020
21
5.19067649085817
31
0.000000000000000
  0
LINE
  5
F109B6
330
F109B7
100
AcDbEntity
8
Geo
100
AcDbLine
10
-84.7566125290020
20
-1.71241903025237
30
0.000000000000000
11
-84.6566125290020
21
-1.83786528987075
31
0.000000000000000
  0
LINE
  5
F109B8
330
F109B9
100
AcDbEntity
8
Geo
100
AcDbLine
10
-84.6566125290020
20
5.19067649085817
30
0.000000000000000
11
-84.5566125290020
21
5.04045515894392
31
0.000000000000000
  0
LINE
  5
F109BA
330
F109BB
100
AcDbEntity
8
Geo
100
AcDbLine
10
-84.6566125290020
20
-1.83786528987075
30
0.000000000000000
11
-84.5566125290020
21
-1.95761965126527
31
0.000000000000000
  0
LINE
  5
F109BC
330
F109BD
100
AcDbEntity
8
Geo
100
AcDbLine
10
-84.5566125290020
20
5.04045515894392
30
0.000000000000000
11
-84.4566125290020
21
4.88573687886038
31
0.000000000000000
  0
LINE
  5
F109BE
330
F109BF
100
AcDbEntity
8
Geo
100
AcDbLine
10
-84.5566125290020
20
-1.95761965126527
30
0.000000000000000
11
-84.4566125290020
21
-2.07150472246906
31
0.000000000000000
  0
LINE
  5
F109C0
330
F109C1
100
AcDbEntity
8
Geo
100
AcDbLine
10
-84.4566125290020
20
4.88573687886038
30
0.000000000000000
11
-84.3566125290020
21
4.72675083457792
31
0.000000000000000
  0
LINE
  5
F109C2
330
F109C3
100
AcDbEntity
8
Geo
100
AcDbLine
10
-84.4566125290020
20
-2.07150472246906
30
0.000000000000000
11
-84.3566125290020
21
-2.17935180568653
31
0.000000000000000
  0
LINE
  5
F109C4
330
F109C5
100
AcDbEntity
8
Geo
100
AcDbLine
10
-84.3566125290020
20
4.72675083457792
30
0.000000000000000
11
-84.2566125290020
21
4.56373253190002
31
0.000000000000000
  0
LINE
  5
F109C6
330
F109C7
100
AcDbEntity
8
Geo
100
AcDbLine
10
-84.3566125290020
20
-2.17935180568653
30
0.000000000000000
11
-84.2566125290020
21
-2.28100114718522
31
0.000000000000000
  0
LINE
  5
F109C8
330
F109C9
100
AcDbEntity
8
Geo
100
AcDbLine
10
-84.2566125290020
20
4.56373253190002
30
0.000000000000000
11
-84.1566125290020
21
4.39692344960884
31
0.000000000000000
  0
LINE
  5
F109CA
330
F109CB
100
AcDbEntity
8
Geo
100
AcDbLine
10
-84.2566125290020
20
-2.28100114718522
30
0.000000000000000
11
-84.1566125290020
21
-2.37630217393873
31
0.000000000000000
  0
LINE
  5
F109CC
330
F109CD
100
AcDbEntity
8
Geo
100
AcDbLine
10
-84.1566125290020
20
4.39692344960884
30
0.000000000000000
11
-84.0566125290020
21
4.22657068176303
31
0.000000000000000
  0
LINE
  5
F109CE
330
F109CF
100
AcDbEntity
8
Geo
100
AcDbLine
10
-84.1566125290020
20
-2.37630217393873
30
0.000000000000000
11
-84.0566125290020
21
-2.46511371667036
31
0.000000000000000
  0
LINE
  5
F109D0
330
F109D1
100
AcDbEntity
8
Geo
100
AcDbLine
10
-84.0566125290020
20
4.22657068176303
30
0.000000000000000
11
-83.9566125290020
21
4.05292657167767
31
0.000000000000000
  0
LINE
  5
F109D2
330
F109D3
100
AcDbEntity
8
Geo
100
AcDbLine
10
-84.0566125290020
20
-2.46511371667036
30
0.000000000000000
11
-83.9566125290020
21
-2.54730421896693
31
0.000000000000000
  0
LINE
  5
F109D4
330
F109D5
100
AcDbEntity
8
Geo
100
AcDbLine
10
-83.9566125290020
20
4.05292657167767
30
0.000000000000000
11
-83.8566125290020
21
3.87624833812846
31
0.000000000000000
  0
LINE
  5
F109D6
330
F109D7
100
AcDbEntity
8
Geo
100
AcDbLine
10
-83.9566125290020
20
-2.54730421896693
30
0.000000000000000
11
-83.8566125290020
21
-2.62275193215317
31
0.000000000000000
  0
LINE
  5
F109D8
330
F109D9
100
AcDbEntity
8
Geo
100
AcDbLine
10
-83.8566125290020
20
3.87624833812846
30
0.000000000000000
11
-83.7566125290020
21
3.69679769433393
31
0.000000000000000
  0
LINE
  5
F109DA
330
F109DB
100
AcDbEntity
8
Geo
100
AcDbLine
10
-83.8566125290020
20
-2.62275193215317
30
0.000000000000000
11
-83.7566125290020
21
-2.69134509563779
31
0.000000000000000
  0
LINE
  5
F109DC
330
F109DD
100
AcDbEntity
8
Geo
100
AcDbLine
10
-83.7566125290020
20
3.69679769433393
30
0.000000000000000
11
-83.6566125290020
21
3.51484046027998
31
0.000000000000000
  0
LINE
  5
F109DE
330
F109DF
100
AcDbEntity
8
Geo
100
AcDbLine
10
-83.7566125290020
20
-2.69134509563779
30
0.000000000000000
11
-83.6566125290020
21
-2.75298210246432
31
0.000000000000000
  0
LINE
  5
F109E0
330
F109E1
100
AcDbEntity
8
Geo
100
AcDbLine
10
-83.6566125290020
20
3.51484046027998
30
0.000000000000000
11
-83.5566125290020
21
3.33064616896113
31
0.000000000000000
  0
LINE
  5
F109E2
330
F109E3
100
AcDbEntity
8
Geo
100
AcDbLine
10
-83.6566125290020
20
-2.75298210246432
30
0.000000000000000
11
-83.5566125290020
21
-2.80757164982138
31
0.000000000000000
  0
LINE
  5
F109E4
330
F109E5
100
AcDbEntity
8
Geo
100
AcDbLine
10
-83.5566125290020
20
3.33064616896113
30
0.000000000000000
11
-83.4566125290020
21
3.14448766712170
31
0.000000000000000
  0
LINE
  5
F109E6
330
F109E7
100
AcDbEntity
8
Geo
100
AcDbLine
10
-83.5566125290020
20
-2.80757164982138
30
0.000000000000000
11
-83.4566125290020
21
-2.85503287428934
31
0.000000000000000
  0
LINE
  5
F109E8
330
F109E9
100
AcDbEntity
8
Geo
100
AcDbLine
10
-83.4566125290020
20
3.14448766712170
30
0.000000000000000
11
-83.3566125290020
21
2.95664071108827
31
0.000000000000000
  0
LINE
  5
F109EA
330
F109EB
100
AcDbEntity
8
Geo
100
AcDbLine
10
-83.4566125290020
20
-2.85503287428934
30
0.000000000000000
11
-83.3566125290020
21
-2.89529547162324
31
0.000000000000000
  0
LINE
  5
F109EC
330
F109ED
100
AcDbEntity
8
Geo
100
AcDbLine
10
-83.3566125290020
20
2.95664071108827
30
0.000000000000000
11
-83.2566125290020
21
2.76738355829223
31
0.000000000000000
  0
LINE
  5
F109EE
330
F109EF
100
AcDbEntity
8
Geo
100
AcDbLine
10
-83.3566125290020
20
-2.89529547162324
30
0.000000000000000
11
-83.2566125290020
21
-2.92829980089437
31
0.000000000000000
  0
LINE
  5
F109F0
330
F109F1
100
AcDbEntity
8
Geo
100
AcDbLine
10
-83.2566125290020
20
2.76738355829223
30
0.000000000000000
11
-83.1566125290020
21
2.57699655508747
31
0.000000000000000
  0
LINE
  5
F109F2
330
F109F3
100
AcDbEntity
8
Geo
100
AcDbLine
10
-83.2566125290020
20
-2.92829980089437
30
0.000000000000000
11
-83.1566125290020
21
-2.95399697283626
31
0.000000000000000
  0
LINE
  5
F109F4
330
F109F5
100
AcDbEntity
8
Geo
100
AcDbLine
10
-83.1566125290020
20
2.57699655508747
30
0.000000000000000
11
-83.0566125290020
21
2.38576172147369
31
0.000000000000000
  0
LINE
  5
F109F6
330
F109F7
100
AcDbEntity
8
Geo
100
AcDbLine
10
-83.1566125290020
20
-2.95399697283626
30
0.000000000000000
11
-83.0566125290020
21
-2.97234892226430
31
0.000000000000000
  0
LINE
  5
F109F8
330
F109F9
100
AcDbEntity
8
Geo
100
AcDbLine
10
-83.0566125290020
20
2.38576172147369
30
0.000000000000000
11
-82.9566125290020
21
2.19396233334057
31
0.000000000000000
  0
LINE
  5
F109FA
330
F109FB
100
AcDbEntity
8
Geo
100
AcDbLine
10
-83.0566125290020
20
-2.97234892226430
30
0.000000000000000
11
-82.9566125290020
21
-2.98332846446166
31
0.000000000000000
  0
LINE
  5
F109FC
330
F109FD
100
AcDbEntity
8
Geo
100
AcDbLine
10
-82.9566125290020
20
2.19396233334057
30
0.000000000000000
11
-82.8566125290020
21
2.00188250285163
31
0.000000000000000
  0
LINE
  5
F109FE
330
F109FF
100
AcDbEntity
8
Geo
100
AcDbLine
10
-82.8566125290020
20
6.99620007790750
30
0.000000000000000
11
-82.7566125290020
21
6.99239695853056
31
0.000000000000000
  0
LINE
  5
F10A00
330
F10A01
100
AcDbEntity
8
Geo
100
AcDbLine
10
-82.8566125290020
20
2.00188250285163
30
0.000000000000000
11
-82.7566125290020
21
1.80980675758923
31
0.000000000000000
  0
LINE
  5
F10A02
330
F10A03
100
AcDbEntity
8
Geo
100
AcDbLine
10
-82.7566125290020
20
6.99239695853056
30
0.000000000000000
11
-82.6566125290020
21
6.98120548234578
31
0.000000000000000
  0
LINE
  5
F10A04
330
F10A05
100
AcDbEntity
8
Geo
100
AcDbLine
10
-82.7566125290020
20
1.80980675758923
30
0.000000000000000
11
-82.6566125290020
21
1.61801961908431
31
0.000000000000000
  0
LINE
  5
F10A06
330
F10A07
100
AcDbEntity
8
Geo
100
AcDbLine
10
-82.6566125290020
20
6.98120548234578
30
0.000000000000000
11
-82.5566125290020
21
6.96264222727108
31
0.000000000000000
  0
LINE
  5
F10A08
330
F10A09
100
AcDbEntity
8
Geo
100
AcDbLine
10
-82.6566125290020
20
1.61801961908431
30
0.000000000000000
11
-82.5566125290020
21
1.42680518135501
31
0.000000000000000
  0
LINE
  5
F10A0A
330
F10A0B
100
AcDbEntity
8
Geo
100
AcDbLine
10
-82.5566125290020
20
6.96264222727108
30
0.000000000000000
11
-82.4566125290019
21
6.93673469103004
31
0.000000000000000
  0
LINE
  5
F10A0C
330
F10A0D
100
AcDbEntity
8
Geo
100
AcDbLine
10
-82.5566125290020
20
1.42680518135501
30
0.000000000000000
11
-82.4566125290019
21
1.23644669007862
31
0.000000000000000
  0
LINE
  5
F10A0E
330
F10A0F
100
AcDbEntity
8
Geo
100
AcDbLine
10
-82.4566125290019
20
6.93673469103004
30
0.000000000000000
11
-82.3566125290020
21
6.90352125041962
31
0.000000000000000
  0
LINE
  5
F10A10
330
F10A11
100
AcDbEntity
8
Geo
100
AcDbLine
10
-82.4566125290019
20
1.23644669007862
30
0.000000000000000
11
-82.3566125290020
21
1.04722612302018
31
0.000000000000000
  0
LINE
  5
F10A12
330
F10A13
100
AcDbEntity
8
Geo
100
AcDbLine
10
-82.3566125290020
20
6.90352125041962
30
0.000000000000000
11
-82.2566125290020
21
6.86305110446261
31
0.000000000000000
  0
LINE
  5
F10A14
330
F10A15
100
AcDbEntity
8
Geo
100
AcDbLine
10
-82.3566125290020
20
1.04722612302018
30
0.000000000000000
11
-82.2566125290020
21
0.859423772339158
31
0.000000000000000
  0
LINE
  5
F10A16
330
F10A17
100
AcDbEntity
8
Geo
100
AcDbLine
10
-82.2566125290020
20
6.86305110446261
30
0.000000000000000
11
-82.1566125290019
21
6.81538420152922
31
0.000000000000000
  0
LINE
  5
F10A18
330
F10A19
100
AcDbEntity
8
Geo
100
AcDbLine
10
-82.2566125290020
20
0.859423772339158
30
0.000000000000000
11
-82.1566125290019
21
0.673317829393108
31
0.000000000000000
  0
LINE
  5
F10A1A
330
F10A1B
100
AcDbEntity
8
Geo
100
AcDbLine
10
-99.1566125290019
20
2.00464037122978
30
0.000000000000000
11
-99.1566125290019
21
2.00464037122978
31
0.000000000000000
  0
LINE
  5
F10A1C
330
F10A1D
100
AcDbEntity
8
Geo
100
AcDbLine
10
-99.1566125290019
20
2.00464037122978
30
0.000000000000000
11
-99.1566125290019
21
2.00464037122978
31
0.000000000000000
  0
LINE
  5
F10A1E
330
F10A1F
100
AcDbEntity
8
Geo
100
AcDbLine
10
-100.156612529002
20
2.00464037122978
30
0.000000000000000
11
-99.8566125290019
21
2.00464037122978
31
0.000000000000000
  0
LINE
  5
F10A20
330
F10A21
100
AcDbEntity
8
Geo
100
AcDbLine
10
-99.7291125290019
20
2.00464037122978
30
0.000000000000000
11
-99.6441125290019
21
2.00464037122978
31
0.000000000000000
  0
LINE
  5
F10A22
330
F10A23
100
AcDbEntity
8
Geo
100
AcDbLine
10
-99.4316125290019
20
2.00464037122978
30
0.000000000000000
11
-99.0066125290019
21
2.00464037122978
31
0.000000000000000
  0
LINE
  5
F10A24
330
F10A25
100
AcDbEntity
8
Geo
100
AcDbLine
10
-98.8791125290019
20
2.00464037122978
30
0.000000000000000
11
-98.7941125290019
21
2.00464037122978
31
0.000000000000000
  0
LINE
  5
F10A26
330
F10A27
100
AcDbEntity
8
Geo
100
AcDbLine
10
-98.5816125290019
20
2.00464037122978
30
0.000000000000000
11
-98.1566125290019
21
2.00464037122978
31
0.000000000000000
  0
LINE
  5
F10A28
330
F10A29
100
AcDbEntity
8
Geo
100
AcDbLine
10
-29.1566125290019
20
6.50464037122978
30
0.000000000000000
11
-29.1566125290019
21
2.00464037122978
31
0.000000000000000
  0
LINE
  5
F10A2A
330
F10A2B
100
AcDbEntity
8
Geo
100
AcDbLine
10
-98.9926677756803
20
2.00464037122978
30
0.000000000000000
11
-99.1564297771076
21
-2.68488977975947
31
0.000000000000000
  0
ARC
  5
F10A2C
330
F10A2D
100
AcDbEntity
8
Geo
100
AcDbCircle
10
-98.8566125290019
20
-2.69535962877022
30
0.000000000000000
 40
0.300000000000001
100
AcDbArc
 50
178.000000000000
 51
270.000000000000
  0
LINE
  5
F10A2E
330
F10A2F
100
AcDbEntity
8
Geo
100
AcDbLine
10
-98.8566125290019
20
-2.99535962877022
30
0.000000000000000
11
-77.1566125290019
21
-2.99535962877022
31
0.000000000000000
  0
LINE
  5
F10A30
330
F10A31
100
AcDbEntity
8
Geo
100
AcDbLine
10
-77.1566125290019
20
-2.99535962877022
30
0.000000000000000
11
-77.1566125290019
21
-2.69535962877022
31
0.000000000000000
  0
LINE
  5
F10A32
330
F10A33
100
AcDbEntity
8
Geo
100
AcDbLine
10
-77.1566125290019
20
-2.69535962877022
30
0.000000000000000
11
-69.1566125290019
21
-2.69535962877022
31
0.000000000000000
  0
LINE
  5
F10A34
330
F10A35
100
AcDbEntity
8
Geo
100
AcDbLine
10
-69.1566125290019
20
-2.69535962877022
30
0.000000000000000
11
-69.1566125290019
21
-2.99535962877022
31
0.000000000000000
  0
LINE
  5
F10A36
330
F10A37
100
AcDbEntity
8
Geo
100
AcDbLine
10
-69.1566125290019
20
-2.99535962877022
30
0.000000000000000
11
-29.6566125290019
21
-2.99535962877022
31
0.000000000000000
  0
LINE
  5
F10A38
330
F10A39
100
AcDbEntity
8
Geo
100
AcDbLine
10
-29.6566125290019
20
-2.99535962877022
30
0.000000000000000
11
-29.1566125290019
21
-2.49535962877022
31
0.000000000000000
  0
LINE
  5
F10A3A
330
F10A3B
100
AcDbEntity
8
Geo
100
AcDbLine
10
-98.8566125290019
20
7.00464037122978
30
0.000000000000000
11
-98.8566125290019
21
-2.99535962877022
31
0.000000000000000
  0
LINE
  5
F10A3C
330
F10A3D
100
AcDbEntity
8
Geo
100
AcDbLine
10
-98.8566125290019
20
7.00464037122978
30
0.000000000000000
11
-98.8566125290019
21
-2.99535962877022
31
0.000000000000000
  0
LINE
  5
F10A3E
330
F10A3F
100
AcDbEntity
8
Geo
100
AcDbLine
10
-77.1566125290019
20
7.00464037122978
30
0.000000000000000
11
-77.1566125290019
21
-2.99535962877022
31
0.000000000000000
  0
LINE
  5
F10A40
330
F10A41
100
AcDbEntity
8
Geo
100
AcDbLine
10
-77.1566125290019
20
6.70464037122978
30
0.000000000000000
11
-77.1566125290019
21
-2.69535962877022
31
0.000000000000000
  0
LINE
  5
F10A42
330
F10A43
100
AcDbEntity
8
Geo
100
AcDbLine
10
-69.1566125290019
20
6.70464037122978
30
0.000000000000000
11
-69.1566125290019
21
-2.69535962877022
31
0.000000000000000
  0
LINE
  5
F10A44
330
F10A45
100
AcDbEntity
8
Geo
100
AcDbLine
10
-69.1566125290019
20
6.70464037122978
30
0.000000000000000
11
-69.1566125290019
21
-2.69535962877022
31
0.000000000000000
  0
LINE
  5
F10A46
330
F10A47
100
AcDbEntity
8
Geo
100
AcDbLine
10
-29.6566125290019
20
7.00464037122978
30
0.000000000000000
11
-29.6566125290019
21
-2.99535962877022
31
0.000000000000000
  0
LINE
  5
F10A48
330
F10A49
100
AcDbEntity
8
Geo
100
AcDbLine
10
-29.1566125290019
20
6.50464037122978
30
0.000000000000000
11
-29.1566125290019
21
-2.49535962877022
31
0.000000000000000
  0
LWPOLYLINE
  5
F10A4A
330
F10A4B
100
AcDbEntity
8
Rahmen
100
AcDbPolyline
90
   4
70
   1
43
   0.0
 10
-125.540603248260
 20
102.988399071926
 10
134.310904872390
 20
102.988399071926
 10
134.310904872390
 20
-103.238979118329
 10
-125.540603248260
 20
-103.238979118329
  0
TEXT
  5
F10A4C
330
F10A4D
 100
AcDbEntity
8
Text
100
AcDbText
10
-124.538283062645
20
-102.738979118329
30
0.000000000000000
40
1.00000000000000
1
ISBESketcher
100
AcDbText
  0
LWPOLYLINE
  5
F10A4E
330
F10A4F
100
AcDbEntity
8
Rahmen
100
AcDbPolyline
90
   4
70
   1
43
   0.0
 10
94.4686774941995
 20
-100.232018561485
 10
134.310904872390
 20
-100.232018561485
 10
134.310904872390
 20
-103.238979118329
 10
94.4686774941995
 20
-103.238979118329
  0
TEXT
  5
F10A50
330
F10A51
 100
AcDbEntity
8
Text
100
AcDbText
10
95.5000000000000
20
-102.001740139211
30
0.000000000000000
40
0.750000000000000
1
Created by:
100
AcDbText
  0
TEXT
  5
F10A52
330
F10A53
 100
AcDbEntity
8
Text
100
AcDbText
10
120.119489559165
20
-102.001740139211
30
0.000000000000000
40
0.750000000000000
1
nsarkol
100
AcDbText
  0
LWPOLYLINE
  5
F10A54
330
F10A55
100
AcDbEntity
8
Rahmen
100
AcDbPolyline
90
   4
70
   1
43
   0.0
 10
54.3758700696056
 20
-100.232018561485
 10
94.4686774941995
 20
-100.232018561485
 10
94.4686774941995
 20
-103.238979118329
 10
54.3758700696056
 20
-103.238979118329
  0
TEXT
  5
F10A56
330
F10A57
 100
AcDbEntity
8
Text
100
AcDbText
10
55.5000000000000
20
-102.001740139211
30
0.000000000000000
40
0.750000000000000
1
Created for:
100
AcDbText
  0
TEXT
  5
F10A58
330
F10A59
 100
AcDbEntity
8
Text
100
AcDbText
10
0.000000000000000
20
0.250000000000000
30
0.000000000000000
40
0.750000000000000
1

100
AcDbText
  0
LWPOLYLINE
  5
F10A5A
330
F10A5B
100
AcDbEntity
8
Rahmen
100
AcDbPolyline
90
   4
70
   1
43
   0.0
 10
121.030162412993
 20
-97.2250580046404
 10
134.310904872390
 20
-97.2250580046404
 10
134.310904872390
 20
-100.232018561485
 10
121.030162412993
 20
-100.232018561485
  0
TEXT
  5
F10A5C
330
F10A5D
 100
AcDbEntity
8
Text
100
AcDbText
10
122.166666666667
20
-99.0017401392111
30
0.000000000000000
40
0.750000000000000
1
Pages
100
AcDbText
  0
TEXT
  5
F10A5E
330
F10A5F
 100
AcDbEntity
8
Text
100
AcDbText
10
0.000000000000000
20
0.250000000000000
30
0.000000000000000
40
0.750000000000000
1

100
AcDbText
  0
LWPOLYLINE
  5
F10A60
330
F10A61
100
AcDbEntity
8
Rahmen
100
AcDbPolyline
90
   4
70
   1
43
   0.0
 10
121.030162412993
 20
-94.2180974477958
 10
134.310904872390
 20
-94.2180974477958
 10
134.310904872390
 20
-97.2250580046404
 10
121.030162412993
 20
-97.2250580046404
  0
TEXT
  5
F10A62
330
F10A63
 100
AcDbEntity
8
Text
100
AcDbText
10
122.166666666667
20
-96.0017401392111
30
0.000000000000000
40
0.750000000000000
1
Page
100
AcDbText
  0
TEXT
  5
F10A64
330
F10A65
 100
AcDbEntity
8
Text
100
AcDbText
10
0.000000000000000
20
0.250000000000000
30
0.000000000000000
40
0.750000000000000
1

100
AcDbText
  0
LWPOLYLINE
  5
F10A66
330
F10A67
100
AcDbEntity
8
Rahmen
100
AcDbPolyline
90
   4
70
   1
43
   0.0
 10
54.3758700696056
 20
-94.2180974477958
 10
121.030162412993
 20
-94.2180974477958
 10
121.030162412993
 20
-100.232018561485
 10
54.3758700696056
 20
-100.232018561485
  0
TEXT
  5
F10A68
330
F10A69
 100
AcDbEntity
8
Text
100
AcDbText
10
55.5000000000000
20
-96.0017401392111
30
0.000000000000000
40
0.750000000000000
1
Date:
100
AcDbText
  0
TEXT
  5
F10A6A
330
F10A6B
 100
AcDbEntity
8
Text
100
AcDbText
10
84.4505027068832
20
-99.0017401392111
30
0.000000000000000
40
0.750000000000000
1
05.07.2016
100
AcDbText
  0
LWPOLYLINE
  5
F10A6C
330
F10A6D
100
AcDbEntity
8
Rahmen
100
AcDbPolyline
90
   4
70
   1
43
   0.0
 10
54.3758700696056
 20
-88.2041763341067
 10
134.310904872390
 20
-88.2041763341067
 10
134.310904872390
 20
-94.2180974477958
 10
54.3758700696056
 20
-94.2180974477958
  0
TEXT
  5
F10A6E
330
F10A6F
 100
AcDbEntity
8
Text
100
AcDbText
10
0.000000000000000
20
0.500000000000000
30
0.000000000000000
40
1.50000000000000
1

100
AcDbText
  0
TEXT
  5
F10A70
330
F10A71
 100
AcDbEntity
8
Text
100
AcDbText
10
67.5626450116009
20
-92.5471771075019
30
0.000000000000000
40
2.50000000000000
1
VHRS 4 100 070 10 03 030 L
100
AcDbText
  0
LWPOLYLINE
  5
F10A72
330
F10A73
100
AcDbEntity
8
Rahmen
100
AcDbPolyline
90
   4
70
   1
43
   0.0
 10
94.4686774941995
 20
-82.1902552204176
 10
134.310904872390
 20
-82.1902552204176
 10
134.310904872390
 20
-88.2041763341067
 10
94.4686774941995
 20
-88.2041763341067
  0
TEXT
  5
F10A74
330
F10A75
 100
AcDbEntity
8
Text
100
AcDbText
10
95.5000000000000
20
-84.0017401392111
30
0.000000000000000
40
0.750000000000000
1
Work piece material:
100
AcDbText
  0
TEXT
  5
F10A76
330
F10A77
 100
AcDbEntity
8
Text
100
AcDbText
10
0.000000000000000
20
0.250000000000000
30
0.000000000000000
40
0.750000000000000
1

100
AcDbText
  0
LWPOLYLINE
  5
F10A78
330
F10A79
100
AcDbEntity
8
Rahmen
100
AcDbPolyline
90
   4
70
   1
43
   0.0
 10
54.3758700696056
 20
-82.1902552204176
 10
94.4686774941995
 20
-82.1902552204176
 10
94.4686774941995
 20
-88.2041763341067
 10
54.3758700696056
 20
-88.2041763341067
  0
TEXT
  5
F10A7A
330
F10A7B
 100
AcDbEntity
8
Text
100
AcDbText
10
55.5000000000000
20
-84.0017401392111
30
0.000000000000000
40
0.750000000000000
1
Tool material:
100
AcDbText
  0
TEXT
  5
F10A7C
330
F10A7D
 100
AcDbEntity
8
Text
100
AcDbText
10
0.000000000000000
20
0.250000000000000
30
0.000000000000000
40
0.750000000000000
1

100
AcDbText
  0
LWPOLYLINE
  5
F10A7E
330
F10A7F
100
AcDbEntity
8
Rahmen
100
AcDbPolyline
90
   4
70
   1
43
   0.0
 10
94.4686774941995
 20
-79.1832946635731
 10
134.310904872390
 20
-79.1832946635731
 10
134.310904872390
 20
-82.1902552204176
 10
94.4686774941995
 20
-82.1902552204176
  0
TEXT
  5
F10A80
330
F10A81
 100
AcDbEntity
8
Text
100
AcDbText
10
0.000000000000000
20
0.500000000000000
30
0.000000000000000
40
1.50000000000000
1

100
AcDbText
  0
TEXT
  5
F10A82
330
F10A83
 100
AcDbEntity
8
Text
100
AcDbText
10
0.000000000000000
20
0.250000000000000
30
0.000000000000000
40
0.750000000000000
1

100
AcDbText
  0
LWPOLYLINE
  5
F10A84
330
F10A85
100
AcDbEntity
8
Rahmen
100
AcDbPolyline
90
   4
70
   1
43
   0.0
 10
54.3758700696056
 20
-79.1832946635731
 10
94.4686774941995
 20
-79.1832946635731
 10
94.4686774941995
 20
-82.1902552204176
 10
54.3758700696056
 20
-82.1902552204176
  0
TEXT
  5
F10A86
330
F10A87
 100
AcDbEntity
8
Text
100
AcDbText
10
55.5000000000000
20
-81.0017401392111
30
0.000000000000000
40
0.750000000000000
1
Scale:
100
AcDbText
  0
TEXT
  5
F10A88
330
F10A89
 100
AcDbEntity
8
Text
100
AcDbText
10
81.2470997679814
20
-81.0017401392111
30
0.000000000000000
40
0.750000000000000
1
3 : 1
100
AcDbText
0
VIEWPORT
5
294
102
{ACAD_XDICTIONARY
360
58A
102
}
330
25D
100
AcDbEntity
67
1
8
0
60
1
100
AcDbViewport
10
0.0
20
0.0
30
0.0
40
10.0
41
10.0
68
-1
69
1
12
0.0
22
0.0
13
0.0
23
0.0
14
1.0
24
1.0
15
0.0
25
0.0
16
0.0
26
0.0
36
1.0
17
0.0
27
0.0
37
0.0
42
0.0
43
0.0
44
0.0
45
10.0
50
0.0
51
0.0000000000007958
72
100
90
32800
1

281
0
71
0
74
0
110
0.0
120
0.0
130
0.0
111
1.0
121
0.0
131
0.0
112
0.0
122
1.0
132
0.0
79
0
146
0.0
1001
VD_INVISIBLE_NOT_FOR_READ
1000
VD_INVISIBLE_NOT_FOR_READ
0
VIEWPORT
5
295
102
{ACAD_XDICTIONARY
360
58C
102
}
330
25D
100
AcDbEntity
67
1
8
0
60
1
100
AcDbViewport
10
0.0
20
0.0
30
0.0
40
10.0
41
10.0
68
0
69
2
12
0.0
22
0.0
13
0.0
23
0.0
14
1.0
24
1.0
15
0.0
25
0.0
16
0.0
26
0.0
36
1.0
17
0.0
27
0.0
37
0.0
42
0.0
43
0.0
44
0.0
45
10.0
50
0.0
51
0.0000000000007958
72
100
90
163872
1

281
0
71
0
74
0
110
0.0
120
0.0
130
0.0
111
1.0
121
0.0
131
0.0
112
0.0
122
1.0
132
0.0
79
0
146
0.0
1001
VD_INVISIBLE_NOT_FOR_READ
1000
VD_INVISIBLE_NOT_FOR_READ
0
ENDSEC
0
SECTION
2
OBJECTS
0
DICTIONARY
5
13
330
0
100
AcDbDictionary
281
1
3
ACAD_COLOR
350
FA7
3
ACAD_GROUP
350
14
3
ACAD_LAYOUT
350
FCF
3
ACAD_MATERIAL
350
F7A
3
ACAD_MLEADERSTYLE
350
FCD
3
ACAD_MLINESTYLE
350
16
3
ACAD_PLOTSETTINGS
350
17
3
ACAD_PLOTSTYLENAME
350
18
3
ACAD_SCALELIST
350
FAB
3
ACAD_TABLESTYLE
350
FA8
3
ACAD_VISUALSTYLE
350
F93
3
ACDB_RECOMPOSE_DATA
350
107E
3
AcDbVariableDictionary
350
FF0
3
DWGPROPS
350
107F
0
DICTIONARY
5
F10019
330
F10018
100
AcDbDictionary
280
1
281
1
3
ACAD_MTEXT_2008_RT
360
F1001A
0
DICTIONARY
5
F1001E
330
F1001D
100
AcDbDictionary
280
1
281
1
3
ACAD_MTEXT_2008_RT
360
F1001F
0
DICTIONARY
5
F10028
330
F10027
100
AcDbDictionary
280
1
281
1
3
ACAD_MTEXT_2008_RT
360
F10029
0
DICTIONARY
5
F1002D
330
F1002C
100
AcDbDictionary
280
1
281
1
3
ACAD_MTEXT_2008_RT
360
F1002E
0
DICTIONARY
5
F10005
330
F10004
100
AcDbDictionary
280
1
281
1
3
ACAD_MTEXT_2008_RT
360
F10006
0
DICTIONARY
5
F1000F
330
F1000E
100
AcDbDictionary
280
1
281
1
3
ACAD_MTEXT_2008_RT
360
F10010
0
DICTIONARY
5
F1000A
330
F10009
100
AcDbDictionary
280
1
281
1
3
ACAD_MTEXT_2008_RT
360
F1000B
0
DICTIONARY
5
F10014
330
F10013
100
AcDbDictionary
280
1
281
1
3
ACAD_MTEXT_2008_RT
360
F10015
0
DICTIONARY
5
F10023
330
F10022
100
AcDbDictionary
280
1
281
1
3
ACAD_MTEXT_2008_RT
360
F10024
0
DICTIONARY
5
FA7
102
{ACAD_REACTORS
330
13
102
}
330
13
100
AcDbDictionary
281
1
0
DICTIONARY
5
14
330
13
100
AcDbDictionary
281
1
0
DICTIONARY
5
FCF
102
{ACAD_REACTORS
330
13
102
}
330
13
100
AcDbDictionary
281
1
3
Layout1
350
FD1
3
Model
350
FD0
0
DICTIONARY
5
F7A
102
{ACAD_REACTORS
330
13
102
}
330
13
100
AcDbDictionary
281
1
3
ByBlock
350
F83
3
ByLayer
350
F7B
3
Global
350
F8B
0
DICTIONARY
5
FCD
102
{ACAD_REACTORS
330
13
102
}
330
13
100
AcDbDictionary
281
1
3
Standard
350
FCE
0
DICTIONARY
5
16
330
13
100
AcDbDictionary
281
1
3
Standard
350
FAA
0
DICTIONARY
5
17
102
{ACAD_REACTORS
330
13
102
}
330
13
100
AcDbDictionary
281
1
0
ACDBDICTIONARYWDFLT
5
18
102
{ACAD_REACTORS
330
13
102
}
330
13
100
AcDbDictionary
281
1
3
Normal
350
19
100
AcDbDictionaryWithDefault
340
19
0
DICTIONARY
5
FAB
102
{ACAD_REACTORS
330
13
102
}
330
13
100
AcDbDictionary
281
1
3
A0
350
FAC
3
A1
350
FAD
3
A2
350
FAE
3
A3
350
FAF
3
A4
350
FB0
3
A5
350
FB1
3
A6
350
FB2
3
A7
350
FB3
3
A8
350
FB4
3
A9
350
FB5
3
B0
350
FB6
3
B1
350
FB7
3
B2
350
FB8
3
B3
350
FB9
3
B4
350
FBA
3
B5
350
FBB
3
B6
350
FBC
3
B7
350
FBD
3
B8
350
FBE
3
B9
350
FBF
3
C0
350
FC0
3
C1
350
FC1
3
C2
350
FC2
3
C3
350
FC3
3
C4
350
FC4
3
C5
350
FC5
3
C6
350
FC6
3
C7
350
FC7
3
C8
350
FC8
3
C9
350
FC9
3
D0
350
FCA
3
D1
350
FCB
3
D2
350
FCC
0
DICTIONARY
5
FA8
102
{ACAD_REACTORS
330
13
102
}
330
13
100
AcDbDictionary
281
1
3
Standard
350
FA9
0
DICTIONARY
5
F93
102
{ACAD_REACTORS
330
13
102
}
330
13
100
AcDbDictionary
281
1
3
2dWireframe
350
F99
3
3D Hidden
350
F9B
3
3dWireframe
350
F9A
3
Basic
350
F98
3
Brighten
350
F9F
3
ColorChange
350
FA3
3
Conceptual
350
F9C
3
Dim
350
F9E
3
EdgeColorOff
350
FA6
3
Facepattern
350
FA2
3
Flat
350
F94
3
FlatWithEdges
350
F95
3
Gouraud
350
F96
3
GouraudWithEdges
350
F97
3
JitterOff
350
FA4
3
Linepattern
350
FA1
3
OverhangOff
350
FA5
3
Realistic
350
F9D
3
Thicken
350
FA0
0
XRECORD
5
107E
102
{ACAD_REACTORS
330
13
102
}
330
13
100
AcDbXrecord
280
1
90
1
330
FA9
330
F10018
330
F1001D
330
F10027
330
F1002C
330
F10004
330
F1000E
330
F10009
330
F10013
330
F10022
0
XRECORD
5
F1001A
102
{ACAD_REACTORS
330
F10019
102
}
330
F10019
100
AcDbXrecord
280
1
40
48458.0
1
30
0
XRECORD
5
F1001F
102
{ACAD_REACTORS
330
F1001E
102
}
330
F1001E
100
AcDbXrecord
280
1
40
48458.0
1
40
0
XRECORD
5
F10029
102
{ACAD_REACTORS
330
F10028
102
}
330
F10028
100
AcDbXrecord
280
1
40
48458.0
1
22
0
XRECORD
5
F1002E
102
{ACAD_REACTORS
330
F1002D
102
}
330
F1002D
100
AcDbXrecord
280
1
40
48458.0
1
70
0
XRECORD
5
F10006
102
{ACAD_REACTORS
330
F10005
102
}
330
F10005
100
AcDbXrecord
280
1
40
48458.0
1
2°
0
XRECORD
5
F10010
102
{ACAD_REACTORS
330
F1000F
102
}
330
F1000F
100
AcDbXrecord
280
1
40
48458.0
1
R0.3
0
XRECORD
5
F1000B
102
{ACAD_REACTORS
330
F1000A
102
}
330
F1000A
100
AcDbXrecord
280
1
40
48458.0
1
10
0
XRECORD
5
F10015
102
{ACAD_REACTORS
330
F10014
102
}
330
F10014
100
AcDbXrecord
280
1
40
48458.0
1
9.4
0
LAYOUT
5
FD1
102
{ACAD_XDICTIONARY
360
10A9
102
}
102
{ACAD_REACTORS
330
FCF
102
}
330
FCF
100
AcDbPlotSettings
1

2
Microsoft XPS Document Writer
4

6

40
0.0
41
0.0
42
0.0
43
0.0
44
0.0
45
0.0
46
0.0
47
0.0
48
0.0
49
0.0
140
0.0
141
0.0
142
1.0
143
1.0
70
688
72
0
73
0
74
5
7

75
16
147
1.0
148
0.0
149
0.0
100
AcDbLayout
1
Layout1
70
1
71
1
10
0.0
20
0.0
11
12.0
21
9.0
12
0.0
22
0.0
32
0.0
14
1.000000000000000E+20
24
1.000000000000000E+20
34
1.000000000000000E+20
15
-1.000000000000000E+20
25
-1.000000000000000E+20
35
-1.000000000000000E+20
146
0.0
13
0.0
23
0.0
33
0.0
16
1.0
26
0.0
36
0.0
17
0.0
27
1.0
37
0.0
76
0
330
25D
0
LAYOUT
5
FD0
102
{ACAD_XDICTIONARY
360
10A7
102
}
102
{ACAD_REACTORS
330
FCF
102
}
330
FCF
100
AcDbPlotSettings
1

2
Microsoft XPS Document Writer
4

6

40
0.0
41
0.0
42
0.0
43
0.0
44
0.0
45
0.0
46
0.0
47
0.0
48
0.0
49
0.0
140
0.0
141
0.0
142
1.0
143
1.0
70
1712
72
0
73
0
74
0
7

75
0
147
1.0
148
0.0
149
0.0
100
AcDbLayout
1
Model
70
1
71
0
10
0.0
20
0.0
11
12.0
21
9.0
12
0.0
22
0.0
32
0.0
14
0.0
24
0.0
34
0.0
15
0.0
25
0.0
35
0.0
146
0.0
13
0.0
23
0.0
33
0.0
16
1.0
26
0.0
36
0.0
17
0.0
27
1.0
37
0.0
76
0
330
261
331
26B
0
MATERIAL
5
F83
102
{ACAD_XDICTIONARY
360
F84
102
}
102
{ACAD_REACTORS
330
F7A
102
}
330
F7A
100
AcDbMaterial
1
ByBlock
72
0
43
0.0208333333333333
43
0.0
43
0.0
43
0.0
43
0.0
43
0.0208333333333333
43
0.0
43
0.0
43
0.0
43
0.0
43
1.0
43
0.0
43
0.0
43
0.0
43
0.0
43
1.0
77
0
47
0.0208333333333333
47
0.0
47
0.0
47
0.0
47
0.0
47
0.0208333333333333
47
0.0
47
0.0
47
0.0
47
0.0
47
1.0
47
0.0
47
0.0
47
0.0
47
0.0
47
1.0
171
0
49
0.0208333333333333
49
0.0
49
0.0
49
0.0
49
0.0
49
0.0208333333333333
49
0.0
49
0.0
49
0.0
49
0.0
49
1.0
49
0.0
49
0.0
49
0.0
49
0.0
49
1.0
175
0
142
0.0208333333333333
142
0.0
142
0.0
142
0.0
142
0.0
142
0.0208333333333333
142
0.0
142
0.0
142
0.0
142
0.0
142
1.0
142
0.0
142
0.0
142
0.0
142
0.0
142
1.0
179
0
144
0.0208333333333333
144
0.0
144
0.0
144
0.0
144
0.0
144
0.0208333333333333
144
0.0
144
0.0
144
0.0
144
0.0
144
1.0
144
0.0
144
0.0
144
0.0
144
0.0
144
1.0
147
0.0208333333333333
147
0.0
147
0.0
147
0.0
147
0.0
147
0.0208333333333333
147
0.0
147
0.0
147
0.0
147
0.0
147
1.0
147
0.0
147
0.0
147
0.0
147
0.0
147
1.0
0
MATERIAL
5
F7B
102
{ACAD_XDICTIONARY
360
F7C
102
}
102
{ACAD_REACTORS
330
F7A
102
}
330
F7A
100
AcDbMaterial
1
ByLayer
72
0
43
0.0208333333333333
43
0.0
43
0.0
43
0.0
43
0.0
43
0.0208333333333333
43
0.0
43
0.0
43
0.0
43
0.0
43
1.0
43
0.0
43
0.0
43
0.0
43
0.0
43
1.0
77
0
47
0.0208333333333333
47
0.0
47
0.0
47
0.0
47
0.0
47
0.0208333333333333
47
0.0
47
0.0
47
0.0
47
0.0
47
1.0
47
0.0
47
0.0
47
0.0
47
0.0
47
1.0
171
0
49
0.0208333333333333
49
0.0
49
0.0
49
0.0
49
0.0
49
0.0208333333333333
49
0.0
49
0.0
49
0.0
49
0.0
49
1.0
49
0.0
49
0.0
49
0.0
49
0.0
49
1.0
175
0
142
0.0208333333333333
142
0.0
142
0.0
142
0.0
142
0.0
142
0.0208333333333333
142
0.0
142
0.0
142
0.0
142
0.0
142
1.0
142
0.0
142
0.0
142
0.0
142
0.0
142
1.0
179
0
144
0.0208333333333333
144
0.0
144
0.0
144
0.0
144
0.0
144
0.0208333333333333
144
0.0
144
0.0
144
0.0
144
0.0
144
1.0
144
0.0
144
0.0
144
0.0
144
0.0
144
1.0
147
0.0208333333333333
147
0.0
147
0.0
147
0.0
147
0.0
147
0.0208333333333333
147
0.0
147
0.0
147
0.0
147
0.0
147
1.0
147
0.0
147
0.0
147
0.0
147
0.0
147
1.0
0
MATERIAL
5
F8B
102
{ACAD_XDICTIONARY
360
F8C
102
}
102
{ACAD_REACTORS
330
F7A
102
}
330
F7A
100
AcDbMaterial
1
Global
72
0
43
0.0208333333333333
43
0.0
43
0.0
43
0.0
43
0.0
43
0.0208333333333333
43
0.0
43
0.0
43
0.0
43
0.0
43
1.0
43
0.0
43
0.0
43
0.0
43
0.0
43
1.0
77
0
47
0.0208333333333333
47
0.0
47
0.0
47
0.0
47
0.0
47
0.0208333333333333
47
0.0
47
0.0
47
0.0
47
0.0
47
1.0
47
0.0
47
0.0
47
0.0
47
0.0
47
1.0
171
0
49
0.0208333333333333
49
0.0
49
0.0
49
0.0
49
0.0
49
0.0208333333333333
49
0.0
49
0.0
49
0.0
49
0.0
49
1.0
49
0.0
49
0.0
49
0.0
49
0.0
49
1.0
175
0
142
0.0208333333333333
142
0.0
142
0.0
142
0.0
142
0.0
142
0.0208333333333333
142
0.0
142
0.0
142
0.0
142
0.0
142
1.0
142
0.0
142
0.0
142
0.0
142
0.0
142
1.0
179
0
144
0.0208333333333333
144
0.0
144
0.0
144
0.0
144
0.0
144
0.0208333333333333
144
0.0
144
0.0
144
0.0
144
0.0
144
1.0
144
0.0
144
0.0
144
0.0
144
0.0
144
1.0
147
0.0208333333333333
147
0.0
147
0.0
147
0.0
147
0.0
147
0.0208333333333333
147
0.0
147
0.0
147
0.0
147
0.0
147
1.0
147
0.0
147
0.0
147
0.0
147
0.0
147
1.0
0
MLEADERSTYLE
5
FCE
102
{ACAD_REACTORS
330
FCD
102
}
330
FCD
100
AcDbMLeaderStyle
170
2
171
1
172
0
90
2
40
0.0
41
0.0
173
1
91
-1056964608
340
256
92
-2
290
1
42
0.09
291
1
43
0.36
3
Standard
44
0.18
300

342
253
174
1
178
6
175
1
176
0
93
-1056964608
45
0.18
292
0
297
0
46
0.18
94
-1056964608
47
1.0
49
1.0
140
1.0
293
1
141
0.0
294
1
177
0
142
1.0
295
0
296
0
143
0.125
1001
ACAD_MLEADERVER
1070
2
0
MLINESTYLE
5
FAA
102
{ACAD_REACTORS
330
16
102
}
330
16
100
AcDbMlineStyle
2
STANDARD
70
0
3

62
256
51
90.0
52
90.0
71
2
49
0.5
62
256
6
BYLAYER
49
-0.5
62
256
6
BYLAYER
0
ACDBPLACEHOLDER
5
19
102
{ACAD_REACTORS
330
18
102
}
330
18
0
SCALE
5
FAC
102
{ACAD_REACTORS
330
FAB
102
}
330
FAB
100
AcDbScale
70
0
300
1:1
140
1.0
141
1.0
290
1
0
SCALE
5
FAD
102
{ACAD_REACTORS
330
FAB
102
}
330
FAB
100
AcDbScale
70
0
300
1:2
140
1.0
141
2.0
290
0
0
SCALE
5
FAE
102
{ACAD_REACTORS
330
FAB
102
}
330
FAB
100
AcDbScale
70
0
300
1:4
140
1.0
141
4.0
290
0
0
SCALE
5
FAF
102
{ACAD_REACTORS
330
FAB
102
}
330
FAB
100
AcDbScale
70
0
300
1:5
140
1.0
141
5.0
290
0
0
SCALE
5
FB0
102
{ACAD_REACTORS
330
FAB
102
}
330
FAB
100
AcDbScale
70
0
300
1:8
140
1.0
141
8.0
290
0
0
SCALE
5
FB1
102
{ACAD_REACTORS
330
FAB
102
}
330
FAB
100
AcDbScale
70
0
300
1:10
140
1.0
141
10.0
290
0
0
SCALE
5
FB2
102
{ACAD_REACTORS
330
FAB
102
}
330
FAB
100
AcDbScale
70
0
300
1:16
140
1.0
141
16.0
290
0
0
SCALE
5
FB3
102
{ACAD_REACTORS
330
FAB
102
}
330
FAB
100
AcDbScale
70
0
300
1:20
140
1.0
141
20.0
290
0
0
SCALE
5
FB4
102
{ACAD_REACTORS
330
FAB
102
}
330
FAB
100
AcDbScale
70
0
300
1:30
140
1.0
141
30.0
290
0
0
SCALE
5
FB5
102
{ACAD_REACTORS
330
FAB
102
}
330
FAB
100
AcDbScale
70
0
300
1:40
140
1.0
141
40.0
290
0
0
SCALE
5
FB6
102
{ACAD_REACTORS
330
FAB
102
}
330
FAB
100
AcDbScale
70
0
300
1:50
140
1.0
141
50.0
290
0
0
SCALE
5
FB7
102
{ACAD_REACTORS
330
FAB
102
}
330
FAB
100
AcDbScale
70
0
300
1:100
140
1.0
141
100.0
290
0
0
SCALE
5
FB8
102
{ACAD_REACTORS
330
FAB
102
}
330
FAB
100
AcDbScale
70
0
300
2:1
140
2.0
141
1.0
290
0
0
SCALE
5
FB9
102
{ACAD_REACTORS
330
FAB
102
}
330
FAB
100
AcDbScale
70
0
300
4:1
140
4.0
141
1.0
290
0
0
SCALE
5
FBA
102
{ACAD_REACTORS
330
FAB
102
}
330
FAB
100
AcDbScale
70
0
300
8:1
140
8.0
141
1.0
290
0
0
SCALE
5
FBB
102
{ACAD_REACTORS
330
FAB
102
}
330
FAB
100
AcDbScale
70
0
300
10:1
140
10.0
141
1.0
290
0
0
SCALE
5
FBC
102
{ACAD_REACTORS
330
FAB
102
}
330
FAB
100
AcDbScale
70
0
300
100:1
140
100.0
141
1.0
290
0
0
SCALE
5
FBD
102
{ACAD_REACTORS
330
FAB
102
}
330
FAB
100
AcDbScale
70
0
300
1/128" = 1'-0"
140
0.0078125
141
12.0
290
0
0
SCALE
5
FBE
102
{ACAD_REACTORS
330
FAB
102
}
330
FAB
100
AcDbScale
70
0
300
1/64" = 1'-0"
140
0.015625
141
12.0
290
0
0
SCALE
5
FBF
102
{ACAD_REACTORS
330
FAB
102
}
330
FAB
100
AcDbScale
70
0
300
1/32" = 1'-0"
140
0.03125
141
12.0
290
0
0
SCALE
5
FC0
102
{ACAD_REACTORS
330
FAB
102
}
330
FAB
100
AcDbScale
70
0
300
1/16" = 1'-0"
140
0.0625
141
12.0
290
0
0
SCALE
5
FC1
102
{ACAD_REACTORS
330
FAB
102
}
330
FAB
100
AcDbScale
70
0
300
3/32" = 1'-0"
140
0.09375
141
12.0
290
0
0
SCALE
5
FC2
102
{ACAD_REACTORS
330
FAB
102
}
330
FAB
100
AcDbScale
70
0
300
1/8" = 1'-0"
140
0.125
141
12.0
290
0
0
SCALE
5
FC3
102
{ACAD_REACTORS
330
FAB
102
}
330
FAB
100
AcDbScale
70
0
300
3/16" = 1'-0"
140
0.1875
141
12.0
290
0
0
SCALE
5
FC4
102
{ACAD_REACTORS
330
FAB
102
}
330
FAB
100
AcDbScale
70
0
300
1/4" = 1'-0"
140
0.25
141
12.0
290
0
0
SCALE
5
FC5
102
{ACAD_REACTORS
330
FAB
102
}
330
FAB
100
AcDbScale
70
0
300
3/8" = 1'-0"
140
0.375
141
12.0
290
0
0
SCALE
5
FC6
102
{ACAD_REACTORS
330
FAB
102
}
330
FAB
100
AcDbScale
70
0
300
1/2" = 1'-0"
140
0.5
141
12.0
290
0
0
SCALE
5
FC7
102
{ACAD_REACTORS
330
FAB
102
}
330
FAB
100
AcDbScale
70
0
300
3/4" = 1'-0"
140
0.75
141
12.0
290
0
0
SCALE
5
FC8
102
{ACAD_REACTORS
330
FAB
102
}
330
FAB
100
AcDbScale
70
0
300
1" = 1'-0"
140
1.0
141
12.0
290
0
0
SCALE
5
FC9
102
{ACAD_REACTORS
330
FAB
102
}
330
FAB
100
AcDbScale
70
0
300
1-1/2" = 1'-0"
140
1.5
141
12.0
290
0
0
SCALE
5
FCA
102
{ACAD_REACTORS
330
FAB
102
}
330
FAB
100
AcDbScale
70
0
300
3" = 1'-0"
140
3.0
141
12.0
290
0
0
SCALE
5
FCB
102
{ACAD_REACTORS
330
FAB
102
}
330
FAB
100
AcDbScale
70
0
300
6" = 1'-0"
140
6.0
141
12.0
290
0
0
SCALE
5
FCC
102
{ACAD_REACTORS
330
FAB
102
}
330
FAB
100
AcDbScale
70
0
300
1'-0" = 1'-0"
140
12.0
141
12.0
290
0
0
TABLESTYLE
5
FA9
102
{ACAD_XDICTIONARY
360
FF8
102
}
102
{ACAD_REACTORS
330
FA8
102
}
330
FA8
100
AcDbTableStyle
3
Standard
70
0
71
0
40
0.06
41
0.06
280
0
281
0
7
Standard
140
0.18
170
2
62
0
63
7
283
0
274
-2
284
1
64
0
275
-2
285
1
65
0
276
-2
286
1
66
0
277
-2
287
1
67
0
278
-2
288
1
68
0
279
-2
289
1
69
0
7
Standard
140
0.25
170
5
62
0
63
7
283
0
274
-2
284
1
64
0
275
-2
285
1
65
0
276
-2
286
1
66
0
277
-2
287
1
67
0
278
-2
288
1
68
0
279
-2
289
1
69
0
7
Standard
140
0.18
170
5
62
0
63
7
283
0
274
-2
284
1
64
0
275
-2
285
1
65
0
276
-2
286
1
66
0
277
-2
287
1
67
0
278
-2
288
1
68
0
279
-2
289
1
69
0
0
VISUALSTYLE
5
F99
102
{ACAD_XDICTIONARY
360
108A
102
}
102
{ACAD_REACTORS
330
F93
102
}
330
F93
100
AcDbVisualStyle
2

70
4
71
0
72
2
73
0
90
0
40
-0.6
41
-30.0
62
5
63
7
74
1
91
4
64
7
65
257
75
1
175
1
42
1.0
92
0
66
257
43
1.0
76
1
77
6
78
2
67
7
79
5
170
0
171
0
290
0
174
0
93
1
44
0.0
173
0
291
0
45
0.0
1001
ACAD
1000
AcDbSavedByObjectVersion
1070
0
0
VISUALSTYLE
5
F9B
102
{ACAD_XDICTIONARY
360
108E
102
}
102
{ACAD_REACTORS
330
F93
102
}
330
F93
100
AcDbVisualStyle
2

70
6
71
1
72
2
73
2
90
0
40
-0.6
41
-30.0
62
5
63
7
74
2
91
2
64
7
65
257
75
2
175
1
42
179.0
92
0
66
257
43
1.0
76
1
77
6
78
2
67
7
79
3
170
0
171
0
290
0
174
0
93
1
44
0.0
173
0
291
0
45
0.0
1001
ACAD
1000
AcDbSavedByObjectVersion
1070
0
0
VISUALSTYLE
5
F9A
102
{ACAD_XDICTIONARY
360
108C
102
}
102
{ACAD_REACTORS
330
F93
102
}
330
F93
100
AcDbVisualStyle
2

70
5
71
0
72
2
73
0
90
0
40
-0.6
41
-30.0
62
5
63
7
74
1
91
4
64
7
65
257
75
1
175
1
42
1.0
92
0
66
257
43
1.0
76
1
77
6
78
2
67
7
79
5
170
0
171
0
290
0
174
0
93
1
44
0.0
173
0
291
0
45
0.0
1001
ACAD
1000
AcDbSavedByObjectVersion
1070
0
0
VISUALSTYLE
5
F98
102
{ACAD_XDICTIONARY
360
1088
102
}
102
{ACAD_REACTORS
330
F93
102
}
330
F93
100
AcDbVisualStyle
2

70
7
71
1
72
0
73
1
90
0
40
-0.6
41
-30.0
62
5
63
7
74
0
91
4
64
7
65
257
75
1
175
1
42
1.0
92
8
66
7
43
1.0
76
1
77
6
78
2
67
7
79
5
170
0
171
0
290
0
174
0
93
1
44
0.0
173
0
291
1
45
0.0
1001
ACAD
1000
AcDbSavedByObjectVersion
1070
0
0
VISUALSTYLE
5
F9F
102
{ACAD_XDICTIONARY
360
1096
102
}
102
{ACAD_REACTORS
330
F93
102
}
330
F93
100
AcDbVisualStyle
2

70
12
71
2
72
2
73
0
90
0
40
-0.6
41
-30.0
62
5
63
7
74
1
91
4
64
7
65
257
75
1
175
1
42
1.0
92
8
66
7
43
1.0
76
1
77
6
78
2
67
7
79
5
170
0
171
0
290
0
174
0
93
1
44
50.0
173
0
291
1
45
0.0
1001
ACAD
1000
AcDbSavedByObjectVersion
1070
0
0
VISUALSTYLE
5
FA3
102
{ACAD_XDICTIONARY
360
109E
102
}
102
{ACAD_REACTORS
330
F93
102
}
330
F93
100
AcDbVisualStyle
2

70
16
71
2
72
2
73
3
90
0
40
-0.6
41
-30.0
62
5
63
8
74
1
91
4
64
7
65
257
75
1
175
1
42
1.0
92
8
66
8
43
1.0
76
1
77
6
78
2
67
7
79
5
170
0
171
0
290
0
174
0
93
1
44
0.0
173
0
291
1
45
0.0
1001
ACAD
1000
AcDbSavedByObjectVersion
1070
0
0
VISUALSTYLE
5
F9C
102
{ACAD_XDICTIONARY
360
1090
102
}
102
{ACAD_REACTORS
330
F93
102
}
330
F93
100
AcDbVisualStyle
2

70
9
71
3
72
2
73
0
90
0
40
-0.6
41
-30.0
62
5
63
7
74
2
91
2
64
7
65
257
75
1
175
1
42
179.0
92
8
66
7
43
1.0
76
1
77
6
78
2
67
7
79
3
170
0
171
0
290
0
174
0
93
1
44
0.0
173
0
291
0
45
0.0
1001
ACAD
1000
AcDbSavedByObjectVersion
1070
0
0
VISUALSTYLE
5
F9E
102
{ACAD_XDICTIONARY
360
1094
102
}
102
{ACAD_REACTORS
330
F93
102
}
330
F93
100
AcDbVisualStyle
2

70
11
71
2
72
2
73
0
90
0
40
-0.6
41
-30.0
62
5
63
7
74
1
91
4
64
7
65
257
75
1
175
1
42
1.0
92
8
66
7
43
1.0
76
1
77
6
78
2
67
7
79
5
170
0
171
0
290
0
174
0
93
1
44
-50.0
173
0
291
1
45
0.0
1001
ACAD
1000
AcDbSavedByObjectVersion
1070
0
0
VISUALSTYLE
5
FA6
102
{ACAD_XDICTIONARY
360
10A4
102
}
102
{ACAD_REACTORS
330
F93
102
}
330
F93
100
AcDbVisualStyle
2

70
22
71
2
72
2
73
0
90
0
40
-0.6
41
-30.0
62
5
63
7
74
1
91
4
64
7
65
257
75
1
175
1
42
1.0
92
8
66
7
43
1.0
76
1
77
6
78
2
67
7
79
5
170
0
171
0
290
0
174
0
93
1
44
0.0
173
0
291
1
45
0.0
1001
ACAD
1000
AcDbSavedByObjectVersion
1070
0
0
VISUALSTYLE
5
FA2
102
{ACAD_XDICTIONARY
360
109C
102
}
102
{ACAD_REACTORS
330
F93
102
}
330
F93
100
AcDbVisualStyle
2

70
15
71
2
72
2
73
0
90
0
40
-0.6
41
-30.0
62
5
63
7
74
1
91
4
64
7
65
257
75
1
175
1
42
1.0
92
8
66
7
43
1.0
76
1
77
6
78
2
67
7
79
5
170
0
171
0
290
0
174
0
93
1
44
0.0
173
0
291
1
45
0.0
1001
ACAD
1000
AcDbSavedByObjectVersion
1070
0
0
VISUALSTYLE
5
F94
102
{ACAD_XDICTIONARY
360
1080
102
}
102
{ACAD_REACTORS
330
F93
102
}
330
F93
100
AcDbVisualStyle
2

70
0
71
2
72
1
73
1
90
2
40
-0.6
41
30.0
62
5
63
7
74
0
91
4
64
7
65
257
75
1
175
1
42
1.0
92
8
66
7
43
1.0
76
1
77
6
78
2
67
7
79
5
170
0
171
0
290
0
174
0
93
13
44
0.0
173
0
291
1
45
0.0
1001
ACAD
1000
AcDbSavedByObjectVersion
1070
0
0
VISUALSTYLE
5
F95
102
{ACAD_XDICTIONARY
360
1082
102
}
102
{ACAD_REACTORS
330
F93
102
}
330
F93
100
AcDbVisualStyle
2

70
1
71
2
72
1
73
1
90
2
40
-0.6
41
30.0
62
5
63
7
74
1
91
4
64
7
65
257
75
1
175
1
42
1.0
92
0
66
257
43
1.0
76
1
77
6
78
2
67
7
79
5
170
0
171
0
290
0
174
0
93
13
44
0.0
173
0
291
1
45
0.0
1001
ACAD
1000
AcDbSavedByObjectVersion
1070
0
0
VISUALSTYLE
5
F96
102
{ACAD_XDICTIONARY
360
1084
102
}
102
{ACAD_REACTORS
330
F93
102
}
330
F93
100
AcDbVisualStyle
2

70
2
71
2
72
2
73
1
90
2
40
-0.6
41
30.0
62
5
63
7
74
0
91
4
64
7
65
257
75
1
175
1
42
1.0
92
0
66
7
43
1.0
76
1
77
6
78
2
67
7
79
5
170
0
171
0
290
0
174
0
93
13
44
0.0
173
0
291
1
45
0.0
1001
ACAD
1000
AcDbSavedByObjectVersion
1070
0
0
VISUALSTYLE
5
F97
102
{ACAD_XDICTIONARY
360
1086
102
}
102
{ACAD_REACTORS
330
F93
102
}
330
F93
100
AcDbVisualStyle
2

70
3
71
2
72
2
73
1
90
2
40
-0.6
41
30.0
62
5
63
7
74
1
91
4
64
7
65
257
75
1
175
1
42
1.0
92
0
66
257
43
1.0
76
1
77
6
78
2
67
7
79
5
170
0
171
0
290
0
174
0
93
13
44
0.0
173
0
291
1
45
0.0
1001
ACAD
1000
AcDbSavedByObjectVersion
1070
0
0
VISUALSTYLE
5
FA4
102
{ACAD_XDICTIONARY
360
10A0
102
}
102
{ACAD_REACTORS
330
F93
102
}
330
F93
100
AcDbVisualStyle
2

70
20
71
2
72
2
73
0
90
0
40
-0.6
41
-30.0
62
5
63
7
74
1
91
4
64
7
65
257
75
1
175
1
42
1.0
92
10
66
7
43
1.0
76
1
77
6
78
2
67
7
79
5
170
0
171
0
290
0
174
0
93
1
44
0.0
173
0
291
1
45
0.0
1001
ACAD
1000
AcDbSavedByObjectVersion
1070
0
0
VISUALSTYLE
5
FA1
102
{ACAD_XDICTIONARY
360
109A
102
}
102
{ACAD_REACTORS
330
F93
102
}
330
F93
100
AcDbVisualStyle
2

70
14
71
2
72
2
73
0
90
0
40
-0.6
41
-30.0
62
5
63
7
74
1
91
4
64
7
65
257
75
7
175
7
42
1.0
92
8
66
7
43
1.0
76
1
77
6
78
2
67
7
79
5
170
0
171
0
290
0
174
0
93
1
44
0.0
173
0
291
1
45
0.0
1001
ACAD
1000
AcDbSavedByObjectVersion
1070
0
0
VISUALSTYLE
5
FA5
102
{ACAD_XDICTIONARY
360
10A2
102
}
102
{ACAD_REACTORS
330
F93
102
}
330
F93
100
AcDbVisualStyle
2

70
21
71
2
72
2
73
0
90
0
40
-0.6
41
-30.0
62
5
63
7
74
1
91
4
64
7
65
257
75
1
175
1
42
1.0
92
9
66
7
43
1.0
76
1
77
6
78
2
67
7
79
5
170
0
171
0
290
0
174
0
93
1
44
0.0
173
0
291
1
45
0.0
1001
ACAD
1000
AcDbSavedByObjectVersion
1070
0
0
VISUALSTYLE
5
F9D
102
{ACAD_XDICTIONARY
360
1092
102
}
102
{ACAD_REACTORS
330
F93
102
}
330
F93
100
AcDbVisualStyle
2

70
8
71
2
72
2
73
0
90
0
40
-0.6
41
-30.0
62
5
63
7
74
1
91
0
64
7
65
257
75
1
175
1
42
1.0
92
8
66
8
43
1.0
76
1
77
6
78
2
67
7
79
5
170
0
171
0
290
0
174
0
93
13
44
0.0
173
0
291
0
45
0.0
1001
ACAD
1000
AcDbSavedByObjectVersion
1070
0
0
VISUALSTYLE
5
FA0
102
{ACAD_XDICTIONARY
360
1098
102
}
102
{ACAD_REACTORS
330
F93
102
}
330
F93
100
AcDbVisualStyle
2

70
13
71
2
72
2
73
0
90
0
40
-0.6
41
-30.0
62
5
63
7
74
1
91
4
64
7
65
257
75
1
175
1
42
1.0
92
12
66
7
43
1.0
76
1
77
6
78
2
67
7
79
5
170
0
171
0
290
0
174
0
93
1
44
0.0
173
0
291
1
45
0.0
1001
ACAD
1000
AcDbSavedByObjectVersion
1070
0
0
DICTIONARYVAR
5
FF3
102
{ACAD_REACTORS
330
FF0
102
}
330
FF0
100
DictionaryVariables
280
0
1
1:1
0
DICTIONARYVAR
5
FF2
102
{ACAD_REACTORS
330
FF0
102
}
330
FF0
100
DictionaryVariables
280
0
1
STANDARD
0
DICTIONARYVAR
5
FF1
102
{ACAD_REACTORS
330
FF0
102
}
330
FF0
100
DictionaryVariables
280
0
1
STANDARD
0
DICTIONARYVAR
5
FF6
102
{ACAD_REACTORS
330
FF0
102
}
330
FF0
100
DictionaryVariables
280
0
1
1
0
DICTIONARYVAR
5
FF5
102
{ACAD_REACTORS
330
FF0
102
}
330
FF0
100
DictionaryVariables
280
0
1
0
0
DICTIONARYVAR
5
FF4
102
{ACAD_REACTORS
330
FF0
102
}
330
FF0
100
DictionaryVariables
280
0
1
127
0
DICTIONARYVAR
5
1078
102
{ACAD_REACTORS
330
FF0
102
}
330
FF0
100
DictionaryVariables
280
0
1
2
0
DICTIONARY
5
10A9
330
FD1
100
AcDbDictionary
280
1
281
1
3
ACAD_XREC_ROUNDTRIP
360
10AA
0
DICTIONARY
5
10A7
330
FD0
100
AcDbDictionary
280
1
281
1
3
ACAD_XREC_ROUNDTRIP
360
10A8
0
DICTIONARY
5
F84
330
F83
100
AcDbDictionary
280
1
281
1
3
ACAD_XREC_ROUNDTRIP
360
FFF
3
BUMPTILE
360
F86
3
DIFFUSETILE
360
F85
3
OPACITYTILE
360
F89
3
REFLECTIONTILE
360
F88
3
REFRACTIONTILE
360
F8A
3
SPECULARTILE
360
F87
0
DICTIONARY
5
F7C
330
F7B
100
AcDbDictionary
280
1
281
1
3
ACAD_XREC_ROUNDTRIP
360
FFE
3
BUMPTILE
360
F7E
3
DIFFUSETILE
360
F7D
3
OPACITYTILE
360
F81
3
REFLECTIONTILE
360
F80
3
REFRACTIONTILE
360
F82
3
SPECULARTILE
360
F7F
0
DICTIONARY
5
F8C
330
F8B
100
AcDbDictionary
280
1
281
1
3
ACAD_XREC_ROUNDTRIP
360
1000
3
BUMPTILE
360
F8E
3
DIFFUSETILE
360
F8D
3
OPACITYTILE
360
F91
3
REFLECTIONTILE
360
F90
3
REFRACTIONTILE
360
F92
3
SPECULARTILE
360
F8F
0
DICTIONARY
5
FF8
330
FA9
100
AcDbDictionary
280
1
281
1
3
ACAD_ROUNDTRIP_2008_TABLESTYLE_CELLSTYLEMAP
360
1079
3
ACAD_XREC_ROUNDTRIP
360
10A6
0
DICTIONARY
5
108A
330
F99
100
AcDbDictionary
280
1
281
1
3
ACAD_XREC_ROUNDTRIP
360
108B
0
DICTIONARY
5
108E
330
F9B
100
AcDbDictionary
280
1
281
1
3
ACAD_XREC_ROUNDTRIP
360
108F
0
DICTIONARY
5
108C
330
F9A
100
AcDbDictionary
280
1
281
1
3
ACAD_XREC_ROUNDTRIP
360
108D
0
DICTIONARY
5
1088
330
F98
100
AcDbDictionary
280
1
281
1
3
ACAD_XREC_ROUNDTRIP
360
1089
0
DICTIONARY
5
1096
330
F9F
100
AcDbDictionary
280
1
281
1
3
ACAD_XREC_ROUNDTRIP
360
1097
0
DICTIONARY
5
109E
330
FA3
100
AcDbDictionary
280
1
281
1
3
ACAD_XREC_ROUNDTRIP
360
109F
0
DICTIONARY
5
1090
330
F9C
100
AcDbDictionary
280
1
281
1
3
ACAD_XREC_ROUNDTRIP
360
1091
0
DICTIONARY
5
1094
330
F9E
100
AcDbDictionary
280
1
281
1
3
ACAD_XREC_ROUNDTRIP
360
1095
0
DICTIONARY
5
10A4
330
FA6
100
AcDbDictionary
280
1
281
1
3
ACAD_XREC_ROUNDTRIP
360
10A5
0
DICTIONARY
5
109C
330
FA2
100
AcDbDictionary
280
1
281
1
3
ACAD_XREC_ROUNDTRIP
360
109D
0
DICTIONARY
5
1080
330
F94
100
AcDbDictionary
280
1
281
1
3
ACAD_XREC_ROUNDTRIP
360
1081
0
DICTIONARY
5
1082
330
F95
100
AcDbDictionary
280
1
281
1
3
ACAD_XREC_ROUNDTRIP
360
1083
0
DICTIONARY
5
1084
330
F96
100
AcDbDictionary
280
1
281
1
3
ACAD_XREC_ROUNDTRIP
360
1085
0
DICTIONARY
5
1086
330
F97
100
AcDbDictionary
280
1
281
1
3
ACAD_XREC_ROUNDTRIP
360
1087
0
DICTIONARY
5
10A0
330
FA4
100
AcDbDictionary
280
1
281
1
3
ACAD_XREC_ROUNDTRIP
360
10A1
0
DICTIONARY
5
109A
330
FA1
100
AcDbDictionary
280
1
281
1
3
ACAD_XREC_ROUNDTRIP
360
109B
0
DICTIONARY
5
10A2
330
FA5
100
AcDbDictionary
280
1
281
1
3
ACAD_XREC_ROUNDTRIP
360
10A3
0
DICTIONARY
5
1092
330
F9D
100
AcDbDictionary
280
1
281
1
3
ACAD_XREC_ROUNDTRIP
360
1093
0
DICTIONARY
5
1098
330
FA0
100
AcDbDictionary
280
1
281
1
3
ACAD_XREC_ROUNDTRIP
360
1099
0
XRECORD
5
10AA
102
{ACAD_REACTORS
330
10A9
102
}
330
10A9
100
AcDbXrecord
280
1
102
SHADEPLOT
70
0
102
SHADEPLOTRESLEVEL
70
2
102
SHADEPLOTCUSTOMDPI
70
300
0
XRECORD
5
10A8
102
{ACAD_REACTORS
330
10A7
102
}
330
10A7
100
AcDbXrecord
280
1
102
SHADEPLOT
70
0
102
SHADEPLOTRESLEVEL
70
2
102
SHADEPLOTCUSTOMDPI
70
300
0
XRECORD
5
FFF
102
{ACAD_REACTORS
330
F84
102
}
330
F84
100
AcDbXrecord
280
1
102
MATERIAL
148
0.0
149
0.0
149
0.0
93
0
94
127
282
0
72
0
77
0
171
0
175
0
179
0
273
0
0
XRECORD
5
F86
102
{ACAD_REACTORS
330
F84
102
}
330
F84
100
AcDbXrecord
280
1
270
1
271
1
0
XRECORD
5
F85
102
{ACAD_REACTORS
330
F84
102
}
330
F84
100
AcDbXrecord
280
1
270
1
271
1
0
XRECORD
5
F89
102
{ACAD_REACTORS
330
F84
102
}
330
F84
100
AcDbXrecord
280
1
270
1
271
1
0
XRECORD
5
F88
102
{ACAD_REACTORS
330
F84
102
}
330
F84
100
AcDbXrecord
280
1
270
1
271
1
0
XRECORD
5
F8A
102
{ACAD_REACTORS
330
F84
102
}
330
F84
100
AcDbXrecord
280
1
270
1
271
1
0
XRECORD
5
F87
102
{ACAD_REACTORS
330
F84
102
}
330
F84
100
AcDbXrecord
280
1
270
1
271
1
0
XRECORD
5
FFE
102
{ACAD_REACTORS
330
F7C
102
}
330
F7C
100
AcDbXrecord
280
1
102
MATERIAL
148
0.0
149
0.0
149
0.0
93
0
94
127
282
0
72
0
77
0
171
0
175
0
179
0
273
0
0
XRECORD
5
F7E
102
{ACAD_REACTORS
330
F7C
102
}
330
F7C
100
AcDbXrecord
280
1
270
1
271
1
0
XRECORD
5
F7D
102
{ACAD_REACTORS
330
F7C
102
}
330
F7C
100
AcDbXrecord
280
1
270
1
271
1
0
XRECORD
5
F81
102
{ACAD_REACTORS
330
F7C
102
}
330
F7C
100
AcDbXrecord
280
1
270
1
271
1
0
XRECORD
5
F80
102
{ACAD_REACTORS
330
F7C
102
}
330
F7C
100
AcDbXrecord
280
1
270
1
271
1
0
XRECORD
5
F82
102
{ACAD_REACTORS
330
F7C
102
}
330
F7C
100
AcDbXrecord
280
1
270
1
271
1
0
XRECORD
5
F7F
102
{ACAD_REACTORS
330
F7C
102
}
330
F7C
100
AcDbXrecord
280
1
270
1
271
1
0
XRECORD
5
1000
102
{ACAD_REACTORS
330
F8C
102
}
330
F8C
100
AcDbXrecord
280
1
102
MATERIAL
148
0.0
149
0.0
149
0.0
93
0
94
127
282
0
72
0
77
0
171
0
175
0
179
0
273
0
0
XRECORD
5
F8E
102
{ACAD_REACTORS
330
F8C
102
}
330
F8C
100
AcDbXrecord
280
1
270
1
271
1
0
XRECORD
5
F8D
102
{ACAD_REACTORS
330
F8C
102
}
330
F8C
100
AcDbXrecord
280
1
270
1
271
1
0
XRECORD
5
F91
102
{ACAD_REACTORS
330
F8C
102
}
330
F8C
100
AcDbXrecord
280
1
270
1
271
1
0
XRECORD
5
F90
102
{ACAD_REACTORS
330
F8C
102
}
330
F8C
100
AcDbXrecord
280
1
270
1
271
1
0
XRECORD
5
F92
102
{ACAD_REACTORS
330
F8C
102
}
330
F8C
100
AcDbXrecord
280
1
270
1
271
1
0
XRECORD
5
F8F
102
{ACAD_REACTORS
330
F8C
102
}
330
F8C
100
AcDbXrecord
280
1
270
1
271
1
0
CELLSTYLEMAP
5
1079
102
{ACAD_REACTORS
330
FF8
102
}
330
FF8
100
AcDbCellStyleMap
90
3
300
CELLSTYLE
1
TABLEFORMAT_BEGIN
90
5
170
1
91
0
92
32768
62
257
93
1
300
CONTENTFORMAT
1
CONTENTFORMAT_BEGIN
90
0
91
0
92
512
93
0
300

40
0.0
140
1.0
94
5
62
0
340
253
144
0.25
309
CONTENTFORMAT_END
171
1
301
MARGIN
1
CELLMARGIN_BEGIN
40
0.06
40
0.06
40
0.06
40
0.06
40
0.18
40
0.18
309
CELLMARGIN_END
94
6
95
1
302
GRIDFORMAT
1
GRIDFORMAT_BEGIN
90
0
91
1
62
0
92
-2
340
0
93
0
40
0.045
309
GRIDFORMAT_END
95
2
302
GRIDFORMAT
1
GRIDFORMAT_BEGIN
90
0
91
1
62
0
92
-2
340
0
93
0
40
0.045
309
GRIDFORMAT_END
95
4
302
GRIDFORMAT
1
GRIDFORMAT_BEGIN
90
0
91
1
62
0
92
-2
340
0
93
0
40
0.045
309
GRIDFORMAT_END
95
8
302
GRIDFORMAT
1
GRIDFORMAT_BEGIN
90
0
91
1
62
0
92
-2
340
0
93
0
40
0.045
309
GRIDFORMAT_END
95
16
302
GRIDFORMAT
1
GRIDFORMAT_BEGIN
90
0
91
1
62
0
92
-2
340
0
93
0
40
0.045
309
GRIDFORMAT_END
95
32
302
GRIDFORMAT
1
GRIDFORMAT_BEGIN
90
0
91
1
62
0
92
-2
340
0
93
0
40
0.045
309
GRIDFORMAT_END
309
TABLEFORMAT_END
1
CELLSTYLE_BEGIN
90
1
91
1
300
_TITLE
309
CELLSTYLE_END
300
CELLSTYLE
1
TABLEFORMAT_BEGIN
90
5
170
1
91
0
92
0
62
257
93
1
300
CONTENTFORMAT
1
CONTENTFORMAT_BEGIN
90
0
91
0
92
512
93
0
300

40
0.0
140
1.0
94
5
62
0
340
253
144
0.18
309
CONTENTFORMAT_END
171
1
301
MARGIN
1
CELLMARGIN_BEGIN
40
0.06
40
0.06
40
0.06
40
0.06
40
0.18
40
0.18
309
CELLMARGIN_END
94
6
95
1
302
GRIDFORMAT
1
GRIDFORMAT_BEGIN
90
0
91
1
62
0
92
-2
340
0
93
0
40
0.045
309
GRIDFORMAT_END
95
2
302
GRIDFORMAT
1
GRIDFORMAT_BEGIN
90
0
91
1
62
0
92
-2
340
0
93
0
40
0.045
309
GRIDFORMAT_END
95
4
302
GRIDFORMAT
1
GRIDFORMAT_BEGIN
90
0
91
1
62
0
92
-2
340
0
93
0
40
0.045
309
GRIDFORMAT_END
95
8
302
GRIDFORMAT
1
GRIDFORMAT_BEGIN
90
0
91
1
62
0
92
-2
340
0
93
0
40
0.045
309
GRIDFORMAT_END
95
16
302
GRIDFORMAT
1
GRIDFORMAT_BEGIN
90
0
91
1
62
0
92
-2
340
0
93
0
40
0.045
309
GRIDFORMAT_END
95
32
302
GRIDFORMAT
1
GRIDFORMAT_BEGIN
90
0
91
1
62
0
92
-2
340
0
93
0
40
0.045
309
GRIDFORMAT_END
309
TABLEFORMAT_END
1
CELLSTYLE_BEGIN
90
2
91
1
300
_HEADER
309
CELLSTYLE_END
300
CELLSTYLE
1
TABLEFORMAT_BEGIN
90
5
170
1
91
0
92
0
62
257
93
1
300
CONTENTFORMAT
1
CONTENTFORMAT_BEGIN
90
0
91
0
92
512
93
0
300

40
0.0
140
1.0
94
2
62
0
340
253
144
0.18
309
CONTENTFORMAT_END
171
1
301
MARGIN
1
CELLMARGIN_BEGIN
40
0.06
40
0.06
40
0.06
40
0.06
40
0.18
40
0.18
309
CELLMARGIN_END
94
6
95
1
302
GRIDFORMAT
1
GRIDFORMAT_BEGIN
90
0
91
1
62
0
92
-2
340
0
93
0
40
0.045
309
GRIDFORMAT_END
95
2
302
GRIDFORMAT
1
GRIDFORMAT_BEGIN
90
0
91
1
62
0
92
-2
340
0
93
0
40
0.045
309
GRIDFORMAT_END
95
4
302
GRIDFORMAT
1
GRIDFORMAT_BEGIN
90
0
91
1
62
0
92
-2
340
0
93
0
40
0.045
309
GRIDFORMAT_END
95
8
302
GRIDFORMAT
1
GRIDFORMAT_BEGIN
90
0
91
1
62
0
92
-2
340
0
93
0
40
0.045
309
GRIDFORMAT_END
95
16
302
GRIDFORMAT
1
GRIDFORMAT_BEGIN
90
0
91
1
62
0
92
-2
340
0
93
0
40
0.045
309
GRIDFORMAT_END
95
32
302
GRIDFORMAT
1
GRIDFORMAT_BEGIN
90
0
91
1
62
0
92
-2
340
0
93
0
40
0.045
309
GRIDFORMAT_END
309
TABLEFORMAT_END
1
CELLSTYLE_BEGIN
90
3
91
2
300
_DATA
309
CELLSTYLE_END
0
XRECORD
5
10A6
102
{ACAD_REACTORS
330
FF8
102
}
330
FF8
100
AcDbXrecord
280
1
102
ACAD_ROUNDTRIP_PRE2007_TABLESTYLE
90
512
91
0
1

92
512
93
0
2

94
512
95
0
3

0
XRECORD
5
108B
102
{ACAD_REACTORS
330
108A
102
}
330
108A
100
AcDbXrecord
280
1
102
RTVSPropertyOp0
70
1
102
RTVSPropertyOp1
70
1
102
RTVSPropertyOp2
70
1
102
RTVSPropertyOp3
70
1
102
RTVSPropertyOp4
70
1
102
RTVSPropertyOp5
70
1
102
RTVSPropertyOp6
70
1
102
RTVSPropertyOp7
70
1
102
RTVSPropertyOp8
70
1
102
RTVSPropertyOp9
70
1
102
RTVSPropertyOp10
70
1
102
RTVSPropertyOp11
70
1
102
RTVSPropertyOp12
70
1
102
RTVSPropertyOp13
70
1
102
RTVSPropertyOp14
70
1
102
RTVSPropertyOp15
70
1
102
RTVSPropertyOp16
70
1
102
RTVSPropertyOp17
70
1
102
RTVSPropertyOp18
70
1
102
RTVSPropertyOp19
70
1
102
RTVSPropertyOp20
70
1
102
RTVSPropertyOp21
70
1
102
RTVSPropertyOp22
70
1
102
RTVSPropertyOp23
70
1
102
RTVSPropertyOp24
70
1
102
RTVSPropertyOp25
70
1
102
RTVSPropertyOp26
70
1
102
RTVSPropertyOp27
70
1
0
XRECORD
5
108F
102
{ACAD_REACTORS
330
108E
102
}
330
108E
100
AcDbXrecord
280
1
102
RTVSPropertyOp0
70
1
102
RTVSPropertyOp1
70
1
102
RTVSPropertyOp2
70
1
102
RTVSPropertyOp3
70
1
102
RTVSPropertyOp4
70
1
102
RTVSPropertyOp5
70
1
102
RTVSPropertyOp6
70
1
102
RTVSPropertyOp7
70
1
102
RTVSPropertyOp8
70
1
102
RTVSPropertyOp9
70
1
102
RTVSPropertyOp10
70
1
102
RTVSPropertyOp11
70
1
102
RTVSPropertyOp12
70
1
102
RTVSPropertyOp13
70
1
102
RTVSPropertyOp14
70
1
102
RTVSPropertyOp15
70
1
102
RTVSPropertyOp16
70
1
102
RTVSPropertyOp17
70
1
102
RTVSPropertyOp18
70
1
102
RTVSPropertyOp19
70
1
102
RTVSPropertyOp20
70
1
102
RTVSPropertyOp21
70
1
102
RTVSPropertyOp22
70
1
102
RTVSPropertyOp23
70
1
102
RTVSPropertyOp24
70
1
102
RTVSPropertyOp25
70
1
102
RTVSPropertyOp26
70
1
102
RTVSPropertyOp27
70
1
0
XRECORD
5
108D
102
{ACAD_REACTORS
330
108C
102
}
330
108C
100
AcDbXrecord
280
1
102
RTVSPropertyOp0
70
1
102
RTVSPropertyOp1
70
1
102
RTVSPropertyOp2
70
1
102
RTVSPropertyOp3
70
1
102
RTVSPropertyOp4
70
1
102
RTVSPropertyOp5
70
1
102
RTVSPropertyOp6
70
1
102
RTVSPropertyOp7
70
1
102
RTVSPropertyOp8
70
1
102
RTVSPropertyOp9
70
1
102
RTVSPropertyOp10
70
1
102
RTVSPropertyOp11
70
1
102
RTVSPropertyOp12
70
1
102
RTVSPropertyOp13
70
1
102
RTVSPropertyOp14
70
1
102
RTVSPropertyOp15
70
1
102
RTVSPropertyOp16
70
1
102
RTVSPropertyOp17
70
1
102
RTVSPropertyOp18
70
1
102
RTVSPropertyOp19
70
1
102
RTVSPropertyOp20
70
1
102
RTVSPropertyOp21
70
1
102
RTVSPropertyOp22
70
1
102
RTVSPropertyOp23
70
1
102
RTVSPropertyOp24
70
1
102
RTVSPropertyOp25
70
1
102
RTVSPropertyOp26
70
1
102
RTVSPropertyOp27
70
1
0
XRECORD
5
1089
102
{ACAD_REACTORS
330
1088
102
}
330
1088
100
AcDbXrecord
280
1
102
RTVSPropertyOp0
70
1
102
RTVSPropertyOp1
70
1
102
RTVSPropertyOp2
70
1
102
RTVSPropertyOp3
70
1
102
RTVSPropertyOp4
70
1
102
RTVSPropertyOp5
70
1
102
RTVSPropertyOp6
70
1
102
RTVSPropertyOp7
70
1
102
RTVSPropertyOp8
70
1
102
RTVSPropertyOp9
70
1
102
RTVSPropertyOp10
70
1
102
RTVSPropertyOp11
70
1
102
RTVSPropertyOp12
70
1
102
RTVSPropertyOp13
70
1
102
RTVSPropertyOp14
70
1
102
RTVSPropertyOp15
70
1
102
RTVSPropertyOp16
70
1
102
RTVSPropertyOp17
70
1
102
RTVSPropertyOp18
70
1
102
RTVSPropertyOp19
70
1
102
RTVSPropertyOp20
70
1
102
RTVSPropertyOp21
70
1
102
RTVSPropertyOp22
70
1
102
RTVSPropertyOp23
70
1
102
RTVSPropertyOp24
70
1
102
RTVSPropertyOp25
70
1
102
RTVSPropertyOp26
70
1
102
RTVSPropertyOp27
70
1
0
XRECORD
5
1097
102
{ACAD_REACTORS
330
1096
102
}
330
1096
100
AcDbXrecord
280
1
102
RTVSPropertyOp0
70
1
102
RTVSPropertyOp1
70
1
102
RTVSPropertyOp2
70
1
102
RTVSPropertyOp3
70
1
102
RTVSPropertyOp4
70
1
102
RTVSPropertyOp5
70
1
102
RTVSPropertyOp6
70
1
102
RTVSPropertyOp7
70
1
102
RTVSPropertyOp8
70
1
102
RTVSPropertyOp9
70
1
102
RTVSPropertyOp10
70
1
102
RTVSPropertyOp11
70
1
102
RTVSPropertyOp12
70
1
102
RTVSPropertyOp13
70
1
102
RTVSPropertyOp14
70
1
102
RTVSPropertyOp15
70
1
102
RTVSPropertyOp16
70
1
102
RTVSPropertyOp17
70
1
102
RTVSPropertyOp18
70
1
102
RTVSPropertyOp19
70
1
102
RTVSPropertyOp20
70
1
102
RTVSPropertyOp21
70
1
102
RTVSPropertyOp22
70
1
102
RTVSPropertyOp23
70
1
102
RTVSPropertyOp24
70
1
102
RTVSPropertyOp25
70
1
102
RTVSPropertyOp26
70
1
102
RTVSPropertyOp27
70
1
0
XRECORD
5
109F
102
{ACAD_REACTORS
330
109E
102
}
330
109E
100
AcDbXrecord
280
1
102
RTVSPropertyOp0
70
1
102
RTVSPropertyOp1
70
1
102
RTVSPropertyOp2
70
1
102
RTVSPropertyOp3
70
1
102
RTVSPropertyOp4
70
1
102
RTVSPropertyOp5
70
1
102
RTVSPropertyOp6
70
1
102
RTVSPropertyOp7
70
1
102
RTVSPropertyOp8
70
1
102
RTVSPropertyOp9
70
1
102
RTVSPropertyOp10
70
1
102
RTVSPropertyOp11
70
1
102
RTVSPropertyOp12
70
1
102
RTVSPropertyOp13
70
1
102
RTVSPropertyOp14
70
1
102
RTVSPropertyOp15
70
1
102
RTVSPropertyOp16
70
1
102
RTVSPropertyOp17
70
1
102
RTVSPropertyOp18
70
1
102
RTVSPropertyOp19
70
1
102
RTVSPropertyOp20
70
1
102
RTVSPropertyOp21
70
1
102
RTVSPropertyOp22
70
1
102
RTVSPropertyOp23
70
1
102
RTVSPropertyOp24
70
1
102
RTVSPropertyOp25
70
1
102
RTVSPropertyOp26
70
1
102
RTVSPropertyOp27
70
1
0
XRECORD
5
1091
102
{ACAD_REACTORS
330
1090
102
}
330
1090
100
AcDbXrecord
280
1
102
RTVSPropertyOp0
70
1
102
RTVSPropertyOp1
70
1
102
RTVSPropertyOp2
70
1
102
RTVSPropertyOp3
70
1
102
RTVSPropertyOp4
70
1
102
RTVSPropertyOp5
70
1
102
RTVSPropertyOp6
70
1
102
RTVSPropertyOp7
70
1
102
RTVSPropertyOp8
70
1
102
RTVSPropertyOp9
70
1
102
RTVSPropertyOp10
70
1
102
RTVSPropertyOp11
70
1
102
RTVSPropertyOp12
70
1
102
RTVSPropertyOp13
70
1
102
RTVSPropertyOp14
70
1
102
RTVSPropertyOp15
70
1
102
RTVSPropertyOp16
70
1
102
RTVSPropertyOp17
70
1
102
RTVSPropertyOp18
70
1
102
RTVSPropertyOp19
70
1
102
RTVSPropertyOp20
70
1
102
RTVSPropertyOp21
70
1
102
RTVSPropertyOp22
70
1
102
RTVSPropertyOp23
70
1
102
RTVSPropertyOp24
70
1
102
RTVSPropertyOp25
70
1
102
RTVSPropertyOp26
70
1
102
RTVSPropertyOp27
70
1
0
XRECORD
5
1095
102
{ACAD_REACTORS
330
1094
102
}
330
1094
100
AcDbXrecord
280
1
102
RTVSPropertyOp0
70
1
102
RTVSPropertyOp1
70
1
102
RTVSPropertyOp2
70
1
102
RTVSPropertyOp3
70
1
102
RTVSPropertyOp4
70
1
102
RTVSPropertyOp5
70
1
102
RTVSPropertyOp6
70
1
102
RTVSPropertyOp7
70
1
102
RTVSPropertyOp8
70
1
102
RTVSPropertyOp9
70
1
102
RTVSPropertyOp10
70
1
102
RTVSPropertyOp11
70
1
102
RTVSPropertyOp12
70
1
102
RTVSPropertyOp13
70
1
102
RTVSPropertyOp14
70
1
102
RTVSPropertyOp15
70
1
102
RTVSPropertyOp16
70
1
102
RTVSPropertyOp17
70
1
102
RTVSPropertyOp18
70
1
102
RTVSPropertyOp19
70
1
102
RTVSPropertyOp20
70
1
102
RTVSPropertyOp21
70
1
102
RTVSPropertyOp22
70
1
102
RTVSPropertyOp23
70
1
102
RTVSPropertyOp24
70
1
102
RTVSPropertyOp25
70
1
102
RTVSPropertyOp26
70
1
102
RTVSPropertyOp27
70
1
0
XRECORD
5
10A5
102
{ACAD_REACTORS
330
10A4
102
}
330
10A4
100
AcDbXrecord
280
1
102
RTVSPropertyOp0
70
0
102
RTVSPropertyOp1
70
0
102
RTVSPropertyOp2
70
0
102
RTVSPropertyOp3
70
0
102
RTVSPropertyOp4
70
0
102
RTVSPropertyOp5
70
0
102
RTVSPropertyOp6
70
0
102
RTVSPropertyOp7
70
0
102
RTVSPropertyOp8
70
0
102
RTVSPropertyOp9
70
0
102
RTVSPropertyOp10
70
0
102
RTVSPropertyOp11
70
0
102
RTVSPropertyOp12
70
0
102
RTVSPropertyOp13
70
0
102
RTVSPropertyOp14
70
2
102
RTVSPropertyOp15
70
0
102
RTVSPropertyOp16
70
0
102
RTVSPropertyOp17
70
0
102
RTVSPropertyOp18
70
0
102
RTVSPropertyOp19
70
0
102
RTVSPropertyOp20
70
0
102
RTVSPropertyOp21
70
0
102
RTVSPropertyOp22
70
0
102
RTVSPropertyOp23
70
0
102
RTVSPropertyOp24
70
0
102
RTVSPropertyOp25
70
0
102
RTVSPropertyOp26
70
0
102
RTVSPropertyOp27
70
0
0
XRECORD
5
109D
102
{ACAD_REACTORS
330
109C
102
}
330
109C
100
AcDbXrecord
280
1
102
RTVSPropertyOp0
70
1
102
RTVSPropertyOp1
70
1
102
RTVSPropertyOp2
70
1
102
RTVSPropertyOp3
70
1
102
RTVSPropertyOp4
70
1
102
RTVSPropertyOp5
70
1
102
RTVSPropertyOp6
70
1
102
RTVSPropertyOp7
70
1
102
RTVSPropertyOp8
70
1
102
RTVSPropertyOp9
70
1
102
RTVSPropertyOp10
70
1
102
RTVSPropertyOp11
70
1
102
RTVSPropertyOp12
70
1
102
RTVSPropertyOp13
70
1
102
RTVSPropertyOp14
70
1
102
RTVSPropertyOp15
70
1
102
RTVSPropertyOp16
70
1
102
RTVSPropertyOp17
70
1
102
RTVSPropertyOp18
70
1
102
RTVSPropertyOp19
70
1
102
RTVSPropertyOp20
70
1
102
RTVSPropertyOp21
70
1
102
RTVSPropertyOp22
70
1
102
RTVSPropertyOp23
70
1
102
RTVSPropertyOp24
70
1
102
RTVSPropertyOp25
70
1
102
RTVSPropertyOp26
70
1
102
RTVSPropertyOp27
70
1
0
XRECORD
5
1081
102
{ACAD_REACTORS
330
1080
102
}
330
1080
100
AcDbXrecord
280
1
102
RTVSPropertyOp0
70
1
102
RTVSPropertyOp1
70
1
102
RTVSPropertyOp2
70
1
102
RTVSPropertyOp3
70
1
102
RTVSPropertyOp4
70
1
102
RTVSPropertyOp5
70
1
102
RTVSPropertyOp6
70
1
102
RTVSPropertyOp7
70
1
102
RTVSPropertyOp8
70
1
102
RTVSPropertyOp9
70
1
102
RTVSPropertyOp10
70
1
102
RTVSPropertyOp11
70
1
102
RTVSPropertyOp12
70
1
102
RTVSPropertyOp13
70
1
102
RTVSPropertyOp14
70
1
102
RTVSPropertyOp15
70
1
102
RTVSPropertyOp16
70
1
102
RTVSPropertyOp17
70
1
102
RTVSPropertyOp18
70
1
102
RTVSPropertyOp19
70
1
102
RTVSPropertyOp20
70
1
102
RTVSPropertyOp21
70
1
102
RTVSPropertyOp22
70
1
102
RTVSPropertyOp23
70
1
102
RTVSPropertyOp24
70
1
102
RTVSPropertyOp25
70
1
102
RTVSPropertyOp26
70
1
102
RTVSPropertyOp27
70
1
0
XRECORD
5
1083
102
{ACAD_REACTORS
330
1082
102
}
330
1082
100
AcDbXrecord
280
1
102
RTVSPropertyOp0
70
1
102
RTVSPropertyOp1
70
1
102
RTVSPropertyOp2
70
1
102
RTVSPropertyOp3
70
1
102
RTVSPropertyOp4
70
1
102
RTVSPropertyOp5
70
1
102
RTVSPropertyOp6
70
1
102
RTVSPropertyOp7
70
1
102
RTVSPropertyOp8
70
1
102
RTVSPropertyOp9
70
1
102
RTVSPropertyOp10
70
1
102
RTVSPropertyOp11
70
1
102
RTVSPropertyOp12
70
1
102
RTVSPropertyOp13
70
1
102
RTVSPropertyOp14
70
1
102
RTVSPropertyOp15
70
1
102
RTVSPropertyOp16
70
1
102
RTVSPropertyOp17
70
1
102
RTVSPropertyOp18
70
1
102
RTVSPropertyOp19
70
1
102
RTVSPropertyOp20
70
1
102
RTVSPropertyOp21
70
1
102
RTVSPropertyOp22
70
1
102
RTVSPropertyOp23
70
1
102
RTVSPropertyOp24
70
1
102
RTVSPropertyOp25
70
1
102
RTVSPropertyOp26
70
1
102
RTVSPropertyOp27
70
1
0
XRECORD
5
1085
102
{ACAD_REACTORS
330
1084
102
}
330
1084
100
AcDbXrecord
280
1
102
RTVSPropertyOp0
70
1
102
RTVSPropertyOp1
70
1
102
RTVSPropertyOp2
70
1
102
RTVSPropertyOp3
70
1
102
RTVSPropertyOp4
70
1
102
RTVSPropertyOp5
70
1
102
RTVSPropertyOp6
70
1
102
RTVSPropertyOp7
70
1
102
RTVSPropertyOp8
70
1
102
RTVSPropertyOp9
70
1
102
RTVSPropertyOp10
70
1
102
RTVSPropertyOp11
70
1
102
RTVSPropertyOp12
70
1
102
RTVSPropertyOp13
70
1
102
RTVSPropertyOp14
70
1
102
RTVSPropertyOp15
70
1
102
RTVSPropertyOp16
70
1
102
RTVSPropertyOp17
70
1
102
RTVSPropertyOp18
70
1
102
RTVSPropertyOp19
70
1
102
RTVSPropertyOp20
70
1
102
RTVSPropertyOp21
70
1
102
RTVSPropertyOp22
70
1
102
RTVSPropertyOp23
70
1
102
RTVSPropertyOp24
70
1
102
RTVSPropertyOp25
70
1
102
RTVSPropertyOp26
70
1
102
RTVSPropertyOp27
70
1
0
XRECORD
5
1087
102
{ACAD_REACTORS
330
1086
102
}
330
1086
100
AcDbXrecord
280
1
102
RTVSPropertyOp0
70
1
102
RTVSPropertyOp1
70
1
102
RTVSPropertyOp2
70
1
102
RTVSPropertyOp3
70
1
102
RTVSPropertyOp4
70
1
102
RTVSPropertyOp5
70
1
102
RTVSPropertyOp6
70
1
102
RTVSPropertyOp7
70
1
102
RTVSPropertyOp8
70
1
102
RTVSPropertyOp9
70
1
102
RTVSPropertyOp10
70
1
102
RTVSPropertyOp11
70
1
102
RTVSPropertyOp12
70
1
102
RTVSPropertyOp13
70
1
102
RTVSPropertyOp14
70
1
102
RTVSPropertyOp15
70
1
102
RTVSPropertyOp16
70
1
102
RTVSPropertyOp17
70
1
102
RTVSPropertyOp18
70
1
102
RTVSPropertyOp19
70
1
102
RTVSPropertyOp20
70
1
102
RTVSPropertyOp21
70
1
102
RTVSPropertyOp22
70
1
102
RTVSPropertyOp23
70
1
102
RTVSPropertyOp24
70
1
102
RTVSPropertyOp25
70
1
102
RTVSPropertyOp26
70
1
102
RTVSPropertyOp27
70
1
0
XRECORD
5
10A1
102
{ACAD_REACTORS
330
10A0
102
}
330
10A0
100
AcDbXrecord
280
1
102
RTVSPropertyOp0
70
0
102
RTVSPropertyOp1
70
0
102
RTVSPropertyOp2
70
0
102
RTVSPropertyOp3
70
0
102
RTVSPropertyOp4
70
0
102
RTVSPropertyOp5
70
0
102
RTVSPropertyOp6
70
0
102
RTVSPropertyOp7
70
0
102
RTVSPropertyOp8
70
0
102
RTVSPropertyOp9
70
0
102
RTVSPropertyOp10
70
0
102
RTVSPropertyOp11
70
0
102
RTVSPropertyOp12
70
0
102
RTVSPropertyOp13
70
0
102
RTVSPropertyOp14
70
2
102
RTVSPropertyOp15
70
0
102
RTVSPropertyOp16
70
0
102
RTVSPropertyOp17
70
0
102
RTVSPropertyOp18
70
0
102
RTVSPropertyOp19
70
0
102
RTVSPropertyOp20
70
0
102
RTVSPropertyOp21
70
0
102
RTVSPropertyOp22
70
0
102
RTVSPropertyOp23
70
0
102
RTVSPropertyOp24
70
0
102
RTVSPropertyOp25
70
0
102
RTVSPropertyOp26
70
0
102
RTVSPropertyOp27
70
0
0
XRECORD
5
109B
102
{ACAD_REACTORS
330
109A
102
}
330
109A
100
AcDbXrecord
280
1
102
RTVSPropertyOp0
70
1
102
RTVSPropertyOp1
70
1
102
RTVSPropertyOp2
70
1
102
RTVSPropertyOp3
70
1
102
RTVSPropertyOp4
70
1
102
RTVSPropertyOp5
70
1
102
RTVSPropertyOp6
70
1
102
RTVSPropertyOp7
70
1
102
RTVSPropertyOp8
70
1
102
RTVSPropertyOp9
70
1
102
RTVSPropertyOp10
70
1
102
RTVSPropertyOp11
70
1
102
RTVSPropertyOp12
70
1
102
RTVSPropertyOp13
70
1
102
RTVSPropertyOp14
70
1
102
RTVSPropertyOp15
70
1
102
RTVSPropertyOp16
70
1
102
RTVSPropertyOp17
70
1
102
RTVSPropertyOp18
70
1
102
RTVSPropertyOp19
70
1
102
RTVSPropertyOp20
70
1
102
RTVSPropertyOp21
70
1
102
RTVSPropertyOp22
70
1
102
RTVSPropertyOp23
70
1
102
RTVSPropertyOp24
70
1
102
RTVSPropertyOp25
70
1
102
RTVSPropertyOp26
70
1
102
RTVSPropertyOp27
70
1
0
XRECORD
5
10A3
102
{ACAD_REACTORS
330
10A2
102
}
330
10A2
100
AcDbXrecord
280
1
102
RTVSPropertyOp0
70
0
102
RTVSPropertyOp1
70
0
102
RTVSPropertyOp2
70
0
102
RTVSPropertyOp3
70
0
102
RTVSPropertyOp4
70
0
102
RTVSPropertyOp5
70
0
102
RTVSPropertyOp6
70
0
102
RTVSPropertyOp7
70
0
102
RTVSPropertyOp8
70
0
102
RTVSPropertyOp9
70
0
102
RTVSPropertyOp10
70
0
102
RTVSPropertyOp11
70
0
102
RTVSPropertyOp12
70
0
102
RTVSPropertyOp13
70
0
102
RTVSPropertyOp14
70
2
102
RTVSPropertyOp15
70
0
102
RTVSPropertyOp16
70
0
102
RTVSPropertyOp17
70
0
102
RTVSPropertyOp18
70
0
102
RTVSPropertyOp19
70
0
102
RTVSPropertyOp20
70
0
102
RTVSPropertyOp21
70
0
102
RTVSPropertyOp22
70
0
102
RTVSPropertyOp23
70
0
102
RTVSPropertyOp24
70
0
102
RTVSPropertyOp25
70
0
102
RTVSPropertyOp26
70
0
102
RTVSPropertyOp27
70
0
0
XRECORD
5
1093
102
{ACAD_REACTORS
330
1092
102
}
330
1092
100
AcDbXrecord
280
1
102
RTVSPropertyOp0
70
1
102
RTVSPropertyOp1
70
1
102
RTVSPropertyOp2
70
1
102
RTVSPropertyOp3
70
1
102
RTVSPropertyOp4
70
1
102
RTVSPropertyOp5
70
1
102
RTVSPropertyOp6
70
1
102
RTVSPropertyOp7
70
1
102
RTVSPropertyOp8
70
1
102
RTVSPropertyOp9
70
1
102
RTVSPropertyOp10
70
1
102
RTVSPropertyOp11
70
1
102
RTVSPropertyOp12
70
1
102
RTVSPropertyOp13
70
1
102
RTVSPropertyOp14
70
1
102
RTVSPropertyOp15
70
1
102
RTVSPropertyOp16
70
1
102
RTVSPropertyOp17
70
1
102
RTVSPropertyOp18
70
1
102
RTVSPropertyOp19
70
1
102
RTVSPropertyOp20
70
1
102
RTVSPropertyOp21
70
1
102
RTVSPropertyOp22
70
1
102
RTVSPropertyOp23
70
1
102
RTVSPropertyOp24
70
1
102
RTVSPropertyOp25
70
1
102
RTVSPropertyOp26
70
1
102
RTVSPropertyOp27
70
1
0
XRECORD
5
1099
102
{ACAD_REACTORS
330
1098
102
}
330
1098
100
AcDbXrecord
280
1
102
RTVSPropertyOp0
70
1
102
RTVSPropertyOp1
70
1
102
RTVSPropertyOp2
70
1
102
RTVSPropertyOp3
70
1
102
RTVSPropertyOp4
70
1
102
RTVSPropertyOp5
70
1
102
RTVSPropertyOp6
70
1
102
RTVSPropertyOp7
70
1
102
RTVSPropertyOp8
70
1
102
RTVSPropertyOp9
70
1
102
RTVSPropertyOp10
70
1
102
RTVSPropertyOp11
70
1
102
RTVSPropertyOp12
70
1
102
RTVSPropertyOp13
70
1
102
RTVSPropertyOp14
70
1
102
RTVSPropertyOp15
70
1
102
RTVSPropertyOp16
70
1
102
RTVSPropertyOp17
70
1
102
RTVSPropertyOp18
70
1
102
RTVSPropertyOp19
70
1
102
RTVSPropertyOp20
70
1
102
RTVSPropertyOp21
70
1
102
RTVSPropertyOp22
70
1
102
RTVSPropertyOp23
70
1
102
RTVSPropertyOp24
70
1
102
RTVSPropertyOp25
70
1
102
RTVSPropertyOp26
70
1
102
RTVSPropertyOp27
70
1
0
ENDSEC
0
EOF
