0
SECTION
2
HEADER
9
$ACADVER
1
AC1015
9
$ACADMAINTVER
70
20
9
$DWGCODEPAGE
3
ANSI_1252
9
$INSBASE
10
0.0
20
0.0
30
0.0
9
$EXTMIN
10
-150.000000000000
20
-105.000000000000
30
0.0
9
$EXTMAX
10
150.000000000000
20
105.000000000000
30
0.0
9
$LIMMIN
10
0.0
20
0.0
9
$LIMMAX
10
12.0
20
9.0
9
$ORTHOMODE
70
0
9
$REGENMODE
70
1
9
$FILLMODE
70
1
9
$QTEXTMODE
70
0
9
$MIRRTEXT
70
1
9
$LTSCALE
40
1.0
9
$ATTMODE
70
1
9
$TEXTSIZE
40
0.2
9
$TRACEWID
40
0.05
9
$TEXTSTYLE
7
Standard
9
$CLAYER
8
0
9
$CELTYPE
6
ByLayer
9
$CECOLOR
62
256
9
$CELTSCALE
40
1.0
9
$DISPSILH
70
0
9
$DIMSCALE
40
1.0
9
$DIMASZ
40
2.5
9
$DIMEXO
40
0.625
9
$DIMDLI
40
0.38
9
$DIMRND
40
0.0
9
$DIMDLE
40
0.0
9
$DIMEXE
40
1.25
9
$DIMTP
40
0.0
9
$DIMTM
40
0.000000001
9
$DIMTXT
40
2.5
9
$DIMCEN
40
0.09
9
$DIMTSZ
40
0.0
9
$DIMTOL
70
1
9
$DIMLIM
70
0
9
$DIMTIH
70
0
9
$DIMTOH
70
0
9
$DIMSE1
70
0
9
$DIMSE2
70
0
9
$DIMTAD
70
1
9
$DIMZIN
70
0
9
$DIMBLK
1
VDDIM_DEFAULT
9
$DIMASO
70
1
9
$DIMSHO
70
1
9
$DIMPOST
1

9
$DIMAPOST
1

9
$DIMALT
70
0
9
$DIMALTD
70
2
9
$DIMALTF
40
25.4
9
$DIMLFAC
40
1.00000000000000
9
$DIMTOFL
70
0
9
$DIMTVP
40
0.0
9
$DIMTIX
70
0
9
$DIMSOXD
70
0
9
$DIMSAH
70
0
9
$DIMBLK1
1

9
$DIMBLK2
1

9
$DIMSTYLE
2
BEM-ISBE
9
$DIMCLRD
70
0
9
$DIMCLRE
70
0
9
$DIMCLRT
70
0
9
$DIMTFAC
40
0.5
9
$DIMGAP
40
0.625
9
$DIMJUST
70
0
9
$DIMSD1
70
0
9
$DIMSD2
70
0
9
$DIMTOLJ
70
1
9
$DIMTZIN
70
0
9
$DIMALTZ
70
0
9
$DIMALTTZ
70
0
9
$DIMUPT
70
0
9
$DIMDEC
70
3
9
$DIMTDEC
70
3
9
$DIMALTU
70
2
9
$DIMALTTD
70
2
9
$DIMTXSTY
7
Standard
9
$DIMAUNIT
70
0
9
$DIMADEC
70
3
9
$DIMALTRND
40
0.0
9
$DIMAZIN
70
0
9
$DIMDSEP
70
46
9
$DIMATFIT
70
3
9
$DIMFRAC
70
0
9
$DIMLDRBLK
1

9
$DIMLUNIT
70
2
9
$DIMLWD
70
-2
9
$DIMLWE
70
-2
9
$DIMTMOVE
70
0
9
$LUNITS
70
2
9
$LUPREC
70
4
9
$SKETCHINC
40
0.1
9
$FILLETRAD
40
0.5
9
$AUNITS
70
0
9
$AUPREC
70
0
9
$MENU
1
.
9
$ELEVATION
40
0.0
9
$PELEVATION
40
0.0
9
$THICKNESS
40
0.0
9
$LIMCHECK
70
0
9
$CHAMFERA
40
0.5
9
$CHAMFERB
40
0.5
9
$CHAMFERC
40
1.0
9
$CHAMFERD
40
0.0
9
$SKPOLY
70
0
9
$TDCREATE
40
0.0
9
$TDUCREATE
40
0.0
9
$TDUPDATE
40
0.0
9
$TDUUPDATE
40
0.0
9
$TDINDWG
40
0.0
9
$TDUSRTIMER
40
0.0
9
$USRTIMER
70
1
9
$ANGBASE
50
0.0
9
$ANGDIR
70
0
9
$PDMODE
70
0
9
$PDSIZE
40
0.0
9
$PLINEWID
40
0.0
9
$SPLFRAME
70
0
9
$SPLINETYPE
70
6
9
$SPLINESEGS
70
8
9
$HANDSEED
5
10AB
9
$SURFTAB1
70
6
9
$SURFTAB2
70
6
9
$SURFTYPE
70
6
9
$SURFU
70
6
9
$SURFV
70
6
9
$UCSBASE
2

9
$UCSNAME
2

9
$UCSORG
10
0.0
20
0.0
30
0.0
9
$UCSXDIR
10
1.0
20
0.0
30
0.0
9
$UCSYDIR
10
0.0
20
1.0
30
0.0
9
$UCSORTHOREF
2

9
$UCSORTHOVIEW
70
0
9
$UCSORGTOP
10
0.0
20
0.0
30
0.0
9
$UCSORGBOTTOM
10
0.0
20
0.0
30
0.0
9
$UCSORGLEFT
10
0.0
20
0.0
30
0.0
9
$UCSORGRIGHT
10
0.0
20
0.0
30
0.0
9
$UCSORGFRONT
10
0.0
20
0.0
30
0.0
9
$UCSORGBACK
10
0.0
20
0.0
30
0.0
9
$PUCSBASE
2

9
$PUCSNAME
2

9
$PUCSORG
10
0.0
20
0.0
30
0.0
9
$PUCSXDIR
10
1.0
20
0.0
30
0.0
9
$PUCSYDIR
10
0.0
20
1.0
30
0.0
9
$PUCSORTHOREF
2

9
$PUCSORTHOVIEW
70
0
9
$PUCSORGTOP
10
0.0
20
0.0
30
0.0
9
$PUCSORGBOTTOM
10
0.0
20
0.0
30
0.0
9
$PUCSORGLEFT
10
0.0
20
0.0
30
0.0
9
$PUCSORGRIGHT
10
0.0
20
0.0
30
0.0
9
$PUCSORGFRONT
10
0.0
20
0.0
30
0.0
9
$PUCSORGBACK
10
0.0
20
0.0
30
0.0
9
$USERI1
70
0
9
$USERI2
70
0
9
$USERI3
70
0
9
$USERI4
70
0
9
$USERI5
70
0
9
$USERR1
40
0.0
9
$USERR2
40
0.0
9
$USERR3
40
0.0
9
$USERR4
40
0.0
9
$USERR5
40
0.0
9
$WORLDVIEW
70
1
9
$SHADEDGE
70
3
9
$SHADEDIF
70
70
9
$TILEMODE
70
1
9
$MAXACTVP
70
64
9
$PINSBASE
10
0.0
20
0.0
30
0.0
9
$PLIMCHECK
70
0
9
$PEXTMIN
10
1.000000000000000E+20
20
1.000000000000000E+20
30
1.000000000000000E+20
9
$PEXTMAX
10
-1.000000000000000E+20
20
-1.000000000000000E+20
30
-1.000000000000000E+20
9
$PLIMMIN
10
0.0
20
0.0
9
$PLIMMAX
10
12.0
20
9.0
9
$UNITMODE
70
0
9
$VISRETAIN
70
1
9
$PLINEGEN
70
0
9
$PSLTSCALE
70
1
9
$TREEDEPTH
70
3020
9
$CMLSTYLE
2
Standard
9
$CMLJUST
70
0
9
$CMLSCALE
40
1.0
9
$PROXYGRAPHICS
70
1
9
$MEASUREMENT
70
0
9
$CELWEIGHT
370
-1
9
$ENDCAPS
280
0
9
$JOINSTYLE
280
0
9
$LWDISPLAY
290
0
9
$INSUNITS
70
4
9
$HYPERLINKBASE
1

9
$STYLESHEET
1

9
$XEDIT
290
1
9
$CEPSNTYPE
380
0
9
$PSTYLEMODE
290
0
9
$FINGERPRINTGUID
2
{FAEB1C30-E019-11D5-929B-00C0DF256EC4}
9
$VERSIONGUID
2
{04C5C4E4-4947-4D90-8812-D401569E61F7}
9
$EXTNAMES
290
1
9
$PSVPSCALE
40
0.0
9
$OLESTARTUP
290
0
0
ENDSEC
0
SECTION
2
CLASSES
0
CLASS
1
ACDBDICTIONARYWDFLT
2
AcDbDictionaryWithDefault
3
ObjectDBX Classes
90
0
280
0
281
0
0
CLASS
1
ACDBPLACEHOLDER
2
AcDbPlaceHolder
3
ObjectDBX Classes
90
0
280
0
281
0
0
CLASS
1
LAYOUT
2
AcDbLayout
3
ObjectDBX Classes
90
0
280
0
281
0
0
CLASS
1
MATERIAL
2
AcDbMaterial
3
ObjectDBX Classes
90
1153
280
0
281
0
0
CLASS
1
VISUALSTYLE
2
AcDbVisualStyle
3
ObjectDBX Classes
90
4095
280
0
281
0
0
CLASS
1
TABLESTYLE
2
AcDbTableStyle
3
ObjectDBX Classes
90
4095
280
0
281
0
0
CLASS
1
SCALE
2
AcDbScale
3
ObjectDBX Classes
90
1153
280
0
281
0
0
CLASS
1
MLEADERSTYLE
2
AcDbMLeaderStyle
3
ACDB_MLEADERSTYLE_CLASS
90
4095
280
0
281
0
0
CLASS
1
DICTIONARYVAR
2
AcDbDictionaryVar
3
ObjectDBX Classes
90
0
280
0
281
0
0
CLASS
1
CELLSTYLEMAP
2
AcDbCellStyleMap
3
ObjectDBX Classes
90
1152
280
0
281
0
0
ENDSEC
0
SECTION
2
TABLES
0
TABLE
2
VPORT
5
24A
330
0
100
AcDbSymbolTable
70
1
0
VPORT
5
26B
330
24A
100
AcDbSymbolTableRecord
100
AcDbViewportTableRecord
2
*Active
70
0
10
0.0
20
0.0
11
1.0
21
1.0
12
0.000000000000000
22
0.000000000000000
13
0.0
23
0.0
14
10.0
24
10.0
15
10.0
25
10.0
16
0.0
26
0.0
36
1.0
17
0.0
27
0.0
37
0.0
40
210.000000000000
41
1.42857142857143
42
1.0
43
0.0
44
0.0
50
0.0
51
0.0000000000007958
71
0
72
100
73
1
74
3
75
0
76
0
77
0
78
1
281
0
65
1
110
0.0
120
0.0
130
0.0
111
1.0
121
0.0
131
0.0
112
0.0
122
1.0
132
0.0
79
0
146
0.0
0
ENDTAB
0
TABLE
2
LTYPE
5
247
330
0
100
AcDbSymbolTable
70
25
0
LTYPE
5
256
330
247
100
AcDbSymbolTableRecord
100
AcDbLinetypeTableRecord
2
ByBlock
70
0
3

72
65
73
0
40
0.0
0
LTYPE
5
257
330
247
100
AcDbSymbolTableRecord
100
AcDbLinetypeTableRecord
2
ByLayer
70
0
3

72
65
73
0
40
0.0
0
LTYPE
5
258
330
247
100
AcDbSymbolTableRecord
100
AcDbLinetypeTableRecord
2
Continuous
70
0
3
Solid line
72
65
73
0
40
0.0
0
LTYPE
5
273
330
247
100
AcDbSymbolTableRecord
100
AcDbLinetypeTableRecord
2
CENTER
70
0
3
Center ____ _ ____ _ ____ _ ____ _ ____ _ ____
72
65
73
4
40
2.0
49
1.25
74
0
49
-0.25
74
0
49
0.25
74
0
49
-0.25
74
0
0
LTYPE
5
274
330
247
100
AcDbSymbolTableRecord
100
AcDbLinetypeTableRecord
2
DASHDOT
70
0
3
Dashdot __ . __ . __ . __ . __ . __ . __ . __
72
65
73
4
40
1.0
49
0.5
74
0
49
-0.25
74
0
49
0.0
74
0
49
-0.25
74
0
0
LTYPE
5
275
330
247
100
AcDbSymbolTableRecord
100
AcDbLinetypeTableRecord
2
DASHED
70
0
3
Dashed __ __ __ __ __ __ __ __ __ __ __ __ __ _
72
65
73
2
40
0.75
49
0.5
74
0
49
-0.25
74
0
0
LTYPE
5
276
330
247
100
AcDbSymbolTableRecord
100
AcDbLinetypeTableRecord
2
HIDDEN
70
0
3
Hidden __ __ __ __ __ __ __ __ __ __ __ __ __ __
72
65
73
2
40
0.375
49
0.25
74
0
49
-0.125
74
0
0
LTYPE
5
277
330
247
100
AcDbSymbolTableRecord
100
AcDbLinetypeTableRecord
2
HIDDEN2
70
0
3
Hidden2 _ _ _ _ _ _ _ _ _ _ _ _ _ _ _ _ _
72
65
73
2
40
0.1875
49
0.125
74
0
49
-0.0625
74
0
0
LTYPE
5
278
330
247
100
AcDbSymbolTableRecord
100
AcDbLinetypeTableRecord
2
BORDER
70
0
3
Border __ __ . __ __ . __ __ . __ __ . __ __ .
72
65
73
6
40
1.75
49
0.5
74
0
49
-0.25
74
0
49
0.5
74
0
49
-0.25
74
0
49
0.0
74
0
49
-0.25
74
0
0
LTYPE
5
279
330
247
100
AcDbSymbolTableRecord
100
AcDbLinetypeTableRecord
2
BORDER2
70
0
3
Border2 __.__.__.__.__.__.__.__.__.__.__.
72
65
73
6
40
0.875
49
0.25
74
0
49
-0.125
74
0
49
0.25
74
0
49
-0.125
74
0
49
0.0
74
0
49
-0.125
74
0
0
LTYPE
5
27A
330
247
100
AcDbSymbolTableRecord
100
AcDbLinetypeTableRecord
2
BORDERX2
70
0
3
Borderx2  ____  ____  .  ____  ____  .  ___
72
65
73
6
40
3.5
49
1.0
74
0
49
-0.5
74
0
49
1.0
74
0
49
-0.5
74
0
49
0.0
74
0
49
-0.5
74
0
0
LTYPE
5
27B
330
247
100
AcDbSymbolTableRecord
100
AcDbLinetypeTableRecord
2
CENTER2
70
0
3
Center2  ___ _ ___ _ ___ _ ___ _ ___ _ ___
72
65
73
4
40
1.125
49
0.75
74
0
49
-0.125
74
0
49
0.125
74
0
49
-0.125
74
0
0
LTYPE
5
27C
330
247
100
AcDbSymbolTableRecord
100
AcDbLinetypeTableRecord
2
CENTERX2
70
0
3
Centerx2  ________  __  ________  __  _____
72
65
73
4
40
4.0
49
2.5
74
0
49
-0.5
74
0
49
0.5
74
0
49
-0.5
74
0
0
LTYPE
5
27D
330
247
100
AcDbSymbolTableRecord
100
AcDbLinetypeTableRecord
2
DASHDOT2
70
0
3
Dashdot2  _._._._._._._._._._._._._._._.
72
65
73
4
40
0.5
49
0.25
74
0
49
-0.125
74
0
49
0.0
74
0
49
-0.125
74
0
0
LTYPE
5
27E
330
247
100
AcDbSymbolTableRecord
100
AcDbLinetypeTableRecord
2
DASHDOTX2
70
0
3
Dashdotx2 ____  .  ____  .  ____  .  ___
72
65
73
4
40
2.0
49
1.0
74
0
49
-0.5
74
0
49
0.0
74
0
49
-0.5
74
0
0
LTYPE
5
27F
330
247
100
AcDbSymbolTableRecord
100
AcDbLinetypeTableRecord
2
DASHED2
70
0
3
Dashed2 _ _ _ _ _ _ _ _ _ _ _ _ _ _ _ _ _
72
65
73
2
40
0.375
49
0.25
74
0
49
-0.125
74
0
0
LTYPE
5
280
330
247
100
AcDbSymbolTableRecord
100
AcDbLinetypeTableRecord
2
DASHEDX2
70
0
3
Dashedx2 ____  ____  ____  ____  ____  ___
72
65
73
2
40
1.5
49
1.0
74
0
49
-0.5
74
0
0
LTYPE
5
281
330
247
100
AcDbSymbolTableRecord
100
AcDbLinetypeTableRecord
2
DIVIDE
70
0
3
Divide ____ . . ____ . . ____ . . ____ . . ____
72
65
73
6
40
1.25
49
0.5
74
0
49
-0.25
74
0
49
0.0
74
0
49
-0.25
74
0
49
0.0
74
0
49
-0.25
74
0
0
LTYPE
5
282
330
247
100
AcDbSymbolTableRecord
100
AcDbLinetypeTableRecord
2
DIVIDE2
70
0
3
Divide2 __..__..__..__..__..__..__..__.._
72
65
73
6
40
0.625
49
0.25
74
0
49
-0.125
74
0
49
0.0
74
0
49
-0.125
74
0
49
0.0
74
0
49
-0.125
74
0
0
LTYPE
5
283
330
247
100
AcDbSymbolTableRecord
100
AcDbLinetypeTableRecord
2
DIVIDEX2
70
0
3
Dividex2 ________  .  .  ________  .  .  _
72
65
73
6
40
2.5
49
1.0
74
0
49
-0.5
74
0
49
0.0
74
0
49
-0.5
74
0
49
0.0
74
0
49
-0.5
74
0
0
LTYPE
5
284
330
247
100
AcDbSymbolTableRecord
100
AcDbLinetypeTableRecord
2
DOT
70
0
3
Dot . . . . . . . . . . . . . . . . . . . . . . . .
72
65
73
2
40
0.25
49
0.0
74
0
49
-0.25
74
0
0
LTYPE
5
285
330
247
100
AcDbSymbolTableRecord
100
AcDbLinetypeTableRecord
2
DOT2
70
0
3
Dot2 ........................................
72
65
73
2
40
0.125
49
0.0
74
0
49
-0.125
74
0
0
LTYPE
5
286
330
247
100
AcDbSymbolTableRecord
100
AcDbLinetypeTableRecord
2
DOTX2
70
0
3
Dotx2 .  .  .  .  .  .  .  .  .  .  .  .  .  .
72
65
73
2
40
0.5
49
0.0
74
0
49
-0.5
74
0
0
LTYPE
5
287
330
247
100
AcDbSymbolTableRecord
100
AcDbLinetypeTableRecord
2
HIDDENX2
70
0
3
Hiddenx2 ____ ____ ____ ____ ____ ____ ____
72
65
73
2
40
0.75
49
0.5
74
0
49
-0.25
74
0
0
LTYPE
5
288
330
247
100
AcDbSymbolTableRecord
100
AcDbLinetypeTableRecord
2
PHANTOM
70
0
3
Phantom ______  __  __  ______  __  __  ______
72
65
73
6
40
2.5
49
1.25
74
0
49
-0.25
74
0
49
0.25
74
0
49
-0.25
74
0
49
0.25
74
0
49
-0.25
74
0
0
LTYPE
5
289
330
247
100
AcDbSymbolTableRecord
100
AcDbLinetypeTableRecord
2
PHANTOM2
70
0
3
Phantom2 ___ _ _ ___ _ _ ___ _ _ ___ _ _
72
65
73
6
40
1.25
49
0.625
74
0
49
-0.125
74
0
49
0.125
74
0
49
-0.125
74
0
49
0.125
74
0
49
-0.125
74
0
0
LTYPE
5
28A
330
247
100
AcDbSymbolTableRecord
100
AcDbLinetypeTableRecord
2
PHANTOMX2
70
0
3
Phantomx2 ____________    ____    ____   _
72
65
73
6
40
5.0
49
2.5
74
0
49
-0.5
74
0
49
0.5
74
0
49
-0.5
74
0
49
0.5
74
0
49
-0.5
74
0
0
ENDTAB
0
TABLE
2
LAYER
5
244
330
0
100
AcDbSymbolTable
70
6
0
LAYER
5
252
330
244
100
AcDbSymbolTableRecord
100
AcDbLayerTableRecord
2
0
70
0
62
7
6
Continuous
370
0
390
251
0
LAYER
5
23F
330
244
100
AcDbSymbolTableRecord
100
AcDbLayerTableRecord
2
Bemassung
70
0
 62
   7
6
Continuous
370
0
390
251
0
LAYER
5
240
330
244
100
AcDbSymbolTableRecord
100
AcDbLayerTableRecord
2
Rahmen
70
0
 62
   7
6
Continuous
370
0
390
251
0
LAYER
5
241
330
244
100
AcDbSymbolTableRecord
100
AcDbLayerTableRecord
2
Geo
70
0
 62
   7
6
Continuous
370
0
390
251
0
LAYER
5
33A
330
244
100
AcDbSymbolTableRecord
100
AcDbLayerTableRecord
2
Defpoints
70
0
62
7
6
Continuous
290
0
370
-3
390
251
0
LAYER
5
57E
330
244
100
AcDbSymbolTableRecord
100
AcDbLayerTableRecord
2
Text
70
0
 62
   7
6
Continuous
370
0
390
251
1001
AcAecLayerStandard
1000

1000

0
ENDTAB
0
TABLE
2
STYLE
5
245
330
0
100
AcDbSymbolTable
70
2
0
STYLE
5
253
330
245
100
AcDbSymbolTableRecord
100
AcDbTextStyleTableRecord
2
Standard
70
0
40
0.0
41
1.0
50
0.0
71
0
42
0.2
3
Arial
4

1001
ACAD
1000
Arial
1071
0
0
STYLE
5
132
330
245
100
AcDbSymbolTableRecord
100
AcDbTextStyleTableRecord
2
Beschriftung
70
0
40
0.0
41
1.0
50
0.0
71
0
42
0.2
3
Arial
4

1001
ACAD
1000
Arial
1071
0
1001
AcadAnnotative
1000
AnnotativeData
1070
1
1070
1
0
ENDTAB
0
TABLE
2
VIEW
5
248
330
0
100
AcDbSymbolTable
70
0
0
ENDTAB
0
TABLE
2
UCS
5
249
330
0
100
AcDbSymbolTable
70
0
0
ENDTAB
0
TABLE
2
APPID
5
24B
330
0
100
AcDbSymbolTable
70
13
0
APPID
5
254
330
24B
100
AcDbSymbolTableRecord
100
AcDbRegAppTableRecord
2
ACAD
70
0
0
APPID
5
26C
330
24B
100
AcDbSymbolTableRecord
100
AcDbRegAppTableRecord
2
VD_INVISIBLE_NOT_FOR_READ
70
0
0
APPID
5
26D
330
24B
100
AcDbSymbolTableRecord
100
AcDbRegAppTableRecord
2
VD_TEMPHATCH
70
0
0
APPID
5
26E
330
24B
100
AcDbSymbolTableRecord
100
AcDbRegAppTableRecord
2
VDEXTRAPARAM
70
0
0
APPID
5
26F
330
24B
100
AcDbSymbolTableRecord
100
AcDbRegAppTableRecord
2
PE_URL
70
0
0
APPID
5
270
330
24B
100
AcDbSymbolTableRecord
100
AcDbRegAppTableRecord
2
VD_UNKNOWN
70
0
0
APPID
5
28F
330
24B
100
AcDbSymbolTableRecord
100
AcDbRegAppTableRecord
2
AcadAnnotative
70
0
0
APPID
5
290
330
24B
100
AcDbSymbolTableRecord
100
AcDbRegAppTableRecord
2
ACAD_DSTYLE_DIMJAG
70
0
0
APPID
5
291
330
24B
100
AcDbSymbolTableRecord
100
AcDbRegAppTableRecord
2
ACAD_DSTYLE_DIMTALN
70
0
0
APPID
5
293
330
24B
100
AcDbSymbolTableRecord
100
AcDbRegAppTableRecord
2
ACAD_PSEXT
70
0
0
APPID
5
42A
330
24B
100
AcDbSymbolTableRecord
100
AcDbRegAppTableRecord
2
ACAD_MLEADERVER
70
0
0
APPID
5
532
330
24B
100
AcDbSymbolTableRecord
100
AcDbRegAppTableRecord
2
ACAD_EXEMPT_FROM_CAD_STANDARDS
70
0
0
APPID
5
57F
330
24B
100
AcDbSymbolTableRecord
100
AcDbRegAppTableRecord
2
AcAecLayerStandard
70
0
0
ENDTAB
0
TABLE
2
DIMSTYLE
5
24C
330
0
100
AcDbSymbolTable
70
3
100
AcDbDimStyleTable
71
2
340
27
340
269
0
DIMSTYLE
105
269
330
24C
100
AcDbSymbolTableRecord
100
AcDbDimStyleTableRecord
2
Standard
70
0
172
1
174
1
288
1
340
253
342
23C
0
DIMSTYLE
105
137
330
24C
100
AcDbSymbolTableRecord
100
AcDbDimStyleTableRecord
2
Beschriftung
70
0
41
2.5
42
0.625
44
1.25
73
0
74
0
77
1
140
2.5
147
0.625
172
1
174
1
271
2
288
1
340
253
342
23C
1001
AcadAnnotative
1000
AnnotativeData
1070
1
1070
1
1001
ACAD_DSTYLE_DIMJAG
1070
388
1040
1.5
1001
ACAD_DSTYLE_DIMTALN
1070
392
1070
0
0
DIMSTYLE
105
27
102
{ACAD_REACTORS
330
F1000D
330
F10017
330
F1001C
330
F10008
330
F10003
330
F10012
102
}
330
24C
100
AcDbSymbolTableRecord
100
AcDbDimStyleTableRecord
2
BEM-ISBE
70
0
41
2.5
42
0.625
44
1.25
48
0.000000001
71
1
73
0
74
0
77
1
140
2.5
144
1.00000000000000
146
0.5
147
0.625
171
 3
172
 1
179
 3
271
 3
272
 3
274
 3
340
253
342
23C
1001
ACAD_DSTYLE_DIMJAG
1070
388
1040
1.5
1001
ACAD_DSTYLE_DIMTALN
1070
392
1070
1
0
ENDTAB
0
TABLE
2
BLOCK_RECORD
5
243
330
0
100
AcDbSymbolTable
70
5
0
BLOCK_RECORD
5
261
330
243
100
AcDbSymbolTableRecord
100
AcDbBlockTableRecord
2
*Model_Space
340
FD0
0
BLOCK_RECORD
5
25D
330
243
100
AcDbSymbolTableRecord
100
AcDbBlockTableRecord
2
*Paper_Space
340
FD1
0
BLOCK_RECORD
5
265
330
243
100
AcDbSymbolTableRecord
100
AcDbBlockTableRecord
2
*Paper_Space0
340
0
0
BLOCK_RECORD
5
23C
330
243
100
AcDbSymbolTableRecord
100
AcDbBlockTableRecord
2
VDDIM_DEFAULT
340
0
102
{BLKREFS
102
}
0
BLOCK_RECORD
5
23E
330
243
100
AcDbSymbolTableRecord
100
AcDbBlockTableRecord
2
VDDIM_NONE
340
0
0
BLOCK_RECORD
5
F1000C
330
243
100
AcDbSymbolTableRecord
100
AcDbBlockTableRecord
2
*D5
340
0
0
BLOCK_RECORD
5
F10016
330
243
100
AcDbSymbolTableRecord
100
AcDbBlockTableRecord
2
*D7
340
0
0
BLOCK_RECORD
5
F1001B
330
243
100
AcDbSymbolTableRecord
100
AcDbBlockTableRecord
2
*D8
340
0
0
BLOCK_RECORD
5
F10007
330
243
100
AcDbSymbolTableRecord
100
AcDbBlockTableRecord
2
*D4
340
0
0
BLOCK_RECORD
5
F10002
330
243
100
AcDbSymbolTableRecord
100
AcDbBlockTableRecord
2
*D3
340
0
0
BLOCK_RECORD
5
F10011
330
243
100
AcDbSymbolTableRecord
100
AcDbBlockTableRecord
2
*D6
340
0
0
ENDTAB
0
ENDSEC
0
SECTION
2
BLOCKS
0
BLOCK
5
262
330
261
100
AcDbEntity
8
0
100
AcDbBlockBegin
2
*Model_Space
70
0
10
0.0
20
0.0
30
0.0
3
*Model_Space
1

0
ENDBLK
5
263
330
261
100
AcDbEntity
8
0
100
AcDbBlockEnd
0
BLOCK
5
25E
330
25D
100
AcDbEntity
67
1
8
0
100
AcDbBlockBegin
2
*Paper_Space
70
0
10
0.0
20
0.0
30
0.0
3
*Paper_Space
1

0
ENDBLK
5
25F
330
25D
100
AcDbEntity
67
1
8
0
100
AcDbBlockEnd
0
BLOCK
5
266
330
265
100
AcDbEntity
8
0
100
AcDbBlockBegin
2
*Paper_Space0
70
0
10
0.0
20
0.0
30
0.0
3
*Paper_Space0
1

0
VIEWPORT
5
296
102
{ACAD_XDICTIONARY
360
58E
102
}
330
265
100
AcDbEntity
8
0
60
1
100
AcDbViewport
10
0.0
20
0.0
30
0.0
40
10.0
41
10.0
69
0
12
0.0
22
0.0
13
0.0
23
0.0
14
1.0
24
1.0
15
0.0
25
0.0
16
0.0
26
0.0
36
1.0
17
0.0
27
0.0
37
0.0
42
0.0
43
0.0
44
0.0
45
10.0
50
0.0
51
0.0000000000007958
72
100
90
163872
1

281
0
71
0
74
0
110
0.0
120
0.0
130
0.0
111
1.0
121
0.0
131
0.0
112
0.0
122
1.0
132
0.0
79
0
146
0.0
1001
VD_INVISIBLE_NOT_FOR_READ
1000
VD_INVISIBLE_NOT_FOR_READ
0
VIEWPORT
5
297
102
{ACAD_XDICTIONARY
360
590
102
}
330
265
100
AcDbEntity
8
0
60
1
100
AcDbViewport
10
0.0
20
0.0
30
0.0
40
10.0
41
10.0
69
0
12
0.0
22
0.0
13
0.0
23
0.0
14
1.0
24
1.0
15
0.0
25
0.0
16
0.0
26
0.0
36
1.0
17
0.0
27
0.0
37
0.0
42
0.0
43
0.0
44
0.0
45
10.0
50
0.0
51
0.0000000000007958
72
100
90
163872
1

281
0
71
0
74
0
110
0.0
120
0.0
130
0.0
111
1.0
121
0.0
131
0.0
112
0.0
122
1.0
132
0.0
79
0
146
0.0
1001
VD_INVISIBLE_NOT_FOR_READ
1000
VD_INVISIBLE_NOT_FOR_READ
0
ENDBLK
5
267
330
265
100
AcDbEntity
8
0
100
AcDbBlockEnd
0
BLOCK
5
28B
330
23C
100
AcDbEntity
8
0
100
AcDbBlockBegin
2
VDDIM_DEFAULT
70
0
10
0.0
20
0.0
30
0.0
3
VDDIM_DEFAULT
1

0
LWPOLYLINE
5
23D
330
23C
100
AcDbEntity
8
0
6
Continuous
62
0
100
AcDbPolyline
90
4
70
0
43
0.0
10
0.0
20
0.0
10
-1.0
20
-0.1665
10
-1.0
20
0.1665
10
0.0
20
0.0
1001
VDEXTRAPARAM
1071
1
1071
0
1071
0
1040
1.0
1000

1000

1040
0.0
1040
0.0
0
HATCH
5
292
330
23C
100
AcDbEntity
8
0
6
Continuous
62
0
100
AcDbHatch
10
0.0
20
0.0
30
0.0
210
0.0
220
0.0
230
1.0
2
SOLID
70
1
71
0
91
1
92
2
72
0
73
1
93
3
10
0.0
20
0.0
10
-1.0
20
-0.1665
10
-1.0
20
0.1665
97
0
75
0
76
1
98
1
10
0.0
20
0.0
1001
VDEXTRAPARAM
1071
1
1071
0
1071
0
1040
1.0
1000

1000

1040
0.0
1040
0.0
1001
VD_TEMPHATCH
1000
VD_TEMPHATCH
0
ENDBLK
5
28C
330
23C
100
AcDbEntity
8
0
100
AcDbBlockEnd
0
BLOCK
5
28D
330
23E
100
AcDbEntity
8
0
100
AcDbBlockBegin
2
VDDIM_NONE
70
0
10
0.0
20
0.0
30
0.0
3
VDDIM_NONE
1

0
ENDBLK
5
28E
330
23E
100
AcDbEntity
8
0
100
AcDbBlockEnd
  0
BLOCK
  5
F10020
330
F1000C
100
AcDbEntity
  8
0
100
AcDbBlockBegin
  2
*D5
 70
     1
 10
0.0
 20
0.0
 30
0.0
  3
*D5
  1

  0
LINE
  5
F10021
330
F1000C
100
AcDbEntity
  8
Bemassung
 62
     0
370
    -2
100
AcDbLine
10
-20.7456575682382
20
13.2493796526055
30
0.000000000000000
11
-20.7456575682382
21
25.2493796526055
31
0.000000000000000
  0
LINE
  5
F10022
330
F1000C
100
AcDbEntity
  8
Bemassung
 62
     0
370
    -2
100
AcDbLine
10
85.2543424317618
20
13.0493796526055
30
0.000000000000000
11
85.2543424317618
21
30.2493796526055
31
0.000000000000000
  0
LINE
  5
F10023
330
F1000C
100
AcDbEntity
  8
Bemassung
 62
     0
370
    -2
100
AcDbLine
10
-20.7456575682382
20
23.2493796526055
30
0.000000000000000
11
85.2543424317618
21
23.2493796526055
31
0.000000000000000
  0
INSERT
  5
F10024
330
F1000C
100
AcDbEntity
  8
Bemassung
 62
     0
370
    -2
100
AcDbBlockReference
  2
VDDIM_DEFAULT
10
-20.7456575682382
20
23.2493796526055
30
0.000000000000000
 41
2.50000000000000
 42
2.50000000000000
 43
2.50000000000000
 50
180.000000000000
  0
INSERT
  5
F10025
330
F1000C
100
AcDbEntity
  8
Bemassung
 62
     0
370
    -2
100
AcDbBlockReference
  2
VDDIM_DEFAULT
10
85.2543424317618
20
23.2493796526055
30
0.000000000000000
 41
2.50000000000000
 42
2.50000000000000
 43
2.50000000000000
  0
MTEXT
  5
F10026
102
{ACAD_XDICTIONARY
360
F1000F
102
}
330
F1000C
100
AcDbEntity
  8
Bemassung
 62
     0
100
AcDbMText
10
32.2543424317618
20
23.9160463192721
30
0.000000000000000
 40
2.50000000000000
 41
0.0
 71
     8
 72
     1
  1
\A1;106
 11
1.00000000000000
 21
0.000000000000000
 31
0.0
 73
     1
 44
1.0
1001
ACAD
1000
MTEXTBEGIN
1070
73
1070
1
1070
44
1040
1.0
1070
74
1070
0
1000
MTEXTEND
  0
POINT
  5
F10027
330
F1000C
100
AcDbEntity
  8
Bemassung
 62
     0
100
AcDbPoint
10
-20.7456575682382
20
13.2493796526055
30
0.000000000000000
  0
POINT
  5
F10028
330
F1000C
100
AcDbEntity
  8
Bemassung
 62
     0
100
AcDbPoint
10
85.2543424317618
20
13.0493796526055
30
0.000000000000000
  0
ENDBLK
  5
F10029
330
F1000C
100
AcDbEntity
  8
0
100
AcDbBlockEnd
  0
BLOCK
  5
F1002A
330
F10016
100
AcDbEntity
  8
0
100
AcDbBlockBegin
  2
*D7
 70
     1
 10
0.0
 20
0.0
 30
0.0
  3
*D7
  1

  0
LINE
  5
F1002B
330
F10016
100
AcDbEntity
  8
Bemassung
 62
     0
370
    -2
100
AcDbLine
10
-22.7456575682382
20
5.24987965260546
30
0.000000000000000
11
-22.7456575682382
21
-6.75062034739454
31
0.000000000000000
  0
LINE
  5
F1002C
330
F10016
100
AcDbEntity
  8
Bemassung
 62
     0
370
    -2
100
AcDbLine
10
-64.7456575682382
20
-6.75062034739454
30
0.000000000000000
11
-64.7456575682382
21
30.2493796526055
31
0.000000000000000
  0
LINE
  5
F1002D
330
F10016
100
AcDbEntity
  8
Bemassung
 62
     0
370
    -2
100
AcDbLine
10
-22.7456575682382
20
-4.75062034739454
30
0.000000000000000
11
-64.7456575682382
21
-4.75062034739454
31
0.000000000000000
  0
INSERT
  5
F1002E
330
F10016
100
AcDbEntity
  8
Bemassung
 62
     0
370
    -2
100
AcDbBlockReference
  2
VDDIM_DEFAULT
10
-22.7456575682382
20
-4.75062034739454
30
0.000000000000000
 41
2.50000000000000
 42
2.50000000000000
 43
2.50000000000000
  0
INSERT
  5
F1002F
330
F10016
100
AcDbEntity
  8
Bemassung
 62
     0
370
    -2
100
AcDbBlockReference
  2
VDDIM_DEFAULT
10
-64.7456575682382
20
-4.75062034739454
30
0.000000000000000
 41
2.50000000000000
 42
2.50000000000000
 43
2.50000000000000
 50
180.000000000000
  0
MTEXT
  5
F10030
102
{ACAD_XDICTIONARY
360
F10019
102
}
330
F10016
100
AcDbEntity
  8
Bemassung
 62
     0
100
AcDbMText
10
-43.7456575682382
20
-4.08395368072788
30
0.000000000000000
 40
2.50000000000000
 41
0.0
 71
     8
 72
     1
  1
\A1;42
 11
1.00000000000000
 21
0.000000000000000
 31
0.0
 73
     1
 44
1.0
1001
ACAD
1000
MTEXTBEGIN
1070
73
1070
1
1070
44
1040
1.0
1070
74
1070
0
1000
MTEXTEND
  0
POINT
  5
F10031
330
F10016
100
AcDbEntity
  8
Bemassung
 62
     0
100
AcDbPoint
10
-22.7456575682382
20
5.24987965260546
30
0.000000000000000
  0
POINT
  5
F10032
330
F10016
100
AcDbEntity
  8
Bemassung
 62
     0
100
AcDbPoint
10
-64.7456575682382
20
-6.75062034739454
30
0.000000000000000
  0
ENDBLK
  5
F10033
330
F10016
100
AcDbEntity
  8
0
100
AcDbBlockEnd
  0
BLOCK
  5
F10034
330
F1001B
100
AcDbEntity
  8
0
100
AcDbBlockBegin
  2
*D8
 70
     1
 10
0.0
 20
0.0
 30
0.0
  3
*D8
  1

  0
LINE
  5
F10035
330
F1001B
100
AcDbEntity
  8
Bemassung
 62
     0
370
    -2
100
AcDbLine
10
85.2543424317618
20
13.0493796526055
30
0.000000000000000
11
85.2543424317618
21
30.2493796526055
31
0.000000000000000
  0
LINE
  5
F10036
330
F1001B
100
AcDbEntity
  8
Bemassung
 62
     0
370
    -2
100
AcDbLine
10
-64.7456575682382
20
-6.75062034739454
30
0.000000000000000
11
-64.7456575682382
21
30.2493796526055
31
0.000000000000000
  0
LINE
  5
F10037
330
F1001B
100
AcDbEntity
  8
Bemassung
 62
     0
370
    -2
100
AcDbLine
10
85.2543424317618
20
28.2493796526055
30
0.000000000000000
11
-64.7456575682382
21
28.2493796526055
31
0.000000000000000
  0
INSERT
  5
F10038
330
F1001B
100
AcDbEntity
  8
Bemassung
 62
     0
370
    -2
100
AcDbBlockReference
  2
VDDIM_DEFAULT
10
85.2543424317618
20
28.2493796526055
30
0.000000000000000
 41
2.50000000000000
 42
2.50000000000000
 43
2.50000000000000
  0
INSERT
  5
F10039
330
F1001B
100
AcDbEntity
  8
Bemassung
 62
     0
370
    -2
100
AcDbBlockReference
  2
VDDIM_DEFAULT
10
-64.7456575682382
20
28.2493796526055
30
0.000000000000000
 41
2.50000000000000
 42
2.50000000000000
 43
2.50000000000000
 50
180.000000000000
  0
MTEXT
  5
F1003A
102
{ACAD_XDICTIONARY
360
F1001E
102
}
330
F1001B
100
AcDbEntity
  8
Bemassung
 62
     0
100
AcDbMText
10
10.2543424317618
20
28.9160463192721
30
0.000000000000000
 40
2.50000000000000
 41
0.0
 71
     8
 72
     1
  1
\A1;150
 11
1.00000000000000
 21
0.000000000000000
 31
0.0
 73
     1
 44
1.0
1001
ACAD
1000
MTEXTBEGIN
1070
73
1070
1
1070
44
1040
1.0
1070
74
1070
0
1000
MTEXTEND
  0
POINT
  5
F1003B
330
F1001B
100
AcDbEntity
  8
Bemassung
 62
     0
100
AcDbPoint
10
85.2543424317618
20
13.0493796526055
30
0.000000000000000
  0
POINT
  5
F1003C
330
F1001B
100
AcDbEntity
  8
Bemassung
 62
     0
100
AcDbPoint
10
-64.7456575682382
20
-6.75062034739454
30
0.000000000000000
  0
ENDBLK
  5
F1003D
330
F1001B
100
AcDbEntity
  8
0
100
AcDbBlockEnd
  0
BLOCK
  5
F1003E
330
F10007
100
AcDbEntity
  8
0
100
AcDbBlockBegin
  2
*D4
 70
     1
 10
0.0
 20
0.0
 30
0.0
  3
*D4
  1

  0
LINE
  5
F1003F
330
F10007
100
AcDbEntity
  8
Bemassung
 62
     0
370
    -2
100
AcDbLine
10
-62.0767850495033
20
13.0213949798040
30
0.000000000000000
11
-76.7881722423011
21
24.5840291243188
31
0.000000000000000
  0
INSERT
  5
F10040
330
F10007
100
AcDbEntity
  8
Bemassung
 62
     0
370
    -2
100
AcDbBlockReference
  2
VDDIM_DEFAULT
10
-62.0767850495033
20
13.0213949798040
30
0.000000000000000
 41
2.50000000000000
 42
2.50000000000000
 43
2.50000000000000
 50
321.833895851575
  0
MTEXT
  5
F10041
102
{ACAD_XDICTIONARY
360
F1000A
102
}
330
F10007
100
AcDbEntity
  8
Bemassung
 62
     0
100
AcDbMText
10
-73.2708666616902
20
21.8195503521895
30
0.000000000000000
 40
2.50000000000000
 41
0.0
 71
     8
 72
     1
  1
\A1;R4
 11
0.786222602463318
 21
-0.617943378778191
 31
0.0
 73
     1
 44
1.0
1001
ACAD
1000
MTEXTBEGIN
1070
73
1070
1
1070
44
1040
1.0
1070
74
1070
0
1000
MTEXTEND
  0
POINT
  5
F10042
330
F10007
100
AcDbEntity
  8
Bemassung
 62
     0
100
AcDbPoint
10
-62.0767850495033
20
13.0213949798040
30
0.000000000000000
  0
POINT
  5
F10043
330
F10007
100
AcDbEntity
  8
Bemassung
 62
     0
100
AcDbPoint
10
-60.7456575682382
20
9.24937965260546
30
0.000000000000000
  0
ENDBLK
  5
F10044
330
F10007
100
AcDbEntity
  8
0
100
AcDbBlockEnd
  0
BLOCK
  5
F10045
330
F10002
100
AcDbEntity
  8
0
100
AcDbBlockBegin
  2
*D3
 70
     1
 10
0.0
 20
0.0
 30
0.0
  3
*D3
  1

  0
LINE
  5
F10046
330
F10002
100
AcDbEntity
  8
Bemassung
 62
     0
370
    -2
100
AcDbLine
10
-60.7456575682382
20
5.24937965260546
30
0.000000000000000
11
-76.7456575682382
21
5.24937965260546
31
0.000000000000000
  0
LINE
  5
F10047
330
F10002
100
AcDbEntity
  8
Bemassung
 62
     0
370
    -2
100
AcDbLine
10
-60.7456575682382
20
13.2493796526055
30
0.000000000000000
11
-76.7456575682382
21
13.2493796526055
31
0.000000000000000
  0
LINE
  5
F10048
330
F10002
100
AcDbEntity
  8
Bemassung
 62
     0
370
    -2
100
AcDbLine
10
-74.7456575682382
20
5.24937965260546
30
0.000000000000000
11
-74.7456575682382
21
13.2493796526055
31
0.000000000000000
  0
INSERT
  5
F10049
330
F10002
100
AcDbEntity
  8
Bemassung
 62
     0
370
    -2
100
AcDbBlockReference
  2
VDDIM_DEFAULT
10
-74.7456575682382
20
5.24937965260546
30
0.000000000000000
 41
2.50000000000000
 42
2.50000000000000
 43
2.50000000000000
 50
90.0000000000000
  0
INSERT
  5
F1004A
330
F10002
100
AcDbEntity
  8
Bemassung
 62
     0
370
    -2
100
AcDbBlockReference
  2
VDDIM_DEFAULT
10
-74.7456575682382
20
13.2493796526055
30
0.000000000000000
 41
2.50000000000000
 42
2.50000000000000
 43
2.50000000000000
 50
270.000000000000
  0
MTEXT
  5
F1004B
102
{ACAD_XDICTIONARY
360
F10005
102
}
330
F10002
100
AcDbEntity
  8
Bemassung
 62
     0
100
AcDbMText
10
-75.4123242349049
20
9.24937965260546
30
0.000000000000000
 40
2.50000000000000
 41
0.0
 71
     8
 72
     1
  1
\A1;8
 11
6.12323399573677e-017
 21
1.00000000000000
 31
0.0
 73
     1
 44
1.0
1001
ACAD
1000
MTEXTBEGIN
1070
73
1070
1
1070
44
1040
1.0
1070
74
1070
0
1000
MTEXTEND
  0
POINT
  5
F1004C
330
F10002
100
AcDbEntity
  8
Bemassung
 62
     0
100
AcDbPoint
10
-60.7456575682382
20
5.24937965260546
30
0.000000000000000
  0
POINT
  5
F1004D
330
F10002
100
AcDbEntity
  8
Bemassung
 62
     0
100
AcDbPoint
10
-60.7456575682382
20
13.2493796526055
30
0.000000000000000
  0
ENDBLK
  5
F1004E
330
F10002
100
AcDbEntity
  8
0
100
AcDbBlockEnd
  0
BLOCK
  5
F1004F
330
F10011
100
AcDbEntity
  8
0
100
AcDbBlockBegin
  2
*D6
 70
     1
 10
0.0
 20
0.0
 30
0.0
  3
*D6
  1

  0
LINE
  5
F10050
330
F10011
100
AcDbEntity
  8
Bemassung
 62
     0
370
    -2
100
AcDbLine
10
85.0543424317618
20
5.24937965260546
30
0.000000000000000
11
94.2543424317618
21
5.24937965260546
31
0.000000000000000
  0
LINE
  5
F10051
330
F10011
100
AcDbEntity
  8
Bemassung
 62
     0
370
    -2
100
AcDbLine
10
85.0543424317618
20
13.2493796526055
30
0.000000000000000
11
94.2543424317618
21
13.2493796526055
31
0.000000000000000
  0
LINE
  5
F10052
330
F10011
100
AcDbEntity
  8
Bemassung
 62
     0
370
    -2
100
AcDbLine
10
92.2543424317618
20
-5.73200992555832
30
0.000000000000000
11
92.2543424317618
21
13.2493796526055
31
0.000000000000000
  0
INSERT
  5
F10053
330
F10011
100
AcDbEntity
  8
Bemassung
 62
     0
370
    -2
100
AcDbBlockReference
  2
VDDIM_DEFAULT
10
92.2543424317618
20
5.24937965260546
30
0.000000000000000
 41
2.50000000000000
 42
2.50000000000000
 43
2.50000000000000
 50
90.0000000000000
  0
INSERT
  5
F10054
330
F10011
100
AcDbEntity
  8
Bemassung
 62
     0
370
    -2
100
AcDbBlockReference
  2
VDDIM_DEFAULT
10
92.2543424317618
20
13.2493796526055
30
0.000000000000000
 41
2.50000000000000
 42
2.50000000000000
 43
2.50000000000000
 50
270.000000000000
  0
MTEXT
  5
F10055
330
F10011
100
AcDbEntity
  8
Bemassung
 62
     0
100
AcDbMText
10
91.5876757650951
20
-2.34491315136476
30
0.000000000000000
 40
2.50000000000000
 41
0.0
 71
     8
 72
     1
  1
\A1;8 h5
 11
6.12323399573677e-017
 21
1.00000000000000
 31
0.0
 73
     1
 44
1.0
  0
POINT
  5
F10056
330
F10011
100
AcDbEntity
  8
Bemassung
 62
     0
100
AcDbPoint
10
85.0543424317618
20
5.24937965260546
30
0.000000000000000
  0
POINT
  5
F10057
330
F10011
100
AcDbEntity
  8
Bemassung
 62
     0
100
AcDbPoint
10
85.0543424317618
20
13.2493796526055
30
0.000000000000000
  0
ENDBLK
  5
F10058
330
F10011
100
AcDbEntity
  8
0
100
AcDbBlockEnd
0
ENDSEC
0
SECTION
2
ENTITIES
  0
DIMENSION
  5
F1000D
330
261
100
AcDbEntity
  8
Bemassung
100
AcDbDimension
  2
*D5
10
85.2543424317618
20
23.2493796526055
30
0.000000000000000
11
32.2543424317618
21
23.9160463192721
31
0.000000000000000
 70
32
 1
<>
 71
     8
  3
BEM-ISBE
100
AcDbAlignedDimension
13
-20.7456575682382
23
13.2493796526055
33
0.000000000000000
14
85.2543424317618
24
13.0493796526055
34
0.000000000000000
100
AcDbRotatedDimension
1001
ACAD
1000
DSTYLE
1002
{
1070
284
1070
8
1070
78
1070
8
1070
144
1040
1.00000000000000
1070
147
1040
0.625
1070
 72
1070
 0
1070
 71
1070
 0
1002
}
  0
DIMENSION
  5
F10017
330
261
100
AcDbEntity
  8
Bemassung
100
AcDbDimension
  2
*D7
10
-64.7456575682382
20
-4.75062034739454
30
0.000000000000000
11
-43.7456575682382
21
-4.08395368072788
31
0.000000000000000
 70
32
 1
<>
 71
     8
  3
BEM-ISBE
100
AcDbAlignedDimension
13
-22.7456575682382
23
5.24987965260546
33
0.000000000000000
14
-64.7456575682382
24
-6.75062034739454
34
0.000000000000000
100
AcDbRotatedDimension
1001
ACAD
1000
DSTYLE
1002
{
1070
284
1070
8
1070
78
1070
8
1070
144
1040
1.00000000000000
1070
147
1040
0.625
1070
 72
1070
 0
1070
 71
1070
 0
1002
}
  0
DIMENSION
  5
F1001C
330
261
100
AcDbEntity
  8
Bemassung
100
AcDbDimension
  2
*D8
10
-64.7456575682382
20
28.2493796526055
30
0.000000000000000
11
10.2543424317618
21
28.9160463192721
31
0.000000000000000
 70
32
 1
<>
 71
     8
  3
BEM-ISBE
100
AcDbAlignedDimension
13
85.2543424317618
23
13.0493796526055
33
0.000000000000000
14
-64.7456575682382
24
-6.75062034739454
34
0.000000000000000
100
AcDbRotatedDimension
1001
ACAD
1000
DSTYLE
1002
{
1070
284
1070
8
1070
78
1070
8
1070
144
1040
1.00000000000000
1070
147
1040
0.625
1070
 72
1070
 0
1070
 71
1070
 0
1002
}
  0
DIMENSION
  5
F10008
330
261
100
AcDbEntity
  8
Bemassung
100
AcDbDimension
  2
*D4
10
-60.7456575682382
20
9.24937965260546
30
0.000000000000000
11
-73.2708666616902
21
21.8195503521895
31
0.000000000000000
 70
164
 1
<>
 71
     8
  3
BEM-ISBE
100
AcDbRadialDimension
15
-62.0767850495033
25
13.0213949798040
35
0.000000000000000
40
0.0
1001
ACAD
1000
DSTYLE
1002
{
1070
284
1070
8
1070
78
1070
8
1070
144
1040
1.00000000000000
1070
147
1040
0.625
1070
 72
1070
 0
1070
 71
1070
 0
1002
}
  0
DIMENSION
  5
F10003
330
261
100
AcDbEntity
  8
Bemassung
100
AcDbDimension
  2
*D3
10
-74.7456575682382
20
13.2493796526055
30
0.000000000000000
11
-75.4123242349049
21
9.24937965260546
31
0.000000000000000
 70
32
 1
Ø<>
 71
     8
  3
BEM-ISBE
100
AcDbAlignedDimension
13
-60.7456575682382
23
5.24937965260546
33
0.000000000000000
14
-60.7456575682382
24
13.2493796526055
34
0.000000000000000
50
90.0000000000000
100
AcDbRotatedDimension
1001
ACAD
1000
DSTYLE
1002
{
1070
284
1070
8
1070
78
1070
8
1070
144
1040
1.00000000000000
1070
147
1040
0.625
1070
 72
1070
 0
1070
 71
1070
 0
1002
}
  0
DIMENSION
  5
F10012
330
261
100
AcDbEntity
  8
Bemassung
100
AcDbDimension
  2
*D6
10
92.2543424317618
20
13.2493796526055
30
0.000000000000000
11
91.5876757650951
21
-2.34491315136476
31
0.000000000000000
 70
32
 1
Ø<> h5
 71
     8
  3
BEM-ISBE
100
AcDbAlignedDimension
13
85.0543424317618
23
5.24937965260546
33
0.000000000000000
14
85.0543424317618
24
13.2493796526055
34
0.000000000000000
50
90.0000000000000
100
AcDbRotatedDimension
1001
ACAD
1000
DSTYLE
1002
{
1070
284
1070
8
1070
78
1070
8
1070
144
1040
1.00000000000000
1070
147
1040
0.625
1070
 72
1070
 0
1070
 71
1070
 0
1002
}
  0
ARC
  5
F10059
330
F1005A
100
AcDbEntity
8
Geo
100
AcDbCircle
10
-60.7456575682382
20
9.24937965260546
30
0.000000000000000
 40
4.00000000000000
100
AcDbArc
 50
90.0000000000000
 51
180.000000000000
  0
LINE
  5
F1005B
330
F1005C
100
AcDbEntity
8
Geo
100
AcDbLine
10
-60.7456575682382
20
13.2493796526055
30
0.000000000000000
11
-22.7456575682382
21
13.2493796526055
31
0.000000000000000
  0
LINE
  5
F1005D
330
F1005E
100
AcDbEntity
8
Geo
100
AcDbLine
10
-22.7456575682382
20
13.2493796526055
30
0.000000000000000
11
-22.7456575682382
21
13.2488796526055
31
0.000000000000000
  0
LINE
  5
F1005F
330
F10060
100
AcDbEntity
8
Geo
100
AcDbLine
10
-22.7456575682382
20
13.2488796526055
30
0.000000000000000
11
-20.7456575682382
21
13.2488796526055
31
0.000000000000000
  0
LINE
  5
F10061
330
F10062
100
AcDbEntity
8
Geo
100
AcDbLine
10
-20.7456575682382
20
13.2488796526055
30
0.000000000000000
11
-20.7456575682382
21
13.2493796526055
31
0.000000000000000
  0
LINE
  5
F10063
330
F10064
100
AcDbEntity
8
Geo
100
AcDbLine
10
-20.7456575682382
20
13.2493796526055
30
0.000000000000000
11
85.0543424317618
21
13.2493796526055
31
0.000000000000000
  0
LINE
  5
F10065
330
F10066
100
AcDbEntity
8
Geo
100
AcDbLine
10
85.0543424317618
20
13.2493796526055
30
0.000000000000000
11
85.2543424317618
21
13.0493796526055
31
0.000000000000000
  0
LINE
  5
F10067
330
F10068
100
AcDbEntity
8
Geo
100
AcDbLine
10
-45.4456575682382
20
13.2492868529696
30
0.000000000000000
11
-45.3456575682382
21
13.2492634633274
31
0.000000000000000
  0
LINE
  5
F10069
330
F1006A
100
AcDbEntity
8
Geo
100
AcDbLine
10
-45.3456575682382
20
13.2492634633274
30
0.000000000000000
11
-45.2456575682382
21
13.2484067790251
31
0.000000000000000
  0
LINE
  5
F1006B
330
F1006C
100
AcDbEntity
8
Geo
100
AcDbLine
10
-45.2456575682382
20
13.2484067790251
30
0.000000000000000
11
-45.1456575682382
21
13.2467169785354
31
0.000000000000000
  0
LINE
  5
F1006D
330
F1006E
100
AcDbEntity
8
Geo
100
AcDbLine
10
-45.1456575682382
20
13.2467169785354
30
0.000000000000000
11
-45.0456575682382
21
13.2441944138940
31
0.000000000000000
  0
LINE
  5
F1006F
330
F10070
100
AcDbEntity
8
Geo
100
AcDbLine
10
-45.0456575682382
20
13.2441944138940
30
0.000000000000000
11
-44.9456575682382
21
13.2408396106261
31
0.000000000000000
  0
LINE
  5
F10071
330
F10072
100
AcDbEntity
8
Geo
100
AcDbLine
10
-44.9456575682382
20
13.2408396106261
30
0.000000000000000
11
-44.8456575682382
21
13.2366532676368
31
0.000000000000000
  0
LINE
  5
F10073
330
F10074
100
AcDbEntity
8
Geo
100
AcDbLine
10
-44.8456575682382
20
13.2366532676368
30
0.000000000000000
11
-44.7456575682382
21
13.2316362570659
31
0.000000000000000
  0
LINE
  5
F10075
330
F10076
100
AcDbEntity
8
Geo
100
AcDbLine
10
-44.7456575682382
20
13.2316362570659
30
0.000000000000000
11
-44.6456575682382
21
13.2257896241057
31
0.000000000000000
  0
LINE
  5
F10077
330
F10078
100
AcDbEntity
8
Geo
100
AcDbLine
10
-44.6456575682382
20
13.2257896241057
30
0.000000000000000
11
-44.5456575682382
21
13.2191145867836
31
0.000000000000000
  0
LINE
  5
F10079
330
F1007A
100
AcDbEntity
8
Geo
100
AcDbLine
10
-44.5456575682382
20
13.2191145867836
30
0.000000000000000
11
-44.4456575682382
21
13.2116125357082
31
0.000000000000000
  0
LINE
  5
F1007B
330
F1007C
100
AcDbEntity
8
Geo
100
AcDbLine
10
-44.4456575682382
20
13.2116125357082
30
0.000000000000000
11
-44.3456575682382
21
13.2032850337798
31
0.000000000000000
  0
LINE
  5
F1007D
330
F1007E
100
AcDbEntity
8
Geo
100
AcDbLine
10
-44.3456575682382
20
13.2032850337798
30
0.000000000000000
11
-44.2456575682382
21
13.1941338158644
31
0.000000000000000
  0
LINE
  5
F1007F
330
F10080
100
AcDbEntity
8
Geo
100
AcDbLine
10
-44.2456575682382
20
13.1941338158644
30
0.000000000000000
11
-44.1456575682382
21
13.1841607884326
31
0.000000000000000
  0
LINE
  5
F10081
330
F10082
100
AcDbEntity
8
Geo
100
AcDbLine
10
-44.1456575682382
20
13.1841607884326
30
0.000000000000000
11
-44.0456575682382
21
13.1733680291625
31
0.000000000000000
  0
LINE
  5
F10083
330
F10084
100
AcDbEntity
8
Geo
100
AcDbLine
10
-44.0456575682382
20
13.1733680291625
30
0.000000000000000
11
-43.9456575682382
21
13.1617577865065
31
0.000000000000000
  0
LINE
  5
F10085
330
F10086
100
AcDbEntity
8
Geo
100
AcDbLine
10
-43.9456575682382
20
13.1617577865065
30
0.000000000000000
11
-43.8456575682382
21
13.1493324792232
31
0.000000000000000
  0
LINE
  5
F10087
330
F10088
100
AcDbEntity
8
Geo
100
AcDbLine
10
-43.8456575682382
20
13.1493324792232
30
0.000000000000000
11
-43.7456575682382
21
13.1360946958733
31
0.000000000000000
  0
LINE
  5
F10089
330
F1008A
100
AcDbEntity
8
Geo
100
AcDbLine
10
-43.7456575682382
20
13.1360946958733
30
0.000000000000000
11
-43.6456575682382
21
13.1220471942805
31
0.000000000000000
  0
LINE
  5
F1008B
330
F1008C
100
AcDbEntity
8
Geo
100
AcDbLine
10
-43.6456575682382
20
13.1220471942805
30
0.000000000000000
11
-43.5456575682382
21
13.1071929009568
31
0.000000000000000
  0
LINE
  5
F1008D
330
F1008E
100
AcDbEntity
8
Geo
100
AcDbLine
10
-43.5456575682382
20
13.1071929009568
30
0.000000000000000
11
-43.4456575682382
21
13.0915349104929
31
0.000000000000000
  0
LINE
  5
F1008F
330
F10090
100
AcDbEntity
8
Geo
100
AcDbLine
10
-43.4456575682382
20
13.0915349104929
30
0.000000000000000
11
-43.3456575682382
21
13.0750764849135
31
0.000000000000000
  0
LINE
  5
F10091
330
F10092
100
AcDbEntity
8
Geo
100
AcDbLine
10
-43.3456575682382
20
13.0750764849135
30
0.000000000000000
11
-43.2456575682382
21
13.0578210529978
31
0.000000000000000
  0
LINE
  5
F10093
330
F10094
100
AcDbEntity
8
Geo
100
AcDbLine
10
-43.2456575682382
20
13.0578210529978
30
0.000000000000000
11
-43.1456575682382
21
13.0397722095650
31
0.000000000000000
  0
LINE
  5
F10095
330
F10096
100
AcDbEntity
8
Geo
100
AcDbLine
10
-43.1456575682382
20
13.0397722095650
30
0.000000000000000
11
-43.0456575682382
21
13.0209337147255
31
0.000000000000000
  0
LINE
  5
F10097
330
F10098
100
AcDbEntity
8
Geo
100
AcDbLine
10
-43.0456575682382
20
13.0209337147255
30
0.000000000000000
11
-42.9456575682382
21
13.0013094930977
31
0.000000000000000
  0
LINE
  5
F10099
330
F1009A
100
AcDbEntity
8
Geo
100
AcDbLine
10
-42.9456575682382
20
13.0013094930977
30
0.000000000000000
11
-42.8456575682382
21
12.9809036329900
31
0.000000000000000
  0
LINE
  5
F1009B
330
F1009C
100
AcDbEntity
8
Geo
100
AcDbLine
10
-42.8456575682382
20
12.9809036329900
30
0.000000000000000
11
-42.7456575682382
21
12.9597203855495
31
0.000000000000000
  0
LINE
  5
F1009D
330
F1009E
100
AcDbEntity
8
Geo
100
AcDbLine
10
-42.7456575682382
20
12.9597203855495
30
0.000000000000000
11
-42.6456575682382
21
12.9377641638761
31
0.000000000000000
  0
LINE
  5
F1009F
330
F100A0
100
AcDbEntity
8
Geo
100
AcDbLine
10
-42.6456575682382
20
12.9377641638761
30
0.000000000000000
11
-42.5456575682382
21
12.9150395421033
31
0.000000000000000
  0
LINE
  5
F100A1
330
F100A2
100
AcDbEntity
8
Geo
100
AcDbLine
10
-42.5456575682382
20
12.9150395421033
30
0.000000000000000
11
-42.4456575682382
21
12.8915512544451
31
0.000000000000000
  0
LINE
  5
F100A3
330
F100A4
100
AcDbEntity
8
Geo
100
AcDbLine
10
-42.4456575682382
20
12.8915512544451
30
0.000000000000000
11
-42.3456575682382
21
12.8673041942098
31
0.000000000000000
  0
LINE
  5
F100A5
330
F100A6
100
AcDbEntity
8
Geo
100
AcDbLine
10
-42.3456575682382
20
12.8673041942098
30
0.000000000000000
11
-42.2456575682382
21
12.8423034127805
31
0.000000000000000
  0
LINE
  5
F100A7
330
F100A8
100
AcDbEntity
8
Geo
100
AcDbLine
10
-42.2456575682382
20
12.8423034127805
30
0.000000000000000
11
-42.1456575682382
21
12.8165541185630
31
0.000000000000000
  0
LINE
  5
F100A9
330
F100AA
100
AcDbEntity
8
Geo
100
AcDbLine
10
-42.1456575682382
20
12.8165541185630
30
0.000000000000000
11
-42.0456575682382
21
12.7900616759005
31
0.000000000000000
  0
LINE
  5
F100AB
330
F100AC
100
AcDbEntity
8
Geo
100
AcDbLine
10
-42.0456575682382
20
12.7900616759005
30
0.000000000000000
11
-41.9456575682382
21
12.7628316039560
31
0.000000000000000
  0
LINE
  5
F100AD
330
F100AE
100
AcDbEntity
8
Geo
100
AcDbLine
10
-41.9456575682382
20
12.7628316039560
30
0.000000000000000
11
-41.8456575682382
21
12.7348695755627
31
0.000000000000000
  0
LINE
  5
F100AF
330
F100B0
100
AcDbEntity
8
Geo
100
AcDbLine
10
-41.8456575682382
20
12.7348695755627
30
0.000000000000000
11
-41.7456575682382
21
12.7061814160419
31
0.000000000000000
  0
LINE
  5
F100B1
330
F100B2
100
AcDbEntity
8
Geo
100
AcDbLine
10
-41.7456575682382
20
12.7061814160419
30
0.000000000000000
11
-41.6456575682382
21
12.6767731019900
31
0.000000000000000
  0
LINE
  5
F100B3
330
F100B4
100
AcDbEntity
8
Geo
100
AcDbLine
10
-41.6456575682382
20
12.6767731019900
30
0.000000000000000
11
-41.5456575682382
21
12.6466507600325
31
0.000000000000000
  0
LINE
  5
F100B5
330
F100B6
100
AcDbEntity
8
Geo
100
AcDbLine
10
-41.5456575682382
20
12.6466507600325
30
0.000000000000000
11
-41.4456575682382
21
12.6158206655485
31
0.000000000000000
  0
LINE
  5
F100B7
330
F100B8
100
AcDbEntity
8
Geo
100
AcDbLine
10
-41.4456575682382
20
12.6158206655485
30
0.000000000000000
11
-41.3456575682382
21
12.5842892413628
31
0.000000000000000
  0
LINE
  5
F100B9
330
F100BA
100
AcDbEntity
8
Geo
100
AcDbLine
10
-41.3456575682382
20
12.5842892413628
30
0.000000000000000
11
-41.2456575682382
21
12.5520630564080
31
0.000000000000000
  0
LINE
  5
F100BB
330
F100BC
100
AcDbEntity
8
Geo
100
AcDbLine
10
-41.2456575682382
20
12.5520630564080
30
0.000000000000000
11
-41.1456575682382
21
12.5191488243562
31
0.000000000000000
  0
LINE
  5
F100BD
330
F100BE
100
AcDbEntity
8
Geo
100
AcDbLine
10
-41.1456575682382
20
12.5191488243562
30
0.000000000000000
11
-41.0456575682381
21
12.4855534022199
31
0.000000000000000
  0
LINE
  5
F100BF
330
F100C0
100
AcDbEntity
8
Geo
100
AcDbLine
10
-41.0456575682381
20
12.4855534022199
30
0.000000000000000
11
-40.9456575682381
21
12.4512837889240
31
0.000000000000000
  0
LINE
  5
F100C1
330
F100C2
100
AcDbEntity
8
Geo
100
AcDbLine
10
-40.9456575682381
20
12.4512837889240
30
0.000000000000000
11
-40.8456575682381
21
12.4163471238472
31
0.000000000000000
  0
LINE
  5
F100C3
330
F100C4
100
AcDbEntity
8
Geo
100
AcDbLine
10
-40.8456575682381
20
12.4163471238472
30
0.000000000000000
11
-40.7456575682381
21
12.3807506853350
31
0.000000000000000
  0
LINE
  5
F100C5
330
F100C6
100
AcDbEntity
8
Geo
100
AcDbLine
10
-40.7456575682381
20
12.3807506853350
30
0.000000000000000
11
-40.6456575682381
21
12.3445018891835
31
0.000000000000000
  0
LINE
  5
F100C7
330
F100C8
100
AcDbEntity
8
Geo
100
AcDbLine
10
-40.6456575682381
20
12.3445018891835
30
0.000000000000000
11
-40.5456575682381
21
12.3076082870941
31
0.000000000000000
  0
LINE
  5
F100C9
330
F100CA
100
AcDbEntity
8
Geo
100
AcDbLine
10
-40.5456575682381
20
12.3076082870941
30
0.000000000000000
11
-40.4456575682381
21
12.2700775651003
31
0.000000000000000
  0
LINE
  5
F100CB
330
F100CC
100
AcDbEntity
8
Geo
100
AcDbLine
10
-40.4456575682381
20
12.2700775651003
30
0.000000000000000
11
-40.3456575682381
21
12.2319175419669
31
0.000000000000000
  0
LINE
  5
F100CD
330
F100CE
100
AcDbEntity
8
Geo
100
AcDbLine
10
-40.3456575682381
20
12.2319175419669
30
0.000000000000000
11
-40.2456575682381
21
12.1931361675607
31
0.000000000000000
  0
LINE
  5
F100CF
330
F100D0
100
AcDbEntity
8
Geo
100
AcDbLine
10
-40.2456575682381
20
12.1931361675607
30
0.000000000000000
11
-40.1456575682381
21
12.1537415211944
31
0.000000000000000
  0
LINE
  5
F100D1
330
F100D2
100
AcDbEntity
8
Geo
100
AcDbLine
10
-40.1456575682381
20
12.1537415211944
30
0.000000000000000
11
-40.0456575682381
21
12.1137418099436
31
0.000000000000000
  0
LINE
  5
F100D3
330
F100D4
100
AcDbEntity
8
Geo
100
AcDbLine
10
-40.0456575682381
20
12.1137418099436
30
0.000000000000000
11
-39.9456575682381
21
12.0731453669366
31
0.000000000000000
  0
LINE
  5
F100D5
330
F100D6
100
AcDbEntity
8
Geo
100
AcDbLine
10
-39.9456575682381
20
12.0731453669366
30
0.000000000000000
11
-39.8456575682381
21
12.0319606496191
31
0.000000000000000
  0
LINE
  5
F100D7
330
F100D8
100
AcDbEntity
8
Geo
100
AcDbLine
10
-39.8456575682381
20
12.0319606496191
30
0.000000000000000
11
-39.7456575682381
21
11.9901962379913
31
0.000000000000000
  0
LINE
  5
F100D9
330
F100DA
100
AcDbEntity
8
Geo
100
AcDbLine
10
-39.7456575682381
20
11.9901962379913
30
0.000000000000000
11
-39.6456575682381
21
11.9478608328215
31
0.000000000000000
  0
LINE
  5
F100DB
330
F100DC
100
AcDbEntity
8
Geo
100
AcDbLine
10
-39.6456575682381
20
11.9478608328215
30
0.000000000000000
11
-39.5456575682381
21
11.9049632538326
31
0.000000000000000
  0
LINE
  5
F100DD
330
F100DE
100
AcDbEntity
8
Geo
100
AcDbLine
10
-39.5456575682381
20
11.9049632538326
30
0.000000000000000
11
-39.4456575682381
21
11.8615124378650
31
0.000000000000000
  0
LINE
  5
F100DF
330
F100E0
100
AcDbEntity
8
Geo
100
AcDbLine
10
-39.4456575682381
20
11.8615124378650
30
0.000000000000000
11
-39.3456575682381
21
11.8175174370148
31
0.000000000000000
  0
LINE
  5
F100E1
330
F100E2
100
AcDbEntity
8
Geo
100
AcDbLine
10
-39.3456575682381
20
11.8175174370148
30
0.000000000000000
11
-39.2456575682381
21
11.7729874167482
31
0.000000000000000
  0
LINE
  5
F100E3
330
F100E4
100
AcDbEntity
8
Geo
100
AcDbLine
10
-39.2456575682381
20
11.7729874167482
30
0.000000000000000
11
-39.1456575682381
21
11.7279316539917
31
0.000000000000000
  0
LINE
  5
F100E5
330
F100E6
100
AcDbEntity
8
Geo
100
AcDbLine
10
-39.1456575682381
20
11.7279316539917
30
0.000000000000000
11
-39.0456575682381
21
11.6823595351994
31
0.000000000000000
  0
LINE
  5
F100E7
330
F100E8
100
AcDbEntity
8
Geo
100
AcDbLine
10
-39.0456575682381
20
11.6823595351994
30
0.000000000000000
11
-38.9456575682381
21
11.6362805543981
31
0.000000000000000
  0
LINE
  5
F100E9
330
F100EA
100
AcDbEntity
8
Geo
100
AcDbLine
10
-38.9456575682381
20
11.6362805543981
30
0.000000000000000
11
-38.8456575682381
21
11.5897043112086
31
0.000000000000000
  0
LINE
  5
F100EB
330
F100EC
100
AcDbEntity
8
Geo
100
AcDbLine
10
-38.8456575682381
20
11.5897043112086
30
0.000000000000000
11
-38.7456575682381
21
11.5426405088467
31
0.000000000000000
  0
LINE
  5
F100ED
330
F100EE
100
AcDbEntity
8
Geo
100
AcDbLine
10
-38.7456575682381
20
11.5426405088467
30
0.000000000000000
11
-38.6456575682381
21
11.4950989521007
31
0.000000000000000
  0
LINE
  5
F100EF
330
F100F0
100
AcDbEntity
8
Geo
100
AcDbLine
10
-38.6456575682381
20
11.4950989521007
30
0.000000000000000
11
-38.5456575682381
21
11.4470895452899
31
0.000000000000000
  0
LINE
  5
F100F1
330
F100F2
100
AcDbEntity
8
Geo
100
AcDbLine
10
-38.5456575682381
20
11.4470895452899
30
0.000000000000000
11
-38.4456575682381
21
11.3986222902003
31
0.000000000000000
  0
LINE
  5
F100F3
330
F100F4
100
AcDbEntity
8
Geo
100
AcDbLine
10
-38.4456575682381
20
11.3986222902003
30
0.000000000000000
11
-38.3456575682381
21
11.3497072840013
31
0.000000000000000
  0
LINE
  5
F100F5
330
F100F6
100
AcDbEntity
8
Geo
100
AcDbLine
10
-38.3456575682381
20
11.3497072840013
30
0.000000000000000
11
-38.2456575682381
21
11.3003547171424
31
0.000000000000000
  0
LINE
  5
F100F7
330
F100F8
100
AcDbEntity
8
Geo
100
AcDbLine
10
-38.2456575682381
20
11.3003547171424
30
0.000000000000000
11
-38.1456575682381
21
11.2505748712299
31
0.000000000000000
  0
LINE
  5
F100F9
330
F100FA
100
AcDbEntity
8
Geo
100
AcDbLine
10
-38.1456575682381
20
11.2505748712299
30
0.000000000000000
11
-38.0456575682381
21
11.2003781168849
31
0.000000000000000
  0
LINE
  5
F100FB
330
F100FC
100
AcDbEntity
8
Geo
100
AcDbLine
10
-38.0456575682381
20
11.2003781168849
30
0.000000000000000
11
-37.9456575682381
21
11.1497749115830
31
0.000000000000000
  0
LINE
  5
F100FD
330
F100FE
100
AcDbEntity
8
Geo
100
AcDbLine
10
-37.9456575682381
20
11.1497749115830
30
0.000000000000000
11
-37.8456575682381
21
11.0987757974757
31
0.000000000000000
  0
LINE
  5
F100FF
330
F10100
100
AcDbEntity
8
Geo
100
AcDbLine
10
-37.8456575682381
20
11.0987757974757
30
0.000000000000000
11
-37.7456575682381
21
11.0473913991939
31
0.000000000000000
  0
LINE
  5
F10101
330
F10102
100
AcDbEntity
8
Geo
100
AcDbLine
10
-37.7456575682381
20
11.0473913991939
30
0.000000000000000
11
-37.6456575682381
21
10.9956324216347
31
0.000000000000000
  0
LINE
  5
F10103
330
F10104
100
AcDbEntity
8
Geo
100
AcDbLine
10
-37.6456575682381
20
10.9956324216347
30
0.000000000000000
11
-37.5456575682381
21
10.9435096477312
31
0.000000000000000
  0
LINE
  5
F10105
330
F10106
100
AcDbEntity
8
Geo
100
AcDbLine
10
-37.5456575682381
20
10.9435096477312
30
0.000000000000000
11
-37.4456575682381
21
10.8910339362063
31
0.000000000000000
  0
LINE
  5
F10107
330
F10108
100
AcDbEntity
8
Geo
100
AcDbLine
10
-37.4456575682381
20
10.8910339362063
30
0.000000000000000
11
-37.3456575682381
21
10.8382162193099
31
0.000000000000000
  0
LINE
  5
F10109
330
F1010A
100
AcDbEntity
8
Geo
100
AcDbLine
10
-37.3456575682381
20
10.8382162193099
30
0.000000000000000
11
-37.2456575682381
21
10.7850675005421
31
0.000000000000000
  0
LINE
  5
F1010B
330
F1010C
100
AcDbEntity
8
Geo
100
AcDbLine
10
-37.2456575682381
20
10.7850675005421
30
0.000000000000000
11
-37.1456575682381
21
10.7315988523603
31
0.000000000000000
  0
LINE
  5
F1010D
330
F1010E
100
AcDbEntity
8
Geo
100
AcDbLine
10
-37.1456575682381
20
10.7315988523603
30
0.000000000000000
11
-37.0456575682381
21
10.6778214138729
31
0.000000000000000
  0
LINE
  5
F1010F
330
F10110
100
AcDbEntity
8
Geo
100
AcDbLine
10
-37.0456575682381
20
10.6778214138729
30
0.000000000000000
11
-36.9456575682381
21
10.6237463885184
31
0.000000000000000
  0
LINE
  5
F10111
330
F10112
100
AcDbEntity
8
Geo
100
AcDbLine
10
-36.9456575682381
20
10.6237463885184
30
0.000000000000000
11
-36.8456575682381
21
10.5693850417315
31
0.000000000000000
  0
LINE
  5
F10113
330
F10114
100
AcDbEntity
8
Geo
100
AcDbLine
10
-36.8456575682381
20
10.5693850417315
30
0.000000000000000
11
-36.7456575682381
21
10.5147486985962
31
0.000000000000000
  0
LINE
  5
F10115
330
F10116
100
AcDbEntity
8
Geo
100
AcDbLine
10
-36.7456575682381
20
10.5147486985962
30
0.000000000000000
11
-36.6456575682381
21
10.4598487414863
31
0.000000000000000
  0
LINE
  5
F10117
330
F10118
100
AcDbEntity
8
Geo
100
AcDbLine
10
-36.6456575682381
20
10.4598487414863
30
0.000000000000000
11
-36.5456575682381
21
10.4046966076943
31
0.000000000000000
  0
LINE
  5
F10119
330
F1011A
100
AcDbEntity
8
Geo
100
AcDbLine
10
-36.5456575682381
20
10.4046966076943
30
0.000000000000000
11
-36.4456575682381
21
10.3493037870487
31
0.000000000000000
  0
LINE
  5
F1011B
330
F1011C
100
AcDbEntity
8
Geo
100
AcDbLine
10
-36.4456575682381
20
10.3493037870487
30
0.000000000000000
11
-36.3456575682381
21
10.2936818195200
31
0.000000000000000
  0
LINE
  5
F1011D
330
F1011E
100
AcDbEntity
8
Geo
100
AcDbLine
10
-36.3456575682381
20
10.2936818195200
30
0.000000000000000
11
-36.2456575682381
21
10.2378422928169
31
0.000000000000000
  0
LINE
  5
F1011F
330
F10120
100
AcDbEntity
8
Geo
100
AcDbLine
10
-36.2456575682381
20
10.2378422928169
30
0.000000000000000
11
-36.1456575682381
21
10.1817968399723
31
0.000000000000000
  0
LINE
  5
F10121
330
F10122
100
AcDbEntity
8
Geo
100
AcDbLine
10
-36.1456575682381
20
10.1817968399723
30
0.000000000000000
11
-36.0456575682381
21
10.1255571369195
31
0.000000000000000
  0
LINE
  5
F10123
330
F10124
100
AcDbEntity
8
Geo
100
AcDbLine
10
-36.0456575682381
20
10.1255571369195
30
0.000000000000000
11
-35.9456575682381
21
10.0691349000597
31
0.000000000000000
  0
LINE
  5
F10125
330
F10126
100
AcDbEntity
8
Geo
100
AcDbLine
10
-35.9456575682381
20
10.0691349000597
30
0.000000000000000
11
-35.8456575682381
21
10.0125418838217
31
0.000000000000000
  0
LINE
  5
F10127
330
F10128
100
AcDbEntity
8
Geo
100
AcDbLine
10
-35.8456575682381
20
10.0125418838217
30
0.000000000000000
11
-35.7456575682381
21
9.95578987821243
31
0.000000000000000
  0
LINE
  5
F10129
330
F1012A
100
AcDbEntity
8
Geo
100
AcDbLine
10
-35.7456575682381
20
9.95578987821243
30
0.000000000000000
11
-35.6456575682381
21
9.89889070636116
31
0.000000000000000
  0
LINE
  5
F1012B
330
F1012C
100
AcDbEntity
8
Geo
100
AcDbLine
10
-35.6456575682381
20
9.89889070636116
30
0.000000000000000
11
-35.5456575682381
21
9.84185622205623
31
0.000000000000000
  0
LINE
  5
F1012D
330
F1012E
100
AcDbEntity
8
Geo
100
AcDbLine
10
-35.5456575682381
20
9.84185622205623
30
0.000000000000000
11
-35.4456575682381
21
9.78469830727558
31
0.000000000000000
  0
LINE
  5
F1012F
330
F10130
100
AcDbEntity
8
Geo
100
AcDbLine
10
-35.4456575682381
20
9.78469830727558
30
0.000000000000000
11
-35.3456575682381
21
9.72742886971138
31
0.000000000000000
  0
LINE
  5
F10131
330
F10132
100
AcDbEntity
8
Geo
100
AcDbLine
10
-35.3456575682381
20
9.72742886971138
30
0.000000000000000
11
-35.2456575682381
21
9.67005984028933
31
0.000000000000000
  0
LINE
  5
F10133
330
F10134
100
AcDbEntity
8
Geo
100
AcDbLine
10
-35.2456575682381
20
9.67005984028933
30
0.000000000000000
11
-35.1456575682381
21
9.61260317068306
31
0.000000000000000
  0
LINE
  5
F10135
330
F10136
100
AcDbEntity
8
Geo
100
AcDbLine
10
-35.1456575682381
20
9.61260317068306
30
0.000000000000000
11
-35.0456575682381
21
9.55507083082425
31
0.000000000000000
  0
LINE
  5
F10137
330
F10138
100
AcDbEntity
8
Geo
100
AcDbLine
10
-35.0456575682381
20
9.55507083082425
30
0.000000000000000
11
-34.9456575682381
21
9.49747480640897
31
0.000000000000000
  0
LINE
  5
F10139
330
F1013A
100
AcDbEntity
8
Geo
100
AcDbLine
10
-34.9456575682381
20
9.49747480640897
30
0.000000000000000
11
-34.8456575682381
21
9.43982709640063
31
0.000000000000000
  0
LINE
  5
F1013B
330
F1013C
100
AcDbEntity
8
Geo
100
AcDbLine
10
-34.8456575682381
20
9.43982709640063
30
0.000000000000000
11
-34.7456575682381
21
9.38213971053033
31
0.000000000000000
  0
LINE
  5
F1013D
330
F1013E
100
AcDbEntity
8
Geo
100
AcDbLine
10
-34.7456575682381
20
9.38213971053033
30
0.000000000000000
11
-34.6456575682381
21
9.32442466679480
31
0.000000000000000
  0
LINE
  5
F1013F
330
F10140
100
AcDbEntity
8
Geo
100
AcDbLine
10
-34.6456575682381
20
9.32442466679480
30
0.000000000000000
11
-34.5456575682381
21
9.26669398895275
31
0.000000000000000
  0
LINE
  5
F10141
330
F10142
100
AcDbEntity
8
Geo
100
AcDbLine
10
-34.5456575682381
20
9.26669398895275
30
0.000000000000000
11
-34.4456575682381
21
9.20895970401991
31
0.000000000000000
  0
LINE
  5
F10143
330
F10144
100
AcDbEntity
8
Geo
100
AcDbLine
10
-34.4456575682381
20
9.20895970401991
30
0.000000000000000
11
-34.3456575682381
21
9.15123383976351
31
0.000000000000000
  0
LINE
  5
F10145
330
F10146
100
AcDbEntity
8
Geo
100
AcDbLine
10
-34.3456575682381
20
9.15123383976351
30
0.000000000000000
11
-34.2456575682381
21
9.09352842219646
31
0.000000000000000
  0
LINE
  5
F10147
330
F10148
100
AcDbEntity
8
Geo
100
AcDbLine
10
-34.2456575682381
20
9.09352842219646
30
0.000000000000000
11
-34.1456575682381
21
9.03585547307206
31
0.000000000000000
  0
LINE
  5
F10149
330
F1014A
100
AcDbEntity
8
Geo
100
AcDbLine
10
-34.1456575682381
20
9.03585547307206
30
0.000000000000000
11
-34.0456575682380
21
8.97822700737943
31
0.000000000000000
  0
LINE
  5
F1014B
330
F1014C
100
AcDbEntity
8
Geo
100
AcDbLine
10
-34.0456575682380
20
8.97822700737943
30
0.000000000000000
11
-33.9456575682380
21
8.92065503084051
31
0.000000000000000
  0
LINE
  5
F1014D
330
F1014E
100
AcDbEntity
8
Geo
100
AcDbLine
10
-33.9456575682380
20
8.92065503084051
30
0.000000000000000
11
-33.8456575682380
21
8.86315153740882
31
0.000000000000000
  0
LINE
  5
F1014F
330
F10150
100
AcDbEntity
8
Geo
100
AcDbLine
10
-33.8456575682380
20
8.86315153740882
30
0.000000000000000
11
-33.7456575682380
21
8.80572850677087
31
0.000000000000000
  0
LINE
  5
F10151
330
F10152
100
AcDbEntity
8
Geo
100
AcDbLine
10
-33.7456575682380
20
8.80572850677087
30
0.000000000000000
11
-33.6456575682380
21
8.74839790185033
31
0.000000000000000
  0
LINE
  5
F10153
330
F10154
100
AcDbEntity
8
Geo
100
AcDbLine
10
-33.6456575682380
20
8.74839790185033
30
0.000000000000000
11
-33.5456575682380
21
8.69117166631588
31
0.000000000000000
  0
LINE
  5
F10155
330
F10156
100
AcDbEntity
8
Geo
100
AcDbLine
10
-33.5456575682380
20
8.69117166631588
30
0.000000000000000
11
-33.4456575682380
21
8.63406172209294
31
0.000000000000000
  0
LINE
  5
F10157
330
F10158
100
AcDbEntity
8
Geo
100
AcDbLine
10
-33.4456575682380
20
8.63406172209294
30
0.000000000000000
11
-33.3456575682380
21
8.57707996688000
31
0.000000000000000
  0
LINE
  5
F10159
330
F1015A
100
AcDbEntity
8
Geo
100
AcDbLine
10
-33.3456575682380
20
8.57707996688000
30
0.000000000000000
11
-33.2456575682380
21
8.52023827166996
31
0.000000000000000
  0
LINE
  5
F1015B
330
F1015C
100
AcDbEntity
8
Geo
100
AcDbLine
10
-33.2456575682380
20
8.52023827166996
30
0.000000000000000
11
-33.1456575682380
21
8.46354847827707
31
0.000000000000000
  0
LINE
  5
F1015D
330
F1015E
100
AcDbEntity
8
Geo
100
AcDbLine
10
-33.1456575682380
20
8.46354847827707
30
0.000000000000000
11
-33.0456575682380
21
8.40702239686992
31
0.000000000000000
  0
LINE
  5
F1015F
330
F10160
100
AcDbEntity
8
Geo
100
AcDbLine
10
-33.0456575682380
20
8.40702239686992
30
0.000000000000000
11
-32.9456575682380
21
8.35067180351101
31
0.000000000000000
  0
LINE
  5
F10161
330
F10162
100
AcDbEntity
8
Geo
100
AcDbLine
10
-32.9456575682380
20
8.35067180351101
30
0.000000000000000
11
-32.8456575682380
21
8.29450843770348
31
0.000000000000000
  0
LINE
  5
F10163
330
F10164
100
AcDbEntity
8
Geo
100
AcDbLine
10
-32.8456575682380
20
8.29450843770348
30
0.000000000000000
11
-32.7456575682380
21
8.23854399994541
31
0.000000000000000
  0
LINE
  5
F10165
330
F10166
100
AcDbEntity
8
Geo
100
AcDbLine
10
-32.7456575682380
20
8.23854399994541
30
0.000000000000000
11
-32.6456575682380
21
8.18279014929225
31
0.000000000000000
  0
LINE
  5
F10167
330
F10168
100
AcDbEntity
8
Geo
100
AcDbLine
10
-32.6456575682380
20
8.18279014929225
30
0.000000000000000
11
-32.5456575682380
21
8.12725850092788
31
0.000000000000000
  0
LINE
  5
F10169
330
F1016A
100
AcDbEntity
8
Geo
100
AcDbLine
10
-32.5456575682380
20
8.12725850092788
30
0.000000000000000
11
-32.4456575682380
21
8.07196062374489
31
0.000000000000000
  0
LINE
  5
F1016B
330
F1016C
100
AcDbEntity
8
Geo
100
AcDbLine
10
-32.4456575682380
20
8.07196062374489
30
0.000000000000000
11
-32.3456575682380
21
8.01690803793433
31
0.000000000000000
  0
LINE
  5
F1016D
330
F1016E
100
AcDbEntity
8
Geo
100
AcDbLine
10
-32.3456575682380
20
8.01690803793433
30
0.000000000000000
11
-32.2456575682380
21
7.96211221258580
31
0.000000000000000
  0
LINE
  5
F1016F
330
F10170
100
AcDbEntity
8
Geo
100
AcDbLine
10
-32.2456575682380
20
7.96211221258580
30
0.000000000000000
11
-32.1456575682380
21
7.90758456329806
31
0.000000000000000
  0
LINE
  5
F10171
330
F10172
100
AcDbEntity
8
Geo
100
AcDbLine
10
-32.1456575682380
20
7.90758456329806
30
0.000000000000000
11
-32.0456575682380
21
7.85333644980082
31
0.000000000000000
  0
LINE
  5
F10173
330
F10174
100
AcDbEntity
8
Geo
100
AcDbLine
10
-32.0456575682380
20
7.85333644980082
30
0.000000000000000
11
-31.9456575682380
21
7.79937917358819
31
0.000000000000000
  0
LINE
  5
F10175
330
F10176
100
AcDbEntity
8
Geo
100
AcDbLine
10
-31.9456575682380
20
7.79937917358819
30
0.000000000000000
11
-31.8456575682380
21
7.74572397556422
31
0.000000000000000
  0
LINE
  5
F10177
330
F10178
100
AcDbEntity
8
Geo
100
AcDbLine
10
-31.8456575682380
20
7.74572397556422
30
0.000000000000000
11
-31.7456575682380
21
7.69238203370110
31
0.000000000000000
  0
LINE
  5
F10179
330
F1017A
100
AcDbEntity
8
Geo
100
AcDbLine
10
-31.7456575682380
20
7.69238203370110
30
0.000000000000000
11
-31.6456575682380
21
7.63936446071046
31
0.000000000000000
  0
LINE
  5
F1017B
330
F1017C
100
AcDbEntity
8
Geo
100
AcDbLine
10
-31.6456575682380
20
7.63936446071046
30
0.000000000000000
11
-31.5456575682380
21
7.58668230172824
31
0.000000000000000
  0
LINE
  5
F1017D
330
F1017E
100
AcDbEntity
8
Geo
100
AcDbLine
10
-31.5456575682380
20
7.58668230172824
30
0.000000000000000
11
-31.4456575682380
21
7.53434653201369
31
0.000000000000000
  0
LINE
  5
F1017F
330
F10180
100
AcDbEntity
8
Geo
100
AcDbLine
10
-31.4456575682380
20
7.53434653201369
30
0.000000000000000
11
-31.3456575682380
21
7.48236805466287
31
0.000000000000000
  0
LINE
  5
F10181
330
F10182
100
AcDbEntity
8
Geo
100
AcDbLine
10
-31.3456575682380
20
7.48236805466287
30
0.000000000000000
11
-31.2456575682380
21
7.43075769833723
31
0.000000000000000
  0
LINE
  5
F10183
330
F10184
100
AcDbEntity
8
Geo
100
AcDbLine
10
-31.2456575682380
20
7.43075769833723
30
0.000000000000000
11
-31.1456575682380
21
7.37952621500768
31
0.000000000000000
  0
LINE
  5
F10185
330
F10186
100
AcDbEntity
8
Geo
100
AcDbLine
10
-31.1456575682380
20
7.37952621500768
30
0.000000000000000
11
-31.0456575682380
21
7.32868427771460
31
0.000000000000000
  0
LINE
  5
F10187
330
F10188
100
AcDbEntity
8
Geo
100
AcDbLine
10
-31.0456575682380
20
7.32868427771460
30
0.000000000000000
11
-30.9456575682380
21
7.27824247834438
31
0.000000000000000
  0
LINE
  5
F10189
330
F1018A
100
AcDbEntity
8
Geo
100
AcDbLine
10
-30.9456575682380
20
7.27824247834438
30
0.000000000000000
11
-30.8456575682380
21
7.22821132542278
31
0.000000000000000
  0
LINE
  5
F1018B
330
F1018C
100
AcDbEntity
8
Geo
100
AcDbLine
10
-30.8456575682380
20
7.22821132542278
30
0.000000000000000
11
-30.7456575682380
21
7.17860124192569
31
0.000000000000000
  0
LINE
  5
F1018D
330
F1018E
100
AcDbEntity
8
Geo
100
AcDbLine
10
-30.7456575682380
20
7.17860124192569
30
0.000000000000000
11
-30.6456575682380
21
7.12942256310776
31
0.000000000000000
  0
LINE
  5
F1018F
330
F10190
100
AcDbEntity
8
Geo
100
AcDbLine
10
-30.6456575682380
20
7.12942256310776
30
0.000000000000000
11
-30.5456575682380
21
7.08068553434919
31
0.000000000000000
  0
LINE
  5
F10191
330
F10192
100
AcDbEntity
8
Geo
100
AcDbLine
10
-30.5456575682380
20
7.08068553434919
30
0.000000000000000
11
-30.4456575682380
21
7.03240030902137
31
0.000000000000000
  0
LINE
  5
F10193
330
F10194
100
AcDbEntity
8
Geo
100
AcDbLine
10
-30.4456575682380
20
7.03240030902137
30
0.000000000000000
11
-30.3456575682380
21
6.98457694637159
31
0.000000000000000
  0
LINE
  5
F10195
330
F10196
100
AcDbEntity
8
Geo
100
AcDbLine
10
-30.3456575682380
20
6.98457694637159
30
0.000000000000000
11
-30.2456575682380
21
6.93722540942744
31
0.000000000000000
  0
LINE
  5
F10197
330
F10198
100
AcDbEntity
8
Geo
100
AcDbLine
10
-30.2456575682380
20
6.93722540942744
30
0.000000000000000
11
-30.1456575682380
21
6.89035556292119
31
0.000000000000000
  0
LINE
  5
F10199
330
F1019A
100
AcDbEntity
8
Geo
100
AcDbLine
10
-30.1456575682380
20
6.89035556292119
30
0.000000000000000
11
-30.0456575682380
21
6.84397717123466
31
0.000000000000000
  0
LINE
  5
F1019B
330
F1019C
100
AcDbEntity
8
Geo
100
AcDbLine
10
-30.0456575682380
20
6.84397717123466
30
0.000000000000000
11
-29.9456575682380
21
6.79809989636505
31
0.000000000000000
  0
LINE
  5
F1019D
330
F1019E
100
AcDbEntity
8
Geo
100
AcDbLine
10
-29.9456575682380
20
6.79809989636505
30
0.000000000000000
11
-29.8456575682380
21
6.75273329591202
31
0.000000000000000
  0
LINE
  5
F1019F
330
F101A0
100
AcDbEntity
8
Geo
100
AcDbLine
10
-29.8456575682380
20
6.75273329591202
30
0.000000000000000
11
-29.7456575682380
21
6.70788682108658
31
0.000000000000000
  0
LINE
  5
F101A1
330
F101A2
100
AcDbEntity
8
Geo
100
AcDbLine
10
-29.7456575682380
20
6.70788682108658
30
0.000000000000000
11
-29.6456575682380
21
6.66356981474212
31
0.000000000000000
  0
LINE
  5
F101A3
330
F101A4
100
AcDbEntity
8
Geo
100
AcDbLine
10
-29.6456575682380
20
6.66356981474212
30
0.000000000000000
11
-29.5456575682380
21
6.61979150942800
31
0.000000000000000
  0
LINE
  5
F101A5
330
F101A6
100
AcDbEntity
8
Geo
100
AcDbLine
10
-29.5456575682380
20
6.61979150942800
30
0.000000000000000
11
-29.4456575682380
21
6.57656102546616
31
0.000000000000000
  0
LINE
  5
F101A7
330
F101A8
100
AcDbEntity
8
Geo
100
AcDbLine
10
-29.4456575682380
20
6.57656102546616
30
0.000000000000000
11
-29.3456575682380
21
6.53388736905106
31
0.000000000000000
  0
LINE
  5
F101A9
330
F101AA
100
AcDbEntity
8
Geo
100
AcDbLine
10
-29.3456575682380
20
6.53388736905106
30
0.000000000000000
11
-29.2456575682380
21
6.49177943037344
31
0.000000000000000
  0
LINE
  5
F101AB
330
F101AC
100
AcDbEntity
8
Geo
100
AcDbLine
10
-29.2456575682380
20
6.49177943037344
30
0.000000000000000
11
-29.1456575682380
21
6.45024598176823
31
0.000000000000000
  0
LINE
  5
F101AD
330
F101AE
100
AcDbEntity
8
Geo
100
AcDbLine
10
-29.1456575682380
20
6.45024598176823
30
0.000000000000000
11
-29.0456575682380
21
6.40929567588700
31
0.000000000000000
  0
LINE
  5
F101AF
330
F101B0
100
AcDbEntity
8
Geo
100
AcDbLine
10
-29.0456575682380
20
6.40929567588700
30
0.000000000000000
11
-28.9456575682380
21
6.36893704389536
31
0.000000000000000
  0
LINE
  5
F101B1
330
F101B2
100
AcDbEntity
8
Geo
100
AcDbLine
10
-28.9456575682380
20
6.36893704389536
30
0.000000000000000
11
-28.8456575682380
21
6.32917849369568
31
0.000000000000000
  0
LINE
  5
F101B3
330
F101B4
100
AcDbEntity
8
Geo
100
AcDbLine
10
-28.8456575682380
20
6.32917849369568
30
0.000000000000000
11
-28.7456575682380
21
6.29002830817544
31
0.000000000000000
  0
LINE
  5
F101B5
330
F101B6
100
AcDbEntity
8
Geo
100
AcDbLine
10
-28.7456575682380
20
6.29002830817544
30
0.000000000000000
11
-28.6456575682380
21
6.25149464348169
31
0.000000000000000
  0
LINE
  5
F101B7
330
F101B8
100
AcDbEntity
8
Geo
100
AcDbLine
10
-28.6456575682380
20
6.25149464348169
30
0.000000000000000
11
-28.5456575682380
21
6.21358552732187
31
0.000000000000000
  0
LINE
  5
F101B9
330
F101BA
100
AcDbEntity
8
Geo
100
AcDbLine
10
-28.5456575682380
20
6.21358552732187
30
0.000000000000000
11
-28.4456575682380
21
6.17630885729140
31
0.000000000000000
  0
LINE
  5
F101BB
330
F101BC
100
AcDbEntity
8
Geo
100
AcDbLine
10
-28.4456575682380
20
6.17630885729140
30
0.000000000000000
11
-28.3456575682380
21
6.13967239922839
31
0.000000000000000
  0
LINE
  5
F101BD
330
F101BE
100
AcDbEntity
8
Geo
100
AcDbLine
10
-28.3456575682380
20
6.13967239922839
30
0.000000000000000
11
-28.2456575682380
21
6.10368378559574
31
0.000000000000000
  0
LINE
  5
F101BF
330
F101C0
100
AcDbEntity
8
Geo
100
AcDbLine
10
-28.2456575682380
20
6.10368378559574
30
0.000000000000000
11
-28.1456575682380
21
6.06835051389114
31
0.000000000000000
  0
LINE
  5
F101C1
330
F101C2
100
AcDbEntity
8
Geo
100
AcDbLine
10
-28.1456575682380
20
6.06835051389114
30
0.000000000000000
11
-28.0456575682380
21
6.03367994508506
31
0.000000000000000
  0
LINE
  5
F101C3
330
F101C4
100
AcDbEntity
8
Geo
100
AcDbLine
10
-28.0456575682380
20
6.03367994508506
30
0.000000000000000
11
-27.9456575682380
21
5.99967930208727
31
0.000000000000000
  0
LINE
  5
F101C5
330
F101C6
100
AcDbEntity
8
Geo
100
AcDbLine
10
-27.9456575682380
20
5.99967930208727
30
0.000000000000000
11
-27.8456575682380
21
5.96635566824208
31
0.000000000000000
  0
LINE
  5
F101C7
330
F101C8
100
AcDbEntity
8
Geo
100
AcDbLine
10
-27.8456575682380
20
5.96635566824208
30
0.000000000000000
11
-27.7456575682380
21
5.93371598585269
31
0.000000000000000
  0
LINE
  5
F101C9
330
F101CA
100
AcDbEntity
8
Geo
100
AcDbLine
10
-27.7456575682380
20
5.93371598585269
30
0.000000000000000
11
-27.6456575682380
21
5.90176705473487
31
0.000000000000000
  0
LINE
  5
F101CB
330
F101CC
100
AcDbEntity
8
Geo
100
AcDbLine
10
-27.6456575682380
20
5.90176705473487
30
0.000000000000000
11
-27.5456575682380
21
5.87051553080039
31
0.000000000000000
  0
LINE
  5
F101CD
330
F101CE
100
AcDbEntity
8
Geo
100
AcDbLine
10
-27.5456575682380
20
5.87051553080039
30
0.000000000000000
11
-27.4456575682380
21
5.83996792467036
31
0.000000000000000
  0
LINE
  5
F101CF
330
F101D0
100
AcDbEntity
8
Geo
100
AcDbLine
10
-27.4456575682380
20
5.83996792467036
30
0.000000000000000
11
-27.3456575682380
21
5.81013060031890
31
0.000000000000000
  0
LINE
  5
F101D1
330
F101D2
100
AcDbEntity
8
Geo
100
AcDbLine
10
-27.3456575682380
20
5.81013060031890
30
0.000000000000000
11
-27.2456575682380
21
5.78100977374734
31
0.000000000000000
  0
LINE
  5
F101D3
330
F101D4
100
AcDbEntity
8
Geo
100
AcDbLine
10
-27.2456575682380
20
5.78100977374734
30
0.000000000000000
11
-27.1456575682380
21
5.75261151168923
31
0.000000000000000
  0
LINE
  5
F101D5
330
F101D6
100
AcDbEntity
8
Geo
100
AcDbLine
10
-27.1456575682380
20
5.75261151168923
30
0.000000000000000
11
-27.0456575682379
21
5.72494173034644
31
0.000000000000000
  0
LINE
  5
F101D7
330
F101D8
100
AcDbEntity
8
Geo
100
AcDbLine
10
-27.0456575682379
20
5.72494173034644
30
0.000000000000000
11
-26.9456575682379
21
5.69800619415668
31
0.000000000000000
  0
LINE
  5
F101D9
330
F101DA
100
AcDbEntity
8
Geo
100
AcDbLine
10
-26.9456575682379
20
5.69800619415668
30
0.000000000000000
11
-26.8456575682379
21
5.67181051459256
31
0.000000000000000
  0
LINE
  5
F101DB
330
F101DC
100
AcDbEntity
8
Geo
100
AcDbLine
10
-26.8456575682379
20
5.67181051459256
30
0.000000000000000
11
-26.7456575682379
21
5.64636014899257
31
0.000000000000000
  0
LINE
  5
F101DD
330
F101DE
100
AcDbEntity
8
Geo
100
AcDbLine
10
-26.7456575682379
20
5.64636014899257
30
0.000000000000000
11
-26.6456575682379
21
5.62166039942418
31
0.000000000000000
  0
LINE
  5
F101DF
330
F101E0
100
AcDbEntity
8
Geo
100
AcDbLine
10
-26.6456575682379
20
5.62166039942418
30
0.000000000000000
11
-26.5456575682379
21
5.59771641157920
31
0.000000000000000
  0
LINE
  5
F101E1
330
F101E2
100
AcDbEntity
8
Geo
100
AcDbLine
10
-26.5456575682379
20
5.59771641157920
30
0.000000000000000
11
-26.4456575682379
21
5.57453317370184
31
0.000000000000000
  0
LINE
  5
F101E3
330
F101E4
100
AcDbEntity
8
Geo
100
AcDbLine
10
-26.4456575682379
20
5.57453317370184
30
0.000000000000000
11
-26.3456575682379
21
5.55211551554945
31
0.000000000000000
  0
LINE
  5
F101E5
330
F101E6
100
AcDbEntity
8
Geo
100
AcDbLine
10
-26.3456575682379
20
5.55211551554945
30
0.000000000000000
11
-26.2456575682379
21
5.53046810738642
31
0.000000000000000
  0
LINE
  5
F101E7
330
F101E8
100
AcDbEntity
8
Geo
100
AcDbLine
10
-26.2456575682379
20
5.53046810738642
30
0.000000000000000
11
-26.1456575682379
21
5.50959545901115
31
0.000000000000000
  0
LINE
  5
F101E9
330
F101EA
100
AcDbEntity
8
Geo
100
AcDbLine
10
-26.1456575682379
20
5.50959545901115
30
0.000000000000000
11
-26.0456575682379
21
5.48950191881655
31
0.000000000000000
  0
LINE
  5
F101EB
330
F101EC
100
AcDbEntity
8
Geo
100
AcDbLine
10
-26.0456575682379
20
5.48950191881655
30
0.000000000000000
11
-25.9456575682379
21
5.47019167288415
31
0.000000000000000
  0
LINE
  5
F101ED
330
F101EE
100
AcDbEntity
8
Geo
100
AcDbLine
10
-25.9456575682379
20
5.47019167288415
30
0.000000000000000
11
-25.8456575682379
21
5.45166874411203
31
0.000000000000000
  0
LINE
  5
F101EF
330
F101F0
100
AcDbEntity
8
Geo
100
AcDbLine
10
-25.8456575682379
20
5.45166874411203
30
0.000000000000000
11
-25.7456575682379
21
5.43393699137666
31
0.000000000000000
  0
LINE
  5
F101F1
330
F101F2
100
AcDbEntity
8
Geo
100
AcDbLine
10
-25.7456575682379
20
5.43393699137666
30
0.000000000000000
11
-25.6456575682379
21
5.41700010872908
31
0.000000000000000
  0
LINE
  5
F101F3
330
F101F4
100
AcDbEntity
8
Geo
100
AcDbLine
10
-25.6456575682379
20
5.41700010872908
30
0.000000000000000
11
-25.5456575682379
21
5.40086162462524
31
0.000000000000000
  0
LINE
  5
F101F5
330
F101F6
100
AcDbEntity
8
Geo
100
AcDbLine
10
-25.5456575682379
20
5.40086162462524
30
0.000000000000000
11
-25.4456575682379
21
5.38552490119097
31
0.000000000000000
  0
LINE
  5
F101F7
330
F101F8
100
AcDbEntity
8
Geo
100
AcDbLine
10
-25.4456575682379
20
5.38552490119097
30
0.000000000000000
11
-25.3456575682379
21
5.37099313352150
31
0.000000000000000
  0
LINE
  5
F101F9
330
F101FA
100
AcDbEntity
8
Geo
100
AcDbLine
10
-25.3456575682379
20
5.37099313352150
30
0.000000000000000
11
-25.2456575682379
21
5.35726934901588
31
0.000000000000000
  0
LINE
  5
F101FB
330
F101FC
100
AcDbEntity
8
Geo
100
AcDbLine
10
-25.2456575682379
20
5.35726934901588
30
0.000000000000000
11
-25.1456575682379
21
5.34435640674623
31
0.000000000000000
  0
LINE
  5
F101FD
330
F101FE
100
AcDbEntity
8
Geo
100
AcDbLine
10
-25.1456575682379
20
5.34435640674623
30
0.000000000000000
11
-25.0456575682379
21
5.33225699686217
31
0.000000000000000
  0
LINE
  5
F101FF
330
F10200
100
AcDbEntity
8
Geo
100
AcDbLine
10
-25.0456575682379
20
5.33225699686217
30
0.000000000000000
11
-24.9456575682379
21
5.32097364003032
31
0.000000000000000
  0
LINE
  5
F10201
330
F10202
100
AcDbEntity
8
Geo
100
AcDbLine
10
-24.9456575682379
20
5.32097364003032
30
0.000000000000000
11
-24.8456575682379
21
5.31050868690920
31
0.000000000000000
  0
LINE
  5
F10203
330
F10204
100
AcDbEntity
8
Geo
100
AcDbLine
10
-24.8456575682379
20
5.31050868690920
30
0.000000000000000
11
-24.7456575682379
21
5.30086431765955
31
0.000000000000000
  0
LINE
  5
F10205
330
F10206
100
AcDbEntity
8
Geo
100
AcDbLine
10
-24.7456575682379
20
5.30086431765955
30
0.000000000000000
11
-24.6456575682379
21
5.29204254149006
31
0.000000000000000
  0
LINE
  5
F10207
330
F10208
100
AcDbEntity
8
Geo
100
AcDbLine
10
-24.6456575682379
20
5.29204254149006
30
0.000000000000000
11
-24.5456575682379
21
5.28404519623887
31
0.000000000000000
  0
LINE
  5
F10209
330
F1020A
100
AcDbEntity
8
Geo
100
AcDbLine
10
-24.5456575682379
20
5.28404519623887
30
0.000000000000000
11
-24.4456575682379
21
5.27687394799065
31
0.000000000000000
  0
LINE
  5
F1020B
330
F1020C
100
AcDbEntity
8
Geo
100
AcDbLine
10
-24.4456575682379
20
5.27687394799065
30
0.000000000000000
11
-24.3456575682379
21
5.27053029072950
31
0.000000000000000
  0
LINE
  5
F1020D
330
F1020E
100
AcDbEntity
8
Geo
100
AcDbLine
10
-24.3456575682379
20
5.27053029072950
30
0.000000000000000
11
-24.2456575682379
21
5.26501554602775
31
0.000000000000000
  0
LINE
  5
F1020F
330
F10210
100
AcDbEntity
8
Geo
100
AcDbLine
10
-24.2456575682379
20
5.26501554602775
30
0.000000000000000
11
-24.1456575682379
21
5.26033086277060
31
0.000000000000000
  0
LINE
  5
F10211
330
F10212
100
AcDbEntity
8
Geo
100
AcDbLine
10
-24.1456575682379
20
5.26033086277060
30
0.000000000000000
11
-24.0456575682379
21
5.25647721691679
31
0.000000000000000
  0
LINE
  5
F10213
330
F10214
100
AcDbEntity
8
Geo
100
AcDbLine
10
-24.0456575682379
20
5.25647721691679
30
0.000000000000000
11
-23.9456575682379
21
5.25345541129525
31
0.000000000000000
  0
LINE
  5
F10215
330
F10216
100
AcDbEntity
8
Geo
100
AcDbLine
10
-23.9456575682379
20
5.25345541129525
30
0.000000000000000
11
-23.8456575682379
21
5.25126607543790
31
0.000000000000000
  0
LINE
  5
F10217
330
F10218
100
AcDbEntity
8
Geo
100
AcDbLine
10
-23.8456575682379
20
5.25126607543790
30
0.000000000000000
11
-23.7456575682379
21
5.24990966544846
31
0.000000000000000
  0
LINE
  5
F10219
330
F1021A
100
AcDbEntity
8
Geo
100
AcDbLine
10
-23.7456575682379
20
5.24990966544846
30
0.000000000000000
11
-23.6456575682379
21
5.24938646390744
31
0.000000000000000
  0
LINE
  5
F1021B
330
F1021C
100
AcDbEntity
8
Geo
100
AcDbLine
10
-64.7456575682382
20
9.24937965260546
30
0.000000000000000
11
-64.6456575682382
21
10.1381065105859
31
0.000000000000000
  0
LINE
  5
F1021D
330
F1021E
100
AcDbEntity
8
Geo
100
AcDbLine
10
-64.6456575682382
20
10.1381065105859
30
0.000000000000000
11
-64.5456575682382
21
10.4978588719243
31
0.000000000000000
  0
LINE
  5
F1021F
330
F10220
100
AcDbEntity
8
Geo
100
AcDbLine
10
-64.5456575682382
20
10.4978588719243
30
0.000000000000000
11
-64.4456575682382
21
10.7678234139462
31
0.000000000000000
  0
LINE
  5
F10221
330
F10222
100
AcDbEntity
8
Geo
100
AcDbLine
10
-64.4456575682382
20
10.7678234139462
30
0.000000000000000
11
-64.3456575682382
21
10.9900341045065
31
0.000000000000000
  0
LINE
  5
F10223
330
F10224
100
AcDbEntity
8
Geo
100
AcDbLine
10
-64.3456575682382
20
10.9900341045065
30
0.000000000000000
11
-64.2456575682382
21
11.1808305670429
31
0.000000000000000
  0
LINE
  5
F10225
330
F10226
100
AcDbEntity
8
Geo
100
AcDbLine
10
-64.2456575682382
20
11.1808305670429
30
0.000000000000000
11
-64.1456575682382
21
11.3486136002146
31
0.000000000000000
  0
LINE
  5
F10227
330
F10228
100
AcDbEntity
8
Geo
100
AcDbLine
10
-64.1456575682382
20
11.3486136002146
30
0.000000000000000
11
-64.0456575682382
21
11.4983822492523
31
0.000000000000000
  0
LINE
  5
F10229
330
F1022A
100
AcDbEntity
8
Geo
100
AcDbLine
10
-64.0456575682382
20
11.4983822492523
30
0.000000000000000
11
-63.9456575682382
21
11.6333974224839
31
0.000000000000000
  0
LINE
  5
F1022B
330
F1022C
100
AcDbEntity
8
Geo
100
AcDbLine
10
-63.9456575682382
20
11.6333974224839
30
0.000000000000000
11
-63.8456575682382
21
11.7559258695513
31
0.000000000000000
  0
LINE
  5
F1022D
330
F1022E
100
AcDbEntity
8
Geo
100
AcDbLine
10
-63.8456575682382
20
11.7559258695513
30
0.000000000000000
11
-63.7456575682382
21
11.8676188680301
31
0.000000000000000
  0
LINE
  5
F1022F
330
F10230
100
AcDbEntity
8
Geo
100
AcDbLine
10
-63.7456575682382
20
11.8676188680301
30
0.000000000000000
11
-63.6456575682382
21
11.9697235775512
31
0.000000000000000
  0
LINE
  5
F10231
330
F10232
100
AcDbEntity
8
Geo
100
AcDbLine
10
-63.6456575682382
20
11.9697235775512
30
0.000000000000000
11
-63.5456575682382
21
12.0632094678137
31
0.000000000000000
  0
LINE
  5
F10233
330
F10234
100
AcDbEntity
8
Geo
100
AcDbLine
10
-63.5456575682382
20
12.0632094678137
30
0.000000000000000
11
-63.4456575682382
21
12.1488481578967
31
0.000000000000000
  0
LINE
  5
F10235
330
F10236
100
AcDbEntity
8
Geo
100
AcDbLine
10
-63.4456575682382
20
12.1488481578967
30
0.000000000000000
11
-63.3456575682382
21
12.2272660832523
31
0.000000000000000
  0
LINE
  5
F10237
330
F10238
100
AcDbEntity
8
Geo
100
AcDbLine
10
-63.3456575682382
20
12.2272660832523
30
0.000000000000000
11
-63.2456575682382
21
12.2989805085290
31
0.000000000000000
  0
LINE
  5
F10239
330
F1023A
100
AcDbEntity
8
Geo
100
AcDbLine
10
-63.2456575682382
20
12.2989805085290
30
0.000000000000000
11
-63.1456575682382
21
12.3644249049344
31
0.000000000000000
  0
LINE
  5
F1023B
330
F1023C
100
AcDbEntity
8
Geo
100
AcDbLine
10
-63.1456575682382
20
12.3644249049344
30
0.000000000000000
11
-63.0456575682382
21
12.4239672966662
31
0.000000000000000
  0
LINE
  5
F1023D
330
F1023E
100
AcDbEntity
8
Geo
100
AcDbLine
10
-63.0456575682382
20
12.4239672966662
30
0.000000000000000
11
-62.9456575682382
21
12.4779238198772
31
0.000000000000000
  0
LINE
  5
F1023F
330
F10240
100
AcDbEntity
8
Geo
100
AcDbLine
10
-62.9456575682382
20
12.4779238198772
30
0.000000000000000
11
-62.8456575682382
21
12.5265689373856
31
0.000000000000000
  0
LINE
  5
F10241
330
F10242
100
AcDbEntity
8
Geo
100
AcDbLine
10
-62.8456575682382
20
12.5265689373856
30
0.000000000000000
11
-62.7456575682382
21
12.5701432645131
31
0.000000000000000
  0
LINE
  5
F10243
330
F10244
100
AcDbEntity
8
Geo
100
AcDbLine
10
-62.7456575682382
20
12.5701432645131
30
0.000000000000000
11
-62.6456575682382
21
12.6088596545649
31
0.000000000000000
  0
LINE
  5
F10245
330
F10246
100
AcDbEntity
8
Geo
100
AcDbLine
10
-62.6456575682382
20
12.6088596545649
30
0.000000000000000
11
-62.5456575682382
21
12.6429079940276
31
0.000000000000000
  0
LINE
  5
F10247
330
F10248
100
AcDbEntity
8
Geo
100
AcDbLine
10
-62.5456575682382
20
12.6429079940276
30
0.000000000000000
11
-62.4456575682382
21
12.6724590260646
31
0.000000000000000
  0
LINE
  5
F10249
330
F1024A
100
AcDbEntity
8
Geo
100
AcDbLine
10
-62.4456575682382
20
12.6724590260646
30
0.000000000000000
11
-62.3456575682382
21
12.6976674318294
31
0.000000000000000
  0
LINE
  5
F1024B
330
F1024C
100
AcDbEntity
8
Geo
100
AcDbLine
10
-62.3456575682382
20
12.6976674318294
30
0.000000000000000
11
-62.2456575682382
21
12.7186743376075
31
0.000000000000000
  0
LINE
  5
F1024D
330
F1024E
100
AcDbEntity
8
Geo
100
AcDbLine
10
-62.2456575682382
20
12.7186743376075
30
0.000000000000000
11
-62.1456575682382
21
12.7356093725538
31
0.000000000000000
  0
LINE
  5
F1024F
330
F10250
100
AcDbEntity
8
Geo
100
AcDbLine
10
-62.1456575682382
20
12.7356093725538
30
0.000000000000000
11
-62.0456575682382
21
12.7485923709015
31
0.000000000000000
  0
LINE
  5
F10251
330
F10252
100
AcDbEntity
8
Geo
100
AcDbLine
10
-62.0456575682382
20
12.7485923709015
30
0.000000000000000
11
-61.9456575682382
21
12.7577347901220
31
0.000000000000000
  0
LINE
  5
F10253
330
F10254
100
AcDbEntity
8
Geo
100
AcDbLine
10
-61.9456575682382
20
12.7577347901220
30
0.000000000000000
11
-61.8456575682382
21
12.7631409000578
31
0.000000000000000
  0
LINE
  5
F10255
330
F10256
100
AcDbEntity
8
Geo
100
AcDbLine
10
-61.8456575682382
20
12.7631409000578
30
0.000000000000000
11
-61.7456575682382
21
12.7649087858077
31
0.000000000000000
  0
LINE
  5
F10257
330
F10258
100
AcDbEntity
8
Geo
100
AcDbLine
10
-61.7456575682382
20
12.7649087858077
30
0.000000000000000
11
-61.6456575682382
21
12.7631311979272
31
0.000000000000000
  0
LINE
  5
F10259
330
F1025A
100
AcDbEntity
8
Geo
100
AcDbLine
10
-61.6456575682382
20
12.7631311979272
30
0.000000000000000
11
-61.5456575682382
21
12.7578962764974
31
0.000000000000000
  0
LINE
  5
F1025B
330
F1025C
100
AcDbEntity
8
Geo
100
AcDbLine
10
-61.5456575682382
20
12.7578962764974
30
0.000000000000000
11
-61.4456575682382
21
12.7492881702265
31
0.000000000000000
  0
LINE
  5
F1025D
330
F1025E
100
AcDbEntity
8
Geo
100
AcDbLine
10
-61.4456575682382
20
12.7492881702265
30
0.000000000000000
11
-61.3456575682382
21
12.7373875675662
31
0.000000000000000
  0
LINE
  5
F1025F
330
F10260
100
AcDbEntity
8
Geo
100
AcDbLine
10
-61.3456575682382
20
12.7373875675662
30
0.000000000000000
11
-61.2456575682382
21
12.7222721535529
31
0.000000000000000
  0
LINE
  5
F10261
330
F10262
100
AcDbEntity
8
Geo
100
AcDbLine
10
-61.2456575682382
20
12.7222721535529
30
0.000000000000000
11
-61.1456575682382
21
12.7040170034889
31
0.000000000000000
  0
LINE
  5
F10263
330
F10264
100
AcDbEntity
8
Geo
100
AcDbLine
10
-61.1456575682382
20
12.7040170034889
30
0.000000000000000
11
-61.0456575682382
21
12.6826949225192
31
0.000000000000000
  0
LINE
  5
F10265
330
F10266
100
AcDbEntity
8
Geo
100
AcDbLine
10
-61.0456575682382
20
12.6826949225192
30
0.000000000000000
11
-60.9456575682382
21
12.6583767384886
31
0.000000000000000
  0
LINE
  5
F10267
330
F10268
100
AcDbEntity
8
Geo
100
AcDbLine
10
-60.9456575682382
20
12.6583767384886
30
0.000000000000000
11
-60.8456575682382
21
12.6311315541142
31
0.000000000000000
  0
LINE
  5
F10269
330
F1026A
100
AcDbEntity
8
Geo
100
AcDbLine
10
-60.8456575682382
20
12.6311315541142
30
0.000000000000000
11
-60.7456575682382
21
12.6010269633854
31
0.000000000000000
  0
LINE
  5
F1026B
330
F1026C
100
AcDbEntity
8
Geo
100
AcDbLine
10
-60.7456575682382
20
12.6010269633854
30
0.000000000000000
11
-60.6456575682382
21
12.5691668318216
31
0.000000000000000
  0
LINE
  5
F1026D
330
F1026E
100
AcDbEntity
8
Geo
100
AcDbLine
10
-60.6456575682382
20
12.5691668318216
30
0.000000000000000
11
-60.5456575682382
21
12.5366150899360
31
0.000000000000000
  0
LINE
  5
F1026F
330
F10270
100
AcDbEntity
8
Geo
100
AcDbLine
10
-60.5456575682382
20
12.5366150899360
30
0.000000000000000
11
-60.4456575682382
21
12.5033785192238
31
0.000000000000000
  0
LINE
  5
F10271
330
F10272
100
AcDbEntity
8
Geo
100
AcDbLine
10
-60.4456575682382
20
12.5033785192238
30
0.000000000000000
11
-60.3456575682382
21
12.4694640438504
31
0.000000000000000
  0
LINE
  5
F10273
330
F10274
100
AcDbEntity
8
Geo
100
AcDbLine
10
-60.3456575682382
20
12.4694640438504
30
0.000000000000000
11
-60.2456575682382
21
12.4348787292087
31
0.000000000000000
  0
LINE
  5
F10275
330
F10276
100
AcDbEntity
8
Geo
100
AcDbLine
10
-60.2456575682382
20
12.4348787292087
30
0.000000000000000
11
-60.1456575682382
21
12.3996297804477
31
0.000000000000000
  0
LINE
  5
F10277
330
F10278
100
AcDbEntity
8
Geo
100
AcDbLine
10
-60.1456575682382
20
12.3996297804477
30
0.000000000000000
11
-60.0456575682382
21
12.3637245409707
31
0.000000000000000
  0
LINE
  5
F10279
330
F1027A
100
AcDbEntity
8
Geo
100
AcDbLine
10
-60.0456575682382
20
12.3637245409707
30
0.000000000000000
11
-59.9456575682382
21
12.3271704909062
31
0.000000000000000
  0
LINE
  5
F1027B
330
F1027C
100
AcDbEntity
8
Geo
100
AcDbLine
10
-59.9456575682382
20
12.3271704909062
30
0.000000000000000
11
-59.8456575682382
21
12.2899752455490
31
0.000000000000000
  0
LINE
  5
F1027D
330
F1027E
100
AcDbEntity
8
Geo
100
AcDbLine
10
-59.8456575682382
20
12.2899752455490
30
0.000000000000000
11
-59.7456575682382
21
12.2521465537741
31
0.000000000000000
  0
LINE
  5
F1027F
330
F10280
100
AcDbEntity
8
Geo
100
AcDbLine
10
-59.7456575682382
20
12.2521465537741
30
0.000000000000000
11
-59.6456575682382
21
12.2136922964220
31
0.000000000000000
  0
LINE
  5
F10281
330
F10282
100
AcDbEntity
8
Geo
100
AcDbLine
10
-59.6456575682382
20
12.2136922964220
30
0.000000000000000
11
-59.5456575682382
21
12.1746204846574
31
0.000000000000000
  0
LINE
  5
F10283
330
F10284
100
AcDbEntity
8
Geo
100
AcDbLine
10
-59.5456575682382
20
12.1746204846574
30
0.000000000000000
11
-59.4456575682382
21
12.1349392582996
31
0.000000000000000
  0
LINE
  5
F10285
330
F10286
100
AcDbEntity
8
Geo
100
AcDbLine
10
-59.4456575682382
20
12.1349392582996
30
0.000000000000000
11
-59.3456575682382
21
12.0946568841274
31
0.000000000000000
  0
LINE
  5
F10287
330
F10288
100
AcDbEntity
8
Geo
100
AcDbLine
10
-59.3456575682382
20
12.0946568841274
30
0.000000000000000
11
-59.2456575682382
21
12.0537817541562
31
0.000000000000000
  0
LINE
  5
F10289
330
F1028A
100
AcDbEntity
8
Geo
100
AcDbLine
10
-59.2456575682382
20
12.0537817541562
30
0.000000000000000
11
-59.1456575682382
21
12.0123223838904
31
0.000000000000000
  0
LINE
  5
F1028B
330
F1028C
100
AcDbEntity
8
Geo
100
AcDbLine
10
-59.1456575682382
20
12.0123223838904
30
0.000000000000000
11
-59.0456575682382
21
11.9702874105488
31
0.000000000000000
  0
LINE
  5
F1028D
330
F1028E
100
AcDbEntity
8
Geo
100
AcDbLine
10
-59.0456575682382
20
11.9702874105488
30
0.000000000000000
11
-58.9456575682382
21
11.9276855912655
31
0.000000000000000
  0
LINE
  5
F1028F
330
F10290
100
AcDbEntity
8
Geo
100
AcDbLine
10
-58.9456575682382
20
11.9276855912655
30
0.000000000000000
11
-58.8456575682382
21
11.8845258012654
31
0.000000000000000
  0
LINE
  5
F10291
330
F10292
100
AcDbEntity
8
Geo
100
AcDbLine
10
-58.8456575682382
20
11.8845258012654
30
0.000000000000000
11
-58.7456575682382
21
11.8408170320153
31
0.000000000000000
  0
LINE
  5
F10293
330
F10294
100
AcDbEntity
8
Geo
100
AcDbLine
10
-58.7456575682382
20
11.8408170320153
30
0.000000000000000
11
-58.6456575682382
21
11.7965683893507
31
0.000000000000000
  0
LINE
  5
F10295
330
F10296
100
AcDbEntity
8
Geo
100
AcDbLine
10
-58.6456575682382
20
11.7965683893507
30
0.000000000000000
11
-58.5456575682382
21
11.7517890915788
31
0.000000000000000
  0
LINE
  5
F10297
330
F10298
100
AcDbEntity
8
Geo
100
AcDbLine
10
-58.5456575682382
20
11.7517890915788
30
0.000000000000000
11
-58.4456575682382
21
11.7064884675581
31
0.000000000000000
  0
LINE
  5
F10299
330
F1029A
100
AcDbEntity
8
Geo
100
AcDbLine
10
-58.4456575682382
20
11.7064884675581
30
0.000000000000000
11
-58.3456575682382
21
11.6606759547546
31
0.000000000000000
  0
LINE
  5
F1029B
330
F1029C
100
AcDbEntity
8
Geo
100
AcDbLine
10
-58.3456575682382
20
11.6606759547546
30
0.000000000000000
11
-58.2456575682382
21
11.6143610972761
31
0.000000000000000
  0
LINE
  5
F1029D
330
F1029E
100
AcDbEntity
8
Geo
100
AcDbLine
10
-58.2456575682382
20
11.6143610972761
30
0.000000000000000
11
-58.1456575682382
21
11.5675535438839
31
0.000000000000000
  0
LINE
  5
F1029F
330
F102A0
100
AcDbEntity
8
Geo
100
AcDbLine
10
-58.1456575682382
20
11.5675535438839
30
0.000000000000000
11
-58.0456575682382
21
11.5202630459822
31
0.000000000000000
  0
LINE
  5
F102A1
330
F102A2
100
AcDbEntity
8
Geo
100
AcDbLine
10
-58.0456575682382
20
11.5202630459822
30
0.000000000000000
11
-57.9456575682382
21
11.4724994555871
31
0.000000000000000
  0
LINE
  5
F102A3
330
F102A4
100
AcDbEntity
8
Geo
100
AcDbLine
10
-57.9456575682382
20
11.4724994555871
30
0.000000000000000
11
-57.8456575682382
21
11.4242727232737
31
0.000000000000000
  0
LINE
  5
F102A5
330
F102A6
100
AcDbEntity
8
Geo
100
AcDbLine
10
-57.8456575682382
20
11.4242727232737
30
0.000000000000000
11
-57.7456575682382
21
11.3755928961036
31
0.000000000000000
  0
LINE
  5
F102A7
330
F102A8
100
AcDbEntity
8
Geo
100
AcDbLine
10
-57.7456575682382
20
11.3755928961036
30
0.000000000000000
11
-57.6456575682382
21
11.3264701155313
31
0.000000000000000
  0
LINE
  5
F102A9
330
F102AA
100
AcDbEntity
8
Geo
100
AcDbLine
10
-57.6456575682382
20
11.3264701155313
30
0.000000000000000
11
-57.5456575682382
21
11.2769146152918
31
0.000000000000000
  0
LINE
  5
F102AB
330
F102AC
100
AcDbEntity
8
Geo
100
AcDbLine
10
-57.5456575682382
20
11.2769146152918
30
0.000000000000000
11
-57.4456575682382
21
11.2269367192685
31
0.000000000000000
  0
LINE
  5
F102AD
330
F102AE
100
AcDbEntity
8
Geo
100
AcDbLine
10
-57.4456575682382
20
11.2269367192685
30
0.000000000000000
11
-57.3456575682382
21
11.1765468393421
31
0.000000000000000
  0
LINE
  5
F102AF
330
F102B0
100
AcDbEntity
8
Geo
100
AcDbLine
10
-57.3456575682382
20
11.1765468393421
30
0.000000000000000
11
-57.2456575682382
21
11.1257554732222
31
0.000000000000000
  0
LINE
  5
F102B1
330
F102B2
100
AcDbEntity
8
Geo
100
AcDbLine
10
-57.2456575682382
20
11.1257554732222
30
0.000000000000000
11
-57.1456575682382
21
11.0745732022596
31
0.000000000000000
  0
LINE
  5
F102B3
330
F102B4
100
AcDbEntity
8
Geo
100
AcDbLine
10
-57.1456575682382
20
11.0745732022596
30
0.000000000000000
11
-57.0456575682382
21
11.0230106892423
31
0.000000000000000
  0
LINE
  5
F102B5
330
F102B6
100
AcDbEntity
8
Geo
100
AcDbLine
10
-57.0456575682382
20
11.0230106892423
30
0.000000000000000
11
-56.9456575682382
21
10.9710786761740
31
0.000000000000000
  0
LINE
  5
F102B7
330
F102B8
100
AcDbEntity
8
Geo
100
AcDbLine
10
-56.9456575682382
20
10.9710786761740
30
0.000000000000000
11
-56.8456575682382
21
10.9187879820364
31
0.000000000000000
  0
LINE
  5
F102B9
330
F102BA
100
AcDbEntity
8
Geo
100
AcDbLine
10
-56.8456575682382
20
10.9187879820364
30
0.000000000000000
11
-56.7456575682382
21
10.8661495005348
31
0.000000000000000
  0
LINE
  5
F102BB
330
F102BC
100
AcDbEntity
8
Geo
100
AcDbLine
10
-56.7456575682382
20
10.8661495005348
30
0.000000000000000
11
-56.6456575682382
21
10.8131741978292
31
0.000000000000000
  0
LINE
  5
F102BD
330
F102BE
100
AcDbEntity
8
Geo
100
AcDbLine
10
-56.6456575682382
20
10.8131741978292
30
0.000000000000000
11
-56.5456575682382
21
10.7598731102494
31
0.000000000000000
  0
LINE
  5
F102BF
330
F102C0
100
AcDbEntity
8
Geo
100
AcDbLine
10
-56.5456575682382
20
10.7598731102494
30
0.000000000000000
11
-56.4456575682382
21
10.7062573419958
31
0.000000000000000
  0
LINE
  5
F102C1
330
F102C2
100
AcDbEntity
8
Geo
100
AcDbLine
10
-56.4456575682382
20
10.7062573419958
30
0.000000000000000
11
-56.3456575682382
21
10.6523380628263
31
0.000000000000000
  0
LINE
  5
F102C3
330
F102C4
100
AcDbEntity
8
Geo
100
AcDbLine
10
-56.3456575682382
20
10.6523380628263
30
0.000000000000000
11
-56.2456575682382
21
10.5981265057290
31
0.000000000000000
  0
LINE
  5
F102C5
330
F102C6
100
AcDbEntity
8
Geo
100
AcDbLine
10
-56.2456575682382
20
10.5981265057290
30
0.000000000000000
11
-56.1456575682382
21
10.5436339645822
31
0.000000000000000
  0
LINE
  5
F102C7
330
F102C8
100
AcDbEntity
8
Geo
100
AcDbLine
10
-56.1456575682382
20
10.5436339645822
30
0.000000000000000
11
-56.0456575682382
21
10.4888717918016
31
0.000000000000000
  0
LINE
  5
F102C9
330
F102CA
100
AcDbEntity
8
Geo
100
AcDbLine
10
-56.0456575682382
20
10.4888717918016
30
0.000000000000000
11
-55.9456575682382
21
10.4338513959750
31
0.000000000000000
  0
LINE
  5
F102CB
330
F102CC
100
AcDbEntity
8
Geo
100
AcDbLine
10
-55.9456575682382
20
10.4338513959750
30
0.000000000000000
11
-55.8456575682382
21
10.3785842394860
31
0.000000000000000
  0
LINE
  5
F102CD
330
F102CE
100
AcDbEntity
8
Geo
100
AcDbLine
10
-55.8456575682382
20
10.3785842394860
30
0.000000000000000
11
-55.7456575682382
21
10.3230818361256
31
0.000000000000000
  0
LINE
  5
F102CF
330
F102D0
100
AcDbEntity
8
Geo
100
AcDbLine
10
-55.7456575682382
20
10.3230818361256
30
0.000000000000000
11
-55.6456575682382
21
10.2673557486937
31
0.000000000000000
  0
LINE
  5
F102D1
330
F102D2
100
AcDbEntity
8
Geo
100
AcDbLine
10
-55.6456575682382
20
10.2673557486937
30
0.000000000000000
11
-55.5456575682382
21
10.2114175865904
31
0.000000000000000
  0
LINE
  5
F102D3
330
F102D4
100
AcDbEntity
8
Geo
100
AcDbLine
10
-55.5456575682382
20
10.2114175865904
30
0.000000000000000
11
-55.4456575682382
21
10.1552790033971
31
0.000000000000000
  0
LINE
  5
F102D5
330
F102D6
100
AcDbEntity
8
Geo
100
AcDbLine
10
-55.4456575682382
20
10.1552790033971
30
0.000000000000000
11
-55.3456575682382
21
10.0989516944488
31
0.000000000000000
  0
LINE
  5
F102D7
330
F102D8
100
AcDbEntity
8
Geo
100
AcDbLine
10
-55.3456575682382
20
10.0989516944488
30
0.000000000000000
11
-55.2456575682382
21
10.0424473943980
31
0.000000000000000
  0
LINE
  5
F102D9
330
F102DA
100
AcDbEntity
8
Geo
100
AcDbLine
10
-55.2456575682382
20
10.0424473943980
30
0.000000000000000
11
-55.1456575682382
21
9.98577787476940
31
0.000000000000000
  0
LINE
  5
F102DB
330
F102DC
100
AcDbEntity
8
Geo
100
AcDbLine
10
-55.1456575682382
20
9.98577787476940
30
0.000000000000000
11
-55.0456575682382
21
9.92895494150797
31
0.000000000000000
  0
LINE
  5
F102DD
330
F102DE
100
AcDbEntity
8
Geo
100
AcDbLine
10
-55.0456575682382
20
9.92895494150797
30
0.000000000000000
11
-54.9456575682382
21
9.87199043251928
31
0.000000000000000
  0
LINE
  5
F102DF
330
F102E0
100
AcDbEntity
8
Geo
100
AcDbLine
10
-54.9456575682382
20
9.87199043251928
30
0.000000000000000
11
-54.8456575682382
21
9.81489621520336
31
0.000000000000000
  0
LINE
  5
F102E1
330
F102E2
100
AcDbEntity
8
Geo
100
AcDbLine
10
-54.8456575682382
20
9.81489621520336
30
0.000000000000000
11
-54.7456575682382
21
9.75768418398229
31
0.000000000000000
  0
LINE
  5
F102E3
330
F102E4
100
AcDbEntity
8
Geo
100
AcDbLine
10
-54.7456575682382
20
9.75768418398229
30
0.000000000000000
11
-54.6456575682382
21
9.70036625782233
31
0.000000000000000
  0
LINE
  5
F102E5
330
F102E6
100
AcDbEntity
8
Geo
100
AcDbLine
10
-54.6456575682382
20
9.70036625782233
30
0.000000000000000
11
-54.5456575682382
21
9.64295437775078
31
0.000000000000000
  0
LINE
  5
F102E7
330
F102E8
100
AcDbEntity
8
Geo
100
AcDbLine
10
-54.5456575682382
20
9.64295437775078
30
0.000000000000000
11
-54.4456575682382
21
9.58546050436833
31
0.000000000000000
  0
LINE
  5
F102E9
330
F102EA
100
AcDbEntity
8
Geo
100
AcDbLine
10
-54.4456575682382
20
9.58546050436833
30
0.000000000000000
11
-54.3456575682382
21
9.52789661535732
31
0.000000000000000
  0
LINE
  5
F102EB
330
F102EC
100
AcDbEntity
8
Geo
100
AcDbLine
10
-54.3456575682382
20
9.52789661535732
30
0.000000000000000
11
-54.2456575682382
21
9.47027470298644
31
0.000000000000000
  0
LINE
  5
F102ED
330
F102EE
100
AcDbEntity
8
Geo
100
AcDbLine
10
-54.2456575682382
20
9.47027470298644
30
0.000000000000000
11
-54.1456575682382
21
9.41260677161234
31
0.000000000000000
  0
LINE
  5
F102EF
330
F102F0
100
AcDbEntity
8
Geo
100
AcDbLine
10
-54.1456575682382
20
9.41260677161234
30
0.000000000000000
11
-54.0456575682382
21
9.35490483517882
31
0.000000000000000
  0
LINE
  5
F102F1
330
F102F2
100
AcDbEntity
8
Geo
100
AcDbLine
10
-54.0456575682382
20
9.35490483517882
30
0.000000000000000
11
-53.9456575682382
21
9.29718091471394
31
0.000000000000000
  0
LINE
  5
F102F3
330
F102F4
100
AcDbEntity
8
Geo
100
AcDbLine
10
-53.9456575682382
20
9.29718091471394
30
0.000000000000000
11
-53.8456575682382
21
9.23944703582567
31
0.000000000000000
  0
LINE
  5
F102F5
330
F102F6
100
AcDbEntity
8
Geo
100
AcDbLine
10
-53.8456575682382
20
9.23944703582567
30
0.000000000000000
11
-53.7456575682382
21
9.18171522619664
31
0.000000000000000
  0
LINE
  5
F102F7
330
F102F8
100
AcDbEntity
8
Geo
100
AcDbLine
10
-53.7456575682382
20
9.18171522619664
30
0.000000000000000
11
-53.6456575682382
21
9.12399751307838
31
0.000000000000000
  0
LINE
  5
F102F9
330
F102FA
100
AcDbEntity
8
Geo
100
AcDbLine
10
-53.6456575682382
20
9.12399751307838
30
0.000000000000000
11
-53.5456575682382
21
9.06630592078570
31
0.000000000000000
  0
LINE
  5
F102FB
330
F102FC
100
AcDbEntity
8
Geo
100
AcDbLine
10
-53.5456575682382
20
9.06630592078570
30
0.000000000000000
11
-53.4456575682382
21
9.00865246819166
31
0.000000000000000
  0
LINE
  5
F102FD
330
F102FE
100
AcDbEntity
8
Geo
100
AcDbLine
10
-53.4456575682382
20
9.00865246819166
30
0.000000000000000
11
-53.3456575682382
21
8.95104916622369
31
0.000000000000000
  0
LINE
  5
F102FF
330
F10300
100
AcDbEntity
8
Geo
100
AcDbLine
10
-53.3456575682382
20
8.95104916622369
30
0.000000000000000
11
-53.2456575682382
21
8.89350801536136
31
0.000000000000000
  0
LINE
  5
F10301
330
F10302
100
AcDbEntity
8
Geo
100
AcDbLine
10
-53.2456575682382
20
8.89350801536136
30
0.000000000000000
11
-53.1456575682382
21
8.83604100313631
31
0.000000000000000
  0
LINE
  5
F10303
330
F10304
100
AcDbEntity
8
Geo
100
AcDbLine
10
-53.1456575682382
20
8.83604100313631
30
0.000000000000000
11
-53.0456575682382
21
8.77866010163491
31
0.000000000000000
  0
LINE
  5
F10305
330
F10306
100
AcDbEntity
8
Geo
100
AcDbLine
10
-53.0456575682382
20
8.77866010163491
30
0.000000000000000
11
-52.9456575682382
21
8.72137726500410
31
0.000000000000000
  0
LINE
  5
F10307
330
F10308
100
AcDbEntity
8
Geo
100
AcDbLine
10
-52.9456575682382
20
8.72137726500410
30
0.000000000000000
11
-52.8456575682382
21
8.66420442696098
31
0.000000000000000
  0
LINE
  5
F10309
330
F1030A
100
AcDbEntity
8
Geo
100
AcDbLine
10
-52.8456575682382
20
8.66420442696098
30
0.000000000000000
11
-52.7456575682382
21
8.60715349830670
31
0.000000000000000
  0
LINE
  5
F1030B
330
F1030C
100
AcDbEntity
8
Geo
100
AcDbLine
10
-52.7456575682382
20
8.60715349830670
30
0.000000000000000
11
-52.6456575682382
21
8.55023636444506
31
0.000000000000000
  0
LINE
  5
F1030D
330
F1030E
100
AcDbEntity
8
Geo
100
AcDbLine
10
-52.6456575682382
20
8.55023636444506
30
0.000000000000000
11
-52.5456575682382
21
8.49346488290640
31
0.000000000000000
  0
LINE
  5
F1030F
330
F10310
100
AcDbEntity
8
Geo
100
AcDbLine
10
-52.5456575682382
20
8.49346488290640
30
0.000000000000000
11
-52.4456575682382
21
8.43685088087738
31
0.000000000000000
  0
LINE
  5
F10311
330
F10312
100
AcDbEntity
8
Geo
100
AcDbLine
10
-52.4456575682382
20
8.43685088087738
30
0.000000000000000
11
-52.3456575682382
21
8.38040615273698
31
0.000000000000000
  0
LINE
  5
F10313
330
F10314
100
AcDbEntity
8
Geo
100
AcDbLine
10
-52.3456575682382
20
8.38040615273698
30
0.000000000000000
11
-52.2456575682382
21
8.32414245759943
31
0.000000000000000
  0
LINE
  5
F10315
330
F10316
100
AcDbEntity
8
Geo
100
AcDbLine
10
-52.2456575682382
20
8.32414245759943
30
0.000000000000000
11
-52.1456575682382
21
8.26807151686437
31
0.000000000000000
  0
LINE
  5
F10317
330
F10318
100
AcDbEntity
8
Geo
100
AcDbLine
10
-52.1456575682382
20
8.26807151686437
30
0.000000000000000
11
-52.0456575682382
21
8.21220501177500
31
0.000000000000000
  0
LINE
  5
F10319
330
F1031A
100
AcDbEntity
8
Geo
100
AcDbLine
10
-52.0456575682382
20
8.21220501177500
30
0.000000000000000
11
-51.9456575682382
21
8.15655458098446
31
0.000000000000000
  0
LINE
  5
F1031B
330
F1031C
100
AcDbEntity
8
Geo
100
AcDbLine
10
-51.9456575682382
20
8.15655458098446
30
0.000000000000000
11
-51.8456575682382
21
8.10113181813124
31
0.000000000000000
  0
LINE
  5
F1031D
330
F1031E
100
AcDbEntity
8
Geo
100
AcDbLine
10
-51.8456575682382
20
8.10113181813124
30
0.000000000000000
11
-51.7456575682382
21
8.04594826942380
31
0.000000000000000
  0
LINE
  5
F1031F
330
F10320
100
AcDbEntity
8
Geo
100
AcDbLine
10
-51.7456575682382
20
8.04594826942380
30
0.000000000000000
11
-51.6456575682382
21
7.99101543123519
31
0.000000000000000
  0
LINE
  5
F10321
330
F10322
100
AcDbEntity
8
Geo
100
AcDbLine
10
-51.6456575682382
20
7.99101543123519
30
0.000000000000000
11
-51.5456575682382
21
7.93634474770803
31
0.000000000000000
  0
LINE
  5
F10323
330
F10324
100
AcDbEntity
8
Geo
100
AcDbLine
10
-51.5456575682382
20
7.93634474770803
30
0.000000000000000
11
-51.4456575682382
21
7.88194760837031
31
0.000000000000000
  0
LINE
  5
F10325
330
F10326
100
AcDbEntity
8
Geo
100
AcDbLine
10
-51.4456575682382
20
7.88194760837031
30
0.000000000000000
11
-51.3456575682382
21
7.82783534576264
31
0.000000000000000
  0
LINE
  5
F10327
330
F10328
100
AcDbEntity
8
Geo
100
AcDbLine
10
-51.3456575682382
20
7.82783534576264
30
0.000000000000000
11
-51.2456575682382
21
7.77401923307735
31
0.000000000000000
  0
LINE
  5
F10329
330
F1032A
100
AcDbEntity
8
Geo
100
AcDbLine
10
-51.2456575682382
20
7.77401923307735
30
0.000000000000000
11
-51.1456575682382
21
7.72051048180994
31
0.000000000000000
  0
LINE
  5
F1032B
330
F1032C
100
AcDbEntity
8
Geo
100
AcDbLine
10
-51.1456575682382
20
7.72051048180994
30
0.000000000000000
11
-51.0456575682382
21
7.66732023942339
31
0.000000000000000
  0
LINE
  5
F1032D
330
F1032E
100
AcDbEntity
8
Geo
100
AcDbLine
10
-51.0456575682382
20
7.66732023942339
30
0.000000000000000
11
-50.9456575682382
21
7.61445958702581
31
0.000000000000000
  0
LINE
  5
F1032F
330
F10330
100
AcDbEntity
8
Geo
100
AcDbLine
10
-50.9456575682382
20
7.61445958702581
30
0.000000000000000
11
-50.8456575682383
21
7.56193953706193
31
0.000000000000000
  0
LINE
  5
F10331
330
F10332
100
AcDbEntity
8
Geo
100
AcDbLine
10
-50.8456575682383
20
7.56193953706193
30
0.000000000000000
11
-50.7456575682383
21
7.50977103101886
31
0.000000000000000
  0
LINE
  5
F10333
330
F10334
100
AcDbEntity
8
Geo
100
AcDbLine
10
-50.7456575682383
20
7.50977103101886
30
0.000000000000000
11
-50.6456575682382
21
7.45796493714667
31
0.000000000000000
  0
LINE
  5
F10335
330
F10336
100
AcDbEntity
8
Geo
100
AcDbLine
10
-50.6456575682382
20
7.45796493714667
30
0.000000000000000
11
-50.5456575682382
21
7.40653204819423
31
0.000000000000000
  0
LINE
  5
F10337
330
F10338
100
AcDbEntity
8
Geo
100
AcDbLine
10
-50.5456575682382
20
7.40653204819423
30
0.000000000000000
11
-50.4456575682382
21
7.35548307916068
31
0.000000000000000
  0
LINE
  5
F10339
330
F1033A
100
AcDbEntity
8
Geo
100
AcDbLine
10
-50.4456575682382
20
7.35548307916068
30
0.000000000000000
11
-50.3456575682383
21
7.30482866506329
31
0.000000000000000
  0
LINE
  5
F1033B
330
F1033C
100
AcDbEntity
8
Geo
100
AcDbLine
10
-50.3456575682383
20
7.30482866506329
30
0.000000000000000
11
-50.2456575682383
21
7.25457935872178
31
0.000000000000000
  0
LINE
  5
F1033D
330
F1033E
100
AcDbEntity
8
Geo
100
AcDbLine
10
-50.2456575682383
20
7.25457935872178
30
0.000000000000000
11
-50.1456575682382
21
7.20474562855989
31
0.000000000000000
  0
LINE
  5
F1033F
330
F10340
100
AcDbEntity
8
Geo
100
AcDbLine
10
-50.1456575682382
20
7.20474562855989
30
0.000000000000000
11
-50.0456575682383
21
7.15533785642449
31
0.000000000000000
  0
LINE
  5
F10341
330
F10342
100
AcDbEntity
8
Geo
100
AcDbLine
10
-50.0456575682383
20
7.15533785642449
30
0.000000000000000
11
-49.9456575682383
21
7.10636633542274
31
0.000000000000000
  0
LINE
  5
F10343
330
F10344
100
AcDbEntity
8
Geo
100
AcDbLine
10
-49.9456575682383
20
7.10636633542274
30
0.000000000000000
11
-49.8456575682383
21
7.05784126777774
31
0.000000000000000
  0
LINE
  5
F10345
330
F10346
100
AcDbEntity
8
Geo
100
AcDbLine
10
-49.8456575682383
20
7.05784126777774
30
0.000000000000000
11
-49.7456575682383
21
7.00977276270305
31
0.000000000000000
  0
LINE
  5
F10347
330
F10348
100
AcDbEntity
8
Geo
100
AcDbLine
10
-49.7456575682383
20
7.00977276270305
30
0.000000000000000
11
-49.6456575682382
21
6.96217083429673
31
0.000000000000000
  0
LINE
  5
F10349
330
F1034A
100
AcDbEntity
8
Geo
100
AcDbLine
10
-49.6456575682382
20
6.96217083429673
30
0.000000000000000
11
-49.5456575682383
21
6.91504539945500
31
0.000000000000000
  0
LINE
  5
F1034B
330
F1034C
100
AcDbEntity
8
Geo
100
AcDbLine
10
-49.5456575682383
20
6.91504539945500
30
0.000000000000000
11
-49.4456575682383
21
6.86840627580636
31
0.000000000000000
  0
LINE
  5
F1034D
330
F1034E
100
AcDbEntity
8
Geo
100
AcDbLine
10
-49.4456575682383
20
6.86840627580636
30
0.000000000000000
11
-49.3456575682383
21
6.82226317966621
31
0.000000000000000
  0
LINE
  5
F1034F
330
F10350
100
AcDbEntity
8
Geo
100
AcDbLine
10
-49.3456575682383
20
6.82226317966621
30
0.000000000000000
11
-49.2456575682383
21
6.77662572401268
31
0.000000000000000
  0
LINE
  5
F10351
330
F10352
100
AcDbEntity
8
Geo
100
AcDbLine
10
-49.2456575682383
20
6.77662572401268
30
0.000000000000000
11
-49.1456575682383
21
6.73150341648397
31
0.000000000000000
  0
LINE
  5
F10353
330
F10354
100
AcDbEntity
8
Geo
100
AcDbLine
10
-49.1456575682383
20
6.73150341648397
30
0.000000000000000
11
-49.0456575682383
21
6.68690565739762
31
0.000000000000000
  0
LINE
  5
F10355
330
F10356
100
AcDbEntity
8
Geo
100
AcDbLine
10
-49.0456575682383
20
6.68690565739762
30
0.000000000000000
11
-48.9456575682383
21
6.64284173779212
31
0.000000000000000
  0
LINE
  5
F10357
330
F10358
100
AcDbEntity
8
Geo
100
AcDbLine
10
-48.9456575682383
20
6.64284173779212
30
0.000000000000000
11
-48.8456575682383
21
6.59932083749136
31
0.000000000000000
  0
LINE
  5
F10359
330
F1035A
100
AcDbEntity
8
Geo
100
AcDbLine
10
-48.8456575682383
20
6.59932083749136
30
0.000000000000000
11
-48.7456575682383
21
6.55635202319215
31
0.000000000000000
  0
LINE
  5
F1035B
330
F1035C
100
AcDbEntity
8
Geo
100
AcDbLine
10
-48.7456575682383
20
6.55635202319215
30
0.000000000000000
11
-48.6456575682383
21
6.51394424657540
31
0.000000000000000
  0
LINE
  5
F1035D
330
F1035E
100
AcDbEntity
8
Geo
100
AcDbLine
10
-48.6456575682383
20
6.51394424657540
30
0.000000000000000
11
-48.5456575682383
21
6.47210634244119
31
0.000000000000000
  0
LINE
  5
F1035F
330
F10360
100
AcDbEntity
8
Geo
100
AcDbLine
10
-48.5456575682383
20
6.47210634244119
30
0.000000000000000
11
-48.4456575682383
21
6.43084702686821
31
0.000000000000000
  0
LINE
  5
F10361
330
F10362
100
AcDbEntity
8
Geo
100
AcDbLine
10
-48.4456575682383
20
6.43084702686821
30
0.000000000000000
11
-48.3456575682383
21
6.39017489539799
31
0.000000000000000
  0
LINE
  5
F10363
330
F10364
100
AcDbEntity
8
Geo
100
AcDbLine
10
-48.3456575682383
20
6.39017489539799
30
0.000000000000000
11
-48.2456575682383
21
6.35009842124413
31
0.000000000000000
  0
LINE
  5
F10365
330
F10366
100
AcDbEntity
8
Geo
100
AcDbLine
10
-48.2456575682383
20
6.35009842124413
30
0.000000000000000
11
-48.1456575682382
21
6.31062595352715
31
0.000000000000000
  0
LINE
  5
F10367
330
F10368
100
AcDbEntity
8
Geo
100
AcDbLine
10
-48.1456575682382
20
6.31062595352715
30
0.000000000000000
11
-48.0456575682382
21
6.27176571553504
31
0.000000000000000
  0
LINE
  5
F10369
330
F1036A
100
AcDbEntity
8
Geo
100
AcDbLine
10
-48.0456575682382
20
6.27176571553504
30
0.000000000000000
11
-47.9456575682382
21
6.23352580301017
31
0.000000000000000
  0
LINE
  5
F1036B
330
F1036C
100
AcDbEntity
8
Geo
100
AcDbLine
10
-47.9456575682382
20
6.23352580301017
30
0.000000000000000
11
-47.8456575682382
21
6.19591418246267
31
0.000000000000000
  0
LINE
  5
F1036D
330
F1036E
100
AcDbEntity
8
Geo
100
AcDbLine
10
-47.8456575682382
20
6.19591418246267
30
0.000000000000000
11
-47.7456575682382
21
6.15893868951079
31
0.000000000000000
  0
LINE
  5
F1036F
330
F10370
100
AcDbEntity
8
Geo
100
AcDbLine
10
-47.7456575682382
20
6.15893868951079
30
0.000000000000000
11
-47.6456575682382
21
6.12260702724849
31
0.000000000000000
  0
LINE
  5
F10371
330
F10372
100
AcDbEntity
8
Geo
100
AcDbLine
10
-47.6456575682382
20
6.12260702724849
30
0.000000000000000
11
-47.5456575682382
21
6.08692676464066
31
0.000000000000000
  0
LINE
  5
F10373
330
F10374
100
AcDbEntity
8
Geo
100
AcDbLine
10
-47.5456575682382
20
6.08692676464066
30
0.000000000000000
11
-47.4456575682382
21
6.05190533494630
31
0.000000000000000
  0
LINE
  5
F10375
330
F10376
100
AcDbEntity
8
Geo
100
AcDbLine
10
-47.4456575682382
20
6.05190533494630
30
0.000000000000000
11
-47.3456575682382
21
6.01755003416993
31
0.000000000000000
  0
LINE
  5
F10377
330
F10378
100
AcDbEntity
8
Geo
100
AcDbLine
10
-47.3456575682382
20
6.01755003416993
30
0.000000000000000
11
-47.2456575682382
21
5.98386801954161
31
0.000000000000000
  0
LINE
  5
F10379
330
F1037A
100
AcDbEntity
8
Geo
100
AcDbLine
10
-47.2456575682382
20
5.98386801954161
30
0.000000000000000
11
-47.1456575682382
21
5.95086630802591
31
0.000000000000000
  0
LINE
  5
F1037B
330
F1037C
100
AcDbEntity
8
Geo
100
AcDbLine
10
-47.1456575682382
20
5.95086630802591
30
0.000000000000000
11
-47.0456575682382
21
5.91855177486003
31
0.000000000000000
  0
LINE
  5
F1037D
330
F1037E
100
AcDbEntity
8
Geo
100
AcDbLine
10
-47.0456575682382
20
5.91855177486003
30
0.000000000000000
11
-46.9456575682382
21
5.88693115212149
31
0.000000000000000
  0
LINE
  5
F1037F
330
F10380
100
AcDbEntity
8
Geo
100
AcDbLine
10
-46.9456575682382
20
5.88693115212149
30
0.000000000000000
11
-46.8456575682382
21
5.85601102732568
31
0.000000000000000
  0
LINE
  5
F10381
330
F10382
100
AcDbEntity
8
Geo
100
AcDbLine
10
-46.8456575682382
20
5.85601102732568
30
0.000000000000000
11
-46.7456575682382
21
5.82579784205341
31
0.000000000000000
  0
LINE
  5
F10383
330
F10384
100
AcDbEntity
8
Geo
100
AcDbLine
10
-46.7456575682382
20
5.82579784205341
30
0.000000000000000
11
-46.6456575682382
21
5.79629789060902
31
0.000000000000000
  0
LINE
  5
F10385
330
F10386
100
AcDbEntity
8
Geo
100
AcDbLine
10
-46.6456575682382
20
5.79629789060902
30
0.000000000000000
11
-46.5456575682382
21
5.76751731870901
31
0.000000000000000
  0
LINE
  5
F10387
330
F10388
100
AcDbEntity
8
Geo
100
AcDbLine
10
-46.5456575682382
20
5.76751731870901
30
0.000000000000000
11
-46.4456575682382
21
5.73946212220178
31
0.000000000000000
  0
LINE
  5
F10389
330
F1038A
100
AcDbEntity
8
Geo
100
AcDbLine
10
-46.4456575682382
20
5.73946212220178
30
0.000000000000000
11
-46.3456575682382
21
5.71213814581846
31
0.000000000000000
  0
LINE
  5
F1038B
330
F1038C
100
AcDbEntity
8
Geo
100
AcDbLine
10
-46.3456575682382
20
5.71213814581846
30
0.000000000000000
11
-46.2456575682382
21
5.68555108195530
31
0.000000000000000
  0
LINE
  5
F1038D
330
F1038E
100
AcDbEntity
8
Geo
100
AcDbLine
10
-46.2456575682382
20
5.68555108195530
30
0.000000000000000
11
-46.1456575682382
21
5.65970646948777
31
0.000000000000000
  0
LINE
  5
F1038F
330
F10390
100
AcDbEntity
8
Geo
100
AcDbLine
10
-46.1456575682382
20
5.65970646948777
30
0.000000000000000
11
-46.0456575682382
21
5.63460969261667
31
0.000000000000000
  0
LINE
  5
F10391
330
F10392
100
AcDbEntity
8
Geo
100
AcDbLine
10
-46.0456575682382
20
5.63460969261667
30
0.000000000000000
11
-45.9456575682382
21
5.61026597974640
31
0.000000000000000
  0
LINE
  5
F10393
330
F10394
100
AcDbEntity
8
Geo
100
AcDbLine
10
-45.9456575682382
20
5.61026597974640
30
0.000000000000000
11
-45.8456575682382
21
5.58668040239577
31
0.000000000000000
  0
LINE
  5
F10395
330
F10396
100
AcDbEntity
8
Geo
100
AcDbLine
10
-45.8456575682382
20
5.58668040239577
30
0.000000000000000
11
-45.7456575682382
21
5.56385787414141
31
0.000000000000000
  0
LINE
  5
F10397
330
F10398
100
AcDbEntity
8
Geo
100
AcDbLine
10
-45.7456575682382
20
5.56385787414141
30
0.000000000000000
11
-45.6456575682382
21
5.54180314959417
31
0.000000000000000
  0
LINE
  5
F10399
330
F1039A
100
AcDbEntity
8
Geo
100
AcDbLine
10
-45.6456575682382
20
5.54180314959417
30
0.000000000000000
11
-45.5456575682382
21
5.52052082340855
31
0.000000000000000
  0
LINE
  5
F1039B
330
F1039C
100
AcDbEntity
8
Geo
100
AcDbLine
10
-45.5456575682382
20
5.52052082340855
30
0.000000000000000
11
-45.4456575682382
21
5.50001532932554
31
0.000000000000000
  0
LINE
  5
F1039D
330
F1039E
100
AcDbEntity
8
Geo
100
AcDbLine
10
-45.4456575682382
20
5.50001532932554
30
0.000000000000000
11
-45.3456575682382
21
5.48029093924891
31
0.000000000000000
  0
LINE
  5
F1039F
330
F103A0
100
AcDbEntity
8
Geo
100
AcDbLine
10
-45.3456575682382
20
5.48029093924891
30
0.000000000000000
11
-45.2456575682382
21
5.46135176235525
31
0.000000000000000
  0
LINE
  5
F103A1
330
F103A2
100
AcDbEntity
8
Geo
100
AcDbLine
10
-45.2456575682382
20
5.46135176235525
30
0.000000000000000
11
-45.1456575682382
21
5.44320174423790
31
0.000000000000000
  0
LINE
  5
F103A3
330
F103A4
100
AcDbEntity
8
Geo
100
AcDbLine
10
-45.1456575682382
20
5.44320174423790
30
0.000000000000000
11
-45.0456575682382
21
5.42584466608500
31
0.000000000000000
  0
LINE
  5
F103A5
330
F103A6
100
AcDbEntity
8
Geo
100
AcDbLine
10
-45.0456575682382
20
5.42584466608500
30
0.000000000000000
11
-44.9456575682382
21
5.40928414389172
31
0.000000000000000
  0
LINE
  5
F103A7
330
F103A8
100
AcDbEntity
8
Geo
100
AcDbLine
10
-44.9456575682382
20
5.40928414389172
30
0.000000000000000
11
-44.8456575682382
21
5.39352362770695
31
0.000000000000000
  0
LINE
  5
F103A9
330
F103AA
100
AcDbEntity
8
Geo
100
AcDbLine
10
-44.8456575682382
20
5.39352362770695
30
0.000000000000000
11
-44.7456575682382
21
5.37856640091456
31
0.000000000000000
  0
LINE
  5
F103AB
330
F103AC
100
AcDbEntity
8
Geo
100
AcDbLine
10
-44.7456575682382
20
5.37856640091456
30
0.000000000000000
11
-44.6456575682382
21
5.36441557954937
31
0.000000000000000
  0
LINE
  5
F103AD
330
F103AE
100
AcDbEntity
8
Geo
100
AcDbLine
10
-44.6456575682382
20
5.36441557954937
30
0.000000000000000
11
-44.5456575682382
21
5.35107411164797
31
0.000000000000000
  0
LINE
  5
F103AF
330
F103B0
100
AcDbEntity
8
Geo
100
AcDbLine
10
-44.5456575682382
20
5.35107411164797
30
0.000000000000000
11
-44.4456575682382
21
5.33854477663460
31
0.000000000000000
  0
LINE
  5
F103B1
330
F103B2
100
AcDbEntity
8
Geo
100
AcDbLine
10
-44.4456575682382
20
5.33854477663460
30
0.000000000000000
11
-44.3456575682382
21
5.32683018474206
31
0.000000000000000
  0
LINE
  5
F103B3
330
F103B4
100
AcDbEntity
8
Geo
100
AcDbLine
10
-44.3456575682382
20
5.32683018474206
30
0.000000000000000
11
-44.2456575682382
21
5.31593277646796
31
0.000000000000000
  0
LINE
  5
F103B5
330
F103B6
100
AcDbEntity
8
Geo
100
AcDbLine
10
-44.2456575682382
20
5.31593277646796
30
0.000000000000000
11
-44.1456575682382
21
5.30585482206628
31
0.000000000000000
  0
LINE
  5
F103B7
330
F103B8
100
AcDbEntity
8
Geo
100
AcDbLine
10
-44.1456575682382
20
5.30585482206628
30
0.000000000000000
11
-44.0456575682382
21
5.29659842107440
31
0.000000000000000
  0
LINE
  5
F103B9
330
F103BA
100
AcDbEntity
8
Geo
100
AcDbLine
10
-44.0456575682382
20
5.29659842107440
30
0.000000000000000
11
-43.9456575682382
21
5.28816550187571
31
0.000000000000000
  0
LINE
  5
F103BB
330
F103BC
100
AcDbEntity
8
Geo
100
AcDbLine
10
-43.9456575682382
20
5.28816550187571
30
0.000000000000000
11
-43.8456575682382
21
5.28055782129789
31
0.000000000000000
  0
LINE
  5
F103BD
330
F103BE
100
AcDbEntity
8
Geo
100
AcDbLine
10
-43.8456575682382
20
5.28055782129789
30
0.000000000000000
11
-43.7456575682382
21
5.27377696424686
31
0.000000000000000
  0
LINE
  5
F103BF
330
F103C0
100
AcDbEntity
8
Geo
100
AcDbLine
10
-43.7456575682382
20
5.27377696424686
30
0.000000000000000
11
-43.6456575682382
21
5.26782434337666
31
0.000000000000000
  0
LINE
  5
F103C1
330
F103C2
100
AcDbEntity
8
Geo
100
AcDbLine
10
-43.6456575682382
20
5.26782434337666
30
0.000000000000000
11
-43.5456575682382
21
5.26270119879510
31
0.000000000000000
  0
LINE
  5
F103C3
330
F103C4
100
AcDbEntity
8
Geo
100
AcDbLine
10
-43.5456575682382
20
5.26270119879510
30
0.000000000000000
11
-43.4456575682382
21
5.25840859780544
31
0.000000000000000
  0
LINE
  5
F103C5
330
F103C6
100
AcDbEntity
8
Geo
100
AcDbLine
10
-43.4456575682382
20
5.25840859780544
30
0.000000000000000
11
-43.3456575682382
21
5.25494743468402
31
0.000000000000000
  0
LINE
  5
F103C7
330
F103C8
100
AcDbEntity
8
Geo
100
AcDbLine
10
-43.3456575682382
20
5.25494743468402
30
0.000000000000000
11
-43.2456575682382
21
5.25231843049399
31
0.000000000000000
  0
LINE
  5
F103C9
330
F103CA
100
AcDbEntity
8
Geo
100
AcDbLine
10
-43.2456575682382
20
5.25231843049399
30
0.000000000000000
11
-43.1456575682382
21
5.25052213293504
31
0.000000000000000
  0
LINE
  5
F103CB
330
F103CC
100
AcDbEntity
8
Geo
100
AcDbLine
10
-43.1456575682382
20
5.25052213293504
30
0.000000000000000
11
-43.0456575682382
21
5.24955891622932
31
0.000000000000000
  0
LINE
  5
F103CD
330
F103CE
100
AcDbEntity
8
Geo
100
AcDbLine
10
-64.7456575682382
20
9.24937965260546
30
0.000000000000000
11
-64.6456575682382
21
10.0801220976462
31
0.000000000000000
  0
LINE
  5
F103CF
330
F103D0
100
AcDbEntity
8
Geo
100
AcDbLine
10
-64.6456575682382
20
10.0801220976462
30
0.000000000000000
11
-64.5456575682382
21
10.4102363632303
31
0.000000000000000
  0
LINE
  5
F103D1
330
F103D2
100
AcDbEntity
8
Geo
100
AcDbLine
10
-64.5456575682382
20
10.4102363632303
30
0.000000000000000
11
-64.4456575682382
21
10.6537479743221
31
0.000000000000000
  0
LINE
  5
F103D3
330
F103D4
100
AcDbEntity
8
Geo
100
AcDbLine
10
-64.4456575682382
20
10.6537479743221
30
0.000000000000000
11
-64.3456575682382
21
10.8506496478393
31
0.000000000000000
  0
LINE
  5
F103D5
330
F103D6
100
AcDbEntity
8
Geo
100
AcDbLine
10
-64.3456575682382
20
10.8506496478393
30
0.000000000000000
11
-64.2456575682382
21
11.0165925373605
31
0.000000000000000
  0
LINE
  5
F103D7
330
F103D8
100
AcDbEntity
8
Geo
100
AcDbLine
10
-64.2456575682382
20
11.0165925373605
30
0.000000000000000
11
-64.1456575682382
21
11.1596794698776
31
0.000000000000000
  0
LINE
  5
F103D9
330
F103DA
100
AcDbEntity
8
Geo
100
AcDbLine
10
-64.1456575682382
20
11.1596794698776
30
0.000000000000000
11
-64.0456575682382
21
11.2847677138110
31
0.000000000000000
  0
LINE
  5
F103DB
330
F103DC
100
AcDbEntity
8
Geo
100
AcDbLine
10
-64.0456575682382
20
11.2847677138110
30
0.000000000000000
11
-63.9456575682382
21
11.3950506457183
31
0.000000000000000
  0
LINE
  5
F103DD
330
F103DE
100
AcDbEntity
8
Geo
100
AcDbLine
10
-63.9456575682382
20
11.3950506457183
30
0.000000000000000
11
-63.8456575682382
21
11.4927668035467
31
0.000000000000000
  0
LINE
  5
F103DF
330
F103E0
100
AcDbEntity
8
Geo
100
AcDbLine
10
-63.8456575682382
20
11.4927668035467
30
0.000000000000000
11
-63.7456575682382
21
11.5795616617164
31
0.000000000000000
  0
LINE
  5
F103E1
330
F103E2
100
AcDbEntity
8
Geo
100
AcDbLine
10
-63.7456575682382
20
11.5795616617164
30
0.000000000000000
11
-63.6456575682382
21
11.6566900259591
31
0.000000000000000
  0
LINE
  5
F103E3
330
F103E4
100
AcDbEntity
8
Geo
100
AcDbLine
10
-63.6456575682382
20
11.6566900259591
30
0.000000000000000
11
-63.5456575682382
21
11.7251373877073
31
0.000000000000000
  0
LINE
  5
F103E5
330
F103E6
100
AcDbEntity
8
Geo
100
AcDbLine
10
-63.5456575682382
20
11.7251373877073
30
0.000000000000000
11
-63.4456575682382
21
11.7856967394490
31
0.000000000000000
  0
LINE
  5
F103E7
330
F103E8
100
AcDbEntity
8
Geo
100
AcDbLine
10
-63.4456575682382
20
11.7856967394490
30
0.000000000000000
11
-63.3456575682382
21
11.8390193656520
31
0.000000000000000
  0
LINE
  5
F103E9
330
F103EA
100
AcDbEntity
8
Geo
100
AcDbLine
10
-63.3456575682382
20
11.8390193656520
30
0.000000000000000
11
-63.2456575682382
21
11.8856496540460
31
0.000000000000000
  0
LINE
  5
F103EB
330
F103EC
100
AcDbEntity
8
Geo
100
AcDbLine
10
-63.2456575682382
20
11.8856496540460
30
0.000000000000000
11
-63.1456575682382
21
11.9260496837504
31
0.000000000000000
  0
LINE
  5
F103ED
330
F103EE
100
AcDbEntity
8
Geo
100
AcDbLine
10
-63.1456575682382
20
11.9260496837504
30
0.000000000000000
11
-63.0456575682382
21
11.9606170429144
31
0.000000000000000
  0
LINE
  5
F103EF
330
F103F0
100
AcDbEntity
8
Geo
100
AcDbLine
10
-63.0456575682382
20
11.9606170429144
30
0.000000000000000
11
-62.9456575682382
21
11.9896980280412
31
0.000000000000000
  0
LINE
  5
F103F1
330
F103F2
100
AcDbEntity
8
Geo
100
AcDbLine
10
-62.9456575682382
20
11.9896980280412
30
0.000000000000000
11
-62.8456575682382
21
12.0135976115612
31
0.000000000000000
  0
LINE
  5
F103F3
330
F103F4
100
AcDbEntity
8
Geo
100
AcDbLine
10
-62.8456575682382
20
12.0135976115612
30
0.000000000000000
11
-62.7456575682382
21
12.0325870969259
31
0.000000000000000
  0
LINE
  5
F103F5
330
F103F6
100
AcDbEntity
8
Geo
100
AcDbLine
10
-62.7456575682382
20
12.0325870969259
30
0.000000000000000
11
-62.6456575682382
21
12.0469100861737
31
0.000000000000000
  0
LINE
  5
F103F7
330
F103F8
100
AcDbEntity
8
Geo
100
AcDbLine
10
-62.6456575682382
20
12.0469100861737
30
0.000000000000000
11
-62.5456575682382
21
12.0567871943580
31
0.000000000000000
  0
LINE
  5
F103F9
330
F103FA
100
AcDbEntity
8
Geo
100
AcDbLine
10
-62.5456575682382
20
12.0567871943580
30
0.000000000000000
11
-62.4456575682382
21
12.0624198187987
31
0.000000000000000
  0
LINE
  5
F103FB
330
F103FC
100
AcDbEntity
8
Geo
100
AcDbLine
10
-62.4456575682382
20
12.0624198187987
30
0.000000000000000
11
-62.3456575682382
21
12.0639931853814
31
0.000000000000000
  0
LINE
  5
F103FD
330
F103FE
100
AcDbEntity
8
Geo
100
AcDbLine
10
-62.3456575682382
20
12.0639931853814
30
0.000000000000000
11
-62.2456575682382
21
12.0616788348480
31
0.000000000000000
  0
LINE
  5
F103FF
330
F10400
100
AcDbEntity
8
Geo
100
AcDbLine
10
-62.2456575682382
20
12.0616788348480
30
0.000000000000000
11
-62.1456575682382
21
12.0556366702935
31
0.000000000000000
  0
LINE
  5
F10401
330
F10402
100
AcDbEntity
8
Geo
100
AcDbLine
10
-62.1456575682382
20
12.0556366702935
30
0.000000000000000
11
-62.0456575682382
21
12.0460166572455
31
0.000000000000000
  0
LINE
  5
F10403
330
F10404
100
AcDbEntity
8
Geo
100
AcDbLine
10
-62.0456575682382
20
12.0460166572455
30
0.000000000000000
11
-61.9456575682382
21
12.0329602460406
31
0.000000000000000
  0
LINE
  5
F10405
330
F10406
100
AcDbEntity
8
Geo
100
AcDbLine
10
-61.9456575682382
20
12.0329602460406
30
0.000000000000000
11
-61.8456575682382
21
12.0166015702907
31
0.000000000000000
  0
LINE
  5
F10407
330
F10408
100
AcDbEntity
8
Geo
100
AcDbLine
10
-61.8456575682382
20
12.0166015702907
30
0.000000000000000
11
-61.7456575682382
21
11.9970684633665
31
0.000000000000000
  0
LINE
  5
F10409
330
F1040A
100
AcDbEntity
8
Geo
100
AcDbLine
10
-61.7456575682382
20
11.9970684633665
30
0.000000000000000
11
-61.6456575682382
21
11.9744833258988
31
0.000000000000000
  0
LINE
  5
F1040B
330
F1040C
100
AcDbEntity
8
Geo
100
AcDbLine
10
-61.6456575682382
20
11.9744833258988
30
0.000000000000000
11
-61.5456575682382
21
11.9489638705043
31
0.000000000000000
  0
LINE
  5
F1040D
330
F1040E
100
AcDbEntity
8
Geo
100
AcDbLine
10
-61.5456575682382
20
11.9489638705043
30
0.000000000000000
11
-61.4456575682382
21
11.9206237647187
31
0.000000000000000
  0
LINE
  5
F1040F
330
F10410
100
AcDbEntity
8
Geo
100
AcDbLine
10
-61.4456575682382
20
11.9206237647187
30
0.000000000000000
11
-61.3456575682382
21
11.8895731890804
31
0.000000000000000
  0
LINE
  5
F10411
330
F10412
100
AcDbEntity
8
Geo
100
AcDbLine
10
-61.3456575682382
20
11.8895731890804
30
0.000000000000000
11
-61.2456575682382
21
11.8559193241409
31
0.000000000000000
  0
LINE
  5
F10413
330
F10414
100
AcDbEntity
8
Geo
100
AcDbLine
10
-61.2456575682382
20
11.8559193241409
30
0.000000000000000
11
-61.1456575682382
21
11.8197667776947
31
0.000000000000000
  0
LINE
  5
F10415
330
F10416
100
AcDbEntity
8
Geo
100
AcDbLine
10
-61.1456575682382
20
11.8197667776947
30
0.000000000000000
11
-61.0456575682382
21
11.7812179615443
31
0.000000000000000
  0
LINE
  5
F10417
330
F10418
100
AcDbEntity
8
Geo
100
AcDbLine
10
-61.0456575682382
20
11.7812179615443
30
0.000000000000000
11
-60.9456575682382
21
11.7403734255461
31
0.000000000000000
  0
LINE
  5
F10419
330
F1041A
100
AcDbEntity
8
Geo
100
AcDbLine
10
-60.9456575682382
20
11.7403734255461
30
0.000000000000000
11
-60.8456575682382
21
11.6973321554201
31
0.000000000000000
  0
LINE
  5
F1041B
330
F1041C
100
AcDbEntity
8
Geo
100
AcDbLine
10
-60.8456575682382
20
11.6973321554201
30
0.000000000000000
11
-60.7456575682382
21
11.6521918397884
31
0.000000000000000
  0
LINE
  5
F1041D
330
F1041E
100
AcDbEntity
8
Geo
100
AcDbLine
10
-60.7456575682382
20
11.6521918397884
30
0.000000000000000
11
-60.6456575682382
21
11.6057856030442
31
0.000000000000000
  0
LINE
  5
F1041F
330
F10420
100
AcDbEntity
8
Geo
100
AcDbLine
10
-60.6456575682382
20
11.6057856030442
30
0.000000000000000
11
-60.5456575682382
21
11.5588884569165
31
0.000000000000000
  0
LINE
  5
F10421
330
F10422
100
AcDbEntity
8
Geo
100
AcDbLine
10
-60.5456575682382
20
11.5588884569165
30
0.000000000000000
11
-60.4456575682382
21
11.5115101714744
31
0.000000000000000
  0
LINE
  5
F10423
330
F10424
100
AcDbEntity
8
Geo
100
AcDbLine
10
-60.4456575682382
20
11.5115101714744
30
0.000000000000000
11
-60.3456575682382
21
11.4636606170228
31
0.000000000000000
  0
LINE
  5
F10425
330
F10426
100
AcDbEntity
8
Geo
100
AcDbLine
10
-60.3456575682382
20
11.4636606170228
30
0.000000000000000
11
-60.2456575682382
21
11.4153497620456
31
0.000000000000000
  0
LINE
  5
F10427
330
F10428
100
AcDbEntity
8
Geo
100
AcDbLine
10
-60.2456575682382
20
11.4153497620456
30
0.000000000000000
11
-60.1456575682382
21
11.3665876711297
31
0.000000000000000
  0
LINE
  5
F10429
330
F1042A
100
AcDbEntity
8
Geo
100
AcDbLine
10
-60.1456575682382
20
11.3665876711297
30
0.000000000000000
11
-60.0456575682382
21
11.3173845028676
31
0.000000000000000
  0
LINE
  5
F1042B
330
F1042C
100
AcDbEntity
8
Geo
100
AcDbLine
10
-60.0456575682382
20
11.3173845028676
30
0.000000000000000
11
-59.9456575682382
21
11.2677505077415
31
0.000000000000000
  0
LINE
  5
F1042D
330
F1042E
100
AcDbEntity
8
Geo
100
AcDbLine
10
-59.9456575682382
20
11.2677505077415
30
0.000000000000000
11
-59.8456575682382
21
11.2176960259873
31
0.000000000000000
  0
LINE
  5
F1042F
330
F10430
100
AcDbEntity
8
Geo
100
AcDbLine
10
-59.8456575682382
20
11.2176960259873
30
0.000000000000000
11
-59.7456575682382
21
11.1672314854412
31
0.000000000000000
  0
LINE
  5
F10431
330
F10432
100
AcDbEntity
8
Geo
100
AcDbLine
10
-59.7456575682382
20
11.1672314854412
30
0.000000000000000
11
-59.6456575682382
21
11.1163673993665
31
0.000000000000000
  0
LINE
  5
F10433
330
F10434
100
AcDbEntity
8
Geo
100
AcDbLine
10
-59.6456575682382
20
11.1163673993665
30
0.000000000000000
11
-59.5456575682382
21
11.0651143642640
31
0.000000000000000
  0
LINE
  5
F10435
330
F10436
100
AcDbEntity
8
Geo
100
AcDbLine
10
-59.5456575682382
20
11.0651143642640
30
0.000000000000000
11
-59.4456575682382
21
11.0134830576637
31
0.000000000000000
  0
LINE
  5
F10437
330
F10438
100
AcDbEntity
8
Geo
100
AcDbLine
10
-59.4456575682382
20
11.0134830576637
30
0.000000000000000
11
-59.3456575682382
21
10.9614842359013
31
0.000000000000000
  0
LINE
  5
F10439
330
F1043A
100
AcDbEntity
8
Geo
100
AcDbLine
10
-59.3456575682382
20
10.9614842359013
30
0.000000000000000
11
-59.2456575682382
21
10.9091287318765
31
0.000000000000000
  0
LINE
  5
F1043B
330
F1043C
100
AcDbEntity
8
Geo
100
AcDbLine
10
-59.2456575682382
20
10.9091287318765
30
0.000000000000000
11
-59.1456575682382
21
10.8564274527967
31
0.000000000000000
  0
LINE
  5
F1043D
330
F1043E
100
AcDbEntity
8
Geo
100
AcDbLine
10
-59.1456575682382
20
10.8564274527967
30
0.000000000000000
11
-59.0456575682382
21
10.8033913779042
31
0.000000000000000
  0
LINE
  5
F1043F
330
F10440
100
AcDbEntity
8
Geo
100
AcDbLine
10
-59.0456575682382
20
10.8033913779042
30
0.000000000000000
11
-58.9456575682382
21
10.7500315561897
31
0.000000000000000
  0
LINE
  5
F10441
330
F10442
100
AcDbEntity
8
Geo
100
AcDbLine
10
-58.9456575682382
20
10.7500315561897
30
0.000000000000000
11
-58.8456575682382
21
10.6963591040896
31
0.000000000000000
  0
LINE
  5
F10443
330
F10444
100
AcDbEntity
8
Geo
100
AcDbLine
10
-58.8456575682382
20
10.6963591040896
30
0.000000000000000
11
-58.7456575682382
21
10.6423852031706
31
0.000000000000000
  0
LINE
  5
F10445
330
F10446
100
AcDbEntity
8
Geo
100
AcDbLine
10
-58.7456575682382
20
10.6423852031706
30
0.000000000000000
11
-58.6456575682382
21
10.5881210978003
31
0.000000000000000
  0
LINE
  5
F10447
330
F10448
100
AcDbEntity
8
Geo
100
AcDbLine
10
-58.6456575682382
20
10.5881210978003
30
0.000000000000000
11
-58.5456575682382
21
10.5335780928043
31
0.000000000000000
  0
LINE
  5
F10449
330
F1044A
100
AcDbEntity
8
Geo
100
AcDbLine
10
-58.5456575682382
20
10.5335780928043
30
0.000000000000000
11
-58.4456575682382
21
10.4787675511113
31
0.000000000000000
  0
LINE
  5
F1044B
330
F1044C
100
AcDbEntity
8
Geo
100
AcDbLine
10
-58.4456575682382
20
10.4787675511113
30
0.000000000000000
11
-58.3456575682382
21
10.4237008913860
31
0.000000000000000
  0
LINE
  5
F1044D
330
F1044E
100
AcDbEntity
8
Geo
100
AcDbLine
10
-58.3456575682382
20
10.4237008913860
30
0.000000000000000
11
-58.2456575682382
21
10.3683895856500
31
0.000000000000000
  0
LINE
  5
F1044F
330
F10450
100
AcDbEntity
8
Geo
100
AcDbLine
10
-58.2456575682382
20
10.3683895856500
30
0.000000000000000
11
-58.1456575682382
21
10.3128451568920
31
0.000000000000000
  0
LINE
  5
F10451
330
F10452
100
AcDbEntity
8
Geo
100
AcDbLine
10
-58.1456575682382
20
10.3128451568920
30
0.000000000000000
11
-58.0456575682382
21
10.2570791766670
31
0.000000000000000
  0
LINE
  5
F10453
330
F10454
100
AcDbEntity
8
Geo
100
AcDbLine
10
-58.0456575682382
20
10.2570791766670
30
0.000000000000000
11
-57.9456575682382
21
10.2011032626858
31
0.000000000000000
  0
LINE
  5
F10455
330
F10456
100
AcDbEntity
8
Geo
100
AcDbLine
10
-57.9456575682382
20
10.2011032626858
30
0.000000000000000
11
-57.8456575682382
21
10.1449290763948
31
0.000000000000000
  0
LINE
  5
F10457
330
F10458
100
AcDbEntity
8
Geo
100
AcDbLine
10
-57.8456575682382
20
10.1449290763948
30
0.000000000000000
11
-57.7456575682382
21
10.0885683205463
31
0.000000000000000
  0
LINE
  5
F10459
330
F1045A
100
AcDbEntity
8
Geo
100
AcDbLine
10
-57.7456575682382
20
10.0885683205463
30
0.000000000000000
11
-57.6456575682382
21
10.0320327367605
31
0.000000000000000
  0
LINE
  5
F1045B
330
F1045C
100
AcDbEntity
8
Geo
100
AcDbLine
10
-57.6456575682382
20
10.0320327367605
30
0.000000000000000
11
-57.5456575682382
21
9.97533410307967
31
0.000000000000000
  0
LINE
  5
F1045D
330
F1045E
100
AcDbEntity
8
Geo
100
AcDbLine
10
-57.5456575682382
20
9.97533410307967
30
0.000000000000000
11
-57.4456575682382
21
9.91848423151396
31
0.000000000000000
  0
LINE
  5
F1045F
330
F10460
100
AcDbEntity
8
Geo
100
AcDbLine
10
-57.4456575682382
20
9.91848423151396
30
0.000000000000000
11
-57.3456575682382
21
9.86149496558105
31
0.000000000000000
  0
LINE
  5
F10461
330
F10462
100
AcDbEntity
8
Geo
100
AcDbLine
10
-57.3456575682382
20
9.86149496558105
30
0.000000000000000
11
-57.2456575682382
21
9.80437817783855
31
0.000000000000000
  0
LINE
  5
F10463
330
F10464
100
AcDbEntity
8
Geo
100
AcDbLine
10
-57.2456575682382
20
9.80437817783855
30
0.000000000000000
11
-57.1456575682382
21
9.74714576741064
31
0.000000000000000
  0
LINE
  5
F10465
330
F10466
100
AcDbEntity
8
Geo
100
AcDbLine
10
-57.1456575682382
20
9.74714576741064
30
0.000000000000000
11
-57.0456575682382
21
9.68980965750918
31
0.000000000000000
  0
LINE
  5
F10467
330
F10468
100
AcDbEntity
8
Geo
100
AcDbLine
10
-57.0456575682382
20
9.68980965750918
30
0.000000000000000
11
-56.9456575682382
21
9.63238179294967
31
0.000000000000000
  0
LINE
  5
F10469
330
F1046A
100
AcDbEntity
8
Geo
100
AcDbLine
10
-56.9456575682382
20
9.63238179294967
30
0.000000000000000
11
-56.8456575682382
21
9.57487413766286
31
0.000000000000000
  0
LINE
  5
F1046B
330
F1046C
100
AcDbEntity
8
Geo
100
AcDbLine
10
-56.8456575682382
20
9.57487413766286
30
0.000000000000000
11
-56.7456575682382
21
9.51729867220227
31
0.000000000000000
  0
LINE
  5
F1046D
330
F1046E
100
AcDbEntity
8
Geo
100
AcDbLine
10
-56.7456575682382
20
9.51729867220227
30
0.000000000000000
11
-56.6456575682382
21
9.45966739124830
31
0.000000000000000
  0
LINE
  5
F1046F
330
F10470
100
AcDbEntity
8
Geo
100
AcDbLine
10
-56.6456575682382
20
9.45966739124830
30
0.000000000000000
11
-56.5456575682382
21
9.40199230110935
31
0.000000000000000
  0
LINE
  5
F10471
330
F10472
100
AcDbEntity
8
Geo
100
AcDbLine
10
-56.5456575682382
20
9.40199230110935
30
0.000000000000000
11
-56.4456575682382
21
9.34428541722062
31
0.000000000000000
  0
LINE
  5
F10473
330
F10474
100
AcDbEntity
8
Geo
100
AcDbLine
10
-56.4456575682382
20
9.34428541722062
30
0.000000000000000
11
-56.3456575682382
21
9.28655876164085
31
0.000000000000000
  0
LINE
  5
F10475
330
F10476
100
AcDbEntity
8
Geo
100
AcDbLine
10
-56.3456575682382
20
9.28655876164085
30
0.000000000000000
11
-56.2456575682382
21
9.22882436054784
31
0.000000000000000
  0
LINE
  5
F10477
330
F10478
100
AcDbEntity
8
Geo
100
AcDbLine
10
-56.2456575682382
20
9.22882436054784
30
0.000000000000000
11
-56.1456575682382
21
9.17109424173300
31
0.000000000000000
  0
LINE
  5
F10479
330
F1047A
100
AcDbEntity
8
Geo
100
AcDbLine
10
-56.1456575682382
20
9.17109424173300
30
0.000000000000000
11
-56.0456575682382
21
9.11338043209560
31
0.000000000000000
  0
LINE
  5
F1047B
330
F1047C
100
AcDbEntity
8
Geo
100
AcDbLine
10
-56.0456575682382
20
9.11338043209560
30
0.000000000000000
11
-55.9456575682382
21
9.05569495513726
31
0.000000000000000
  0
LINE
  5
F1047D
330
F1047E
100
AcDbEntity
8
Geo
100
AcDbLine
10
-55.9456575682382
20
9.05569495513726
30
0.000000000000000
11
-55.8456575682382
21
8.99804982845702
31
0.000000000000000
  0
LINE
  5
F1047F
330
F10480
100
AcDbEntity
8
Geo
100
AcDbLine
10
-55.8456575682382
20
8.99804982845702
30
0.000000000000000
11
-55.7456575682382
21
8.94045706124778
31
0.000000000000000
  0
LINE
  5
F10481
330
F10482
100
AcDbEntity
8
Geo
100
AcDbLine
10
-55.7456575682382
20
8.94045706124778
30
0.000000000000000
11
-55.6456575682382
21
8.88292865179440
31
0.000000000000000
  0
LINE
  5
F10483
330
F10484
100
AcDbEntity
8
Geo
100
AcDbLine
10
-55.6456575682382
20
8.88292865179440
30
0.000000000000000
11
-55.5456575682382
21
8.82547658497413
31
0.000000000000000
  0
LINE
  5
F10485
330
F10486
100
AcDbEntity
8
Geo
100
AcDbLine
10
-55.5456575682382
20
8.82547658497413
30
0.000000000000000
11
-55.4456575682382
21
8.76811282975974
31
0.000000000000000
  0
LINE
  5
F10487
330
F10488
100
AcDbEntity
8
Geo
100
AcDbLine
10
-55.4456575682382
20
8.76811282975974
30
0.000000000000000
11
-55.3456575682382
21
8.71084933672609
31
0.000000000000000
  0
LINE
  5
F10489
330
F1048A
100
AcDbEntity
8
Geo
100
AcDbLine
10
-55.3456575682382
20
8.71084933672609
30
0.000000000000000
11
-55.2456575682382
21
8.65369803556046
31
0.000000000000000
  0
LINE
  5
F1048B
330
F1048C
100
AcDbEntity
8
Geo
100
AcDbLine
10
-55.2456575682382
20
8.65369803556046
30
0.000000000000000
11
-55.1456575682382
21
8.59667083257721
31
0.000000000000000
  0
LINE
  5
F1048D
330
F1048E
100
AcDbEntity
8
Geo
100
AcDbLine
10
-55.1456575682382
20
8.59667083257721
30
0.000000000000000
11
-55.0456575682382
21
8.53977960823736
31
0.000000000000000
  0
LINE
  5
F1048F
330
F10490
100
AcDbEntity
8
Geo
100
AcDbLine
10
-55.0456575682382
20
8.53977960823736
30
0.000000000000000
11
-54.9456575682382
21
8.48303621467356
31
0.000000000000000
  0
LINE
  5
F10491
330
F10492
100
AcDbEntity
8
Geo
100
AcDbLine
10
-54.9456575682382
20
8.48303621467356
30
0.000000000000000
11
-54.8456575682382
21
8.42645247322089
31
0.000000000000000
  0
LINE
  5
F10493
330
F10494
100
AcDbEntity
8
Geo
100
AcDbLine
10
-54.8456575682382
20
8.42645247322089
30
0.000000000000000
11
-54.7456575682382
21
8.37004017195417
31
0.000000000000000
  0
LINE
  5
F10495
330
F10496
100
AcDbEntity
8
Geo
100
AcDbLine
10
-54.7456575682382
20
8.37004017195417
30
0.000000000000000
11
-54.6456575682382
21
8.31381106323213
31
0.000000000000000
  0
LINE
  5
F10497
330
F10498
100
AcDbEntity
8
Geo
100
AcDbLine
10
-54.6456575682382
20
8.31381106323213
30
0.000000000000000
11
-54.5456575682382
21
8.25777686124905
31
0.000000000000000
  0
LINE
  5
F10499
330
F1049A
100
AcDbEntity
8
Geo
100
AcDbLine
10
-54.5456575682382
20
8.25777686124905
30
0.000000000000000
11
-54.4456575682382
21
8.20194923959432
31
0.000000000000000
  0
LINE
  5
F1049B
330
F1049C
100
AcDbEntity
8
Geo
100
AcDbLine
10
-54.4456575682382
20
8.20194923959432
30
0.000000000000000
11
-54.3456575682382
21
8.14633982882055
31
0.000000000000000
  0
LINE
  5
F1049D
330
F1049E
100
AcDbEntity
8
Geo
100
AcDbLine
10
-54.3456575682382
20
8.14633982882055
30
0.000000000000000
11
-54.2456575682382
21
8.09096021402052
31
0.000000000000000
  0
LINE
  5
F1049F
330
F104A0
100
AcDbEntity
8
Geo
100
AcDbLine
10
-54.2456575682382
20
8.09096021402052
30
0.000000000000000
11
-54.1456575682382
21
8.03582193241366
31
0.000000000000000
  0
LINE
  5
F104A1
330
F104A2
100
AcDbEntity
8
Geo
100
AcDbLine
10
-54.1456575682382
20
8.03582193241366
30
0.000000000000000
11
-54.0456575682382
21
7.98093647094257
31
0.000000000000000
  0
LINE
  5
F104A3
330
F104A4
100
AcDbEntity
8
Geo
100
AcDbLine
10
-54.0456575682382
20
7.98093647094257
30
0.000000000000000
11
-53.9456575682382
21
7.92631526387985
31
0.000000000000000
  0
LINE
  5
F104A5
330
F104A6
100
AcDbEntity
8
Geo
100
AcDbLine
10
-53.9456575682382
20
7.92631526387985
30
0.000000000000000
11
-53.8456575682382
21
7.87196969044610
31
0.000000000000000
  0
LINE
  5
F104A7
330
F104A8
100
AcDbEntity
8
Geo
100
AcDbLine
10
-53.8456575682382
20
7.87196969044610
30
0.000000000000000
11
-53.7456575682382
21
7.81791107243921
31
0.000000000000000
  0
LINE
  5
F104A9
330
F104AA
100
AcDbEntity
8
Geo
100
AcDbLine
10
-53.7456575682382
20
7.81791107243921
30
0.000000000000000
11
-53.6456575682382
21
7.76415067187575
31
0.000000000000000
  0
LINE
  5
F104AB
330
F104AC
100
AcDbEntity
8
Geo
100
AcDbLine
10
-53.6456575682382
20
7.76415067187575
30
0.000000000000000
11
-53.5456575682382
21
7.71069968864473
31
0.000000000000000
  0
LINE
  5
F104AD
330
F104AE
100
AcDbEntity
8
Geo
100
AcDbLine
10
-53.5456575682382
20
7.71069968864473
30
0.000000000000000
11
-53.4456575682382
21
7.65756925817432
31
0.000000000000000
  0
LINE
  5
F104AF
330
F104B0
100
AcDbEntity
8
Geo
100
AcDbLine
10
-53.4456575682382
20
7.65756925817432
30
0.000000000000000
11
-53.3456575682382
21
7.60477044911204
31
0.000000000000000
  0
LINE
  5
F104B1
330
F104B2
100
AcDbEntity
8
Geo
100
AcDbLine
10
-53.3456575682382
20
7.60477044911204
30
0.000000000000000
11
-53.2456575682382
21
7.55231426101881
31
0.000000000000000
  0
LINE
  5
F104B3
330
F104B4
100
AcDbEntity
8
Geo
100
AcDbLine
10
-53.2456575682382
20
7.55231426101881
30
0.000000000000000
11
-53.1456575682382
21
7.50021162207743
31
0.000000000000000
  0
LINE
  5
F104B5
330
F104B6
100
AcDbEntity
8
Geo
100
AcDbLine
10
-53.1456575682382
20
7.50021162207743
30
0.000000000000000
11
-53.0456575682382
21
7.44847338681588
31
0.000000000000000
  0
LINE
  5
F104B7
330
F104B8
100
AcDbEntity
8
Geo
100
AcDbLine
10
-53.0456575682382
20
7.44847338681588
30
0.000000000000000
11
-52.9456575682382
21
7.39711033384607
31
0.000000000000000
  0
LINE
  5
F104B9
330
F104BA
100
AcDbEntity
8
Geo
100
AcDbLine
10
-52.9456575682382
20
7.39711033384607
30
0.000000000000000
11
-52.8456575682382
21
7.34613316361823
31
0.000000000000000
  0
LINE
  5
F104BB
330
F104BC
100
AcDbEntity
8
Geo
100
AcDbLine
10
-52.8456575682382
20
7.34613316361823
30
0.000000000000000
11
-52.7456575682382
21
7.29555249619180
31
0.000000000000000
  0
LINE
  5
F104BD
330
F104BE
100
AcDbEntity
8
Geo
100
AcDbLine
10
-52.7456575682382
20
7.29555249619180
30
0.000000000000000
11
-52.6456575682382
21
7.24537886902288
31
0.000000000000000
  0
LINE
  5
F104BF
330
F104C0
100
AcDbEntity
8
Geo
100
AcDbLine
10
-52.6456575682382
20
7.24537886902288
30
0.000000000000000
11
-52.5456575682382
21
7.19562273476899
31
0.000000000000000
  0
LINE
  5
F104C1
330
F104C2
100
AcDbEntity
8
Geo
100
AcDbLine
10
-52.5456575682382
20
7.19562273476899
30
0.000000000000000
11
-52.4456575682382
21
7.14629445911147
31
0.000000000000000
  0
LINE
  5
F104C3
330
F104C4
100
AcDbEntity
8
Geo
100
AcDbLine
10
-52.4456575682382
20
7.14629445911147
30
0.000000000000000
11
-52.3456575682382
21
7.09740431859600
31
0.000000000000000
  0
LINE
  5
F104C5
330
F104C6
100
AcDbEntity
8
Geo
100
AcDbLine
10
-52.3456575682382
20
7.09740431859600
30
0.000000000000000
11
-52.2456575682382
21
7.04896249849170
31
0.000000000000000
  0
LINE
  5
F104C7
330
F104C8
100
AcDbEntity
8
Geo
100
AcDbLine
10
-52.2456575682382
20
7.04896249849170
30
0.000000000000000
11
-52.1456575682382
21
7.00097909066920
31
0.000000000000000
  0
LINE
  5
F104C9
330
F104CA
100
AcDbEntity
8
Geo
100
AcDbLine
10
-52.1456575682382
20
7.00097909066920
30
0.000000000000000
11
-52.0456575682382
21
6.95346409149827
31
0.000000000000000
  0
LINE
  5
F104CB
330
F104CC
100
AcDbEntity
8
Geo
100
AcDbLine
10
-52.0456575682382
20
6.95346409149827
30
0.000000000000000
11
-51.9456575682382
21
6.90642739976520
31
0.000000000000000
  0
LINE
  5
F104CD
330
F104CE
100
AcDbEntity
8
Geo
100
AcDbLine
10
-51.9456575682382
20
6.90642739976520
30
0.000000000000000
11
-51.8456575682382
21
6.85987881461064
31
0.000000000000000
  0
LINE
  5
F104CF
330
F104D0
100
AcDbEntity
8
Geo
100
AcDbLine
10
-51.8456575682382
20
6.85987881461064
30
0.000000000000000
11
-51.7456575682382
21
6.81382803348814
31
0.000000000000000
  0
LINE
  5
F104D1
330
F104D2
100
AcDbEntity
8
Geo
100
AcDbLine
10
-51.7456575682382
20
6.81382803348814
30
0.000000000000000
11
-51.6456575682382
21
6.76828465014388
31
0.000000000000000
  0
LINE
  5
F104D3
330
F104D4
100
AcDbEntity
8
Geo
100
AcDbLine
10
-51.6456575682382
20
6.76828465014388
30
0.000000000000000
11
-51.5456575682382
21
6.72325815261799
31
0.000000000000000
  0
LINE
  5
F104D5
330
F104D6
100
AcDbEntity
8
Geo
100
AcDbLine
10
-51.5456575682382
20
6.72325815261799
30
0.000000000000000
11
-51.4456575682382
21
6.67875792126793
31
0.000000000000000
  0
LINE
  5
F104D7
330
F104D8
100
AcDbEntity
8
Geo
100
AcDbLine
10
-51.4456575682382
20
6.67875792126793
30
0.000000000000000
11
-51.3456575682382
21
6.63479322681430
31
0.000000000000000
  0
LINE
  5
F104D9
330
F104DA
100
AcDbEntity
8
Geo
100
AcDbLine
10
-51.3456575682382
20
6.63479322681430
30
0.000000000000000
11
-51.2456575682382
21
6.59137322840941
31
0.000000000000000
  0
LINE
  5
F104DB
330
F104DC
100
AcDbEntity
8
Geo
100
AcDbLine
10
-51.2456575682382
20
6.59137322840941
30
0.000000000000000
11
-51.1456575682382
21
6.54850697172922
31
0.000000000000000
  0
LINE
  5
F104DD
330
F104DE
100
AcDbEntity
8
Geo
100
AcDbLine
10
-51.1456575682382
20
6.54850697172922
30
0.000000000000000
11
-51.0456575682382
21
6.50620338708884
31
0.000000000000000
  0
LINE
  5
F104DF
330
F104E0
100
AcDbEntity
8
Geo
100
AcDbLine
10
-51.0456575682382
20
6.50620338708884
30
0.000000000000000
11
-50.9456575682382
21
6.46447128758205
31
0.000000000000000
  0
LINE
  5
F104E1
330
F104E2
100
AcDbEntity
8
Geo
100
AcDbLine
10
-50.9456575682382
20
6.46447128758205
30
0.000000000000000
11
-50.8456575682383
21
6.42331936724531
31
0.000000000000000
  0
LINE
  5
F104E3
330
F104E4
100
AcDbEntity
8
Geo
100
AcDbLine
10
-50.8456575682383
20
6.42331936724531
30
0.000000000000000
11
-50.7456575682383
21
6.38275619924652
31
0.000000000000000
  0
LINE
  5
F104E5
330
F104E6
100
AcDbEntity
8
Geo
100
AcDbLine
10
-50.7456575682383
20
6.38275619924652
30
0.000000000000000
11
-50.6456575682382
21
6.34279023409897
31
0.000000000000000
  0
LINE
  5
F104E7
330
F104E8
100
AcDbEntity
8
Geo
100
AcDbLine
10
-50.6456575682382
20
6.34279023409897
30
0.000000000000000
11
-50.5456575682382
21
6.30342979790085
31
0.000000000000000
  0
LINE
  5
F104E9
330
F104EA
100
AcDbEntity
8
Geo
100
AcDbLine
10
-50.5456575682382
20
6.30342979790085
30
0.000000000000000
11
-50.4456575682382
21
6.26468309060066
31
0.000000000000000
  0
LINE
  5
F104EB
330
F104EC
100
AcDbEntity
8
Geo
100
AcDbLine
10
-50.4456575682382
20
6.26468309060066
30
0.000000000000000
11
-50.3456575682383
21
6.22655818428895
31
0.000000000000000
  0
LINE
  5
F104ED
330
F104EE
100
AcDbEntity
8
Geo
100
AcDbLine
10
-50.3456575682383
20
6.22655818428895
30
0.000000000000000
11
-50.2456575682383
21
6.18906302151665
31
0.000000000000000
  0
LINE
  5
F104EF
330
F104F0
100
AcDbEntity
8
Geo
100
AcDbLine
10
-50.2456575682383
20
6.18906302151665
30
0.000000000000000
11
-50.1456575682382
21
6.15220541364038
31
0.000000000000000
  0
LINE
  5
F104F1
330
F104F2
100
AcDbEntity
8
Geo
100
AcDbLine
10
-50.1456575682382
20
6.15220541364038
30
0.000000000000000
11
-50.0456575682383
21
6.11599303919514
31
0.000000000000000
  0
LINE
  5
F104F3
330
F104F4
100
AcDbEntity
8
Geo
100
AcDbLine
10
-50.0456575682383
20
6.11599303919514
30
0.000000000000000
11
-49.9456575682383
21
6.08043344229463
31
0.000000000000000
  0
LINE
  5
F104F5
330
F104F6
100
AcDbEntity
8
Geo
100
AcDbLine
10
-49.9456575682383
20
6.08043344229463
30
0.000000000000000
11
-49.8456575682383
21
6.04553403105960
31
0.000000000000000
  0
LINE
  5
F104F7
330
F104F8
100
AcDbEntity
8
Geo
100
AcDbLine
10
-49.8456575682383
20
6.04553403105960
30
0.000000000000000
11
-49.7456575682383
21
6.01130207607449
31
0.000000000000000
  0
LINE
  5
F104F9
330
F104FA
100
AcDbEntity
8
Geo
100
AcDbLine
10
-49.7456575682383
20
6.01130207607449
30
0.000000000000000
11
-49.6456575682382
21
5.97774470887277
31
0.000000000000000
  0
LINE
  5
F104FB
330
F104FC
100
AcDbEntity
8
Geo
100
AcDbLine
10
-49.6456575682382
20
5.97774470887277
30
0.000000000000000
11
-49.5456575682383
21
5.94486892045124
31
0.000000000000000
  0
LINE
  5
F104FD
330
F104FE
100
AcDbEntity
8
Geo
100
AcDbLine
10
-49.5456575682383
20
5.94486892045124
30
0.000000000000000
11
-49.4456575682383
21
5.91268155981358
31
0.000000000000000
  0
LINE
  5
F104FF
330
F10500
100
AcDbEntity
8
Geo
100
AcDbLine
10
-49.4456575682383
20
5.91268155981358
30
0.000000000000000
11
-49.3456575682383
21
5.88118933254350
31
0.000000000000000
  0
LINE
  5
F10501
330
F10502
100
AcDbEntity
8
Geo
100
AcDbLine
10
-49.3456575682383
20
5.88118933254350
30
0.000000000000000
11
-49.2456575682383
21
5.85039879940779
31
0.000000000000000
  0
LINE
  5
F10503
330
F10504
100
AcDbEntity
8
Geo
100
AcDbLine
10
-49.2456575682383
20
5.85039879940779
30
0.000000000000000
11
-49.1456575682383
21
5.82031637498948
31
0.000000000000000
  0
LINE
  5
F10505
330
F10506
100
AcDbEntity
8
Geo
100
AcDbLine
10
-49.1456575682383
20
5.82031637498948
30
0.000000000000000
11
-49.0456575682383
21
5.79094832635152
31
0.000000000000000
  0
LINE
  5
F10507
330
F10508
100
AcDbEntity
8
Geo
100
AcDbLine
10
-49.0456575682383
20
5.79094832635152
30
0.000000000000000
11
-48.9456575682383
21
5.76230077173115
31
0.000000000000000
  0
LINE
  5
F10509
330
F1050A
100
AcDbEntity
8
Geo
100
AcDbLine
10
-48.9456575682383
20
5.76230077173115
30
0.000000000000000
11
-48.8456575682383
21
5.73437967926531
31
0.000000000000000
  0
LINE
  5
F1050B
330
F1050C
100
AcDbEntity
8
Geo
100
AcDbLine
10
-48.8456575682383
20
5.73437967926531
30
0.000000000000000
11
-48.7456575682383
21
5.70719086574728
31
0.000000000000000
  0
LINE
  5
F1050D
330
F1050E
100
AcDbEntity
8
Geo
100
AcDbLine
10
-48.7456575682383
20
5.70719086574728
30
0.000000000000000
11
-48.6456575682383
21
5.68073999541486
31
0.000000000000000
  0
LINE
  5
F1050F
330
F10510
100
AcDbEntity
8
Geo
100
AcDbLine
10
-48.6456575682383
20
5.68073999541486
30
0.000000000000000
11
-48.5456575682383
21
5.65503257877037
31
0.000000000000000
  0
LINE
  5
F10511
330
F10512
100
AcDbEntity
8
Geo
100
AcDbLine
10
-48.5456575682383
20
5.65503257877037
30
0.000000000000000
11
-48.4456575682383
21
5.63007397143264
31
0.000000000000000
  0
LINE
  5
F10513
330
F10514
100
AcDbEntity
8
Geo
100
AcDbLine
10
-48.4456575682383
20
5.63007397143264
30
0.000000000000000
11
-48.3456575682383
21
5.60586937302124
31
0.000000000000000
  0
LINE
  5
F10515
330
F10516
100
AcDbEntity
8
Geo
100
AcDbLine
10
-48.3456575682383
20
5.60586937302124
30
0.000000000000000
11
-48.2456575682383
21
5.58242382607332
31
0.000000000000000
  0
LINE
  5
F10517
330
F10518
100
AcDbEntity
8
Geo
100
AcDbLine
10
-48.2456575682383
20
5.58242382607332
30
0.000000000000000
11
-48.1456575682382
21
5.55974221499300
31
0.000000000000000
  0
LINE
  5
F10519
330
F1051A
100
AcDbEntity
8
Geo
100
AcDbLine
10
-48.1456575682382
20
5.55974221499300
30
0.000000000000000
11
-48.0456575682382
21
5.53782926503391
31
0.000000000000000
  0
LINE
  5
F1051B
330
F1051C
100
AcDbEntity
8
Geo
100
AcDbLine
10
-48.0456575682382
20
5.53782926503391
30
0.000000000000000
11
-47.9456575682382
21
5.51668954131468
31
0.000000000000000
  0
LINE
  5
F1051D
330
F1051E
100
AcDbEntity
8
Geo
100
AcDbLine
10
-47.9456575682382
20
5.51668954131468
30
0.000000000000000
11
-47.8456575682382
21
5.49632744786798
31
0.000000000000000
  0
LINE
  5
F1051F
330
F10520
100
AcDbEntity
8
Geo
100
AcDbLine
10
-47.8456575682382
20
5.49632744786798
30
0.000000000000000
11
-47.7456575682382
21
5.47674722672295
31
0.000000000000000
  0
LINE
  5
F10521
330
F10522
100
AcDbEntity
8
Geo
100
AcDbLine
10
-47.7456575682382
20
5.47674722672295
30
0.000000000000000
11
-47.6456575682382
21
5.45795295702151
31
0.000000000000000
  0
LINE
  5
F10523
330
F10524
100
AcDbEntity
8
Geo
100
AcDbLine
10
-47.6456575682382
20
5.45795295702151
30
0.000000000000000
11
-47.5456575682382
21
5.43994855416854
31
0.000000000000000
  0
LINE
  5
F10525
330
F10526
100
AcDbEntity
8
Geo
100
AcDbLine
10
-47.5456575682382
20
5.43994855416854
30
0.000000000000000
11
-47.4456575682382
21
5.42273776901619
31
0.000000000000000
  0
LINE
  5
F10527
330
F10528
100
AcDbEntity
8
Geo
100
AcDbLine
10
-47.4456575682382
20
5.42273776901619
30
0.000000000000000
11
-47.3456575682382
21
5.40632418708243
31
0.000000000000000
  0
LINE
  5
F10529
330
F1052A
100
AcDbEntity
8
Geo
100
AcDbLine
10
-47.3456575682382
20
5.40632418708243
30
0.000000000000000
11
-47.2456575682382
21
5.39071122780416
31
0.000000000000000
  0
LINE
  5
F1052B
330
F1052C
100
AcDbEntity
8
Geo
100
AcDbLine
10
-47.2456575682382
20
5.39071122780416
30
0.000000000000000
11
-47.1456575682382
21
5.37590214382473
31
0.000000000000000
  0
LINE
  5
F1052D
330
F1052E
100
AcDbEntity
8
Geo
100
AcDbLine
10
-47.1456575682382
20
5.37590214382473
30
0.000000000000000
11
-47.0456575682382
21
5.36190002031643
31
0.000000000000000
  0
LINE
  5
F1052F
330
F10530
100
AcDbEntity
8
Geo
100
AcDbLine
10
-47.0456575682382
20
5.36190002031643
30
0.000000000000000
11
-46.9456575682382
21
5.34870777433766
31
0.000000000000000
  0
LINE
  5
F10531
330
F10532
100
AcDbEntity
8
Geo
100
AcDbLine
10
-46.9456575682382
20
5.34870777433766
30
0.000000000000000
11
-46.8456575682382
21
5.33632815422530
31
0.000000000000000
  0
LINE
  5
F10533
330
F10534
100
AcDbEntity
8
Geo
100
AcDbLine
10
-46.8456575682382
20
5.33632815422530
30
0.000000000000000
11
-46.7456575682382
21
5.32476373902209
31
0.000000000000000
  0
LINE
  5
F10535
330
F10536
100
AcDbEntity
8
Geo
100
AcDbLine
10
-46.7456575682382
20
5.32476373902209
30
0.000000000000000
11
-46.6456575682382
21
5.31401693793938
31
0.000000000000000
  0
LINE
  5
F10537
330
F10538
100
AcDbEntity
8
Geo
100
AcDbLine
10
-46.6456575682382
20
5.31401693793938
30
0.000000000000000
11
-46.5456575682382
21
5.30408998985518
31
0.000000000000000
  0
LINE
  5
F10539
330
F1053A
100
AcDbEntity
8
Geo
100
AcDbLine
10
-46.5456575682382
20
5.30408998985518
30
0.000000000000000
11
-46.4456575682382
21
5.29498496284777
31
0.000000000000000
  0
LINE
  5
F1053B
330
F1053C
100
AcDbEntity
8
Geo
100
AcDbLine
10
-46.4456575682382
20
5.29498496284777
30
0.000000000000000
11
-46.3456575682382
21
5.28670375376485
31
0.000000000000000
  0
LINE
  5
F1053D
330
F1053E
100
AcDbEntity
8
Geo
100
AcDbLine
10
-46.3456575682382
20
5.28670375376485
30
0.000000000000000
11
-46.2456575682382
21
5.27924808782837
31
0.000000000000000
  0
LINE
  5
F1053F
330
F10540
100
AcDbEntity
8
Geo
100
AcDbLine
10
-46.2456575682382
20
5.27924808782837
30
0.000000000000000
11
-46.1456575682382
21
5.27261951827508
31
0.000000000000000
  0
LINE
  5
F10541
330
F10542
100
AcDbEntity
8
Geo
100
AcDbLine
10
-46.1456575682382
20
5.27261951827508
30
0.000000000000000
11
-46.0456575682382
21
5.26681942603301
31
0.000000000000000
  0
LINE
  5
F10543
330
F10544
100
AcDbEntity
8
Geo
100
AcDbLine
10
-46.0456575682382
20
5.26681942603301
30
0.000000000000000
11
-45.9456575682382
21
5.26184901943372
31
0.000000000000000
  0
LINE
  5
F10545
330
F10546
100
AcDbEntity
8
Geo
100
AcDbLine
10
-45.9456575682382
20
5.26184901943372
30
0.000000000000000
11
-45.8456575682382
21
5.25770933396062
31
0.000000000000000
  0
LINE
  5
F10547
330
F10548
100
AcDbEntity
8
Geo
100
AcDbLine
10
-45.8456575682382
20
5.25770933396062
30
0.000000000000000
11
-45.7456575682382
21
5.25440123203321
31
0.000000000000000
  0
LINE
  5
F10549
330
F1054A
100
AcDbEntity
8
Geo
100
AcDbLine
10
-45.7456575682382
20
5.25440123203321
30
0.000000000000000
11
-45.6456575682382
21
5.25192540282742
31
0.000000000000000
  0
LINE
  5
F1054B
330
F1054C
100
AcDbEntity
8
Geo
100
AcDbLine
10
-45.6456575682382
20
5.25192540282742
30
0.000000000000000
11
-45.5456575682382
21
5.25028236213205
31
0.000000000000000
  0
LINE
  5
F1054D
330
F1054E
100
AcDbEntity
8
Geo
100
AcDbLine
10
-45.5456575682382
20
5.25028236213205
30
0.000000000000000
11
-45.4456575682382
21
5.24947245224131
31
0.000000000000000
  0
LINE
  5
F1054F
330
F10550
100
AcDbEntity
8
Geo
100
AcDbLine
10
-23.6456575682379
20
13.2493728413035
30
0.000000000000000
11
-23.5456575682379
21
13.2490627253977
31
0.000000000000000
  0
LINE
  5
F10551
330
F10552
100
AcDbEntity
8
Geo
100
AcDbLine
10
-23.5456575682379
20
13.2490627253977
30
0.000000000000000
11
-23.4456575682379
21
13.2479193566513
31
0.000000000000000
  0
LINE
  5
F10553
330
F10554
100
AcDbEntity
8
Geo
100
AcDbLine
10
-23.4456575682379
20
13.2479193566513
30
0.000000000000000
11
-23.3456575682379
21
13.2459429732622
31
0.000000000000000
  0
LINE
  5
F10555
330
F10556
100
AcDbEntity
8
Geo
100
AcDbLine
10
-23.3456575682379
20
13.2459429732622
30
0.000000000000000
11
-23.2456575682379
21
13.2431339869697
31
0.000000000000000
  0
LINE
  5
F10557
330
F10558
100
AcDbEntity
8
Geo
100
AcDbLine
10
-23.2456575682379
20
13.2431339869697
30
0.000000000000000
11
-23.1456575682379
21
13.2394929829691
31
0.000000000000000
  0
LINE
  5
F10559
330
F1055A
100
AcDbEntity
8
Geo
100
AcDbLine
10
-23.1456575682379
20
13.2394929829691
30
0.000000000000000
11
-23.0456575682379
21
13.2350207197898
31
0.000000000000000
  0
LINE
  5
F1055B
330
F1055C
100
AcDbEntity
8
Geo
100
AcDbLine
10
-23.0456575682379
20
13.2350207197898
30
0.000000000000000
11
-22.9456575682379
21
13.2297181291370
31
0.000000000000000
  0
LINE
  5
F1055D
330
F1055E
100
AcDbEntity
8
Geo
100
AcDbLine
10
-22.9456575682379
20
13.2297181291370
30
0.000000000000000
11
-22.8456575682379
21
13.2235863156979
31
0.000000000000000
  0
LINE
  5
F1055F
330
F10560
100
AcDbEntity
8
Geo
100
AcDbLine
10
-22.8456575682379
20
13.2235863156979
30
0.000000000000000
11
-22.7456575682382
21
13.2166265569116
31
0.000000000000000
  0
LINE
  5
F10561
330
F10562
100
AcDbEntity
8
Geo
100
AcDbLine
10
-22.7456575682382
20
13.2166265569116
30
0.000000000000000
11
-22.6456575682382
21
13.1920325483421
31
0.000000000000000
  0
LINE
  5
F10563
330
F10564
100
AcDbEntity
8
Geo
100
AcDbLine
10
-22.6456575682382
20
13.1920325483421
30
0.000000000000000
11
-22.5456575682382
21
13.1537968240025
31
0.000000000000000
  0
LINE
  5
F10565
330
F10566
100
AcDbEntity
8
Geo
100
AcDbLine
10
-22.5456575682382
20
13.1537968240025
30
0.000000000000000
11
-22.4456575682382
21
13.0962982131371
31
0.000000000000000
  0
LINE
  5
F10567
330
F10568
100
AcDbEntity
8
Geo
100
AcDbLine
10
-22.4456575682382
20
13.0962982131371
30
0.000000000000000
11
-22.3456575682382
21
13.0136537139121
31
0.000000000000000
  0
LINE
  5
F10569
330
F1056A
100
AcDbEntity
8
Geo
100
AcDbLine
10
-22.3456575682382
20
13.0136537139121
30
0.000000000000000
11
-22.2456575682382
21
12.8993634586111
31
0.000000000000000
  0
LINE
  5
F1056B
330
F1056C
100
AcDbEntity
8
Geo
100
AcDbLine
10
-22.2456575682382
20
12.8993634586111
30
0.000000000000000
11
-22.1456575682382
21
12.7465158526035
31
0.000000000000000
  0
LINE
  5
F1056D
330
F1056E
100
AcDbEntity
8
Geo
100
AcDbLine
10
-22.1456575682382
20
12.7465158526035
30
0.000000000000000
11
-22.0456575682382
21
12.5480716884755
31
0.000000000000000
  0
LINE
  5
F1056F
330
F10570
100
AcDbEntity
8
Geo
100
AcDbLine
10
-22.0456575682382
20
12.5480716884755
30
0.000000000000000
11
-21.9456575682382
21
12.2972405295303
31
0.000000000000000
  0
LINE
  5
F10571
330
F10572
100
AcDbEntity
8
Geo
100
AcDbLine
10
-21.9456575682382
20
12.2972405295303
30
0.000000000000000
11
-21.8456575682382
21
11.9879591805481
31
0.000000000000000
  0
LINE
  5
F10573
330
F10574
100
AcDbEntity
8
Geo
100
AcDbLine
10
-21.8456575682382
20
11.9879591805481
30
0.000000000000000
11
-21.7456575682382
21
11.6154759505589
31
0.000000000000000
  0
LINE
  5
F10575
330
F10576
100
AcDbEntity
8
Geo
100
AcDbLine
10
-21.7456575682382
20
11.6154759505589
30
0.000000000000000
11
-21.6456575682382
21
11.1770351223574
31
0.000000000000000
  0
LINE
  5
F10577
330
F10578
100
AcDbEntity
8
Geo
100
AcDbLine
10
-21.6456575682382
20
11.1770351223574
30
0.000000000000000
11
-21.5456575682382
21
10.6726431732547
31
0.000000000000000
  0
LINE
  5
F10579
330
F1057A
100
AcDbEntity
8
Geo
100
AcDbLine
10
-21.5456575682382
20
10.6726431732547
30
0.000000000000000
11
-21.4456575682382
21
10.1058817153481
31
0.000000000000000
  0
LINE
  5
F1057B
330
F1057C
100
AcDbEntity
8
Geo
100
AcDbLine
10
-21.4456575682382
20
10.1058817153481
30
0.000000000000000
11
-21.3456575682382
21
9.48471216967415
31
0.000000000000000
  0
LINE
  5
F1057D
330
F1057E
100
AcDbEntity
8
Geo
100
AcDbLine
10
-21.3456575682382
20
9.48471216967415
30
0.000000000000000
11
-21.2456575682382
21
8.82219484113193
31
0.000000000000000
  0
LINE
  5
F1057F
330
F10580
100
AcDbEntity
8
Geo
100
AcDbLine
10
-21.2456575682382
20
8.82219484113193
30
0.000000000000000
11
-21.1456575682382
21
8.13702216532462
31
0.000000000000000
  0
LINE
  5
F10581
330
F10582
100
AcDbEntity
8
Geo
100
AcDbLine
10
-21.1456575682382
20
8.13702216532462
30
0.000000000000000
11
-21.0456575682382
21
7.45374533322455
31
0.000000000000000
  0
LINE
  5
F10583
330
F10584
100
AcDbEntity
8
Geo
100
AcDbLine
10
-21.0456575682382
20
7.45374533322455
30
0.000000000000000
11
-20.9456575682382
21
6.80255926296276
31
0.000000000000000
  0
LINE
  5
F10585
330
F10586
100
AcDbEntity
8
Geo
100
AcDbLine
10
-20.9456575682382
20
6.80255926296276
30
0.000000000000000
11
-20.8456575682382
21
6.21850802829649
31
0.000000000000000
  0
LINE
  5
F10587
330
F10588
100
AcDbEntity
8
Geo
100
AcDbLine
10
-20.8456575682382
20
6.21850802829649
30
0.000000000000000
11
-20.7456575682382
21
5.73954843515928
31
0.000000000000000
  0
LINE
  5
F10589
330
F1058A
100
AcDbEntity
8
Geo
100
AcDbLine
10
-43.0456575682382
20
13.2492003889816
30
0.000000000000000
11
-42.9456575682382
21
13.2493303241674
31
0.000000000000000
  0
LINE
  5
F1058B
330
F1058C
100
AcDbEntity
8
Geo
100
AcDbLine
10
-42.9456575682382
20
13.2493303241674
30
0.000000000000000
11
-42.8456575682382
21
13.2486269507640
31
0.000000000000000
  0
LINE
  5
F1058D
330
F1058E
100
AcDbEntity
8
Geo
100
AcDbLine
10
-42.8456575682382
20
13.2486269507640
30
0.000000000000000
11
-42.7456575682382
21
13.2470904153048
31
0.000000000000000
  0
LINE
  5
F1058F
330
F10590
100
AcDbEntity
8
Geo
100
AcDbLine
10
-42.7456575682382
20
13.2470904153048
30
0.000000000000000
11
-42.6456575682382
21
13.2447210378960
31
0.000000000000000
  0
LINE
  5
F10591
330
F10592
100
AcDbEntity
8
Geo
100
AcDbLine
10
-42.6456575682382
20
13.2447210378960
30
0.000000000000000
11
-42.5456575682382
21
13.2415193121493
31
0.000000000000000
  0
LINE
  5
F10593
330
F10594
100
AcDbEntity
8
Geo
100
AcDbLine
10
-42.5456575682382
20
13.2415193121493
30
0.000000000000000
11
-42.4456575682382
21
13.2374859050791
31
0.000000000000000
  0
LINE
  5
F10595
330
F10596
100
AcDbEntity
8
Geo
100
AcDbLine
10
-42.4456575682382
20
13.2374859050791
30
0.000000000000000
11
-42.3456575682382
21
13.2326216569642
31
0.000000000000000
  0
LINE
  5
F10597
330
F10598
100
AcDbEntity
8
Geo
100
AcDbLine
10
-42.3456575682382
20
13.2326216569642
30
0.000000000000000
11
-42.2456575682382
21
13.2269275811720
31
0.000000000000000
  0
LINE
  5
F10599
330
F1059A
100
AcDbEntity
8
Geo
100
AcDbLine
10
-42.2456575682382
20
13.2269275811720
30
0.000000000000000
11
-42.1456575682382
21
13.2204048639476
31
0.000000000000000
  0
LINE
  5
F1059B
330
F1059C
100
AcDbEntity
8
Geo
100
AcDbLine
10
-42.1456575682382
20
13.2204048639476
30
0.000000000000000
11
-42.0456575682382
21
13.2130548641668
31
0.000000000000000
  0
LINE
  5
F1059D
330
F1059E
100
AcDbEntity
8
Geo
100
AcDbLine
10
-42.0456575682382
20
13.2130548641668
30
0.000000000000000
11
-41.9456575682382
21
13.2048791130531
31
0.000000000000000
  0
LINE
  5
F1059F
330
F105A0
100
AcDbEntity
8
Geo
100
AcDbLine
10
-41.9456575682382
20
13.2048791130531
30
0.000000000000000
11
-41.8456575682382
21
13.1958793138583
31
0.000000000000000
  0
LINE
  5
F105A1
330
F105A2
100
AcDbEntity
8
Geo
100
AcDbLine
10
-41.8456575682382
20
13.1958793138583
30
0.000000000000000
11
-41.7456575682382
21
13.1860573415081
31
0.000000000000000
  0
LINE
  5
F105A3
330
F105A4
100
AcDbEntity
8
Geo
100
AcDbLine
10
-41.7456575682382
20
13.1860573415081
30
0.000000000000000
11
-41.6456575682382
21
13.1754152422111
31
0.000000000000000
  0
LINE
  5
F105A5
330
F105A6
100
AcDbEntity
8
Geo
100
AcDbLine
10
-41.6456575682382
20
13.1754152422111
30
0.000000000000000
11
-41.5456575682382
21
13.1639552330330
31
0.000000000000000
  0
LINE
  5
F105A7
330
F105A8
100
AcDbEntity
8
Geo
100
AcDbLine
10
-41.5456575682382
20
13.1639552330330
30
0.000000000000000
11
-41.4456575682382
21
13.1516797014341
31
0.000000000000000
  0
LINE
  5
F105A9
330
F105AA
100
AcDbEntity
8
Geo
100
AcDbLine
10
-41.4456575682382
20
13.1516797014341
30
0.000000000000000
11
-41.3456575682382
21
13.1385912047725
31
0.000000000000000
  0
LINE
  5
F105AB
330
F105AC
100
AcDbEntity
8
Geo
100
AcDbLine
10
-41.3456575682382
20
13.1385912047725
30
0.000000000000000
11
-41.2456575682382
21
13.1246924697710
31
0.000000000000000
  0
LINE
  5
F105AD
330
F105AE
100
AcDbEntity
8
Geo
100
AcDbLine
10
-41.2456575682382
20
13.1246924697710
30
0.000000000000000
11
-41.1456575682382
21
13.1099863919491
31
0.000000000000000
  0
LINE
  5
F105AF
330
F105B0
100
AcDbEntity
8
Geo
100
AcDbLine
10
-41.1456575682382
20
13.1099863919491
30
0.000000000000000
11
-41.0456575682381
21
13.0944760350198
31
0.000000000000000
  0
LINE
  5
F105B1
330
F105B2
100
AcDbEntity
8
Geo
100
AcDbLine
10
-41.0456575682381
20
13.0944760350198
30
0.000000000000000
11
-40.9456575682381
21
13.0781646302514
31
0.000000000000000
  0
LINE
  5
F105B3
330
F105B4
100
AcDbEntity
8
Geo
100
AcDbLine
10
-40.9456575682381
20
13.0781646302514
30
0.000000000000000
11
-40.8456575682381
21
13.0610555757942
31
0.000000000000000
  0
LINE
  5
F105B5
330
F105B6
100
AcDbEntity
8
Geo
100
AcDbLine
10
-40.8456575682381
20
13.0610555757942
30
0.000000000000000
11
-40.7456575682381
21
13.0431524359728
31
0.000000000000000
  0
LINE
  5
F105B7
330
F105B8
100
AcDbEntity
8
Geo
100
AcDbLine
10
-40.7456575682381
20
13.0431524359728
30
0.000000000000000
11
-40.6456575682381
21
13.0244589405430
31
0.000000000000000
  0
LINE
  5
F105B9
330
F105BA
100
AcDbEntity
8
Geo
100
AcDbLine
10
-40.6456575682381
20
13.0244589405430
30
0.000000000000000
11
-40.5456575682381
21
13.0049789839156
31
0.000000000000000
  0
LINE
  5
F105BB
330
F105BC
100
AcDbEntity
8
Geo
100
AcDbLine
10
-40.5456575682381
20
13.0049789839156
30
0.000000000000000
11
-40.4456575682381
21
12.9847166243443
31
0.000000000000000
  0
LINE
  5
F105BD
330
F105BE
100
AcDbEntity
8
Geo
100
AcDbLine
10
-40.4456575682381
20
12.9847166243443
30
0.000000000000000
11
-40.3456575682381
21
12.9636760830808
31
0.000000000000000
  0
LINE
  5
F105BF
330
F105C0
100
AcDbEntity
8
Geo
100
AcDbLine
10
-40.3456575682381
20
12.9636760830808
30
0.000000000000000
11
-40.2456575682381
21
12.9418617434952
31
0.000000000000000
  0
LINE
  5
F105C1
330
F105C2
100
AcDbEntity
8
Geo
100
AcDbLine
10
-40.2456575682381
20
12.9418617434952
30
0.000000000000000
11
-40.1456575682381
21
12.9192781501625
31
0.000000000000000
  0
LINE
  5
F105C3
330
F105C4
100
AcDbEntity
8
Geo
100
AcDbLine
10
-40.1456575682381
20
12.9192781501625
30
0.000000000000000
11
-40.0456575682381
21
12.8959300079163
31
0.000000000000000
  0
LINE
  5
F105C5
330
F105C6
100
AcDbEntity
8
Geo
100
AcDbLine
10
-40.0456575682381
20
12.8959300079163
30
0.000000000000000
11
-39.9456575682381
21
12.8718221808686
31
0.000000000000000
  0
LINE
  5
F105C7
330
F105C8
100
AcDbEntity
8
Geo
100
AcDbLine
10
-39.9456575682381
20
12.8718221808686
30
0.000000000000000
11
-39.8456575682381
21
12.8469596913961
31
0.000000000000000
  0
LINE
  5
F105C9
330
F105CA
100
AcDbEntity
8
Geo
100
AcDbLine
10
-39.8456575682381
20
12.8469596913961
30
0.000000000000000
11
-39.7456575682381
21
12.8213477190941
31
0.000000000000000
  0
LINE
  5
F105CB
330
F105CC
100
AcDbEntity
8
Geo
100
AcDbLine
10
-39.7456575682381
20
12.8213477190941
30
0.000000000000000
11
-39.6456575682381
21
12.7949915996977
31
0.000000000000000
  0
LINE
  5
F105CD
330
F105CE
100
AcDbEntity
8
Geo
100
AcDbLine
10
-39.6456575682381
20
12.7949915996977
30
0.000000000000000
11
-39.5456575682381
21
12.7678968239696
31
0.000000000000000
  0
LINE
  5
F105CF
330
F105D0
100
AcDbEntity
8
Geo
100
AcDbLine
10
-39.5456575682381
20
12.7678968239696
30
0.000000000000000
11
-39.4456575682381
21
12.7400690365569
31
0.000000000000000
  0
LINE
  5
F105D1
330
F105D2
100
AcDbEntity
8
Geo
100
AcDbLine
10
-39.4456575682381
20
12.7400690365569
30
0.000000000000000
11
-39.3456575682381
21
12.7115140348145
31
0.000000000000000
  0
LINE
  5
F105D3
330
F105D4
100
AcDbEntity
8
Geo
100
AcDbLine
10
-39.3456575682381
20
12.7115140348145
30
0.000000000000000
11
-39.2456575682381
21
12.6822377675980
31
0.000000000000000
  0
LINE
  5
F105D5
330
F105D6
100
AcDbEntity
8
Geo
100
AcDbLine
10
-39.2456575682381
20
12.6822377675980
30
0.000000000000000
11
-39.1456575682381
21
12.6522463340237
31
0.000000000000000
  0
LINE
  5
F105D7
330
F105D8
100
AcDbEntity
8
Geo
100
AcDbLine
10
-39.1456575682381
20
12.6522463340237
30
0.000000000000000
11
-39.0456575682381
21
12.6215459821985
31
0.000000000000000
  0
LINE
  5
F105D9
330
F105DA
100
AcDbEntity
8
Geo
100
AcDbLine
10
-39.0456575682381
20
12.6215459821985
30
0.000000000000000
11
-38.9456575682381
21
12.5901431079180
31
0.000000000000000
  0
LINE
  5
F105DB
330
F105DC
100
AcDbEntity
8
Geo
100
AcDbLine
10
-38.9456575682381
20
12.5901431079180
30
0.000000000000000
11
-38.8456575682381
21
12.5580442533342
31
0.000000000000000
  0
LINE
  5
F105DD
330
F105DE
100
AcDbEntity
8
Geo
100
AcDbLine
10
-38.8456575682381
20
12.5580442533342
30
0.000000000000000
11
-38.7456575682381
21
12.5252561055922
31
0.000000000000000
  0
LINE
  5
F105DF
330
F105E0
100
AcDbEntity
8
Geo
100
AcDbLine
10
-38.7456575682381
20
12.5252561055922
30
0.000000000000000
11
-38.6456575682381
21
12.4917854954375
31
0.000000000000000
  0
LINE
  5
F105E1
330
F105E2
100
AcDbEntity
8
Geo
100
AcDbLine
10
-38.6456575682381
20
12.4917854954375
30
0.000000000000000
11
-38.5456575682381
21
12.4576393957930
31
0.000000000000000
  0
LINE
  5
F105E3
330
F105E4
100
AcDbEntity
8
Geo
100
AcDbLine
10
-38.5456575682381
20
12.4576393957930
30
0.000000000000000
11
-38.4456575682381
21
12.4228249203059
31
0.000000000000000
  0
LINE
  5
F105E5
330
F105E6
100
AcDbEntity
8
Geo
100
AcDbLine
10
-38.4456575682381
20
12.4228249203059
30
0.000000000000000
11
-38.3456575682381
21
12.3873493218659
31
0.000000000000000
  0
LINE
  5
F105E7
330
F105E8
100
AcDbEntity
8
Geo
100
AcDbLine
10
-38.3456575682381
20
12.3873493218659
30
0.000000000000000
11
-38.2456575682381
21
12.3512199910945
31
0.000000000000000
  0
LINE
  5
F105E9
330
F105EA
100
AcDbEntity
8
Geo
100
AcDbLine
10
-38.2456575682381
20
12.3512199910945
30
0.000000000000000
11
-38.1456575682381
21
12.3144444548048
31
0.000000000000000
  0
LINE
  5
F105EB
330
F105EC
100
AcDbEntity
8
Geo
100
AcDbLine
10
-38.1456575682381
20
12.3144444548048
30
0.000000000000000
11
-38.0456575682381
21
12.2770303744340
31
0.000000000000000
  0
LINE
  5
F105ED
330
F105EE
100
AcDbEntity
8
Geo
100
AcDbLine
10
-38.0456575682381
20
12.2770303744340
30
0.000000000000000
11
-37.9456575682381
21
12.2389855444468
31
0.000000000000000
  0
LINE
  5
F105EF
330
F105F0
100
AcDbEntity
8
Geo
100
AcDbLine
10
-37.9456575682381
20
12.2389855444468
30
0.000000000000000
11
-37.8456575682381
21
12.2003178907118
31
0.000000000000000
  0
LINE
  5
F105F1
330
F105F2
100
AcDbEntity
8
Geo
100
AcDbLine
10
-37.8456575682381
20
12.2003178907118
30
0.000000000000000
11
-37.7456575682381
21
12.1610354688503
31
0.000000000000000
  0
LINE
  5
F105F3
330
F105F4
100
AcDbEntity
8
Geo
100
AcDbLine
10
-37.7456575682381
20
12.1610354688503
30
0.000000000000000
11
-37.6456575682381
21
12.1211464625583
31
0.000000000000000
  0
LINE
  5
F105F5
330
F105F6
100
AcDbEntity
8
Geo
100
AcDbLine
10
-37.6456575682381
20
12.1211464625583
30
0.000000000000000
11
-37.5456575682381
21
12.0806591819009
31
0.000000000000000
  0
LINE
  5
F105F7
330
F105F8
100
AcDbEntity
8
Geo
100
AcDbLine
10
-37.5456575682381
20
12.0806591819009
30
0.000000000000000
11
-37.4456575682381
21
12.0395820615820
31
0.000000000000000
  0
LINE
  5
F105F9
330
F105FA
100
AcDbEntity
8
Geo
100
AcDbLine
10
-37.4456575682381
20
12.0395820615820
30
0.000000000000000
11
-37.3456575682381
21
11.9979236591864
31
0.000000000000000
  0
LINE
  5
F105FB
330
F105FC
100
AcDbEntity
8
Geo
100
AcDbLine
10
-37.3456575682381
20
11.9979236591864
30
0.000000000000000
11
-37.2456575682381
21
11.9556926533972
31
0.000000000000000
  0
LINE
  5
F105FD
330
F105FE
100
AcDbEntity
8
Geo
100
AcDbLine
10
-37.2456575682381
20
11.9556926533972
30
0.000000000000000
11
-37.1456575682381
21
11.9128978421879
31
0.000000000000000
  0
LINE
  5
F105FF
330
F10600
100
AcDbEntity
8
Geo
100
AcDbLine
10
-37.1456575682381
20
11.9128978421879
30
0.000000000000000
11
-37.0456575682381
21
11.8695481409894
31
0.000000000000000
  0
LINE
  5
F10601
330
F10602
100
AcDbEntity
8
Geo
100
AcDbLine
10
-37.0456575682381
20
11.8695481409894
30
0.000000000000000
11
-36.9456575682381
21
11.8256525808326
31
0.000000000000000
  0
LINE
  5
F10603
330
F10604
100
AcDbEntity
8
Geo
100
AcDbLine
10
-36.9456575682381
20
11.8256525808326
30
0.000000000000000
11
-36.8456575682381
21
11.7812203064672
31
0.000000000000000
  0
LINE
  5
F10605
330
F10606
100
AcDbEntity
8
Geo
100
AcDbLine
10
-36.8456575682381
20
11.7812203064672
30
0.000000000000000
11
-36.7456575682381
21
11.7362605744562
31
0.000000000000000
  0
LINE
  5
F10607
330
F10608
100
AcDbEntity
8
Geo
100
AcDbLine
10
-36.7456575682381
20
11.7362605744562
30
0.000000000000000
11
-36.6456575682381
21
11.6907827512479
31
0.000000000000000
  0
LINE
  5
F10609
330
F1060A
100
AcDbEntity
8
Geo
100
AcDbLine
10
-36.6456575682381
20
11.6907827512479
30
0.000000000000000
11
-36.5456575682381
21
11.6447963112242
31
0.000000000000000
  0
LINE
  5
F1060B
330
F1060C
100
AcDbEntity
8
Geo
100
AcDbLine
10
-36.5456575682381
20
11.6447963112242
30
0.000000000000000
11
-36.4456575682381
21
11.5983108347273
31
0.000000000000000
  0
LINE
  5
F1060D
330
F1060E
100
AcDbEntity
8
Geo
100
AcDbLine
10
-36.4456575682381
20
11.5983108347273
30
0.000000000000000
11
-36.3456575682381
21
11.5513360060633
31
0.000000000000000
  0
LINE
  5
F1060F
330
F10610
100
AcDbEntity
8
Geo
100
AcDbLine
10
-36.3456575682381
20
11.5513360060633
30
0.000000000000000
11
-36.2456575682381
21
11.5038816114848
31
0.000000000000000
  0
LINE
  5
F10611
330
F10612
100
AcDbEntity
8
Geo
100
AcDbLine
10
-36.2456575682381
20
11.5038816114848
30
0.000000000000000
11
-36.1456575682381
21
11.4559575371524
31
0.000000000000000
  0
LINE
  5
F10613
330
F10614
100
AcDbEntity
8
Geo
100
AcDbLine
10
-36.1456575682381
20
11.4559575371524
30
0.000000000000000
11
-36.0456575682381
21
11.4075737670751
31
0.000000000000000
  0
LINE
  5
F10615
330
F10616
100
AcDbEntity
8
Geo
100
AcDbLine
10
-36.0456575682381
20
11.4075737670751
30
0.000000000000000
11
-35.9456575682381
21
11.3587403810298
31
0.000000000000000
  0
LINE
  5
F10617
330
F10618
100
AcDbEntity
8
Geo
100
AcDbLine
10
-35.9456575682381
20
11.3587403810298
30
0.000000000000000
11
-35.8456575682381
21
11.3094675524620
31
0.000000000000000
  0
LINE
  5
F10619
330
F1061A
100
AcDbEntity
8
Geo
100
AcDbLine
10
-35.8456575682381
20
11.3094675524620
30
0.000000000000000
11
-35.7456575682381
21
11.2597655463662
31
0.000000000000000
  0
LINE
  5
F1061B
330
F1061C
100
AcDbEntity
8
Geo
100
AcDbLine
10
-35.7456575682381
20
11.2597655463662
30
0.000000000000000
11
-35.6456575682381
21
11.2096447171471
31
0.000000000000000
  0
LINE
  5
F1061D
330
F1061E
100
AcDbEntity
8
Geo
100
AcDbLine
10
-35.6456575682381
20
11.2096447171471
30
0.000000000000000
11
-35.5456575682381
21
11.1591155064630
31
0.000000000000000
  0
LINE
  5
F1061F
330
F10620
100
AcDbEntity
8
Geo
100
AcDbLine
10
-35.5456575682381
20
11.1591155064630
30
0.000000000000000
11
-35.4456575682381
21
11.1081884410499
31
0.000000000000000
  0
LINE
  5
F10621
330
F10622
100
AcDbEntity
8
Geo
100
AcDbLine
10
-35.4456575682381
20
11.1081884410499
30
0.000000000000000
11
-35.3456575682381
21
11.0568741305289
31
0.000000000000000
  0
LINE
  5
F10623
330
F10624
100
AcDbEntity
8
Geo
100
AcDbLine
10
-35.3456575682381
20
11.0568741305289
30
0.000000000000000
11
-35.2456575682381
21
11.0051832651959
31
0.000000000000000
  0
LINE
  5
F10625
330
F10626
100
AcDbEntity
8
Geo
100
AcDbLine
10
-35.2456575682381
20
11.0051832651959
30
0.000000000000000
11
-35.1456575682381
21
10.9531266137941
31
0.000000000000000
  0
LINE
  5
F10627
330
F10628
100
AcDbEntity
8
Geo
100
AcDbLine
10
-35.1456575682381
20
10.9531266137941
30
0.000000000000000
11
-35.0456575682381
21
10.9007150212710
31
0.000000000000000
  0
LINE
  5
F10629
330
F1062A
100
AcDbEntity
8
Geo
100
AcDbLine
10
-35.0456575682381
20
10.9007150212710
30
0.000000000000000
11
-34.9456575682381
21
10.8479594065187
31
0.000000000000000
  0
LINE
  5
F1062B
330
F1062C
100
AcDbEntity
8
Geo
100
AcDbLine
10
-34.9456575682381
20
10.8479594065187
30
0.000000000000000
11
-34.8456575682381
21
10.7948707600996
31
0.000000000000000
  0
LINE
  5
F1062D
330
F1062E
100
AcDbEntity
8
Geo
100
AcDbLine
10
-34.8456575682381
20
10.7948707600996
30
0.000000000000000
11
-34.7456575682381
21
10.7414601419562
31
0.000000000000000
  0
LINE
  5
F1062F
330
F10630
100
AcDbEntity
8
Geo
100
AcDbLine
10
-34.7456575682381
20
10.7414601419562
30
0.000000000000000
11
-34.6456575682381
21
10.6877386791075
31
0.000000000000000
  0
LINE
  5
F10631
330
F10632
100
AcDbEntity
8
Geo
100
AcDbLine
10
-34.6456575682381
20
10.6877386791075
30
0.000000000000000
11
-34.5456575682381
21
10.6337175633307
31
0.000000000000000
  0
LINE
  5
F10633
330
F10634
100
AcDbEntity
8
Geo
100
AcDbLine
10
-34.5456575682381
20
10.6337175633307
30
0.000000000000000
11
-34.4456575682381
21
10.5794080488295
31
0.000000000000000
  0
LINE
  5
F10635
330
F10636
100
AcDbEntity
8
Geo
100
AcDbLine
10
-34.4456575682381
20
10.5794080488295
30
0.000000000000000
11
-34.3456575682381
21
10.5248214498896
31
0.000000000000000
  0
LINE
  5
F10637
330
F10638
100
AcDbEntity
8
Geo
100
AcDbLine
10
-34.3456575682381
20
10.5248214498896
30
0.000000000000000
11
-34.2456575682381
21
10.4699691385217
31
0.000000000000000
  0
LINE
  5
F10639
330
F1063A
100
AcDbEntity
8
Geo
100
AcDbLine
10
-34.2456575682381
20
10.4699691385217
30
0.000000000000000
11
-34.1456575682381
21
10.4148625420923
31
0.000000000000000
  0
LINE
  5
F1063B
330
F1063C
100
AcDbEntity
8
Geo
100
AcDbLine
10
-34.1456575682381
20
10.4148625420923
30
0.000000000000000
11
-34.0456575682380
21
10.3595131409430
31
0.000000000000000
  0
LINE
  5
F1063D
330
F1063E
100
AcDbEntity
8
Geo
100
AcDbLine
10
-34.0456575682380
20
10.3595131409430
30
0.000000000000000
11
-33.9456575682380
21
10.3039324659988
31
0.000000000000000
  0
LINE
  5
F1063F
330
F10640
100
AcDbEntity
8
Geo
100
AcDbLine
10
-33.9456575682380
20
10.3039324659988
30
0.000000000000000
11
-33.8456575682380
21
10.2481320963660
31
0.000000000000000
  0
LINE
  5
F10641
330
F10642
100
AcDbEntity
8
Geo
100
AcDbLine
10
-33.8456575682380
20
10.2481320963660
30
0.000000000000000
11
-33.7456575682380
21
10.1921236569198
31
0.000000000000000
  0
LINE
  5
F10643
330
F10644
100
AcDbEntity
8
Geo
100
AcDbLine
10
-33.7456575682380
20
10.1921236569198
30
0.000000000000000
11
-33.6456575682380
21
10.1359188158825
31
0.000000000000000
  0
LINE
  5
F10645
330
F10646
100
AcDbEntity
8
Geo
100
AcDbLine
10
-33.6456575682380
20
10.1359188158825
30
0.000000000000000
11
-33.5456575682380
21
10.0795292823927
31
0.000000000000000
  0
LINE
  5
F10647
330
F10648
100
AcDbEntity
8
Geo
100
AcDbLine
10
-33.5456575682380
20
10.0795292823927
30
0.000000000000000
11
-33.4456575682380
21
10.0229668040659
31
0.000000000000000
  0
LINE
  5
F10649
330
F1064A
100
AcDbEntity
8
Geo
100
AcDbLine
10
-33.4456575682380
20
10.0229668040659
30
0.000000000000000
11
-33.3456575682380
21
9.96624316454712
31
0.000000000000000
  0
LINE
  5
F1064B
330
F1064C
100
AcDbEntity
8
Geo
100
AcDbLine
10
-33.3456575682380
20
9.96624316454712
30
0.000000000000000
11
-33.2456575682380
21
9.90937018105619
31
0.000000000000000
  0
LINE
  5
F1064D
330
F1064E
100
AcDbEntity
8
Geo
100
AcDbLine
10
-33.2456575682380
20
9.90937018105619
30
0.000000000000000
11
-33.1456575682380
21
9.85235970192560
31
0.000000000000000
  0
LINE
  5
F1064F
330
F10650
100
AcDbEntity
8
Geo
100
AcDbLine
10
-33.1456575682380
20
9.85235970192560
30
0.000000000000000
11
-33.0456575682380
21
9.79522360413230
31
0.000000000000000
  0
LINE
  5
F10651
330
F10652
100
AcDbEntity
8
Geo
100
AcDbLine
10
-33.0456575682380
20
9.79522360413230
30
0.000000000000000
11
-32.9456575682380
21
9.73797379082336
31
0.000000000000000
  0
LINE
  5
F10653
330
F10654
100
AcDbEntity
8
Geo
100
AcDbLine
10
-32.9456575682380
20
9.73797379082336
30
0.000000000000000
11
-32.8456575682380
21
9.68062218883613
31
0.000000000000000
  0
LINE
  5
F10655
330
F10656
100
AcDbEntity
8
Geo
100
AcDbLine
10
-32.8456575682380
20
9.68062218883613
30
0.000000000000000
11
-32.7456575682380
21
9.62318074621360
31
0.000000000000000
  0
LINE
  5
F10657
330
F10658
100
AcDbEntity
8
Geo
100
AcDbLine
10
-32.7456575682380
20
9.62318074621360
30
0.000000000000000
11
-32.6456575682380
21
9.56566142971524
31
0.000000000000000
  0
LINE
  5
F10659
330
F1065A
100
AcDbEntity
8
Geo
100
AcDbLine
10
-32.6456575682380
20
9.56566142971524
30
0.000000000000000
11
-32.5456575682380
21
9.50807622232392
31
0.000000000000000
  0
LINE
  5
F1065B
330
F1065C
100
AcDbEntity
8
Geo
100
AcDbLine
10
-32.5456575682380
20
9.50807622232392
30
0.000000000000000
11
-32.4456575682380
21
9.45043712074959
31
0.000000000000000
  0
LINE
  5
F1065D
330
F1065E
100
AcDbEntity
8
Geo
100
AcDbLine
10
-32.4456575682380
20
9.45043712074959
30
0.000000000000000
11
-32.3456575682380
21
9.39275613292992
31
0.000000000000000
  0
LINE
  5
F1065F
330
F10660
100
AcDbEntity
8
Geo
100
AcDbLine
10
-32.3456575682380
20
9.39275613292992
30
0.000000000000000
11
-32.2456575682380
21
9.33504527552876
31
0.000000000000000
  0
LINE
  5
F10661
330
F10662
100
AcDbEntity
8
Geo
100
AcDbLine
10
-32.2456575682380
20
9.33504527552876
30
0.000000000000000
11
-32.1456575682380
21
9.27731657143267
31
0.000000000000000
  0
LINE
  5
F10663
330
F10664
100
AcDbEntity
8
Geo
100
AcDbLine
10
-32.1456575682380
20
9.27731657143267
30
0.000000000000000
11
-32.0456575682380
21
9.21958204724620
31
0.000000000000000
  0
LINE
  5
F10665
330
F10666
100
AcDbEntity
8
Geo
100
AcDbLine
10
-32.0456575682380
20
9.21958204724620
30
0.000000000000000
11
-31.9456575682380
21
9.16185373078640
31
0.000000000000000
  0
LINE
  5
F10667
330
F10668
100
AcDbEntity
8
Geo
100
AcDbLine
10
-31.9456575682380
20
9.16185373078640
30
0.000000000000000
11
-31.8456575682380
21
9.10414364857708
31
0.000000000000000
  0
LINE
  5
F10669
330
F1066A
100
AcDbEntity
8
Geo
100
AcDbLine
10
-31.8456575682380
20
9.10414364857708
30
0.000000000000000
11
-31.7456575682380
21
9.04646382334331
31
0.000000000000000
  0
LINE
  5
F1066B
330
F1066C
100
AcDbEntity
8
Geo
100
AcDbLine
10
-31.7456575682380
20
9.04646382334331
30
0.000000000000000
11
-31.6456575682380
21
8.98882627150670
31
0.000000000000000
  0
LINE
  5
F1066D
330
F1066E
100
AcDbEntity
8
Geo
100
AcDbLine
10
-31.6456575682380
20
8.98882627150670
30
0.000000000000000
11
-31.5456575682380
21
8.93124300068210
31
0.000000000000000
  0
LINE
  5
F1066F
330
F10670
100
AcDbEntity
8
Geo
100
AcDbLine
10
-31.5456575682380
20
8.93124300068210
30
0.000000000000000
11
-31.4456575682380
21
8.87372600717600
31
0.000000000000000
  0
LINE
  5
F10671
330
F10672
100
AcDbEntity
8
Geo
100
AcDbLine
10
-31.4456575682380
20
8.87372600717600
30
0.000000000000000
11
-31.3456575682380
21
8.81628727348733
31
0.000000000000000
  0
LINE
  5
F10673
330
F10674
100
AcDbEntity
8
Geo
100
AcDbLine
10
-31.3456575682380
20
8.81628727348733
30
0.000000000000000
11
-31.2456575682380
21
8.75893876581120
31
0.000000000000000
  0
LINE
  5
F10675
330
F10676
100
AcDbEntity
8
Geo
100
AcDbLine
10
-31.2456575682380
20
8.75893876581120
30
0.000000000000000
11
-31.1456575682380
21
8.70169243154597
31
0.000000000000000
  0
LINE
  5
F10677
330
F10678
100
AcDbEntity
8
Geo
100
AcDbLine
10
-31.1456575682380
20
8.70169243154597
30
0.000000000000000
11
-31.0456575682380
21
8.64456019680420
31
0.000000000000000
  0
LINE
  5
F10679
330
F1067A
100
AcDbEntity
8
Geo
100
AcDbLine
10
-31.0456575682380
20
8.64456019680420
30
0.000000000000000
11
-30.9456575682380
21
8.58755396392817
31
0.000000000000000
  0
LINE
  5
F1067B
330
F1067C
100
AcDbEntity
8
Geo
100
AcDbLine
10
-30.9456575682380
20
8.58755396392817
30
0.000000000000000
11
-30.8456575682380
21
8.53068560901021
31
0.000000000000000
  0
LINE
  5
F1067D
330
F1067E
100
AcDbEntity
8
Geo
100
AcDbLine
10
-30.8456575682380
20
8.53068560901021
30
0.000000000000000
11
-30.7456575682380
21
8.47396697941857
31
0.000000000000000
  0
LINE
  5
F1067F
330
F10680
100
AcDbEntity
8
Geo
100
AcDbLine
10
-30.7456575682380
20
8.47396697941857
30
0.000000000000000
11
-30.6456575682380
21
8.41740989132928
31
0.000000000000000
  0
LINE
  5
F10681
330
F10682
100
AcDbEntity
8
Geo
100
AcDbLine
10
-30.6456575682380
20
8.41740989132928
30
0.000000000000000
11
-30.5456575682380
21
8.36102612726446
31
0.000000000000000
  0
LINE
  5
F10683
330
F10684
100
AcDbEntity
8
Geo
100
AcDbLine
10
-30.5456575682380
20
8.36102612726446
30
0.000000000000000
11
-30.4456575682380
21
8.30482743363769
31
0.000000000000000
  0
LINE
  5
F10685
330
F10686
100
AcDbEntity
8
Geo
100
AcDbLine
10
-30.4456575682380
20
8.30482743363769
30
0.000000000000000
11
-30.3456575682380
21
8.24882551830688
31
0.000000000000000
  0
LINE
  5
F10687
330
F10688
100
AcDbEntity
8
Geo
100
AcDbLine
10
-30.3456575682380
20
8.24882551830688
30
0.000000000000000
11
-30.2456575682380
21
8.19303204813517
31
0.000000000000000
  0
LINE
  5
F10689
330
F1068A
100
AcDbEntity
8
Geo
100
AcDbLine
10
-30.2456575682380
20
8.19303204813517
30
0.000000000000000
11
-30.1456575682380
21
8.13745864656038
31
0.000000000000000
  0
LINE
  5
F1068B
330
F1068C
100
AcDbEntity
8
Geo
100
AcDbLine
10
-30.1456575682380
20
8.13745864656038
30
0.000000000000000
11
-30.0456575682380
21
8.08211689117351
31
0.000000000000000
  0
LINE
  5
F1068D
330
F1068E
100
AcDbEntity
8
Geo
100
AcDbLine
10
-30.0456575682380
20
8.08211689117351
30
0.000000000000000
11
-29.9456575682380
21
8.02701831130677
31
0.000000000000000
  0
LINE
  5
F1068F
330
F10690
100
AcDbEntity
8
Geo
100
AcDbLine
10
-29.9456575682380
20
8.02701831130677
30
0.000000000000000
11
-29.8456575682380
21
7.97217438563166
31
0.000000000000000
  0
LINE
  5
F10691
330
F10692
100
AcDbEntity
8
Geo
100
AcDbLine
10
-29.8456575682380
20
7.97217438563166
30
0.000000000000000
11
-29.7456575682380
21
7.91759653976769
31
0.000000000000000
  0
LINE
  5
F10693
330
F10694
100
AcDbEntity
8
Geo
100
AcDbLine
10
-29.7456575682380
20
7.91759653976769
30
0.000000000000000
11
-29.6456575682380
21
7.86329614390200
31
0.000000000000000
  0
LINE
  5
F10695
330
F10696
100
AcDbEntity
8
Geo
100
AcDbLine
10
-29.6456575682380
20
7.86329614390200
30
0.000000000000000
11
-29.5456575682380
21
7.80928451042067
31
0.000000000000000
  0
LINE
  5
F10697
330
F10698
100
AcDbEntity
8
Geo
100
AcDbLine
10
-29.5456575682380
20
7.80928451042067
30
0.000000000000000
11
-29.4456575682380
21
7.75557289155198
31
0.000000000000000
  0
LINE
  5
F10699
330
F1069A
100
AcDbEntity
8
Geo
100
AcDbLine
10
-29.4456575682380
20
7.75557289155198
30
0.000000000000000
11
-29.3456575682380
21
7.70217247702228
31
0.000000000000000
  0
LINE
  5
F1069B
330
F1069C
100
AcDbEntity
8
Geo
100
AcDbLine
10
-29.3456575682380
20
7.70217247702228
30
0.000000000000000
11
-29.2456575682380
21
7.64909439172477
31
0.000000000000000
  0
LINE
  5
F1069D
330
F1069E
100
AcDbEntity
8
Geo
100
AcDbLine
10
-29.2456575682380
20
7.64909439172477
30
0.000000000000000
11
-29.1456575682380
21
7.59634969340191
31
0.000000000000000
  0
LINE
  5
F1069F
330
F106A0
100
AcDbEntity
8
Geo
100
AcDbLine
10
-29.1456575682380
20
7.59634969340191
30
0.000000000000000
11
-29.0456575682380
21
7.54394937034176
31
0.000000000000000
  0
LINE
  5
F106A1
330
F106A2
100
AcDbEntity
8
Geo
100
AcDbLine
10
-29.0456575682380
20
7.54394937034176
30
0.000000000000000
11
-28.9456575682380
21
7.49190433908875
31
0.000000000000000
  0
LINE
  5
F106A3
330
F106A4
100
AcDbEntity
8
Geo
100
AcDbLine
10
-28.9456575682380
20
7.49190433908875
30
0.000000000000000
11
-28.8456575682380
21
7.44022544216949
31
0.000000000000000
  0
LINE
  5
F106A5
330
F106A6
100
AcDbEntity
8
Geo
100
AcDbLine
10
-28.8456575682380
20
7.44022544216949
30
0.000000000000000
11
-28.7456575682380
21
7.38892344583393
31
0.000000000000000
  0
LINE
  5
F106A7
330
F106A8
100
AcDbEntity
8
Geo
100
AcDbLine
10
-28.7456575682380
20
7.38892344583393
30
0.000000000000000
11
-28.6456575682380
21
7.33800903781241
31
0.000000000000000
  0
LINE
  5
F106A9
330
F106AA
100
AcDbEntity
8
Geo
100
AcDbLine
10
-28.6456575682380
20
7.33800903781241
30
0.000000000000000
11
-28.5456575682380
21
7.28749282508911
31
0.000000000000000
  0
LINE
  5
F106AB
330
F106AC
100
AcDbEntity
8
Geo
100
AcDbLine
10
-28.5456575682380
20
7.28749282508911
30
0.000000000000000
11
-28.4456575682380
21
7.23738533169233
31
0.000000000000000
  0
LINE
  5
F106AD
330
F106AE
100
AcDbEntity
8
Geo
100
AcDbLine
10
-28.4456575682380
20
7.23738533169233
30
0.000000000000000
11
-28.3456575682380
21
7.18769699650194
31
0.000000000000000
  0
LINE
  5
F106AF
330
F106B0
100
AcDbEntity
8
Geo
100
AcDbLine
10
-28.3456575682380
20
7.18769699650194
30
0.000000000000000
11
-28.2456575682380
21
7.13843817107472
31
0.000000000000000
  0
LINE
  5
F106B1
330
F106B2
100
AcDbEntity
8
Geo
100
AcDbLine
10
-28.2456575682380
20
7.13843817107472
30
0.000000000000000
11
-28.1456575682380
21
7.08961911748782
31
0.000000000000000
  0
LINE
  5
F106B3
330
F106B4
100
AcDbEntity
8
Geo
100
AcDbLine
10
-28.1456575682380
20
7.08961911748782
30
0.000000000000000
11
-28.0456575682380
21
7.04125000620082
31
0.000000000000000
  0
LINE
  5
F106B5
330
F106B6
100
AcDbEntity
8
Geo
100
AcDbLine
10
-28.0456575682380
20
7.04125000620082
30
0.000000000000000
11
-27.9456575682380
21
6.99334091393696
31
0.000000000000000
  0
LINE
  5
F106B7
330
F106B8
100
AcDbEntity
8
Geo
100
AcDbLine
10
-27.9456575682380
20
6.99334091393696
30
0.000000000000000
11
-27.8456575682380
21
6.94590182158386
31
0.000000000000000
  0
LINE
  5
F106B9
330
F106BA
100
AcDbEntity
8
Geo
100
AcDbLine
10
-27.8456575682380
20
6.94590182158386
30
0.000000000000000
11
-27.7456575682380
21
6.89894261211416
31
0.000000000000000
  0
LINE
  5
F106BB
330
F106BC
100
AcDbEntity
8
Geo
100
AcDbLine
10
-27.7456575682380
20
6.89894261211416
30
0.000000000000000
11
-27.6456575682380
21
6.85247306852667
31
0.000000000000000
  0
LINE
  5
F106BD
330
F106BE
100
AcDbEntity
8
Geo
100
AcDbLine
10
-27.6456575682380
20
6.85247306852667
30
0.000000000000000
11
-27.5456575682380
21
6.80650287180822
31
0.000000000000000
  0
LINE
  5
F106BF
330
F106C0
100
AcDbEntity
8
Geo
100
AcDbLine
10
-27.5456575682380
20
6.80650287180822
30
0.000000000000000
11
-27.4456575682380
21
6.76104159891686
31
0.000000000000000
  0
LINE
  5
F106C1
330
F106C2
100
AcDbEntity
8
Geo
100
AcDbLine
10
-27.4456575682380
20
6.76104159891686
30
0.000000000000000
11
-27.3456575682380
21
6.71609872078668
31
0.000000000000000
  0
LINE
  5
F106C3
330
F106C4
100
AcDbEntity
8
Geo
100
AcDbLine
10
-27.3456575682380
20
6.71609872078668
30
0.000000000000000
11
-27.2456575682380
21
6.67168360035475
31
0.000000000000000
  0
LINE
  5
F106C5
330
F106C6
100
AcDbEntity
8
Geo
100
AcDbLine
10
-27.2456575682380
20
6.67168360035475
30
0.000000000000000
11
-27.1456575682380
21
6.62780549061050
31
0.000000000000000
  0
LINE
  5
F106C7
330
F106C8
100
AcDbEntity
8
Geo
100
AcDbLine
10
-27.1456575682380
20
6.62780549061050
30
0.000000000000000
11
-27.0456575682379
21
6.58447353266809
31
0.000000000000000
  0
LINE
  5
F106C9
330
F106CA
100
AcDbEntity
8
Geo
100
AcDbLine
10
-27.0456575682379
20
6.58447353266809
30
0.000000000000000
11
-26.9456575682379
21
6.54169675386205
31
0.000000000000000
  0
LINE
  5
F106CB
330
F106CC
100
AcDbEntity
8
Geo
100
AcDbLine
10
-26.9456575682379
20
6.54169675386205
30
0.000000000000000
11
-26.8456575682379
21
6.49948406586657
31
0.000000000000000
  0
LINE
  5
F106CD
330
F106CE
100
AcDbEntity
8
Geo
100
AcDbLine
10
-26.8456575682379
20
6.49948406586657
30
0.000000000000000
11
-26.7456575682379
21
6.45784426283897
31
0.000000000000000
  0
LINE
  5
F106CF
330
F106D0
100
AcDbEntity
8
Geo
100
AcDbLine
10
-26.7456575682379
20
6.45784426283897
30
0.000000000000000
11
-26.6456575682379
21
6.41678601958760
31
0.000000000000000
  0
LINE
  5
F106D1
330
F106D2
100
AcDbEntity
8
Geo
100
AcDbLine
10
-26.6456575682379
20
6.41678601958760
30
0.000000000000000
11
-26.5456575682379
21
6.37631788976466
31
0.000000000000000
  0
LINE
  5
F106D3
330
F106D4
100
AcDbEntity
8
Geo
100
AcDbLine
10
-26.5456575682379
20
6.37631788976466
30
0.000000000000000
11
-26.4456575682379
21
6.33644830408413
31
0.000000000000000
  0
LINE
  5
F106D5
330
F106D6
100
AcDbEntity
8
Geo
100
AcDbLine
10
-26.4456575682379
20
6.33644830408413
30
0.000000000000000
11
-26.3456575682379
21
6.29718556856552
31
0.000000000000000
  0
LINE
  5
F106D7
330
F106D8
100
AcDbEntity
8
Geo
100
AcDbLine
10
-26.3456575682379
20
6.29718556856552
30
0.000000000000000
11
-26.2456575682379
21
6.25853786280336
31
0.000000000000000
  0
LINE
  5
F106D9
330
F106DA
100
AcDbEntity
8
Geo
100
AcDbLine
10
-26.2456575682379
20
6.25853786280336
30
0.000000000000000
11
-26.1456575682379
21
6.22051323826326
31
0.000000000000000
  0
LINE
  5
F106DB
330
F106DC
100
AcDbEntity
8
Geo
100
AcDbLine
10
-26.1456575682379
20
6.22051323826326
30
0.000000000000000
11
-26.0456575682379
21
6.18311961660444
31
0.000000000000000
  0
LINE
  5
F106DD
330
F106DE
100
AcDbEntity
8
Geo
100
AcDbLine
10
-26.0456575682379
20
6.18311961660444
30
0.000000000000000
11
-25.9456575682379
21
6.14636478802952
31
0.000000000000000
  0
LINE
  5
F106DF
330
F106E0
100
AcDbEntity
8
Geo
100
AcDbLine
10
-25.9456575682379
20
6.14636478802952
30
0.000000000000000
11
-25.8456575682379
21
6.11025640966152
31
0.000000000000000
  0
LINE
  5
F106E1
330
F106E2
100
AcDbEntity
8
Geo
100
AcDbLine
10
-25.8456575682379
20
6.11025640966152
30
0.000000000000000
11
-25.7456575682379
21
6.07480200394864
31
0.000000000000000
  0
LINE
  5
F106E3
330
F106E4
100
AcDbEntity
8
Geo
100
AcDbLine
10
-25.7456575682379
20
6.07480200394864
30
0.000000000000000
11
-25.6456575682379
21
6.04000895709720
31
0.000000000000000
  0
LINE
  5
F106E5
330
F106E6
100
AcDbEntity
8
Geo
100
AcDbLine
10
-25.6456575682379
20
6.04000895709720
30
0.000000000000000
11
-25.5456575682379
21
6.00588451753276
31
0.000000000000000
  0
LINE
  5
F106E7
330
F106E8
100
AcDbEntity
8
Geo
100
AcDbLine
10
-25.5456575682379
20
6.00588451753276
30
0.000000000000000
11
-25.4456575682379
21
5.97243579439016
31
0.000000000000000
  0
LINE
  5
F106E9
330
F106EA
100
AcDbEntity
8
Geo
100
AcDbLine
10
-25.4456575682379
20
5.97243579439016
30
0.000000000000000
11
-25.3456575682379
21
5.93966975603240
31
0.000000000000000
  0
LINE
  5
F106EB
330
F106EC
100
AcDbEntity
8
Geo
100
AcDbLine
10
-25.3456575682379
20
5.93966975603240
30
0.000000000000000
11
-25.2456575682379
21
5.90759322859895
31
0.000000000000000
  0
LINE
  5
F106ED
330
F106EE
100
AcDbEntity
8
Geo
100
AcDbLine
10
-25.2456575682379
20
5.90759322859895
30
0.000000000000000
11
-25.1456575682379
21
5.87621289458369
31
0.000000000000000
  0
LINE
  5
F106EF
330
F106F0
100
AcDbEntity
8
Geo
100
AcDbLine
10
-25.1456575682379
20
5.87621289458369
30
0.000000000000000
11
-25.0456575682379
21
5.84553529144270
31
0.000000000000000
  0
LINE
  5
F106F1
330
F106F2
100
AcDbEntity
8
Geo
100
AcDbLine
10
-25.0456575682379
20
5.84553529144270
30
0.000000000000000
11
-24.9456575682379
21
5.81556681023234
31
0.000000000000000
  0
LINE
  5
F106F3
330
F106F4
100
AcDbEntity
8
Geo
100
AcDbLine
10
-24.9456575682379
20
5.81556681023234
30
0.000000000000000
11
-24.8456575682379
21
5.78631369427781
31
0.000000000000000
  0
LINE
  5
F106F5
330
F106F6
100
AcDbEntity
8
Geo
100
AcDbLine
10
-24.8456575682379
20
5.78631369427781
30
0.000000000000000
11
-24.7456575682379
21
5.75778203787247
31
0.000000000000000
  0
LINE
  5
F106F7
330
F106F8
100
AcDbEntity
8
Geo
100
AcDbLine
10
-24.7456575682379
20
5.75778203787247
30
0.000000000000000
11
-24.6456575682379
21
5.72997778500820
31
0.000000000000000
  0
LINE
  5
F106F9
330
F106FA
100
AcDbEntity
8
Geo
100
AcDbLine
10
-24.6456575682379
20
5.72997778500820
30
0.000000000000000
11
-24.5456575682379
21
5.70290672813711
31
0.000000000000000
  0
LINE
  5
F106FB
330
F106FC
100
AcDbEntity
8
Geo
100
AcDbLine
10
-24.5456575682379
20
5.70290672813711
30
0.000000000000000
11
-24.4456575682379
21
5.67657450696481
31
0.000000000000000
  0
LINE
  5
F106FD
330
F106FE
100
AcDbEntity
8
Geo
100
AcDbLine
10
-24.4456575682379
20
5.67657450696481
30
0.000000000000000
11
-24.3456575682379
21
5.65098660727547
31
0.000000000000000
  0
LINE
  5
F106FF
330
F10700
100
AcDbEntity
8
Geo
100
AcDbLine
10
-24.3456575682379
20
5.65098660727547
30
0.000000000000000
11
-24.2456575682379
21
5.62614835978898
31
0.000000000000000
  0
LINE
  5
F10701
330
F10702
100
AcDbEntity
8
Geo
100
AcDbLine
10
-24.2456575682379
20
5.62614835978898
30
0.000000000000000
11
-24.1456575682379
21
5.60206493905039
31
0.000000000000000
  0
LINE
  5
F10703
330
F10704
100
AcDbEntity
8
Geo
100
AcDbLine
10
-24.1456575682379
20
5.60206493905039
30
0.000000000000000
11
-24.0456575682379
21
5.57874136235192
31
0.000000000000000
  0
LINE
  5
F10705
330
F10706
100
AcDbEntity
8
Geo
100
AcDbLine
10
-24.0456575682379
20
5.57874136235192
30
0.000000000000000
11
-23.9456575682379
21
5.55618248868769
31
0.000000000000000
  0
LINE
  5
F10707
330
F10708
100
AcDbEntity
8
Geo
100
AcDbLine
10
-23.9456575682379
20
5.55618248868769
30
0.000000000000000
11
-23.8456575682379
21
5.53439301774144
31
0.000000000000000
  0
LINE
  5
F10709
330
F1070A
100
AcDbEntity
8
Geo
100
AcDbLine
10
-23.8456575682379
20
5.53439301774144
30
0.000000000000000
11
-23.7456575682379
21
5.51337748890749
31
0.000000000000000
  0
LINE
  5
F1070B
330
F1070C
100
AcDbEntity
8
Geo
100
AcDbLine
10
-23.7456575682379
20
5.51337748890749
30
0.000000000000000
11
-23.6456575682379
21
5.49314028034500
31
0.000000000000000
  0
LINE
  5
F1070D
330
F1070E
100
AcDbEntity
8
Geo
100
AcDbLine
10
-23.6456575682379
20
5.49314028034500
30
0.000000000000000
11
-23.5456575682379
21
5.47368560806589
31
0.000000000000000
  0
LINE
  5
F1070F
330
F10710
100
AcDbEntity
8
Geo
100
AcDbLine
10
-23.5456575682379
20
5.47368560806589
30
0.000000000000000
11
-23.4456575682379
21
5.45501752505651
31
0.000000000000000
  0
LINE
  5
F10711
330
F10712
100
AcDbEntity
8
Geo
100
AcDbLine
10
-23.4456575682379
20
5.45501752505651
30
0.000000000000000
11
-23.3456575682379
21
5.43713992043332
31
0.000000000000000
  0
LINE
  5
F10713
330
F10714
100
AcDbEntity
8
Geo
100
AcDbLine
10
-23.3456575682379
20
5.43713992043332
30
0.000000000000000
11
-23.2456575682379
21
5.42005651863261
31
0.000000000000000
  0
LINE
  5
F10715
330
F10716
100
AcDbEntity
8
Geo
100
AcDbLine
10
-23.2456575682379
20
5.42005651863261
30
0.000000000000000
11
-23.1456575682379
21
5.40377087863464
31
0.000000000000000
  0
LINE
  5
F10717
330
F10718
100
AcDbEntity
8
Geo
100
AcDbLine
10
-23.1456575682379
20
5.40377087863464
30
0.000000000000000
11
-23.0456575682379
21
5.38828639322216
31
0.000000000000000
  0
LINE
  5
F10719
330
F1071A
100
AcDbEntity
8
Geo
100
AcDbLine
10
-23.0456575682379
20
5.38828639322216
30
0.000000000000000
11
-22.9456575682379
21
5.37360628827364
31
0.000000000000000
  0
LINE
  5
F1071B
330
F1071C
100
AcDbEntity
8
Geo
100
AcDbLine
10
-22.9456575682379
20
5.37360628827364
30
0.000000000000000
11
-22.8456575682379
21
5.35973362209117
31
0.000000000000000
  0
LINE
  5
F1071D
330
F1071E
100
AcDbEntity
8
Geo
100
AcDbLine
10
-22.8456575682379
20
5.35973362209117
30
0.000000000000000
11
-22.7456575682382
21
5.34667128476342
31
0.000000000000000
  0
LINE
  5
F1071F
330
F10720
100
AcDbEntity
8
Geo
100
AcDbLine
10
-22.7456575682382
20
5.34667128476342
30
0.000000000000000
11
-22.6456575682382
21
5.35116833861971
31
0.000000000000000
  0
LINE
  5
F10721
330
F10722
100
AcDbEntity
8
Geo
100
AcDbLine
10
-22.6456575682382
20
5.35116833861971
30
0.000000000000000
11
-22.5456575682382
21
5.35616520536649
31
0.000000000000000
  0
LINE
  5
F10723
330
F10724
100
AcDbEntity
8
Geo
100
AcDbLine
10
-22.5456575682382
20
5.35616520536649
30
0.000000000000000
11
-22.4456575682382
21
5.36221364283731
31
0.000000000000000
  0
LINE
  5
F10725
330
F10726
100
AcDbEntity
8
Geo
100
AcDbLine
10
-22.4456575682382
20
5.36221364283731
30
0.000000000000000
11
-22.3456575682382
21
5.36938888558791
31
0.000000000000000
  0
LINE
  5
F10727
330
F10728
100
AcDbEntity
8
Geo
100
AcDbLine
10
-22.3456575682382
20
5.36938888558791
30
0.000000000000000
11
-22.2456575682382
21
5.37777738278782
31
0.000000000000000
  0
LINE
  5
F10729
330
F1072A
100
AcDbEntity
8
Geo
100
AcDbLine
10
-22.2456575682382
20
5.37777738278782
30
0.000000000000000
11
-22.1456575682382
21
5.38747667519408
31
0.000000000000000
  0
LINE
  5
F1072B
330
F1072C
100
AcDbEntity
8
Geo
100
AcDbLine
10
-22.1456575682382
20
5.38747667519408
30
0.000000000000000
11
-22.0456575682382
21
5.39859524680010
31
0.000000000000000
  0
LINE
  5
F1072D
330
F1072E
100
AcDbEntity
8
Geo
100
AcDbLine
10
-22.0456575682382
20
5.39859524680010
30
0.000000000000000
11
-21.9456575682382
21
5.41125234784014
31
0.000000000000000
  0
LINE
  5
F1072F
330
F10730
100
AcDbEntity
8
Geo
100
AcDbLine
10
-21.9456575682382
20
5.41125234784014
30
0.000000000000000
11
-21.8456575682382
21
5.42557778547335
31
0.000000000000000
  0
LINE
  5
F10731
330
F10732
100
AcDbEntity
8
Geo
100
AcDbLine
10
-21.8456575682382
20
5.42557778547335
30
0.000000000000000
11
-21.7456575682382
21
5.44171167812844
31
0.000000000000000
  0
LINE
  5
F10733
330
F10734
100
AcDbEntity
8
Geo
100
AcDbLine
10
-21.7456575682382
20
5.44171167812844
30
0.000000000000000
11
-21.6456575682382
21
5.45980416916310
31
0.000000000000000
  0
LINE
  5
F10735
330
F10736
100
AcDbEntity
8
Geo
100
AcDbLine
10
-21.6456575682382
20
5.45980416916310
30
0.000000000000000
11
-21.5456575682382
21
5.48001509518328
31
0.000000000000000
  0
LINE
  5
F10737
330
F10738
100
AcDbEntity
8
Geo
100
AcDbLine
10
-21.5456575682382
20
5.48001509518328
30
0.000000000000000
11
-21.4456575682382
21
5.50251360408229
31
0.000000000000000
  0
LINE
  5
F10739
330
F1073A
100
AcDbEntity
8
Geo
100
AcDbLine
10
-21.4456575682382
20
5.50251360408229
30
0.000000000000000
11
-21.3456575682382
21
5.52747771759921
31
0.000000000000000
  0
LINE
  5
F1073B
330
F1073C
100
AcDbEntity
8
Geo
100
AcDbLine
10
-21.3456575682382
20
5.52747771759921
30
0.000000000000000
11
-21.2456575682382
21
5.55509383296767
31
0.000000000000000
  0
LINE
  5
F1073D
330
F1073E
100
AcDbEntity
8
Geo
100
AcDbLine
10
-21.2456575682382
20
5.55509383296767
30
0.000000000000000
11
-21.1456575682382
21
5.58555615803231
31
0.000000000000000
  0
LINE
  5
F1073F
330
F10740
100
AcDbEntity
8
Geo
100
AcDbLine
10
-21.1456575682382
20
5.58555615803231
30
0.000000000000000
11
-21.0456575682382
21
5.61906607405750
31
0.000000000000000
  0
LINE
  5
F10741
330
F10742
100
AcDbEntity
8
Geo
100
AcDbLine
10
-21.0456575682382
20
5.61906607405750
30
0.000000000000000
11
-20.9456575682382
21
5.65583142034717
31
0.000000000000000
  0
LINE
  5
F10743
330
F10744
100
AcDbEntity
8
Geo
100
AcDbLine
10
-20.9456575682382
20
5.65583142034717
30
0.000000000000000
11
-20.8456575682382
21
5.69606569474132
31
0.000000000000000
  0
LINE
  5
F10745
330
F10746
100
AcDbEntity
8
Geo
100
AcDbLine
10
-20.8456575682382
20
5.69606569474132
30
0.000000000000000
11
-20.7456575682382
21
5.73954843515928
31
0.000000000000000
  0
LINE
  5
F10747
330
F10748
100
AcDbEntity
8
Geo
100
AcDbLine
10
-64.6456575682382
20
10.0629688819424
30
0.000000000000000
11
-64.5456575682382
21
10.4221475161876
31
0.000000000000000
  0
LINE
  5
F10749
330
F1074A
100
AcDbEntity
8
Geo
100
AcDbLine
10
-64.5456575682382
20
10.4170585391050
30
0.000000000000000
11
-64.4456575682382
21
10.6813772100615
31
0.000000000000000
  0
LINE
  5
F1074B
330
F1074C
100
AcDbEntity
8
Geo
100
AcDbLine
10
-64.4456575682382
20
10.6813772100615
30
0.000000000000000
11
-64.3456575682382
21
10.8979600388696
31
0.000000000000000
  0
LINE
  5
F1074D
330
F1074E
100
AcDbEntity
8
Geo
100
AcDbLine
10
-64.3456575682382
20
10.8979600388696
30
0.000000000000000
11
-64.2456575682382
21
11.0831478214178
31
0.000000000000000
  0
LINE
  5
F1074F
330
F10750
100
AcDbEntity
8
Geo
100
AcDbLine
10
-64.2456575682382
20
11.0831478214178
30
0.000000000000000
11
-64.1456575682382
21
11.2453425248199
31
0.000000000000000
  0
LINE
  5
F10751
330
F10752
100
AcDbEntity
8
Geo
100
AcDbLine
10
-64.1456575682382
20
11.2453425248199
30
0.000000000000000
11
-64.0456575682382
21
11.3895443585220
31
0.000000000000000
  0
LINE
  5
F10753
330
F10754
100
AcDbEntity
8
Geo
100
AcDbLine
10
-64.0456575682382
20
11.3895443585220
30
0.000000000000000
11
-63.9456575682382
21
11.5190153905847
31
0.000000000000000
  0
LINE
  5
F10755
330
F10756
100
AcDbEntity
8
Geo
100
AcDbLine
10
-63.9456575682382
20
11.5190153905847
30
0.000000000000000
11
-63.8456575682382
21
11.6360235256597
31
0.000000000000000
  0
LINE
  5
F10757
330
F10758
100
AcDbEntity
8
Geo
100
AcDbLine
10
-63.8456575682382
20
11.6360235256597
30
0.000000000000000
11
-63.7456575682382
21
11.7422211913673
31
0.000000000000000
  0
LINE
  5
F10759
330
F1075A
100
AcDbEntity
8
Geo
100
AcDbLine
10
-63.7456575682382
20
11.7422211913673
30
0.000000000000000
11
-63.6456575682382
21
11.8388566921796
31
0.000000000000000
  0
LINE
  5
F1075B
330
F1075C
100
AcDbEntity
8
Geo
100
AcDbLine
10
-63.6456575682382
20
11.8388566921796
30
0.000000000000000
11
-63.5456575682382
21
11.9269006371944
31
0.000000000000000
  0
LINE
  5
F1075D
330
F1075E
100
AcDbEntity
8
Geo
100
AcDbLine
10
-63.5456575682382
20
11.9269006371944
30
0.000000000000000
11
-63.4456575682382
21
12.0071257792098
31
0.000000000000000
  0
LINE
  5
F1075F
330
F10760
100
AcDbEntity
8
Geo
100
AcDbLine
10
-63.4456575682382
20
12.0071257792098
30
0.000000000000000
11
-63.3456575682382
21
12.0801596814808
31
0.000000000000000
  0
LINE
  5
F10761
330
F10762
100
AcDbEntity
8
Geo
100
AcDbLine
10
-63.3456575682382
20
12.0801596814808
30
0.000000000000000
11
-63.2456575682382
21
12.1465207303078
31
0.000000000000000
  0
LINE
  5
F10763
330
F10764
100
AcDbEntity
8
Geo
100
AcDbLine
10
-63.2456575682382
20
12.1465207303078
30
0.000000000000000
11
-63.1456575682382
21
12.2066435121659
31
0.000000000000000
  0
LINE
  5
F10765
330
F10766
100
AcDbEntity
8
Geo
100
AcDbLine
10
-63.1456575682382
20
12.2066435121659
30
0.000000000000000
11
-63.0456575682382
21
12.2608971599032
31
0.000000000000000
  0
LINE
  5
F10767
330
F10768
100
AcDbEntity
8
Geo
100
AcDbLine
10
-63.0456575682382
20
12.2608971599032
30
0.000000000000000
11
-62.9456575682382
21
12.3095989114750
31
0.000000000000000
  0
LINE
  5
F10769
330
F1076A
100
AcDbEntity
8
Geo
100
AcDbLine
10
-62.9456575682382
20
12.3095989114750
30
0.000000000000000
11
-62.8456575682382
21
12.3530243244247
31
0.000000000000000
  0
LINE
  5
F1076B
330
F1076C
100
AcDbEntity
8
Geo
100
AcDbLine
10
-62.8456575682382
20
12.3530243244247
30
0.000000000000000
11
-62.7456575682382
21
12.3914151014936
31
0.000000000000000
  0
LINE
  5
F1076D
330
F1076E
100
AcDbEntity
8
Geo
100
AcDbLine
10
-62.7456575682382
20
12.3914151014936
30
0.000000000000000
11
-62.6456575682382
21
12.4249851758742
31
0.000000000000000
  0
LINE
  5
F1076F
330
F10770
100
AcDbEntity
8
Geo
100
AcDbLine
10
-62.6456575682382
20
12.4249851758742
30
0.000000000000000
11
-62.5456575682382
21
12.4539255061838
31
0.000000000000000
  0
LINE
  5
F10771
330
F10772
100
AcDbEntity
8
Geo
100
AcDbLine
10
-62.5456575682382
20
12.4539255061838
30
0.000000000000000
11
-62.4456575682382
21
12.4784078997357
31
0.000000000000000
  0
LINE
  5
F10773
330
F10774
100
AcDbEntity
8
Geo
100
AcDbLine
10
-62.4456575682382
20
12.4784078997357
30
0.000000000000000
11
-62.3456575682382
21
12.4985880936316
31
0.000000000000000
  0
LINE
  5
F10775
330
F10776
100
AcDbEntity
8
Geo
100
AcDbLine
10
-62.3456575682382
20
12.4985880936316
30
0.000000000000000
11
-62.2456575682382
21
12.5146082616829
31
0.000000000000000
  0
LINE
  5
F10777
330
F10778
100
AcDbEntity
8
Geo
100
AcDbLine
10
-62.2456575682382
20
12.5146082616829
30
0.000000000000000
11
-62.1456575682382
21
12.5265990719300
31
0.000000000000000
  0
LINE
  5
F10779
330
F1077A
100
AcDbEntity
8
Geo
100
AcDbLine
10
-62.1456575682382
20
12.5265990719300
30
0.000000000000000
11
-62.0456575682382
21
12.5346813886353
31
0.000000000000000
  0
LINE
  5
F1077B
330
F1077C
100
AcDbEntity
8
Geo
100
AcDbLine
10
-62.0456575682382
20
12.5346813886353
30
0.000000000000000
11
-61.9456575682382
21
12.5389676902277
31
0.000000000000000
  0
LINE
  5
F1077D
330
F1077E
100
AcDbEntity
8
Geo
100
AcDbLine
10
-61.9456575682382
20
12.5389676902277
30
0.000000000000000
11
-61.8456575682382
21
12.5395632582232
31
0.000000000000000
  0
LINE
  5
F1077F
330
F10780
100
AcDbEntity
8
Geo
100
AcDbLine
10
-61.8456575682382
20
12.5395632582232
30
0.000000000000000
11
-61.7456575682382
21
12.5365671798995
31
0.000000000000000
  0
LINE
  5
F10781
330
F10782
100
AcDbEntity
8
Geo
100
AcDbLine
10
-61.7456575682382
20
12.5365671798995
30
0.000000000000000
11
-61.6456575682382
21
12.5300731982875
31
0.000000000000000
  0
LINE
  5
F10783
330
F10784
100
AcDbEntity
8
Geo
100
AcDbLine
10
-61.6456575682382
20
12.5300731982875
30
0.000000000000000
11
-61.5456575682382
21
12.5201704360333
31
0.000000000000000
  0
LINE
  5
F10785
330
F10786
100
AcDbEntity
8
Geo
100
AcDbLine
10
-61.5456575682382
20
12.5201704360333
30
0.000000000000000
11
-61.4456575682382
21
12.5069440142947
31
0.000000000000000
  0
LINE
  5
F10787
330
F10788
100
AcDbEntity
8
Geo
100
AcDbLine
10
-61.4456575682382
20
12.5069440142947
30
0.000000000000000
11
-61.3456575682382
21
12.4904755836562
31
0.000000000000000
  0
LINE
  5
F10789
330
F1078A
100
AcDbEntity
8
Geo
100
AcDbLine
10
-61.3456575682382
20
12.4904755836562
30
0.000000000000000
11
-61.2456575682382
21
12.4708437807681
31
0.000000000000000
  0
LINE
  5
F1078B
330
F1078C
100
AcDbEntity
8
Geo
100
AcDbLine
10
-61.2456575682382
20
12.4708437807681
30
0.000000000000000
11
-61.1456575682382
21
12.4481246218311
31
0.000000000000000
  0
LINE
  5
F1078D
330
F1078E
100
AcDbEntity
8
Geo
100
AcDbLine
10
-61.1456575682382
20
12.4481246218311
30
0.000000000000000
11
-61.0456575682382
21
12.4223918419756
31
0.000000000000000
  0
LINE
  5
F1078F
330
F10790
100
AcDbEntity
8
Geo
100
AcDbLine
10
-61.0456575682382
20
12.4223918419756
30
0.000000000000000
11
-60.9456575682382
21
12.3937171879262
31
0.000000000000000
  0
LINE
  5
F10791
330
F10792
100
AcDbEntity
8
Geo
100
AcDbLine
10
-60.9456575682382
20
12.3937171879262
30
0.000000000000000
11
-60.8456575682382
21
12.3621706699821
31
0.000000000000000
  0
LINE
  5
F10793
330
F10794
100
AcDbEntity
8
Geo
100
AcDbLine
10
-60.8456575682382
20
12.3621706699821
30
0.000000000000000
11
-60.7456575682382
21
12.3278207782284
31
0.000000000000000
  0
LINE
  5
F10795
330
F10796
100
AcDbEntity
8
Geo
100
AcDbLine
10
-60.7456575682382
20
12.3278207782284
30
0.000000000000000
11
-60.6456575682382
21
12.2917722626067
31
0.000000000000000
  0
LINE
  5
F10797
330
F10798
100
AcDbEntity
8
Geo
100
AcDbLine
10
-60.6456575682382
20
12.2917722626067
30
0.000000000000000
11
-60.5456575682382
21
12.2550899261952
31
0.000000000000000
  0
LINE
  5
F10799
330
F1079A
100
AcDbEntity
8
Geo
100
AcDbLine
10
-60.5456575682382
20
12.2550899261952
30
0.000000000000000
11
-60.4456575682382
21
12.2177814110146
31
0.000000000000000
  0
LINE
  5
F1079B
330
F1079C
100
AcDbEntity
8
Geo
100
AcDbLine
10
-60.4456575682382
20
12.2177814110146
30
0.000000000000000
11
-60.3456575682382
21
12.1798544895374
31
0.000000000000000
  0
LINE
  5
F1079D
330
F1079E
100
AcDbEntity
8
Geo
100
AcDbLine
10
-60.3456575682382
20
12.1798544895374
30
0.000000000000000
11
-60.2456575682382
21
12.1413170630683
31
0.000000000000000
  0
LINE
  5
F1079F
330
F107A0
100
AcDbEntity
8
Geo
100
AcDbLine
10
-60.2456575682382
20
12.1413170630683
30
0.000000000000000
11
-60.1456575682382
21
12.1021771600984
31
0.000000000000000
  0
LINE
  5
F107A1
330
F107A2
100
AcDbEntity
8
Geo
100
AcDbLine
10
-60.1456575682382
20
12.1021771600984
30
0.000000000000000
11
-60.0456575682382
21
12.0624429346327
31
0.000000000000000
  0
LINE
  5
F107A3
330
F107A4
100
AcDbEntity
8
Geo
100
AcDbLine
10
-60.0456575682382
20
12.0624429346327
30
0.000000000000000
11
-59.9456575682382
21
12.0221226644911
31
0.000000000000000
  0
LINE
  5
F107A5
330
F107A6
100
AcDbEntity
8
Geo
100
AcDbLine
10
-59.9456575682382
20
12.0221226644911
30
0.000000000000000
11
-59.8456575682382
21
11.9812247495840
31
0.000000000000000
  0
LINE
  5
F107A7
330
F107A8
100
AcDbEntity
8
Geo
100
AcDbLine
10
-59.8456575682382
20
11.9812247495840
30
0.000000000000000
11
-59.7456575682382
21
11.9397577101624
31
0.000000000000000
  0
LINE
  5
F107A9
330
F107AA
100
AcDbEntity
8
Geo
100
AcDbLine
10
-59.7456575682382
20
11.9397577101624
30
0.000000000000000
11
-59.6456575682382
21
11.8977301850429
31
0.000000000000000
  0
LINE
  5
F107AB
330
F107AC
100
AcDbEntity
8
Geo
100
AcDbLine
10
-59.6456575682382
20
11.8977301850429
30
0.000000000000000
11
-59.5456575682382
21
11.8551509298079
31
0.000000000000000
  0
LINE
  5
F107AD
330
F107AE
100
AcDbEntity
8
Geo
100
AcDbLine
10
-59.5456575682382
20
11.8551509298079
30
0.000000000000000
11
-59.4456575682382
21
11.8120288149816
31
0.000000000000000
  0
LINE
  5
F107AF
330
F107B0
100
AcDbEntity
8
Geo
100
AcDbLine
10
-59.4456575682382
20
11.8120288149816
30
0.000000000000000
11
-59.3456575682382
21
11.7683728241819
31
0.000000000000000
  0
LINE
  5
F107B1
330
F107B2
100
AcDbEntity
8
Geo
100
AcDbLine
10
-59.3456575682382
20
11.7683728241819
30
0.000000000000000
11
-59.2456575682382
21
11.7241920522489
31
0.000000000000000
  0
LINE
  5
F107B3
330
F107B4
100
AcDbEntity
8
Geo
100
AcDbLine
10
-59.2456575682382
20
11.7241920522489
30
0.000000000000000
11
-59.1456575682382
21
11.6794957033505
31
0.000000000000000
  0
LINE
  5
F107B5
330
F107B6
100
AcDbEntity
8
Geo
100
AcDbLine
10
-59.1456575682382
20
11.6794957033505
30
0.000000000000000
11
-59.0456575682382
21
11.6342930890643
31
0.000000000000000
  0
LINE
  5
F107B7
330
F107B8
100
AcDbEntity
8
Geo
100
AcDbLine
10
-59.0456575682382
20
11.6342930890643
30
0.000000000000000
11
-58.9456575682382
21
11.5885936264380
31
0.000000000000000
  0
LINE
  5
F107B9
330
F107BA
100
AcDbEntity
8
Geo
100
AcDbLine
10
-58.9456575682382
20
11.5885936264380
30
0.000000000000000
11
-58.8456575682382
21
11.5424068360279
31
0.000000000000000
  0
LINE
  5
F107BB
330
F107BC
100
AcDbEntity
8
Geo
100
AcDbLine
10
-58.8456575682382
20
11.5424068360279
30
0.000000000000000
11
-58.7456575682382
21
11.4957423399148
31
0.000000000000000
  0
LINE
  5
F107BD
330
F107BE
100
AcDbEntity
8
Geo
100
AcDbLine
10
-58.7456575682382
20
11.4957423399148
30
0.000000000000000
11
-58.6456575682382
21
11.4486098596999
31
0.000000000000000
  0
LINE
  5
F107BF
330
F107C0
100
AcDbEntity
8
Geo
100
AcDbLine
10
-58.6456575682382
20
11.4486098596999
30
0.000000000000000
11
-58.5456575682382
21
11.4010192144796
31
0.000000000000000
  0
LINE
  5
F107C1
330
F107C2
100
AcDbEntity
8
Geo
100
AcDbLine
10
-58.5456575682382
20
11.4010192144796
30
0.000000000000000
11
-58.4456575682382
21
11.3529803187995
31
0.000000000000000
  0
LINE
  5
F107C3
330
F107C4
100
AcDbEntity
8
Geo
100
AcDbLine
10
-58.4456575682382
20
11.3529803187995
30
0.000000000000000
11
-58.3456575682382
21
11.3045031805890
31
0.000000000000000
  0
LINE
  5
F107C5
330
F107C6
100
AcDbEntity
8
Geo
100
AcDbLine
10
-58.3456575682382
20
11.3045031805890
30
0.000000000000000
11
-58.2456575682382
21
11.2555978990766
31
0.000000000000000
  0
LINE
  5
F107C7
330
F107C8
100
AcDbEntity
8
Geo
100
AcDbLine
10
-58.2456575682382
20
11.2555978990766
30
0.000000000000000
11
-58.1456575682382
21
11.2062746626858
31
0.000000000000000
  0
LINE
  5
F107C9
330
F107CA
100
AcDbEntity
8
Geo
100
AcDbLine
10
-58.1456575682382
20
11.2062746626858
30
0.000000000000000
11
-58.0456575682382
21
11.1565437469124
31
0.000000000000000
  0
LINE
  5
F107CB
330
F107CC
100
AcDbEntity
8
Geo
100
AcDbLine
10
-58.0456575682382
20
11.1565437469124
30
0.000000000000000
11
-57.9456575682382
21
11.1064155121840
31
0.000000000000000
  0
LINE
  5
F107CD
330
F107CE
100
AcDbEntity
8
Geo
100
AcDbLine
10
-57.9456575682382
20
11.1064155121840
30
0.000000000000000
11
-57.8456575682382
21
11.0559004017015
31
0.000000000000000
  0
LINE
  5
F107CF
330
F107D0
100
AcDbEntity
8
Geo
100
AcDbLine
10
-57.8456575682382
20
11.0559004017015
30
0.000000000000000
11
-57.7456575682382
21
11.0050089392636
31
0.000000000000000
  0
LINE
  5
F107D1
330
F107D2
100
AcDbEntity
8
Geo
100
AcDbLine
10
-57.7456575682382
20
11.0050089392636
30
0.000000000000000
11
-57.6456575682382
21
10.9537517270742
31
0.000000000000000
  0
LINE
  5
F107D3
330
F107D4
100
AcDbEntity
8
Geo
100
AcDbLine
10
-57.6456575682382
20
10.9537517270742
30
0.000000000000000
11
-57.5456575682382
21
10.9021394435337
31
0.000000000000000
  0
LINE
  5
F107D5
330
F107D6
100
AcDbEntity
8
Geo
100
AcDbLine
10
-57.5456575682382
20
10.9021394435337
30
0.000000000000000
11
-57.4456575682382
21
10.8501828410146
31
0.000000000000000
  0
LINE
  5
F107D7
330
F107D8
100
AcDbEntity
8
Geo
100
AcDbLine
10
-57.4456575682382
20
10.8501828410146
30
0.000000000000000
11
-57.3456575682382
21
10.7978927436212
31
0.000000000000000
  0
LINE
  5
F107D9
330
F107DA
100
AcDbEntity
8
Geo
100
AcDbLine
10
-57.3456575682382
20
10.7978927436212
30
0.000000000000000
11
-57.2456575682382
21
10.7452800449346
31
0.000000000000000
  0
LINE
  5
F107DB
330
F107DC
100
AcDbEntity
8
Geo
100
AcDbLine
10
-57.2456575682382
20
10.7452800449346
30
0.000000000000000
11
-57.1456575682382
21
10.6923557057434
31
0.000000000000000
  0
LINE
  5
F107DD
330
F107DE
100
AcDbEntity
8
Geo
100
AcDbLine
10
-57.1456575682382
20
10.6923557057434
30
0.000000000000000
11
-57.0456575682382
21
10.6391307517602
31
0.000000000000000
  0
LINE
  5
F107DF
330
F107E0
100
AcDbEntity
8
Geo
100
AcDbLine
10
-57.0456575682382
20
10.6391307517602
30
0.000000000000000
11
-56.9456575682382
21
10.5856162713246
31
0.000000000000000
  0
LINE
  5
F107E1
330
F107E2
100
AcDbEntity
8
Geo
100
AcDbLine
10
-56.9456575682382
20
10.5856162713246
30
0.000000000000000
11
-56.8456575682382
21
10.5318234130931
31
0.000000000000000
  0
LINE
  5
F107E3
330
F107E4
100
AcDbEntity
8
Geo
100
AcDbLine
10
-56.8456575682382
20
10.5318234130931
30
0.000000000000000
11
-56.7456575682382
21
10.4777633837165
31
0.000000000000000
  0
LINE
  5
F107E5
330
F107E6
100
AcDbEntity
8
Geo
100
AcDbLine
10
-56.7456575682382
20
10.4777633837165
30
0.000000000000000
11
-56.6456575682382
21
10.4234474455056
31
0.000000000000000
  0
LINE
  5
F107E7
330
F107E8
100
AcDbEntity
8
Geo
100
AcDbLine
10
-56.6456575682382
20
10.4234474455056
30
0.000000000000000
11
-56.5456575682382
21
10.3688869140842
31
0.000000000000000
  0
LINE
  5
F107E9
330
F107EA
100
AcDbEntity
8
Geo
100
AcDbLine
10
-56.5456575682382
20
10.3688869140842
30
0.000000000000000
11
-56.4456575682382
21
10.3140931560325
31
0.000000000000000
  0
LINE
  5
F107EB
330
F107EC
100
AcDbEntity
8
Geo
100
AcDbLine
10
-56.4456575682382
20
10.3140931560325
30
0.000000000000000
11
-56.3456575682382
21
10.2590775865185
31
0.000000000000000
  0
LINE
  5
F107ED
330
F107EE
100
AcDbEntity
8
Geo
100
AcDbLine
10
-56.3456575682382
20
10.2590775865185
30
0.000000000000000
11
-56.2456575682382
21
10.2038516669203
31
0.000000000000000
  0
LINE
  5
F107EF
330
F107F0
100
AcDbEntity
8
Geo
100
AcDbLine
10
-56.2456575682382
20
10.2038516669203
30
0.000000000000000
11
-56.1456575682382
21
10.1484269024379
31
0.000000000000000
  0
LINE
  5
F107F1
330
F107F2
100
AcDbEntity
8
Geo
100
AcDbLine
10
-56.1456575682382
20
10.1484269024379
30
0.000000000000000
11
-56.0456575682382
21
10.0928148396969
31
0.000000000000000
  0
LINE
  5
F107F3
330
F107F4
100
AcDbEntity
8
Geo
100
AcDbLine
10
-56.0456575682382
20
10.0928148396969
30
0.000000000000000
11
-55.9456575682382
21
10.0370270643425
31
0.000000000000000
  0
LINE
  5
F107F5
330
F107F6
100
AcDbEntity
8
Geo
100
AcDbLine
10
-55.9456575682382
20
10.0370270643425
30
0.000000000000000
11
-55.8456575682382
21
9.98107519862612
31
0.000000000000000
  0
LINE
  5
F107F7
330
F107F8
100
AcDbEntity
8
Geo
100
AcDbLine
10
-55.8456575682382
20
9.98107519862612
30
0.000000000000000
11
-55.7456575682382
21
9.92497089898412
31
0.000000000000000
  0
LINE
  5
F107F9
330
F107FA
100
AcDbEntity
8
Geo
100
AcDbLine
10
-55.7456575682382
20
9.92497089898412
30
0.000000000000000
11
-55.6456575682382
21
9.86872585360932
31
0.000000000000000
  0
LINE
  5
F107FB
330
F107FC
100
AcDbEntity
8
Geo
100
AcDbLine
10
-55.6456575682382
20
9.86872585360932
30
0.000000000000000
11
-55.5456575682382
21
9.81235178001608
31
0.000000000000000
  0
LINE
  5
F107FD
330
F107FE
100
AcDbEntity
8
Geo
100
AcDbLine
10
-55.5456575682382
20
9.81235178001608
30
0.000000000000000
11
-55.4456575682382
21
9.75586042259916
31
0.000000000000000
  0
LINE
  5
F107FF
330
F10800
100
AcDbEntity
8
Geo
100
AcDbLine
10
-55.4456575682382
20
9.75586042259916
30
0.000000000000000
11
-55.3456575682382
21
9.69926355018703
31
0.000000000000000
  0
LINE
  5
F10801
330
F10802
100
AcDbEntity
8
Geo
100
AcDbLine
10
-55.3456575682382
20
9.69926355018703
30
0.000000000000000
11
-55.2456575682382
21
9.64257295359008
31
0.000000000000000
  0
LINE
  5
F10803
330
F10804
100
AcDbEntity
8
Geo
100
AcDbLine
10
-55.2456575682382
20
9.64257295359008
30
0.000000000000000
11
-55.1456575682382
21
9.58580044314422
31
0.000000000000000
  0
LINE
  5
F10805
330
F10806
100
AcDbEntity
8
Geo
100
AcDbLine
10
-55.1456575682382
20
9.58580044314422
30
0.000000000000000
11
-55.0456575682382
21
9.52895784625046
31
0.000000000000000
  0
LINE
  5
F10807
330
F10808
100
AcDbEntity
8
Geo
100
AcDbLine
10
-55.0456575682382
20
9.52895784625046
30
0.000000000000000
11
-54.9456575682382
21
9.47205700491089
31
0.000000000000000
  0
LINE
  5
F10809
330
F1080A
100
AcDbEntity
8
Geo
100
AcDbLine
10
-54.9456575682382
20
9.47205700491089
30
0.000000000000000
11
-54.8456575682382
21
9.41510977326165
31
0.000000000000000
  0
LINE
  5
F1080B
330
F1080C
100
AcDbEntity
8
Geo
100
AcDbLine
10
-54.8456575682382
20
9.41510977326165
30
0.000000000000000
11
-54.7456575682382
21
9.35812801510336
31
0.000000000000000
  0
LINE
  5
F1080D
330
F1080E
100
AcDbEntity
8
Geo
100
AcDbLine
10
-54.7456575682382
20
9.35812801510336
30
0.000000000000000
11
-54.6456575682382
21
9.30112360142955
31
0.000000000000000
  0
LINE
  5
F1080F
330
F10810
100
AcDbEntity
8
Geo
100
AcDbLine
10
-54.6456575682382
20
9.30112360142955
30
0.000000000000000
11
-54.5456575682382
21
9.24410840795356
31
0.000000000000000
  0
LINE
  5
F10811
330
F10812
100
AcDbEntity
8
Geo
100
AcDbLine
10
-54.5456575682382
20
9.24410840795356
30
0.000000000000000
11
-54.4456575682382
21
9.18709431263446
31
0.000000000000000
  0
LINE
  5
F10813
330
F10814
100
AcDbEntity
8
Geo
100
AcDbLine
10
-54.4456575682382
20
9.18709431263446
30
0.000000000000000
11
-54.3456575682382
21
9.13009319320258
31
0.000000000000000
  0
LINE
  5
F10815
330
F10816
100
AcDbEntity
8
Geo
100
AcDbLine
10
-54.3456575682382
20
9.13009319320258
30
0.000000000000000
11
-54.2456575682382
21
9.07311692468497
31
0.000000000000000
  0
LINE
  5
F10817
330
F10818
100
AcDbEntity
8
Geo
100
AcDbLine
10
-54.2456575682382
20
9.07311692468497
30
0.000000000000000
11
-54.1456575682382
21
9.01617737693149
31
0.000000000000000
  0
LINE
  5
F10819
330
F1081A
100
AcDbEntity
8
Geo
100
AcDbLine
10
-54.1456575682382
20
9.01617737693149
30
0.000000000000000
11
-54.0456575682382
21
8.95928641214197
31
0.000000000000000
  0
LINE
  5
F1081B
330
F1081C
100
AcDbEntity
8
Geo
100
AcDbLine
10
-54.0456575682382
20
8.95928641214197
30
0.000000000000000
11
-53.9456575682382
21
8.90245588239499
31
0.000000000000000
  0
LINE
  5
F1081D
330
F1081E
100
AcDbEntity
8
Geo
100
AcDbLine
10
-53.9456575682382
20
8.90245588239499
30
0.000000000000000
11
-53.8456575682382
21
8.84569762717869
31
0.000000000000000
  0
LINE
  5
F1081F
330
F10820
100
AcDbEntity
8
Geo
100
AcDbLine
10
-53.8456575682382
20
8.84569762717869
30
0.000000000000000
11
-53.7456575682382
21
8.78902347092429
31
0.000000000000000
  0
LINE
  5
F10821
330
F10822
100
AcDbEntity
8
Geo
100
AcDbLine
10
-53.7456575682382
20
8.78902347092429
30
0.000000000000000
11
-53.6456575682382
21
8.73244522054269
31
0.000000000000000
  0
LINE
  5
F10823
330
F10824
100
AcDbEntity
8
Geo
100
AcDbLine
10
-53.6456575682382
20
8.73244522054269
30
0.000000000000000
11
-53.5456575682382
21
8.67597466296474
31
0.000000000000000
  0
LINE
  5
F10825
330
F10826
100
AcDbEntity
8
Geo
100
AcDbLine
10
-53.5456575682382
20
8.67597466296474
30
0.000000000000000
11
-53.4456575682382
21
8.61962356268571
31
0.000000000000000
  0
LINE
  5
F10827
330
F10828
100
AcDbEntity
8
Geo
100
AcDbLine
10
-53.4456575682382
20
8.61962356268571
30
0.000000000000000
11
-53.3456575682382
21
8.56340365931433
31
0.000000000000000
  0
LINE
  5
F10829
330
F1082A
100
AcDbEntity
8
Geo
100
AcDbLine
10
-53.3456575682382
20
8.56340365931433
30
0.000000000000000
11
-53.2456575682382
21
8.50732666512713
31
0.000000000000000
  0
LINE
  5
F1082B
330
F1082C
100
AcDbEntity
8
Geo
100
AcDbLine
10
-53.2456575682382
20
8.50732666512713
30
0.000000000000000
11
-53.1456575682382
21
8.45140426262841
31
0.000000000000000
  0
LINE
  5
F1082D
330
F1082E
100
AcDbEntity
8
Geo
100
AcDbLine
10
-53.1456575682382
20
8.45140426262841
30
0.000000000000000
11
-53.0456575682382
21
8.39564810211643
31
0.000000000000000
  0
LINE
  5
F1082F
330
F10830
100
AcDbEntity
8
Geo
100
AcDbLine
10
-53.0456575682382
20
8.39564810211643
30
0.000000000000000
11
-52.9456575682382
21
8.34006979925629
31
0.000000000000000
  0
LINE
  5
F10831
330
F10832
100
AcDbEntity
8
Geo
100
AcDbLine
10
-52.9456575682382
20
8.34006979925629
30
0.000000000000000
11
-52.8456575682382
21
8.28468093266007
31
0.000000000000000
  0
LINE
  5
F10833
330
F10834
100
AcDbEntity
8
Geo
100
AcDbLine
10
-52.8456575682382
20
8.28468093266007
30
0.000000000000000
11
-52.7456575682382
21
8.22949304147466
31
0.000000000000000
  0
LINE
  5
F10835
330
F10836
100
AcDbEntity
8
Geo
100
AcDbLine
10
-52.7456575682382
20
8.22949304147466
30
0.000000000000000
11
-52.6456575682382
21
8.17451762297776
31
0.000000000000000
  0
LINE
  5
F10837
330
F10838
100
AcDbEntity
8
Geo
100
AcDbLine
10
-52.6456575682382
20
8.17451762297776
30
0.000000000000000
11
-52.5456575682382
21
8.11976613018272
31
0.000000000000000
  0
LINE
  5
F10839
330
F1083A
100
AcDbEntity
8
Geo
100
AcDbLine
10
-52.5456575682382
20
8.11976613018272
30
0.000000000000000
11
-52.4456575682382
21
8.06524996945252
31
0.000000000000000
  0
LINE
  5
F1083B
330
F1083C
100
AcDbEntity
8
Geo
100
AcDbLine
10
-52.4456575682382
20
8.06524996945252
30
0.000000000000000
11
-52.3456575682382
21
8.01098049812347
31
0.000000000000000
  0
LINE
  5
F1083D
330
F1083E
100
AcDbEntity
8
Geo
100
AcDbLine
10
-52.3456575682382
20
8.01098049812347
30
0.000000000000000
11
-52.2456575682382
21
7.95696902213913
31
0.000000000000000
  0
LINE
  5
F1083F
330
F10840
100
AcDbEntity
8
Geo
100
AcDbLine
10
-52.2456575682382
20
7.95696902213913
30
0.000000000000000
11
-52.1456575682382
21
7.90322679369499
31
0.000000000000000
  0
LINE
  5
F10841
330
F10842
100
AcDbEntity
8
Geo
100
AcDbLine
10
-52.1456575682382
20
7.90322679369499
30
0.000000000000000
11
-52.0456575682382
21
7.84976500889426
31
0.000000000000000
  0
LINE
  5
F10843
330
F10844
100
AcDbEntity
8
Geo
100
AcDbLine
10
-52.0456575682382
20
7.84976500889426
30
0.000000000000000
11
-51.9456575682382
21
7.79659480541540
31
0.000000000000000
  0
LINE
  5
F10845
330
F10846
100
AcDbEntity
8
Geo
100
AcDbLine
10
-51.9456575682382
20
7.79659480541540
30
0.000000000000000
11
-51.8456575682382
21
7.74372726019184
31
0.000000000000000
  0
LINE
  5
F10847
330
F10848
100
AcDbEntity
8
Geo
100
AcDbLine
10
-51.8456575682382
20
7.74372726019184
30
0.000000000000000
11
-51.7456575682382
21
7.69117338710428
31
0.000000000000000
  0
LINE
  5
F10849
330
F1084A
100
AcDbEntity
8
Geo
100
AcDbLine
10
-51.7456575682382
20
7.69117338710428
30
0.000000000000000
11
-51.6456575682382
21
7.63894413468620
31
0.000000000000000
  0
LINE
  5
F1084B
330
F1084C
100
AcDbEntity
8
Geo
100
AcDbLine
10
-51.6456575682382
20
7.63894413468620
30
0.000000000000000
11
-51.5456575682382
21
7.58705038384294
31
0.000000000000000
  0
LINE
  5
F1084D
330
F1084E
100
AcDbEntity
8
Geo
100
AcDbLine
10
-51.5456575682382
20
7.58705038384294
30
0.000000000000000
11
-51.4456575682382
21
7.53550294558491
31
0.000000000000000
  0
LINE
  5
F1084F
330
F10850
100
AcDbEntity
8
Geo
100
AcDbLine
10
-51.4456575682382
20
7.53550294558491
30
0.000000000000000
11
-51.3456575682382
21
7.48431255877530
31
0.000000000000000
  0
LINE
  5
F10851
330
F10852
100
AcDbEntity
8
Geo
100
AcDbLine
10
-51.3456575682382
20
7.48431255877530
30
0.000000000000000
11
-51.2456575682382
21
7.43348988789288
31
0.000000000000000
  0
LINE
  5
F10853
330
F10854
100
AcDbEntity
8
Geo
100
AcDbLine
10
-51.2456575682382
20
7.43348988789288
30
0.000000000000000
11
-51.1456575682382
21
7.38304552081026
31
0.000000000000000
  0
LINE
  5
F10855
330
F10856
100
AcDbEntity
8
Geo
100
AcDbLine
10
-51.1456575682382
20
7.38304552081026
30
0.000000000000000
11
-51.0456575682382
21
7.33298996658814
31
0.000000000000000
  0
LINE
  5
F10857
330
F10858
100
AcDbEntity
8
Geo
100
AcDbLine
10
-51.0456575682382
20
7.33298996658814
30
0.000000000000000
11
-50.9456575682382
21
7.28333365328594
31
0.000000000000000
  0
LINE
  5
F10859
330
F1085A
100
AcDbEntity
8
Geo
100
AcDbLine
10
-50.9456575682382
20
7.28333365328594
30
0.000000000000000
11
-50.8456575682383
21
7.23408692578933
31
0.000000000000000
  0
LINE
  5
F1085B
330
F1085C
100
AcDbEntity
8
Geo
100
AcDbLine
10
-50.8456575682383
20
7.23408692578933
30
0.000000000000000
11
-50.7456575682383
21
7.18526004365507
31
0.000000000000000
  0
LINE
  5
F1085D
330
F1085E
100
AcDbEntity
8
Geo
100
AcDbLine
10
-50.7456575682383
20
7.18526004365507
30
0.000000000000000
11
-50.6456575682382
21
7.13686317897369
31
0.000000000000000
  0
LINE
  5
F1085F
330
F10860
100
AcDbEntity
8
Geo
100
AcDbLine
10
-50.6456575682382
20
7.13686317897369
30
0.000000000000000
11
-50.5456575682382
21
7.08890641425028
31
0.000000000000000
  0
LINE
  5
F10861
330
F10862
100
AcDbEntity
8
Geo
100
AcDbLine
10
-50.5456575682382
20
7.08890641425028
30
0.000000000000000
11
-50.4456575682382
21
7.04139974030404
31
0.000000000000000
  0
LINE
  5
F10863
330
F10864
100
AcDbEntity
8
Geo
100
AcDbLine
10
-50.4456575682382
20
7.04139974030404
30
0.000000000000000
11
-50.3456575682383
21
6.99435305418687
31
0.000000000000000
  0
LINE
  5
F10865
330
F10866
100
AcDbEntity
8
Geo
100
AcDbLine
10
-50.3456575682383
20
6.99435305418687
30
0.000000000000000
11
-50.2456575682383
21
6.94777615712156
31
0.000000000000000
  0
LINE
  5
F10867
330
F10868
100
AcDbEntity
8
Geo
100
AcDbLine
10
-50.2456575682383
20
6.94777615712156
30
0.000000000000000
11
-50.1456575682382
21
6.90167875245988
31
0.000000000000000
  0
LINE
  5
F10869
330
F1086A
100
AcDbEntity
8
Geo
100
AcDbLine
10
-50.1456575682382
20
6.90167875245988
30
0.000000000000000
11
-50.0456575682383
21
6.85607044366105
31
0.000000000000000
  0
LINE
  5
F1086B
330
F1086C
100
AcDbEntity
8
Geo
100
AcDbLine
10
-50.0456575682383
20
6.85607044366105
30
0.000000000000000
11
-49.9456575682383
21
6.81096073229112
31
0.000000000000000
  0
LINE
  5
F1086D
330
F1086E
100
AcDbEntity
8
Geo
100
AcDbLine
10
-49.9456575682383
20
6.81096073229112
30
0.000000000000000
11
-49.8456575682383
21
6.76635901604348
31
0.000000000000000
  0
LINE
  5
F1086F
330
F10870
100
AcDbEntity
8
Geo
100
AcDbLine
10
-49.8456575682383
20
6.76635901604348
30
0.000000000000000
11
-49.7456575682383
21
6.72227458678101
31
0.000000000000000
  0
LINE
  5
F10871
330
F10872
100
AcDbEntity
8
Geo
100
AcDbLine
10
-49.7456575682383
20
6.72227458678101
30
0.000000000000000
11
-49.6456575682382
21
6.67871662860038
31
0.000000000000000
  0
LINE
  5
F10873
330
F10874
100
AcDbEntity
8
Geo
100
AcDbLine
10
-49.6456575682382
20
6.67871662860038
30
0.000000000000000
11
-49.5456575682383
21
6.63569421591865
31
0.000000000000000
  0
LINE
  5
F10875
330
F10876
100
AcDbEntity
8
Geo
100
AcDbLine
10
-49.5456575682383
20
6.63569421591865
30
0.000000000000000
11
-49.4456575682383
21
6.59321631158286
31
0.000000000000000
  0
LINE
  5
F10877
330
F10878
100
AcDbEntity
8
Geo
100
AcDbLine
10
-49.4456575682383
20
6.59321631158286
30
0.000000000000000
11
-49.3456575682383
21
6.55129176500277
31
0.000000000000000
  0
LINE
  5
F10879
330
F1087A
100
AcDbEntity
8
Geo
100
AcDbLine
10
-49.3456575682383
20
6.55129176500277
30
0.000000000000000
11
-49.2456575682383
21
6.50992931030730
31
0.000000000000000
  0
LINE
  5
F1087B
330
F1087C
100
AcDbEntity
8
Geo
100
AcDbLine
10
-49.2456575682383
20
6.50992931030730
30
0.000000000000000
11
-49.1456575682383
21
6.46913756452490
31
0.000000000000000
  0
LINE
  5
F1087D
330
F1087E
100
AcDbEntity
8
Geo
100
AcDbLine
10
-49.1456575682383
20
6.46913756452490
30
0.000000000000000
11
-49.0456575682383
21
6.42892502578839
31
0.000000000000000
  0
LINE
  5
F1087F
330
F10880
100
AcDbEntity
8
Geo
100
AcDbLine
10
-49.0456575682383
20
6.42892502578839
30
0.000000000000000
11
-48.9456575682383
21
6.38930007156458
31
0.000000000000000
  0
LINE
  5
F10881
330
F10882
100
AcDbEntity
8
Geo
100
AcDbLine
10
-48.9456575682383
20
6.38930007156458
30
0.000000000000000
11
-48.8456575682383
21
6.35027095690895
31
0.000000000000000
  0
LINE
  5
F10883
330
F10884
100
AcDbEntity
8
Geo
100
AcDbLine
10
-48.8456575682383
20
6.35027095690895
30
0.000000000000000
11
-48.7456575682383
21
6.31184581274587
31
0.000000000000000
  0
LINE
  5
F10885
330
F10886
100
AcDbEntity
8
Geo
100
AcDbLine
10
-48.7456575682383
20
6.31184581274587
30
0.000000000000000
11
-48.6456575682383
21
6.27403264417475
31
0.000000000000000
  0
LINE
  5
F10887
330
F10888
100
AcDbEntity
8
Geo
100
AcDbLine
10
-48.6456575682383
20
6.27403264417475
30
0.000000000000000
11
-48.5456575682383
21
6.23683932880226
31
0.000000000000000
  0
LINE
  5
F10889
330
F1088A
100
AcDbEntity
8
Geo
100
AcDbLine
10
-48.5456575682383
20
6.23683932880226
30
0.000000000000000
11
-48.4456575682383
21
6.20027361510125
31
0.000000000000000
  0
LINE
  5
F1088B
330
F1088C
100
AcDbEntity
8
Geo
100
AcDbLine
10
-48.4456575682383
20
6.20027361510125
30
0.000000000000000
11
-48.3456575682383
21
6.16434312079650
31
0.000000000000000
  0
LINE
  5
F1088D
330
F1088E
100
AcDbEntity
8
Geo
100
AcDbLine
10
-48.3456575682383
20
6.16434312079650
30
0.000000000000000
11
-48.2456575682383
21
6.12905533127769
31
0.000000000000000
  0
LINE
  5
F1088F
330
F10890
100
AcDbEntity
8
Geo
100
AcDbLine
10
-48.2456575682383
20
6.12905533127769
30
0.000000000000000
11
-48.1456575682382
21
6.09441759804000
31
0.000000000000000
  0
LINE
  5
F10891
330
F10892
100
AcDbEntity
8
Geo
100
AcDbLine
10
-48.1456575682382
20
6.09441759804000
30
0.000000000000000
11
-48.0456575682382
21
6.06043713715258
31
0.000000000000000
  0
LINE
  5
F10893
330
F10894
100
AcDbEntity
8
Geo
100
AcDbLine
10
-48.0456575682382
20
6.06043713715258
30
0.000000000000000
11
-47.9456575682382
21
6.02712102775522
31
0.000000000000000
  0
LINE
  5
F10895
330
F10896
100
AcDbEntity
8
Geo
100
AcDbLine
10
-47.9456575682382
20
6.02712102775522
30
0.000000000000000
11
-47.8456575682382
21
5.99447621058353
31
0.000000000000000
  0
LINE
  5
F10897
330
F10898
100
AcDbEntity
8
Geo
100
AcDbLine
10
-47.8456575682382
20
5.99447621058353
30
0.000000000000000
11
-47.7456575682382
21
5.96250948652303
31
0.000000000000000
  0
LINE
  5
F10899
330
F1089A
100
AcDbEntity
8
Geo
100
AcDbLine
10
-47.7456575682382
20
5.96250948652303
30
0.000000000000000
11
-47.6456575682382
21
5.93122751519226
31
0.000000000000000
  0
LINE
  5
F1089B
330
F1089C
100
AcDbEntity
8
Geo
100
AcDbLine
10
-47.6456575682382
20
5.93122751519226
30
0.000000000000000
11
-47.5456575682382
21
5.90063681355546
31
0.000000000000000
  0
LINE
  5
F1089D
330
F1089E
100
AcDbEntity
8
Geo
100
AcDbLine
10
-47.5456575682382
20
5.90063681355546
30
0.000000000000000
11
-47.4456575682382
21
5.87074375456482
31
0.000000000000000
  0
LINE
  5
F1089F
330
F108A0
100
AcDbEntity
8
Geo
100
AcDbLine
10
-47.4456575682382
20
5.87074375456482
30
0.000000000000000
11
-47.3456575682382
21
5.84155456583283
31
0.000000000000000
  0
LINE
  5
F108A1
330
F108A2
100
AcDbEntity
8
Geo
100
AcDbLine
10
-47.3456575682382
20
5.84155456583283
30
0.000000000000000
11
-47.2456575682382
21
5.81307532833492
31
0.000000000000000
  0
LINE
  5
F108A3
330
F108A4
100
AcDbEntity
8
Geo
100
AcDbLine
10
-47.2456575682382
20
5.81307532833492
30
0.000000000000000
11
-47.1456575682382
21
5.78531197514256
31
0.000000000000000
  0
LINE
  5
F108A5
330
F108A6
100
AcDbEntity
8
Geo
100
AcDbLine
10
-47.1456575682382
20
5.78531197514256
30
0.000000000000000
11
-47.0456575682382
21
5.75827029018724
31
0.000000000000000
  0
LINE
  5
F108A7
330
F108A8
100
AcDbEntity
8
Geo
100
AcDbLine
10
-47.0456575682382
20
5.75827029018724
30
0.000000000000000
11
-46.9456575682382
21
5.73195590705553
31
0.000000000000000
  0
LINE
  5
F108A9
330
F108AA
100
AcDbEntity
8
Geo
100
AcDbLine
10
-46.9456575682382
20
5.73195590705553
30
0.000000000000000
11
-46.8456575682382
21
5.70637430781539
31
0.000000000000000
  0
LINE
  5
F108AB
330
F108AC
100
AcDbEntity
8
Geo
100
AcDbLine
10
-46.8456575682382
20
5.70637430781539
30
0.000000000000000
11
-46.7456575682382
21
5.68153082187416
31
0.000000000000000
  0
LINE
  5
F108AD
330
F108AE
100
AcDbEntity
8
Geo
100
AcDbLine
10
-46.7456575682382
20
5.68153082187416
30
0.000000000000000
11
-46.6456575682382
21
5.65743062486820
31
0.000000000000000
  0
LINE
  5
F108AF
330
F108B0
100
AcDbEntity
8
Geo
100
AcDbLine
10
-46.6456575682382
20
5.65743062486820
30
0.000000000000000
11
-46.5456575682382
21
5.63407873758473
31
0.000000000000000
  0
LINE
  5
F108B1
330
F108B2
100
AcDbEntity
8
Geo
100
AcDbLine
10
-46.5456575682382
20
5.63407873758473
30
0.000000000000000
11
-46.4456575682382
21
5.61148002491581
31
0.000000000000000
  0
LINE
  5
F108B3
330
F108B4
100
AcDbEntity
8
Geo
100
AcDbLine
10
-46.4456575682382
20
5.61148002491581
30
0.000000000000000
11
-46.3456575682382
21
5.58963919484483
31
0.000000000000000
  0
LINE
  5
F108B5
330
F108B6
100
AcDbEntity
8
Geo
100
AcDbLine
10
-46.3456575682382
20
5.58963919484483
30
0.000000000000000
11
-46.2456575682382
21
5.56856079746574
31
0.000000000000000
  0
LINE
  5
F108B7
330
F108B8
100
AcDbEntity
8
Geo
100
AcDbLine
10
-46.2456575682382
20
5.56856079746574
30
0.000000000000000
11
-46.1456575682382
21
5.54824922403509
31
0.000000000000000
  0
LINE
  5
F108B9
330
F108BA
100
AcDbEntity
8
Geo
100
AcDbLine
10
-46.1456575682382
20
5.54824922403509
30
0.000000000000000
11
-46.0456575682382
21
5.52870870605719
31
0.000000000000000
  0
LINE
  5
F108BB
330
F108BC
100
AcDbEntity
8
Geo
100
AcDbLine
10
-46.0456575682382
20
5.52870870605719
30
0.000000000000000
11
-45.9456575682382
21
5.50994331440264
31
0.000000000000000
  0
LINE
  5
F108BD
330
F108BE
100
AcDbEntity
8
Geo
100
AcDbLine
10
-45.9456575682382
20
5.50994331440264
30
0.000000000000000
11
-45.8456575682382
21
5.49195695846014
31
0.000000000000000
  0
LINE
  5
F108BF
330
F108C0
100
AcDbEntity
8
Geo
100
AcDbLine
10
-45.8456575682382
20
5.49195695846014
30
0.000000000000000
11
-45.7456575682382
21
5.47475338532214
31
0.000000000000000
  0
LINE
  5
F108C1
330
F108C2
100
AcDbEntity
8
Geo
100
AcDbLine
10
-45.7456575682382
20
5.47475338532214
30
0.000000000000000
11
-45.6456575682382
21
5.45833617900414
31
0.000000000000000
  0
LINE
  5
F108C3
330
F108C4
100
AcDbEntity
8
Geo
100
AcDbLine
10
-45.6456575682382
20
5.45833617900414
30
0.000000000000000
11
-45.5456575682382
21
5.44270875969809
31
0.000000000000000
  0
LINE
  5
F108C5
330
F108C6
100
AcDbEntity
8
Geo
100
AcDbLine
10
-45.5456575682382
20
5.44270875969809
30
0.000000000000000
11
-45.4456575682382
21
5.42787438305981
31
0.000000000000000
  0
LINE
  5
F108C7
330
F108C8
100
AcDbEntity
8
Geo
100
AcDbLine
10
-45.4456575682382
20
5.42787438305981
30
0.000000000000000
11
-45.3456575682382
21
5.41383613953080
31
0.000000000000000
  0
LINE
  5
F108C9
330
F108CA
100
AcDbEntity
8
Geo
100
AcDbLine
10
-45.3456575682382
20
5.41383613953080
30
0.000000000000000
11
-45.2456575682382
21
5.40059695369433
31
0.000000000000000
  0
LINE
  5
F108CB
330
F108CC
100
AcDbEntity
8
Geo
100
AcDbLine
10
-45.2456575682382
20
5.40059695369433
30
0.000000000000000
11
-45.1456575682382
21
5.38815958366624
31
0.000000000000000
  0
LINE
  5
F108CD
330
F108CE
100
AcDbEntity
8
Geo
100
AcDbLine
10
-45.1456575682382
20
5.38815958366624
30
0.000000000000000
11
-45.0456575682382
21
5.37652662052030
31
0.000000000000000
  0
LINE
  5
F108CF
330
F108D0
100
AcDbEntity
8
Geo
100
AcDbLine
10
-45.0456575682382
20
5.37652662052030
30
0.000000000000000
11
-44.9456575682382
21
5.36570048774844
31
0.000000000000000
  0
LINE
  5
F108D1
330
F108D2
100
AcDbEntity
8
Geo
100
AcDbLine
10
-44.9456575682382
20
5.36570048774844
30
0.000000000000000
11
-44.8456575682382
21
5.35568344075581
31
0.000000000000000
  0
LINE
  5
F108D3
330
F108D4
100
AcDbEntity
8
Geo
100
AcDbLine
10
-44.8456575682382
20
5.35568344075581
30
0.000000000000000
11
-44.7456575682382
21
5.34647756639097
31
0.000000000000000
  0
LINE
  5
F108D5
330
F108D6
100
AcDbEntity
8
Geo
100
AcDbLine
10
-44.7456575682382
20
5.34647756639097
30
0.000000000000000
11
-44.6456575682382
21
5.33808478251113
31
0.000000000000000
  0
LINE
  5
F108D7
330
F108D8
100
AcDbEntity
8
Geo
100
AcDbLine
10
-44.6456575682382
20
5.33808478251113
30
0.000000000000000
11
-44.5456575682382
21
5.33050683758257
31
0.000000000000000
  0
LINE
  5
F108D9
330
F108DA
100
AcDbEntity
8
Geo
100
AcDbLine
10
-44.5456575682382
20
5.33050683758257
30
0.000000000000000
11
-44.4456575682382
21
5.32374531031641
31
0.000000000000000
  0
LINE
  5
F108DB
330
F108DC
100
AcDbEntity
8
Geo
100
AcDbLine
10
-44.4456575682382
20
5.32374531031641
30
0.000000000000000
11
-44.3456575682382
21
5.31780160933970
31
0.000000000000000
  0
LINE
  5
F108DD
330
F108DE
100
AcDbEntity
8
Geo
100
AcDbLine
10
-44.3456575682382
20
5.31780160933970
30
0.000000000000000
11
-44.2456575682382
21
5.31267697290199
31
0.000000000000000
  0
LINE
  5
F108DF
330
F108E0
100
AcDbEntity
8
Geo
100
AcDbLine
10
-44.2456575682382
20
5.31267697290199
30
0.000000000000000
11
-44.1456575682382
21
5.30837246861733
31
0.000000000000000
  0
LINE
  5
F108E1
330
F108E2
100
AcDbEntity
8
Geo
100
AcDbLine
10
-44.1456575682382
20
5.30837246861733
30
0.000000000000000
11
-44.0456575682382
21
5.30488899324188
31
0.000000000000000
  0
LINE
  5
F108E3
330
F108E4
100
AcDbEntity
8
Geo
100
AcDbLine
10
-44.0456575682382
20
5.30488899324188
30
0.000000000000000
11
-43.9456575682382
21
5.30222727248707
31
0.000000000000000
  0
LINE
  5
F108E5
330
F108E6
100
AcDbEntity
8
Geo
100
AcDbLine
10
-43.9456575682382
20
5.30222727248707
30
0.000000000000000
11
-43.8456575682382
21
5.30038786086844
31
0.000000000000000
  0
LINE
  5
F108E7
330
F108E8
100
AcDbEntity
8
Geo
100
AcDbLine
10
-43.8456575682382
20
5.30038786086844
30
0.000000000000000
11
-43.7456575682382
21
5.29937114159008
31
0.000000000000000
  0
LINE
  5
F108E9
330
F108EA
100
AcDbEntity
8
Geo
100
AcDbLine
10
-43.6456575682382
20
13.1995819787461
30
0.000000000000000
11
-43.5456575682382
21
13.1989528493407
31
0.000000000000000
  0
LINE
  5
F108EB
330
F108EC
100
AcDbEntity
8
Geo
100
AcDbLine
10
-43.5456575682382
20
13.1989528493407
30
0.000000000000000
11
-43.4456575682382
21
13.1975009064712
31
0.000000000000000
  0
LINE
  5
F108ED
330
F108EE
100
AcDbEntity
8
Geo
100
AcDbLine
10
-43.4456575682382
20
13.1975009064712
30
0.000000000000000
11
-43.3456575682382
21
13.1952264526203
31
0.000000000000000
  0
LINE
  5
F108EF
330
F108F0
100
AcDbEntity
8
Geo
100
AcDbLine
10
-43.3456575682382
20
13.1952264526203
30
0.000000000000000
11
-43.2456575682382
21
13.1921299616243
31
0.000000000000000
  0
LINE
  5
F108F1
330
F108F2
100
AcDbEntity
8
Geo
100
AcDbLine
10
-43.2456575682382
20
13.1921299616243
30
0.000000000000000
11
-43.1456575682382
21
13.1882120785744
31
0.000000000000000
  0
LINE
  5
F108F3
330
F108F4
100
AcDbEntity
8
Geo
100
AcDbLine
10
-43.1456575682382
20
13.1882120785744
30
0.000000000000000
11
-43.0456575682382
21
13.1834736196820
31
0.000000000000000
  0
LINE
  5
F108F5
330
F108F6
100
AcDbEntity
8
Geo
100
AcDbLine
10
-43.0456575682382
20
13.1834736196820
30
0.000000000000000
11
-42.9456575682382
21
13.1779155721090
31
0.000000000000000
  0
LINE
  5
F108F7
330
F108F8
100
AcDbEntity
8
Geo
100
AcDbLine
10
-42.9456575682382
20
13.1779155721090
30
0.000000000000000
11
-42.8456575682382
21
13.1715390937617
31
0.000000000000000
  0
LINE
  5
F108F9
330
F108FA
100
AcDbEntity
8
Geo
100
AcDbLine
10
-42.8456575682382
20
13.1715390937617
30
0.000000000000000
11
-42.7456575682382
21
13.1643455130501
31
0.000000000000000
  0
LINE
  5
F108FB
330
F108FC
100
AcDbEntity
8
Geo
100
AcDbLine
10
-42.7456575682382
20
13.1643455130501
30
0.000000000000000
11
-42.6456575682382
21
13.1563363286108
31
0.000000000000000
  0
LINE
  5
F108FD
330
F108FE
100
AcDbEntity
8
Geo
100
AcDbLine
10
-42.6456575682382
20
13.1563363286108
30
0.000000000000000
11
-42.5456575682382
21
13.1475132089951
31
0.000000000000000
  0
LINE
  5
F108FF
330
F10900
100
AcDbEntity
8
Geo
100
AcDbLine
10
-42.5456575682382
20
13.1475132089951
30
0.000000000000000
11
-42.4456575682382
21
13.1378779923208
31
0.000000000000000
  0
LINE
  5
F10901
330
F10902
100
AcDbEntity
8
Geo
100
AcDbLine
10
-42.4456575682382
20
13.1378779923208
30
0.000000000000000
11
-42.3456575682382
21
13.1274326858899
31
0.000000000000000
  0
LINE
  5
F10903
330
F10904
100
AcDbEntity
8
Geo
100
AcDbLine
10
-42.3456575682382
20
13.1274326858899
30
0.000000000000000
11
-42.2456575682382
21
13.1161794657702
31
0.000000000000000
  0
LINE
  5
F10905
330
F10906
100
AcDbEntity
8
Geo
100
AcDbLine
10
-42.2456575682382
20
13.1161794657702
30
0.000000000000000
11
-42.1456575682382
21
13.1041206763418
31
0.000000000000000
  0
LINE
  5
F10907
330
F10908
100
AcDbEntity
8
Geo
100
AcDbLine
10
-42.1456575682382
20
13.1041206763418
30
0.000000000000000
11
-42.0456575682382
21
13.0912588298089
31
0.000000000000000
  0
LINE
  5
F10909
330
F1090A
100
AcDbEntity
8
Geo
100
AcDbLine
10
-42.0456575682382
20
13.0912588298089
30
0.000000000000000
11
-41.9456575682382
21
13.0775966056763
31
0.000000000000000
  0
LINE
  5
F1090B
330
F1090C
100
AcDbEntity
8
Geo
100
AcDbLine
10
-41.9456575682382
20
13.0775966056763
30
0.000000000000000
11
-41.8456575682382
21
13.0631368501913
31
0.000000000000000
  0
LINE
  5
F1090D
330
F1090E
100
AcDbEntity
8
Geo
100
AcDbLine
10
-41.8456575682382
20
13.0631368501913
30
0.000000000000000
11
-41.7456575682382
21
13.0478825757508
31
0.000000000000000
  0
LINE
  5
F1090F
330
F10910
100
AcDbEntity
8
Geo
100
AcDbLine
10
-41.7456575682382
20
13.0478825757508
30
0.000000000000000
11
-41.6456575682382
21
13.0318369602733
31
0.000000000000000
  0
LINE
  5
F10911
330
F10912
100
AcDbEntity
8
Geo
100
AcDbLine
10
-41.6456575682382
20
13.0318369602733
30
0.000000000000000
11
-41.5456575682382
21
13.0150033465373
31
0.000000000000000
  0
LINE
  5
F10913
330
F10914
100
AcDbEntity
8
Geo
100
AcDbLine
10
-41.5456575682382
20
13.0150033465373
30
0.000000000000000
11
-41.4456575682382
21
12.9973852414849
31
0.000000000000000
  0
LINE
  5
F10915
330
F10916
100
AcDbEntity
8
Geo
100
AcDbLine
10
-41.4456575682382
20
12.9973852414849
30
0.000000000000000
11
-41.3456575682382
21
12.9789863154909
31
0.000000000000000
  0
LINE
  5
F10917
330
F10918
100
AcDbEntity
8
Geo
100
AcDbLine
10
-41.3456575682382
20
12.9789863154909
30
0.000000000000000
11
-41.2456575682382
21
12.9598104015983
31
0.000000000000000
  0
LINE
  5
F10919
330
F1091A
100
AcDbEntity
8
Geo
100
AcDbLine
10
-41.2456575682382
20
12.9598104015983
30
0.000000000000000
11
-41.1456575682382
21
12.9398614947198
31
0.000000000000000
  0
LINE
  5
F1091B
330
F1091C
100
AcDbEntity
8
Geo
100
AcDbLine
10
-41.1456575682382
20
12.9398614947198
30
0.000000000000000
11
-41.0456575682381
21
12.9191437508055
31
0.000000000000000
  0
LINE
  5
F1091D
330
F1091E
100
AcDbEntity
8
Geo
100
AcDbLine
10
-41.0456575682381
20
12.9191437508055
30
0.000000000000000
11
-40.9456575682381
21
12.8976614859772
31
0.000000000000000
  0
LINE
  5
F1091F
330
F10920
100
AcDbEntity
8
Geo
100
AcDbLine
10
-40.9456575682381
20
12.8976614859772
30
0.000000000000000
11
-40.8456575682381
21
12.8754191756289
31
0.000000000000000
  0
LINE
  5
F10921
330
F10922
100
AcDbEntity
8
Geo
100
AcDbLine
10
-40.8456575682381
20
12.8754191756289
30
0.000000000000000
11
-40.7456575682381
21
12.8524214534950
31
0.000000000000000
  0
LINE
  5
F10923
330
F10924
100
AcDbEntity
8
Geo
100
AcDbLine
10
-40.7456575682381
20
12.8524214534950
30
0.000000000000000
11
-40.6456575682381
21
12.8286731106843
31
0.000000000000000
  0
LINE
  5
F10925
330
F10926
100
AcDbEntity
8
Geo
100
AcDbLine
10
-40.6456575682381
20
12.8286731106843
30
0.000000000000000
11
-40.5456575682381
21
12.8041790946823
31
0.000000000000000
  0
LINE
  5
F10927
330
F10928
100
AcDbEntity
8
Geo
100
AcDbLine
10
-40.5456575682381
20
12.8041790946823
30
0.000000000000000
11
-40.4456575682381
21
12.7789445083205
31
0.000000000000000
  0
LINE
  5
F10929
330
F1092A
100
AcDbEntity
8
Geo
100
AcDbLine
10
-40.4456575682381
20
12.7789445083205
30
0.000000000000000
11
-40.3456575682381
21
12.7529746087131
31
0.000000000000000
  0
LINE
  5
F1092B
330
F1092C
100
AcDbEntity
8
Geo
100
AcDbLine
10
-40.3456575682381
20
12.7529746087131
30
0.000000000000000
11
-40.2456575682381
21
12.7262748061619
31
0.000000000000000
  0
LINE
  5
F1092D
330
F1092E
100
AcDbEntity
8
Geo
100
AcDbLine
10
-40.2456575682381
20
12.7262748061619
30
0.000000000000000
11
-40.1456575682381
21
12.6988506630291
31
0.000000000000000
  0
LINE
  5
F1092F
330
F10930
100
AcDbEntity
8
Geo
100
AcDbLine
10
-40.1456575682381
20
12.6988506630291
30
0.000000000000000
11
-40.0456575682381
21
12.6707078925789
31
0.000000000000000
  0
LINE
  5
F10931
330
F10932
100
AcDbEntity
8
Geo
100
AcDbLine
10
-40.0456575682381
20
12.6707078925789
30
0.000000000000000
11
-39.9456575682381
21
12.6418523577865
31
0.000000000000000
  0
LINE
  5
F10933
330
F10934
100
AcDbEntity
8
Geo
100
AcDbLine
10
-39.9456575682381
20
12.6418523577865
30
0.000000000000000
11
-39.8456575682381
21
12.6122900701173
31
0.000000000000000
  0
LINE
  5
F10935
330
F10936
100
AcDbEntity
8
Geo
100
AcDbLine
10
-39.8456575682381
20
12.6122900701173
30
0.000000000000000
11
-39.7456575682381
21
12.5820271882743
31
0.000000000000000
  0
LINE
  5
F10937
330
F10938
100
AcDbEntity
8
Geo
100
AcDbLine
10
-39.7456575682381
20
12.5820271882743
30
0.000000000000000
11
-39.6456575682381
21
12.5510700169152
31
0.000000000000000
  0
LINE
  5
F10939
330
F1093A
100
AcDbEntity
8
Geo
100
AcDbLine
10
-39.6456575682381
20
12.5510700169152
30
0.000000000000000
11
-39.5456575682381
21
12.5194250053387
31
0.000000000000000
  0
LINE
  5
F1093B
330
F1093C
100
AcDbEntity
8
Geo
100
AcDbLine
10
-39.5456575682381
20
12.5194250053387
30
0.000000000000000
11
-39.4456575682381
21
12.4870987461410
31
0.000000000000000
  0
LINE
  5
F1093D
330
F1093E
100
AcDbEntity
8
Geo
100
AcDbLine
10
-39.4456575682381
20
12.4870987461410
30
0.000000000000000
11
-39.3456575682381
21
12.4540979738425
31
0.000000000000000
  0
LINE
  5
F1093F
330
F10940
100
AcDbEntity
8
Geo
100
AcDbLine
10
-39.3456575682381
20
12.4540979738425
30
0.000000000000000
11
-39.2456575682381
21
12.4204295634849
31
0.000000000000000
  0
LINE
  5
F10941
330
F10942
100
AcDbEntity
8
Geo
100
AcDbLine
10
-39.2456575682381
20
12.4204295634849
30
0.000000000000000
11
-39.1456575682381
21
12.3861005291985
31
0.000000000000000
  0
LINE
  5
F10943
330
F10944
100
AcDbEntity
8
Geo
100
AcDbLine
10
-39.1456575682381
20
12.3861005291985
30
0.000000000000000
11
-39.0456575682381
21
12.3511180227412
31
0.000000000000000
  0
LINE
  5
F10945
330
F10946
100
AcDbEntity
8
Geo
100
AcDbLine
10
-39.0456575682381
20
12.3511180227412
30
0.000000000000000
11
-38.9456575682381
21
12.3154893320087
31
0.000000000000000
  0
LINE
  5
F10947
330
F10948
100
AcDbEntity
8
Geo
100
AcDbLine
10
-38.9456575682381
20
12.3154893320087
30
0.000000000000000
11
-38.8456575682381
21
12.2792218795161
31
0.000000000000000
  0
LINE
  5
F10949
330
F1094A
100
AcDbEntity
8
Geo
100
AcDbLine
10
-38.8456575682381
20
12.2792218795161
30
0.000000000000000
11
-38.7456575682381
21
12.2423232208514
31
0.000000000000000
  0
LINE
  5
F1094B
330
F1094C
100
AcDbEntity
8
Geo
100
AcDbLine
10
-38.7456575682381
20
12.2423232208514
30
0.000000000000000
11
-38.6456575682381
21
12.2048010431018
31
0.000000000000000
  0
LINE
  5
F1094D
330
F1094E
100
AcDbEntity
8
Geo
100
AcDbLine
10
-38.6456575682381
20
12.2048010431018
30
0.000000000000000
11
-38.5456575682381
21
12.1666631632519
31
0.000000000000000
  0
LINE
  5
F1094F
330
F10950
100
AcDbEntity
8
Geo
100
AcDbLine
10
-38.5456575682381
20
12.1666631632519
30
0.000000000000000
11
-38.4456575682381
21
12.1279175265554
31
0.000000000000000
  0
LINE
  5
F10951
330
F10952
100
AcDbEntity
8
Geo
100
AcDbLine
10
-38.4456575682381
20
12.1279175265554
30
0.000000000000000
11
-38.3456575682381
21
12.0885722048797
31
0.000000000000000
  0
LINE
  5
F10953
330
F10954
100
AcDbEntity
8
Geo
100
AcDbLine
10
-38.3456575682381
20
12.0885722048797
30
0.000000000000000
11
-38.2456575682381
21
12.0486353950247
31
0.000000000000000
  0
LINE
  5
F10955
330
F10956
100
AcDbEntity
8
Geo
100
AcDbLine
10
-38.2456575682381
20
12.0486353950247
30
0.000000000000000
11
-38.1456575682381
21
12.0081154170146
31
0.000000000000000
  0
LINE
  5
F10957
330
F10958
100
AcDbEntity
8
Geo
100
AcDbLine
10
-38.1456575682381
20
12.0081154170146
30
0.000000000000000
11
-38.0456575682381
21
11.9670207123648
31
0.000000000000000
  0
LINE
  5
F10959
330
F1095A
100
AcDbEntity
8
Geo
100
AcDbLine
10
-38.0456575682381
20
11.9670207123648
30
0.000000000000000
11
-37.9456575682381
21
11.9253598423237
31
0.000000000000000
  0
LINE
  5
F1095B
330
F1095C
100
AcDbEntity
8
Geo
100
AcDbLine
10
-37.9456575682381
20
11.9253598423237
30
0.000000000000000
11
-37.8456575682381
21
11.8831414860884
31
0.000000000000000
  0
LINE
  5
F1095D
330
F1095E
100
AcDbEntity
8
Geo
100
AcDbLine
10
-37.8456575682381
20
11.8831414860884
30
0.000000000000000
11
-37.7456575682381
21
11.8403744389971
31
0.000000000000000
  0
LINE
  5
F1095F
330
F10960
100
AcDbEntity
8
Geo
100
AcDbLine
10
-37.7456575682381
20
11.8403744389971
30
0.000000000000000
11
-37.6456575682381
21
11.7970676106965
31
0.000000000000000
  0
LINE
  5
F10961
330
F10962
100
AcDbEntity
8
Geo
100
AcDbLine
10
-37.6456575682381
20
11.7970676106965
30
0.000000000000000
11
-37.5456575682381
21
11.7532300232861
31
0.000000000000000
  0
LINE
  5
F10963
330
F10964
100
AcDbEntity
8
Geo
100
AcDbLine
10
-37.5456575682381
20
11.7532300232861
30
0.000000000000000
11
-37.4456575682381
21
11.7088708094378
31
0.000000000000000
  0
LINE
  5
F10965
330
F10966
100
AcDbEntity
8
Geo
100
AcDbLine
10
-37.4456575682381
20
11.7088708094378
30
0.000000000000000
11
-37.3456575682381
21
11.6639992104943
31
0.000000000000000
  0
LINE
  5
F10967
330
F10968
100
AcDbEntity
8
Geo
100
AcDbLine
10
-37.3456575682381
20
11.6639992104943
30
0.000000000000000
11
-37.2456575682381
21
11.6186245745428
31
0.000000000000000
  0
LINE
  5
F10969
330
F1096A
100
AcDbEntity
8
Geo
100
AcDbLine
10
-37.2456575682381
20
11.6186245745428
30
0.000000000000000
11
-37.1456575682381
21
11.5727563544686
31
0.000000000000000
  0
LINE
  5
F1096B
330
F1096C
100
AcDbEntity
8
Geo
100
AcDbLine
10
-37.1456575682381
20
11.5727563544686
30
0.000000000000000
11
-37.0456575682381
21
11.5264041059848
31
0.000000000000000
  0
LINE
  5
F1096D
330
F1096E
100
AcDbEntity
8
Geo
100
AcDbLine
10
-37.0456575682381
20
11.5264041059848
30
0.000000000000000
11
-36.9456575682381
21
11.4795774856423
31
0.000000000000000
  0
LINE
  5
F1096F
330
F10970
100
AcDbEntity
8
Geo
100
AcDbLine
10
-36.9456575682381
20
11.4795774856423
30
0.000000000000000
11
-36.8456575682381
21
11.4322862488176
31
0.000000000000000
  0
LINE
  5
F10971
330
F10972
100
AcDbEntity
8
Geo
100
AcDbLine
10
-36.8456575682381
20
11.4322862488176
30
0.000000000000000
11
-36.7456575682381
21
11.3845402476806
31
0.000000000000000
  0
LINE
  5
F10973
330
F10974
100
AcDbEntity
8
Geo
100
AcDbLine
10
-36.7456575682381
20
11.3845402476806
30
0.000000000000000
11
-36.6456575682381
21
11.3363494291422
31
0.000000000000000
  0
LINE
  5
F10975
330
F10976
100
AcDbEntity
8
Geo
100
AcDbLine
10
-36.6456575682381
20
11.3363494291422
30
0.000000000000000
11
-36.5456575682381
21
11.2877238327821
31
0.000000000000000
  0
LINE
  5
F10977
330
F10978
100
AcDbEntity
8
Geo
100
AcDbLine
10
-36.5456575682381
20
11.2877238327821
30
0.000000000000000
11
-36.4456575682381
21
11.2386735887568
31
0.000000000000000
  0
LINE
  5
F10979
330
F1097A
100
AcDbEntity
8
Geo
100
AcDbLine
10
-36.4456575682381
20
11.2386735887568
30
0.000000000000000
11
-36.3456575682381
21
11.1892089156899
31
0.000000000000000
  0
LINE
  5
F1097B
330
F1097C
100
AcDbEntity
8
Geo
100
AcDbLine
10
-36.3456575682381
20
11.1892089156899
30
0.000000000000000
11
-36.2456575682381
21
11.1393401185426
31
0.000000000000000
  0
LINE
  5
F1097D
330
F1097E
100
AcDbEntity
8
Geo
100
AcDbLine
10
-36.2456575682381
20
11.1393401185426
30
0.000000000000000
11
-36.1456575682381
21
11.0890775864673
31
0.000000000000000
  0
LINE
  5
F1097F
330
F10980
100
AcDbEntity
8
Geo
100
AcDbLine
10
-36.1456575682381
20
11.0890775864673
30
0.000000000000000
11
-36.0456575682381
21
11.0384317906431
31
0.000000000000000
  0
LINE
  5
F10981
330
F10982
100
AcDbEntity
8
Geo
100
AcDbLine
10
-36.0456575682381
20
11.0384317906431
30
0.000000000000000
11
-35.9456575682381
21
10.9874132820942
31
0.000000000000000
  0
LINE
  5
F10983
330
F10984
100
AcDbEntity
8
Geo
100
AcDbLine
10
-35.9456575682381
20
10.9874132820942
30
0.000000000000000
11
-35.8456575682381
21
10.9360326894921
31
0.000000000000000
  0
LINE
  5
F10985
330
F10986
100
AcDbEntity
8
Geo
100
AcDbLine
10
-35.8456575682381
20
10.9360326894921
30
0.000000000000000
11
-35.7456575682381
21
10.8843007169411
31
0.000000000000000
  0
LINE
  5
F10987
330
F10988
100
AcDbEntity
8
Geo
100
AcDbLine
10
-35.7456575682381
20
10.8843007169411
30
0.000000000000000
11
-35.6456575682381
21
10.8322281417483
31
0.000000000000000
  0
LINE
  5
F10989
330
F1098A
100
AcDbEntity
8
Geo
100
AcDbLine
10
-35.6456575682381
20
10.8322281417483
30
0.000000000000000
11
-35.5456575682381
21
10.7798258121785
31
0.000000000000000
  0
LINE
  5
F1098B
330
F1098C
100
AcDbEntity
8
Geo
100
AcDbLine
10
-35.5456575682381
20
10.7798258121785
30
0.000000000000000
11
-35.4456575682381
21
10.7271046451943
31
0.000000000000000
  0
LINE
  5
F1098D
330
F1098E
100
AcDbEntity
8
Geo
100
AcDbLine
10
-35.4456575682381
20
10.7271046451943
30
0.000000000000000
11
-35.3456575682381
21
10.6740756241814
31
0.000000000000000
  0
LINE
  5
F1098F
330
F10990
100
AcDbEntity
8
Geo
100
AcDbLine
10
-35.3456575682381
20
10.6740756241814
30
0.000000000000000
11
-35.2456575682381
21
10.6207497966606
31
0.000000000000000
  0
LINE
  5
F10991
330
F10992
100
AcDbEntity
8
Geo
100
AcDbLine
10
-35.2456575682381
20
10.6207497966606
30
0.000000000000000
11
-35.1456575682381
21
10.5671382719866
31
0.000000000000000
  0
LINE
  5
F10993
330
F10994
100
AcDbEntity
8
Geo
100
AcDbLine
10
-35.1456575682381
20
10.5671382719866
30
0.000000000000000
11
-35.0456575682381
21
10.5132522190331
31
0.000000000000000
  0
LINE
  5
F10995
330
F10996
100
AcDbEntity
8
Geo
100
AcDbLine
10
-35.0456575682381
20
10.5132522190331
30
0.000000000000000
11
-34.9456575682381
21
10.4591028638661
31
0.000000000000000
  0
LINE
  5
F10997
330
F10998
100
AcDbEntity
8
Geo
100
AcDbLine
10
-34.9456575682381
20
10.4591028638661
30
0.000000000000000
11
-34.8456575682381
21
10.4047014874055
31
0.000000000000000
  0
LINE
  5
F10999
330
F1099A
100
AcDbEntity
8
Geo
100
AcDbLine
10
-34.8456575682381
20
10.4047014874055
30
0.000000000000000
11
-34.7456575682381
21
10.3500594230747
31
0.000000000000000
  0
LINE
  5
F1099B
330
F1099C
100
AcDbEntity
8
Geo
100
AcDbLine
10
-34.7456575682381
20
10.3500594230747
30
0.000000000000000
11
-34.6456575682381
21
10.2951880544394
31
0.000000000000000
  0
LINE
  5
F1099D
330
F1099E
100
AcDbEntity
8
Geo
100
AcDbLine
10
-34.6456575682381
20
10.2951880544394
30
0.000000000000000
11
-34.5456575682381
21
10.2400988128363
31
0.000000000000000
  0
LINE
  5
F1099F
330
F109A0
100
AcDbEntity
8
Geo
100
AcDbLine
10
-34.5456575682381
20
10.2400988128363
30
0.000000000000000
11
-34.4456575682381
21
10.1848031749914
31
0.000000000000000
  0
LINE
  5
F109A1
330
F109A2
100
AcDbEntity
8
Geo
100
AcDbLine
10
-34.4456575682381
20
10.1848031749914
30
0.000000000000000
11
-34.3456575682381
21
10.1293126606293
31
0.000000000000000
  0
LINE
  5
F109A3
330
F109A4
100
AcDbEntity
8
Geo
100
AcDbLine
10
-34.3456575682381
20
10.1293126606293
30
0.000000000000000
11
-34.2456575682381
21
10.0736388300732
31
0.000000000000000
  0
LINE
  5
F109A5
330
F109A6
100
AcDbEntity
8
Geo
100
AcDbLine
10
-34.2456575682381
20
10.0736388300732
30
0.000000000000000
11
-34.1456575682381
21
10.0177932818363
31
0.000000000000000
  0
LINE
  5
F109A7
330
F109A8
100
AcDbEntity
8
Geo
100
AcDbLine
10
-34.1456575682381
20
10.0177932818363
30
0.000000000000000
11
-34.0456575682380
21
9.96178765020592
31
0.000000000000000
  0
LINE
  5
F109A9
330
F109AA
100
AcDbEntity
8
Geo
100
AcDbLine
10
-34.0456575682380
20
9.96178765020592
30
0.000000000000000
11
-33.9456575682380
21
9.90563360281940
31
0.000000000000000
  0
LINE
  5
F109AB
330
F109AC
100
AcDbEntity
8
Geo
100
AcDbLine
10
-33.9456575682380
20
9.90563360281940
30
0.000000000000000
11
-33.8456575682380
21
9.84934283823351
31
0.000000000000000
  0
LINE
  5
F109AD
330
F109AE
100
AcDbEntity
8
Geo
100
AcDbLine
10
-33.8456575682380
20
9.84934283823351
30
0.000000000000000
11
-33.7456575682380
21
9.79292708348727
31
0.000000000000000
  0
LINE
  5
F109AF
330
F109B0
100
AcDbEntity
8
Geo
100
AcDbLine
10
-33.7456575682380
20
9.79292708348727
30
0.000000000000000
11
-33.6456575682380
21
9.73639809165887
31
0.000000000000000
  0
LINE
  5
F109B1
330
F109B2
100
AcDbEntity
8
Geo
100
AcDbLine
10
-33.6456575682380
20
9.73639809165887
30
0.000000000000000
11
-33.5456575682380
21
9.67976763941715
31
0.000000000000000
  0
LINE
  5
F109B3
330
F109B4
100
AcDbEntity
8
Geo
100
AcDbLine
10
-33.5456575682380
20
9.67976763941715
30
0.000000000000000
11
-33.4456575682380
21
9.62304752456817
31
0.000000000000000
  0
LINE
  5
F109B5
330
F109B6
100
AcDbEntity
8
Geo
100
AcDbLine
10
-33.4456575682380
20
9.62304752456817
30
0.000000000000000
11
-33.3456575682380
21
9.56624956359738
31
0.000000000000000
  0
LINE
  5
F109B7
330
F109B8
100
AcDbEntity
8
Geo
100
AcDbLine
10
-33.3456575682380
20
9.56624956359738
30
0.000000000000000
11
-33.2456575682380
21
9.50938558920787
31
0.000000000000000
  0
LINE
  5
F109B9
330
F109BA
100
AcDbEntity
8
Geo
100
AcDbLine
10
-33.2456575682380
20
9.50938558920787
30
0.000000000000000
11
-33.1456575682380
21
9.45246744785531
31
0.000000000000000
  0
LINE
  5
F109BB
330
F109BC
100
AcDbEntity
8
Geo
100
AcDbLine
10
-33.1456575682380
20
9.45246744785531
30
0.000000000000000
11
-33.0456575682380
21
9.39550699727995
31
0.000000000000000
  0
LINE
  5
F109BD
330
F109BE
100
AcDbEntity
8
Geo
100
AcDbLine
10
-33.0456575682380
20
9.39550699727995
30
0.000000000000000
11
-32.9456575682380
21
9.33851610403631
31
0.000000000000000
  0
LINE
  5
F109BF
330
F109C0
100
AcDbEntity
8
Geo
100
AcDbLine
10
-32.9456575682380
20
9.33851610403631
30
0.000000000000000
11
-32.8456575682380
21
9.28150664102102
31
0.000000000000000
  0
LINE
  5
F109C1
330
F109C2
100
AcDbEntity
8
Geo
100
AcDbLine
10
-32.8456575682380
20
9.28150664102102
30
0.000000000000000
11
-32.7456575682380
21
9.22449048499934
31
0.000000000000000
  0
LINE
  5
F109C3
330
F109C4
100
AcDbEntity
8
Geo
100
AcDbLine
10
-32.7456575682380
20
9.22449048499934
30
0.000000000000000
11
-32.6456575682380
21
9.16747951413089
31
0.000000000000000
  0
LINE
  5
F109C5
330
F109C6
100
AcDbEntity
8
Geo
100
AcDbLine
10
-32.6456575682380
20
9.16747951413089
30
0.000000000000000
11
-32.5456575682380
21
9.11048560549506
31
0.000000000000000
  0
LINE
  5
F109C7
330
F109C8
100
AcDbEntity
8
Geo
100
AcDbLine
10
-32.5456575682380
20
9.11048560549506
30
0.000000000000000
11
-32.4456575682380
21
9.05352063261669
31
0.000000000000000
  0
LINE
  5
F109C9
330
F109CA
100
AcDbEntity
8
Geo
100
AcDbLine
10
-32.4456575682380
20
9.05352063261669
30
0.000000000000000
11
-32.3456575682380
21
8.99659646299242
31
0.000000000000000
  0
LINE
  5
F109CB
330
F109CC
100
AcDbEntity
8
Geo
100
AcDbLine
10
-32.3456575682380
20
8.99659646299242
30
0.000000000000000
11
-32.2456575682380
21
8.93972495561837
31
0.000000000000000
  0
LINE
  5
F109CD
330
F109CE
100
AcDbEntity
8
Geo
100
AcDbLine
10
-32.2456575682380
20
8.93972495561837
30
0.000000000000000
11
-32.1456575682380
21
8.88291795851954
31
0.000000000000000
  0
LINE
  5
F109CF
330
F109D0
100
AcDbEntity
8
Geo
100
AcDbLine
10
-32.1456575682380
20
8.88291795851954
30
0.000000000000000
11
-32.0456575682380
21
8.82618730628153
31
0.000000000000000
  0
LINE
  5
F109D1
330
F109D2
100
AcDbEntity
8
Geo
100
AcDbLine
10
-32.0456575682380
20
8.82618730628153
30
0.000000000000000
11
-31.9456575682380
21
8.76954481758504
31
0.000000000000000
  0
LINE
  5
F109D3
330
F109D4
100
AcDbEntity
8
Geo
100
AcDbLine
10
-31.9456575682380
20
8.76954481758504
30
0.000000000000000
11
-31.8456575682380
21
8.71300229274368
31
0.000000000000000
  0
LINE
  5
F109D5
330
F109D6
100
AcDbEntity
8
Geo
100
AcDbLine
10
-31.8456575682380
20
8.71300229274368
30
0.000000000000000
11
-31.7456575682380
21
8.65657151124561
31
0.000000000000000
  0
LINE
  5
F109D7
330
F109D8
100
AcDbEntity
8
Geo
100
AcDbLine
10
-31.7456575682380
20
8.65657151124561
30
0.000000000000000
11
-31.6456575682380
21
8.60026422929955
31
0.000000000000000
  0
LINE
  5
F109D9
330
F109DA
100
AcDbEntity
8
Geo
100
AcDbLine
10
-31.6456575682380
20
8.60026422929955
30
0.000000000000000
11
-31.5456575682380
21
8.54409217738558
31
0.000000000000000
  0
LINE
  5
F109DB
330
F109DC
100
AcDbEntity
8
Geo
100
AcDbLine
10
-31.5456575682380
20
8.54409217738558
30
0.000000000000000
11
-31.4456575682380
21
8.48806705781134
31
0.000000000000000
  0
LINE
  5
F109DD
330
F109DE
100
AcDbEntity
8
Geo
100
AcDbLine
10
-31.4456575682380
20
8.48806705781134
30
0.000000000000000
11
-31.3456575682380
21
8.43220054227411
31
0.000000000000000
  0
LINE
  5
F109DF
330
F109E0
100
AcDbEntity
8
Geo
100
AcDbLine
10
-31.3456575682380
20
8.43220054227411
30
0.000000000000000
11
-31.2456575682380
21
8.37650426942924
31
0.000000000000000
  0
LINE
  5
F109E1
330
F109E2
100
AcDbEntity
8
Geo
100
AcDbLine
10
-31.2456575682380
20
8.37650426942924
30
0.000000000000000
11
-31.1456575682380
21
8.32098984246545
31
0.000000000000000
  0
LINE
  5
F109E3
330
F109E4
100
AcDbEntity
8
Geo
100
AcDbLine
10
-31.1456575682380
20
8.32098984246545
30
0.000000000000000
11
-31.0456575682380
21
8.26566882668757
31
0.000000000000000
  0
LINE
  5
F109E5
330
F109E6
100
AcDbEntity
8
Geo
100
AcDbLine
10
-31.0456575682380
20
8.26566882668757
30
0.000000000000000
11
-30.9456575682380
21
8.21055274710713
31
0.000000000000000
  0
LINE
  5
F109E7
330
F109E8
100
AcDbEntity
8
Geo
100
AcDbLine
10
-30.9456575682380
20
8.21055274710713
30
0.000000000000000
11
-30.8456575682380
21
8.15565308604137
31
0.000000000000000
  0
LINE
  5
F109E9
330
F109EA
100
AcDbEntity
8
Geo
100
AcDbLine
10
-30.8456575682380
20
8.15565308604137
30
0.000000000000000
11
-30.7456575682380
21
8.10098128072109
31
0.000000000000000
  0
LINE
  5
F109EB
330
F109EC
100
AcDbEntity
8
Geo
100
AcDbLine
10
-30.7456575682380
20
8.10098128072109
30
0.000000000000000
11
-30.6456575682380
21
8.04654872090802
31
0.000000000000000
  0
LINE
  5
F109ED
330
F109EE
100
AcDbEntity
8
Geo
100
AcDbLine
10
-30.6456575682380
20
8.04654872090802
30
0.000000000000000
11
-30.5456575682380
21
7.99236674652191
31
0.000000000000000
  0
LINE
  5
F109EF
330
F109F0
100
AcDbEntity
8
Geo
100
AcDbLine
10
-30.5456575682380
20
7.99236674652191
30
0.000000000000000
11
-30.4456575682380
21
7.93844664527810
31
0.000000000000000
  0
LINE
  5
F109F1
330
F109F2
100
AcDbEntity
8
Geo
100
AcDbLine
10
-30.4456575682380
20
7.93844664527810
30
0.000000000000000
11
-30.3456575682380
21
7.88479965033601
31
0.000000000000000
  0
LINE
  5
F109F3
330
F109F4
100
AcDbEntity
8
Geo
100
AcDbLine
10
-30.3456575682380
20
7.88479965033601
30
0.000000000000000
11
-30.2456575682380
21
7.83143693795888
31
0.000000000000000
  0
LINE
  5
F109F5
330
F109F6
100
AcDbEntity
8
Geo
100
AcDbLine
10
-30.2456575682380
20
7.83143693795888
30
0.000000000000000
11
-30.1456575682380
21
7.77836962518545
31
0.000000000000000
  0
LINE
  5
F109F7
330
F109F8
100
AcDbEntity
8
Geo
100
AcDbLine
10
-30.1456575682380
20
7.77836962518545
30
0.000000000000000
11
-30.0456575682380
21
7.72560876751393
31
0.000000000000000
  0
LINE
  5
F109F9
330
F109FA
100
AcDbEntity
8
Geo
100
AcDbLine
10
-30.0456575682380
20
7.72560876751393
30
0.000000000000000
11
-29.9456575682380
21
7.67316535659886
31
0.000000000000000
  0
LINE
  5
F109FB
330
F109FC
100
AcDbEntity
8
Geo
100
AcDbLine
10
-29.9456575682380
20
7.67316535659886
30
0.000000000000000
11
-29.8456575682380
21
7.62105031796116
31
0.000000000000000
  0
LINE
  5
F109FD
330
F109FE
100
AcDbEntity
8
Geo
100
AcDbLine
10
-29.8456575682380
20
7.62105031796116
30
0.000000000000000
11
-29.7456575682380
21
7.56927450871205
31
0.000000000000000
  0
LINE
  5
F109FF
330
F10A00
100
AcDbEntity
8
Geo
100
AcDbLine
10
-29.7456575682380
20
7.56927450871205
30
0.000000000000000
11
-29.6456575682380
21
7.51784871529119
31
0.000000000000000
  0
LINE
  5
F10A01
330
F10A02
100
AcDbEntity
8
Geo
100
AcDbLine
10
-29.6456575682380
20
7.51784871529119
30
0.000000000000000
11
-29.5456575682380
21
7.46678365121955
31
0.000000000000000
  0
LINE
  5
F10A03
330
F10A04
100
AcDbEntity
8
Geo
100
AcDbLine
10
-29.5456575682380
20
7.46678365121955
30
0.000000000000000
11
-29.4456575682380
21
7.41608995486743
31
0.000000000000000
  0
LINE
  5
F10A05
330
F10A06
100
AcDbEntity
8
Geo
100
AcDbLine
10
-29.4456575682380
20
7.41608995486743
30
0.000000000000000
11
-29.3456575682380
21
7.36577818723823
31
0.000000000000000
  0
LINE
  5
F10A07
330
F10A08
100
AcDbEntity
8
Geo
100
AcDbLine
10
-29.3456575682380
20
7.36577818723823
30
0.000000000000000
11
-29.2456575682380
21
7.31585882976824
31
0.000000000000000
  0
LINE
  5
F10A09
330
F10A0A
100
AcDbEntity
8
Geo
100
AcDbLine
10
-29.2456575682380
20
7.31585882976824
30
0.000000000000000
11
-29.1456575682380
21
7.26634228214304
31
0.000000000000000
  0
LINE
  5
F10A0B
330
F10A0C
100
AcDbEntity
8
Geo
100
AcDbLine
10
-29.1456575682380
20
7.26634228214304
30
0.000000000000000
11
-29.0456575682380
21
7.21723886013096
31
0.000000000000000
  0
LINE
  5
F10A0D
330
F10A0E
100
AcDbEntity
8
Geo
100
AcDbLine
10
-29.0456575682380
20
7.21723886013096
30
0.000000000000000
11
-28.9456575682380
21
7.16855879343399
31
0.000000000000000
  0
LINE
  5
F10A0F
330
F10A10
100
AcDbEntity
8
Geo
100
AcDbLine
10
-28.9456575682380
20
7.16855879343399
30
0.000000000000000
11
-28.8456575682380
21
7.12031222355660
31
0.000000000000000
  0
LINE
  5
F10A11
330
F10A12
100
AcDbEntity
8
Geo
100
AcDbLine
10
-28.8456575682380
20
7.12031222355660
30
0.000000000000000
11
-28.7456575682380
21
7.07250920169304
31
0.000000000000000
  0
LINE
  5
F10A13
330
F10A14
100
AcDbEntity
8
Geo
100
AcDbLine
10
-28.7456575682380
20
7.07250920169304
30
0.000000000000000
11
-28.6456575682380
21
7.02515968663329
31
0.000000000000000
  0
LINE
  5
F10A15
330
F10A16
100
AcDbEntity
8
Geo
100
AcDbLine
10
-28.6456575682380
20
7.02515968663329
30
0.000000000000000
11
-28.5456575682380
21
6.97827354268839
31
0.000000000000000
  0
LINE
  5
F10A17
330
F10A18
100
AcDbEntity
8
Geo
100
AcDbLine
10
-28.5456575682380
20
6.97827354268839
30
0.000000000000000
11
-28.4456575682380
21
6.93186053763542
31
0.000000000000000
  0
LINE
  5
F10A19
330
F10A1A
100
AcDbEntity
8
Geo
100
AcDbLine
10
-28.4456575682380
20
6.93186053763542
30
0.000000000000000
11
-28.3456575682380
21
6.88593034068257
31
0.000000000000000
  0
LINE
  5
F10A1B
330
F10A1C
100
AcDbEntity
8
Geo
100
AcDbLine
10
-28.3456575682380
20
6.88593034068257
30
0.000000000000000
11
-28.2456575682380
21
6.84049252045473
31
0.000000000000000
  0
LINE
  5
F10A1D
330
F10A1E
100
AcDbEntity
8
Geo
100
AcDbLine
10
-28.2456575682380
20
6.84049252045473
30
0.000000000000000
11
-28.1456575682380
21
6.79555654300013
31
0.000000000000000
  0
LINE
  5
F10A1F
330
F10A20
100
AcDbEntity
8
Geo
100
AcDbLine
10
-28.1456575682380
20
6.79555654300013
30
0.000000000000000
11
-28.0456575682380
21
6.75113176981819
31
0.000000000000000
  0
LINE
  5
F10A21
330
F10A22
100
AcDbEntity
8
Geo
100
AcDbLine
10
-28.0456575682380
20
6.75113176981819
30
0.000000000000000
11
-27.9456575682380
21
6.70722745590932
31
0.000000000000000
  0
LINE
  5
F10A23
330
F10A24
100
AcDbEntity
8
Geo
100
AcDbLine
10
-27.9456575682380
20
6.70722745590932
30
0.000000000000000
11
-27.8456575682380
21
6.66385274784679
31
0.000000000000000
  0
LINE
  5
F10A25
330
F10A26
100
AcDbEntity
8
Geo
100
AcDbLine
10
-27.8456575682380
20
6.66385274784679
30
0.000000000000000
11
-27.7456575682380
21
6.62101668187122
31
0.000000000000000
  0
LINE
  5
F10A27
330
F10A28
100
AcDbEntity
8
Geo
100
AcDbLine
10
-27.7456575682380
20
6.62101668187122
30
0.000000000000000
11
-27.6456575682380
21
6.57872818200810
31
0.000000000000000
  0
LINE
  5
F10A29
330
F10A2A
100
AcDbEntity
8
Geo
100
AcDbLine
10
-27.6456575682380
20
6.57872818200810
30
0.000000000000000
11
-27.5456575682380
21
6.53699605820862
31
0.000000000000000
  0
LINE
  5
F10A2B
330
F10A2C
100
AcDbEntity
8
Geo
100
AcDbLine
10
-27.5456575682380
20
6.53699605820862
30
0.000000000000000
11
-27.4456575682380
21
6.49582900451429
31
0.000000000000000
  0
LINE
  5
F10A2D
330
F10A2E
100
AcDbEntity
8
Geo
100
AcDbLine
10
-27.4456575682380
20
6.49582900451429
30
0.000000000000000
11
-27.3456575682380
21
6.45523559724573
31
0.000000000000000
  0
LINE
  5
F10A2F
330
F10A30
100
AcDbEntity
8
Geo
100
AcDbLine
10
-27.3456575682380
20
6.45523559724573
30
0.000000000000000
11
-27.2456575682380
21
6.41522429321598
31
0.000000000000000
  0
LINE
  5
F10A31
330
F10A32
100
AcDbEntity
8
Geo
100
AcDbLine
10
-27.2456575682380
20
6.41522429321598
30
0.000000000000000
11
-27.1456575682380
21
6.37580342796866
31
0.000000000000000
  0
LINE
  5
F10A33
330
F10A34
100
AcDbEntity
8
Geo
100
AcDbLine
10
-27.1456575682380
20
6.37580342796866
30
0.000000000000000
11
-27.0456575682379
21
6.33698121404143
31
0.000000000000000
  0
LINE
  5
F10A35
330
F10A36
100
AcDbEntity
8
Geo
100
AcDbLine
10
-27.0456575682379
20
6.33698121404143
30
0.000000000000000
11
-26.9456575682379
21
6.29876573925514
31
0.000000000000000
  0
LINE
  5
F10A37
330
F10A38
100
AcDbEntity
8
Geo
100
AcDbLine
10
-26.9456575682379
20
6.29876573925514
30
0.000000000000000
11
-26.8456575682379
21
6.26116496502880
31
0.000000000000000
  0
LINE
  5
F10A39
330
F10A3A
100
AcDbEntity
8
Geo
100
AcDbLine
10
-26.8456575682379
20
6.26116496502880
30
0.000000000000000
11
-26.7456575682379
21
6.22418672472104
31
0.000000000000000
  0
LINE
  5
F10A3B
330
F10A3C
100
AcDbEntity
8
Geo
100
AcDbLine
10
-26.7456575682379
20
6.22418672472104
30
0.000000000000000
11
-26.6456575682379
21
6.18783872199819
31
0.000000000000000
  0
LINE
  5
F10A3D
330
F10A3E
100
AcDbEntity
8
Geo
100
AcDbLine
10
-26.6456575682379
20
6.18783872199819
30
0.000000000000000
11
-26.5456575682379
21
6.15212852922934
31
0.000000000000000
  0
LINE
  5
F10A3F
330
F10A40
100
AcDbEntity
8
Geo
100
AcDbLine
10
-26.5456575682379
20
6.15212852922934
30
0.000000000000000
11
-26.4456575682379
21
6.11706358590883
31
0.000000000000000
  0
LINE
  5
F10A41
330
F10A42
100
AcDbEntity
8
Geo
100
AcDbLine
10
-26.4456575682379
20
6.11706358590883
30
0.000000000000000
11
-26.3456575682379
21
6.08265119710635
31
0.000000000000000
  0
LINE
  5
F10A43
330
F10A44
100
AcDbEntity
8
Geo
100
AcDbLine
10
-26.3456575682379
20
6.08265119710635
30
0.000000000000000
11
-26.2456575682379
21
6.04889853194513
31
0.000000000000000
  0
LINE
  5
F10A45
330
F10A46
100
AcDbEntity
8
Geo
100
AcDbLine
10
-26.2456575682379
20
6.04889853194513
30
0.000000000000000
11
-26.1456575682379
21
6.01581262210830
31
0.000000000000000
  0
LINE
  5
F10A47
330
F10A48
100
AcDbEntity
8
Geo
100
AcDbLine
10
-26.1456575682379
20
6.01581262210830
30
0.000000000000000
11
-26.0456575682379
21
5.98340036037409
31
0.000000000000000
  0
LINE
  5
F10A49
330
F10A4A
100
AcDbEntity
8
Geo
100
AcDbLine
10
-26.0456575682379
20
5.98340036037409
30
0.000000000000000
11
-25.9456575682379
21
5.95166849917980
31
0.000000000000000
  0
LINE
  5
F10A4B
330
F10A4C
100
AcDbEntity
8
Geo
100
AcDbLine
10
-25.9456575682379
20
5.95166849917980
30
0.000000000000000
11
-25.8456575682379
21
5.92062364921507
31
0.000000000000000
  0
LINE
  5
F10A4D
330
F10A4E
100
AcDbEntity
8
Geo
100
AcDbLine
10
-25.8456575682379
20
5.92062364921507
30
0.000000000000000
11
-25.7456575682379
21
5.89027227804469
31
0.000000000000000
  0
LINE
  5
F10A4F
330
F10A50
100
AcDbEntity
8
Geo
100
AcDbLine
10
-25.7456575682379
20
5.89027227804469
30
0.000000000000000
11
-25.6456575682379
21
5.86062070876122
31
0.000000000000000
  0
LINE
  5
F10A51
330
F10A52
100
AcDbEntity
8
Geo
100
AcDbLine
10
-25.6456575682379
20
5.86062070876122
30
0.000000000000000
11
-25.5456575682379
21
5.83167511866766
31
0.000000000000000
  0
LINE
  5
F10A53
330
F10A54
100
AcDbEntity
8
Geo
100
AcDbLine
10
-25.5456575682379
20
5.83167511866766
30
0.000000000000000
11
-25.4456575682379
21
5.80344153799061
31
0.000000000000000
  0
LINE
  5
F10A55
330
F10A56
100
AcDbEntity
8
Geo
100
AcDbLine
10
-25.4456575682379
20
5.80344153799061
30
0.000000000000000
11
-25.3456575682379
21
5.77592584862392
31
0.000000000000000
  0
LINE
  5
F10A57
330
F10A58
100
AcDbEntity
8
Geo
100
AcDbLine
10
-25.3456575682379
20
5.77592584862392
30
0.000000000000000
11
-25.2456575682379
21
5.74913378290335
31
0.000000000000000
  0
LINE
  5
F10A59
330
F10A5A
100
AcDbEntity
8
Geo
100
AcDbLine
10
-25.2456575682379
20
5.74913378290335
30
0.000000000000000
11
-25.1456575682379
21
5.72307092241235
31
0.000000000000000
  0
LINE
  5
F10A5B
330
F10A5C
100
AcDbEntity
8
Geo
100
AcDbLine
10
-25.1456575682379
20
5.72307092241235
30
0.000000000000000
11
-25.0456575682379
21
5.69774269681926
31
0.000000000000000
  0
LINE
  5
F10A5D
330
F10A5E
100
AcDbEntity
8
Geo
100
AcDbLine
10
-25.0456575682379
20
5.69774269681926
30
0.000000000000000
11
-24.9456575682379
21
5.67315438274615
31
0.000000000000000
  0
LINE
  5
F10A5F
330
F10A60
100
AcDbEntity
8
Geo
100
AcDbLine
10
-24.9456575682379
20
5.67315438274615
30
0.000000000000000
11
-24.8456575682379
21
5.64931110266950
31
0.000000000000000
  0
LINE
  5
F10A61
330
F10A62
100
AcDbEntity
8
Geo
100
AcDbLine
10
-24.8456575682379
20
5.64931110266950
30
0.000000000000000
11
-24.7456575682379
21
5.62621782385310
31
0.000000000000000
  0
LINE
  5
F10A63
330
F10A64
100
AcDbEntity
8
Geo
100
AcDbLine
10
-24.7456575682379
20
5.62621782385310
30
0.000000000000000
11
-24.6456575682379
21
5.60387935731317
31
0.000000000000000
  0
LINE
  5
F10A65
330
F10A66
100
AcDbEntity
8
Geo
100
AcDbLine
10
-24.6456575682379
20
5.60387935731317
30
0.000000000000000
11
-24.5456575682379
21
5.58230035681611
31
0.000000000000000
  0
LINE
  5
F10A67
330
F10A68
100
AcDbEntity
8
Geo
100
AcDbLine
10
-24.5456575682379
20
5.58230035681611
30
0.000000000000000
11
-24.4456575682379
21
5.56148531790899
31
0.000000000000000
  0
LINE
  5
F10A69
330
F10A6A
100
AcDbEntity
8
Geo
100
AcDbLine
10
-24.4456575682379
20
5.56148531790899
30
0.000000000000000
11
-24.3456575682379
21
5.54143857698295
31
0.000000000000000
  0
LINE
  5
F10A6B
330
F10A6C
100
AcDbEntity
8
Geo
100
AcDbLine
10
-24.3456575682379
20
5.54143857698295
30
0.000000000000000
11
-24.2456575682379
21
5.52216431036984
31
0.000000000000000
  0
LINE
  5
F10A6D
330
F10A6E
100
AcDbEntity
8
Geo
100
AcDbLine
10
-24.2456575682379
20
5.52216431036984
30
0.000000000000000
11
-24.1456575682379
21
5.50366653347217
31
0.000000000000000
  0
LINE
  5
F10A6F
330
F10A70
100
AcDbEntity
8
Geo
100
AcDbLine
10
-24.1456575682379
20
5.50366653347217
30
0.000000000000000
11
-24.0456575682379
21
5.48594909992655
31
0.000000000000000
  0
LINE
  5
F10A71
330
F10A72
100
AcDbEntity
8
Geo
100
AcDbLine
10
-24.0456575682379
20
5.48594909992655
30
0.000000000000000
11
-23.9456575682379
21
5.46901570080089
31
0.000000000000000
  0
LINE
  5
F10A73
330
F10A74
100
AcDbEntity
8
Geo
100
AcDbLine
10
-23.9456575682379
20
5.46901570080089
30
0.000000000000000
11
-23.8456575682379
21
5.45286986382542
31
0.000000000000000
  0
LINE
  5
F10A75
330
F10A76
100
AcDbEntity
8
Geo
100
AcDbLine
10
-23.8456575682379
20
5.45286986382542
30
0.000000000000000
11
-23.7456575682379
21
5.43751495265779
31
0.000000000000000
  0
LINE
  5
F10A77
330
F10A78
100
AcDbEntity
8
Geo
100
AcDbLine
10
-23.7456575682379
20
5.43751495265779
30
0.000000000000000
11
-23.6456575682379
21
5.42295416618229
31
0.000000000000000
  0
LINE
  5
F10A79
330
F10A7A
100
AcDbEntity
8
Geo
100
AcDbLine
10
-23.6456575682379
20
5.42295416618229
30
0.000000000000000
11
-23.5456575682379
21
5.40919053784342
31
0.000000000000000
  0
LINE
  5
F10A7B
330
F10A7C
100
AcDbEntity
8
Geo
100
AcDbLine
10
-23.5456575682379
20
5.40919053784342
30
0.000000000000000
11
-23.4456575682379
21
5.39622693501399
31
0.000000000000000
  0
LINE
  5
F10A7D
330
F10A7E
100
AcDbEntity
8
Geo
100
AcDbLine
10
-23.4456575682379
20
5.39622693501399
30
0.000000000000000
11
-23.3456575682379
21
5.38406605839769
31
0.000000000000000
  0
LINE
  5
F10A7F
330
F10A80
100
AcDbEntity
8
Geo
100
AcDbLine
10
-23.3456575682379
20
5.38406605839769
30
0.000000000000000
11
-23.2456575682379
21
5.37271044146651
31
0.000000000000000
  0
LINE
  5
F10A81
330
F10A82
100
AcDbEntity
8
Geo
100
AcDbLine
10
-23.2456575682379
20
5.37271044146651
30
0.000000000000000
11
-23.1456575682379
21
5.36216244993289
31
0.000000000000000
  0
LINE
  5
F10A83
330
F10A84
100
AcDbEntity
8
Geo
100
AcDbLine
10
-23.1456575682379
20
5.36216244993289
30
0.000000000000000
11
-23.0456575682379
21
5.35242428125693
31
0.000000000000000
  0
LINE
  5
F10A85
330
F10A86
100
AcDbEntity
8
Geo
100
AcDbLine
10
-23.0456575682379
20
5.35242428125693
30
0.000000000000000
11
-22.9456575682379
21
5.34349796418853
31
0.000000000000000
  0
LINE
  5
F10A87
330
F10A88
100
AcDbEntity
8
Geo
100
AcDbLine
10
-22.9456575682379
20
5.34349796418853
30
0.000000000000000
11
-22.8456575682379
21
5.33538535834481
31
0.000000000000000
  0
LINE
  5
F10A89
330
F10A8A
100
AcDbEntity
8
Geo
100
AcDbLine
10
-64.7456575682382
20
9.24937965260546
30
0.000000000000000
11
-64.7456575682382
21
9.24937965260546
31
0.000000000000000
  0
LINE
  5
F10A8B
330
F10A8C
100
AcDbEntity
8
Geo
100
AcDbLine
10
-64.7456575682382
20
9.24937965260546
30
0.000000000000000
11
-64.7456575682382
21
9.24937965260546
31
0.000000000000000
  0
LINE
  5
F10A8D
330
F10A8E
100
AcDbEntity
8
Geo
100
AcDbLine
10
85.2543424317618
20
13.0493796526055
30
0.000000000000000
11
85.2543424317618
21
9.24937965260546
31
0.000000000000000
  0
ARC
  5
F10A8F
330
F10A90
100
AcDbEntity
8
Geo
100
AcDbCircle
10
-60.7456575682382
20
9.24937965260546
30
0.000000000000000
 40
4.00000000000000
100
AcDbArc
 50
180.000000000000
 51
270.000000000000
  0
LINE
  5
F10A91
330
F10A92
100
AcDbEntity
8
Geo
100
AcDbLine
10
-60.7456575682382
20
5.24937965260546
30
0.000000000000000
11
-22.7456575682382
21
5.24937965260546
31
0.000000000000000
  0
LINE
  5
F10A93
330
F10A94
100
AcDbEntity
8
Geo
100
AcDbLine
10
-22.7456575682382
20
5.24937965260546
30
0.000000000000000
11
-22.7456575682382
21
5.24987965260546
31
0.000000000000000
  0
LINE
  5
F10A95
330
F10A96
100
AcDbEntity
8
Geo
100
AcDbLine
10
-22.7456575682382
20
5.24987965260546
30
0.000000000000000
11
-20.7456575682382
21
5.24987965260546
31
0.000000000000000
  0
LINE
  5
F10A97
330
F10A98
100
AcDbEntity
8
Geo
100
AcDbLine
10
-20.7456575682382
20
5.24987965260546
30
0.000000000000000
11
-20.7456575682382
21
5.24937965260546
31
0.000000000000000
  0
LINE
  5
F10A99
330
F10A9A
100
AcDbEntity
8
Geo
100
AcDbLine
10
-20.7456575682382
20
5.24937965260546
30
0.000000000000000
11
85.0543424317618
21
5.24937965260546
31
0.000000000000000
  0
LINE
  5
F10A9B
330
F10A9C
100
AcDbEntity
8
Geo
100
AcDbLine
10
85.0543424317618
20
5.24937965260546
30
0.000000000000000
11
85.2543424317618
21
5.44937965260545
31
0.000000000000000
  0
LINE
  5
F10A9D
330
F10A9E
100
AcDbEntity
8
Geo
100
AcDbLine
10
-60.7456575682382
20
13.2493796526055
30
0.000000000000000
11
-60.7456575682382
21
5.24937965260546
31
0.000000000000000
  0
LINE
  5
F10A9F
330
F10AA0
100
AcDbEntity
8
Geo
100
AcDbLine
10
-22.7456575682382
20
13.2493796526055
30
0.000000000000000
11
-22.7456575682382
21
5.24937965260546
31
0.000000000000000
  0
LINE
  5
F10AA1
330
F10AA2
100
AcDbEntity
8
Geo
100
AcDbLine
10
-22.7456575682382
20
13.2488796526055
30
0.000000000000000
11
-22.7456575682382
21
5.24987965260546
31
0.000000000000000
  0
LINE
  5
F10AA3
330
F10AA4
100
AcDbEntity
8
Geo
100
AcDbLine
10
-20.7456575682382
20
13.2488796526055
30
0.000000000000000
11
-20.7456575682382
21
5.24987965260546
31
0.000000000000000
  0
LINE
  5
F10AA5
330
F10AA6
100
AcDbEntity
8
Geo
100
AcDbLine
10
85.0543424317618
20
13.2493796526055
30
0.000000000000000
11
85.0543424317618
21
5.24937965260546
31
0.000000000000000
  0
LINE
  5
F10AA7
330
F10AA8
100
AcDbEntity
8
Geo
100
AcDbLine
10
85.2543424317618
20
13.0493796526055
30
0.000000000000000
11
85.2543424317618
21
5.44937965260545
31
0.000000000000000
  0
LWPOLYLINE
  5
F10AA9
330
F10AAA
100
AcDbEntity
8
Rahmen
100
AcDbPolyline
90
   4
70
   1
43
   0.0
 10
-167.270471464020
 20
104.478908188586
 10
-167.270471464020
 20
104.478908188586
 10
-167.270471464020
 20
104.478908188586
 10
-167.270471464020
 20
104.478908188586
  0
TEXT
  5
F10AAB
330
F10AAC
 100
AcDbEntity
8
Text
100
AcDbText
10
-167.270471464020
20
104.978908188586
30
0.000000000000000
40
1.00000000000000
1
 -       
100
AcDbText
  0
LWPOLYLINE
  5
F10AAD
330
F10AAE
100
AcDbEntity
8
Rahmen
100
AcDbPolyline
90
   4
70
   1
43
   0.0
 10
-134.702233250620
 20
99.7890818858561
 10
143.300248138958
 20
99.7890818858561
 10
143.300248138958
 20
-100.049627791563
 10
-134.702233250620
 20
-100.049627791563
  0
TEXT
  5
F10AAF
330
F10AB0
 100
AcDbEntity
8
Text
100
AcDbText
10
-133.660049627792
20
-99.5496277915633
30
0.000000000000000
40
1.00000000000000
1
ISBESketcher - ©ISBE GmbH      Licensed for: Van Hoorn Hardmetaal BV
100
AcDbText
  0
LWPOLYLINE
  5
F10AB1
330
F10AB2
100
AcDbEntity
8
Rahmen
100
AcDbPolyline
90
   4
70
   1
43
   0.0
 10
103.436724565757
 20
-97.1836228287841
 10
143.300248138958
 20
-97.1836228287841
 10
143.300248138958
 20
-100.049627791563
 10
103.436724565757
 20
-100.049627791563
  0
TEXT
  5
F10AB3
330
F10AB4
 100
AcDbEntity
8
Text
100
AcDbText
10
104.478908188586
20
-98.1836228287841
30
0.000000000000000
40
0.750000000000000
1
Created by:
100
AcDbText
  0
TEXT
  5
F10AB5
330
F10AB6
 100
AcDbEntity
8
Text
100
AcDbText
10
131.315136476427
20
-99.4863523573201
30
0.000000000000000
40
0.750000000000000
1

100
AcDbText
  0
LWPOLYLINE
  5
F10AB7
330
F10AB8
100
AcDbEntity
8
Rahmen
100
AcDbPolyline
90
   4
70
   1
43
   0.0
 10
63.3126550868487
 20
-97.1836228287841
 10
103.436724565757
 20
-97.1836228287841
 10
103.436724565757
 20
-100.049627791563
 10
63.3126550868487
 20
-100.049627791563
  0
TEXT
  5
F10AB9
330
F10ABA
 100
AcDbEntity
8
Text
100
AcDbText
10
64.3548387096774
20
-98.1836228287841
30
0.000000000000000
40
0.750000000000000
1
Created for:
100
AcDbText
  0
TEXT
  5
F10ABB
330
F10ABC
 100
AcDbEntity
8
Text
100
AcDbText
10
91.4516129032258
20
-99.4863523573201
30
0.000000000000000
40
0.750000000000000
1

100
AcDbText
  0
LWPOLYLINE
  5
F10ABD
330
F10ABE
100
AcDbEntity
8
Rahmen
100
AcDbPolyline
90
   4
70
   1
43
   0.0
 10
130.012406947891
 20
-94.0570719602978
 10
143.300248138958
 20
-94.0570719602978
 10
143.300248138958
 20
-97.1836228287841
 10
130.012406947891
 20
-97.1836228287841
  0
TEXT
  5
F10ABF
330
F10AC0
 100
AcDbEntity
8
Text
100
AcDbText
10
131.054590570720
20
-95.0570719602978
30
0.000000000000000
40
0.750000000000000
1
Pages
100
AcDbText
  0
TEXT
  5
F10AC1
330
F10AC2
 100
AcDbEntity
8
Text
100
AcDbText
10
141.215880893300
20
-96.3598014888338
30
0.000000000000000
40
0.750000000000000
1

100
AcDbText
  0
LWPOLYLINE
  5
F10AC3
330
F10AC4
100
AcDbEntity
8
Rahmen
100
AcDbPolyline
90
   4
70
   1
43
   0.0
 10
130.012406947891
 20
-91.1910669975186
 10
143.300248138958
 20
-91.1910669975186
 10
143.300248138958
 20
-94.0570719602978
 10
130.012406947891
 20
-94.0570719602978
  0
TEXT
  5
F10AC5
330
F10AC6
 100
AcDbEntity
8
Text
100
AcDbText
10
131.054590570720
20
-92.1910669975186
30
0.000000000000000
40
0.750000000000000
1
Page
100
AcDbText
  0
TEXT
  5
F10AC7
330
F10AC8
 100
AcDbEntity
8
Text
100
AcDbText
10
141.215880893300
20
-93.4937965260546
30
0.000000000000000
40
0.750000000000000
1

100
AcDbText
  0
LWPOLYLINE
  5
F10AC9
330
F10ACA
100
AcDbEntity
8
Rahmen
100
AcDbPolyline
90
   4
70
   1
43
   0.0
 10
63.3126550868487
 20
-91.1910669975186
 10
130.012406947891
 20
-91.1910669975186
 10
130.012406947891
 20
-97.1836228287841
 10
63.3126550868487
 20
-97.1836228287841
  0
TEXT
  5
F10ACB
330
F10ACC
 100
AcDbEntity
8
Text
100
AcDbText
10
64.3548387096774
20
-92.1910669975186
30
0.000000000000000
40
0.750000000000000
1
Date:
100
AcDbText
  0
TEXT
  5
F10ACD
330
F10ACE
 100
AcDbEntity
8
Text
100
AcDbText
10
90.4094292803970
20
-95.0570719602978
30
0.000000000000000
40
0.750000000000000
1
21.09.2016
100
AcDbText
  0
LWPOLYLINE
  5
F10ACF
330
F10AD0
100
AcDbEntity
8
Rahmen
100
AcDbPolyline
90
   4
70
   1
43
   0.0
 10
63.3126550868487
 20
-85.1985111662531
 10
143.300248138958
 20
-85.1985111662531
 10
143.300248138958
 20
-91.1910669975186
 10
63.3126550868487
 20
-91.1910669975186
  0
TEXT
  5
F10AD1
330
F10AD2
 100
AcDbEntity
8
Text
100
AcDbText
10
-167.270471464020
20
102.478908188586
30
0.000000000000000
40
1.50000000000000
1

100
AcDbText
  0
TEXT
  5
F10AD3
330
F10AD4
 100
AcDbEntity
8
Text
100
AcDbText
10
83.1141439205955
20
-89.0529363110008
30
0.000000000000000
40
2.50000000000000
1
VHGKF20801500802
100
AcDbText
  0
LWPOLYLINE
  5
F10AD5
330
F10AD6
100
AcDbEntity
8
Rahmen
100
AcDbPolyline
90
   4
70
   1
43
   0.0
 10
103.436724565757
 20
-79.2059553349876
 10
143.300248138958
 20
-79.2059553349876
 10
143.300248138958
 20
-85.1985111662531
 10
103.436724565757
 20
-85.1985111662531
  0
TEXT
  5
F10AD7
330
F10AD8
 100
AcDbEntity
8
Text
100
AcDbText
10
104.478908188586
20
-80.2059553349876
30
0.000000000000000
40
0.750000000000000
1
Work piece material:
100
AcDbText
  0
TEXT
  5
F10AD9
330
F10ADA
 100
AcDbEntity
8
Text
100
AcDbText
10
123.238213399504
20
-84.3746898263027
30
0.000000000000000
40
0.750000000000000
1

100
AcDbText
  0
LWPOLYLINE
  5
F10ADB
330
F10ADC
100
AcDbEntity
8
Rahmen
100
AcDbPolyline
90
   4
70
   1
43
   0.0
 10
63.3126550868487
 20
-79.2059553349876
 10
103.436724565757
 20
-79.2059553349876
 10
103.436724565757
 20
-85.1985111662531
 10
63.3126550868487
 20
-85.1985111662531
  0
TEXT
  5
F10ADD
330
F10ADE
 100
AcDbEntity
8
Text
100
AcDbText
10
64.3548387096774
20
-80.2059553349876
30
0.000000000000000
40
0.750000000000000
1
Tool material:
100
AcDbText
  0
TEXT
  5
F10ADF
330
F10AE0
 100
AcDbEntity
8
Text
100
AcDbText
10
83.1141439205955
20
-84.3746898263027
30
0.000000000000000
40
0.750000000000000
1

100
AcDbText
  0
LWPOLYLINE
  5
F10AE1
330
F10AE2
100
AcDbEntity
8
Rahmen
100
AcDbPolyline
90
   4
70
   1
43
   0.0
 10
103.436724565757
 20
-76.0794044665012
 10
143.300248138958
 20
-76.0794044665012
 10
143.300248138958
 20
-79.2059553349876
 10
103.436724565757
 20
-79.2059553349876
  0
TEXT
  5
F10AE3
330
F10AE4
 100
AcDbEntity
8
Text
100
AcDbText
10
-167.270471464020
20
102.478908188586
30
0.000000000000000
40
1.50000000000000
1

100
AcDbText
  0
TEXT
  5
F10AE5
330
F10AE6
 100
AcDbEntity
8
Text
100
AcDbText
10
123.238213399504
20
-78.3821339950372
30
0.000000000000000
40
0.750000000000000
1

100
AcDbText
  0
LWPOLYLINE
  5
F10AE7
330
F10AE8
100
AcDbEntity
8
Rahmen
100
AcDbPolyline
90
   4
70
   1
43
   0.0
 10
63.3126550868487
 20
-76.0794044665012
 10
103.436724565757
 20
-76.0794044665012
 10
103.436724565757
 20
-79.2059553349876
 10
63.3126550868487
 20
-79.2059553349876
  0
TEXT
  5
F10AE9
330
F10AEA
 100
AcDbEntity
8
Text
100
AcDbText
10
64.3548387096774
20
-77.0794044665012
30
0.000000000000000
40
0.750000000000000
1
Scale:
100
AcDbText
  0
TEXT
  5
F10AEB
330
F10AEC
 100
AcDbEntity
8
Text
100
AcDbText
10
88.8461538461538
20
-77.0794044665012
30
0.000000000000000
40
0.750000000000000
1
1 : 1
100
AcDbText
0
VIEWPORT
5
294
102
{ACAD_XDICTIONARY
360
58A
102
}
330
25D
100
AcDbEntity
67
1
8
0
60
1
100
AcDbViewport
10
0.0
20
0.0
30
0.0
40
10.0
41
10.0
68
-1
69
1
12
0.0
22
0.0
13
0.0
23
0.0
14
1.0
24
1.0
15
0.0
25
0.0
16
0.0
26
0.0
36
1.0
17
0.0
27
0.0
37
0.0
42
0.0
43
0.0
44
0.0
45
10.0
50
0.0
51
0.0000000000007958
72
100
90
32800
1

281
0
71
0
74
0
110
0.0
120
0.0
130
0.0
111
1.0
121
0.0
131
0.0
112
0.0
122
1.0
132
0.0
79
0
146
0.0
1001
VD_INVISIBLE_NOT_FOR_READ
1000
VD_INVISIBLE_NOT_FOR_READ
0
VIEWPORT
5
295
102
{ACAD_XDICTIONARY
360
58C
102
}
330
25D
100
AcDbEntity
67
1
8
0
60
1
100
AcDbViewport
10
0.0
20
0.0
30
0.0
40
10.0
41
10.0
68
0
69
2
12
0.0
22
0.0
13
0.0
23
0.0
14
1.0
24
1.0
15
0.0
25
0.0
16
0.0
26
0.0
36
1.0
17
0.0
27
0.0
37
0.0
42
0.0
43
0.0
44
0.0
45
10.0
50
0.0
51
0.0000000000007958
72
100
90
163872
1

281
0
71
0
74
0
110
0.0
120
0.0
130
0.0
111
1.0
121
0.0
131
0.0
112
0.0
122
1.0
132
0.0
79
0
146
0.0
1001
VD_INVISIBLE_NOT_FOR_READ
1000
VD_INVISIBLE_NOT_FOR_READ
0
ENDSEC
0
SECTION
2
OBJECTS
0
DICTIONARY
5
13
330
0
100
AcDbDictionary
281
1
3
ACAD_COLOR
350
FA7
3
ACAD_GROUP
350
14
3
ACAD_LAYOUT
350
FCF
3
ACAD_MATERIAL
350
F7A
3
ACAD_MLEADERSTYLE
350
FCD
3
ACAD_MLINESTYLE
350
16
3
ACAD_PLOTSETTINGS
350
17
3
ACAD_PLOTSTYLENAME
350
18
3
ACAD_SCALELIST
350
FAB
3
ACAD_TABLESTYLE
350
FA8
3
ACAD_VISUALSTYLE
350
F93
3
ACDB_RECOMPOSE_DATA
350
107E
3
AcDbVariableDictionary
350
FF0
3
DWGPROPS
350
107F
0
DICTIONARY
5
F1000F
330
F1000E
100
AcDbDictionary
280
1
281
1
3
ACAD_MTEXT_2008_RT
360
F10010
0
DICTIONARY
5
F10019
330
F10018
100
AcDbDictionary
280
1
281
1
3
ACAD_MTEXT_2008_RT
360
F1001A
0
DICTIONARY
5
F1001E
330
F1001D
100
AcDbDictionary
280
1
281
1
3
ACAD_MTEXT_2008_RT
360
F1001F
0
DICTIONARY
5
F1000A
330
F10009
100
AcDbDictionary
280
1
281
1
3
ACAD_MTEXT_2008_RT
360
F1000B
0
DICTIONARY
5
F10005
330
F10004
100
AcDbDictionary
280
1
281
1
3
ACAD_MTEXT_2008_RT
360
F10006
0
DICTIONARY
5
F10014
330
F10013
100
AcDbDictionary
280
1
281
1
3
ACAD_MTEXT_2008_RT
360
F10015
0
DICTIONARY
5
FA7
102
{ACAD_REACTORS
330
13
102
}
330
13
100
AcDbDictionary
281
1
0
DICTIONARY
5
14
330
13
100
AcDbDictionary
281
1
0
DICTIONARY
5
FCF
102
{ACAD_REACTORS
330
13
102
}
330
13
100
AcDbDictionary
281
1
3
Layout1
350
FD1
3
Model
350
FD0
0
DICTIONARY
5
F7A
102
{ACAD_REACTORS
330
13
102
}
330
13
100
AcDbDictionary
281
1
3
ByBlock
350
F83
3
ByLayer
350
F7B
3
Global
350
F8B
0
DICTIONARY
5
FCD
102
{ACAD_REACTORS
330
13
102
}
330
13
100
AcDbDictionary
281
1
3
Standard
350
FCE
0
DICTIONARY
5
16
330
13
100
AcDbDictionary
281
1
3
Standard
350
FAA
0
DICTIONARY
5
17
102
{ACAD_REACTORS
330
13
102
}
330
13
100
AcDbDictionary
281
1
0
ACDBDICTIONARYWDFLT
5
18
102
{ACAD_REACTORS
330
13
102
}
330
13
100
AcDbDictionary
281
1
3
Normal
350
19
100
AcDbDictionaryWithDefault
340
19
0
DICTIONARY
5
FAB
102
{ACAD_REACTORS
330
13
102
}
330
13
100
AcDbDictionary
281
1
3
A0
350
FAC
3
A1
350
FAD
3
A2
350
FAE
3
A3
350
FAF
3
A4
350
FB0
3
A5
350
FB1
3
A6
350
FB2
3
A7
350
FB3
3
A8
350
FB4
3
A9
350
FB5
3
B0
350
FB6
3
B1
350
FB7
3
B2
350
FB8
3
B3
350
FB9
3
B4
350
FBA
3
B5
350
FBB
3
B6
350
FBC
3
B7
350
FBD
3
B8
350
FBE
3
B9
350
FBF
3
C0
350
FC0
3
C1
350
FC1
3
C2
350
FC2
3
C3
350
FC3
3
C4
350
FC4
3
C5
350
FC5
3
C6
350
FC6
3
C7
350
FC7
3
C8
350
FC8
3
C9
350
FC9
3
D0
350
FCA
3
D1
350
FCB
3
D2
350
FCC
0
DICTIONARY
5
FA8
102
{ACAD_REACTORS
330
13
102
}
330
13
100
AcDbDictionary
281
1
3
Standard
350
FA9
0
DICTIONARY
5
F93
102
{ACAD_REACTORS
330
13
102
}
330
13
100
AcDbDictionary
281
1
3
2dWireframe
350
F99
3
3D Hidden
350
F9B
3
3dWireframe
350
F9A
3
Basic
350
F98
3
Brighten
350
F9F
3
ColorChange
350
FA3
3
Conceptual
350
F9C
3
Dim
350
F9E
3
EdgeColorOff
350
FA6
3
Facepattern
350
FA2
3
Flat
350
F94
3
FlatWithEdges
350
F95
3
Gouraud
350
F96
3
GouraudWithEdges
350
F97
3
JitterOff
350
FA4
3
Linepattern
350
FA1
3
OverhangOff
350
FA5
3
Realistic
350
F9D
3
Thicken
350
FA0
0
XRECORD
5
107E
102
{ACAD_REACTORS
330
13
102
}
330
13
100
AcDbXrecord
280
1
90
1
330
FA9
330
F1000E
330
F10018
330
F1001D
330
F10009
330
F10004
330
F10013
0
DICTIONARY
5
FF0
102
{ACAD_REACTORS
330
13
102
}
330
13
100
AcDbDictionary
281
1
3
CANNOSCALE
350
FF3
3
CMLEADERSTYLE
350
FF2
3
CTABLESTYLE
350
FF1
3
DIMASSOC
350
FF6
3
INDEXCTL
350
FF5
3
SORTENTS
350
FF4
3
XCLIPFRAME
350
1078
0
XRECORD
5
107F
102
{ACAD_REACTORS
330
13
102
}
330
13
100
AcDbXrecord
280
1
1
DWGPROPS COOKIE
2

3

4

6

7

8

9

300
=
301
=
302
=
303
=
304
=
305
=
306
=
307
=
308
=
309
=
40
0.0
41
0.0
42
0.0
1

90
0
0
XRECORD
5
F10010
102
{ACAD_REACTORS
330
F1000F
102
}
330
F1000F
100
AcDbXrecord
280
1
40
48458.0
1
\A1;106
0
XRECORD
5
F1001A
102
{ACAD_REACTORS
330
F10019
102
}
330
F10019
100
AcDbXrecord
280
1
40
48458.0
1
\A1;42
0
XRECORD
5
F1001F
102
{ACAD_REACTORS
330
F1001E
102
}
330
F1001E
100
AcDbXrecord
280
1
40
48458.0
1
\A1;150
0
XRECORD
5
F1000B
102
{ACAD_REACTORS
330
F1000A
102
}
330
F1000A
100
AcDbXrecord
280
1
40
48458.0
1
\A1;R4
0
XRECORD
5
F10006
102
{ACAD_REACTORS
330
F10005
102
}
330
F10005
100
AcDbXrecord
280
1
40
48458.0
1
\A1;8
0
LAYOUT
5
FD1
102
{ACAD_XDICTIONARY
360
10A9
102
}
102
{ACAD_REACTORS
330
FCF
102
}
330
FCF
100
AcDbPlotSettings
1

2
Microsoft XPS Document Writer
4

6

40
0.0
41
0.0
42
0.0
43
0.0
44
0.0
45
0.0
46
0.0
47
0.0
48
0.0
49
0.0
140
0.0
141
0.0
142
1.0
143
1.0
70
688
72
0
73
0
74
5
7

75
16
147
1.0
148
0.0
149
0.0
100
AcDbLayout
1
Layout1
70
1
71
1
10
0.0
20
0.0
11
12.0
21
9.0
12
0.0
22
0.0
32
0.0
14
1.000000000000000E+20
24
1.000000000000000E+20
34
1.000000000000000E+20
15
-1.000000000000000E+20
25
-1.000000000000000E+20
35
-1.000000000000000E+20
146
0.0
13
0.0
23
0.0
33
0.0
16
1.0
26
0.0
36
0.0
17
0.0
27
1.0
37
0.0
76
0
330
25D
0
LAYOUT
5
FD0
102
{ACAD_XDICTIONARY
360
10A7
102
}
102
{ACAD_REACTORS
330
FCF
102
}
330
FCF
100
AcDbPlotSettings
1

2
Microsoft XPS Document Writer
4

6

40
0.0
41
0.0
42
0.0
43
0.0
44
0.0
45
0.0
46
0.0
47
0.0
48
0.0
49
0.0
140
0.0
141
0.0
142
1.0
143
1.0
70
1712
72
0
73
0
74
0
7

75
0
147
1.0
148
0.0
149
0.0
100
AcDbLayout
1
Model
70
1
71
0
10
0.0
20
0.0
11
12.0
21
9.0
12
0.0
22
0.0
32
0.0
14
0.0
24
0.0
34
0.0
15
0.0
25
0.0
35
0.0
146
0.0
13
0.0
23
0.0
33
0.0
16
1.0
26
0.0
36
0.0
17
0.0
27
1.0
37
0.0
76
0
330
261
331
26B
0
MATERIAL
5
F83
102
{ACAD_XDICTIONARY
360
F84
102
}
102
{ACAD_REACTORS
330
F7A
102
}
330
F7A
100
AcDbMaterial
1
ByBlock
72
0
43
0.0208333333333333
43
0.0
43
0.0
43
0.0
43
0.0
43
0.0208333333333333
43
0.0
43
0.0
43
0.0
43
0.0
43
1.0
43
0.0
43
0.0
43
0.0
43
0.0
43
1.0
77
0
47
0.0208333333333333
47
0.0
47
0.0
47
0.0
47
0.0
47
0.0208333333333333
47
0.0
47
0.0
47
0.0
47
0.0
47
1.0
47
0.0
47
0.0
47
0.0
47
0.0
47
1.0
171
0
49
0.0208333333333333
49
0.0
49
0.0
49
0.0
49
0.0
49
0.0208333333333333
49
0.0
49
0.0
49
0.0
49
0.0
49
1.0
49
0.0
49
0.0
49
0.0
49
0.0
49
1.0
175
0
142
0.0208333333333333
142
0.0
142
0.0
142
0.0
142
0.0
142
0.0208333333333333
142
0.0
142
0.0
142
0.0
142
0.0
142
1.0
142
0.0
142
0.0
142
0.0
142
0.0
142
1.0
179
0
144
0.0208333333333333
144
0.0
144
0.0
144
0.0
144
0.0
144
0.0208333333333333
144
0.0
144
0.0
144
0.0
144
0.0
144
1.0
144
0.0
144
0.0
144
0.0
144
0.0
144
1.0
147
0.0208333333333333
147
0.0
147
0.0
147
0.0
147
0.0
147
0.0208333333333333
147
0.0
147
0.0
147
0.0
147
0.0
147
1.0
147
0.0
147
0.0
147
0.0
147
0.0
147
1.0
0
MATERIAL
5
F7B
102
{ACAD_XDICTIONARY
360
F7C
102
}
102
{ACAD_REACTORS
330
F7A
102
}
330
F7A
100
AcDbMaterial
1
ByLayer
72
0
43
0.0208333333333333
43
0.0
43
0.0
43
0.0
43
0.0
43
0.0208333333333333
43
0.0
43
0.0
43
0.0
43
0.0
43
1.0
43
0.0
43
0.0
43
0.0
43
0.0
43
1.0
77
0
47
0.0208333333333333
47
0.0
47
0.0
47
0.0
47
0.0
47
0.0208333333333333
47
0.0
47
0.0
47
0.0
47
0.0
47
1.0
47
0.0
47
0.0
47
0.0
47
0.0
47
1.0
171
0
49
0.0208333333333333
49
0.0
49
0.0
49
0.0
49
0.0
49
0.0208333333333333
49
0.0
49
0.0
49
0.0
49
0.0
49
1.0
49
0.0
49
0.0
49
0.0
49
0.0
49
1.0
175
0
142
0.0208333333333333
142
0.0
142
0.0
142
0.0
142
0.0
142
0.0208333333333333
142
0.0
142
0.0
142
0.0
142
0.0
142
1.0
142
0.0
142
0.0
142
0.0
142
0.0
142
1.0
179
0
144
0.0208333333333333
144
0.0
144
0.0
144
0.0
144
0.0
144
0.0208333333333333
144
0.0
144
0.0
144
0.0
144
0.0
144
1.0
144
0.0
144
0.0
144
0.0
144
0.0
144
1.0
147
0.0208333333333333
147
0.0
147
0.0
147
0.0
147
0.0
147
0.0208333333333333
147
0.0
147
0.0
147
0.0
147
0.0
147
1.0
147
0.0
147
0.0
147
0.0
147
0.0
147
1.0
0
MATERIAL
5
F8B
102
{ACAD_XDICTIONARY
360
F8C
102
}
102
{ACAD_REACTORS
330
F7A
102
}
330
F7A
100
AcDbMaterial
1
Global
72
0
43
0.0208333333333333
43
0.0
43
0.0
43
0.0
43
0.0
43
0.0208333333333333
43
0.0
43
0.0
43
0.0
43
0.0
43
1.0
43
0.0
43
0.0
43
0.0
43
0.0
43
1.0
77
0
47
0.0208333333333333
47
0.0
47
0.0
47
0.0
47
0.0
47
0.0208333333333333
47
0.0
47
0.0
47
0.0
47
0.0
47
1.0
47
0.0
47
0.0
47
0.0
47
0.0
47
1.0
171
0
49
0.0208333333333333
49
0.0
49
0.0
49
0.0
49
0.0
49
0.0208333333333333
49
0.0
49
0.0
49
0.0
49
0.0
49
1.0
49
0.0
49
0.0
49
0.0
49
0.0
49
1.0
175
0
142
0.0208333333333333
142
0.0
142
0.0
142
0.0
142
0.0
142
0.0208333333333333
142
0.0
142
0.0
142
0.0
142
0.0
142
1.0
142
0.0
142
0.0
142
0.0
142
0.0
142
1.0
179
0
144
0.0208333333333333
144
0.0
144
0.0
144
0.0
144
0.0
144
0.0208333333333333
144
0.0
144
0.0
144
0.0
144
0.0
144
1.0
144
0.0
144
0.0
144
0.0
144
0.0
144
1.0
147
0.0208333333333333
147
0.0
147
0.0
147
0.0
147
0.0
147
0.0208333333333333
147
0.0
147
0.0
147
0.0
147
0.0
147
1.0
147
0.0
147
0.0
147
0.0
147
0.0
147
1.0
0
MLEADERSTYLE
5
FCE
102
{ACAD_REACTORS
330
FCD
102
}
330
FCD
100
AcDbMLeaderStyle
170
2
171
1
172
0
90
2
40
0.0
41
0.0
173
1
91
-1056964608
340
256
92
-2
290
1
42
0.09
291
1
43
0.36
3
Standard
44
0.18
300

342
253
174
1
178
6
175
1
176
0
93
-1056964608
45
0.18
292
0
297
0
46
0.18
94
-1056964608
47
1.0
49
1.0
140
1.0
293
1
141
0.0
294
1
177
0
142
1.0
295
0
296
0
143
0.125
1001
ACAD_MLEADERVER
1070
2
0
MLINESTYLE
5
FAA
102
{ACAD_REACTORS
330
16
102
}
330
16
100
AcDbMlineStyle
2
STANDARD
70
0
3

62
256
51
90.0
52
90.0
71
2
49
0.5
62
256
6
BYLAYER
49
-0.5
62
256
6
BYLAYER
0
ACDBPLACEHOLDER
5
19
102
{ACAD_REACTORS
330
18
102
}
330
18
0
SCALE
5
FAC
102
{ACAD_REACTORS
330
FAB
102
}
330
FAB
100
AcDbScale
70
0
300
1:1
140
1.0
141
1.0
290
1
0
SCALE
5
FAD
102
{ACAD_REACTORS
330
FAB
102
}
330
FAB
100
AcDbScale
70
0
300
1:2
140
1.0
141
2.0
290
0
0
SCALE
5
FAE
102
{ACAD_REACTORS
330
FAB
102
}
330
FAB
100
AcDbScale
70
0
300
1:4
140
1.0
141
4.0
290
0
0
SCALE
5
FAF
102
{ACAD_REACTORS
330
FAB
102
}
330
FAB
100
AcDbScale
70
0
300
1:5
140
1.0
141
5.0
290
0
0
SCALE
5
FB0
102
{ACAD_REACTORS
330
FAB
102
}
330
FAB
100
AcDbScale
70
0
300
1:8
140
1.0
141
8.0
290
0
0
SCALE
5
FB1
102
{ACAD_REACTORS
330
FAB
102
}
330
FAB
100
AcDbScale
70
0
300
1:10
140
1.0
141
10.0
290
0
0
SCALE
5
FB2
102
{ACAD_REACTORS
330
FAB
102
}
330
FAB
100
AcDbScale
70
0
300
1:16
140
1.0
141
16.0
290
0
0
SCALE
5
FB3
102
{ACAD_REACTORS
330
FAB
102
}
330
FAB
100
AcDbScale
70
0
300
1:20
140
1.0
141
20.0
290
0
0
SCALE
5
FB4
102
{ACAD_REACTORS
330
FAB
102
}
330
FAB
100
AcDbScale
70
0
300
1:30
140
1.0
141
30.0
290
0
0
SCALE
5
FB5
102
{ACAD_REACTORS
330
FAB
102
}
330
FAB
100
AcDbScale
70
0
300
1:40
140
1.0
141
40.0
290
0
0
SCALE
5
FB6
102
{ACAD_REACTORS
330
FAB
102
}
330
FAB
100
AcDbScale
70
0
300
1:50
140
1.0
141
50.0
290
0
0
SCALE
5
FB7
102
{ACAD_REACTORS
330
FAB
102
}
330
FAB
100
AcDbScale
70
0
300
1:100
140
1.0
141
100.0
290
0
0
SCALE
5
FB8
102
{ACAD_REACTORS
330
FAB
102
}
330
FAB
100
AcDbScale
70
0
300
2:1
140
2.0
141
1.0
290
0
0
SCALE
5
FB9
102
{ACAD_REACTORS
330
FAB
102
}
330
FAB
100
AcDbScale
70
0
300
4:1
140
4.0
141
1.0
290
0
0
SCALE
5
FBA
102
{ACAD_REACTORS
330
FAB
102
}
330
FAB
100
AcDbScale
70
0
300
8:1
140
8.0
141
1.0
290
0
0
SCALE
5
FBB
102
{ACAD_REACTORS
330
FAB
102
}
330
FAB
100
AcDbScale
70
0
300
10:1
140
10.0
141
1.0
290
0
0
SCALE
5
FBC
102
{ACAD_REACTORS
330
FAB
102
}
330
FAB
100
AcDbScale
70
0
300
100:1
140
100.0
141
1.0
290
0
0
SCALE
5
FBD
102
{ACAD_REACTORS
330
FAB
102
}
330
FAB
100
AcDbScale
70
0
300
1/128" = 1'-0"
140
0.0078125
141
12.0
290
0
0
SCALE
5
FBE
102
{ACAD_REACTORS
330
FAB
102
}
330
FAB
100
AcDbScale
70
0
300
1/64" = 1'-0"
140
0.015625
141
12.0
290
0
0
SCALE
5
FBF
102
{ACAD_REACTORS
330
FAB
102
}
330
FAB
100
AcDbScale
70
0
300
1/32" = 1'-0"
140
0.03125
141
12.0
290
0
0
SCALE
5
FC0
102
{ACAD_REACTORS
330
FAB
102
}
330
FAB
100
AcDbScale
70
0
300
1/16" = 1'-0"
140
0.0625
141
12.0
290
0
0
SCALE
5
FC1
102
{ACAD_REACTORS
330
FAB
102
}
330
FAB
100
AcDbScale
70
0
300
3/32" = 1'-0"
140
0.09375
141
12.0
290
0
0
SCALE
5
FC2
102
{ACAD_REACTORS
330
FAB
102
}
330
FAB
100
AcDbScale
70
0
300
1/8" = 1'-0"
140
0.125
141
12.0
290
0
0
SCALE
5
FC3
102
{ACAD_REACTORS
330
FAB
102
}
330
FAB
100
AcDbScale
70
0
300
3/16" = 1'-0"
140
0.1875
141
12.0
290
0
0
SCALE
5
FC4
102
{ACAD_REACTORS
330
FAB
102
}
330
FAB
100
AcDbScale
70
0
300
1/4" = 1'-0"
140
0.25
141
12.0
290
0
0
SCALE
5
FC5
102
{ACAD_REACTORS
330
FAB
102
}
330
FAB
100
AcDbScale
70
0
300
3/8" = 1'-0"
140
0.375
141
12.0
290
0
0
SCALE
5
FC6
102
{ACAD_REACTORS
330
FAB
102
}
330
FAB
100
AcDbScale
70
0
300
1/2" = 1'-0"
140
0.5
141
12.0
290
0
0
SCALE
5
FC7
102
{ACAD_REACTORS
330
FAB
102
}
330
FAB
100
AcDbScale
70
0
300
3/4" = 1'-0"
140
0.75
141
12.0
290
0
0
SCALE
5
FC8
102
{ACAD_REACTORS
330
FAB
102
}
330
FAB
100
AcDbScale
70
0
300
1" = 1'-0"
140
1.0
141
12.0
290
0
0
SCALE
5
FC9
102
{ACAD_REACTORS
330
FAB
102
}
330
FAB
100
AcDbScale
70
0
300
1-1/2" = 1'-0"
140
1.5
141
12.0
290
0
0
SCALE
5
FCA
102
{ACAD_REACTORS
330
FAB
102
}
330
FAB
100
AcDbScale
70
0
300
3" = 1'-0"
140
3.0
141
12.0
290
0
0
SCALE
5
FCB
102
{ACAD_REACTORS
330
FAB
102
}
330
FAB
100
AcDbScale
70
0
300
6" = 1'-0"
140
6.0
141
12.0
290
0
0
SCALE
5
FCC
102
{ACAD_REACTORS
330
FAB
102
}
330
FAB
100
AcDbScale
70
0
300
1'-0" = 1'-0"
140
12.0
141
12.0
290
0
0
TABLESTYLE
5
FA9
102
{ACAD_XDICTIONARY
360
FF8
102
}
102
{ACAD_REACTORS
330
FA8
102
}
330
FA8
100
AcDbTableStyle
3
Standard
70
0
71
0
40
0.06
41
0.06
280
0
281
0
7
Standard
140
0.18
170
2
62
0
63
7
283
0
274
-2
284
1
64
0
275
-2
285
1
65
0
276
-2
286
1
66
0
277
-2
287
1
67
0
278
-2
288
1
68
0
279
-2
289
1
69
0
7
Standard
140
0.25
170
5
62
0
63
7
283
0
274
-2
284
1
64
0
275
-2
285
1
65
0
276
-2
286
1
66
0
277
-2
287
1
67
0
278
-2
288
1
68
0
279
-2
289
1
69
0
7
Standard
140
0.18
170
5
62
0
63
7
283
0
274
-2
284
1
64
0
275
-2
285
1
65
0
276
-2
286
1
66
0
277
-2
287
1
67
0
278
-2
288
1
68
0
279
-2
289
1
69
0
0
VISUALSTYLE
5
F99
102
{ACAD_XDICTIONARY
360
108A
102
}
102
{ACAD_REACTORS
330
F93
102
}
330
F93
100
AcDbVisualStyle
2

70
4
71
0
72
2
73
0
90
0
40
-0.6
41
-30.0
62
5
63
7
74
1
91
4
64
7
65
257
75
1
175
1
42
1.0
92
0
66
257
43
1.0
76
1
77
6
78
2
67
7
79
5
170
0
171
0
290
0
174
0
93
1
44
0.0
173
0
291
0
45
0.0
1001
ACAD
1000
AcDbSavedByObjectVersion
1070
0
0
VISUALSTYLE
5
F9B
102
{ACAD_XDICTIONARY
360
108E
102
}
102
{ACAD_REACTORS
330
F93
102
}
330
F93
100
AcDbVisualStyle
2

70
6
71
1
72
2
73
2
90
0
40
-0.6
41
-30.0
62
5
63
7
74
2
91
2
64
7
65
257
75
2
175
1
42
179.0
92
0
66
257
43
1.0
76
1
77
6
78
2
67
7
79
3
170
0
171
0
290
0
174
0
93
1
44
0.0
173
0
291
0
45
0.0
1001
ACAD
1000
AcDbSavedByObjectVersion
1070
0
0
VISUALSTYLE
5
F9A
102
{ACAD_XDICTIONARY
360
108C
102
}
102
{ACAD_REACTORS
330
F93
102
}
330
F93
100
AcDbVisualStyle
2

70
5
71
0
72
2
73
0
90
0
40
-0.6
41
-30.0
62
5
63
7
74
1
91
4
64
7
65
257
75
1
175
1
42
1.0
92
0
66
257
43
1.0
76
1
77
6
78
2
67
7
79
5
170
0
171
0
290
0
174
0
93
1
44
0.0
173
0
291
0
45
0.0
1001
ACAD
1000
AcDbSavedByObjectVersion
1070
0
0
VISUALSTYLE
5
F98
102
{ACAD_XDICTIONARY
360
1088
102
}
102
{ACAD_REACTORS
330
F93
102
}
330
F93
100
AcDbVisualStyle
2

70
7
71
1
72
0
73
1
90
0
40
-0.6
41
-30.0
62
5
63
7
74
0
91
4
64
7
65
257
75
1
175
1
42
1.0
92
8
66
7
43
1.0
76
1
77
6
78
2
67
7
79
5
170
0
171
0
290
0
174
0
93
1
44
0.0
173
0
291
1
45
0.0
1001
ACAD
1000
AcDbSavedByObjectVersion
1070
0
0
VISUALSTYLE
5
F9F
102
{ACAD_XDICTIONARY
360
1096
102
}
102
{ACAD_REACTORS
330
F93
102
}
330
F93
100
AcDbVisualStyle
2

70
12
71
2
72
2
73
0
90
0
40
-0.6
41
-30.0
62
5
63
7
74
1
91
4
64
7
65
257
75
1
175
1
42
1.0
92
8
66
7
43
1.0
76
1
77
6
78
2
67
7
79
5
170
0
171
0
290
0
174
0
93
1
44
50.0
173
0
291
1
45
0.0
1001
ACAD
1000
AcDbSavedByObjectVersion
1070
0
0
VISUALSTYLE
5
FA3
102
{ACAD_XDICTIONARY
360
109E
102
}
102
{ACAD_REACTORS
330
F93
102
}
330
F93
100
AcDbVisualStyle
2

70
16
71
2
72
2
73
3
90
0
40
-0.6
41
-30.0
62
5
63
8
74
1
91
4
64
7
65
257
75
1
175
1
42
1.0
92
8
66
8
43
1.0
76
1
77
6
78
2
67
7
79
5
170
0
171
0
290
0
174
0
93
1
44
0.0
173
0
291
1
45
0.0
1001
ACAD
1000
AcDbSavedByObjectVersion
1070
0
0
VISUALSTYLE
5
F9C
102
{ACAD_XDICTIONARY
360
1090
102
}
102
{ACAD_REACTORS
330
F93
102
}
330
F93
100
AcDbVisualStyle
2

70
9
71
3
72
2
73
0
90
0
40
-0.6
41
-30.0
62
5
63
7
74
2
91
2
64
7
65
257
75
1
175
1
42
179.0
92
8
66
7
43
1.0
76
1
77
6
78
2
67
7
79
3
170
0
171
0
290
0
174
0
93
1
44
0.0
173
0
291
0
45
0.0
1001
ACAD
1000
AcDbSavedByObjectVersion
1070
0
0
VISUALSTYLE
5
F9E
102
{ACAD_XDICTIONARY
360
1094
102
}
102
{ACAD_REACTORS
330
F93
102
}
330
F93
100
AcDbVisualStyle
2

70
11
71
2
72
2
73
0
90
0
40
-0.6
41
-30.0
62
5
63
7
74
1
91
4
64
7
65
257
75
1
175
1
42
1.0
92
8
66
7
43
1.0
76
1
77
6
78
2
67
7
79
5
170
0
171
0
290
0
174
0
93
1
44
-50.0
173
0
291
1
45
0.0
1001
ACAD
1000
AcDbSavedByObjectVersion
1070
0
0
VISUALSTYLE
5
FA6
102
{ACAD_XDICTIONARY
360
10A4
102
}
102
{ACAD_REACTORS
330
F93
102
}
330
F93
100
AcDbVisualStyle
2

70
22
71
2
72
2
73
0
90
0
40
-0.6
41
-30.0
62
5
63
7
74
1
91
4
64
7
65
257
75
1
175
1
42
1.0
92
8
66
7
43
1.0
76
1
77
6
78
2
67
7
79
5
170
0
171
0
290
0
174
0
93
1
44
0.0
173
0
291
1
45
0.0
1001
ACAD
1000
AcDbSavedByObjectVersion
1070
0
0
VISUALSTYLE
5
FA2
102
{ACAD_XDICTIONARY
360
109C
102
}
102
{ACAD_REACTORS
330
F93
102
}
330
F93
100
AcDbVisualStyle
2

70
15
71
2
72
2
73
0
90
0
40
-0.6
41
-30.0
62
5
63
7
74
1
91
4
64
7
65
257
75
1
175
1
42
1.0
92
8
66
7
43
1.0
76
1
77
6
78
2
67
7
79
5
170
0
171
0
290
0
174
0
93
1
44
0.0
173
0
291
1
45
0.0
1001
ACAD
1000
AcDbSavedByObjectVersion
1070
0
0
VISUALSTYLE
5
F94
102
{ACAD_XDICTIONARY
360
1080
102
}
102
{ACAD_REACTORS
330
F93
102
}
330
F93
100
AcDbVisualStyle
2

70
0
71
2
72
1
73
1
90
2
40
-0.6
41
30.0
62
5
63
7
74
0
91
4
64
7
65
257
75
1
175
1
42
1.0
92
8
66
7
43
1.0
76
1
77
6
78
2
67
7
79
5
170
0
171
0
290
0
174
0
93
13
44
0.0
173
0
291
1
45
0.0
1001
ACAD
1000
AcDbSavedByObjectVersion
1070
0
0
VISUALSTYLE
5
F95
102
{ACAD_XDICTIONARY
360
1082
102
}
102
{ACAD_REACTORS
330
F93
102
}
330
F93
100
AcDbVisualStyle
2

70
1
71
2
72
1
73
1
90
2
40
-0.6
41
30.0
62
5
63
7
74
1
91
4
64
7
65
257
75
1
175
1
42
1.0
92
0
66
257
43
1.0
76
1
77
6
78
2
67
7
79
5
170
0
171
0
290
0
174
0
93
13
44
0.0
173
0
291
1
45
0.0
1001
ACAD
1000
AcDbSavedByObjectVersion
1070
0
0
VISUALSTYLE
5
F96
102
{ACAD_XDICTIONARY
360
1084
102
}
102
{ACAD_REACTORS
330
F93
102
}
330
F93
100
AcDbVisualStyle
2

70
2
71
2
72
2
73
1
90
2
40
-0.6
41
30.0
62
5
63
7
74
0
91
4
64
7
65
257
75
1
175
1
42
1.0
92
0
66
7
43
1.0
76
1
77
6
78
2
67
7
79
5
170
0
171
0
290
0
174
0
93
13
44
0.0
173
0
291
1
45
0.0
1001
ACAD
1000
AcDbSavedByObjectVersion
1070
0
0
VISUALSTYLE
5
F97
102
{ACAD_XDICTIONARY
360
1086
102
}
102
{ACAD_REACTORS
330
F93
102
}
330
F93
100
AcDbVisualStyle
2

70
3
71
2
72
2
73
1
90
2
40
-0.6
41
30.0
62
5
63
7
74
1
91
4
64
7
65
257
75
1
175
1
42
1.0
92
0
66
257
43
1.0
76
1
77
6
78
2
67
7
79
5
170
0
171
0
290
0
174
0
93
13
44
0.0
173
0
291
1
45
0.0
1001
ACAD
1000
AcDbSavedByObjectVersion
1070
0
0
VISUALSTYLE
5
FA4
102
{ACAD_XDICTIONARY
360
10A0
102
}
102
{ACAD_REACTORS
330
F93
102
}
330
F93
100
AcDbVisualStyle
2

70
20
71
2
72
2
73
0
90
0
40
-0.6
41
-30.0
62
5
63
7
74
1
91
4
64
7
65
257
75
1
175
1
42
1.0
92
10
66
7
43
1.0
76
1
77
6
78
2
67
7
79
5
170
0
171
0
290
0
174
0
93
1
44
0.0
173
0
291
1
45
0.0
1001
ACAD
1000
AcDbSavedByObjectVersion
1070
0
0
VISUALSTYLE
5
FA1
102
{ACAD_XDICTIONARY
360
109A
102
}
102
{ACAD_REACTORS
330
F93
102
}
330
F93
100
AcDbVisualStyle
2

70
14
71
2
72
2
73
0
90
0
40
-0.6
41
-30.0
62
5
63
7
74
1
91
4
64
7
65
257
75
7
175
7
42
1.0
92
8
66
7
43
1.0
76
1
77
6
78
2
67
7
79
5
170
0
171
0
290
0
174
0
93
1
44
0.0
173
0
291
1
45
0.0
1001
ACAD
1000
AcDbSavedByObjectVersion
1070
0
0
VISUALSTYLE
5
FA5
102
{ACAD_XDICTIONARY
360
10A2
102
}
102
{ACAD_REACTORS
330
F93
102
}
330
F93
100
AcDbVisualStyle
2

70
21
71
2
72
2
73
0
90
0
40
-0.6
41
-30.0
62
5
63
7
74
1
91
4
64
7
65
257
75
1
175
1
42
1.0
92
9
66
7
43
1.0
76
1
77
6
78
2
67
7
79
5
170
0
171
0
290
0
174
0
93
1
44
0.0
173
0
291
1
45
0.0
1001
ACAD
1000
AcDbSavedByObjectVersion
1070
0
0
VISUALSTYLE
5
F9D
102
{ACAD_XDICTIONARY
360
1092
102
}
102
{ACAD_REACTORS
330
F93
102
}
330
F93
100
AcDbVisualStyle
2

70
8
71
2
72
2
73
0
90
0
40
-0.6
41
-30.0
62
5
63
7
74
1
91
0
64
7
65
257
75
1
175
1
42
1.0
92
8
66
8
43
1.0
76
1
77
6
78
2
67
7
79
5
170
0
171
0
290
0
174
0
93
13
44
0.0
173
0
291
0
45
0.0
1001
ACAD
1000
AcDbSavedByObjectVersion
1070
0
0
VISUALSTYLE
5
FA0
102
{ACAD_XDICTIONARY
360
1098
102
}
102
{ACAD_REACTORS
330
F93
102
}
330
F93
100
AcDbVisualStyle
2

70
13
71
2
72
2
73
0
90
0
40
-0.6
41
-30.0
62
5
63
7
74
1
91
4
64
7
65
257
75
1
175
1
42
1.0
92
12
66
7
43
1.0
76
1
77
6
78
2
67
7
79
5
170
0
171
0
290
0
174
0
93
1
44
0.0
173
0
291
1
45
0.0
1001
ACAD
1000
AcDbSavedByObjectVersion
1070
0
0
DICTIONARYVAR
5
FF3
102
{ACAD_REACTORS
330
FF0
102
}
330
FF0
100
DictionaryVariables
280
0
1
1:1
0
DICTIONARYVAR
5
FF2
102
{ACAD_REACTORS
330
FF0
102
}
330
FF0
100
DictionaryVariables
280
0
1
STANDARD
0
DICTIONARYVAR
5
FF1
102
{ACAD_REACTORS
330
FF0
102
}
330
FF0
100
DictionaryVariables
280
0
1
STANDARD
0
DICTIONARYVAR
5
FF6
102
{ACAD_REACTORS
330
FF0
102
}
330
FF0
100
DictionaryVariables
280
0
1
1
0
DICTIONARYVAR
5
FF5
102
{ACAD_REACTORS
330
FF0
102
}
330
FF0
100
DictionaryVariables
280
0
1
0
0
DICTIONARYVAR
5
FF4
102
{ACAD_REACTORS
330
FF0
102
}
330
FF0
100
DictionaryVariables
280
0
1
127
0
DICTIONARYVAR
5
1078
102
{ACAD_REACTORS
330
FF0
102
}
330
FF0
100
DictionaryVariables
280
0
1
2
0
DICTIONARY
5
10A9
330
FD1
100
AcDbDictionary
280
1
281
1
3
ACAD_XREC_ROUNDTRIP
360
10AA
0
DICTIONARY
5
10A7
330
FD0
100
AcDbDictionary
280
1
281
1
3
ACAD_XREC_ROUNDTRIP
360
10A8
0
DICTIONARY
5
F84
330
F83
100
AcDbDictionary
280
1
281
1
3
ACAD_XREC_ROUNDTRIP
360
FFF
3
BUMPTILE
360
F86
3
DIFFUSETILE
360
F85
3
OPACITYTILE
360
F89
3
REFLECTIONTILE
360
F88
3
REFRACTIONTILE
360
F8A
3
SPECULARTILE
360
F87
0
DICTIONARY
5
F7C
330
F7B
100
AcDbDictionary
280
1
281
1
3
ACAD_XREC_ROUNDTRIP
360
FFE
3
BUMPTILE
360
F7E
3
DIFFUSETILE
360
F7D
3
OPACITYTILE
360
F81
3
REFLECTIONTILE
360
F80
3
REFRACTIONTILE
360
F82
3
SPECULARTILE
360
F7F
0
DICTIONARY
5
F8C
330
F8B
100
AcDbDictionary
280
1
281
1
3
ACAD_XREC_ROUNDTRIP
360
1000
3
BUMPTILE
360
F8E
3
DIFFUSETILE
360
F8D
3
OPACITYTILE
360
F91
3
REFLECTIONTILE
360
F90
3
REFRACTIONTILE
360
F92
3
SPECULARTILE
360
F8F
0
DICTIONARY
5
FF8
330
FA9
100
AcDbDictionary
280
1
281
1
3
ACAD_ROUNDTRIP_2008_TABLESTYLE_CELLSTYLEMAP
360
1079
3
ACAD_XREC_ROUNDTRIP
360
10A6
0
DICTIONARY
5
108A
330
F99
100
AcDbDictionary
280
1
281
1
3
ACAD_XREC_ROUNDTRIP
360
108B
0
DICTIONARY
5
108E
330
F9B
100
AcDbDictionary
280
1
281
1
3
ACAD_XREC_ROUNDTRIP
360
108F
0
DICTIONARY
5
108C
330
F9A
100
AcDbDictionary
280
1
281
1
3
ACAD_XREC_ROUNDTRIP
360
108D
0
DICTIONARY
5
1088
330
F98
100
AcDbDictionary
280
1
281
1
3
ACAD_XREC_ROUNDTRIP
360
1089
0
DICTIONARY
5
1096
330
F9F
100
AcDbDictionary
280
1
281
1
3
ACAD_XREC_ROUNDTRIP
360
1097
0
DICTIONARY
5
109E
330
FA3
100
AcDbDictionary
280
1
281
1
3
ACAD_XREC_ROUNDTRIP
360
109F
0
DICTIONARY
5
1090
330
F9C
100
AcDbDictionary
280
1
281
1
3
ACAD_XREC_ROUNDTRIP
360
1091
0
DICTIONARY
5
1094
330
F9E
100
AcDbDictionary
280
1
281
1
3
ACAD_XREC_ROUNDTRIP
360
1095
0
DICTIONARY
5
10A4
330
FA6
100
AcDbDictionary
280
1
281
1
3
ACAD_XREC_ROUNDTRIP
360
10A5
0
DICTIONARY
5
109C
330
FA2
100
AcDbDictionary
280
1
281
1
3
ACAD_XREC_ROUNDTRIP
360
109D
0
DICTIONARY
5
1080
330
F94
100
AcDbDictionary
280
1
281
1
3
ACAD_XREC_ROUNDTRIP
360
1081
0
DICTIONARY
5
1082
330
F95
100
AcDbDictionary
280
1
281
1
3
ACAD_XREC_ROUNDTRIP
360
1083
0
DICTIONARY
5
1084
330
F96
100
AcDbDictionary
280
1
281
1
3
ACAD_XREC_ROUNDTRIP
360
1085
0
DICTIONARY
5
1086
330
F97
100
AcDbDictionary
280
1
281
1
3
ACAD_XREC_ROUNDTRIP
360
1087
0
DICTIONARY
5
10A0
330
FA4
100
AcDbDictionary
280
1
281
1
3
ACAD_XREC_ROUNDTRIP
360
10A1
0
DICTIONARY
5
109A
330
FA1
100
AcDbDictionary
280
1
281
1
3
ACAD_XREC_ROUNDTRIP
360
109B
0
DICTIONARY
5
10A2
330
FA5
100
AcDbDictionary
280
1
281
1
3
ACAD_XREC_ROUNDTRIP
360
10A3
0
DICTIONARY
5
1092
330
F9D
100
AcDbDictionary
280
1
281
1
3
ACAD_XREC_ROUNDTRIP
360
1093
0
DICTIONARY
5
1098
330
FA0
100
AcDbDictionary
280
1
281
1
3
ACAD_XREC_ROUNDTRIP
360
1099
0
XRECORD
5
10AA
102
{ACAD_REACTORS
330
10A9
102
}
330
10A9
100
AcDbXrecord
280
1
102
SHADEPLOT
70
0
102
SHADEPLOTRESLEVEL
70
2
102
SHADEPLOTCUSTOMDPI
70
300
0
XRECORD
5
10A8
102
{ACAD_REACTORS
330
10A7
102
}
330
10A7
100
AcDbXrecord
280
1
102
SHADEPLOT
70
0
102
SHADEPLOTRESLEVEL
70
2
102
SHADEPLOTCUSTOMDPI
70
300
0
XRECORD
5
FFF
102
{ACAD_REACTORS
330
F84
102
}
330
F84
100
AcDbXrecord
280
1
102
MATERIAL
148
0.0
149
0.0
149
0.0
93
0
94
127
282
0
72
0
77
0
171
0
175
0
179
0
273
0
0
XRECORD
5
F86
102
{ACAD_REACTORS
330
F84
102
}
330
F84
100
AcDbXrecord
280
1
270
1
271
1
0
XRECORD
5
F85
102
{ACAD_REACTORS
330
F84
102
}
330
F84
100
AcDbXrecord
280
1
270
1
271
1
0
XRECORD
5
F89
102
{ACAD_REACTORS
330
F84
102
}
330
F84
100
AcDbXrecord
280
1
270
1
271
1
0
XRECORD
5
F88
102
{ACAD_REACTORS
330
F84
102
}
330
F84
100
AcDbXrecord
280
1
270
1
271
1
0
XRECORD
5
F8A
102
{ACAD_REACTORS
330
F84
102
}
330
F84
100
AcDbXrecord
280
1
270
1
271
1
0
XRECORD
5
F87
102
{ACAD_REACTORS
330
F84
102
}
330
F84
100
AcDbXrecord
280
1
270
1
271
1
0
XRECORD
5
FFE
102
{ACAD_REACTORS
330
F7C
102
}
330
F7C
100
AcDbXrecord
280
1
102
MATERIAL
148
0.0
149
0.0
149
0.0
93
0
94
127
282
0
72
0
77
0
171
0
175
0
179
0
273
0
0
XRECORD
5
F7E
102
{ACAD_REACTORS
330
F7C
102
}
330
F7C
100
AcDbXrecord
280
1
270
1
271
1
0
XRECORD
5
F7D
102
{ACAD_REACTORS
330
F7C
102
}
330
F7C
100
AcDbXrecord
280
1
270
1
271
1
0
XRECORD
5
F81
102
{ACAD_REACTORS
330
F7C
102
}
330
F7C
100
AcDbXrecord
280
1
270
1
271
1
0
XRECORD
5
F80
102
{ACAD_REACTORS
330
F7C
102
}
330
F7C
100
AcDbXrecord
280
1
270
1
271
1
0
XRECORD
5
F82
102
{ACAD_REACTORS
330
F7C
102
}
330
F7C
100
AcDbXrecord
280
1
270
1
271
1
0
XRECORD
5
F7F
102
{ACAD_REACTORS
330
F7C
102
}
330
F7C
100
AcDbXrecord
280
1
270
1
271
1
0
XRECORD
5
1000
102
{ACAD_REACTORS
330
F8C
102
}
330
F8C
100
AcDbXrecord
280
1
102
MATERIAL
148
0.0
149
0.0
149
0.0
93
0
94
127
282
0
72
0
77
0
171
0
175
0
179
0
273
0
0
XRECORD
5
F8E
102
{ACAD_REACTORS
330
F8C
102
}
330
F8C
100
AcDbXrecord
280
1
270
1
271
1
0
XRECORD
5
F8D
102
{ACAD_REACTORS
330
F8C
102
}
330
F8C
100
AcDbXrecord
280
1
270
1
271
1
0
XRECORD
5
F91
102
{ACAD_REACTORS
330
F8C
102
}
330
F8C
100
AcDbXrecord
280
1
270
1
271
1
0
XRECORD
5
F90
102
{ACAD_REACTORS
330
F8C
102
}
330
F8C
100
AcDbXrecord
280
1
270
1
271
1
0
XRECORD
5
F92
102
{ACAD_REACTORS
330
F8C
102
}
330
F8C
100
AcDbXrecord
280
1
270
1
271
1
0
XRECORD
5
F8F
102
{ACAD_REACTORS
330
F8C
102
}
330
F8C
100
AcDbXrecord
280
1
270
1
271
1
0
CELLSTYLEMAP
5
1079
102
{ACAD_REACTORS
330
FF8
102
}
330
FF8
100
AcDbCellStyleMap
90
3
300
CELLSTYLE
1
TABLEFORMAT_BEGIN
90
5
170
1
91
0
92
32768
62
257
93
1
300
CONTENTFORMAT
1
CONTENTFORMAT_BEGIN
90
0
91
0
92
512
93
0
300

40
0.0
140
1.0
94
5
62
0
340
253
144
0.25
309
CONTENTFORMAT_END
171
1
301
MARGIN
1
CELLMARGIN_BEGIN
40
0.06
40
0.06
40
0.06
40
0.06
40
0.18
40
0.18
309
CELLMARGIN_END
94
6
95
1
302
GRIDFORMAT
1
GRIDFORMAT_BEGIN
90
0
91
1
62
0
92
-2
340
0
93
0
40
0.045
309
GRIDFORMAT_END
95
2
302
GRIDFORMAT
1
GRIDFORMAT_BEGIN
90
0
91
1
62
0
92
-2
340
0
93
0
40
0.045
309
GRIDFORMAT_END
95
4
302
GRIDFORMAT
1
GRIDFORMAT_BEGIN
90
0
91
1
62
0
92
-2
340
0
93
0
40
0.045
309
GRIDFORMAT_END
95
8
302
GRIDFORMAT
1
GRIDFORMAT_BEGIN
90
0
91
1
62
0
92
-2
340
0
93
0
40
0.045
309
GRIDFORMAT_END
95
16
302
GRIDFORMAT
1
GRIDFORMAT_BEGIN
90
0
91
1
62
0
92
-2
340
0
93
0
40
0.045
309
GRIDFORMAT_END
95
32
302
GRIDFORMAT
1
GRIDFORMAT_BEGIN
90
0
91
1
62
0
92
-2
340
0
93
0
40
0.045
309
GRIDFORMAT_END
309
TABLEFORMAT_END
1
CELLSTYLE_BEGIN
90
1
91
1
300
_TITLE
309
CELLSTYLE_END
300
CELLSTYLE
1
TABLEFORMAT_BEGIN
90
5
170
1
91
0
92
0
62
257
93
1
300
CONTENTFORMAT
1
CONTENTFORMAT_BEGIN
90
0
91
0
92
512
93
0
300

40
0.0
140
1.0
94
5
62
0
340
253
144
0.18
309
CONTENTFORMAT_END
171
1
301
MARGIN
1
CELLMARGIN_BEGIN
40
0.06
40
0.06
40
0.06
40
0.06
40
0.18
40
0.18
309
CELLMARGIN_END
94
6
95
1
302
GRIDFORMAT
1
GRIDFORMAT_BEGIN
90
0
91
1
62
0
92
-2
340
0
93
0
40
0.045
309
GRIDFORMAT_END
95
2
302
GRIDFORMAT
1
GRIDFORMAT_BEGIN
90
0
91
1
62
0
92
-2
340
0
93
0
40
0.045
309
GRIDFORMAT_END
95
4
302
GRIDFORMAT
1
GRIDFORMAT_BEGIN
90
0
91
1
62
0
92
-2
340
0
93
0
40
0.045
309
GRIDFORMAT_END
95
8
302
GRIDFORMAT
1
GRIDFORMAT_BEGIN
90
0
91
1
62
0
92
-2
340
0
93
0
40
0.045
309
GRIDFORMAT_END
95
16
302
GRIDFORMAT
1
GRIDFORMAT_BEGIN
90
0
91
1
62
0
92
-2
340
0
93
0
40
0.045
309
GRIDFORMAT_END
95
32
302
GRIDFORMAT
1
GRIDFORMAT_BEGIN
90
0
91
1
62
0
92
-2
340
0
93
0
40
0.045
309
GRIDFORMAT_END
309
TABLEFORMAT_END
1
CELLSTYLE_BEGIN
90
2
91
1
300
_HEADER
309
CELLSTYLE_END
300
CELLSTYLE
1
TABLEFORMAT_BEGIN
90
5
170
1
91
0
92
0
62
257
93
1
300
CONTENTFORMAT
1
CONTENTFORMAT_BEGIN
90
0
91
0
92
512
93
0
300

40
0.0
140
1.0
94
2
62
0
340
253
144
0.18
309
CONTENTFORMAT_END
171
1
301
MARGIN
1
CELLMARGIN_BEGIN
40
0.06
40
0.06
40
0.06
40
0.06
40
0.18
40
0.18
309
CELLMARGIN_END
94
6
95
1
302
GRIDFORMAT
1
GRIDFORMAT_BEGIN
90
0
91
1
62
0
92
-2
340
0
93
0
40
0.045
309
GRIDFORMAT_END
95
2
302
GRIDFORMAT
1
GRIDFORMAT_BEGIN
90
0
91
1
62
0
92
-2
340
0
93
0
40
0.045
309
GRIDFORMAT_END
95
4
302
GRIDFORMAT
1
GRIDFORMAT_BEGIN
90
0
91
1
62
0
92
-2
340
0
93
0
40
0.045
309
GRIDFORMAT_END
95
8
302
GRIDFORMAT
1
GRIDFORMAT_BEGIN
90
0
91
1
62
0
92
-2
340
0
93
0
40
0.045
309
GRIDFORMAT_END
95
16
302
GRIDFORMAT
1
GRIDFORMAT_BEGIN
90
0
91
1
62
0
92
-2
340
0
93
0
40
0.045
309
GRIDFORMAT_END
95
32
302
GRIDFORMAT
1
GRIDFORMAT_BEGIN
90
0
91
1
62
0
92
-2
340
0
93
0
40
0.045
309
GRIDFORMAT_END
309
TABLEFORMAT_END
1
CELLSTYLE_BEGIN
90
3
91
2
300
_DATA
309
CELLSTYLE_END
0
XRECORD
5
10A6
102
{ACAD_REACTORS
330
FF8
102
}
330
FF8
100
AcDbXrecord
280
1
102
ACAD_ROUNDTRIP_PRE2007_TABLESTYLE
90
512
91
0
1

92
512
93
0
2

94
512
95
0
3

0
XRECORD
5
108B
102
{ACAD_REACTORS
330
108A
102
}
330
108A
100
AcDbXrecord
280
1
102
RTVSPropertyOp0
70
1
102
RTVSPropertyOp1
70
1
102
RTVSPropertyOp2
70
1
102
RTVSPropertyOp3
70
1
102
RTVSPropertyOp4
70
1
102
RTVSPropertyOp5
70
1
102
RTVSPropertyOp6
70
1
102
RTVSPropertyOp7
70
1
102
RTVSPropertyOp8
70
1
102
RTVSPropertyOp9
70
1
102
RTVSPropertyOp10
70
1
102
RTVSPropertyOp11
70
1
102
RTVSPropertyOp12
70
1
102
RTVSPropertyOp13
70
1
102
RTVSPropertyOp14
70
1
102
RTVSPropertyOp15
70
1
102
RTVSPropertyOp16
70
1
102
RTVSPropertyOp17
70
1
102
RTVSPropertyOp18
70
1
102
RTVSPropertyOp19
70
1
102
RTVSPropertyOp20
70
1
102
RTVSPropertyOp21
70
1
102
RTVSPropertyOp22
70
1
102
RTVSPropertyOp23
70
1
102
RTVSPropertyOp24
70
1
102
RTVSPropertyOp25
70
1
102
RTVSPropertyOp26
70
1
102
RTVSPropertyOp27
70
1
0
XRECORD
5
108F
102
{ACAD_REACTORS
330
108E
102
}
330
108E
100
AcDbXrecord
280
1
102
RTVSPropertyOp0
70
1
102
RTVSPropertyOp1
70
1
102
RTVSPropertyOp2
70
1
102
RTVSPropertyOp3
70
1
102
RTVSPropertyOp4
70
1
102
RTVSPropertyOp5
70
1
102
RTVSPropertyOp6
70
1
102
RTVSPropertyOp7
70
1
102
RTVSPropertyOp8
70
1
102
RTVSPropertyOp9
70
1
102
RTVSPropertyOp10
70
1
102
RTVSPropertyOp11
70
1
102
RTVSPropertyOp12
70
1
102
RTVSPropertyOp13
70
1
102
RTVSPropertyOp14
70
1
102
RTVSPropertyOp15
70
1
102
RTVSPropertyOp16
70
1
102
RTVSPropertyOp17
70
1
102
RTVSPropertyOp18
70
1
102
RTVSPropertyOp19
70
1
102
RTVSPropertyOp20
70
1
102
RTVSPropertyOp21
70
1
102
RTVSPropertyOp22
70
1
102
RTVSPropertyOp23
70
1
102
RTVSPropertyOp24
70
1
102
RTVSPropertyOp25
70
1
102
RTVSPropertyOp26
70
1
102
RTVSPropertyOp27
70
1
0
XRECORD
5
108D
102
{ACAD_REACTORS
330
108C
102
}
330
108C
100
AcDbXrecord
280
1
102
RTVSPropertyOp0
70
1
102
RTVSPropertyOp1
70
1
102
RTVSPropertyOp2
70
1
102
RTVSPropertyOp3
70
1
102
RTVSPropertyOp4
70
1
102
RTVSPropertyOp5
70
1
102
RTVSPropertyOp6
70
1
102
RTVSPropertyOp7
70
1
102
RTVSPropertyOp8
70
1
102
RTVSPropertyOp9
70
1
102
RTVSPropertyOp10
70
1
102
RTVSPropertyOp11
70
1
102
RTVSPropertyOp12
70
1
102
RTVSPropertyOp13
70
1
102
RTVSPropertyOp14
70
1
102
RTVSPropertyOp15
70
1
102
RTVSPropertyOp16
70
1
102
RTVSPropertyOp17
70
1
102
RTVSPropertyOp18
70
1
102
RTVSPropertyOp19
70
1
102
RTVSPropertyOp20
70
1
102
RTVSPropertyOp21
70
1
102
RTVSPropertyOp22
70
1
102
RTVSPropertyOp23
70
1
102
RTVSPropertyOp24
70
1
102
RTVSPropertyOp25
70
1
102
RTVSPropertyOp26
70
1
102
RTVSPropertyOp27
70
1
0
XRECORD
5
1089
102
{ACAD_REACTORS
330
1088
102
}
330
1088
100
AcDbXrecord
280
1
102
RTVSPropertyOp0
70
1
102
RTVSPropertyOp1
70
1
102
RTVSPropertyOp2
70
1
102
RTVSPropertyOp3
70
1
102
RTVSPropertyOp4
70
1
102
RTVSPropertyOp5
70
1
102
RTVSPropertyOp6
70
1
102
RTVSPropertyOp7
70
1
102
RTVSPropertyOp8
70
1
102
RTVSPropertyOp9
70
1
102
RTVSPropertyOp10
70
1
102
RTVSPropertyOp11
70
1
102
RTVSPropertyOp12
70
1
102
RTVSPropertyOp13
70
1
102
RTVSPropertyOp14
70
1
102
RTVSPropertyOp15
70
1
102
RTVSPropertyOp16
70
1
102
RTVSPropertyOp17
70
1
102
RTVSPropertyOp18
70
1
102
RTVSPropertyOp19
70
1
102
RTVSPropertyOp20
70
1
102
RTVSPropertyOp21
70
1
102
RTVSPropertyOp22
70
1
102
RTVSPropertyOp23
70
1
102
RTVSPropertyOp24
70
1
102
RTVSPropertyOp25
70
1
102
RTVSPropertyOp26
70
1
102
RTVSPropertyOp27
70
1
0
XRECORD
5
1097
102
{ACAD_REACTORS
330
1096
102
}
330
1096
100
AcDbXrecord
280
1
102
RTVSPropertyOp0
70
1
102
RTVSPropertyOp1
70
1
102
RTVSPropertyOp2
70
1
102
RTVSPropertyOp3
70
1
102
RTVSPropertyOp4
70
1
102
RTVSPropertyOp5
70
1
102
RTVSPropertyOp6
70
1
102
RTVSPropertyOp7
70
1
102
RTVSPropertyOp8
70
1
102
RTVSPropertyOp9
70
1
102
RTVSPropertyOp10
70
1
102
RTVSPropertyOp11
70
1
102
RTVSPropertyOp12
70
1
102
RTVSPropertyOp13
70
1
102
RTVSPropertyOp14
70
1
102
RTVSPropertyOp15
70
1
102
RTVSPropertyOp16
70
1
102
RTVSPropertyOp17
70
1
102
RTVSPropertyOp18
70
1
102
RTVSPropertyOp19
70
1
102
RTVSPropertyOp20
70
1
102
RTVSPropertyOp21
70
1
102
RTVSPropertyOp22
70
1
102
RTVSPropertyOp23
70
1
102
RTVSPropertyOp24
70
1
102
RTVSPropertyOp25
70
1
102
RTVSPropertyOp26
70
1
102
RTVSPropertyOp27
70
1
0
XRECORD
5
109F
102
{ACAD_REACTORS
330
109E
102
}
330
109E
100
AcDbXrecord
280
1
102
RTVSPropertyOp0
70
1
102
RTVSPropertyOp1
70
1
102
RTVSPropertyOp2
70
1
102
RTVSPropertyOp3
70
1
102
RTVSPropertyOp4
70
1
102
RTVSPropertyOp5
70
1
102
RTVSPropertyOp6
70
1
102
RTVSPropertyOp7
70
1
102
RTVSPropertyOp8
70
1
102
RTVSPropertyOp9
70
1
102
RTVSPropertyOp10
70
1
102
RTVSPropertyOp11
70
1
102
RTVSPropertyOp12
70
1
102
RTVSPropertyOp13
70
1
102
RTVSPropertyOp14
70
1
102
RTVSPropertyOp15
70
1
102
RTVSPropertyOp16
70
1
102
RTVSPropertyOp17
70
1
102
RTVSPropertyOp18
70
1
102
RTVSPropertyOp19
70
1
102
RTVSPropertyOp20
70
1
102
RTVSPropertyOp21
70
1
102
RTVSPropertyOp22
70
1
102
RTVSPropertyOp23
70
1
102
RTVSPropertyOp24
70
1
102
RTVSPropertyOp25
70
1
102
RTVSPropertyOp26
70
1
102
RTVSPropertyOp27
70
1
0
XRECORD
5
1091
102
{ACAD_REACTORS
330
1090
102
}
330
1090
100
AcDbXrecord
280
1
102
RTVSPropertyOp0
70
1
102
RTVSPropertyOp1
70
1
102
RTVSPropertyOp2
70
1
102
RTVSPropertyOp3
70
1
102
RTVSPropertyOp4
70
1
102
RTVSPropertyOp5
70
1
102
RTVSPropertyOp6
70
1
102
RTVSPropertyOp7
70
1
102
RTVSPropertyOp8
70
1
102
RTVSPropertyOp9
70
1
102
RTVSPropertyOp10
70
1
102
RTVSPropertyOp11
70
1
102
RTVSPropertyOp12
70
1
102
RTVSPropertyOp13
70
1
102
RTVSPropertyOp14
70
1
102
RTVSPropertyOp15
70
1
102
RTVSPropertyOp16
70
1
102
RTVSPropertyOp17
70
1
102
RTVSPropertyOp18
70
1
102
RTVSPropertyOp19
70
1
102
RTVSPropertyOp20
70
1
102
RTVSPropertyOp21
70
1
102
RTVSPropertyOp22
70
1
102
RTVSPropertyOp23
70
1
102
RTVSPropertyOp24
70
1
102
RTVSPropertyOp25
70
1
102
RTVSPropertyOp26
70
1
102
RTVSPropertyOp27
70
1
0
XRECORD
5
1095
102
{ACAD_REACTORS
330
1094
102
}
330
1094
100
AcDbXrecord
280
1
102
RTVSPropertyOp0
70
1
102
RTVSPropertyOp1
70
1
102
RTVSPropertyOp2
70
1
102
RTVSPropertyOp3
70
1
102
RTVSPropertyOp4
70
1
102
RTVSPropertyOp5
70
1
102
RTVSPropertyOp6
70
1
102
RTVSPropertyOp7
70
1
102
RTVSPropertyOp8
70
1
102
RTVSPropertyOp9
70
1
102
RTVSPropertyOp10
70
1
102
RTVSPropertyOp11
70
1
102
RTVSPropertyOp12
70
1
102
RTVSPropertyOp13
70
1
102
RTVSPropertyOp14
70
1
102
RTVSPropertyOp15
70
1
102
RTVSPropertyOp16
70
1
102
RTVSPropertyOp17
70
1
102
RTVSPropertyOp18
70
1
102
RTVSPropertyOp19
70
1
102
RTVSPropertyOp20
70
1
102
RTVSPropertyOp21
70
1
102
RTVSPropertyOp22
70
1
102
RTVSPropertyOp23
70
1
102
RTVSPropertyOp24
70
1
102
RTVSPropertyOp25
70
1
102
RTVSPropertyOp26
70
1
102
RTVSPropertyOp27
70
1
0
XRECORD
5
10A5
102
{ACAD_REACTORS
330
10A4
102
}
330
10A4
100
AcDbXrecord
280
1
102
RTVSPropertyOp0
70
0
102
RTVSPropertyOp1
70
0
102
RTVSPropertyOp2
70
0
102
RTVSPropertyOp3
70
0
102
RTVSPropertyOp4
70
0
102
RTVSPropertyOp5
70
0
102
RTVSPropertyOp6
70
0
102
RTVSPropertyOp7
70
0
102
RTVSPropertyOp8
70
0
102
RTVSPropertyOp9
70
0
102
RTVSPropertyOp10
70
0
102
RTVSPropertyOp11
70
0
102
RTVSPropertyOp12
70
0
102
RTVSPropertyOp13
70
0
102
RTVSPropertyOp14
70
2
102
RTVSPropertyOp15
70
0
102
RTVSPropertyOp16
70
0
102
RTVSPropertyOp17
70
0
102
RTVSPropertyOp18
70
0
102
RTVSPropertyOp19
70
0
102
RTVSPropertyOp20
70
0
102
RTVSPropertyOp21
70
0
102
RTVSPropertyOp22
70
0
102
RTVSPropertyOp23
70
0
102
RTVSPropertyOp24
70
0
102
RTVSPropertyOp25
70
0
102
RTVSPropertyOp26
70
0
102
RTVSPropertyOp27
70
0
0
XRECORD
5
109D
102
{ACAD_REACTORS
330
109C
102
}
330
109C
100
AcDbXrecord
280
1
102
RTVSPropertyOp0
70
1
102
RTVSPropertyOp1
70
1
102
RTVSPropertyOp2
70
1
102
RTVSPropertyOp3
70
1
102
RTVSPropertyOp4
70
1
102
RTVSPropertyOp5
70
1
102
RTVSPropertyOp6
70
1
102
RTVSPropertyOp7
70
1
102
RTVSPropertyOp8
70
1
102
RTVSPropertyOp9
70
1
102
RTVSPropertyOp10
70
1
102
RTVSPropertyOp11
70
1
102
RTVSPropertyOp12
70
1
102
RTVSPropertyOp13
70
1
102
RTVSPropertyOp14
70
1
102
RTVSPropertyOp15
70
1
102
RTVSPropertyOp16
70
1
102
RTVSPropertyOp17
70
1
102
RTVSPropertyOp18
70
1
102
RTVSPropertyOp19
70
1
102
RTVSPropertyOp20
70
1
102
RTVSPropertyOp21
70
1
102
RTVSPropertyOp22
70
1
102
RTVSPropertyOp23
70
1
102
RTVSPropertyOp24
70
1
102
RTVSPropertyOp25
70
1
102
RTVSPropertyOp26
70
1
102
RTVSPropertyOp27
70
1
0
XRECORD
5
1081
102
{ACAD_REACTORS
330
1080
102
}
330
1080
100
AcDbXrecord
280
1
102
RTVSPropertyOp0
70
1
102
RTVSPropertyOp1
70
1
102
RTVSPropertyOp2
70
1
102
RTVSPropertyOp3
70
1
102
RTVSPropertyOp4
70
1
102
RTVSPropertyOp5
70
1
102
RTVSPropertyOp6
70
1
102
RTVSPropertyOp7
70
1
102
RTVSPropertyOp8
70
1
102
RTVSPropertyOp9
70
1
102
RTVSPropertyOp10
70
1
102
RTVSPropertyOp11
70
1
102
RTVSPropertyOp12
70
1
102
RTVSPropertyOp13
70
1
102
RTVSPropertyOp14
70
1
102
RTVSPropertyOp15
70
1
102
RTVSPropertyOp16
70
1
102
RTVSPropertyOp17
70
1
102
RTVSPropertyOp18
70
1
102
RTVSPropertyOp19
70
1
102
RTVSPropertyOp20
70
1
102
RTVSPropertyOp21
70
1
102
RTVSPropertyOp22
70
1
102
RTVSPropertyOp23
70
1
102
RTVSPropertyOp24
70
1
102
RTVSPropertyOp25
70
1
102
RTVSPropertyOp26
70
1
102
RTVSPropertyOp27
70
1
0
XRECORD
5
1083
102
{ACAD_REACTORS
330
1082
102
}
330
1082
100
AcDbXrecord
280
1
102
RTVSPropertyOp0
70
1
102
RTVSPropertyOp1
70
1
102
RTVSPropertyOp2
70
1
102
RTVSPropertyOp3
70
1
102
RTVSPropertyOp4
70
1
102
RTVSPropertyOp5
70
1
102
RTVSPropertyOp6
70
1
102
RTVSPropertyOp7
70
1
102
RTVSPropertyOp8
70
1
102
RTVSPropertyOp9
70
1
102
RTVSPropertyOp10
70
1
102
RTVSPropertyOp11
70
1
102
RTVSPropertyOp12
70
1
102
RTVSPropertyOp13
70
1
102
RTVSPropertyOp14
70
1
102
RTVSPropertyOp15
70
1
102
RTVSPropertyOp16
70
1
102
RTVSPropertyOp17
70
1
102
RTVSPropertyOp18
70
1
102
RTVSPropertyOp19
70
1
102
RTVSPropertyOp20
70
1
102
RTVSPropertyOp21
70
1
102
RTVSPropertyOp22
70
1
102
RTVSPropertyOp23
70
1
102
RTVSPropertyOp24
70
1
102
RTVSPropertyOp25
70
1
102
RTVSPropertyOp26
70
1
102
RTVSPropertyOp27
70
1
0
XRECORD
5
1085
102
{ACAD_REACTORS
330
1084
102
}
330
1084
100
AcDbXrecord
280
1
102
RTVSPropertyOp0
70
1
102
RTVSPropertyOp1
70
1
102
RTVSPropertyOp2
70
1
102
RTVSPropertyOp3
70
1
102
RTVSPropertyOp4
70
1
102
RTVSPropertyOp5
70
1
102
RTVSPropertyOp6
70
1
102
RTVSPropertyOp7
70
1
102
RTVSPropertyOp8
70
1
102
RTVSPropertyOp9
70
1
102
RTVSPropertyOp10
70
1
102
RTVSPropertyOp11
70
1
102
RTVSPropertyOp12
70
1
102
RTVSPropertyOp13
70
1
102
RTVSPropertyOp14
70
1
102
RTVSPropertyOp15
70
1
102
RTVSPropertyOp16
70
1
102
RTVSPropertyOp17
70
1
102
RTVSPropertyOp18
70
1
102
RTVSPropertyOp19
70
1
102
RTVSPropertyOp20
70
1
102
RTVSPropertyOp21
70
1
102
RTVSPropertyOp22
70
1
102
RTVSPropertyOp23
70
1
102
RTVSPropertyOp24
70
1
102
RTVSPropertyOp25
70
1
102
RTVSPropertyOp26
70
1
102
RTVSPropertyOp27
70
1
0
XRECORD
5
1087
102
{ACAD_REACTORS
330
1086
102
}
330
1086
100
AcDbXrecord
280
1
102
RTVSPropertyOp0
70
1
102
RTVSPropertyOp1
70
1
102
RTVSPropertyOp2
70
1
102
RTVSPropertyOp3
70
1
102
RTVSPropertyOp4
70
1
102
RTVSPropertyOp5
70
1
102
RTVSPropertyOp6
70
1
102
RTVSPropertyOp7
70
1
102
RTVSPropertyOp8
70
1
102
RTVSPropertyOp9
70
1
102
RTVSPropertyOp10
70
1
102
RTVSPropertyOp11
70
1
102
RTVSPropertyOp12
70
1
102
RTVSPropertyOp13
70
1
102
RTVSPropertyOp14
70
1
102
RTVSPropertyOp15
70
1
102
RTVSPropertyOp16
70
1
102
RTVSPropertyOp17
70
1
102
RTVSPropertyOp18
70
1
102
RTVSPropertyOp19
70
1
102
RTVSPropertyOp20
70
1
102
RTVSPropertyOp21
70
1
102
RTVSPropertyOp22
70
1
102
RTVSPropertyOp23
70
1
102
RTVSPropertyOp24
70
1
102
RTVSPropertyOp25
70
1
102
RTVSPropertyOp26
70
1
102
RTVSPropertyOp27
70
1
0
XRECORD
5
10A1
102
{ACAD_REACTORS
330
10A0
102
}
330
10A0
100
AcDbXrecord
280
1
102
RTVSPropertyOp0
70
0
102
RTVSPropertyOp1
70
0
102
RTVSPropertyOp2
70
0
102
RTVSPropertyOp3
70
0
102
RTVSPropertyOp4
70
0
102
RTVSPropertyOp5
70
0
102
RTVSPropertyOp6
70
0
102
RTVSPropertyOp7
70
0
102
RTVSPropertyOp8
70
0
102
RTVSPropertyOp9
70
0
102
RTVSPropertyOp10
70
0
102
RTVSPropertyOp11
70
0
102
RTVSPropertyOp12
70
0
102
RTVSPropertyOp13
70
0
102
RTVSPropertyOp14
70
2
102
RTVSPropertyOp15
70
0
102
RTVSPropertyOp16
70
0
102
RTVSPropertyOp17
70
0
102
RTVSPropertyOp18
70
0
102
RTVSPropertyOp19
70
0
102
RTVSPropertyOp20
70
0
102
RTVSPropertyOp21
70
0
102
RTVSPropertyOp22
70
0
102
RTVSPropertyOp23
70
0
102
RTVSPropertyOp24
70
0
102
RTVSPropertyOp25
70
0
102
RTVSPropertyOp26
70
0
102
RTVSPropertyOp27
70
0
0
XRECORD
5
109B
102
{ACAD_REACTORS
330
109A
102
}
330
109A
100
AcDbXrecord
280
1
102
RTVSPropertyOp0
70
1
102
RTVSPropertyOp1
70
1
102
RTVSPropertyOp2
70
1
102
RTVSPropertyOp3
70
1
102
RTVSPropertyOp4
70
1
102
RTVSPropertyOp5
70
1
102
RTVSPropertyOp6
70
1
102
RTVSPropertyOp7
70
1
102
RTVSPropertyOp8
70
1
102
RTVSPropertyOp9
70
1
102
RTVSPropertyOp10
70
1
102
RTVSPropertyOp11
70
1
102
RTVSPropertyOp12
70
1
102
RTVSPropertyOp13
70
1
102
RTVSPropertyOp14
70
1
102
RTVSPropertyOp15
70
1
102
RTVSPropertyOp16
70
1
102
RTVSPropertyOp17
70
1
102
RTVSPropertyOp18
70
1
102
RTVSPropertyOp19
70
1
102
RTVSPropertyOp20
70
1
102
RTVSPropertyOp21
70
1
102
RTVSPropertyOp22
70
1
102
RTVSPropertyOp23
70
1
102
RTVSPropertyOp24
70
1
102
RTVSPropertyOp25
70
1
102
RTVSPropertyOp26
70
1
102
RTVSPropertyOp27
70
1
0
XRECORD
5
10A3
102
{ACAD_REACTORS
330
10A2
102
}
330
10A2
100
AcDbXrecord
280
1
102
RTVSPropertyOp0
70
0
102
RTVSPropertyOp1
70
0
102
RTVSPropertyOp2
70
0
102
RTVSPropertyOp3
70
0
102
RTVSPropertyOp4
70
0
102
RTVSPropertyOp5
70
0
102
RTVSPropertyOp6
70
0
102
RTVSPropertyOp7
70
0
102
RTVSPropertyOp8
70
0
102
RTVSPropertyOp9
70
0
102
RTVSPropertyOp10
70
0
102
RTVSPropertyOp11
70
0
102
RTVSPropertyOp12
70
0
102
RTVSPropertyOp13
70
0
102
RTVSPropertyOp14
70
2
102
RTVSPropertyOp15
70
0
102
RTVSPropertyOp16
70
0
102
RTVSPropertyOp17
70
0
102
RTVSPropertyOp18
70
0
102
RTVSPropertyOp19
70
0
102
RTVSPropertyOp20
70
0
102
RTVSPropertyOp21
70
0
102
RTVSPropertyOp22
70
0
102
RTVSPropertyOp23
70
0
102
RTVSPropertyOp24
70
0
102
RTVSPropertyOp25
70
0
102
RTVSPropertyOp26
70
0
102
RTVSPropertyOp27
70
0
0
XRECORD
5
1093
102
{ACAD_REACTORS
330
1092
102
}
330
1092
100
AcDbXrecord
280
1
102
RTVSPropertyOp0
70
1
102
RTVSPropertyOp1
70
1
102
RTVSPropertyOp2
70
1
102
RTVSPropertyOp3
70
1
102
RTVSPropertyOp4
70
1
102
RTVSPropertyOp5
70
1
102
RTVSPropertyOp6
70
1
102
RTVSPropertyOp7
70
1
102
RTVSPropertyOp8
70
1
102
RTVSPropertyOp9
70
1
102
RTVSPropertyOp10
70
1
102
RTVSPropertyOp11
70
1
102
RTVSPropertyOp12
70
1
102
RTVSPropertyOp13
70
1
102
RTVSPropertyOp14
70
1
102
RTVSPropertyOp15
70
1
102
RTVSPropertyOp16
70
1
102
RTVSPropertyOp17
70
1
102
RTVSPropertyOp18
70
1
102
RTVSPropertyOp19
70
1
102
RTVSPropertyOp20
70
1
102
RTVSPropertyOp21
70
1
102
RTVSPropertyOp22
70
1
102
RTVSPropertyOp23
70
1
102
RTVSPropertyOp24
70
1
102
RTVSPropertyOp25
70
1
102
RTVSPropertyOp26
70
1
102
RTVSPropertyOp27
70
1
0
XRECORD
5
1099
102
{ACAD_REACTORS
330
1098
102
}
330
1098
100
AcDbXrecord
280
1
102
RTVSPropertyOp0
70
1
102
RTVSPropertyOp1
70
1
102
RTVSPropertyOp2
70
1
102
RTVSPropertyOp3
70
1
102
RTVSPropertyOp4
70
1
102
RTVSPropertyOp5
70
1
102
RTVSPropertyOp6
70
1
102
RTVSPropertyOp7
70
1
102
RTVSPropertyOp8
70
1
102
RTVSPropertyOp9
70
1
102
RTVSPropertyOp10
70
1
102
RTVSPropertyOp11
70
1
102
RTVSPropertyOp12
70
1
102
RTVSPropertyOp13
70
1
102
RTVSPropertyOp14
70
1
102
RTVSPropertyOp15
70
1
102
RTVSPropertyOp16
70
1
102
RTVSPropertyOp17
70
1
102
RTVSPropertyOp18
70
1
102
RTVSPropertyOp19
70
1
102
RTVSPropertyOp20
70
1
102
RTVSPropertyOp21
70
1
102
RTVSPropertyOp22
70
1
102
RTVSPropertyOp23
70
1
102
RTVSPropertyOp24
70
1
102
RTVSPropertyOp25
70
1
102
RTVSPropertyOp26
70
1
102
RTVSPropertyOp27
70
1
0
ENDSEC
0
EOF
