0
SECTION
2
HEADER
9
$ACADVER
1
AC1015
9
$ACADMAINTVER
70
20
9
$DWGCODEPAGE
3
ANSI_1252
9
$INSBASE
10
0.0
20
0.0
30
0.0
9
$EXTMIN
10
-150.000000000000
20
-105.000000000000
30
0.0
9
$EXTMAX
10
150.000000000000
20
105.000000000000
30
0.0
9
$LIMMIN
10
0.0
20
0.0
9
$LIMMAX
10
12.0
20
9.0
9
$ORTHOMODE
70
0
9
$REGENMODE
70
1
9
$FILLMODE
70
1
9
$QTEXTMODE
70
0
9
$MIRRTEXT
70
1
9
$LTSCALE
40
1.0
9
$ATTMODE
70
1
9
$TEXTSIZE
40
0.2
9
$TRACEWID
40
0.05
9
$TEXTSTYLE
7
Standard
9
$CLAYER
8
0
9
$CELTYPE
6
ByLayer
9
$CECOLOR
62
256
9
$CELTSCALE
40
1.0
9
$DISPSILH
70
0
9
$DIMSCALE
40
1.0
9
$DIMASZ
40
2.5
9
$DIMEXO
40
0.625
9
$DIMDLI
40
0.38
9
$DIMRND
40
0.0
9
$DIMDLE
40
0.0
9
$DIMEXE
40
1.25
9
$DIMTP
40
0.0
9
$DIMTM
40
0.000000001
9
$DIMTXT
40
2.5
9
$DIMCEN
40
0.09
9
$DIMTSZ
40
0.0
9
$DIMTOL
70
1
9
$DIMLIM
70
0
9
$DIMTIH
70
0
9
$DIMTOH
70
0
9
$DIMSE1
70
0
9
$DIMSE2
70
0
9
$DIMTAD
70
1
9
$DIMZIN
70
0
9
$DIMBLK
1
VDDIM_DEFAULT
9
$DIMASO
70
1
9
$DIMSHO
70
1
9
$DIMPOST
1

9
$DIMAPOST
1

9
$DIMALT
70
0
9
$DIMALTD
70
2
9
$DIMALTF
40
25.4
9
$DIMLFAC
40
1.00000000000000
9
$DIMTOFL
70
0
9
$DIMTVP
40
0.0
9
$DIMTIX
70
0
9
$DIMSOXD
70
0
9
$DIMSAH
70
0
9
$DIMBLK1
1

9
$DIMBLK2
1

9
$DIMSTYLE
2
BEM-ISBE
9
$DIMCLRD
70
0
9
$DIMCLRE
70
0
9
$DIMCLRT
70
0
9
$DIMTFAC
40
0.5
9
$DIMGAP
40
0.625
9
$DIMJUST
70
0
9
$DIMSD1
70
0
9
$DIMSD2
70
0
9
$DIMTOLJ
70
1
9
$DIMTZIN
70
0
9
$DIMALTZ
70
0
9
$DIMALTTZ
70
0
9
$DIMUPT
70
0
9
$DIMDEC
70
3
9
$DIMTDEC
70
3
9
$DIMALTU
70
2
9
$DIMALTTD
70
2
9
$DIMTXSTY
7
Standard
9
$DIMAUNIT
70
0
9
$DIMADEC
70
3
9
$DIMALTRND
40
0.0
9
$DIMAZIN
70
0
9
$DIMDSEP
70
46
9
$DIMATFIT
70
3
9
$DIMFRAC
70
0
9
$DIMLDRBLK
1

9
$DIMLUNIT
70
2
9
$DIMLWD
70
-2
9
$DIMLWE
70
-2
9
$DIMTMOVE
70
0
9
$LUNITS
70
2
9
$LUPREC
70
4
9
$SKETCHINC
40
0.1
9
$FILLETRAD
40
0.5
9
$AUNITS
70
0
9
$AUPREC
70
0
9
$MENU
1
.
9
$ELEVATION
40
0.0
9
$PELEVATION
40
0.0
9
$THICKNESS
40
0.0
9
$LIMCHECK
70
0
9
$CHAMFERA
40
0.5
9
$CHAMFERB
40
0.5
9
$CHAMFERC
40
1.0
9
$CHAMFERD
40
0.0
9
$SKPOLY
70
0
9
$TDCREATE
40
0.0
9
$TDUCREATE
40
0.0
9
$TDUPDATE
40
0.0
9
$TDUUPDATE
40
0.0
9
$TDINDWG
40
0.0
9
$TDUSRTIMER
40
0.0
9
$USRTIMER
70
1
9
$ANGBASE
50
0.0
9
$ANGDIR
70
0
9
$PDMODE
70
0
9
$PDSIZE
40
0.0
9
$PLINEWID
40
0.0
9
$SPLFRAME
70
0
9
$SPLINETYPE
70
6
9
$SPLINESEGS
70
8
9
$HANDSEED
5
10AB
9
$SURFTAB1
70
6
9
$SURFTAB2
70
6
9
$SURFTYPE
70
6
9
$SURFU
70
6
9
$SURFV
70
6
9
$UCSBASE
2

9
$UCSNAME
2

9
$UCSORG
10
0.0
20
0.0
30
0.0
9
$UCSXDIR
10
1.0
20
0.0
30
0.0
9
$UCSYDIR
10
0.0
20
1.0
30
0.0
9
$UCSORTHOREF
2

9
$UCSORTHOVIEW
70
0
9
$UCSORGTOP
10
0.0
20
0.0
30
0.0
9
$UCSORGBOTTOM
10
0.0
20
0.0
30
0.0
9
$UCSORGLEFT
10
0.0
20
0.0
30
0.0
9
$UCSORGRIGHT
10
0.0
20
0.0
30
0.0
9
$UCSORGFRONT
10
0.0
20
0.0
30
0.0
9
$UCSORGBACK
10
0.0
20
0.0
30
0.0
9
$PUCSBASE
2

9
$PUCSNAME
2

9
$PUCSORG
10
0.0
20
0.0
30
0.0
9
$PUCSXDIR
10
1.0
20
0.0
30
0.0
9
$PUCSYDIR
10
0.0
20
1.0
30
0.0
9
$PUCSORTHOREF
2

9
$PUCSORTHOVIEW
70
0
9
$PUCSORGTOP
10
0.0
20
0.0
30
0.0
9
$PUCSORGBOTTOM
10
0.0
20
0.0
30
0.0
9
$PUCSORGLEFT
10
0.0
20
0.0
30
0.0
9
$PUCSORGRIGHT
10
0.0
20
0.0
30
0.0
9
$PUCSORGFRONT
10
0.0
20
0.0
30
0.0
9
$PUCSORGBACK
10
0.0
20
0.0
30
0.0
9
$USERI1
70
0
9
$USERI2
70
0
9
$USERI3
70
0
9
$USERI4
70
0
9
$USERI5
70
0
9
$USERR1
40
0.0
9
$USERR2
40
0.0
9
$USERR3
40
0.0
9
$USERR4
40
0.0
9
$USERR5
40
0.0
9
$WORLDVIEW
70
1
9
$SHADEDGE
70
3
9
$SHADEDIF
70
70
9
$TILEMODE
70
1
9
$MAXACTVP
70
64
9
$PINSBASE
10
0.0
20
0.0
30
0.0
9
$PLIMCHECK
70
0
9
$PEXTMIN
10
1.000000000000000E+20
20
1.000000000000000E+20
30
1.000000000000000E+20
9
$PEXTMAX
10
-1.000000000000000E+20
20
-1.000000000000000E+20
30
-1.000000000000000E+20
9
$PLIMMIN
10
0.0
20
0.0
9
$PLIMMAX
10
12.0
20
9.0
9
$UNITMODE
70
0
9
$VISRETAIN
70
1
9
$PLINEGEN
70
0
9
$PSLTSCALE
70
1
9
$TREEDEPTH
70
3020
9
$CMLSTYLE
2
Standard
9
$CMLJUST
70
0
9
$CMLSCALE
40
1.0
9
$PROXYGRAPHICS
70
1
9
$MEASUREMENT
70
0
9
$CELWEIGHT
370
-1
9
$ENDCAPS
280
0
9
$JOINSTYLE
280
0
9
$LWDISPLAY
290
0
9
$INSUNITS
70
4
9
$HYPERLINKBASE
1

9
$STYLESHEET
1

9
$XEDIT
290
1
9
$CEPSNTYPE
380
0
9
$PSTYLEMODE
290
0
9
$FINGERPRINTGUID
2
{FAEB1C30-E019-11D5-929B-00C0DF256EC4}
9
$VERSIONGUID
2
{04C5C4E4-4947-4D90-8812-D401569E61F7}
9
$EXTNAMES
290
1
9
$PSVPSCALE
40
0.0
9
$OLESTARTUP
290
0
0
ENDSEC
0
SECTION
2
CLASSES
0
CLASS
1
ACDBDICTIONARYWDFLT
2
AcDbDictionaryWithDefault
3
ObjectDBX Classes
90
0
280
0
281
0
0
CLASS
1
ACDBPLACEHOLDER
2
AcDbPlaceHolder
3
ObjectDBX Classes
90
0
280
0
281
0
0
CLASS
1
LAYOUT
2
AcDbLayout
3
ObjectDBX Classes
90
0
280
0
281
0
0
CLASS
1
MATERIAL
2
AcDbMaterial
3
ObjectDBX Classes
90
1153
280
0
281
0
0
CLASS
1
VISUALSTYLE
2
AcDbVisualStyle
3
ObjectDBX Classes
90
4095
280
0
281
0
0
CLASS
1
TABLESTYLE
2
AcDbTableStyle
3
ObjectDBX Classes
90
4095
280
0
281
0
0
CLASS
1
SCALE
2
AcDbScale
3
ObjectDBX Classes
90
1153
280
0
281
0
0
CLASS
1
MLEADERSTYLE
2
AcDbMLeaderStyle
3
ACDB_MLEADERSTYLE_CLASS
90
4095
280
0
281
0
0
CLASS
1
DICTIONARYVAR
2
AcDbDictionaryVar
3
ObjectDBX Classes
90
0
280
0
281
0
0
CLASS
1
CELLSTYLEMAP
2
AcDbCellStyleMap
3
ObjectDBX Classes
90
1152
280
0
281
0
0
ENDSEC
0
SECTION
2
TABLES
0
TABLE
2
VPORT
5
24A
330
0
100
AcDbSymbolTable
70
1
0
VPORT
5
26B
330
24A
100
AcDbSymbolTableRecord
100
AcDbViewportTableRecord
2
*Active
70
0
10
0.0
20
0.0
11
1.0
21
1.0
12
0.000000000000000
22
0.000000000000000
13
0.0
23
0.0
14
10.0
24
10.0
15
10.0
25
10.0
16
0.0
26
0.0
36
1.0
17
0.0
27
0.0
37
0.0
40
210.000000000000
41
1.42857142857143
42
1.0
43
0.0
44
0.0
50
0.0
51
0.0000000000007958
71
0
72
100
73
1
74
3
75
0
76
0
77
0
78
1
281
0
65
1
110
0.0
120
0.0
130
0.0
111
1.0
121
0.0
131
0.0
112
0.0
122
1.0
132
0.0
79
0
146
0.0
0
ENDTAB
0
TABLE
2
LTYPE
5
247
330
0
100
AcDbSymbolTable
70
25
0
LTYPE
5
256
330
247
100
AcDbSymbolTableRecord
100
AcDbLinetypeTableRecord
2
ByBlock
70
0
3

72
65
73
0
40
0.0
0
LTYPE
5
257
330
247
100
AcDbSymbolTableRecord
100
AcDbLinetypeTableRecord
2
ByLayer
70
0
3

72
65
73
0
40
0.0
0
LTYPE
5
258
330
247
100
AcDbSymbolTableRecord
100
AcDbLinetypeTableRecord
2
Continuous
70
0
3
Solid line
72
65
73
0
40
0.0
0
LTYPE
5
273
330
247
100
AcDbSymbolTableRecord
100
AcDbLinetypeTableRecord
2
CENTER
70
0
3
Center ____ _ ____ _ ____ _ ____ _ ____ _ ____
72
65
73
4
40
2.0
49
1.25
74
0
49
-0.25
74
0
49
0.25
74
0
49
-0.25
74
0
0
LTYPE
5
274
330
247
100
AcDbSymbolTableRecord
100
AcDbLinetypeTableRecord
2
DASHDOT
70
0
3
Dashdot __ . __ . __ . __ . __ . __ . __ . __
72
65
73
4
40
1.0
49
0.5
74
0
49
-0.25
74
0
49
0.0
74
0
49
-0.25
74
0
0
LTYPE
5
275
330
247
100
AcDbSymbolTableRecord
100
AcDbLinetypeTableRecord
2
DASHED
70
0
3
Dashed __ __ __ __ __ __ __ __ __ __ __ __ __ _
72
65
73
2
40
0.75
49
0.5
74
0
49
-0.25
74
0
0
LTYPE
5
276
330
247
100
AcDbSymbolTableRecord
100
AcDbLinetypeTableRecord
2
HIDDEN
70
0
3
Hidden __ __ __ __ __ __ __ __ __ __ __ __ __ __
72
65
73
2
40
0.375
49
0.25
74
0
49
-0.125
74
0
0
LTYPE
5
277
330
247
100
AcDbSymbolTableRecord
100
AcDbLinetypeTableRecord
2
HIDDEN2
70
0
3
Hidden2 _ _ _ _ _ _ _ _ _ _ _ _ _ _ _ _ _
72
65
73
2
40
0.1875
49
0.125
74
0
49
-0.0625
74
0
0
LTYPE
5
278
330
247
100
AcDbSymbolTableRecord
100
AcDbLinetypeTableRecord
2
BORDER
70
0
3
Border __ __ . __ __ . __ __ . __ __ . __ __ .
72
65
73
6
40
1.75
49
0.5
74
0
49
-0.25
74
0
49
0.5
74
0
49
-0.25
74
0
49
0.0
74
0
49
-0.25
74
0
0
LTYPE
5
279
330
247
100
AcDbSymbolTableRecord
100
AcDbLinetypeTableRecord
2
BORDER2
70
0
3
Border2 __.__.__.__.__.__.__.__.__.__.__.
72
65
73
6
40
0.875
49
0.25
74
0
49
-0.125
74
0
49
0.25
74
0
49
-0.125
74
0
49
0.0
74
0
49
-0.125
74
0
0
LTYPE
5
27A
330
247
100
AcDbSymbolTableRecord
100
AcDbLinetypeTableRecord
2
BORDERX2
70
0
3
Borderx2  ____  ____  .  ____  ____  .  ___
72
65
73
6
40
3.5
49
1.0
74
0
49
-0.5
74
0
49
1.0
74
0
49
-0.5
74
0
49
0.0
74
0
49
-0.5
74
0
0
LTYPE
5
27B
330
247
100
AcDbSymbolTableRecord
100
AcDbLinetypeTableRecord
2
CENTER2
70
0
3
Center2  ___ _ ___ _ ___ _ ___ _ ___ _ ___
72
65
73
4
40
1.125
49
0.75
74
0
49
-0.125
74
0
49
0.125
74
0
49
-0.125
74
0
0
LTYPE
5
27C
330
247
100
AcDbSymbolTableRecord
100
AcDbLinetypeTableRecord
2
CENTERX2
70
0
3
Centerx2  ________  __  ________  __  _____
72
65
73
4
40
4.0
49
2.5
74
0
49
-0.5
74
0
49
0.5
74
0
49
-0.5
74
0
0
LTYPE
5
27D
330
247
100
AcDbSymbolTableRecord
100
AcDbLinetypeTableRecord
2
DASHDOT2
70
0
3
Dashdot2  _._._._._._._._._._._._._._._.
72
65
73
4
40
0.5
49
0.25
74
0
49
-0.125
74
0
49
0.0
74
0
49
-0.125
74
0
0
LTYPE
5
27E
330
247
100
AcDbSymbolTableRecord
100
AcDbLinetypeTableRecord
2
DASHDOTX2
70
0
3
Dashdotx2 ____  .  ____  .  ____  .  ___
72
65
73
4
40
2.0
49
1.0
74
0
49
-0.5
74
0
49
0.0
74
0
49
-0.5
74
0
0
LTYPE
5
27F
330
247
100
AcDbSymbolTableRecord
100
AcDbLinetypeTableRecord
2
DASHED2
70
0
3
Dashed2 _ _ _ _ _ _ _ _ _ _ _ _ _ _ _ _ _
72
65
73
2
40
0.375
49
0.25
74
0
49
-0.125
74
0
0
LTYPE
5
280
330
247
100
AcDbSymbolTableRecord
100
AcDbLinetypeTableRecord
2
DASHEDX2
70
0
3
Dashedx2 ____  ____  ____  ____  ____  ___
72
65
73
2
40
1.5
49
1.0
74
0
49
-0.5
74
0
0
LTYPE
5
281
330
247
100
AcDbSymbolTableRecord
100
AcDbLinetypeTableRecord
2
DIVIDE
70
0
3
Divide ____ . . ____ . . ____ . . ____ . . ____
72
65
73
6
40
1.25
49
0.5
74
0
49
-0.25
74
0
49
0.0
74
0
49
-0.25
74
0
49
0.0
74
0
49
-0.25
74
0
0
LTYPE
5
282
330
247
100
AcDbSymbolTableRecord
100
AcDbLinetypeTableRecord
2
DIVIDE2
70
0
3
Divide2 __..__..__..__..__..__..__..__.._
72
65
73
6
40
0.625
49
0.25
74
0
49
-0.125
74
0
49
0.0
74
0
49
-0.125
74
0
49
0.0
74
0
49
-0.125
74
0
0
LTYPE
5
283
330
247
100
AcDbSymbolTableRecord
100
AcDbLinetypeTableRecord
2
DIVIDEX2
70
0
3
Dividex2 ________  .  .  ________  .  .  _
72
65
73
6
40
2.5
49
1.0
74
0
49
-0.5
74
0
49
0.0
74
0
49
-0.5
74
0
49
0.0
74
0
49
-0.5
74
0
0
LTYPE
5
284
330
247
100
AcDbSymbolTableRecord
100
AcDbLinetypeTableRecord
2
DOT
70
0
3
Dot . . . . . . . . . . . . . . . . . . . . . . . .
72
65
73
2
40
0.25
49
0.0
74
0
49
-0.25
74
0
0
LTYPE
5
285
330
247
100
AcDbSymbolTableRecord
100
AcDbLinetypeTableRecord
2
DOT2
70
0
3
Dot2 ........................................
72
65
73
2
40
0.125
49
0.0
74
0
49
-0.125
74
0
0
LTYPE
5
286
330
247
100
AcDbSymbolTableRecord
100
AcDbLinetypeTableRecord
2
DOTX2
70
0
3
Dotx2 .  .  .  .  .  .  .  .  .  .  .  .  .  .
72
65
73
2
40
0.5
49
0.0
74
0
49
-0.5
74
0
0
LTYPE
5
287
330
247
100
AcDbSymbolTableRecord
100
AcDbLinetypeTableRecord
2
HIDDENX2
70
0
3
Hiddenx2 ____ ____ ____ ____ ____ ____ ____
72
65
73
2
40
0.75
49
0.5
74
0
49
-0.25
74
0
0
LTYPE
5
288
330
247
100
AcDbSymbolTableRecord
100
AcDbLinetypeTableRecord
2
PHANTOM
70
0
3
Phantom ______  __  __  ______  __  __  ______
72
65
73
6
40
2.5
49
1.25
74
0
49
-0.25
74
0
49
0.25
74
0
49
-0.25
74
0
49
0.25
74
0
49
-0.25
74
0
0
LTYPE
5
289
330
247
100
AcDbSymbolTableRecord
100
AcDbLinetypeTableRecord
2
PHANTOM2
70
0
3
Phantom2 ___ _ _ ___ _ _ ___ _ _ ___ _ _
72
65
73
6
40
1.25
49
0.625
74
0
49
-0.125
74
0
49
0.125
74
0
49
-0.125
74
0
49
0.125
74
0
49
-0.125
74
0
0
LTYPE
5
28A
330
247
100
AcDbSymbolTableRecord
100
AcDbLinetypeTableRecord
2
PHANTOMX2
70
0
3
Phantomx2 ____________    ____    ____   _
72
65
73
6
40
5.0
49
2.5
74
0
49
-0.5
74
0
49
0.5
74
0
49
-0.5
74
0
49
0.5
74
0
49
-0.5
74
0
0
ENDTAB
0
TABLE
2
LAYER
5
244
330
0
100
AcDbSymbolTable
70
6
0
LAYER
5
252
330
244
100
AcDbSymbolTableRecord
100
AcDbLayerTableRecord
2
0
70
0
62
7
6
Continuous
370
0
390
251
0
LAYER
5
23F
330
244
100
AcDbSymbolTableRecord
100
AcDbLayerTableRecord
2
Bemassung
70
0
 62
   7
6
Continuous
370
0
390
251
0
LAYER
5
240
330
244
100
AcDbSymbolTableRecord
100
AcDbLayerTableRecord
2
Rahmen
70
0
 62
   7
6
Continuous
370
0
390
251
0
LAYER
5
241
330
244
100
AcDbSymbolTableRecord
100
AcDbLayerTableRecord
2
Geo
70
0
 62
   7
6
Continuous
370
0
390
251
0
LAYER
5
33A
330
244
100
AcDbSymbolTableRecord
100
AcDbLayerTableRecord
2
Defpoints
70
0
62
7
6
Continuous
290
0
370
-3
390
251
0
LAYER
5
57E
330
244
100
AcDbSymbolTableRecord
100
AcDbLayerTableRecord
2
Text
70
0
 62
   7
6
Continuous
370
0
390
251
1001
AcAecLayerStandard
1000

1000

0
ENDTAB
0
TABLE
2
STYLE
5
245
330
0
100
AcDbSymbolTable
70
2
0
STYLE
5
253
330
245
100
AcDbSymbolTableRecord
100
AcDbTextStyleTableRecord
2
Standard
70
0
40
0.0
41
1.0
50
0.0
71
0
42
0.2
3
Arial
4

1001
ACAD
1000
Arial
1071
0
0
STYLE
5
132
330
245
100
AcDbSymbolTableRecord
100
AcDbTextStyleTableRecord
2
Beschriftung
70
0
40
0.0
41
1.0
50
0.0
71
0
42
0.2
3
Arial
4

1001
ACAD
1000
Arial
1071
0
1001
AcadAnnotative
1000
AnnotativeData
1070
1
1070
1
0
ENDTAB
0
TABLE
2
VIEW
5
248
330
0
100
AcDbSymbolTable
70
0
0
ENDTAB
0
TABLE
2
UCS
5
249
330
0
100
AcDbSymbolTable
70
0
0
ENDTAB
0
TABLE
2
APPID
5
24B
330
0
100
AcDbSymbolTable
70
13
0
APPID
5
254
330
24B
100
AcDbSymbolTableRecord
100
AcDbRegAppTableRecord
2
ACAD
70
0
0
APPID
5
26C
330
24B
100
AcDbSymbolTableRecord
100
AcDbRegAppTableRecord
2
VD_INVISIBLE_NOT_FOR_READ
70
0
0
APPID
5
26D
330
24B
100
AcDbSymbolTableRecord
100
AcDbRegAppTableRecord
2
VD_TEMPHATCH
70
0
0
APPID
5
26E
330
24B
100
AcDbSymbolTableRecord
100
AcDbRegAppTableRecord
2
VDEXTRAPARAM
70
0
0
APPID
5
26F
330
24B
100
AcDbSymbolTableRecord
100
AcDbRegAppTableRecord
2
PE_URL
70
0
0
APPID
5
270
330
24B
100
AcDbSymbolTableRecord
100
AcDbRegAppTableRecord
2
VD_UNKNOWN
70
0
0
APPID
5
28F
330
24B
100
AcDbSymbolTableRecord
100
AcDbRegAppTableRecord
2
AcadAnnotative
70
0
0
APPID
5
290
330
24B
100
AcDbSymbolTableRecord
100
AcDbRegAppTableRecord
2
ACAD_DSTYLE_DIMJAG
70
0
0
APPID
5
291
330
24B
100
AcDbSymbolTableRecord
100
AcDbRegAppTableRecord
2
ACAD_DSTYLE_DIMTALN
70
0
0
APPID
5
293
330
24B
100
AcDbSymbolTableRecord
100
AcDbRegAppTableRecord
2
ACAD_PSEXT
70
0
0
APPID
5
42A
330
24B
100
AcDbSymbolTableRecord
100
AcDbRegAppTableRecord
2
ACAD_MLEADERVER
70
0
0
APPID
5
532
330
24B
100
AcDbSymbolTableRecord
100
AcDbRegAppTableRecord
2
ACAD_EXEMPT_FROM_CAD_STANDARDS
70
0
0
APPID
5
57F
330
24B
100
AcDbSymbolTableRecord
100
AcDbRegAppTableRecord
2
AcAecLayerStandard
70
0
0
ENDTAB
0
TABLE
2
DIMSTYLE
5
24C
330
0
100
AcDbSymbolTable
70
3
100
AcDbDimStyleTable
71
2
340
27
340
269
0
DIMSTYLE
105
269
330
24C
100
AcDbSymbolTableRecord
100
AcDbDimStyleTableRecord
2
Standard
70
0
172
1
174
1
288
1
340
253
342
23C
0
DIMSTYLE
105
137
330
24C
100
AcDbSymbolTableRecord
100
AcDbDimStyleTableRecord
2
Beschriftung
70
0
41
2.5
42
0.625
44
1.25
73
0
74
0
77
1
140
2.5
147
0.625
172
1
174
1
271
2
288
1
340
253
342
23C
1001
AcadAnnotative
1000
AnnotativeData
1070
1
1070
1
1001
ACAD_DSTYLE_DIMJAG
1070
388
1040
1.5
1001
ACAD_DSTYLE_DIMTALN
1070
392
1070
0
0
DIMSTYLE
105
27
102
{ACAD_REACTORS
330
F1000D
330
F10017
330
F1001C
330
F10008
330
F10003
330
F10012
102
}
330
24C
100
AcDbSymbolTableRecord
100
AcDbDimStyleTableRecord
2
BEM-ISBE
70
0
41
2.5
42
0.625
44
1.25
48
0.000000001
71
1
73
0
74
0
77
1
140
2.5
144
1.00000000000000
146
0.5
147
0.625
171
 3
172
 1
179
 3
271
 3
272
 3
274
 3
340
253
342
23C
1001
ACAD_DSTYLE_DIMJAG
1070
388
1040
1.5
1001
ACAD_DSTYLE_DIMTALN
1070
392
1070
1
0
ENDTAB
0
TABLE
2
BLOCK_RECORD
5
243
330
0
100
AcDbSymbolTable
70
5
0
BLOCK_RECORD
5
261
330
243
100
AcDbSymbolTableRecord
100
AcDbBlockTableRecord
2
*Model_Space
340
FD0
0
BLOCK_RECORD
5
25D
330
243
100
AcDbSymbolTableRecord
100
AcDbBlockTableRecord
2
*Paper_Space
340
FD1
0
BLOCK_RECORD
5
265
330
243
100
AcDbSymbolTableRecord
100
AcDbBlockTableRecord
2
*Paper_Space0
340
0
0
BLOCK_RECORD
5
23C
330
243
100
AcDbSymbolTableRecord
100
AcDbBlockTableRecord
2
VDDIM_DEFAULT
340
0
102
{BLKREFS
102
}
0
BLOCK_RECORD
5
23E
330
243
100
AcDbSymbolTableRecord
100
AcDbBlockTableRecord
2
VDDIM_NONE
340
0
0
BLOCK_RECORD
5
F1000C
330
243
100
AcDbSymbolTableRecord
100
AcDbBlockTableRecord
2
*D5
340
0
0
BLOCK_RECORD
5
F10016
330
243
100
AcDbSymbolTableRecord
100
AcDbBlockTableRecord
2
*D7
340
0
0
BLOCK_RECORD
5
F1001B
330
243
100
AcDbSymbolTableRecord
100
AcDbBlockTableRecord
2
*D8
340
0
0
BLOCK_RECORD
5
F10007
330
243
100
AcDbSymbolTableRecord
100
AcDbBlockTableRecord
2
*D4
340
0
0
BLOCK_RECORD
5
F10002
330
243
100
AcDbSymbolTableRecord
100
AcDbBlockTableRecord
2
*D3
340
0
0
BLOCK_RECORD
5
F10011
330
243
100
AcDbSymbolTableRecord
100
AcDbBlockTableRecord
2
*D6
340
0
0
ENDTAB
0
ENDSEC
0
SECTION
2
BLOCKS
0
BLOCK
5
262
330
261
100
AcDbEntity
8
0
100
AcDbBlockBegin
2
*Model_Space
70
0
10
0.0
20
0.0
30
0.0
3
*Model_Space
1

0
ENDBLK
5
263
330
261
100
AcDbEntity
8
0
100
AcDbBlockEnd
0
BLOCK
5
25E
330
25D
100
AcDbEntity
67
1
8
0
100
AcDbBlockBegin
2
*Paper_Space
70
0
10
0.0
20
0.0
30
0.0
3
*Paper_Space
1

0
ENDBLK
5
25F
330
25D
100
AcDbEntity
67
1
8
0
100
AcDbBlockEnd
0
BLOCK
5
266
330
265
100
AcDbEntity
8
0
100
AcDbBlockBegin
2
*Paper_Space0
70
0
10
0.0
20
0.0
30
0.0
3
*Paper_Space0
1

0
VIEWPORT
5
296
102
{ACAD_XDICTIONARY
360
58E
102
}
330
265
100
AcDbEntity
8
0
60
1
100
AcDbViewport
10
0.0
20
0.0
30
0.0
40
10.0
41
10.0
69
0
12
0.0
22
0.0
13
0.0
23
0.0
14
1.0
24
1.0
15
0.0
25
0.0
16
0.0
26
0.0
36
1.0
17
0.0
27
0.0
37
0.0
42
0.0
43
0.0
44
0.0
45
10.0
50
0.0
51
0.0000000000007958
72
100
90
163872
1

281
0
71
0
74
0
110
0.0
120
0.0
130
0.0
111
1.0
121
0.0
131
0.0
112
0.0
122
1.0
132
0.0
79
0
146
0.0
1001
VD_INVISIBLE_NOT_FOR_READ
1000
VD_INVISIBLE_NOT_FOR_READ
0
VIEWPORT
5
297
102
{ACAD_XDICTIONARY
360
590
102
}
330
265
100
AcDbEntity
8
0
60
1
100
AcDbViewport
10
0.0
20
0.0
30
0.0
40
10.0
41
10.0
69
0
12
0.0
22
0.0
13
0.0
23
0.0
14
1.0
24
1.0
15
0.0
25
0.0
16
0.0
26
0.0
36
1.0
17
0.0
27
0.0
37
0.0
42
0.0
43
0.0
44
0.0
45
10.0
50
0.0
51
0.0000000000007958
72
100
90
163872
1

281
0
71
0
74
0
110
0.0
120
0.0
130
0.0
111
1.0
121
0.0
131
0.0
112
0.0
122
1.0
132
0.0
79
0
146
0.0
1001
VD_INVISIBLE_NOT_FOR_READ
1000
VD_INVISIBLE_NOT_FOR_READ
0
ENDBLK
5
267
330
265
100
AcDbEntity
8
0
100
AcDbBlockEnd
0
BLOCK
5
28B
330
23C
100
AcDbEntity
8
0
100
AcDbBlockBegin
2
VDDIM_DEFAULT
70
0
10
0.0
20
0.0
30
0.0
3
VDDIM_DEFAULT
1

0
LWPOLYLINE
5
23D
330
23C
100
AcDbEntity
8
0
6
Continuous
62
0
100
AcDbPolyline
90
4
70
0
43
0.0
10
0.0
20
0.0
10
-1.0
20
-0.1665
10
-1.0
20
0.1665
10
0.0
20
0.0
1001
VDEXTRAPARAM
1071
1
1071
0
1071
0
1040
1.0
1000

1000

1040
0.0
1040
0.0
0
HATCH
5
292
330
23C
100
AcDbEntity
8
0
6
Continuous
62
0
100
AcDbHatch
10
0.0
20
0.0
30
0.0
210
0.0
220
0.0
230
1.0
2
SOLID
70
1
71
0
91
1
92
2
72
0
73
1
93
3
10
0.0
20
0.0
10
-1.0
20
-0.1665
10
-1.0
20
0.1665
97
0
75
0
76
1
98
1
10
0.0
20
0.0
1001
VDEXTRAPARAM
1071
1
1071
0
1071
0
1040
1.0
1000

1000

1040
0.0
1040
0.0
1001
VD_TEMPHATCH
1000
VD_TEMPHATCH
0
ENDBLK
5
28C
330
23C
100
AcDbEntity
8
0
100
AcDbBlockEnd
0
BLOCK
5
28D
330
23E
100
AcDbEntity
8
0
100
AcDbBlockBegin
2
VDDIM_NONE
70
0
10
0.0
20
0.0
30
0.0
3
VDDIM_NONE
1

0
ENDBLK
5
28E
330
23E
100
AcDbEntity
8
0
100
AcDbBlockEnd
  0
BLOCK
  5
F10020
330
F1000C
100
AcDbEntity
  8
0
100
AcDbBlockBegin
  2
*D5
 70
     1
 10
0.0
 20
0.0
 30
0.0
  3
*D5
  1

  0
LINE
  5
F10021
330
F1000C
100
AcDbEntity
  8
Bemassung
 62
     0
370
    -2
100
AcDbLine
10
-42.7382133995037
20
9.90396650124070
30
0.000000000000000
11
-42.7382133995037
21
26.9044665012407
31
0.000000000000000
  0
LINE
  5
F10022
330
F1000C
100
AcDbEntity
  8
Bemassung
 62
     0
370
    -2
100
AcDbLine
10
79.2617866004963
20
9.30446650124071
30
0.000000000000000
11
79.2617866004963
21
31.9044665012407
31
0.000000000000000
  0
LINE
  5
F10023
330
F1000C
100
AcDbEntity
  8
Bemassung
 62
     0
370
    -2
100
AcDbLine
10
-42.7382133995037
20
24.9044665012407
30
0.000000000000000
11
79.2617866004963
21
24.9044665012407
31
0.000000000000000
  0
INSERT
  5
F10024
330
F1000C
100
AcDbEntity
  8
Bemassung
 62
     0
370
    -2
100
AcDbBlockReference
  2
VDDIM_DEFAULT
10
-42.7382133995037
20
24.9044665012407
30
0.000000000000000
 41
2.50000000000000
 42
2.50000000000000
 43
2.50000000000000
 50
180.000000000000
  0
INSERT
  5
F10025
330
F1000C
100
AcDbEntity
  8
Bemassung
 62
     0
370
    -2
100
AcDbBlockReference
  2
VDDIM_DEFAULT
10
79.2617866004963
20
24.9044665012407
30
0.000000000000000
 41
2.50000000000000
 42
2.50000000000000
 43
2.50000000000000
  0
MTEXT
  5
F10026
102
{ACAD_XDICTIONARY
360
F1000F
102
}
330
F1000C
100
AcDbEntity
  8
Bemassung
 62
     0
100
AcDbMText
10
18.2617866004963
20
25.5711331679074
30
0.000000000000000
 40
2.50000000000000
 41
0.0
 71
     8
 72
     1
  1
\A1;122
 11
1.00000000000000
 21
0.000000000000000
 31
0.0
 73
     1
 44
1.0
1001
ACAD
1000
MTEXTBEGIN
1070
73
1070
1
1070
44
1040
1.0
1070
74
1070
0
1000
MTEXTEND
  0
POINT
  5
F10027
330
F1000C
100
AcDbEntity
  8
Bemassung
 62
     0
100
AcDbPoint
10
-42.7382133995037
20
9.90396650124070
30
0.000000000000000
  0
POINT
  5
F10028
330
F1000C
100
AcDbEntity
  8
Bemassung
 62
     0
100
AcDbPoint
10
79.2617866004963
20
9.30446650124071
30
0.000000000000000
  0
ENDBLK
  5
F10029
330
F1000C
100
AcDbEntity
  8
0
100
AcDbBlockEnd
  0
BLOCK
  5
F1002A
330
F10016
100
AcDbEntity
  8
0
100
AcDbBlockBegin
  2
*D7
 70
     1
 10
0.0
 20
0.0
 30
0.0
  3
*D7
  1

  0
LINE
  5
F1002B
330
F10016
100
AcDbEntity
  8
Bemassung
 62
     0
370
    -2
100
AcDbLine
10
-44.7382133995037
20
3.90496650124071
30
0.000000000000000
11
-44.7382133995037
21
-8.09553349875929
31
0.000000000000000
  0
LINE
  5
F1002C
330
F10016
100
AcDbEntity
  8
Bemassung
 62
     0
370
    -2
100
AcDbLine
10
-70.7382133995037
20
-8.09553349875929
30
0.000000000000000
11
-70.7382133995037
21
31.9044665012407
31
0.000000000000000
  0
LINE
  5
F1002D
330
F10016
100
AcDbEntity
  8
Bemassung
 62
     0
370
    -2
100
AcDbLine
10
-44.7382133995037
20
-6.09553349875929
30
0.000000000000000
11
-70.7382133995037
21
-6.09553349875929
31
0.000000000000000
  0
INSERT
  5
F1002E
330
F10016
100
AcDbEntity
  8
Bemassung
 62
     0
370
    -2
100
AcDbBlockReference
  2
VDDIM_DEFAULT
10
-44.7382133995037
20
-6.09553349875929
30
0.000000000000000
 41
2.50000000000000
 42
2.50000000000000
 43
2.50000000000000
  0
INSERT
  5
F1002F
330
F10016
100
AcDbEntity
  8
Bemassung
 62
     0
370
    -2
100
AcDbBlockReference
  2
VDDIM_DEFAULT
10
-70.7382133995037
20
-6.09553349875929
30
0.000000000000000
 41
2.50000000000000
 42
2.50000000000000
 43
2.50000000000000
 50
180.000000000000
  0
MTEXT
  5
F10030
102
{ACAD_XDICTIONARY
360
F10019
102
}
330
F10016
100
AcDbEntity
  8
Bemassung
 62
     0
100
AcDbMText
10
-57.7382133995037
20
-5.42886683209263
30
0.000000000000000
 40
2.50000000000000
 41
0.0
 71
     8
 72
     1
  1
\A1;26
 11
1.00000000000000
 21
0.000000000000000
 31
0.0
 73
     1
 44
1.0
1001
ACAD
1000
MTEXTBEGIN
1070
73
1070
1
1070
44
1040
1.0
1070
74
1070
0
1000
MTEXTEND
  0
POINT
  5
F10031
330
F10016
100
AcDbEntity
  8
Bemassung
 62
     0
100
AcDbPoint
10
-44.7382133995037
20
3.90496650124071
30
0.000000000000000
  0
POINT
  5
F10032
330
F10016
100
AcDbEntity
  8
Bemassung
 62
     0
100
AcDbPoint
10
-70.7382133995037
20
-8.09553349875929
30
0.000000000000000
  0
ENDBLK
  5
F10033
330
F10016
100
AcDbEntity
  8
0
100
AcDbBlockEnd
  0
BLOCK
  5
F10034
330
F1001B
100
AcDbEntity
  8
0
100
AcDbBlockBegin
  2
*D8
 70
     1
 10
0.0
 20
0.0
 30
0.0
  3
*D8
  1

  0
LINE
  5
F10035
330
F1001B
100
AcDbEntity
  8
Bemassung
 62
     0
370
    -2
100
AcDbLine
10
79.2617866004963
20
9.30446650124071
30
0.000000000000000
11
79.2617866004963
21
31.9044665012407
31
0.000000000000000
  0
LINE
  5
F10036
330
F1001B
100
AcDbEntity
  8
Bemassung
 62
     0
370
    -2
100
AcDbLine
10
-70.7382133995037
20
-8.09553349875929
30
0.000000000000000
11
-70.7382133995037
21
31.9044665012407
31
0.000000000000000
  0
LINE
  5
F10037
330
F1001B
100
AcDbEntity
  8
Bemassung
 62
     0
370
    -2
100
AcDbLine
10
79.2617866004963
20
29.9044665012407
30
0.000000000000000
11
-70.7382133995037
21
29.9044665012407
31
0.000000000000000
  0
INSERT
  5
F10038
330
F1001B
100
AcDbEntity
  8
Bemassung
 62
     0
370
    -2
100
AcDbBlockReference
  2
VDDIM_DEFAULT
10
79.2617866004963
20
29.9044665012407
30
0.000000000000000
 41
2.50000000000000
 42
2.50000000000000
 43
2.50000000000000
  0
INSERT
  5
F10039
330
F1001B
100
AcDbEntity
  8
Bemassung
 62
     0
370
    -2
100
AcDbBlockReference
  2
VDDIM_DEFAULT
10
-70.7382133995037
20
29.9044665012407
30
0.000000000000000
 41
2.50000000000000
 42
2.50000000000000
 43
2.50000000000000
 50
180.000000000000
  0
MTEXT
  5
F1003A
102
{ACAD_XDICTIONARY
360
F1001E
102
}
330
F1001B
100
AcDbEntity
  8
Bemassung
 62
     0
100
AcDbMText
10
4.26178660049627
20
30.5711331679074
30
0.000000000000000
 40
2.50000000000000
 41
0.0
 71
     8
 72
     1
  1
\A1;150
 11
1.00000000000000
 21
0.000000000000000
 31
0.0
 73
     1
 44
1.0
1001
ACAD
1000
MTEXTBEGIN
1070
73
1070
1
1070
44
1040
1.0
1070
74
1070
0
1000
MTEXTEND
  0
POINT
  5
F1003B
330
F1001B
100
AcDbEntity
  8
Bemassung
 62
     0
100
AcDbPoint
10
79.2617866004963
20
9.30446650124071
30
0.000000000000000
  0
POINT
  5
F1003C
330
F1001B
100
AcDbEntity
  8
Bemassung
 62
     0
100
AcDbPoint
10
-70.7382133995037
20
-8.09553349875929
30
0.000000000000000
  0
ENDBLK
  5
F1003D
330
F1001B
100
AcDbEntity
  8
0
100
AcDbBlockEnd
  0
BLOCK
  5
F1003E
330
F10007
100
AcDbEntity
  8
0
100
AcDbBlockBegin
  2
*D4
 70
     1
 10
0.0
 20
0.0
 30
0.0
  3
*D4
  1

  0
LINE
  5
F1003F
330
F10007
100
AcDbEntity
  8
Bemassung
 62
     0
370
    -2
100
AcDbLine
10
-70.4898267007594
20
9.83654374737992
30
0.000000000000000
11
-84.7115041519677
21
21.6200757182645
31
0.000000000000000
  0
INSERT
  5
F10040
330
F10007
100
AcDbEntity
  8
Bemassung
 62
     0
370
    -2
100
AcDbBlockReference
  2
VDDIM_DEFAULT
10
-70.4898267007594
20
9.83654374737992
30
0.000000000000000
 41
2.50000000000000
 42
2.50000000000000
 43
2.50000000000000
 50
320.356168149846
  0
MTEXT
  5
F10041
102
{ACAD_XDICTIONARY
360
F1000A
102
}
330
F10007
100
AcDbEntity
  8
Bemassung
 62
     0
100
AcDbMText
10
-81.9615275377874
20
19.3415514398486
30
0.000000000000000
 40
2.50000000000000
 41
0.0
 71
     8
 72
     1
  1
\A1;R0.5
 11
0.770025381563913
 21
-0.638013253582831
 31
0.0
 73
     1
 44
1.0
1001
ACAD
1000
MTEXTBEGIN
1070
73
1070
1
1070
44
1040
1.0
1070
74
1070
0
1000
MTEXTEND
  0
POINT
  5
F10042
330
F10007
100
AcDbEntity
  8
Bemassung
 62
     0
100
AcDbPoint
10
-70.4898267007594
20
9.83654374737992
30
0.000000000000000
  0
POINT
  5
F10043
330
F10007
100
AcDbEntity
  8
Bemassung
 62
     0
100
AcDbPoint
10
-70.2382133995037
20
9.40446650124071
30
0.000000000000000
  0
ENDBLK
  5
F10044
330
F10007
100
AcDbEntity
  8
0
100
AcDbBlockEnd
  0
BLOCK
  5
F10045
330
F10002
100
AcDbEntity
  8
0
100
AcDbBlockBegin
  2
*D3
 70
     1
 10
0.0
 20
0.0
 30
0.0
  3
*D3
  1

  0
LINE
  5
F10046
330
F10002
100
AcDbEntity
  8
Bemassung
 62
     0
370
    -2
100
AcDbLine
10
-70.2382133995037
20
3.90446650124071
30
0.000000000000000
11
-82.7382133995037
21
3.90446650124071
31
0.000000000000000
  0
LINE
  5
F10047
330
F10002
100
AcDbEntity
  8
Bemassung
 62
     0
370
    -2
100
AcDbLine
10
-70.2382133995037
20
9.90446650124071
30
0.000000000000000
11
-82.7382133995037
21
9.90446650124071
31
0.000000000000000
  0
LINE
  5
F10048
330
F10002
100
AcDbEntity
  8
Bemassung
 62
     0
370
    -2
100
AcDbLine
10
-80.7382133995037
20
3.90446650124071
30
0.000000000000000
11
-80.7382133995037
21
9.90446650124071
31
0.000000000000000
  0
INSERT
  5
F10049
330
F10002
100
AcDbEntity
  8
Bemassung
 62
     0
370
    -2
100
AcDbBlockReference
  2
VDDIM_DEFAULT
10
-80.7382133995037
20
3.90446650124071
30
0.000000000000000
 41
2.50000000000000
 42
2.50000000000000
 43
2.50000000000000
 50
90.0000000000000
  0
INSERT
  5
F1004A
330
F10002
100
AcDbEntity
  8
Bemassung
 62
     0
370
    -2
100
AcDbBlockReference
  2
VDDIM_DEFAULT
10
-80.7382133995037
20
9.90446650124071
30
0.000000000000000
 41
2.50000000000000
 42
2.50000000000000
 43
2.50000000000000
 50
270.000000000000
  0
MTEXT
  5
F1004B
102
{ACAD_XDICTIONARY
360
F10005
102
}
330
F10002
100
AcDbEntity
  8
Bemassung
 62
     0
100
AcDbMText
10
-81.4048800661704
20
6.90446650124071
30
0.000000000000000
 40
2.50000000000000
 41
0.0
 71
     8
 72
     1
  1
\A1;6
 11
6.12323399573677e-017
 21
1.00000000000000
 31
0.0
 73
     1
 44
1.0
1001
ACAD
1000
MTEXTBEGIN
1070
73
1070
1
1070
44
1040
1.0
1070
74
1070
0
1000
MTEXTEND
  0
POINT
  5
F1004C
330
F10002
100
AcDbEntity
  8
Bemassung
 62
     0
100
AcDbPoint
10
-70.2382133995037
20
3.90446650124071
30
0.000000000000000
  0
POINT
  5
F1004D
330
F10002
100
AcDbEntity
  8
Bemassung
 62
     0
100
AcDbPoint
10
-70.2382133995037
20
9.90446650124071
30
0.000000000000000
  0
ENDBLK
  5
F1004E
330
F10002
100
AcDbEntity
  8
0
100
AcDbBlockEnd
  0
BLOCK
  5
F1004F
330
F10011
100
AcDbEntity
  8
0
100
AcDbBlockBegin
  2
*D6
 70
     1
 10
0.0
 20
0.0
 30
0.0
  3
*D6
  1

  0
LINE
  5
F10050
330
F10011
100
AcDbEntity
  8
Bemassung
 62
     0
370
    -2
100
AcDbLine
10
78.6617866004963
20
3.90446650124071
30
0.000000000000000
11
91.2617866004963
21
3.90446650124071
31
0.000000000000000
  0
LINE
  5
F10051
330
F10011
100
AcDbEntity
  8
Bemassung
 62
     0
370
    -2
100
AcDbLine
10
78.6617866004963
20
9.90446650124071
30
0.000000000000000
11
91.2617866004963
21
9.90446650124071
31
0.000000000000000
  0
LINE
  5
F10052
330
F10011
100
AcDbEntity
  8
Bemassung
 62
     0
370
    -2
100
AcDbLine
10
89.2617866004963
20
-5.21091811414392
30
0.000000000000000
11
89.2617866004963
21
9.90446650124071
31
0.000000000000000
  0
INSERT
  5
F10053
330
F10011
100
AcDbEntity
  8
Bemassung
 62
     0
370
    -2
100
AcDbBlockReference
  2
VDDIM_DEFAULT
10
89.2617866004963
20
3.90446650124071
30
0.000000000000000
 41
2.50000000000000
 42
2.50000000000000
 43
2.50000000000000
 50
90.0000000000000
  0
INSERT
  5
F10054
330
F10011
100
AcDbEntity
  8
Bemassung
 62
     0
370
    -2
100
AcDbBlockReference
  2
VDDIM_DEFAULT
10
89.2617866004963
20
9.90446650124071
30
0.000000000000000
 41
2.50000000000000
 42
2.50000000000000
 43
2.50000000000000
 50
270.000000000000
  0
MTEXT
  5
F10055
330
F10011
100
AcDbEntity
  8
Bemassung
 62
     0
100
AcDbMText
10
88.5951199338296
20
1.56327543424318
30
0.000000000000000
 40
2.50000000000000
 41
0.0
 71
     8
 72
     1
  1
\A1;6 h5
 11
6.12323399573677e-017
 21
1.00000000000000
 31
0.0
 73
     1
 44
1.0
  0
POINT
  5
F10056
330
F10011
100
AcDbEntity
  8
Bemassung
 62
     0
100
AcDbPoint
10
78.6617866004963
20
3.90446650124071
30
0.000000000000000
  0
POINT
  5
F10057
330
F10011
100
AcDbEntity
  8
Bemassung
 62
     0
100
AcDbPoint
10
78.6617866004963
20
9.90446650124071
30
0.000000000000000
  0
ENDBLK
  5
F10058
330
F10011
100
AcDbEntity
  8
0
100
AcDbBlockEnd
0
ENDSEC
0
SECTION
2
ENTITIES
  0
DIMENSION
  5
F1000D
330
261
100
AcDbEntity
  8
Bemassung
100
AcDbDimension
  2
*D5
10
79.2617866004963
20
24.9044665012407
30
0.000000000000000
11
18.2617866004963
21
25.5711331679074
31
0.000000000000000
 70
32
 1
<>
 71
     8
  3
BEM-ISBE
100
AcDbAlignedDimension
13
-42.7382133995037
23
9.90396650124070
33
0.000000000000000
14
79.2617866004963
24
9.30446650124071
34
0.000000000000000
100
AcDbRotatedDimension
1001
ACAD
1000
DSTYLE
1002
{
1070
284
1070
8
1070
78
1070
8
1070
144
1040
1.00000000000000
1070
147
1040
0.625
1070
 72
1070
 0
1070
 71
1070
 0
1002
}
  0
DIMENSION
  5
F10017
330
261
100
AcDbEntity
  8
Bemassung
100
AcDbDimension
  2
*D7
10
-70.7382133995037
20
-6.09553349875929
30
0.000000000000000
11
-57.7382133995037
21
-5.42886683209263
31
0.000000000000000
 70
32
 1
<>
 71
     8
  3
BEM-ISBE
100
AcDbAlignedDimension
13
-44.7382133995037
23
3.90496650124071
33
0.000000000000000
14
-70.7382133995037
24
-8.09553349875929
34
0.000000000000000
100
AcDbRotatedDimension
1001
ACAD
1000
DSTYLE
1002
{
1070
284
1070
8
1070
78
1070
8
1070
144
1040
1.00000000000000
1070
147
1040
0.625
1070
 72
1070
 0
1070
 71
1070
 0
1002
}
  0
DIMENSION
  5
F1001C
330
261
100
AcDbEntity
  8
Bemassung
100
AcDbDimension
  2
*D8
10
-70.7382133995037
20
29.9044665012407
30
0.000000000000000
11
4.26178660049627
21
30.5711331679074
31
0.000000000000000
 70
32
 1
<>
 71
     8
  3
BEM-ISBE
100
AcDbAlignedDimension
13
79.2617866004963
23
9.30446650124071
33
0.000000000000000
14
-70.7382133995037
24
-8.09553349875929
34
0.000000000000000
100
AcDbRotatedDimension
1001
ACAD
1000
DSTYLE
1002
{
1070
284
1070
8
1070
78
1070
8
1070
144
1040
1.00000000000000
1070
147
1040
0.625
1070
 72
1070
 0
1070
 71
1070
 0
1002
}
  0
DIMENSION
  5
F10008
330
261
100
AcDbEntity
  8
Bemassung
100
AcDbDimension
  2
*D4
10
-70.2382133995037
20
9.40446650124071
30
0.000000000000000
11
-81.9615275377874
21
19.3415514398486
31
0.000000000000000
 70
164
 1
<>
 71
     8
  3
BEM-ISBE
100
AcDbRadialDimension
15
-70.4898267007594
25
9.83654374737992
35
0.000000000000000
40
0.0
1001
ACAD
1000
DSTYLE
1002
{
1070
284
1070
8
1070
78
1070
8
1070
144
1040
1.00000000000000
1070
147
1040
0.625
1070
 72
1070
 0
1070
 71
1070
 0
1002
}
  0
DIMENSION
  5
F10003
330
261
100
AcDbEntity
  8
Bemassung
100
AcDbDimension
  2
*D3
10
-80.7382133995037
20
9.90446650124071
30
0.000000000000000
11
-81.4048800661704
21
6.90446650124071
31
0.000000000000000
 70
32
 1
Ø<>
 71
     8
  3
BEM-ISBE
100
AcDbAlignedDimension
13
-70.2382133995037
23
3.90446650124071
33
0.000000000000000
14
-70.2382133995037
24
9.90446650124071
34
0.000000000000000
50
90.0000000000000
100
AcDbRotatedDimension
1001
ACAD
1000
DSTYLE
1002
{
1070
284
1070
8
1070
78
1070
8
1070
144
1040
1.00000000000000
1070
147
1040
0.625
1070
 72
1070
 0
1070
 71
1070
 0
1002
}
  0
DIMENSION
  5
F10012
330
261
100
AcDbEntity
  8
Bemassung
100
AcDbDimension
  2
*D6
10
89.2617866004963
20
9.90446650124071
30
0.000000000000000
11
88.5951199338296
21
1.56327543424318
31
0.000000000000000
 70
32
 1
Ø<> h5
 71
     8
  3
BEM-ISBE
100
AcDbAlignedDimension
13
78.6617866004963
23
3.90446650124071
33
0.000000000000000
14
78.6617866004963
24
9.90446650124071
34
0.000000000000000
50
90.0000000000000
100
AcDbRotatedDimension
1001
ACAD
1000
DSTYLE
1002
{
1070
284
1070
8
1070
78
1070
8
1070
144
1040
1.00000000000000
1070
147
1040
0.625
1070
 72
1070
 0
1070
 71
1070
 0
1002
}
  0
LINE
  5
F10059
330
F1005A
100
AcDbEntity
8
Geo
100
AcDbLine
10
-70.7382133995037
20
6.90446650124071
30
0.000000000000000
11
-70.7382133995037
21
9.40446650124071
31
0.000000000000000
  0
ARC
  5
F1005B
330
F1005C
100
AcDbEntity
8
Geo
100
AcDbCircle
10
-70.2382133995037
20
9.40446650124071
30
0.000000000000000
 40
0.500000000000000
100
AcDbArc
 50
90.0000000000000
 51
180.000000000000
  0
LINE
  5
F1005D
330
F1005E
100
AcDbEntity
8
Geo
100
AcDbLine
10
-70.2382133995037
20
9.90446650124071
30
0.000000000000000
11
-44.7382133995037
21
9.90446650124071
31
0.000000000000000
  0
LINE
  5
F1005F
330
F10060
100
AcDbEntity
8
Geo
100
AcDbLine
10
-44.7382133995037
20
9.90446650124071
30
0.000000000000000
11
-44.7382133995037
21
9.90396650124070
31
0.000000000000000
  0
LINE
  5
F10061
330
F10062
100
AcDbEntity
8
Geo
100
AcDbLine
10
-44.7382133995037
20
9.90396650124070
30
0.000000000000000
11
-42.7382133995037
21
9.90396650124070
31
0.000000000000000
  0
LINE
  5
F10063
330
F10064
100
AcDbEntity
8
Geo
100
AcDbLine
10
-42.7382133995037
20
9.90396650124070
30
0.000000000000000
11
-42.7382133995037
21
9.90446650124071
31
0.000000000000000
  0
LINE
  5
F10065
330
F10066
100
AcDbEntity
8
Geo
100
AcDbLine
10
-42.7382133995037
20
9.90446650124071
30
0.000000000000000
11
78.6617866004963
21
9.90446650124071
31
0.000000000000000
  0
LINE
  5
F10067
330
F10068
100
AcDbEntity
8
Geo
100
AcDbLine
10
78.6617866004963
20
9.90446650124071
30
0.000000000000000
11
79.2617866004963
21
9.30446650124071
31
0.000000000000000
  0
LINE
  5
F10069
330
F1006A
100
AcDbEntity
8
Geo
100
AcDbLine
10
-56.2382133995038
20
9.90446049822968
30
0.000000000000000
11
-56.1382133995038
21
9.90402045276890
31
0.000000000000000
  0
LINE
  5
F1006B
330
F1006C
100
AcDbEntity
8
Geo
100
AcDbLine
10
-56.1382133995038
20
9.90402045276890
30
0.000000000000000
11
-56.0382133995038
21
9.90246949568817
31
0.000000000000000
  0
LINE
  5
F1006D
330
F1006E
100
AcDbEntity
8
Geo
100
AcDbLine
10
-56.0382133995038
20
9.90246949568817
30
0.000000000000000
11
-55.9382133995038
21
9.89980820139832
31
0.000000000000000
  0
LINE
  5
F1006F
330
F10070
100
AcDbEntity
8
Geo
100
AcDbLine
10
-55.9382133995038
20
9.89980820139832
30
0.000000000000000
11
-55.8382133995038
21
9.89603755553347
31
0.000000000000000
  0
LINE
  5
F10071
330
F10072
100
AcDbEntity
8
Geo
100
AcDbLine
10
-55.8382133995038
20
9.89603755553347
30
0.000000000000000
11
-55.7382133995038
21
9.89115895458603
31
0.000000000000000
  0
LINE
  5
F10073
330
F10074
100
AcDbEntity
8
Geo
100
AcDbLine
10
-55.7382133995038
20
9.89115895458603
30
0.000000000000000
11
-55.6382133995038
21
9.88517420538948
31
0.000000000000000
  0
LINE
  5
F10075
330
F10076
100
AcDbEntity
8
Geo
100
AcDbLine
10
-55.6382133995038
20
9.88517420538948
30
0.000000000000000
11
-55.5382133995038
21
9.87808552444918
31
0.000000000000000
  0
LINE
  5
F10077
330
F10078
100
AcDbEntity
8
Geo
100
AcDbLine
10
-55.5382133995038
20
9.87808552444918
30
0.000000000000000
11
-55.4382133995038
21
9.86989553712147
31
0.000000000000000
  0
LINE
  5
F10079
330
F1007A
100
AcDbEntity
8
Geo
100
AcDbLine
10
-55.4382133995038
20
9.86989553712147
30
0.000000000000000
11
-55.3382133995038
21
9.86060727664139
31
0.000000000000000
  0
LINE
  5
F1007B
330
F1007C
100
AcDbEntity
8
Geo
100
AcDbLine
10
-55.3382133995038
20
9.86060727664139
30
0.000000000000000
11
-55.2382133995038
21
9.85022418299922
31
0.000000000000000
  0
LINE
  5
F1007D
330
F1007E
100
AcDbEntity
8
Geo
100
AcDbLine
10
-55.2382133995038
20
9.85022418299922
30
0.000000000000000
11
-55.1382133995038
21
9.83875010166653
31
0.000000000000000
  0
LINE
  5
F1007F
330
F10080
100
AcDbEntity
8
Geo
100
AcDbLine
10
-55.1382133995038
20
9.83875010166653
30
0.000000000000000
11
-55.0382133995038
21
9.82618928217190
31
0.000000000000000
  0
LINE
  5
F10081
330
F10082
100
AcDbEntity
8
Geo
100
AcDbLine
10
-55.0382133995038
20
9.82618928217190
30
0.000000000000000
11
-54.9382133995038
21
9.81254637652711
31
0.000000000000000
  0
LINE
  5
F10083
330
F10084
100
AcDbEntity
8
Geo
100
AcDbLine
10
-54.9382133995038
20
9.81254637652711
30
0.000000000000000
11
-54.8382133995038
21
9.79782643750423
31
0.000000000000000
  0
LINE
  5
F10085
330
F10086
100
AcDbEntity
8
Geo
100
AcDbLine
10
-54.8382133995038
20
9.79782643750423
30
0.000000000000000
11
-54.7382133995038
21
9.78203491676427
31
0.000000000000000
  0
LINE
  5
F10087
330
F10088
100
AcDbEntity
8
Geo
100
AcDbLine
10
-54.7382133995038
20
9.78203491676427
30
0.000000000000000
11
-54.6382133995038
21
9.76517766283809
31
0.000000000000000
  0
LINE
  5
F10089
330
F1008A
100
AcDbEntity
8
Geo
100
AcDbLine
10
-54.6382133995038
20
9.76517766283809
30
0.000000000000000
11
-54.5382133995038
21
9.74726091896038
31
0.000000000000000
  0
LINE
  5
F1008B
330
F1008C
100
AcDbEntity
8
Geo
100
AcDbLine
10
-54.5382133995038
20
9.74726091896038
30
0.000000000000000
11
-54.4382133995038
21
9.72829132075740
31
0.000000000000000
  0
LINE
  5
F1008D
330
F1008E
100
AcDbEntity
8
Geo
100
AcDbLine
10
-54.4382133995038
20
9.72829132075740
30
0.000000000000000
11
-54.3382133995038
21
9.70827589378942
31
0.000000000000000
  0
LINE
  5
F1008F
330
F10090
100
AcDbEntity
8
Geo
100
AcDbLine
10
-54.3382133995038
20
9.70827589378942
30
0.000000000000000
11
-54.2382133995038
21
9.68722205094873
31
0.000000000000000
  0
LINE
  5
F10091
330
F10092
100
AcDbEntity
8
Geo
100
AcDbLine
10
-54.2382133995038
20
9.68722205094873
30
0.000000000000000
11
-54.1382133995038
21
9.66513758971425
31
0.000000000000000
  0
LINE
  5
F10093
330
F10094
100
AcDbEntity
8
Geo
100
AcDbLine
10
-54.1382133995038
20
9.66513758971425
30
0.000000000000000
11
-54.0382133995038
21
9.64203068926362
31
0.000000000000000
  0
LINE
  5
F10095
330
F10096
100
AcDbEntity
8
Geo
100
AcDbLine
10
-54.0382133995038
20
9.64203068926362
30
0.000000000000000
11
-53.9382133995038
21
9.61790990744396
31
0.000000000000000
  0
LINE
  5
F10097
330
F10098
100
AcDbEntity
8
Geo
100
AcDbLine
10
-53.9382133995038
20
9.61790990744396
30
0.000000000000000
11
-53.8382133995038
21
9.59278417760246
31
0.000000000000000
  0
LINE
  5
F10099
330
F1009A
100
AcDbEntity
8
Geo
100
AcDbLine
10
-53.8382133995038
20
9.59278417760246
30
0.000000000000000
11
-53.7382133995038
21
9.56666280527777
31
0.000000000000000
  0
LINE
  5
F1009B
330
F1009C
100
AcDbEntity
8
Geo
100
AcDbLine
10
-53.7382133995038
20
9.56666280527777
30
0.000000000000000
11
-53.6382133995038
21
9.53955546475363
31
0.000000000000000
  0
LINE
  5
F1009D
330
F1009E
100
AcDbEntity
8
Geo
100
AcDbLine
10
-53.6382133995038
20
9.53955546475363
30
0.000000000000000
11
-53.5382133995038
21
9.51147219547593
31
0.000000000000000
  0
LINE
  5
F1009F
330
F100A0
100
AcDbEntity
8
Geo
100
AcDbLine
10
-53.5382133995038
20
9.51147219547593
30
0.000000000000000
11
-53.4382133995038
21
9.48242339833450
31
0.000000000000000
  0
LINE
  5
F100A1
330
F100A2
100
AcDbEntity
8
Geo
100
AcDbLine
10
-53.4382133995038
20
9.48242339833450
30
0.000000000000000
11
-53.3382133995038
21
9.45241983181103
31
0.000000000000000
  0
LINE
  5
F100A3
330
F100A4
100
AcDbEntity
8
Geo
100
AcDbLine
10
-53.3382133995038
20
9.45241983181103
30
0.000000000000000
11
-53.2382133995038
21
9.42147260799459
31
0.000000000000000
  0
LINE
  5
F100A5
330
F100A6
100
AcDbEntity
8
Geo
100
AcDbLine
10
-53.2382133995038
20
9.42147260799459
30
0.000000000000000
11
-53.1382133995038
21
9.38959318846617
31
0.000000000000000
  0
LINE
  5
F100A7
330
F100A8
100
AcDbEntity
8
Geo
100
AcDbLine
10
-53.1382133995038
20
9.38959318846617
30
0.000000000000000
11
-53.0382133995038
21
9.35679338005378
31
0.000000000000000
  0
LINE
  5
F100A9
330
F100AA
100
AcDbEntity
8
Geo
100
AcDbLine
10
-53.0382133995038
20
9.35679338005378
30
0.000000000000000
11
-52.9382133995038
21
9.32308533045967
31
0.000000000000000
  0
LINE
  5
F100AB
330
F100AC
100
AcDbEntity
8
Geo
100
AcDbLine
10
-52.9382133995038
20
9.32308533045967
30
0.000000000000000
11
-52.8382133995038
21
9.28848152376134
31
0.000000000000000
  0
LINE
  5
F100AD
330
F100AE
100
AcDbEntity
8
Geo
100
AcDbLine
10
-52.8382133995038
20
9.28848152376134
30
0.000000000000000
11
-52.7382133995037
21
9.25299477578792
31
0.000000000000000
  0
LINE
  5
F100AF
330
F100B0
100
AcDbEntity
8
Geo
100
AcDbLine
10
-52.7382133995037
20
9.25299477578792
30
0.000000000000000
11
-52.6382133995037
21
9.21663822937376
31
0.000000000000000
  0
LINE
  5
F100B1
330
F100B2
100
AcDbEntity
8
Geo
100
AcDbLine
10
-52.6382133995037
20
9.21663822937376
30
0.000000000000000
11
-52.5382133995037
21
9.17942534949082
31
0.000000000000000
  0
LINE
  5
F100B3
330
F100B4
100
AcDbEntity
8
Geo
100
AcDbLine
10
-52.5382133995037
20
9.17942534949082
30
0.000000000000000
11
-52.4382133995037
21
9.14136991826184
31
0.000000000000000
  0
LINE
  5
F100B5
330
F100B6
100
AcDbEntity
8
Geo
100
AcDbLine
10
-52.4382133995037
20
9.14136991826184
30
0.000000000000000
11
-52.3382133995037
21
9.10248602985595
31
0.000000000000000
  0
LINE
  5
F100B7
330
F100B8
100
AcDbEntity
8
Geo
100
AcDbLine
10
-52.3382133995037
20
9.10248602985595
30
0.000000000000000
11
-52.2382133995037
21
9.06278808526882
31
0.000000000000000
  0
LINE
  5
F100B9
330
F100BA
100
AcDbEntity
8
Geo
100
AcDbLine
10
-52.2382133995037
20
9.06278808526882
30
0.000000000000000
11
-52.1382133995037
21
9.02229078698910
31
0.000000000000000
  0
LINE
  5
F100BB
330
F100BC
100
AcDbEntity
8
Geo
100
AcDbLine
10
-52.1382133995037
20
9.02229078698910
30
0.000000000000000
11
-52.0382133995037
21
8.98100913355324
31
0.000000000000000
  0
LINE
  5
F100BD
330
F100BE
100
AcDbEntity
8
Geo
100
AcDbLine
10
-52.0382133995037
20
8.98100913355324
30
0.000000000000000
11
-51.9382133995037
21
8.93895841399060
31
0.000000000000000
  0
LINE
  5
F100BF
330
F100C0
100
AcDbEntity
8
Geo
100
AcDbLine
10
-51.9382133995037
20
8.93895841399060
30
0.000000000000000
11
-51.8382133995037
21
8.89615420216109
31
0.000000000000000
  0
LINE
  5
F100C1
330
F100C2
100
AcDbEntity
8
Geo
100
AcDbLine
10
-51.8382133995037
20
8.89615420216109
30
0.000000000000000
11
-51.7382133995037
21
8.85261235098719
31
0.000000000000000
  0
LINE
  5
F100C3
330
F100C4
100
AcDbEntity
8
Geo
100
AcDbLine
10
-51.7382133995037
20
8.85261235098719
30
0.000000000000000
11
-51.6382133995037
21
8.80834898658272
31
0.000000000000000
  0
LINE
  5
F100C5
330
F100C6
100
AcDbEntity
8
Geo
100
AcDbLine
10
-51.6382133995037
20
8.80834898658272
30
0.000000000000000
11
-51.5382133995037
21
8.76338050228038
31
0.000000000000000
  0
LINE
  5
F100C7
330
F100C8
100
AcDbEntity
8
Geo
100
AcDbLine
10
-51.5382133995037
20
8.76338050228038
30
0.000000000000000
11
-51.4382133995037
21
8.71772355256032
31
0.000000000000000
  0
LINE
  5
F100C9
330
F100CA
100
AcDbEntity
8
Geo
100
AcDbLine
10
-51.4382133995037
20
8.71772355256032
30
0.000000000000000
11
-51.3382133995037
21
8.67139504688200
31
0.000000000000000
  0
LINE
  5
F100CB
330
F100CC
100
AcDbEntity
8
Geo
100
AcDbLine
10
-51.3382133995037
20
8.67139504688200
30
0.000000000000000
11
-51.2382133995037
21
8.62441214342165
31
0.000000000000000
  0
LINE
  5
F100CD
330
F100CE
100
AcDbEntity
8
Geo
100
AcDbLine
10
-51.2382133995037
20
8.62441214342165
30
0.000000000000000
11
-51.1382133995037
21
8.57679224271756
31
0.000000000000000
  0
LINE
  5
F100CF
330
F100D0
100
AcDbEntity
8
Geo
100
AcDbLine
10
-51.1382133995037
20
8.57679224271756
30
0.000000000000000
11
-51.0382133995037
21
8.52855298122564
31
0.000000000000000
  0
LINE
  5
F100D1
330
F100D2
100
AcDbEntity
8
Geo
100
AcDbLine
10
-51.0382133995037
20
8.52855298122564
30
0.000000000000000
11
-50.9382133995037
21
8.47971222478763
31
0.000000000000000
  0
LINE
  5
F100D3
330
F100D4
100
AcDbEntity
8
Geo
100
AcDbLine
10
-50.9382133995037
20
8.47971222478763
30
0.000000000000000
11
-50.8382133995037
21
8.43028806201426
31
0.000000000000000
  0
LINE
  5
F100D5
330
F100D6
100
AcDbEntity
8
Geo
100
AcDbLine
10
-50.8382133995037
20
8.43028806201426
30
0.000000000000000
11
-50.7382133995037
21
8.38029879758604
31
0.000000000000000
  0
LINE
  5
F100D7
330
F100D8
100
AcDbEntity
8
Geo
100
AcDbLine
10
-50.7382133995037
20
8.38029879758604
30
0.000000000000000
11
-50.6382133995037
21
8.32976294547392
31
0.000000000000000
  0
LINE
  5
F100D9
330
F100DA
100
AcDbEntity
8
Geo
100
AcDbLine
10
-50.6382133995037
20
8.32976294547392
30
0.000000000000000
11
-50.5382133995037
21
8.27869922208249
31
0.000000000000000
  0
LINE
  5
F100DB
330
F100DC
100
AcDbEntity
8
Geo
100
AcDbLine
10
-50.5382133995037
20
8.27869922208249
30
0.000000000000000
11
-50.4382133995037
21
8.22712653931818
31
0.000000000000000
  0
LINE
  5
F100DD
330
F100DE
100
AcDbEntity
8
Geo
100
AcDbLine
10
-50.4382133995037
20
8.22712653931818
30
0.000000000000000
11
-50.3382133995037
21
8.17506399758508
31
0.000000000000000
  0
LINE
  5
F100DF
330
F100E0
100
AcDbEntity
8
Geo
100
AcDbLine
10
-50.3382133995037
20
8.17506399758508
30
0.000000000000000
11
-50.2382133995037
21
8.12253087871091
31
0.000000000000000
  0
LINE
  5
F100E1
330
F100E2
100
AcDbEntity
8
Geo
100
AcDbLine
10
-50.2382133995037
20
8.12253087871091
30
0.000000000000000
11
-50.1382133995037
21
8.06954663880588
31
0.000000000000000
  0
LINE
  5
F100E3
330
F100E4
100
AcDbEntity
8
Geo
100
AcDbLine
10
-50.1382133995037
20
8.06954663880588
30
0.000000000000000
11
-50.0382133995037
21
8.01613090105687
31
0.000000000000000
  0
LINE
  5
F100E5
330
F100E6
100
AcDbEntity
8
Geo
100
AcDbLine
10
-50.0382133995037
20
8.01613090105687
30
0.000000000000000
11
-49.9382133995037
21
7.96230344845985
31
0.000000000000000
  0
LINE
  5
F100E7
330
F100E8
100
AcDbEntity
8
Geo
100
AcDbLine
10
-49.9382133995037
20
7.96230344845985
30
0.000000000000000
11
-49.8382133995037
21
7.90808421649308
31
0.000000000000000
  0
LINE
  5
F100E9
330
F100EA
100
AcDbEntity
8
Geo
100
AcDbLine
10
-49.8382133995037
20
7.90808421649308
30
0.000000000000000
11
-49.7382133995037
21
7.85349328573380
31
0.000000000000000
  0
LINE
  5
F100EB
330
F100EC
100
AcDbEntity
8
Geo
100
AcDbLine
10
-49.7382133995037
20
7.85349328573380
30
0.000000000000000
11
-49.6382133995037
21
7.79855087442122
31
0.000000000000000
  0
LINE
  5
F100ED
330
F100EE
100
AcDbEntity
8
Geo
100
AcDbLine
10
-49.6382133995037
20
7.79855087442122
30
0.000000000000000
11
-49.5382133995037
21
7.74327733096852
31
0.000000000000000
  0
LINE
  5
F100EF
330
F100F0
100
AcDbEntity
8
Geo
100
AcDbLine
10
-49.5382133995037
20
7.74327733096852
30
0.000000000000000
11
-49.4382133995037
21
7.68769312642663
31
0.000000000000000
  0
LINE
  5
F100F1
330
F100F2
100
AcDbEntity
8
Geo
100
AcDbLine
10
-49.4382133995037
20
7.68769312642663
30
0.000000000000000
11
-49.3382133995037
21
7.63181884690257
31
0.000000000000000
  0
LINE
  5
F100F3
330
F100F4
100
AcDbEntity
8
Geo
100
AcDbLine
10
-49.3382133995037
20
7.63181884690257
30
0.000000000000000
11
-49.2382133995037
21
7.57567518593527
31
0.000000000000000
  0
LINE
  5
F100F5
330
F100F6
100
AcDbEntity
8
Geo
100
AcDbLine
10
-49.2382133995037
20
7.57567518593527
30
0.000000000000000
11
-49.1382133995037
21
7.51928293683143
31
0.000000000000000
  0
LINE
  5
F100F7
330
F100F8
100
AcDbEntity
8
Geo
100
AcDbLine
10
-49.1382133995037
20
7.51928293683143
30
0.000000000000000
11
-49.0382133995037
21
7.46266298496463
31
0.000000000000000
  0
LINE
  5
F100F9
330
F100FA
100
AcDbEntity
8
Geo
100
AcDbLine
10
-49.0382133995037
20
7.46266298496463
30
0.000000000000000
11
-48.9382133995037
21
7.40583630004017
31
0.000000000000000
  0
LINE
  5
F100FB
330
F100FC
100
AcDbEntity
8
Geo
100
AcDbLine
10
-48.9382133995037
20
7.40583630004017
30
0.000000000000000
11
-48.8382133995037
21
7.34882392832883
31
0.000000000000000
  0
LINE
  5
F100FD
330
F100FE
100
AcDbEntity
8
Geo
100
AcDbLine
10
-48.8382133995037
20
7.34882392832883
30
0.000000000000000
11
-48.7382133995037
21
7.29164698487210
31
0.000000000000000
  0
LINE
  5
F100FF
330
F10100
100
AcDbEntity
8
Geo
100
AcDbLine
10
-48.7382133995037
20
7.29164698487210
30
0.000000000000000
11
-48.6382133995037
21
7.23432664566213
31
0.000000000000000
  0
LINE
  5
F10101
330
F10102
100
AcDbEntity
8
Geo
100
AcDbLine
10
-48.6382133995037
20
7.23432664566213
30
0.000000000000000
11
-48.5382133995037
21
7.17688413979895
31
0.000000000000000
  0
LINE
  5
F10103
330
F10104
100
AcDbEntity
8
Geo
100
AcDbLine
10
-48.5382133995037
20
7.17688413979895
30
0.000000000000000
11
-48.4382133995037
21
7.11934074162809
31
0.000000000000000
  0
LINE
  5
F10105
330
F10106
100
AcDbEntity
8
Geo
100
AcDbLine
10
-48.4382133995037
20
7.11934074162809
30
0.000000000000000
11
-48.3382133995037
21
7.06171776286148
31
0.000000000000000
  0
LINE
  5
F10107
330
F10108
100
AcDbEntity
8
Geo
100
AcDbLine
10
-48.3382133995037
20
7.06171776286148
30
0.000000000000000
11
-48.2382133995037
21
7.00403654468440
31
0.000000000000000
  0
LINE
  5
F10109
330
F1010A
100
AcDbEntity
8
Geo
100
AcDbLine
10
-48.2382133995037
20
7.00403654468440
30
0.000000000000000
11
-48.1382133995037
21
6.94631844985165
31
0.000000000000000
  0
LINE
  5
F1010B
330
F1010C
100
AcDbEntity
8
Geo
100
AcDbLine
10
-48.1382133995037
20
6.94631844985165
30
0.000000000000000
11
-48.0382133995037
21
6.88858485477560
31
0.000000000000000
  0
LINE
  5
F1010D
330
F1010E
100
AcDbEntity
8
Geo
100
AcDbLine
10
-48.0382133995037
20
6.88858485477560
30
0.000000000000000
11
-47.9382133995037
21
6.83085714160928
31
0.000000000000000
  0
LINE
  5
F1010F
330
F10110
100
AcDbEntity
8
Geo
100
AcDbLine
10
-47.9382133995037
20
6.83085714160928
30
0.000000000000000
11
-47.8382133995037
21
6.77315669032733
31
0.000000000000000
  0
LINE
  5
F10111
330
F10112
100
AcDbEntity
8
Geo
100
AcDbLine
10
-47.8382133995037
20
6.77315669032733
30
0.000000000000000
11
-47.7382133995037
21
6.71550487080767
31
0.000000000000000
  0
LINE
  5
F10113
330
F10114
100
AcDbEntity
8
Geo
100
AcDbLine
10
-47.7382133995037
20
6.71550487080767
30
0.000000000000000
11
-47.6382133995037
21
6.65792303491703
31
0.000000000000000
  0
LINE
  5
F10115
330
F10116
100
AcDbEntity
8
Geo
100
AcDbLine
10
-47.6382133995037
20
6.65792303491703
30
0.000000000000000
11
-47.5382133995037
21
6.60043250860307
31
0.000000000000000
  0
LINE
  5
F10117
330
F10118
100
AcDbEntity
8
Geo
100
AcDbLine
10
-47.5382133995037
20
6.60043250860307
30
0.000000000000000
11
-47.4382133995037
21
6.54305458399615
31
0.000000000000000
  0
LINE
  5
F10119
330
F1011A
100
AcDbEntity
8
Geo
100
AcDbLine
10
-47.4382133995037
20
6.54305458399615
30
0.000000000000000
11
-47.3382133995037
21
6.48581051152356
31
0.000000000000000
  0
LINE
  5
F1011B
330
F1011C
100
AcDbEntity
8
Geo
100
AcDbLine
10
-47.3382133995037
20
6.48581051152356
30
0.000000000000000
11
-47.2382133995037
21
6.42872149203927
31
0.000000000000000
  0
LINE
  5
F1011D
330
F1011E
100
AcDbEntity
8
Geo
100
AcDbLine
10
-47.2382133995037
20
6.42872149203927
30
0.000000000000000
11
-47.1382133995037
21
6.37180866897197
31
0.000000000000000
  0
LINE
  5
F1011F
330
F10120
100
AcDbEntity
8
Geo
100
AcDbLine
10
-47.1382133995037
20
6.37180866897197
30
0.000000000000000
11
-47.0382133995037
21
6.31509312049445
31
0.000000000000000
  0
LINE
  5
F10121
330
F10122
100
AcDbEntity
8
Geo
100
AcDbLine
10
-47.0382133995037
20
6.31509312049445
30
0.000000000000000
11
-46.9382133995037
21
6.25859585171710
31
0.000000000000000
  0
LINE
  5
F10123
330
F10124
100
AcDbEntity
8
Geo
100
AcDbLine
10
-46.9382133995037
20
6.25859585171710
30
0.000000000000000
11
-46.8382133995037
21
6.20233778690845
31
0.000000000000000
  0
LINE
  5
F10125
330
F10126
100
AcDbEntity
8
Geo
100
AcDbLine
10
-46.8382133995037
20
6.20233778690845
30
0.000000000000000
11
-46.7382133995037
21
6.14633976174571
31
0.000000000000000
  0
LINE
  5
F10127
330
F10128
100
AcDbEntity
8
Geo
100
AcDbLine
10
-46.7382133995037
20
6.14633976174571
30
0.000000000000000
11
-46.6382133995037
21
6.09062251559808
31
0.000000000000000
  0
LINE
  5
F10129
330
F1012A
100
AcDbEntity
8
Geo
100
AcDbLine
10
-46.6382133995037
20
6.09062251559808
30
0.000000000000000
11
-46.5382133995037
21
6.03520668384575
31
0.000000000000000
  0
LINE
  5
F1012B
330
F1012C
100
AcDbEntity
8
Geo
100
AcDbLine
10
-46.5382133995037
20
6.03520668384575
30
0.000000000000000
11
-46.4382133995037
21
5.98011279023740
31
0.000000000000000
  0
LINE
  5
F1012D
330
F1012E
100
AcDbEntity
8
Geo
100
AcDbLine
10
-46.4382133995037
20
5.98011279023740
30
0.000000000000000
11
-46.3382133995037
21
5.92536123928901
31
0.000000000000000
  0
LINE
  5
F1012F
330
F10130
100
AcDbEntity
8
Geo
100
AcDbLine
10
-46.3382133995037
20
5.92536123928901
30
0.000000000000000
11
-46.2382133995037
21
5.87097230872693
31
0.000000000000000
  0
LINE
  5
F10131
330
F10132
100
AcDbEntity
8
Geo
100
AcDbLine
10
-46.2382133995037
20
5.87097230872693
30
0.000000000000000
11
-46.1382133995037
21
5.81696614197779
31
0.000000000000000
  0
LINE
  5
F10133
330
F10134
100
AcDbEntity
8
Geo
100
AcDbLine
10
-46.1382133995037
20
5.81696614197779
30
0.000000000000000
11
-46.0382133995037
21
5.76336274070823
31
0.000000000000000
  0
LINE
  5
F10135
330
F10136
100
AcDbEntity
8
Geo
100
AcDbLine
10
-46.0382133995037
20
5.76336274070823
30
0.000000000000000
11
-45.9382133995037
21
5.71018195741707
31
0.000000000000000
  0
LINE
  5
F10137
330
F10138
100
AcDbEntity
8
Geo
100
AcDbLine
10
-45.9382133995037
20
5.71018195741707
30
0.000000000000000
11
-45.8382133995037
21
5.65744348808283
31
0.000000000000000
  0
LINE
  5
F10139
330
F1013A
100
AcDbEntity
8
Geo
100
AcDbLine
10
-45.8382133995037
20
5.65744348808283
30
0.000000000000000
11
-45.7382133995037
21
5.60516686486905
31
0.000000000000000
  0
LINE
  5
F1013B
330
F1013C
100
AcDbEntity
8
Geo
100
AcDbLine
10
-45.7382133995037
20
5.60516686486905
30
0.000000000000000
11
-45.6382133995036
21
5.55337144889047
31
0.000000000000000
  0
LINE
  5
F1013D
330
F1013E
100
AcDbEntity
8
Geo
100
AcDbLine
10
-45.6382133995036
20
5.55337144889047
30
0.000000000000000
11
-45.5382133995036
21
5.50207642304241
31
0.000000000000000
  0
LINE
  5
F1013F
330
F10140
100
AcDbEntity
8
Geo
100
AcDbLine
10
-45.5382133995036
20
5.50207642304241
30
0.000000000000000
11
-45.4382133995036
21
5.45130078489623
31
0.000000000000000
  0
LINE
  5
F10141
330
F10142
100
AcDbEntity
8
Geo
100
AcDbLine
10
-45.4382133995036
20
5.45130078489623
30
0.000000000000000
11
-45.3382133995036
21
5.40106333966342
31
0.000000000000000
  0
LINE
  5
F10143
330
F10144
100
AcDbEntity
8
Geo
100
AcDbLine
10
-45.3382133995036
20
5.40106333966342
30
0.000000000000000
11
-45.2382133995036
21
5.35138269323092
31
0.000000000000000
  0
LINE
  5
F10145
330
F10146
100
AcDbEntity
8
Geo
100
AcDbLine
10
-45.2382133995036
20
5.35138269323092
30
0.000000000000000
11
-45.1382133995036
21
5.30227724527023
31
0.000000000000000
  0
LINE
  5
F10147
330
F10148
100
AcDbEntity
8
Geo
100
AcDbLine
10
-45.1382133995036
20
5.30227724527023
30
0.000000000000000
11
-45.0382133995036
21
5.25376518242299
31
0.000000000000000
  0
LINE
  5
F10149
330
F1014A
100
AcDbEntity
8
Geo
100
AcDbLine
10
-45.0382133995036
20
5.25376518242299
30
0.000000000000000
11
-44.9382133995036
21
5.20586447156534
31
0.000000000000000
  0
LINE
  5
F1014B
330
F1014C
100
AcDbEntity
8
Geo
100
AcDbLine
10
-44.9382133995036
20
5.20586447156534
30
0.000000000000000
11
-44.8382133995036
21
5.15859285315373
31
0.000000000000000
  0
LINE
  5
F1014D
330
F1014E
100
AcDbEntity
8
Geo
100
AcDbLine
10
-44.8382133995036
20
5.15859285315373
30
0.000000000000000
11
-44.7382133995037
21
5.11196783465467
31
0.000000000000000
  0
LINE
  5
F1014F
330
F10150
100
AcDbEntity
8
Geo
100
AcDbLine
10
-44.7382133995037
20
5.11196783465467
30
0.000000000000000
11
-44.6382133995037
21
4.98913733081622
31
0.000000000000000
  0
LINE
  5
F10151
330
F10152
100
AcDbEntity
8
Geo
100
AcDbLine
10
-44.6382133995037
20
4.98913733081622
30
0.000000000000000
11
-44.5382133995037
21
4.85424797333532
31
0.000000000000000
  0
LINE
  5
F10153
330
F10154
100
AcDbEntity
8
Geo
100
AcDbLine
10
-44.5382133995037
20
4.85424797333532
30
0.000000000000000
11
-44.4382133995037
21
4.71084987532618
31
0.000000000000000
  0
LINE
  5
F10155
330
F10156
100
AcDbEntity
8
Geo
100
AcDbLine
10
-44.4382133995037
20
4.71084987532618
30
0.000000000000000
11
-44.3382133995037
21
4.56293959737628
31
0.000000000000000
  0
LINE
  5
F10157
330
F10158
100
AcDbEntity
8
Geo
100
AcDbLine
10
-44.3382133995037
20
4.56293959737628
30
0.000000000000000
11
-44.2382133995037
21
4.41533148452234
31
0.000000000000000
  0
LINE
  5
F10159
330
F1015A
100
AcDbEntity
8
Geo
100
AcDbLine
10
-44.2382133995037
20
4.41533148452234
30
0.000000000000000
11
-44.1382133995037
21
4.27370778936484
31
0.000000000000000
  0
LINE
  5
F1015B
330
F1015C
100
AcDbEntity
8
Geo
100
AcDbLine
10
-44.1382133995037
20
4.27370778936484
30
0.000000000000000
11
-44.0382133995037
21
4.14463373077661
31
0.000000000000000
  0
LINE
  5
F1015D
330
F1015E
100
AcDbEntity
8
Geo
100
AcDbLine
10
-44.0382133995037
20
4.14463373077661
30
0.000000000000000
11
-43.9382133995037
21
4.03552307764674
31
0.000000000000000
  0
LINE
  5
F1015F
330
F10160
100
AcDbEntity
8
Geo
100
AcDbLine
10
-43.9382133995037
20
4.03552307764674
30
0.000000000000000
11
-43.8382133995037
21
3.95453851926839
31
0.000000000000000
  0
LINE
  5
F10161
330
F10162
100
AcDbEntity
8
Geo
100
AcDbLine
10
-43.8382133995037
20
3.95453851926839
30
0.000000000000000
11
-43.7382133995037
21
3.91041060820457
31
0.000000000000000
  0
LINE
  5
F10163
330
F10164
100
AcDbEntity
8
Geo
100
AcDbLine
10
-43.7382133995037
20
3.91041060820457
30
0.000000000000000
11
-43.6382133995037
21
3.90496650124071
31
0.000000000000000
  0
LINE
  5
F10165
330
F10166
100
AcDbEntity
8
Geo
100
AcDbLine
10
-70.7382133995037
20
9.40446650124071
30
0.000000000000000
11
-70.6382133995037
21
9.70394799872565
31
0.000000000000000
  0
LINE
  5
F10167
330
F10168
100
AcDbEntity
8
Geo
100
AcDbLine
10
-70.6382133995037
20
9.70394799872565
30
0.000000000000000
11
-70.5382133995037
21
9.80231861828294
31
0.000000000000000
  0
LINE
  5
F10169
330
F1016A
100
AcDbEntity
8
Geo
100
AcDbLine
10
-70.5382133995037
20
9.80231861828294
30
0.000000000000000
11
-70.4382133995037
21
9.85779501086532
31
0.000000000000000
  0
LINE
  5
F1016B
330
F1016C
100
AcDbEntity
8
Geo
100
AcDbLine
10
-70.4382133995037
20
9.85779501086532
30
0.000000000000000
11
-70.3382133995037
21
9.88550986684219
31
0.000000000000000
  0
LINE
  5
F1016D
330
F1016E
100
AcDbEntity
8
Geo
100
AcDbLine
10
-70.3382133995037
20
9.88550986684219
30
0.000000000000000
11
-70.2382133995037
21
9.89058832577998
31
0.000000000000000
  0
LINE
  5
F1016F
330
F10170
100
AcDbEntity
8
Geo
100
AcDbLine
10
-70.2382133995037
20
9.89058832577998
30
0.000000000000000
11
-70.1382133995037
21
9.88448871358874
31
0.000000000000000
  0
LINE
  5
F10171
330
F10172
100
AcDbEntity
8
Geo
100
AcDbLine
10
-70.1382133995037
20
9.88448871358874
30
0.000000000000000
11
-70.0382133995037
21
9.87728542353175
31
0.000000000000000
  0
LINE
  5
F10173
330
F10174
100
AcDbEntity
8
Geo
100
AcDbLine
10
-70.0382133995037
20
9.87728542353175
30
0.000000000000000
11
-69.9382133995037
21
9.86898112341190
31
0.000000000000000
  0
LINE
  5
F10175
330
F10176
100
AcDbEntity
8
Geo
100
AcDbLine
10
-69.9382133995037
20
9.86898112341190
30
0.000000000000000
11
-69.8382133995037
21
9.85957888880095
31
0.000000000000000
  0
LINE
  5
F10177
330
F10178
100
AcDbEntity
8
Geo
100
AcDbLine
10
-69.8382133995037
20
9.85957888880095
30
0.000000000000000
11
-69.7382133995037
21
9.84908220190056
31
0.000000000000000
  0
LINE
  5
F10179
330
F1017A
100
AcDbEntity
8
Geo
100
AcDbLine
10
-69.7382133995037
20
9.84908220190056
30
0.000000000000000
11
-69.6382133995037
21
9.83749495025254
31
0.000000000000000
  0
LINE
  5
F1017B
330
F1017C
100
AcDbEntity
8
Geo
100
AcDbLine
10
-69.6382133995037
20
9.83749495025254
30
0.000000000000000
11
-69.5382133995037
21
9.82482142529914
31
0.000000000000000
  0
LINE
  5
F1017D
330
F1017E
100
AcDbEntity
8
Geo
100
AcDbLine
10
-69.5382133995037
20
9.82482142529914
30
0.000000000000000
11
-69.4382133995037
21
9.81106632079360
31
0.000000000000000
  0
LINE
  5
F1017F
330
F10180
100
AcDbEntity
8
Geo
100
AcDbLine
10
-69.4382133995037
20
9.81106632079360
30
0.000000000000000
11
-69.3382133995037
21
9.79623473106184
31
0.000000000000000
  0
LINE
  5
F10181
330
F10182
100
AcDbEntity
8
Geo
100
AcDbLine
10
-69.3382133995037
20
9.79623473106184
30
0.000000000000000
11
-69.2382133995037
21
9.78033214911570
31
0.000000000000000
  0
LINE
  5
F10183
330
F10184
100
AcDbEntity
8
Geo
100
AcDbLine
10
-69.2382133995037
20
9.78033214911570
30
0.000000000000000
11
-69.1382133995037
21
9.76336446461857
31
0.000000000000000
  0
LINE
  5
F10185
330
F10186
100
AcDbEntity
8
Geo
100
AcDbLine
10
-69.1382133995037
20
9.76336446461857
30
0.000000000000000
11
-69.0382133995037
21
9.74533796170408
31
0.000000000000000
  0
LINE
  5
F10187
330
F10188
100
AcDbEntity
8
Geo
100
AcDbLine
10
-69.0382133995037
20
9.74533796170408
30
0.000000000000000
11
-68.9382133995037
21
9.72625931664872
31
0.000000000000000
  0
LINE
  5
F10189
330
F1018A
100
AcDbEntity
8
Geo
100
AcDbLine
10
-68.9382133995037
20
9.72625931664872
30
0.000000000000000
11
-68.8382133995037
21
9.70613559539925
31
0.000000000000000
  0
LINE
  5
F1018B
330
F1018C
100
AcDbEntity
8
Geo
100
AcDbLine
10
-68.8382133995037
20
9.70613559539925
30
0.000000000000000
11
-68.7382133995037
21
9.68497425095573
31
0.000000000000000
  0
LINE
  5
F1018D
330
F1018E
100
AcDbEntity
8
Geo
100
AcDbLine
10
-68.7382133995037
20
9.68497425095573
30
0.000000000000000
11
-68.6382133995037
21
9.66278312061122
31
0.000000000000000
  0
LINE
  5
F1018F
330
F10190
100
AcDbEntity
8
Geo
100
AcDbLine
10
-68.6382133995037
20
9.66278312061122
30
0.000000000000000
11
-68.5382133995037
21
9.63957042304924
31
0.000000000000000
  0
LINE
  5
F10191
330
F10192
100
AcDbEntity
8
Geo
100
AcDbLine
10
-68.5382133995037
20
9.63957042304924
30
0.000000000000000
11
-68.4382133995037
21
9.61534475529982
31
0.000000000000000
  0
LINE
  5
F10193
330
F10194
100
AcDbEntity
8
Geo
100
AcDbLine
10
-68.4382133995037
20
9.61534475529982
30
0.000000000000000
11
-68.3382133995037
21
9.59011508955559
31
0.000000000000000
  0
LINE
  5
F10195
330
F10196
100
AcDbEntity
8
Geo
100
AcDbLine
10
-68.3382133995037
20
9.59011508955559
30
0.000000000000000
11
-68.2382133995037
21
9.56389076984879
31
0.000000000000000
  0
LINE
  5
F10197
330
F10198
100
AcDbEntity
8
Geo
100
AcDbLine
10
-68.2382133995037
20
9.56389076984879
30
0.000000000000000
11
-68.1382133995037
21
9.53668150859064
31
0.000000000000000
  0
LINE
  5
F10199
330
F1019A
100
AcDbEntity
8
Geo
100
AcDbLine
10
-68.1382133995037
20
9.53668150859064
30
0.000000000000000
11
-68.0382133995037
21
9.50849738297429
31
0.000000000000000
  0
LINE
  5
F1019B
330
F1019C
100
AcDbEntity
8
Geo
100
AcDbLine
10
-68.0382133995037
20
9.50849738297429
30
0.000000000000000
11
-67.9382133995037
21
9.47934883124260
31
0.000000000000000
  0
LINE
  5
F1019D
330
F1019E
100
AcDbEntity
8
Geo
100
AcDbLine
10
-67.9382133995037
20
9.47934883124260
30
0.000000000000000
11
-67.8382133995037
21
9.44924664882228
31
0.000000000000000
  0
LINE
  5
F1019F
330
F101A0
100
AcDbEntity
8
Geo
100
AcDbLine
10
-67.8382133995037
20
9.44924664882228
30
0.000000000000000
11
-67.7382133995037
21
9.41820198432568
31
0.000000000000000
  0
LINE
  5
F101A1
330
F101A2
100
AcDbEntity
8
Geo
100
AcDbLine
10
-67.7382133995037
20
9.41820198432568
30
0.000000000000000
11
-67.6382133995037
21
9.38622633542182
31
0.000000000000000
  0
LINE
  5
F101A3
330
F101A4
100
AcDbEntity
8
Geo
100
AcDbLine
10
-67.6382133995037
20
9.38622633542182
30
0.000000000000000
11
-67.5382133995037
21
9.35333154457811
31
0.000000000000000
  0
LINE
  5
F101A5
330
F101A6
100
AcDbEntity
8
Geo
100
AcDbLine
10
-67.5382133995037
20
9.35333154457811
30
0.000000000000000
11
-67.4382133995037
21
9.31952979467439
31
0.000000000000000
  0
LINE
  5
F101A7
330
F101A8
100
AcDbEntity
8
Geo
100
AcDbLine
10
-67.4382133995037
20
9.31952979467439
30
0.000000000000000
11
-67.3382133995037
21
9.28483360449090
31
0.000000000000000
  0
LINE
  5
F101A9
330
F101AA
100
AcDbEntity
8
Geo
100
AcDbLine
10
-67.3382133995037
20
9.28483360449090
30
0.000000000000000
11
-67.2382133995037
21
9.24925582407185
31
0.000000000000000
  0
LINE
  5
F101AB
330
F101AC
100
AcDbEntity
8
Geo
100
AcDbLine
10
-67.2382133995037
20
9.24925582407185
30
0.000000000000000
11
-67.1382133995037
21
9.21280962996624
31
0.000000000000000
  0
LINE
  5
F101AD
330
F101AE
100
AcDbEntity
8
Geo
100
AcDbLine
10
-67.1382133995037
20
9.21280962996624
30
0.000000000000000
11
-67.0382133995037
21
9.17550852034788
31
0.000000000000000
  0
LINE
  5
F101AF
330
F101B0
100
AcDbEntity
8
Geo
100
AcDbLine
10
-67.0382133995037
20
9.17550852034788
30
0.000000000000000
11
-66.9382133995037
21
9.13736631001616
31
0.000000000000000
  0
LINE
  5
F101B1
330
F101B2
100
AcDbEntity
8
Geo
100
AcDbLine
10
-66.9382133995037
20
9.13736631001616
30
0.000000000000000
11
-66.8382133995037
21
9.09839712527963
31
0.000000000000000
  0
LINE
  5
F101B3
330
F101B4
100
AcDbEntity
8
Geo
100
AcDbLine
10
-66.8382133995037
20
9.09839712527963
30
0.000000000000000
11
-66.7382133995037
21
9.05861539872423
31
0.000000000000000
  0
LINE
  5
F101B5
330
F101B6
100
AcDbEntity
8
Geo
100
AcDbLine
10
-66.7382133995037
20
9.05861539872423
30
0.000000000000000
11
-66.6382133995037
21
9.01803586386800
31
0.000000000000000
  0
LINE
  5
F101B7
330
F101B8
100
AcDbEntity
8
Geo
100
AcDbLine
10
-66.6382133995037
20
9.01803586386800
30
0.000000000000000
11
-66.5382133995037
21
8.97667354970443
31
0.000000000000000
  0
LINE
  5
F101B9
330
F101BA
100
AcDbEntity
8
Geo
100
AcDbLine
10
-66.5382133995037
20
8.97667354970443
30
0.000000000000000
11
-66.4382133995037
21
8.93454377513633
31
0.000000000000000
  0
LINE
  5
F101BB
330
F101BC
100
AcDbEntity
8
Geo
100
AcDbLine
10
-66.4382133995037
20
8.93454377513633
30
0.000000000000000
11
-66.3382133995037
21
8.89166214330232
31
0.000000000000000
  0
LINE
  5
F101BD
330
F101BE
100
AcDbEntity
8
Geo
100
AcDbLine
10
-66.3382133995037
20
8.89166214330232
30
0.000000000000000
11
-66.2382133995037
21
8.84804453579807
31
0.000000000000000
  0
LINE
  5
F101BF
330
F101C0
100
AcDbEntity
8
Geo
100
AcDbLine
10
-66.2382133995037
20
8.84804453579807
30
0.000000000000000
11
-66.1382133995037
21
8.80370710679445
31
0.000000000000000
  0
LINE
  5
F101C1
330
F101C2
100
AcDbEntity
8
Geo
100
AcDbLine
10
-66.1382133995037
20
8.80370710679445
30
0.000000000000000
11
-66.0382133995037
21
8.75866627705463
31
0.000000000000000
  0
LINE
  5
F101C3
330
F101C4
100
AcDbEntity
8
Geo
100
AcDbLine
10
-66.0382133995037
20
8.75866627705463
30
0.000000000000000
11
-65.9382133995037
21
8.71293872785254
31
0.000000000000000
  0
LINE
  5
F101C5
330
F101C6
100
AcDbEntity
8
Geo
100
AcDbLine
10
-65.9382133995037
20
8.71293872785254
30
0.000000000000000
11
-65.8382133995037
21
8.66654139479479
31
0.000000000000000
  0
LINE
  5
F101C7
330
F101C8
100
AcDbEntity
8
Geo
100
AcDbLine
10
-65.8382133995037
20
8.66654139479479
30
0.000000000000000
11
-65.7382133995037
21
8.61949146154846
31
0.000000000000000
  0
LINE
  5
F101C9
330
F101CA
100
AcDbEntity
8
Geo
100
AcDbLine
10
-65.7382133995037
20
8.61949146154846
30
0.000000000000000
11
-65.6382133995037
21
8.57180635347691
31
0.000000000000000
  0
LINE
  5
F101CB
330
F101CC
100
AcDbEntity
8
Geo
100
AcDbLine
10
-65.6382133995037
20
8.57180635347691
30
0.000000000000000
11
-65.5382133995037
21
8.52350373118618
31
0.000000000000000
  0
LINE
  5
F101CD
330
F101CE
100
AcDbEntity
8
Geo
100
AcDbLine
10
-65.5382133995037
20
8.52350373118618
30
0.000000000000000
11
-65.4382133995037
21
8.47460148398424
31
0.000000000000000
  0
LINE
  5
F101CF
330
F101D0
100
AcDbEntity
8
Geo
100
AcDbLine
10
-65.4382133995037
20
8.47460148398424
30
0.000000000000000
11
-65.3382133995037
21
8.42511772325549
31
0.000000000000000
  0
LINE
  5
F101D1
330
F101D2
100
AcDbEntity
8
Geo
100
AcDbLine
10
-65.3382133995037
20
8.42511772325549
30
0.000000000000000
11
-65.2382133995037
21
8.37507077575307
31
0.000000000000000
  0
LINE
  5
F101D3
330
F101D4
100
AcDbEntity
8
Geo
100
AcDbLine
10
-65.2382133995037
20
8.37507077575307
30
0.000000000000000
11
-65.1382133995037
21
8.32447917681136
31
0.000000000000000
  0
LINE
  5
F101D5
330
F101D6
100
AcDbEntity
8
Geo
100
AcDbLine
10
-65.1382133995037
20
8.32447917681136
30
0.000000000000000
11
-65.0382133995037
21
8.27336166348131
31
0.000000000000000
  0
LINE
  5
F101D7
330
F101D8
100
AcDbEntity
8
Geo
100
AcDbLine
10
-65.0382133995037
20
8.27336166348131
30
0.000000000000000
11
-64.9382133995037
21
8.22173716759091
31
0.000000000000000
  0
LINE
  5
F101D9
330
F101DA
100
AcDbEntity
8
Geo
100
AcDbLine
10
-64.9382133995037
20
8.22173716759091
30
0.000000000000000
11
-64.8382133995037
21
8.16962480873372
31
0.000000000000000
  0
LINE
  5
F101DB
330
F101DC
100
AcDbEntity
8
Geo
100
AcDbLine
10
-64.8382133995037
20
8.16962480873372
30
0.000000000000000
11
-64.7382133995037
21
8.11704388718769
31
0.000000000000000
  0
LINE
  5
F101DD
330
F101DE
100
AcDbEntity
8
Geo
100
AcDbLine
10
-64.7382133995037
20
8.11704388718769
30
0.000000000000000
11
-64.6382133995037
21
8.06401387676714
31
0.000000000000000
  0
LINE
  5
F101DF
330
F101E0
100
AcDbEntity
8
Geo
100
AcDbLine
10
-64.6382133995037
20
8.06401387676714
30
0.000000000000000
11
-64.5382133995037
21
8.01055441761050
31
0.000000000000000
  0
LINE
  5
F101E1
330
F101E2
100
AcDbEntity
8
Geo
100
AcDbLine
10
-64.5382133995037
20
8.01055441761050
30
0.000000000000000
11
-64.4382133995037
21
7.95668530890634
31
0.000000000000000
  0
LINE
  5
F101E3
330
F101E4
100
AcDbEntity
8
Geo
100
AcDbLine
10
-64.4382133995037
20
7.95668530890634
30
0.000000000000000
11
-64.3382133995037
21
7.90242650156064
31
0.000000000000000
  0
LINE
  5
F101E5
330
F101E6
100
AcDbEntity
8
Geo
100
AcDbLine
10
-64.3382133995037
20
7.90242650156064
30
0.000000000000000
11
-64.2382133995037
21
7.84779809080773
31
0.000000000000000
  0
LINE
  5
F101E7
330
F101E8
100
AcDbEntity
8
Geo
100
AcDbLine
10
-64.2382133995037
20
7.84779809080773
30
0.000000000000000
11
-64.1382133995037
21
7.79282030876787
31
0.000000000000000
  0
LINE
  5
F101E9
330
F101EA
100
AcDbEntity
8
Geo
100
AcDbLine
10
-64.1382133995037
20
7.79282030876787
30
0.000000000000000
11
-64.0382133995037
21
7.73751351695411
31
0.000000000000000
  0
LINE
  5
F101EB
330
F101EC
100
AcDbEntity
8
Geo
100
AcDbLine
10
-64.0382133995037
20
7.73751351695411
30
0.000000000000000
11
-63.9382133995037
21
7.68189819873120
31
0.000000000000000
  0
LINE
  5
F101ED
330
F101EE
100
AcDbEntity
8
Geo
100
AcDbLine
10
-63.9382133995037
20
7.68189819873120
30
0.000000000000000
11
-63.8382133995037
21
7.62599495172941
31
0.000000000000000
  0
LINE
  5
F101EF
330
F101F0
100
AcDbEntity
8
Geo
100
AcDbLine
10
-63.8382133995037
20
7.62599495172941
30
0.000000000000000
11
-63.7382133995037
21
7.56982448021600
31
0.000000000000000
  0
LINE
  5
F101F1
330
F101F2
100
AcDbEntity
8
Geo
100
AcDbLine
10
-63.7382133995037
20
7.56982448021600
30
0.000000000000000
11
-63.6382133995037
21
7.51340758742723
31
0.000000000000000
  0
LINE
  5
F101F3
330
F101F4
100
AcDbEntity
8
Geo
100
AcDbLine
10
-63.6382133995037
20
7.51340758742723
30
0.000000000000000
11
-63.5382133995037
21
7.45676516786366
31
0.000000000000000
  0
LINE
  5
F101F5
330
F101F6
100
AcDbEntity
8
Geo
100
AcDbLine
10
-63.5382133995037
20
7.45676516786366
30
0.000000000000000
11
-63.4382133995037
21
7.39991819955173
31
0.000000000000000
  0
LINE
  5
F101F7
330
F101F8
100
AcDbEntity
8
Geo
100
AcDbLine
10
-63.4382133995037
20
7.39991819955173
30
0.000000000000000
11
-63.3382133995037
21
7.34288773627432
31
0.000000000000000
  0
LINE
  5
F101F9
330
F101FA
100
AcDbEntity
8
Geo
100
AcDbLine
10
-63.3382133995037
20
7.34288773627432
30
0.000000000000000
11
-63.2382133995037
21
7.28569489977333
31
0.000000000000000
  0
LINE
  5
F101FB
330
F101FC
100
AcDbEntity
8
Geo
100
AcDbLine
10
-63.2382133995037
20
7.28569489977333
30
0.000000000000000
11
-63.1382133995037
21
7.22836087192702
31
0.000000000000000
  0
LINE
  5
F101FD
330
F101FE
100
AcDbEntity
8
Geo
100
AcDbLine
10
-63.1382133995037
20
7.22836087192702
30
0.000000000000000
11
-63.0382133995037
21
7.17090688690512
31
0.000000000000000
  0
LINE
  5
F101FF
330
F10200
100
AcDbEntity
8
Geo
100
AcDbLine
10
-63.0382133995037
20
7.17090688690512
30
0.000000000000000
11
-62.9382133995037
21
7.11335422330460
31
0.000000000000000
  0
LINE
  5
F10201
330
F10202
100
AcDbEntity
8
Geo
100
AcDbLine
10
-62.9382133995037
20
7.11335422330460
30
0.000000000000000
11
-62.8382133995037
21
7.05572419626890
31
0.000000000000000
  0
LINE
  5
F10203
330
F10204
100
AcDbEntity
8
Geo
100
AcDbLine
10
-62.8382133995037
20
7.05572419626890
30
0.000000000000000
11
-62.7382133995037
21
6.99803814959370
31
0.000000000000000
  0
LINE
  5
F10205
330
F10206
100
AcDbEntity
8
Geo
100
AcDbLine
10
-62.7382133995037
20
6.99803814959370
30
0.000000000000000
11
-62.6382133995037
21
6.94031744782206
31
0.000000000000000
  0
LINE
  5
F10207
330
F10208
100
AcDbEntity
8
Geo
100
AcDbLine
10
-62.6382133995037
20
6.94031744782206
30
0.000000000000000
11
-62.5382133995037
21
6.88258346833188
31
0.000000000000000
  0
LINE
  5
F10209
330
F1020A
100
AcDbEntity
8
Geo
100
AcDbLine
10
-62.5382133995037
20
6.88258346833188
30
0.000000000000000
11
-62.4382133995038
21
6.82485759341855
31
0.000000000000000
  0
LINE
  5
F1020B
330
F1020C
100
AcDbEntity
8
Geo
100
AcDbLine
10
-62.4382133995038
20
6.82485759341855
30
0.000000000000000
11
-62.3382133995038
21
6.76716120237588
31
0.000000000000000
  0
LINE
  5
F1020D
330
F1020E
100
AcDbEntity
8
Geo
100
AcDbLine
10
-62.3382133995038
20
6.76716120237588
30
0.000000000000000
11
-62.2382133995037
21
6.70951566357807
31
0.000000000000000
  0
LINE
  5
F1020F
330
F10210
100
AcDbEntity
8
Geo
100
AcDbLine
10
-62.2382133995037
20
6.70951566357807
30
0.000000000000000
11
-62.1382133995037
21
6.65194232656571
31
0.000000000000000
  0
LINE
  5
F10211
330
F10212
100
AcDbEntity
8
Geo
100
AcDbLine
10
-62.1382133995037
20
6.65194232656571
30
0.000000000000000
11
-62.0382133995037
21
6.59446251413884
31
0.000000000000000
  0
LINE
  5
F10213
330
F10214
100
AcDbEntity
8
Geo
100
AcDbLine
10
-62.0382133995037
20
6.59446251413884
30
0.000000000000000
11
-61.9382133995038
21
6.53709751445983
31
0.000000000000000
  0
LINE
  5
F10215
330
F10216
100
AcDbEntity
8
Geo
100
AcDbLine
10
-61.9382133995038
20
6.53709751445983
30
0.000000000000000
11
-61.8382133995038
21
6.47986857316909
31
0.000000000000000
  0
LINE
  5
F10217
330
F10218
100
AcDbEntity
8
Geo
100
AcDbLine
10
-61.8382133995038
20
6.47986857316909
30
0.000000000000000
11
-61.7382133995037
21
6.42279688551664
31
0.000000000000000
  0
LINE
  5
F10219
330
F1021A
100
AcDbEntity
8
Geo
100
AcDbLine
10
-61.7382133995037
20
6.42279688551664
30
0.000000000000000
11
-61.6382133995038
21
6.36590358851217
31
0.000000000000000
  0
LINE
  5
F1021B
330
F1021C
100
AcDbEntity
8
Geo
100
AcDbLine
10
-61.6382133995038
20
6.36590358851217
30
0.000000000000000
11
-61.5382133995038
21
6.30920975309683
31
0.000000000000000
  0
LINE
  5
F1021D
330
F1021E
100
AcDbEntity
8
Geo
100
AcDbLine
10
-61.5382133995038
20
6.30920975309683
30
0.000000000000000
11
-61.4382133995038
21
6.25273637633935
31
0.000000000000000
  0
LINE
  5
F1021F
330
F10220
100
AcDbEntity
8
Geo
100
AcDbLine
10
-61.4382133995038
20
6.25273637633935
30
0.000000000000000
11
-61.3382133995038
21
6.19650437365966
31
0.000000000000000
  0
LINE
  5
F10221
330
F10222
100
AcDbEntity
8
Geo
100
AcDbLine
10
-61.3382133995038
20
6.19650437365966
30
0.000000000000000
11
-61.2382133995037
21
6.14053457108262
31
0.000000000000000
  0
LINE
  5
F10223
330
F10224
100
AcDbEntity
8
Geo
100
AcDbLine
10
-61.2382133995037
20
6.14053457108262
30
0.000000000000000
11
-61.1382133995038
21
6.08484769752496
31
0.000000000000000
  0
LINE
  5
F10225
330
F10226
100
AcDbEntity
8
Geo
100
AcDbLine
10
-61.1382133995038
20
6.08484769752496
30
0.000000000000000
11
-61.0382133995038
21
6.02946437711809
31
0.000000000000000
  0
LINE
  5
F10227
330
F10228
100
AcDbEntity
8
Geo
100
AcDbLine
10
-61.0382133995038
20
6.02946437711809
30
0.000000000000000
11
-60.9382133995038
21
5.97440512156982
31
0.000000000000000
  0
LINE
  5
F10229
330
F1022A
100
AcDbEntity
8
Geo
100
AcDbLine
10
-60.9382133995038
20
5.97440512156982
30
0.000000000000000
11
-60.8382133995038
21
5.91969032256763
31
0.000000000000000
  0
LINE
  5
F1022B
330
F1022C
100
AcDbEntity
8
Geo
100
AcDbLine
10
-60.8382133995038
20
5.91969032256763
30
0.000000000000000
11
-60.7382133995038
21
5.86534024422646
31
0.000000000000000
  0
LINE
  5
F1022D
330
F1022E
100
AcDbEntity
8
Geo
100
AcDbLine
10
-60.7382133995038
20
5.86534024422646
30
0.000000000000000
11
-60.6382133995038
21
5.81137501558366
31
0.000000000000000
  0
LINE
  5
F1022F
330
F10230
100
AcDbEntity
8
Geo
100
AcDbLine
10
-60.6382133995038
20
5.81137501558366
30
0.000000000000000
11
-60.5382133995038
21
5.75781462314407
31
0.000000000000000
  0
LINE
  5
F10231
330
F10232
100
AcDbEntity
8
Geo
100
AcDbLine
10
-60.5382133995038
20
5.75781462314407
30
0.000000000000000
11
-60.4382133995038
21
5.70467890347783
31
0.000000000000000
  0
LINE
  5
F10233
330
F10234
100
AcDbEntity
8
Geo
100
AcDbLine
10
-60.4382133995038
20
5.70467890347783
30
0.000000000000000
11
-60.3382133995038
21
5.65198753587372
31
0.000000000000000
  0
LINE
  5
F10235
330
F10236
100
AcDbEntity
8
Geo
100
AcDbLine
10
-60.3382133995038
20
5.65198753587372
30
0.000000000000000
11
-60.2382133995038
21
5.59976003505075
31
0.000000000000000
  0
LINE
  5
F10237
330
F10238
100
AcDbEntity
8
Geo
100
AcDbLine
10
-60.2382133995038
20
5.59976003505075
30
0.000000000000000
11
-60.1382133995038
21
5.54801574393074
31
0.000000000000000
  0
LINE
  5
F10239
330
F1023A
100
AcDbEntity
8
Geo
100
AcDbLine
10
-60.1382133995038
20
5.54801574393074
30
0.000000000000000
11
-60.0382133995038
21
5.49677382647445
31
0.000000000000000
  0
LINE
  5
F1023B
330
F1023C
100
AcDbEntity
8
Geo
100
AcDbLine
10
-60.0382133995038
20
5.49677382647445
30
0.000000000000000
11
-59.9382133995038
21
5.44605326058408
31
0.000000000000000
  0
LINE
  5
F1023D
330
F1023E
100
AcDbEntity
8
Geo
100
AcDbLine
10
-59.9382133995038
20
5.44605326058408
30
0.000000000000000
11
-59.8382133995038
21
5.39587283107463
31
0.000000000000000
  0
LINE
  5
F1023F
330
F10240
100
AcDbEntity
8
Geo
100
AcDbLine
10
-59.8382133995038
20
5.39587283107463
30
0.000000000000000
11
-59.7382133995038
21
5.34625112271673
31
0.000000000000000
  0
LINE
  5
F10241
330
F10242
100
AcDbEntity
8
Geo
100
AcDbLine
10
-59.7382133995038
20
5.34625112271673
30
0.000000000000000
11
-59.6382133995038
21
5.29720651335367
31
0.000000000000000
  0
LINE
  5
F10243
330
F10244
100
AcDbEntity
8
Geo
100
AcDbLine
10
-59.6382133995038
20
5.29720651335367
30
0.000000000000000
11
-59.5382133995038
21
5.24875716709494
31
0.000000000000000
  0
LINE
  5
F10245
330
F10246
100
AcDbEntity
8
Geo
100
AcDbLine
10
-59.5382133995038
20
5.24875716709494
30
0.000000000000000
11
-59.4382133995038
21
5.20092102758905
31
0.000000000000000
  0
LINE
  5
F10247
330
F10248
100
AcDbEntity
8
Geo
100
AcDbLine
10
-59.4382133995038
20
5.20092102758905
30
0.000000000000000
11
-59.3382133995038
21
5.15371581137786
31
0.000000000000000
  0
LINE
  5
F10249
330
F1024A
100
AcDbEntity
8
Geo
100
AcDbLine
10
-59.3382133995038
20
5.15371581137786
30
0.000000000000000
11
-59.2382133995038
21
5.10715900133521
31
0.000000000000000
  0
LINE
  5
F1024B
330
F1024C
100
AcDbEntity
8
Geo
100
AcDbLine
10
-59.2382133995038
20
5.10715900133521
30
0.000000000000000
11
-59.1382133995038
21
5.06126784019186
31
0.000000000000000
  0
LINE
  5
F1024D
330
F1024E
100
AcDbEntity
8
Geo
100
AcDbLine
10
-59.1382133995038
20
5.06126784019186
30
0.000000000000000
11
-59.0382133995038
21
5.01605932414959
31
0.000000000000000
  0
LINE
  5
F1024F
330
F10250
100
AcDbEntity
8
Geo
100
AcDbLine
10
-59.0382133995038
20
5.01605932414959
30
0.000000000000000
11
-58.9382133995038
21
4.97155019658645
31
0.000000000000000
  0
LINE
  5
F10251
330
F10252
100
AcDbEntity
8
Geo
100
AcDbLine
10
-58.9382133995038
20
4.97155019658645
30
0.000000000000000
11
-58.8382133995038
21
4.92775694185570
31
0.000000000000000
  0
LINE
  5
F10253
330
F10254
100
AcDbEntity
8
Geo
100
AcDbLine
10
-58.8382133995038
20
4.92775694185570
30
0.000000000000000
11
-58.7382133995038
21
4.88469577918073
31
0.000000000000000
  0
LINE
  5
F10255
330
F10256
100
AcDbEntity
8
Geo
100
AcDbLine
10
-58.7382133995038
20
4.88469577918073
30
0.000000000000000
11
-58.6382133995038
21
4.84238265664806
31
0.000000000000000
  0
LINE
  5
F10257
330
F10258
100
AcDbEntity
8
Geo
100
AcDbLine
10
-58.6382133995038
20
4.84238265664806
30
0.000000000000000
11
-58.5382133995038
21
4.80083324530088
31
0.000000000000000
  0
LINE
  5
F10259
330
F1025A
100
AcDbEntity
8
Geo
100
AcDbLine
10
-58.5382133995038
20
4.80083324530088
30
0.000000000000000
11
-58.4382133995038
21
4.76006293333510
31
0.000000000000000
  0
LINE
  5
F1025B
330
F1025C
100
AcDbEntity
8
Geo
100
AcDbLine
10
-58.4382133995038
20
4.76006293333510
30
0.000000000000000
11
-58.3382133995038
21
4.72008682040022
31
0.000000000000000
  0
LINE
  5
F1025D
330
F1025E
100
AcDbEntity
8
Geo
100
AcDbLine
10
-58.3382133995038
20
4.72008682040022
30
0.000000000000000
11
-58.2382133995038
21
4.68091971200703
31
0.000000000000000
  0
LINE
  5
F1025F
330
F10260
100
AcDbEntity
8
Geo
100
AcDbLine
10
-58.2382133995038
20
4.68091971200703
30
0.000000000000000
11
-58.1382133995038
21
4.64257611404424
31
0.000000000000000
  0
LINE
  5
F10261
330
F10262
100
AcDbEntity
8
Geo
100
AcDbLine
10
-58.1382133995038
20
4.64257611404424
30
0.000000000000000
11
-58.0382133995038
21
4.60507022740613
31
0.000000000000000
  0
LINE
  5
F10263
330
F10264
100
AcDbEntity
8
Geo
100
AcDbLine
10
-58.0382133995038
20
4.60507022740613
30
0.000000000000000
11
-57.9382133995038
21
4.56841594273309
31
0.000000000000000
  0
LINE
  5
F10265
330
F10266
100
AcDbEntity
8
Geo
100
AcDbLine
10
-57.9382133995038
20
4.56841594273309
30
0.000000000000000
11
-57.8382133995038
21
4.53262683526711
31
0.000000000000000
  0
LINE
  5
F10267
330
F10268
100
AcDbEntity
8
Geo
100
AcDbLine
10
-57.8382133995038
20
4.53262683526711
30
0.000000000000000
11
-57.7382133995038
21
4.49771615982408
31
0.000000000000000
  0
LINE
  5
F10269
330
F1026A
100
AcDbEntity
8
Geo
100
AcDbLine
10
-57.7382133995038
20
4.49771615982408
30
0.000000000000000
11
-57.6382133995038
21
4.46369684588472
31
0.000000000000000
  0
LINE
  5
F1026B
330
F1026C
100
AcDbEntity
8
Geo
100
AcDbLine
10
-57.6382133995038
20
4.46369684588472
30
0.000000000000000
11
-57.5382133995038
21
4.43058149280605
31
0.000000000000000
  0
LINE
  5
F1026D
330
F1026E
100
AcDbEntity
8
Geo
100
AcDbLine
10
-57.5382133995038
20
4.43058149280605
30
0.000000000000000
11
-57.4382133995038
21
4.39838236515513
31
0.000000000000000
  0
LINE
  5
F1026F
330
F10270
100
AcDbEntity
8
Geo
100
AcDbLine
10
-57.4382133995038
20
4.39838236515513
30
0.000000000000000
11
-57.3382133995038
21
4.36711138816672
31
0.000000000000000
  0
LINE
  5
F10271
330
F10272
100
AcDbEntity
8
Geo
100
AcDbLine
10
-57.3382133995038
20
4.36711138816672
30
0.000000000000000
11
-57.2382133995038
21
4.33678014332668
31
0.000000000000000
  0
LINE
  5
F10273
330
F10274
100
AcDbEntity
8
Geo
100
AcDbLine
10
-57.2382133995038
20
4.33678014332668
30
0.000000000000000
11
-57.1382133995038
21
4.30739986408268
31
0.000000000000000
  0
LINE
  5
F10275
330
F10276
100
AcDbEntity
8
Geo
100
AcDbLine
10
-57.1382133995038
20
4.30739986408268
30
0.000000000000000
11
-57.0382133995038
21
4.27898143168378
31
0.000000000000000
  0
LINE
  5
F10277
330
F10278
100
AcDbEntity
8
Geo
100
AcDbLine
10
-57.0382133995038
20
4.27898143168378
30
0.000000000000000
11
-56.9382133995038
21
4.25153537115046
31
0.000000000000000
  0
LINE
  5
F10279
330
F1027A
100
AcDbEntity
8
Geo
100
AcDbLine
10
-56.9382133995038
20
4.25153537115046
30
0.000000000000000
11
-56.8382133995038
21
4.22507184737659
31
0.000000000000000
  0
LINE
  5
F1027B
330
F1027C
100
AcDbEntity
8
Geo
100
AcDbLine
10
-56.8382133995038
20
4.22507184737659
30
0.000000000000000
11
-56.7382133995038
21
4.19960066136477
31
0.000000000000000
  0
LINE
  5
F1027D
330
F1027E
100
AcDbEntity
8
Geo
100
AcDbLine
10
-56.7382133995038
20
4.19960066136477
30
0.000000000000000
11
-56.6382133995038
21
4.17513124659642
31
0.000000000000000
  0
LINE
  5
F1027F
330
F10280
100
AcDbEntity
8
Geo
100
AcDbLine
10
-56.6382133995038
20
4.17513124659642
30
0.000000000000000
11
-56.5382133995038
21
4.15167266553806
31
0.000000000000000
  0
LINE
  5
F10281
330
F10282
100
AcDbEntity
8
Geo
100
AcDbLine
10
-56.5382133995038
20
4.15167266553806
30
0.000000000000000
11
-56.4382133995038
21
4.12923360628486
31
0.000000000000000
  0
LINE
  5
F10283
330
F10284
100
AcDbEntity
8
Geo
100
AcDbLine
10
-56.4382133995038
20
4.12923360628486
30
0.000000000000000
11
-56.3382133995038
21
4.10782237934304
31
0.000000000000000
  0
LINE
  5
F10285
330
F10286
100
AcDbEntity
8
Geo
100
AcDbLine
10
-56.3382133995038
20
4.10782237934304
30
0.000000000000000
11
-56.2382133995038
21
4.08744691455187
31
0.000000000000000
  0
LINE
  5
F10287
330
F10288
100
AcDbEntity
8
Geo
100
AcDbLine
10
-56.2382133995038
20
4.08744691455187
30
0.000000000000000
11
-56.1382133995038
21
4.06811475814689
31
0.000000000000000
  0
LINE
  5
F10289
330
F1028A
100
AcDbEntity
8
Geo
100
AcDbLine
10
-56.1382133995038
20
4.06811475814689
30
0.000000000000000
11
-56.0382133995038
21
4.04983306996505
31
0.000000000000000
  0
LINE
  5
F1028B
330
F1028C
100
AcDbEntity
8
Geo
100
AcDbLine
10
-56.0382133995038
20
4.04983306996505
30
0.000000000000000
11
-55.9382133995038
21
4.03260862079298
31
0.000000000000000
  0
LINE
  5
F1028D
330
F1028E
100
AcDbEntity
8
Geo
100
AcDbLine
10
-55.9382133995038
20
4.03260862079298
30
0.000000000000000
11
-55.8382133995038
21
4.01644778985941
31
0.000000000000000
  0
LINE
  5
F1028F
330
F10290
100
AcDbEntity
8
Geo
100
AcDbLine
10
-55.8382133995038
20
4.01644778985941
30
0.000000000000000
11
-55.7382133995038
21
4.00135656247254
31
0.000000000000000
  0
LINE
  5
F10291
330
F10292
100
AcDbEntity
8
Geo
100
AcDbLine
10
-55.7382133995038
20
4.00135656247254
30
0.000000000000000
11
-55.6382133995038
21
3.98734052780335
31
0.000000000000000
  0
LINE
  5
F10293
330
F10294
100
AcDbEntity
8
Geo
100
AcDbLine
10
-55.6382133995038
20
3.98734052780335
30
0.000000000000000
11
-55.5382133995038
21
3.97440487681556
31
0.000000000000000
  0
LINE
  5
F10295
330
F10296
100
AcDbEntity
8
Geo
100
AcDbLine
10
-55.5382133995038
20
3.97440487681556
30
0.000000000000000
11
-55.4382133995038
21
3.96255440034316
31
0.000000000000000
  0
LINE
  5
F10297
330
F10298
100
AcDbEntity
8
Geo
100
AcDbLine
10
-55.4382133995038
20
3.96255440034316
30
0.000000000000000
11
-55.3382133995038
21
3.95179348731604
31
0.000000000000000
  0
LINE
  5
F10299
330
F1029A
100
AcDbEntity
8
Geo
100
AcDbLine
10
-55.3382133995038
20
3.95179348731604
30
0.000000000000000
11
-55.2382133995038
21
3.94212612313454
31
0.000000000000000
  0
LINE
  5
F1029B
330
F1029C
100
AcDbEntity
8
Geo
100
AcDbLine
10
-55.2382133995038
20
3.94212612313454
30
0.000000000000000
11
-55.1382133995038
21
3.93355588819340
31
0.000000000000000
  0
LINE
  5
F1029D
330
F1029E
100
AcDbEntity
8
Geo
100
AcDbLine
10
-55.1382133995038
20
3.93355588819340
30
0.000000000000000
11
-55.0382133995038
21
3.92608595655575
31
0.000000000000000
  0
LINE
  5
F1029F
330
F102A0
100
AcDbEntity
8
Geo
100
AcDbLine
10
-55.0382133995038
20
3.92608595655575
30
0.000000000000000
11
-54.9382133995038
21
3.91971909477753
31
0.000000000000000
  0
LINE
  5
F102A1
330
F102A2
100
AcDbEntity
8
Geo
100
AcDbLine
10
-54.9382133995038
20
3.91971909477753
30
0.000000000000000
11
-54.8382133995038
21
3.91445766088294
31
0.000000000000000
  0
LINE
  5
F102A3
330
F102A4
100
AcDbEntity
8
Geo
100
AcDbLine
10
-54.8382133995038
20
3.91445766088294
30
0.000000000000000
11
-54.7382133995038
21
3.91030360349104
31
0.000000000000000
  0
LINE
  5
F102A5
330
F102A6
100
AcDbEntity
8
Geo
100
AcDbLine
10
-54.7382133995038
20
3.91030360349104
30
0.000000000000000
11
-54.6382133995038
21
3.90725846109412
31
0.000000000000000
  0
LINE
  5
F102A7
330
F102A8
100
AcDbEntity
8
Geo
100
AcDbLine
10
-54.6382133995038
20
3.90725846109412
30
0.000000000000000
11
-54.5382133995038
21
3.90532336148789
31
0.000000000000000
  0
LINE
  5
F102A9
330
F102AA
100
AcDbEntity
8
Geo
100
AcDbLine
10
-54.5382133995038
20
3.90532336148789
30
0.000000000000000
11
-54.4382133995038
21
3.90449902135379
31
0.000000000000000
  0
LINE
  5
F102AB
330
F102AC
100
AcDbEntity
8
Geo
100
AcDbLine
10
-70.7382133995037
20
9.25369805320548
30
0.000000000000000
11
-70.6382133995037
21
9.51668963805751
31
0.000000000000000
  0
LINE
  5
F102AD
330
F102AE
100
AcDbEntity
8
Geo
100
AcDbLine
10
-70.6382133995037
20
9.51668963805751
30
0.000000000000000
11
-70.5382133995037
21
9.58938952917077
31
0.000000000000000
  0
LINE
  5
F102AF
330
F102B0
100
AcDbEntity
8
Geo
100
AcDbLine
10
-70.5382133995037
20
9.58938952917077
30
0.000000000000000
11
-70.4382133995037
21
9.62130459817933
31
0.000000000000000
  0
LINE
  5
F102B1
330
F102B2
100
AcDbEntity
8
Geo
100
AcDbLine
10
-70.4382133995037
20
9.62130459817933
30
0.000000000000000
11
-70.3382133995037
21
9.62708848483260
31
0.000000000000000
  0
LINE
  5
F102B3
330
F102B4
100
AcDbEntity
8
Geo
100
AcDbLine
10
-70.3382133995037
20
9.62708848483260
30
0.000000000000000
11
-70.2382133995037
21
9.61192272839002
31
0.000000000000000
  0
LINE
  5
F102B5
330
F102B6
100
AcDbEntity
8
Geo
100
AcDbLine
10
-70.2382133995037
20
9.61192272839002
30
0.000000000000000
11
-70.1382133995037
21
9.58655524263182
31
0.000000000000000
  0
LINE
  5
F102B7
330
F102B8
100
AcDbEntity
8
Geo
100
AcDbLine
10
-70.1382133995037
20
9.58655524263182
30
0.000000000000000
11
-70.0382133995037
21
9.56019442133218
31
0.000000000000000
  0
LINE
  5
F102B9
330
F102BA
100
AcDbEntity
8
Geo
100
AcDbLine
10
-70.0382133995037
20
9.56019442133218
30
0.000000000000000
11
-69.9382133995037
21
9.53285002745692
31
0.000000000000000
  0
LINE
  5
F102BB
330
F102BC
100
AcDbEntity
8
Geo
100
AcDbLine
10
-69.9382133995037
20
9.53285002745692
30
0.000000000000000
11
-69.8382133995037
21
9.50453218824674
31
0.000000000000000
  0
LINE
  5
F102BD
330
F102BE
100
AcDbEntity
8
Geo
100
AcDbLine
10
-69.8382133995037
20
9.50453218824674
30
0.000000000000000
11
-69.7382133995037
21
9.47525139146654
31
0.000000000000000
  0
LINE
  5
F102BF
330
F102C0
100
AcDbEntity
8
Geo
100
AcDbLine
10
-69.7382133995037
20
9.47525139146654
30
0.000000000000000
11
-69.6382133995037
21
9.44501848152115
31
0.000000000000000
  0
LINE
  5
F102C1
330
F102C2
100
AcDbEntity
8
Geo
100
AcDbLine
10
-69.6382133995037
20
9.44501848152115
30
0.000000000000000
11
-69.5382133995037
21
9.41384465543905
31
0.000000000000000
  0
LINE
  5
F102C3
330
F102C4
100
AcDbEntity
8
Geo
100
AcDbLine
10
-69.5382133995037
20
9.41384465543905
30
0.000000000000000
11
-69.4382133995037
21
9.38174145872538
31
0.000000000000000
  0
LINE
  5
F102C5
330
F102C6
100
AcDbEntity
8
Geo
100
AcDbLine
10
-69.4382133995037
20
9.38174145872538
30
0.000000000000000
11
-69.3382133995037
21
9.34872078108604
31
0.000000000000000
  0
LINE
  5
F102C7
330
F102C8
100
AcDbEntity
8
Geo
100
AcDbLine
10
-69.3382133995037
20
9.34872078108604
30
0.000000000000000
11
-69.2382133995037
21
9.31479485202417
31
0.000000000000000
  0
LINE
  5
F102C9
330
F102CA
100
AcDbEntity
8
Geo
100
AcDbLine
10
-69.2382133995037
20
9.31479485202417
30
0.000000000000000
11
-69.1382133995037
21
9.27997623631087
31
0.000000000000000
  0
LINE
  5
F102CB
330
F102CC
100
AcDbEntity
8
Geo
100
AcDbLine
10
-69.1382133995037
20
9.27997623631087
30
0.000000000000000
11
-69.0382133995037
21
9.24427782933173
31
0.000000000000000
  0
LINE
  5
F102CD
330
F102CE
100
AcDbEntity
8
Geo
100
AcDbLine
10
-69.0382133995037
20
9.24427782933173
30
0.000000000000000
11
-68.9382133995037
21
9.20771285231089
31
0.000000000000000
  0
LINE
  5
F102CF
330
F102D0
100
AcDbEntity
8
Geo
100
AcDbLine
10
-68.9382133995037
20
9.20771285231089
30
0.000000000000000
11
-68.8382133995037
21
9.17029484741446
31
0.000000000000000
  0
LINE
  5
F102D1
330
F102D2
100
AcDbEntity
8
Geo
100
AcDbLine
10
-68.8382133995037
20
9.17029484741446
30
0.000000000000000
11
-68.7382133995037
21
9.13203767273505
31
0.000000000000000
  0
LINE
  5
F102D3
330
F102D4
100
AcDbEntity
8
Geo
100
AcDbLine
10
-68.7382133995037
20
9.13203767273505
30
0.000000000000000
11
-68.6382133995037
21
9.09295549715928
31
0.000000000000000
  0
LINE
  5
F102D5
330
F102D6
100
AcDbEntity
8
Geo
100
AcDbLine
10
-68.6382133995037
20
9.09295549715928
30
0.000000000000000
11
-68.5382133995037
21
9.05306279512026
31
0.000000000000000
  0
LINE
  5
F102D7
330
F102D8
100
AcDbEntity
8
Geo
100
AcDbLine
10
-68.5382133995037
20
9.05306279512026
30
0.000000000000000
11
-68.4382133995037
21
9.01237434123679
31
0.000000000000000
  0
LINE
  5
F102D9
330
F102DA
100
AcDbEntity
8
Geo
100
AcDbLine
10
-68.4382133995037
20
9.01237434123679
30
0.000000000000000
11
-68.3382133995037
21
8.97090520484150
31
0.000000000000000
  0
LINE
  5
F102DB
330
F102DC
100
AcDbEntity
8
Geo
100
AcDbLine
10
-68.3382133995037
20
8.97090520484150
30
0.000000000000000
11
-68.2382133995037
21
8.92867074439976
31
0.000000000000000
  0
LINE
  5
F102DD
330
F102DE
100
AcDbEntity
8
Geo
100
AcDbLine
10
-68.2382133995037
20
8.92867074439976
30
0.000000000000000
11
-68.1382133995037
21
8.88568660182155
31
0.000000000000000
  0
LINE
  5
F102DF
330
F102E0
100
AcDbEntity
8
Geo
100
AcDbLine
10
-68.1382133995037
20
8.88568660182155
30
0.000000000000000
11
-68.0382133995037
21
8.84196869666830
31
0.000000000000000
  0
LINE
  5
F102E1
330
F102E2
100
AcDbEntity
8
Geo
100
AcDbLine
10
-68.0382133995037
20
8.84196869666830
30
0.000000000000000
11
-67.9382133995037
21
8.79753322025702
31
0.000000000000000
  0
LINE
  5
F102E3
330
F102E4
100
AcDbEntity
8
Geo
100
AcDbLine
10
-67.9382133995037
20
8.79753322025702
30
0.000000000000000
11
-67.8382133995037
21
8.75239662966360
31
0.000000000000000
  0
LINE
  5
F102E5
330
F102E6
100
AcDbEntity
8
Geo
100
AcDbLine
10
-67.8382133995037
20
8.75239662966360
30
0.000000000000000
11
-67.7382133995037
21
8.70657564162788
31
0.000000000000000
  0
LINE
  5
F102E7
330
F102E8
100
AcDbEntity
8
Geo
100
AcDbLine
10
-67.7382133995037
20
8.70657564162788
30
0.000000000000000
11
-67.6382133995037
21
8.66008722636236
31
0.000000000000000
  0
LINE
  5
F102E9
330
F102EA
100
AcDbEntity
8
Geo
100
AcDbLine
10
-67.6382133995037
20
8.66008722636236
30
0.000000000000000
11
-67.5382133995037
21
8.61294860126723
31
0.000000000000000
  0
LINE
  5
F102EB
330
F102EC
100
AcDbEntity
8
Geo
100
AcDbLine
10
-67.5382133995037
20
8.61294860126723
30
0.000000000000000
11
-67.4382133995037
21
8.56517722455368
31
0.000000000000000
  0
LINE
  5
F102ED
330
F102EE
100
AcDbEntity
8
Geo
100
AcDbLine
10
-67.4382133995037
20
8.56517722455368
30
0.000000000000000
11
-67.3382133995037
21
8.51679078877810
31
0.000000000000000
  0
LINE
  5
F102EF
330
F102F0
100
AcDbEntity
8
Geo
100
AcDbLine
10
-67.3382133995037
20
8.51679078877810
30
0.000000000000000
11
-67.2382133995037
21
8.46780721428955
31
0.000000000000000
  0
LINE
  5
F102F1
330
F102F2
100
AcDbEntity
8
Geo
100
AcDbLine
10
-67.2382133995037
20
8.46780721428955
30
0.000000000000000
11
-67.1382133995037
21
8.41824464259270
31
0.000000000000000
  0
LINE
  5
F102F3
330
F102F4
100
AcDbEntity
8
Geo
100
AcDbLine
10
-67.1382133995037
20
8.41824464259270
30
0.000000000000000
11
-67.0382133995037
21
8.36812142962905
31
0.000000000000000
  0
LINE
  5
F102F5
330
F102F6
100
AcDbEntity
8
Geo
100
AcDbLine
10
-67.0382133995037
20
8.36812142962905
30
0.000000000000000
11
-66.9382133995037
21
8.31745613897857
31
0.000000000000000
  0
LINE
  5
F102F7
330
F102F8
100
AcDbEntity
8
Geo
100
AcDbLine
10
-66.9382133995037
20
8.31745613897857
30
0.000000000000000
11
-66.8382133995037
21
8.26626753498458
31
0.000000000000000
  0
LINE
  5
F102F9
330
F102FA
100
AcDbEntity
8
Geo
100
AcDbLine
10
-66.8382133995037
20
8.26626753498458
30
0.000000000000000
11
-66.7382133995037
21
8.21457457580416
31
0.000000000000000
  0
LINE
  5
F102FB
330
F102FC
100
AcDbEntity
8
Geo
100
AcDbLine
10
-66.7382133995037
20
8.21457457580416
30
0.000000000000000
11
-66.6382133995037
21
8.16239640638685
31
0.000000000000000
  0
LINE
  5
F102FD
330
F102FE
100
AcDbEntity
8
Geo
100
AcDbLine
10
-66.6382133995037
20
8.16239640638685
30
0.000000000000000
11
-66.5382133995037
21
8.10975235138411
31
0.000000000000000
  0
LINE
  5
F102FF
330
F10300
100
AcDbEntity
8
Geo
100
AcDbLine
10
-66.5382133995037
20
8.10975235138411
30
0.000000000000000
11
-66.4382133995037
21
8.05666190799233
31
0.000000000000000
  0
LINE
  5
F10301
330
F10302
100
AcDbEntity
8
Geo
100
AcDbLine
10
-66.4382133995037
20
8.05666190799233
30
0.000000000000000
11
-66.3382133995037
21
8.00314473873180
31
0.000000000000000
  0
LINE
  5
F10303
330
F10304
100
AcDbEntity
8
Geo
100
AcDbLine
10
-66.3382133995037
20
8.00314473873180
30
0.000000000000000
11
-66.2382133995037
21
7.94922066416458
31
0.000000000000000
  0
LINE
  5
F10305
330
F10306
100
AcDbEntity
8
Geo
100
AcDbLine
10
-66.2382133995037
20
7.94922066416458
30
0.000000000000000
11
-66.1382133995037
21
7.89490965555372
31
0.000000000000000
  0
LINE
  5
F10307
330
F10308
100
AcDbEntity
8
Geo
100
AcDbLine
10
-66.1382133995037
20
7.89490965555372
30
0.000000000000000
11
-66.0382133995037
21
7.84023182746676
31
0.000000000000000
  0
LINE
  5
F10309
330
F1030A
100
AcDbEntity
8
Geo
100
AcDbLine
10
-66.0382133995037
20
7.84023182746676
30
0.000000000000000
11
-65.9382133995037
21
7.78520743032613
31
0.000000000000000
  0
LINE
  5
F1030B
330
F1030C
100
AcDbEntity
8
Geo
100
AcDbLine
10
-65.9382133995037
20
7.78520743032613
30
0.000000000000000
11
-65.8382133995037
21
7.72985684290917
31
0.000000000000000
  0
LINE
  5
F1030D
330
F1030E
100
AcDbEntity
8
Geo
100
AcDbLine
10
-65.8382133995037
20
7.72985684290917
30
0.000000000000000
11
-65.7382133995037
21
7.67420056480074
31
0.000000000000000
  0
LINE
  5
F1030F
330
F10310
100
AcDbEntity
8
Geo
100
AcDbLine
10
-65.7382133995037
20
7.67420056480074
30
0.000000000000000
11
-65.6382133995037
21
7.61825920880097
31
0.000000000000000
  0
LINE
  5
F10311
330
F10312
100
AcDbEntity
8
Geo
100
AcDbLine
10
-65.6382133995037
20
7.61825920880097
30
0.000000000000000
11
-65.5382133995037
21
7.56205349329113
31
0.000000000000000
  0
LINE
  5
F10313
330
F10314
100
AcDbEntity
8
Geo
100
AcDbLine
10
-65.5382133995037
20
7.56205349329113
30
0.000000000000000
11
-65.4382133995037
21
7.50560423456040
31
0.000000000000000
  0
LINE
  5
F10315
330
F10316
100
AcDbEntity
8
Geo
100
AcDbLine
10
-65.4382133995037
20
7.50560423456040
30
0.000000000000000
11
-65.3382133995037
21
7.44893233909636
31
0.000000000000000
  0
LINE
  5
F10317
330
F10318
100
AcDbEntity
8
Geo
100
AcDbLine
10
-65.3382133995037
20
7.44893233909636
30
0.000000000000000
11
-65.2382133995037
21
7.39205879584212
31
0.000000000000000
  0
LINE
  5
F10319
330
F1031A
100
AcDbEntity
8
Geo
100
AcDbLine
10
-65.2382133995037
20
7.39205879584212
30
0.000000000000000
11
-65.1382133995037
21
7.33500466842283
31
0.000000000000000
  0
LINE
  5
F1031B
330
F1031C
100
AcDbEntity
8
Geo
100
AcDbLine
10
-65.1382133995037
20
7.33500466842283
30
0.000000000000000
11
-65.0382133995037
21
7.27779108734459
31
0.000000000000000
  0
LINE
  5
F1031D
330
F1031E
100
AcDbEntity
8
Geo
100
AcDbLine
10
-65.0382133995037
20
7.27779108734459
30
0.000000000000000
11
-64.9382133995037
21
7.22043924216863
31
0.000000000000000
  0
LINE
  5
F1031F
330
F10320
100
AcDbEntity
8
Geo
100
AcDbLine
10
-64.9382133995037
20
7.22043924216863
30
0.000000000000000
11
-64.8382133995037
21
7.16297037366347
31
0.000000000000000
  0
LINE
  5
F10321
330
F10322
100
AcDbEntity
8
Geo
100
AcDbLine
10
-64.8382133995037
20
7.16297037366347
30
0.000000000000000
11
-64.7382133995037
21
7.10540576593832
31
0.000000000000000
  0
LINE
  5
F10323
330
F10324
100
AcDbEntity
8
Geo
100
AcDbLine
10
-64.7382133995037
20
7.10540576593832
30
0.000000000000000
11
-64.6382133995037
21
7.04776673856022
31
0.000000000000000
  0
LINE
  5
F10325
330
F10326
100
AcDbEntity
8
Geo
100
AcDbLine
10
-64.6382133995037
20
7.04776673856022
30
0.000000000000000
11
-64.5382133995037
21
6.99007463865822
31
0.000000000000000
  0
LINE
  5
F10327
330
F10328
100
AcDbEntity
8
Geo
100
AcDbLine
10
-64.5382133995037
20
6.99007463865822
30
0.000000000000000
11
-64.4382133995037
21
6.93235083301725
31
0.000000000000000
  0
LINE
  5
F10329
330
F1032A
100
AcDbEntity
8
Geo
100
AcDbLine
10
-64.4382133995037
20
6.93235083301725
30
0.000000000000000
11
-64.3382133995037
21
6.87461670016474
31
0.000000000000000
  0
LINE
  5
F1032B
330
F1032C
100
AcDbEntity
8
Geo
100
AcDbLine
10
-64.3382133995037
20
6.87461670016474
30
0.000000000000000
11
-64.2382133995037
21
6.81689362245289
31
0.000000000000000
  0
LINE
  5
F1032D
330
F1032E
100
AcDbEntity
8
Geo
100
AcDbLine
10
-64.2382133995037
20
6.81689362245289
30
0.000000000000000
11
-64.1382133995037
21
6.75920297813955
31
0.000000000000000
  0
LINE
  5
F1032F
330
F10330
100
AcDbEntity
8
Geo
100
AcDbLine
10
-64.1382133995037
20
6.75920297813955
30
0.000000000000000
11
-64.0382133995037
21
6.70156613347055
31
0.000000000000000
  0
LINE
  5
F10331
330
F10332
100
AcDbEntity
8
Geo
100
AcDbLine
10
-64.0382133995037
20
6.70156613347055
30
0.000000000000000
11
-63.9382133995037
21
6.64400443476654
31
0.000000000000000
  0
LINE
  5
F10333
330
F10334
100
AcDbEntity
8
Geo
100
AcDbLine
10
-63.9382133995037
20
6.64400443476654
30
0.000000000000000
11
-63.8382133995037
21
6.58653920051721
31
0.000000000000000
  0
LINE
  5
F10335
330
F10336
100
AcDbEntity
8
Geo
100
AcDbLine
10
-63.8382133995037
20
6.58653920051721
30
0.000000000000000
11
-63.7382133995037
21
6.52919171348575
31
0.000000000000000
  0
LINE
  5
F10337
330
F10338
100
AcDbEntity
8
Geo
100
AcDbLine
10
-63.7382133995037
20
6.52919171348575
30
0.000000000000000
11
-63.6382133995037
21
6.47198321282665
31
0.000000000000000
  0
LINE
  5
F10339
330
F1033A
100
AcDbEntity
8
Geo
100
AcDbLine
10
-63.6382133995037
20
6.47198321282665
30
0.000000000000000
11
-63.5382133995037
21
6.41493488621952
31
0.000000000000000
  0
LINE
  5
F1033B
330
F1033C
100
AcDbEntity
8
Geo
100
AcDbLine
10
-63.5382133995037
20
6.41493488621952
30
0.000000000000000
11
-63.4382133995037
21
6.35806786202209
31
0.000000000000000
  0
LINE
  5
F1033D
330
F1033E
100
AcDbEntity
8
Geo
100
AcDbLine
10
-63.4382133995037
20
6.35806786202209
30
0.000000000000000
11
-63.3382133995037
21
6.30140320144514
31
0.000000000000000
  0
LINE
  5
F1033F
330
F10340
100
AcDbEntity
8
Geo
100
AcDbLine
10
-63.3382133995037
20
6.30140320144514
30
0.000000000000000
11
-63.2382133995037
21
6.24496189075224
31
0.000000000000000
  0
LINE
  5
F10341
330
F10342
100
AcDbEntity
8
Geo
100
AcDbLine
10
-63.2382133995037
20
6.24496189075224
30
0.000000000000000
11
-63.1382133995037
21
6.18876483348737
31
0.000000000000000
  0
LINE
  5
F10343
330
F10344
100
AcDbEntity
8
Geo
100
AcDbLine
10
-63.1382133995037
20
6.18876483348737
30
0.000000000000000
11
-63.0382133995037
21
6.13283284273304
31
0.000000000000000
  0
LINE
  5
F10345
330
F10346
100
AcDbEntity
8
Geo
100
AcDbLine
10
-63.0382133995037
20
6.13283284273304
30
0.000000000000000
11
-62.9382133995037
21
6.07718663340203
31
0.000000000000000
  0
LINE
  5
F10347
330
F10348
100
AcDbEntity
8
Geo
100
AcDbLine
10
-62.9382133995037
20
6.07718663340203
30
0.000000000000000
11
-62.8382133995037
21
6.02184681456539
31
0.000000000000000
  0
LINE
  5
F10349
330
F1034A
100
AcDbEntity
8
Geo
100
AcDbLine
10
-62.8382133995037
20
6.02184681456539
30
0.000000000000000
11
-62.7382133995037
21
5.96683388181974
31
0.000000000000000
  0
LINE
  5
F1034B
330
F1034C
100
AcDbEntity
8
Geo
100
AcDbLine
10
-62.7382133995037
20
5.96683388181974
30
0.000000000000000
11
-62.6382133995037
21
5.91216820969650
31
0.000000000000000
  0
LINE
  5
F1034D
330
F1034E
100
AcDbEntity
8
Geo
100
AcDbLine
10
-62.6382133995037
20
5.91216820969650
30
0.000000000000000
11
-62.5382133995037
21
5.85787004411601
31
0.000000000000000
  0
LINE
  5
F1034F
330
F10350
100
AcDbEntity
8
Geo
100
AcDbLine
10
-62.5382133995037
20
5.85787004411601
30
0.000000000000000
11
-62.4382133995038
21
5.80395949488929
31
0.000000000000000
  0
LINE
  5
F10351
330
F10352
100
AcDbEntity
8
Geo
100
AcDbLine
10
-62.4382133995038
20
5.80395949488929
30
0.000000000000000
11
-62.3382133995038
21
5.75045652827016
31
0.000000000000000
  0
LINE
  5
F10353
330
F10354
100
AcDbEntity
8
Geo
100
AcDbLine
10
-62.3382133995038
20
5.75045652827016
30
0.000000000000000
11
-62.2382133995037
21
5.69738095956059
31
0.000000000000000
  0
LINE
  5
F10355
330
F10356
100
AcDbEntity
8
Geo
100
AcDbLine
10
-62.2382133995037
20
5.69738095956059
30
0.000000000000000
11
-62.1382133995037
21
5.64475244577192
31
0.000000000000000
  0
LINE
  5
F10357
330
F10358
100
AcDbEntity
8
Geo
100
AcDbLine
10
-62.1382133995037
20
5.64475244577192
30
0.000000000000000
11
-62.0382133995037
21
5.59259047834468
31
0.000000000000000
  0
LINE
  5
F10359
330
F1035A
100
AcDbEntity
8
Geo
100
AcDbLine
10
-62.0382133995037
20
5.59259047834468
30
0.000000000000000
11
-61.9382133995038
21
5.54091437592981
31
0.000000000000000
  0
LINE
  5
F1035B
330
F1035C
100
AcDbEntity
8
Geo
100
AcDbLine
10
-61.9382133995038
20
5.54091437592981
30
0.000000000000000
11
-61.8382133995038
21
5.48974327723380
31
0.000000000000000
  0
LINE
  5
F1035D
330
F1035E
100
AcDbEntity
8
Geo
100
AcDbLine
10
-61.8382133995038
20
5.48974327723380
30
0.000000000000000
11
-61.7382133995037
21
5.43909613393046
31
0.000000000000000
  0
LINE
  5
F1035F
330
F10360
100
AcDbEntity
8
Geo
100
AcDbLine
10
-61.7382133995037
20
5.43909613393046
30
0.000000000000000
11
-61.6382133995038
21
5.38899170364209
31
0.000000000000000
  0
LINE
  5
F10361
330
F10362
100
AcDbEntity
8
Geo
100
AcDbLine
10
-61.6382133995038
20
5.38899170364209
30
0.000000000000000
11
-61.5382133995038
21
5.33944854299233
31
0.000000000000000
  0
LINE
  5
F10363
330
F10364
100
AcDbEntity
8
Geo
100
AcDbLine
10
-61.5382133995038
20
5.33944854299233
30
0.000000000000000
11
-61.4382133995038
21
5.29048500073361
31
0.000000000000000
  0
LINE
  5
F10365
330
F10366
100
AcDbEntity
8
Geo
100
AcDbLine
10
-61.4382133995038
20
5.29048500073361
30
0.000000000000000
11
-61.3382133995038
21
5.24211921095152
31
0.000000000000000
  0
LINE
  5
F10367
330
F10368
100
AcDbEntity
8
Geo
100
AcDbLine
10
-61.3382133995038
20
5.24211921095152
30
0.000000000000000
11
-61.2382133995037
21
5.19436908634865
31
0.000000000000000
  0
LINE
  5
F10369
330
F1036A
100
AcDbEntity
8
Geo
100
AcDbLine
10
-61.2382133995037
20
5.19436908634865
30
0.000000000000000
11
-61.1382133995038
21
5.14725231161051
31
0.000000000000000
  0
LINE
  5
F1036B
330
F1036C
100
AcDbEntity
8
Geo
100
AcDbLine
10
-61.1382133995038
20
5.14725231161051
30
0.000000000000000
11
-61.0382133995038
21
5.10078633685581
31
0.000000000000000
  0
LINE
  5
F1036D
330
F1036E
100
AcDbEntity
8
Geo
100
AcDbLine
10
-61.0382133995038
20
5.10078633685581
30
0.000000000000000
11
-60.9382133995038
21
5.05498837117367
31
0.000000000000000
  0
LINE
  5
F1036F
330
F10370
100
AcDbEntity
8
Geo
100
AcDbLine
10
-60.9382133995038
20
5.05498837117367
30
0.000000000000000
11
-60.8382133995038
21
5.00987537625010
31
0.000000000000000
  0
LINE
  5
F10371
330
F10372
100
AcDbEntity
8
Geo
100
AcDbLine
10
-60.8382133995038
20
5.00987537625010
30
0.000000000000000
11
-60.7382133995038
21
4.96546406008604
31
0.000000000000000
  0
LINE
  5
F10373
330
F10374
100
AcDbEntity
8
Geo
100
AcDbLine
10
-60.7382133995038
20
4.96546406008604
30
0.000000000000000
11
-60.6382133995038
21
4.92177087080944
31
0.000000000000000
  0
LINE
  5
F10375
330
F10376
100
AcDbEntity
8
Geo
100
AcDbLine
10
-60.6382133995038
20
4.92177087080944
30
0.000000000000000
11
-60.5382133995038
21
4.87881199058353
31
0.000000000000000
  0
LINE
  5
F10377
330
F10378
100
AcDbEntity
8
Geo
100
AcDbLine
10
-60.5382133995038
20
4.87881199058353
30
0.000000000000000
11
-60.4382133995038
21
4.83660332961363
31
0.000000000000000
  0
LINE
  5
F10379
330
F1037A
100
AcDbEntity
8
Geo
100
AcDbLine
10
-60.4382133995038
20
4.83660332961363
30
0.000000000000000
11
-60.3382133995038
21
4.79516052025465
31
0.000000000000000
  0
LINE
  5
F1037B
330
F1037C
100
AcDbEntity
8
Geo
100
AcDbLine
10
-60.3382133995038
20
4.79516052025465
30
0.000000000000000
11
-60.2382133995038
21
4.75449891122150
31
0.000000000000000
  0
LINE
  5
F1037D
330
F1037E
100
AcDbEntity
8
Geo
100
AcDbLine
10
-60.2382133995038
20
4.75449891122150
30
0.000000000000000
11
-60.1382133995038
21
4.71463356190459
31
0.000000000000000
  0
LINE
  5
F1037F
330
F10380
100
AcDbEntity
8
Geo
100
AcDbLine
10
-60.1382133995038
20
4.71463356190459
30
0.000000000000000
11
-60.0382133995038
21
4.67557923679238
31
0.000000000000000
  0
LINE
  5
F10381
330
F10382
100
AcDbEntity
8
Geo
100
AcDbLine
10
-60.0382133995038
20
4.67557923679238
30
0.000000000000000
11
-59.9382133995038
21
4.63735040000332
31
0.000000000000000
  0
LINE
  5
F10383
330
F10384
100
AcDbEntity
8
Geo
100
AcDbLine
10
-59.9382133995038
20
4.63735040000332
30
0.000000000000000
11
-59.8382133995038
21
4.59996120992885
31
0.000000000000000
  0
LINE
  5
F10385
330
F10386
100
AcDbEntity
8
Geo
100
AcDbLine
10
-59.8382133995038
20
4.59996120992885
30
0.000000000000000
11
-59.7382133995038
21
4.56342551398974
31
0.000000000000000
  0
LINE
  5
F10387
330
F10388
100
AcDbEntity
8
Geo
100
AcDbLine
10
-59.7382133995038
20
4.56342551398974
30
0.000000000000000
11
-59.6382133995038
21
4.52775684350759
31
0.000000000000000
  0
LINE
  5
F10389
330
F1038A
100
AcDbEntity
8
Geo
100
AcDbLine
10
-59.6382133995038
20
4.52775684350759
30
0.000000000000000
11
-59.5382133995038
21
4.49296840869336
31
0.000000000000000
  0
LINE
  5
F1038B
330
F1038C
100
AcDbEntity
8
Geo
100
AcDbLine
10
-59.5382133995038
20
4.49296840869336
30
0.000000000000000
11
-59.4382133995038
21
4.45907309375488
31
0.000000000000000
  0
LINE
  5
F1038D
330
F1038E
100
AcDbEntity
8
Geo
100
AcDbLine
10
-59.4382133995038
20
4.45907309375488
30
0.000000000000000
11
-59.3382133995038
21
4.42608345212504
31
0.000000000000000
  0
LINE
  5
F1038F
330
F10390
100
AcDbEntity
8
Geo
100
AcDbLine
10
-59.3382133995038
20
4.42608345212504
30
0.000000000000000
11
-59.2382133995038
21
4.39401170181251
31
0.000000000000000
  0
LINE
  5
F10391
330
F10392
100
AcDbEntity
8
Geo
100
AcDbLine
10
-59.2382133995038
20
4.39401170181251
30
0.000000000000000
11
-59.1382133995038
21
4.36286972087673
31
0.000000000000000
  0
LINE
  5
F10393
330
F10394
100
AcDbEntity
8
Geo
100
AcDbLine
10
-59.1382133995038
20
4.36286972087673
30
0.000000000000000
11
-59.0382133995038
21
4.33266904302872
31
0.000000000000000
  0
LINE
  5
F10395
330
F10396
100
AcDbEntity
8
Geo
100
AcDbLine
10
-59.0382133995038
20
4.33266904302872
30
0.000000000000000
11
-58.9382133995038
21
4.30342085335950
31
0.000000000000000
  0
LINE
  5
F10397
330
F10398
100
AcDbEntity
8
Geo
100
AcDbLine
10
-58.9382133995038
20
4.30342085335950
30
0.000000000000000
11
-58.8382133995038
21
4.27513598419757
31
0.000000000000000
  0
LINE
  5
F10399
330
F1039A
100
AcDbEntity
8
Geo
100
AcDbLine
10
-58.8382133995038
20
4.27513598419757
30
0.000000000000000
11
-58.7382133995038
21
4.24782491109707
31
0.000000000000000
  0
LINE
  5
F1039B
330
F1039C
100
AcDbEntity
8
Geo
100
AcDbLine
10
-58.7382133995038
20
4.24782491109707
30
0.000000000000000
11
-58.6382133995038
21
4.22149774895807
31
0.000000000000000
  0
LINE
  5
F1039D
330
F1039E
100
AcDbEntity
8
Geo
100
AcDbLine
10
-58.6382133995038
20
4.22149774895807
30
0.000000000000000
11
-58.5382133995038
21
4.19616424828042
31
0.000000000000000
  0
LINE
  5
F1039F
330
F103A0
100
AcDbEntity
8
Geo
100
AcDbLine
10
-58.5382133995038
20
4.19616424828042
30
0.000000000000000
11
-58.4382133995038
21
4.17183379155255
31
0.000000000000000
  0
LINE
  5
F103A1
330
F103A2
100
AcDbEntity
8
Geo
100
AcDbLine
10
-58.4382133995038
20
4.17183379155255
30
0.000000000000000
11
-58.3382133995038
21
4.14851538977660
31
0.000000000000000
  0
LINE
  5
F103A3
330
F103A4
100
AcDbEntity
8
Geo
100
AcDbLine
10
-58.3382133995038
20
4.14851538977660
30
0.000000000000000
11
-58.2382133995038
21
4.12621767913114
31
0.000000000000000
  0
LINE
  5
F103A5
330
F103A6
100
AcDbEntity
8
Geo
100
AcDbLine
10
-58.2382133995038
20
4.12621767913114
30
0.000000000000000
11
-58.1382133995038
21
4.10494891777263
31
0.000000000000000
  0
LINE
  5
F103A7
330
F103A8
100
AcDbEntity
8
Geo
100
AcDbLine
10
-58.1382133995038
20
4.10494891777263
30
0.000000000000000
11
-58.0382133995038
21
4.08471698277695
31
0.000000000000000
  0
LINE
  5
F103A9
330
F103AA
100
AcDbEntity
8
Geo
100
AcDbLine
10
-58.0382133995038
20
4.08471698277695
30
0.000000000000000
11
-57.9382133995038
21
4.06552936722210
31
0.000000000000000
  0
LINE
  5
F103AB
330
F103AC
100
AcDbEntity
8
Geo
100
AcDbLine
10
-57.9382133995038
20
4.06552936722210
30
0.000000000000000
11
-57.8382133995038
21
4.04739317741302
31
0.000000000000000
  0
LINE
  5
F103AD
330
F103AE
100
AcDbEntity
8
Geo
100
AcDbLine
10
-57.8382133995038
20
4.04739317741302
30
0.000000000000000
11
-57.7382133995038
21
4.03031513024974
31
0.000000000000000
  0
LINE
  5
F103AF
330
F103B0
100
AcDbEntity
8
Geo
100
AcDbLine
10
-57.7382133995038
20
4.03031513024974
30
0.000000000000000
11
-57.6382133995038
21
4.01430155073968
31
0.000000000000000
  0
LINE
  5
F103B1
330
F103B2
100
AcDbEntity
8
Geo
100
AcDbLine
10
-57.6382133995038
20
4.01430155073968
30
0.000000000000000
11
-57.5382133995038
21
3.99935836965517
31
0.000000000000000
  0
LINE
  5
F103B3
330
F103B4
100
AcDbEntity
8
Geo
100
AcDbLine
10
-57.5382133995038
20
3.99935836965517
30
0.000000000000000
11
-57.4382133995038
21
3.98549112133690
31
0.000000000000000
  0
LINE
  5
F103B5
330
F103B6
100
AcDbEntity
8
Geo
100
AcDbLine
10
-57.4382133995038
20
3.98549112133690
30
0.000000000000000
11
-57.3382133995038
21
3.97270494164426
31
0.000000000000000
  0
LINE
  5
F103B7
330
F103B8
100
AcDbEntity
8
Geo
100
AcDbLine
10
-57.3382133995038
20
3.97270494164426
30
0.000000000000000
11
-57.2382133995038
21
3.96100456605319
31
0.000000000000000
  0
LINE
  5
F103B9
330
F103BA
100
AcDbEntity
8
Geo
100
AcDbLine
10
-57.2382133995038
20
3.96100456605319
30
0.000000000000000
11
-57.1382133995038
21
3.95039432790238
31
0.000000000000000
  0
LINE
  5
F103BB
330
F103BC
100
AcDbEntity
8
Geo
100
AcDbLine
10
-57.1382133995038
20
3.95039432790238
30
0.000000000000000
11
-57.0382133995038
21
3.94087815678839
31
0.000000000000000
  0
LINE
  5
F103BD
330
F103BE
100
AcDbEntity
8
Geo
100
AcDbLine
10
-57.0382133995038
20
3.94087815678839
30
0.000000000000000
11
-56.9382133995038
21
3.93245957711026
31
0.000000000000000
  0
LINE
  5
F103BF
330
F103C0
100
AcDbEntity
8
Geo
100
AcDbLine
10
-56.9382133995038
20
3.93245957711026
30
0.000000000000000
11
-56.8382133995038
21
3.92514170676421
31
0.000000000000000
  0
LINE
  5
F103C1
330
F103C2
100
AcDbEntity
8
Geo
100
AcDbLine
10
-56.8382133995038
20
3.92514170676421
30
0.000000000000000
11
-56.7382133995038
21
3.91892725598897
31
0.000000000000000
  0
LINE
  5
F103C3
330
F103C4
100
AcDbEntity
8
Geo
100
AcDbLine
10
-56.7382133995038
20
3.91892725598897
30
0.000000000000000
11
-56.6382133995038
21
3.91381852636191
31
0.000000000000000
  0
LINE
  5
F103C5
330
F103C6
100
AcDbEntity
8
Geo
100
AcDbLine
10
-56.6382133995038
20
3.91381852636191
30
0.000000000000000
11
-56.5382133995038
21
3.90981740994673
31
0.000000000000000
  0
LINE
  5
F103C7
330
F103C8
100
AcDbEntity
8
Geo
100
AcDbLine
10
-56.5382133995038
20
3.90981740994673
30
0.000000000000000
11
-56.4382133995038
21
3.90692538859266
31
0.000000000000000
  0
LINE
  5
F103C9
330
F103CA
100
AcDbEntity
8
Geo
100
AcDbLine
10
-56.4382133995038
20
3.90692538859266
30
0.000000000000000
11
-56.3382133995038
21
3.90514353338565
31
0.000000000000000
  0
LINE
  5
F103CB
330
F103CC
100
AcDbEntity
8
Geo
100
AcDbLine
10
-56.3382133995038
20
3.90514353338565
30
0.000000000000000
11
-56.2382133995038
21
3.90447250425173
31
0.000000000000000
  0
LINE
  5
F103CD
330
F103CE
100
AcDbEntity
8
Geo
100
AcDbLine
10
-43.7382133995037
20
9.90396650124070
30
0.000000000000000
11
-43.6382133995037
21
9.89677311705704
31
0.000000000000000
  0
LINE
  5
F103CF
330
F103D0
100
AcDbEntity
8
Geo
100
AcDbLine
10
-43.6382133995037
20
9.89677311705704
30
0.000000000000000
11
-43.5382133995037
21
9.84022357445608
31
0.000000000000000
  0
LINE
  5
F103D1
330
F103D2
100
AcDbEntity
8
Geo
100
AcDbLine
10
-43.5382133995037
20
9.84022357445608
30
0.000000000000000
11
-43.4382133995037
21
9.72055297677612
31
0.000000000000000
  0
LINE
  5
F103D3
330
F103D4
100
AcDbEntity
8
Geo
100
AcDbLine
10
-43.4382133995037
20
9.72055297677612
30
0.000000000000000
11
-43.3382133995037
21
9.53066501863297
31
0.000000000000000
  0
LINE
  5
F103D5
330
F103D6
100
AcDbEntity
8
Geo
100
AcDbLine
10
-43.3382133995037
20
9.53066501863297
30
0.000000000000000
11
-43.2382133995037
21
9.26541646800712
31
0.000000000000000
  0
LINE
  5
F103D7
330
F103D8
100
AcDbEntity
8
Geo
100
AcDbLine
10
-43.2382133995037
20
9.26541646800712
30
0.000000000000000
11
-43.1382133995037
21
8.92242686354933
31
0.000000000000000
  0
LINE
  5
F103D9
330
F103DA
100
AcDbEntity
8
Geo
100
AcDbLine
10
-43.1382133995037
20
8.92242686354933
30
0.000000000000000
11
-43.0382133995037
21
8.50292666223297
31
0.000000000000000
  0
LINE
  5
F103DB
330
F103DC
100
AcDbEntity
8
Geo
100
AcDbLine
10
-43.0382133995037
20
8.50292666223297
30
0.000000000000000
11
-42.9382133995037
21
8.01258150834627
31
0.000000000000000
  0
LINE
  5
F103DD
330
F103DE
100
AcDbEntity
8
Geo
100
AcDbLine
10
-42.9382133995037
20
8.01258150834627
30
0.000000000000000
11
-42.8382133995037
21
7.46220977442616
31
0.000000000000000
  0
LINE
  5
F103DF
330
F103E0
100
AcDbEntity
8
Geo
100
AcDbLine
10
-42.8382133995037
20
7.46220977442616
30
0.000000000000000
11
-42.7382133995037
21
6.86828536158699
31
0.000000000000000
  0
LINE
  5
F103E1
330
F103E2
100
AcDbEntity
8
Geo
100
AcDbLine
10
-54.4382133995038
20
9.90443398112762
30
0.000000000000000
11
-54.3382133995038
21
9.90414725648785
31
0.000000000000000
  0
LINE
  5
F103E3
330
F103E4
100
AcDbEntity
8
Geo
100
AcDbLine
10
-54.3382133995038
20
9.90414725648785
30
0.000000000000000
11
-54.2382133995038
21
9.90274957326524
31
0.000000000000000
  0
LINE
  5
F103E5
330
F103E6
100
AcDbEntity
8
Geo
100
AcDbLine
10
-54.2382133995038
20
9.90274957326524
30
0.000000000000000
11
-54.1382133995038
21
9.90024144910428
31
0.000000000000000
  0
LINE
  5
F103E7
330
F103E8
100
AcDbEntity
8
Geo
100
AcDbLine
10
-54.1382133995038
20
9.90024144910428
30
0.000000000000000
11
-54.0382133995038
21
9.89662381291117
31
0.000000000000000
  0
LINE
  5
F103E9
330
F103EA
100
AcDbEntity
8
Geo
100
AcDbLine
10
-54.0382133995038
20
9.89662381291117
30
0.000000000000000
11
-53.9382133995038
21
9.89189800450980
31
0.000000000000000
  0
LINE
  5
F103EB
330
F103EC
100
AcDbEntity
8
Geo
100
AcDbLine
10
-53.9382133995038
20
9.89189800450980
30
0.000000000000000
11
-53.8382133995038
21
9.88606577414557
31
0.000000000000000
  0
LINE
  5
F103ED
330
F103EE
100
AcDbEntity
8
Geo
100
AcDbLine
10
-53.8382133995038
20
9.88606577414557
30
0.000000000000000
11
-53.7382133995038
21
9.87912928183713
31
0.000000000000000
  0
LINE
  5
F103EF
330
F103F0
100
AcDbEntity
8
Geo
100
AcDbLine
10
-53.7382133995038
20
9.87912928183713
30
0.000000000000000
11
-53.6382133995038
21
9.87109109657641
31
0.000000000000000
  0
LINE
  5
F103F1
330
F103F2
100
AcDbEntity
8
Geo
100
AcDbLine
10
-53.6382133995038
20
9.87109109657641
30
0.000000000000000
11
-53.5382133995038
21
9.86195419537718
31
0.000000000000000
  0
LINE
  5
F103F3
330
F103F4
100
AcDbEntity
8
Geo
100
AcDbLine
10
-53.5382133995038
20
9.86195419537718
30
0.000000000000000
11
-53.4382133995038
21
9.85172196217248
31
0.000000000000000
  0
LINE
  5
F103F5
330
F103F6
100
AcDbEntity
8
Geo
100
AcDbLine
10
-53.4382133995038
20
9.85172196217248
30
0.000000000000000
11
-53.3382133995038
21
9.84039818656134
31
0.000000000000000
  0
LINE
  5
F103F7
330
F103F8
100
AcDbEntity
8
Geo
100
AcDbLine
10
-53.3382133995038
20
9.84039818656134
30
0.000000000000000
11
-53.2382133995038
21
9.82798706240529
31
0.000000000000000
  0
LINE
  5
F103F9
330
F103FA
100
AcDbEntity
8
Geo
100
AcDbLine
10
-53.2382133995038
20
9.82798706240529
30
0.000000000000000
11
-53.1382133995038
21
9.81449318627510
31
0.000000000000000
  0
LINE
  5
F103FB
330
F103FC
100
AcDbEntity
8
Geo
100
AcDbLine
10
-53.1382133995038
20
9.81449318627510
30
0.000000000000000
11
-53.0382133995038
21
9.79992155574843
31
0.000000000000000
  0
LINE
  5
F103FD
330
F103FE
100
AcDbEntity
8
Geo
100
AcDbLine
10
-53.0382133995038
20
9.79992155574843
30
0.000000000000000
11
-52.9382133995038
21
9.78427756755890
31
0.000000000000000
  0
LINE
  5
F103FF
330
F10400
100
AcDbEntity
8
Geo
100
AcDbLine
10
-52.9382133995038
20
9.78427756755890
30
0.000000000000000
11
-52.8382133995038
21
9.76756701559739
31
0.000000000000000
  0
LINE
  5
F10401
330
F10402
100
AcDbEntity
8
Geo
100
AcDbLine
10
-52.8382133995038
20
9.76756701559739
30
0.000000000000000
11
-52.7382133995037
21
9.74979608876619
31
0.000000000000000
  0
LINE
  5
F10403
330
F10404
100
AcDbEntity
8
Geo
100
AcDbLine
10
-52.7382133995037
20
9.74979608876619
30
0.000000000000000
11
-52.6382133995037
21
9.73097136868692
31
0.000000000000000
  0
LINE
  5
F10405
330
F10406
100
AcDbEntity
8
Geo
100
AcDbLine
10
-52.6382133995037
20
9.73097136868692
30
0.000000000000000
11
-52.5382133995037
21
9.71109982726295
31
0.000000000000000
  0
LINE
  5
F10407
330
F10408
100
AcDbEntity
8
Geo
100
AcDbLine
10
-52.5382133995037
20
9.71109982726295
30
0.000000000000000
11
-52.4382133995037
21
9.69018882409726
31
0.000000000000000
  0
LINE
  5
F10409
330
F1040A
100
AcDbEntity
8
Geo
100
AcDbLine
10
-52.4382133995037
20
9.69018882409726
30
0.000000000000000
11
-52.3382133995037
21
9.66824610376682
31
0.000000000000000
  0
LINE
  5
F1040B
330
F1040C
100
AcDbEntity
8
Geo
100
AcDbLine
10
-52.3382133995037
20
9.66824610376682
30
0.000000000000000
11
-52.2382133995037
21
9.64527979295426
31
0.000000000000000
  0
LINE
  5
F1040D
330
F1040E
100
AcDbEntity
8
Geo
100
AcDbLine
10
-52.2382133995037
20
9.64527979295426
30
0.000000000000000
11
-52.1382133995037
21
9.62129839743808
31
0.000000000000000
  0
LINE
  5
F1040F
330
F10410
100
AcDbEntity
8
Geo
100
AcDbLine
10
-52.1382133995037
20
9.62129839743808
30
0.000000000000000
11
-52.0382133995037
21
9.59631079894249
31
0.000000000000000
  0
LINE
  5
F10411
330
F10412
100
AcDbEntity
8
Geo
100
AcDbLine
10
-52.0382133995037
20
9.59631079894249
30
0.000000000000000
11
-51.9382133995037
21
9.57032625184798
31
0.000000000000000
  0
LINE
  5
F10413
330
F10414
100
AcDbEntity
8
Geo
100
AcDbLine
10
-51.9382133995037
20
9.57032625184798
30
0.000000000000000
11
-51.8382133995037
21
9.54335437976384
31
0.000000000000000
  0
LINE
  5
F10415
330
F10416
100
AcDbEntity
8
Geo
100
AcDbLine
10
-51.8382133995037
20
9.54335437976384
30
0.000000000000000
11
-51.7382133995037
21
9.51540517196400
31
0.000000000000000
  0
LINE
  5
F10417
330
F10418
100
AcDbEntity
8
Geo
100
AcDbLine
10
-51.7382133995037
20
9.51540517196400
30
0.000000000000000
11
-51.6382133995037
21
9.48648897968742
31
0.000000000000000
  0
LINE
  5
F10419
330
F1041A
100
AcDbEntity
8
Geo
100
AcDbLine
10
-51.6382133995037
20
9.48648897968742
30
0.000000000000000
11
-51.5382133995037
21
9.45661651230441
31
0.000000000000000
  0
LINE
  5
F1041B
330
F1041C
100
AcDbEntity
8
Geo
100
AcDbLine
10
-51.5382133995037
20
9.45661651230441
30
0.000000000000000
11
-51.4382133995037
21
9.42579883335030
31
0.000000000000000
  0
LINE
  5
F1041D
330
F1041E
100
AcDbEntity
8
Geo
100
AcDbLine
10
-51.4382133995037
20
9.42579883335030
30
0.000000000000000
11
-51.3382133995037
21
9.39404735642797
31
0.000000000000000
  0
LINE
  5
F1041F
330
F10420
100
AcDbEntity
8
Geo
100
AcDbLine
10
-51.3382133995037
20
9.39404735642797
30
0.000000000000000
11
-51.2382133995037
21
9.36137384098075
31
0.000000000000000
  0
LINE
  5
F10421
330
F10422
100
AcDbEntity
8
Geo
100
AcDbLine
10
-51.2382133995037
20
9.36137384098075
30
0.000000000000000
11
-51.1382133995037
21
9.32779038793715
31
0.000000000000000
  0
LINE
  5
F10423
330
F10424
100
AcDbEntity
8
Geo
100
AcDbLine
10
-51.1382133995037
20
9.32779038793715
30
0.000000000000000
11
-51.0382133995037
21
9.29330943522924
31
0.000000000000000
  0
LINE
  5
F10425
330
F10426
100
AcDbEntity
8
Geo
100
AcDbLine
10
-51.0382133995037
20
9.29330943522924
30
0.000000000000000
11
-50.9382133995037
21
9.25794375318607
31
0.000000000000000
  0
LINE
  5
F10427
330
F10428
100
AcDbEntity
8
Geo
100
AcDbLine
10
-50.9382133995037
20
9.25794375318607
30
0.000000000000000
11
-50.8382133995037
21
9.22170643980414
31
0.000000000000000
  0
LINE
  5
F10429
330
F1042A
100
AcDbEntity
8
Geo
100
AcDbLine
10
-50.8382133995037
20
9.22170643980414
30
0.000000000000000
11
-50.7382133995037
21
9.18461091589640
31
0.000000000000000
  0
LINE
  5
F1042B
330
F1042C
100
AcDbEntity
8
Geo
100
AcDbLine
10
-50.7382133995037
20
9.18461091589640
30
0.000000000000000
11
-50.6382133995037
21
9.14667092012173
31
0.000000000000000
  0
LINE
  5
F1042D
330
F1042E
100
AcDbEntity
8
Geo
100
AcDbLine
10
-50.6382133995037
20
9.14667092012173
30
0.000000000000000
11
-50.5382133995037
21
9.10790050389673
31
0.000000000000000
  0
LINE
  5
F1042F
330
F10430
100
AcDbEntity
8
Geo
100
AcDbLine
10
-50.5382133995037
20
9.10790050389673
30
0.000000000000000
11
-50.4382133995037
21
9.06831402619163
31
0.000000000000000
  0
LINE
  5
F10431
330
F10432
100
AcDbEntity
8
Geo
100
AcDbLine
10
-50.4382133995037
20
9.06831402619163
30
0.000000000000000
11
-50.3382133995037
21
9.02792614821233
31
0.000000000000000
  0
LINE
  5
F10433
330
F10434
100
AcDbEntity
8
Geo
100
AcDbLine
10
-50.3382133995037
20
9.02792614821233
30
0.000000000000000
11
-50.2382133995037
21
8.98675182797046
31
0.000000000000000
  0
LINE
  5
F10435
330
F10436
100
AcDbEntity
8
Geo
100
AcDbLine
10
-50.2382133995037
20
8.98675182797046
30
0.000000000000000
11
-50.1382133995037
21
8.94480631474362
31
0.000000000000000
  0
LINE
  5
F10437
330
F10438
100
AcDbEntity
8
Geo
100
AcDbLine
10
-50.1382133995037
20
8.94480631474362
30
0.000000000000000
11
-50.0382133995037
21
8.90210514342757
31
0.000000000000000
  0
LINE
  5
F10439
330
F1043A
100
AcDbEntity
8
Geo
100
AcDbLine
10
-50.0382133995037
20
8.90210514342757
30
0.000000000000000
11
-49.9382133995037
21
8.85866412878285
31
0.000000000000000
  0
LINE
  5
F1043B
330
F1043C
100
AcDbEntity
8
Geo
100
AcDbLine
10
-49.9382133995037
20
8.85866412878285
30
0.000000000000000
11
-49.8382133995037
21
8.81449935957755
31
0.000000000000000
  0
LINE
  5
F1043D
330
F1043E
100
AcDbEntity
8
Geo
100
AcDbLine
10
-49.8382133995037
20
8.81449935957755
30
0.000000000000000
11
-49.7382133995037
21
8.76962719262877
31
0.000000000000000
  0
LINE
  5
F1043F
330
F10440
100
AcDbEntity
8
Geo
100
AcDbLine
10
-49.7382133995037
20
8.76962719262877
30
0.000000000000000
11
-49.6382133995037
21
8.72406424674464
31
0.000000000000000
  0
LINE
  5
F10441
330
F10442
100
AcDbEntity
8
Geo
100
AcDbLine
10
-49.6382133995037
20
8.72406424674464
30
0.000000000000000
11
-49.5382133995037
21
8.67782739656949
31
0.000000000000000
  0
LINE
  5
F10443
330
F10444
100
AcDbEntity
8
Geo
100
AcDbLine
10
-49.5382133995037
20
8.67782739656949
30
0.000000000000000
11
-49.4382133995037
21
8.63093376633410
31
0.000000000000000
  0
LINE
  5
F10445
330
F10446
100
AcDbEntity
8
Geo
100
AcDbLine
10
-49.4382133995037
20
8.63093376633410
30
0.000000000000000
11
-49.3382133995037
21
8.58340072351362
31
0.000000000000000
  0
LINE
  5
F10447
330
F10448
100
AcDbEntity
8
Geo
100
AcDbLine
10
-49.3382133995037
20
8.58340072351362
30
0.000000000000000
11
-49.2382133995037
21
8.53524587239538
31
0.000000000000000
  0
LINE
  5
F10449
330
F1044A
100
AcDbEntity
8
Geo
100
AcDbLine
10
-49.2382133995037
20
8.53524587239538
30
0.000000000000000
11
-49.1382133995037
21
8.48648704755897
31
0.000000000000000
  0
LINE
  5
F1044B
330
F1044C
100
AcDbEntity
8
Geo
100
AcDbLine
10
-49.1382133995037
20
8.48648704755897
30
0.000000000000000
11
-49.0382133995037
21
8.43714230727103
31
0.000000000000000
  0
LINE
  5
F1044D
330
F1044E
100
AcDbEntity
8
Geo
100
AcDbLine
10
-49.0382133995037
20
8.43714230727103
30
0.000000000000000
11
-48.9382133995037
21
8.38722992679723
31
0.000000000000000
  0
LINE
  5
F1044F
330
F10450
100
AcDbEntity
8
Geo
100
AcDbLine
10
-48.9382133995037
20
8.38722992679723
30
0.000000000000000
11
-48.8382133995037
21
8.33676839163387
31
0.000000000000000
  0
LINE
  5
F10451
330
F10452
100
AcDbEntity
8
Geo
100
AcDbLine
10
-48.8382133995037
20
8.33676839163387
30
0.000000000000000
11
-48.7382133995037
21
8.28577639066159
31
0.000000000000000
  0
LINE
  5
F10453
330
F10454
100
AcDbEntity
8
Geo
100
AcDbLine
10
-48.7382133995037
20
8.28577639066159
30
0.000000000000000
11
-48.6382133995037
21
8.23427280922378
31
0.000000000000000
  0
LINE
  5
F10455
330
F10456
100
AcDbEntity
8
Geo
100
AcDbLine
10
-48.6382133995037
20
8.23427280922378
30
0.000000000000000
11
-48.5382133995037
21
8.18227672213224
31
0.000000000000000
  0
LINE
  5
F10457
330
F10458
100
AcDbEntity
8
Geo
100
AcDbLine
10
-48.5382133995037
20
8.18227672213224
30
0.000000000000000
11
-48.4382133995037
21
8.12980738660262
31
0.000000000000000
  0
LINE
  5
F10459
330
F1045A
100
AcDbEntity
8
Geo
100
AcDbLine
10
-48.4382133995037
20
8.12980738660262
30
0.000000000000000
11
-48.3382133995037
21
8.07688423512239
31
0.000000000000000
  0
LINE
  5
F1045B
330
F1045C
100
AcDbEntity
8
Geo
100
AcDbLine
10
-48.3382133995037
20
8.07688423512239
30
0.000000000000000
11
-48.2382133995037
21
8.02352686825379
31
0.000000000000000
  0
LINE
  5
F1045D
330
F1045E
100
AcDbEntity
8
Geo
100
AcDbLine
10
-48.2382133995037
20
8.02352686825379
30
0.000000000000000
11
-48.1382133995037
21
7.96975504737462
31
0.000000000000000
  0
LINE
  5
F1045F
330
F10460
100
AcDbEntity
8
Geo
100
AcDbLine
10
-48.1382133995037
20
7.96975504737462
30
0.000000000000000
11
-48.0382133995037
21
7.91558868735943
31
0.000000000000000
  0
LINE
  5
F10461
330
F10462
100
AcDbEntity
8
Geo
100
AcDbLine
10
-48.0382133995037
20
7.91558868735943
30
0.000000000000000
11
-47.9382133995037
21
7.86104784920385
31
0.000000000000000
  0
LINE
  5
F10463
330
F10464
100
AcDbEntity
8
Geo
100
AcDbLine
10
-47.9382133995037
20
7.86104784920385
30
0.000000000000000
11
-47.8382133995037
21
7.80615273259486
31
0.000000000000000
  0
LINE
  5
F10465
330
F10466
100
AcDbEntity
8
Geo
100
AcDbLine
10
-47.8382133995037
20
7.80615273259486
30
0.000000000000000
11
-47.7382133995037
21
7.75092366842962
31
0.000000000000000
  0
LINE
  5
F10467
330
F10468
100
AcDbEntity
8
Geo
100
AcDbLine
10
-47.7382133995037
20
7.75092366842962
30
0.000000000000000
11
-47.6382133995037
21
7.69538111128576
31
0.000000000000000
  0
LINE
  5
F10469
330
F1046A
100
AcDbEntity
8
Geo
100
AcDbLine
10
-47.6382133995037
20
7.69538111128576
30
0.000000000000000
11
-47.5382133995037
21
7.63954563184582
31
0.000000000000000
  0
LINE
  5
F1046B
330
F1046C
100
AcDbEntity
8
Geo
100
AcDbLine
10
-47.5382133995037
20
7.63954563184582
30
0.000000000000000
11
-47.4382133995037
21
7.58343790927875
31
0.000000000000000
  0
LINE
  5
F1046D
330
F1046E
100
AcDbEntity
8
Geo
100
AcDbLine
10
-47.4382133995037
20
7.58343790927875
30
0.000000000000000
11
-47.3382133995037
21
7.52707872358116
31
0.000000000000000
  0
LINE
  5
F1046F
330
F10470
100
AcDbEntity
8
Geo
100
AcDbLine
10
-47.3382133995037
20
7.52707872358116
30
0.000000000000000
11
-47.2382133995037
21
7.47048894788130
31
0.000000000000000
  0
LINE
  5
F10471
330
F10472
100
AcDbEntity
8
Geo
100
AcDbLine
10
-47.2382133995037
20
7.47048894788130
30
0.000000000000000
11
-47.1382133995037
21
7.41368954070846
31
0.000000000000000
  0
LINE
  5
F10473
330
F10474
100
AcDbEntity
8
Geo
100
AcDbLine
10
-47.1382133995037
20
7.41368954070846
30
0.000000000000000
11
-47.0382133995037
21
7.35670153823085
31
0.000000000000000
  0
LINE
  5
F10475
330
F10476
100
AcDbEntity
8
Geo
100
AcDbLine
10
-47.0382133995037
20
7.35670153823085
30
0.000000000000000
11
-46.9382133995037
21
7.29954604646461
31
0.000000000000000
  0
LINE
  5
F10477
330
F10478
100
AcDbEntity
8
Geo
100
AcDbLine
10
-46.9382133995037
20
7.29954604646461
30
0.000000000000000
11
-46.8382133995037
21
7.24224423345705
31
0.000000000000000
  0
LINE
  5
F10479
330
F1047A
100
AcDbEntity
8
Geo
100
AcDbLine
10
-46.8382133995037
20
7.24224423345705
30
0.000000000000000
11
-46.7382133995037
21
7.18481732144685
31
0.000000000000000
  0
LINE
  5
F1047B
330
F1047C
100
AcDbEntity
8
Geo
100
AcDbLine
10
-46.7382133995037
20
7.18481732144685
30
0.000000000000000
11
-46.6382133995037
21
7.12728657900425
31
0.000000000000000
  0
LINE
  5
F1047D
330
F1047E
100
AcDbEntity
8
Geo
100
AcDbLine
10
-46.6382133995037
20
7.12728657900425
30
0.000000000000000
11
-46.5382133995037
21
7.06967331315399
31
0.000000000000000
  0
LINE
  5
F1047F
330
F10480
100
AcDbEntity
8
Geo
100
AcDbLine
10
-46.5382133995037
20
7.06967331315399
30
0.000000000000000
11
-46.4382133995037
21
7.01199886148409
31
0.000000000000000
  0
LINE
  5
F10481
330
F10482
100
AcDbEntity
8
Geo
100
AcDbLine
10
-46.4382133995037
20
7.01199886148409
30
0.000000000000000
11
-46.3382133995037
21
6.95428458424331
31
0.000000000000000
  0
LINE
  5
F10483
330
F10484
100
AcDbEntity
8
Geo
100
AcDbLine
10
-46.3382133995037
20
6.95428458424331
30
0.000000000000000
11
-46.2382133995037
21
6.89655185643015
31
0.000000000000000
  0
LINE
  5
F10485
330
F10486
100
AcDbEntity
8
Geo
100
AcDbLine
10
-46.2382133995037
20
6.89655185643015
30
0.000000000000000
11
-46.1382133995037
21
6.83882205987645
31
0.000000000000000
  0
LINE
  5
F10487
330
F10488
100
AcDbEntity
8
Geo
100
AcDbLine
10
-46.1382133995037
20
6.83882205987645
30
0.000000000000000
11
-46.0382133995037
21
6.78111657532843
31
0.000000000000000
  0
LINE
  5
F10489
330
F1048A
100
AcDbEntity
8
Geo
100
AcDbLine
10
-46.0382133995037
20
6.78111657532843
30
0.000000000000000
11
-45.9382133995037
21
6.72345677452813
31
0.000000000000000
  0
LINE
  5
F1048B
330
F1048C
100
AcDbEntity
8
Geo
100
AcDbLine
10
-45.9382133995037
20
6.72345677452813
30
0.000000000000000
11
-45.8382133995037
21
6.66586401229823
31
0.000000000000000
  0
LINE
  5
F1048D
330
F1048E
100
AcDbEntity
8
Geo
100
AcDbLine
10
-45.8382133995037
20
6.66586401229823
30
0.000000000000000
11
-45.7382133995037
21
6.60835961863305
31
0.000000000000000
  0
LINE
  5
F1048F
330
F10490
100
AcDbEntity
8
Geo
100
AcDbLine
10
-45.7382133995037
20
6.60835961863305
30
0.000000000000000
11
-45.6382133995036
21
6.55096489079884
31
0.000000000000000
  0
LINE
  5
F10491
330
F10492
100
AcDbEntity
8
Geo
100
AcDbLine
10
-45.6382133995036
20
6.55096489079884
30
0.000000000000000
11
-45.5382133995036
21
6.49370108544613
31
0.000000000000000
  0
LINE
  5
F10493
330
F10494
100
AcDbEntity
8
Geo
100
AcDbLine
10
-45.5382133995036
20
6.49370108544613
30
0.000000000000000
11
-45.4382133995036
21
6.43658941073712
31
0.000000000000000
  0
LINE
  5
F10495
330
F10496
100
AcDbEntity
8
Geo
100
AcDbLine
10
-45.4382133995036
20
6.43658941073712
30
0.000000000000000
11
-45.3382133995036
21
6.37965101849108
31
0.000000000000000
  0
LINE
  5
F10497
330
F10498
100
AcDbEntity
8
Geo
100
AcDbLine
10
-45.3382133995036
20
6.37965101849108
30
0.000000000000000
11
-45.2382133995036
21
6.32290699635058
31
0.000000000000000
  0
LINE
  5
F10499
330
F1049A
100
AcDbEntity
8
Geo
100
AcDbLine
10
-45.2382133995036
20
6.32290699635058
30
0.000000000000000
11
-45.1382133995036
21
6.26637835997147
31
0.000000000000000
  0
LINE
  5
F1049B
330
F1049C
100
AcDbEntity
8
Geo
100
AcDbLine
10
-45.1382133995036
20
6.26637835997147
30
0.000000000000000
11
-45.0382133995036
21
6.21008604523955
31
0.000000000000000
  0
LINE
  5
F1049D
330
F1049E
100
AcDbEntity
8
Geo
100
AcDbLine
10
-45.0382133995036
20
6.21008604523955
30
0.000000000000000
11
-44.9382133995036
21
6.15405090051681
31
0.000000000000000
  0
LINE
  5
F1049F
330
F104A0
100
AcDbEntity
8
Geo
100
AcDbLine
10
-44.9382133995036
20
6.15405090051681
30
0.000000000000000
11
-44.8382133995036
21
6.09829367892001
31
0.000000000000000
  0
LINE
  5
F104A1
330
F104A2
100
AcDbEntity
8
Geo
100
AcDbLine
10
-44.8382133995036
20
6.09829367892001
30
0.000000000000000
11
-44.7382133995037
21
6.04283503063465
31
0.000000000000000
  0
LINE
  5
F104A3
330
F104A4
100
AcDbEntity
8
Geo
100
AcDbLine
10
-44.7382133995037
20
6.04283503063465
30
0.000000000000000
11
-44.6382133995037
21
6.05966762832848
31
0.000000000000000
  0
LINE
  5
F104A5
330
F104A6
100
AcDbEntity
8
Geo
100
AcDbLine
10
-44.6382133995037
20
6.05966762832848
30
0.000000000000000
11
-44.5382133995037
21
6.07886135947007
31
0.000000000000000
  0
LINE
  5
F104A7
330
F104A8
100
AcDbEntity
8
Geo
100
AcDbLine
10
-44.5382133995037
20
6.07886135947007
30
0.000000000000000
11
-44.4382133995037
21
6.10057329304316
31
0.000000000000000
  0
LINE
  5
F104A9
330
F104AA
100
AcDbEntity
8
Geo
100
AcDbLine
10
-44.4382133995037
20
6.10057329304316
30
0.000000000000000
11
-44.3382133995037
21
6.12481796547552
31
0.000000000000000
  0
LINE
  5
F104AB
330
F104AC
100
AcDbEntity
8
Geo
100
AcDbLine
10
-44.3382133995037
20
6.12481796547552
30
0.000000000000000
11
-44.2382133995037
21
6.15161074269329
31
0.000000000000000
  0
LINE
  5
F104AD
330
F104AE
100
AcDbEntity
8
Geo
100
AcDbLine
10
-44.2382133995037
20
6.15161074269329
30
0.000000000000000
11
-44.1382133995037
21
6.18096754793392
31
0.000000000000000
  0
LINE
  5
F104AF
330
F104B0
100
AcDbEntity
8
Geo
100
AcDbLine
10
-44.1382133995037
20
6.18096754793392
30
0.000000000000000
11
-44.0382133995037
21
6.21290456025711
31
0.000000000000000
  0
LINE
  5
F104B1
330
F104B2
100
AcDbEntity
8
Geo
100
AcDbLine
10
-44.0382133995037
20
6.21290456025711
30
0.000000000000000
11
-43.9382133995037
21
6.24743788346513
31
0.000000000000000
  0
LINE
  5
F104B3
330
F104B4
100
AcDbEntity
8
Geo
100
AcDbLine
10
-43.9382133995037
20
6.24743788346513
30
0.000000000000000
11
-43.8382133995037
21
6.28458318517406
31
0.000000000000000
  0
LINE
  5
F104B5
330
F104B6
100
AcDbEntity
8
Geo
100
AcDbLine
10
-43.8382133995037
20
6.28458318517406
30
0.000000000000000
11
-43.7382133995037
21
6.32435530582403
31
0.000000000000000
  0
LINE
  5
F104B7
330
F104B8
100
AcDbEntity
8
Geo
100
AcDbLine
10
-43.7382133995037
20
6.32435530582403
30
0.000000000000000
11
-43.6382133995037
21
6.36676783747964
31
0.000000000000000
  0
LINE
  5
F104B9
330
F104BA
100
AcDbEntity
8
Geo
100
AcDbLine
10
-43.6382133995037
20
6.36676783747964
30
0.000000000000000
11
-43.5382133995037
21
6.41183267235369
31
0.000000000000000
  0
LINE
  5
F104BB
330
F104BC
100
AcDbEntity
8
Geo
100
AcDbLine
10
-43.5382133995037
20
6.41183267235369
30
0.000000000000000
11
-43.4382133995037
21
6.45955952108874
31
0.000000000000000
  0
LINE
  5
F104BD
330
F104BE
100
AcDbEntity
8
Geo
100
AcDbLine
10
-43.4382133995037
20
6.45955952108874
30
0.000000000000000
11
-43.3382133995037
21
6.50995540095394
31
0.000000000000000
  0
LINE
  5
F104BF
330
F104C0
100
AcDbEntity
8
Geo
100
AcDbLine
10
-43.3382133995037
20
6.50995540095394
30
0.000000000000000
11
-43.2382133995037
21
6.56302409426020
31
0.000000000000000
  0
LINE
  5
F104C1
330
F104C2
100
AcDbEntity
8
Geo
100
AcDbLine
10
-43.2382133995037
20
6.56302409426020
30
0.000000000000000
11
-43.1382133995037
21
6.61876557746587
31
0.000000000000000
  0
LINE
  5
F104C3
330
F104C4
100
AcDbEntity
8
Geo
100
AcDbLine
10
-43.1382133995037
20
6.61876557746587
30
0.000000000000000
11
-43.0382133995037
21
6.67717542163988
31
0.000000000000000
  0
LINE
  5
F104C5
330
F104C6
100
AcDbEntity
8
Geo
100
AcDbLine
10
-43.0382133995037
20
6.67717542163988
30
0.000000000000000
11
-42.9382133995037
21
6.73824416517008
31
0.000000000000000
  0
LINE
  5
F104C7
330
F104C8
100
AcDbEntity
8
Geo
100
AcDbLine
10
-42.9382133995037
20
6.73824416517008
30
0.000000000000000
11
-42.8382133995037
21
6.80195665985289
31
0.000000000000000
  0
LINE
  5
F104C9
330
F104CA
100
AcDbEntity
8
Geo
100
AcDbLine
10
-42.8382133995037
20
6.80195665985289
30
0.000000000000000
11
-42.7382133995037
21
6.86828536158699
31
0.000000000000000
  0
LINE
  5
F104CB
330
F104CC
100
AcDbEntity
8
Geo
100
AcDbLine
10
-70.7382133995037
20
9.35237204794063
30
0.000000000000000
11
-70.6382133995037
21
9.64617775300399
31
0.000000000000000
  0
LINE
  5
F104CD
330
F104CE
100
AcDbEntity
8
Geo
100
AcDbLine
10
-70.6382133995037
20
9.64617775300399
30
0.000000000000000
11
-70.5382133995037
21
9.73889397586663
31
0.000000000000000
  0
LINE
  5
F104CF
330
F104D0
100
AcDbEntity
8
Geo
100
AcDbLine
10
-70.5382133995037
20
9.73889397586663
30
0.000000000000000
11
-70.4382133995037
21
9.78873946163766
31
0.000000000000000
  0
LINE
  5
F104D1
330
F104D2
100
AcDbEntity
8
Geo
100
AcDbLine
10
-70.4382133995037
20
9.78873946163766
30
0.000000000000000
11
-70.3382133995037
21
9.81084898614314
31
0.000000000000000
  0
LINE
  5
F104D3
330
F104D4
100
AcDbEntity
8
Geo
100
AcDbLine
10
-70.3382133995037
20
9.81084898614314
30
0.000000000000000
11
-70.2382133995037
21
9.81034976493413
31
0.000000000000000
  0
LINE
  5
F104D5
330
F104D6
100
AcDbEntity
8
Geo
100
AcDbLine
10
-70.2382133995037
20
9.81034976493413
30
0.000000000000000
11
-70.1382133995037
21
9.79870218966438
31
0.000000000000000
  0
LINE
  5
F104D7
330
F104D8
100
AcDbEntity
8
Geo
100
AcDbLine
10
-70.1382133995037
20
9.79870218966438
30
0.000000000000000
11
-70.0382133995037
21
9.78598270833488
31
0.000000000000000
  0
LINE
  5
F104D9
330
F104DA
100
AcDbEntity
8
Geo
100
AcDbLine
10
-70.0382133995037
20
9.78598270833488
30
0.000000000000000
11
-69.9382133995037
21
9.77219603171928
31
0.000000000000000
  0
LINE
  5
F104DB
330
F104DC
100
AcDbEntity
8
Geo
100
AcDbLine
10
-69.9382133995037
20
9.77219603171928
30
0.000000000000000
11
-69.8382133995037
21
9.75734726583649
31
0.000000000000000
  0
LINE
  5
F104DD
330
F104DE
100
AcDbEntity
8
Geo
100
AcDbLine
10
-69.8382133995037
20
9.75734726583649
30
0.000000000000000
11
-69.7382133995037
21
9.74144191005970
31
0.000000000000000
  0
LINE
  5
F104DF
330
F104E0
100
AcDbEntity
8
Geo
100
AcDbLine
10
-69.7382133995037
20
9.74144191005970
30
0.000000000000000
11
-69.6382133995037
21
9.72448585507960
31
0.000000000000000
  0
LINE
  5
F104E1
330
F104E2
100
AcDbEntity
8
Geo
100
AcDbLine
10
-69.6382133995037
20
9.72448585507960
30
0.000000000000000
11
-69.5382133995037
21
9.70648538072274
31
0.000000000000000
  0
LINE
  5
F104E3
330
F104E4
100
AcDbEntity
8
Geo
100
AcDbLine
10
-69.5382133995037
20
9.70648538072274
30
0.000000000000000
11
-69.4382133995037
21
9.68744715362569
31
0.000000000000000
  0
LINE
  5
F104E5
330
F104E6
100
AcDbEntity
8
Geo
100
AcDbLine
10
-69.4382133995037
20
9.68744715362569
30
0.000000000000000
11
-69.3382133995037
21
9.66737822476605
31
0.000000000000000
  0
LINE
  5
F104E7
330
F104E8
100
AcDbEntity
8
Geo
100
AcDbLine
10
-69.3382133995037
20
9.66737822476605
30
0.000000000000000
11
-69.2382133995037
21
9.64628602685104
31
0.000000000000000
  0
LINE
  5
F104E9
330
F104EA
100
AcDbEntity
8
Geo
100
AcDbLine
10
-69.2382133995037
20
9.64628602685104
30
0.000000000000000
11
-69.1382133995037
21
9.62417837156469
31
0.000000000000000
  0
LINE
  5
F104EB
330
F104EC
100
AcDbEntity
8
Geo
100
AcDbLine
10
-69.1382133995037
20
9.62417837156469
30
0.000000000000000
11
-69.0382133995037
21
9.60106344667478
31
0.000000000000000
  0
LINE
  5
F104ED
330
F104EE
100
AcDbEntity
8
Geo
100
AcDbLine
10
-69.0382133995037
20
9.60106344667478
30
0.000000000000000
11
-68.9382133995037
21
9.57694981300036
31
0.000000000000000
  0
LINE
  5
F104EF
330
F104F0
100
AcDbEntity
8
Geo
100
AcDbLine
10
-68.9382133995037
20
9.57694981300036
30
0.000000000000000
11
-68.8382133995037
21
9.55184640124123
31
0.000000000000000
  0
LINE
  5
F104F1
330
F104F2
100
AcDbEntity
8
Geo
100
AcDbLine
10
-68.8382133995037
20
9.55184640124123
30
0.000000000000000
11
-68.7382133995037
21
9.52576250867034
31
0.000000000000000
  0
LINE
  5
F104F3
330
F104F4
100
AcDbEntity
8
Geo
100
AcDbLine
10
-68.7382133995037
20
9.52576250867034
30
0.000000000000000
11
-68.6382133995037
21
9.49870779569047
31
0.000000000000000
  0
LINE
  5
F104F5
330
F104F6
100
AcDbEntity
8
Geo
100
AcDbLine
10
-68.6382133995037
20
9.49870779569047
30
0.000000000000000
11
-68.5382133995037
21
9.47069228225643
31
0.000000000000000
  0
LINE
  5
F104F7
330
F104F8
100
AcDbEntity
8
Geo
100
AcDbLine
10
-68.5382133995037
20
9.47069228225643
30
0.000000000000000
11
-68.4382133995037
21
9.44172634416407
31
0.000000000000000
  0
LINE
  5
F104F9
330
F104FA
100
AcDbEntity
8
Geo
100
AcDbLine
10
-68.4382133995037
20
9.44172634416407
30
0.000000000000000
11
-68.3382133995037
21
9.41182070920748
31
0.000000000000000
  0
LINE
  5
F104FB
330
F104FC
100
AcDbEntity
8
Geo
100
AcDbLine
10
-68.3382133995037
20
9.41182070920748
30
0.000000000000000
11
-68.2382133995037
21
9.38098645320590
31
0.000000000000000
  0
LINE
  5
F104FD
330
F104FE
100
AcDbEntity
8
Geo
100
AcDbLine
10
-68.2382133995037
20
9.38098645320590
30
0.000000000000000
11
-68.1382133995037
21
9.34923499590170
31
0.000000000000000
  0
LINE
  5
F104FF
330
F10500
100
AcDbEntity
8
Geo
100
AcDbLine
10
-68.1382133995037
20
9.34923499590170
30
0.000000000000000
11
-68.0382133995037
21
9.31657809673091
31
0.000000000000000
  0
LINE
  5
F10501
330
F10502
100
AcDbEntity
8
Geo
100
AcDbLine
10
-68.0382133995037
20
9.31657809673091
30
0.000000000000000
11
-67.9382133995037
21
9.28302785046808
31
0.000000000000000
  0
LINE
  5
F10503
330
F10504
100
AcDbEntity
8
Geo
100
AcDbLine
10
-67.9382133995037
20
9.28302785046808
30
0.000000000000000
11
-67.8382133995037
21
9.24859668274683
31
0.000000000000000
  0
LINE
  5
F10505
330
F10506
100
AcDbEntity
8
Geo
100
AcDbLine
10
-67.8382133995037
20
9.24859668274683
30
0.000000000000000
11
-67.7382133995037
21
9.21329734545790
31
0.000000000000000
  0
LINE
  5
F10507
330
F10508
100
AcDbEntity
8
Geo
100
AcDbLine
10
-67.7382133995037
20
9.21329734545790
30
0.000000000000000
11
-67.6382133995037
21
9.17714291202643
31
0.000000000000000
  0
LINE
  5
F10509
330
F1050A
100
AcDbEntity
8
Geo
100
AcDbLine
10
-67.6382133995037
20
9.17714291202643
30
0.000000000000000
11
-67.5382133995037
21
9.14014677257002
31
0.000000000000000
  0
LINE
  5
F1050B
330
F1050C
100
AcDbEntity
8
Geo
100
AcDbLine
10
-67.5382133995037
20
9.14014677257002
30
0.000000000000000
11
-67.4382133995037
21
9.10232262893965
31
0.000000000000000
  0
LINE
  5
F1050D
330
F1050E
100
AcDbEntity
8
Geo
100
AcDbLine
10
-67.4382133995037
20
9.10232262893965
30
0.000000000000000
11
-67.3382133995037
21
9.06368448964503
31
0.000000000000000
  0
LINE
  5
F1050F
330
F10510
100
AcDbEntity
8
Geo
100
AcDbLine
10
-67.3382133995037
20
9.06368448964503
30
0.000000000000000
11
-67.2382133995037
21
9.02424666466645
31
0.000000000000000
  0
LINE
  5
F10511
330
F10512
100
AcDbEntity
8
Geo
100
AcDbLine
10
-67.2382133995037
20
9.02424666466645
30
0.000000000000000
11
-67.1382133995037
21
8.98402376015493
31
0.000000000000000
  0
LINE
  5
F10513
330
F10514
100
AcDbEntity
8
Geo
100
AcDbLine
10
-67.1382133995037
20
8.98402376015493
30
0.000000000000000
11
-67.0382133995037
21
8.94303067302274
31
0.000000000000000
  0
LINE
  5
F10515
330
F10516
100
AcDbEntity
8
Geo
100
AcDbLine
10
-67.0382133995037
20
8.94303067302274
30
0.000000000000000
11
-66.9382133995037
21
8.90128258542613
31
0.000000000000000
  0
LINE
  5
F10517
330
F10518
100
AcDbEntity
8
Geo
100
AcDbLine
10
-66.9382133995037
20
8.90128258542613
30
0.000000000000000
11
-66.8382133995037
21
8.85879495914255
31
0.000000000000000
  0
LINE
  5
F10519
330
F1051A
100
AcDbEntity
8
Geo
100
AcDbLine
10
-66.8382133995037
20
8.85879495914255
30
0.000000000000000
11
-66.7382133995037
21
8.81558352984421
31
0.000000000000000
  0
LINE
  5
F1051B
330
F1051C
100
AcDbEntity
8
Geo
100
AcDbLine
10
-66.7382133995037
20
8.81558352984421
30
0.000000000000000
11
-66.6382133995037
21
8.77166430127022
31
0.000000000000000
  0
LINE
  5
F1051D
330
F1051E
100
AcDbEntity
8
Geo
100
AcDbLine
10
-66.6382133995037
20
8.77166430127022
30
0.000000000000000
11
-66.5382133995037
21
8.72705353929950
31
0.000000000000000
  0
LINE
  5
F1051F
330
F10520
100
AcDbEntity
8
Geo
100
AcDbLine
10
-66.5382133995037
20
8.72705353929950
30
0.000000000000000
11
-66.4382133995037
21
8.68176776592653
31
0.000000000000000
  0
LINE
  5
F10521
330
F10522
100
AcDbEntity
8
Geo
100
AcDbLine
10
-66.4382133995037
20
8.68176776592653
30
0.000000000000000
11
-66.3382133995037
21
8.63582375314231
31
0.000000000000000
  0
LINE
  5
F10523
330
F10524
100
AcDbEntity
8
Geo
100
AcDbLine
10
-66.3382133995037
20
8.63582375314231
30
0.000000000000000
11
-66.2382133995037
21
8.58923851672268
31
0.000000000000000
  0
LINE
  5
F10525
330
F10526
100
AcDbEntity
8
Geo
100
AcDbLine
10
-66.2382133995037
20
8.58923851672268
30
0.000000000000000
11
-66.1382133995037
21
8.54202930992638
31
0.000000000000000
  0
LINE
  5
F10527
330
F10528
100
AcDbEntity
8
Geo
100
AcDbLine
10
-66.1382133995037
20
8.54202930992638
30
0.000000000000000
11
-66.0382133995037
21
8.49421361710519
31
0.000000000000000
  0
LINE
  5
F10529
330
F1052A
100
AcDbEntity
8
Geo
100
AcDbLine
10
-66.0382133995037
20
8.49421361710519
30
0.000000000000000
11
-65.9382133995037
21
8.44580914722835
31
0.000000000000000
  0
LINE
  5
F1052B
330
F1052C
100
AcDbEntity
8
Geo
100
AcDbLine
10
-65.9382133995037
20
8.44580914722835
30
0.000000000000000
11
-65.8382133995037
21
8.39683382732401
31
0.000000000000000
  0
LINE
  5
F1052D
330
F1052E
100
AcDbEntity
8
Geo
100
AcDbLine
10
-65.8382133995037
20
8.39683382732401
30
0.000000000000000
11
-65.7382133995037
21
8.34730579583970
31
0.000000000000000
  0
LINE
  5
F1052F
330
F10530
100
AcDbEntity
8
Geo
100
AcDbLine
10
-65.7382133995037
20
8.34730579583970
30
0.000000000000000
11
-65.6382133995037
21
8.29724339592462
31
0.000000000000000
  0
LINE
  5
F10531
330
F10532
100
AcDbEntity
8
Geo
100
AcDbLine
10
-65.6382133995037
20
8.29724339592462
30
0.000000000000000
11
-65.5382133995037
21
8.24666516863610
31
0.000000000000000
  0
LINE
  5
F10533
330
F10534
100
AcDbEntity
8
Geo
100
AcDbLine
10
-65.5382133995037
20
8.24666516863610
30
0.000000000000000
11
-65.4382133995037
21
8.19558984607277
31
0.000000000000000
  0
LINE
  5
F10535
330
F10536
100
AcDbEntity
8
Geo
100
AcDbLine
10
-65.4382133995037
20
8.19558984607277
30
0.000000000000000
11
-65.3382133995037
21
8.14403634443689
31
0.000000000000000
  0
LINE
  5
F10537
330
F10538
100
AcDbEntity
8
Geo
100
AcDbLine
10
-65.3382133995037
20
8.14403634443689
30
0.000000000000000
11
-65.2382133995037
21
8.09202375702868
31
0.000000000000000
  0
LINE
  5
F10539
330
F1053A
100
AcDbEntity
8
Geo
100
AcDbLine
10
-65.2382133995037
20
8.09202375702868
30
0.000000000000000
11
-65.1382133995037
21
8.03957134717481
31
0.000000000000000
  0
LINE
  5
F1053B
330
F1053C
100
AcDbEntity
8
Geo
100
AcDbLine
10
-65.1382133995037
20
8.03957134717481
30
0.000000000000000
11
-65.0382133995037
21
7.98669854109418
31
0.000000000000000
  0
LINE
  5
F1053D
330
F1053E
100
AcDbEntity
8
Geo
100
AcDbLine
10
-65.0382133995037
20
7.98669854109418
30
0.000000000000000
11
-64.9382133995037
21
7.93342492070317
31
0.000000000000000
  0
LINE
  5
F1053F
330
F10540
100
AcDbEntity
8
Geo
100
AcDbLine
10
-64.9382133995037
20
7.93342492070317
30
0.000000000000000
11
-64.8382133995037
21
7.87977021636331
31
0.000000000000000
  0
LINE
  5
F10541
330
F10542
100
AcDbEntity
8
Geo
100
AcDbLine
10
-64.8382133995037
20
7.87977021636331
30
0.000000000000000
11
-64.7382133995037
21
7.82575429957400
31
0.000000000000000
  0
LINE
  5
F10543
330
F10544
100
AcDbEntity
8
Geo
100
AcDbLine
10
-64.7382133995037
20
7.82575429957400
30
0.000000000000000
11
-64.6382133995037
21
7.77139717561288
31
0.000000000000000
  0
LINE
  5
F10545
330
F10546
100
AcDbEntity
8
Geo
100
AcDbLine
10
-64.6382133995037
20
7.77139717561288
30
0.000000000000000
11
-64.5382133995037
21
7.71671897612673
31
0.000000000000000
  0
LINE
  5
F10547
330
F10548
100
AcDbEntity
8
Geo
100
AcDbLine
10
-64.5382133995037
20
7.71671897612673
30
0.000000000000000
11
-64.4382133995037
21
7.66173995167551
31
0.000000000000000
  0
LINE
  5
F10549
330
F1054A
100
AcDbEntity
8
Geo
100
AcDbLine
10
-64.4382133995037
20
7.66173995167551
30
0.000000000000000
11
-64.3382133995037
21
7.60648046423242
31
0.000000000000000
  0
LINE
  5
F1054B
330
F1054C
100
AcDbEntity
8
Geo
100
AcDbLine
10
-64.3382133995037
20
7.60648046423242
30
0.000000000000000
11
-64.2382133995037
21
7.55096097964259
31
0.000000000000000
  0
LINE
  5
F1054D
330
F1054E
100
AcDbEntity
8
Geo
100
AcDbLine
10
-64.2382133995037
20
7.55096097964259
30
0.000000000000000
11
-64.1382133995037
21
7.49520206004347
31
0.000000000000000
  0
LINE
  5
F1054F
330
F10550
100
AcDbEntity
8
Geo
100
AcDbLine
10
-64.1382133995037
20
7.49520206004347
30
0.000000000000000
11
-64.0382133995037
21
7.43922435624936
31
0.000000000000000
  0
LINE
  5
F10551
330
F10552
100
AcDbEntity
8
Geo
100
AcDbLine
10
-64.0382133995037
20
7.43922435624936
30
0.000000000000000
11
-63.9382133995037
21
7.38304860010327
31
0.000000000000000
  0
LINE
  5
F10553
330
F10554
100
AcDbEntity
8
Geo
100
AcDbLine
10
-63.9382133995037
20
7.38304860010327
30
0.000000000000000
11
-63.8382133995037
21
7.32669559679867
31
0.000000000000000
  0
LINE
  5
F10555
330
F10556
100
AcDbEntity
8
Geo
100
AcDbLine
10
-63.8382133995037
20
7.32669559679867
30
0.000000000000000
11
-63.7382133995037
21
7.27018621717409
31
0.000000000000000
  0
LINE
  5
F10557
330
F10558
100
AcDbEntity
8
Geo
100
AcDbLine
10
-63.7382133995037
20
7.27018621717409
30
0.000000000000000
11
-63.6382133995037
21
7.21354138998342
31
0.000000000000000
  0
LINE
  5
F10559
330
F1055A
100
AcDbEntity
8
Geo
100
AcDbLine
10
-63.6382133995037
20
7.21354138998342
30
0.000000000000000
11
-63.5382133995037
21
7.15678209414478
31
0.000000000000000
  0
LINE
  5
F1055B
330
F1055C
100
AcDbEntity
8
Geo
100
AcDbLine
10
-63.5382133995037
20
7.15678209414478
30
0.000000000000000
11
-63.4382133995037
21
7.09992935097078
31
0.000000000000000
  0
LINE
  5
F1055D
330
F1055E
100
AcDbEntity
8
Geo
100
AcDbLine
10
-63.4382133995037
20
7.09992935097078
30
0.000000000000000
11
-63.3382133995037
21
7.04300421638307
31
0.000000000000000
  0
LINE
  5
F1055F
330
F10560
100
AcDbEntity
8
Geo
100
AcDbLine
10
-63.3382133995037
20
7.04300421638307
30
0.000000000000000
11
-63.2382133995037
21
6.98602777311413
31
0.000000000000000
  0
LINE
  5
F10561
330
F10562
100
AcDbEntity
8
Geo
100
AcDbLine
10
-63.2382133995037
20
6.98602777311413
30
0.000000000000000
11
-63.1382133995037
21
6.92902112289905
31
0.000000000000000
  0
LINE
  5
F10563
330
F10564
100
AcDbEntity
8
Geo
100
AcDbLine
10
-63.1382133995037
20
6.92902112289905
30
0.000000000000000
11
-63.0382133995037
21
6.87200537866033
31
0.000000000000000
  0
LINE
  5
F10565
330
F10566
100
AcDbEntity
8
Geo
100
AcDbLine
10
-63.0382133995037
20
6.87200537866033
30
0.000000000000000
11
-62.9382133995037
21
6.81500165668855
31
0.000000000000000
  0
LINE
  5
F10567
330
F10568
100
AcDbEntity
8
Geo
100
AcDbLine
10
-62.9382133995037
20
6.81500165668855
30
0.000000000000000
11
-62.8382133995037
21
6.75803106882170
31
0.000000000000000
  0
LINE
  5
F10569
330
F1056A
100
AcDbEntity
8
Geo
100
AcDbLine
10
-62.8382133995037
20
6.75803106882170
30
0.000000000000000
11
-62.7382133995037
21
6.70111471462628
31
0.000000000000000
  0
LINE
  5
F1056B
330
F1056C
100
AcDbEntity
8
Geo
100
AcDbLine
10
-62.7382133995037
20
6.70111471462628
30
0.000000000000000
11
-62.6382133995037
21
6.64427367358286
31
0.000000000000000
  0
LINE
  5
F1056D
330
F1056E
100
AcDbEntity
8
Geo
100
AcDbLine
10
-62.6382133995037
20
6.64427367358286
30
0.000000000000000
11
-62.5382133995037
21
6.58752899727911
31
0.000000000000000
  0
LINE
  5
F1056F
330
F10570
100
AcDbEntity
8
Geo
100
AcDbLine
10
-62.5382133995037
20
6.58752899727911
30
0.000000000000000
11
-62.4382133995038
21
6.53090170161316
31
0.000000000000000
  0
LINE
  5
F10571
330
F10572
100
AcDbEntity
8
Geo
100
AcDbLine
10
-62.4382133995038
20
6.53090170161316
30
0.000000000000000
11
-62.3382133995038
21
6.47441275901017
31
0.000000000000000
  0
LINE
  5
F10573
330
F10574
100
AcDbEntity
8
Geo
100
AcDbLine
10
-62.3382133995038
20
6.47441275901017
30
0.000000000000000
11
-62.2382133995037
21
6.41808309065501
31
0.000000000000000
  0
LINE
  5
F10575
330
F10576
100
AcDbEntity
8
Geo
100
AcDbLine
10
-62.2382133995037
20
6.41808309065501
30
0.000000000000000
11
-62.1382133995037
21
6.36193355874390
31
0.000000000000000
  0
LINE
  5
F10577
330
F10578
100
AcDbEntity
8
Geo
100
AcDbLine
10
-62.1382133995037
20
6.36193355874390
30
0.000000000000000
11
-62.0382133995037
21
6.30598495875792
31
0.000000000000000
  0
LINE
  5
F10579
330
F1057A
100
AcDbEntity
8
Geo
100
AcDbLine
10
-62.0382133995037
20
6.30598495875792
30
0.000000000000000
11
-61.9382133995038
21
6.25025801176122
31
0.000000000000000
  0
LINE
  5
F1057B
330
F1057C
100
AcDbEntity
8
Geo
100
AcDbLine
10
-61.9382133995038
20
6.25025801176122
30
0.000000000000000
11
-61.8382133995038
21
6.19477335672679
31
0.000000000000000
  0
LINE
  5
F1057D
330
F1057E
100
AcDbEntity
8
Geo
100
AcDbLine
10
-61.8382133995038
20
6.19477335672679
30
0.000000000000000
11
-61.7382133995037
21
6.13955154289260
31
0.000000000000000
  0
LINE
  5
F1057F
330
F10580
100
AcDbEntity
8
Geo
100
AcDbLine
10
-61.7382133995037
20
6.13955154289260
30
0.000000000000000
11
-61.6382133995038
21
6.08461302215107
31
0.000000000000000
  0
LINE
  5
F10581
330
F10582
100
AcDbEntity
8
Geo
100
AcDbLine
10
-61.6382133995038
20
6.08461302215107
30
0.000000000000000
11
-61.5382133995038
21
6.02997814147445
31
0.000000000000000
  0
LINE
  5
F10583
330
F10584
100
AcDbEntity
8
Geo
100
AcDbLine
10
-61.5382133995038
20
6.02997814147445
30
0.000000000000000
11
-61.4382133995038
21
5.97566713537921
31
0.000000000000000
  0
LINE
  5
F10585
330
F10586
100
AcDbEntity
8
Geo
100
AcDbLine
10
-61.4382133995038
20
5.97566713537921
30
0.000000000000000
11
-61.3382133995038
21
5.92170011843196
31
0.000000000000000
  0
LINE
  5
F10587
330
F10588
100
AcDbEntity
8
Geo
100
AcDbLine
10
-61.3382133995038
20
5.92170011843196
30
0.000000000000000
11
-61.2382133995037
21
5.86809707779986
31
0.000000000000000
  0
LINE
  5
F10589
330
F1058A
100
AcDbEntity
8
Geo
100
AcDbLine
10
-61.2382133995037
20
5.86809707779986
30
0.000000000000000
11
-61.1382133995038
21
5.81487786584816
31
0.000000000000000
  0
LINE
  5
F1058B
330
F1058C
100
AcDbEntity
8
Geo
100
AcDbLine
10
-61.1382133995038
20
5.81487786584816
30
0.000000000000000
11
-61.0382133995038
21
5.76206219278778
31
0.000000000000000
  0
LINE
  5
F1058D
330
F1058E
100
AcDbEntity
8
Geo
100
AcDbLine
10
-61.0382133995038
20
5.76206219278778
30
0.000000000000000
11
-60.9382133995038
21
5.70966961937536
31
0.000000000000000
  0
LINE
  5
F1058F
330
F10590
100
AcDbEntity
8
Geo
100
AcDbLine
10
-60.9382133995038
20
5.70966961937536
30
0.000000000000000
11
-60.8382133995038
21
5.65771954966882
31
0.000000000000000
  0
LINE
  5
F10591
330
F10592
100
AcDbEntity
8
Geo
100
AcDbLine
10
-60.8382133995038
20
5.65771954966882
30
0.000000000000000
11
-60.7382133995038
21
5.60623122384087
31
0.000000000000000
  0
LINE
  5
F10593
330
F10594
100
AcDbEntity
8
Geo
100
AcDbLine
10
-60.7382133995038
20
5.60623122384087
30
0.000000000000000
11
-60.6382133995038
21
5.55522371105325
31
0.000000000000000
  0
LINE
  5
F10595
330
F10596
100
AcDbEntity
8
Geo
100
AcDbLine
10
-60.6382133995038
20
5.55522371105325
30
0.000000000000000
11
-60.5382133995038
21
5.50471590239431
31
0.000000000000000
  0
LINE
  5
F10597
330
F10598
100
AcDbEntity
8
Geo
100
AcDbLine
10
-60.5382133995038
20
5.50471590239431
30
0.000000000000000
11
-60.4382133995038
21
5.45472650388247
31
0.000000000000000
  0
LINE
  5
F10599
330
F1059A
100
AcDbEntity
8
Geo
100
AcDbLine
10
-60.4382133995038
20
5.45472650388247
30
0.000000000000000
11
-60.3382133995038
21
5.40527402953836
31
0.000000000000000
  0
LINE
  5
F1059B
330
F1059C
100
AcDbEntity
8
Geo
100
AcDbLine
10
-60.3382133995038
20
5.40527402953836
30
0.000000000000000
11
-60.2382133995038
21
5.35637679452792
31
0.000000000000000
  0
LINE
  5
F1059D
330
F1059E
100
AcDbEntity
8
Geo
100
AcDbLine
10
-60.2382133995038
20
5.35637679452792
30
0.000000000000000
11
-60.1382133995038
21
5.30805290837923
31
0.000000000000000
  0
LINE
  5
F1059F
330
F105A0
100
AcDbEntity
8
Geo
100
AcDbLine
10
-60.1382133995038
20
5.30805290837923
30
0.000000000000000
11
-60.0382133995038
21
5.26032026827553
31
0.000000000000000
  0
LINE
  5
F105A1
330
F105A2
100
AcDbEntity
8
Geo
100
AcDbLine
10
-60.0382133995038
20
5.26032026827553
30
0.000000000000000
11
-59.9382133995038
21
5.21319655242676
31
0.000000000000000
  0
LINE
  5
F105A3
330
F105A4
100
AcDbEntity
8
Geo
100
AcDbLine
10
-59.9382133995038
20
5.21319655242676
30
0.000000000000000
11
-59.8382133995038
21
5.16669921352236
31
0.000000000000000
  0
LINE
  5
F105A5
330
F105A6
100
AcDbEntity
8
Geo
100
AcDbLine
10
-59.8382133995038
20
5.16669921352236
30
0.000000000000000
11
-59.7382133995038
21
5.12084547226743
31
0.000000000000000
  0
LINE
  5
F105A7
330
F105A8
100
AcDbEntity
8
Geo
100
AcDbLine
10
-59.7382133995038
20
5.12084547226743
30
0.000000000000000
11
-59.6382133995038
21
5.07565231100495
31
0.000000000000000
  0
LINE
  5
F105A9
330
F105AA
100
AcDbEntity
8
Geo
100
AcDbLine
10
-59.6382133995038
20
5.07565231100495
30
0.000000000000000
11
-59.5382133995038
21
5.03113646742620
31
0.000000000000000
  0
LINE
  5
F105AB
330
F105AC
100
AcDbEntity
8
Geo
100
AcDbLine
10
-59.5382133995038
20
5.03113646742620
30
0.000000000000000
11
-59.4382133995038
21
4.98731442837178
31
0.000000000000000
  0
LINE
  5
F105AD
330
F105AE
100
AcDbEntity
8
Geo
100
AcDbLine
10
-59.4382133995038
20
4.98731442837178
30
0.000000000000000
11
-59.3382133995038
21
4.94420242372560
31
0.000000000000000
  0
LINE
  5
F105AF
330
F105B0
100
AcDbEntity
8
Geo
100
AcDbLine
10
-59.3382133995038
20
4.94420242372560
30
0.000000000000000
11
-59.2382133995038
21
4.90181642040396
31
0.000000000000000
  0
LINE
  5
F105B1
330
F105B2
100
AcDbEntity
8
Geo
100
AcDbLine
10
-59.2382133995038
20
4.90181642040396
30
0.000000000000000
11
-59.1382133995038
21
4.86017211644211
31
0.000000000000000
  0
LINE
  5
F105B3
330
F105B4
100
AcDbEntity
8
Geo
100
AcDbLine
10
-59.1382133995038
20
4.86017211644211
30
0.000000000000000
11
-59.0382133995038
21
4.81928493518028
31
0.000000000000000
  0
LINE
  5
F105B5
330
F105B6
100
AcDbEntity
8
Geo
100
AcDbLine
10
-59.0382133995038
20
4.81928493518028
30
0.000000000000000
11
-58.9382133995038
21
4.77917001955157
31
0.000000000000000
  0
LINE
  5
F105B7
330
F105B8
100
AcDbEntity
8
Geo
100
AcDbLine
10
-58.9382133995038
20
4.77917001955157
30
0.000000000000000
11
-58.8382133995038
21
4.73984222647357
31
0.000000000000000
  0
LINE
  5
F105B9
330
F105BA
100
AcDbEntity
8
Geo
100
AcDbLine
10
-58.8382133995038
20
4.73984222647357
30
0.000000000000000
11
-58.7382133995038
21
4.70131612134601
31
0.000000000000000
  0
LINE
  5
F105BB
330
F105BC
100
AcDbEntity
8
Geo
100
AcDbLine
10
-58.7382133995038
20
4.70131612134601
30
0.000000000000000
11
-58.6382133995038
21
4.66360597265634
31
0.000000000000000
  0
LINE
  5
F105BD
330
F105BE
100
AcDbEntity
8
Geo
100
AcDbLine
10
-58.6382133995038
20
4.66360597265634
30
0.000000000000000
11
-58.5382133995038
21
4.62672574669520
31
0.000000000000000
  0
LINE
  5
F105BF
330
F105C0
100
AcDbEntity
8
Geo
100
AcDbLine
10
-58.5382133995038
20
4.62672574669520
30
0.000000000000000
11
-58.4382133995038
21
4.59068910238399
31
0.000000000000000
  0
LINE
  5
F105C1
330
F105C2
100
AcDbEntity
8
Geo
100
AcDbLine
10
-58.4382133995038
20
4.59068910238399
30
0.000000000000000
11
-58.3382133995038
21
4.55550938621605
31
0.000000000000000
  0
LINE
  5
F105C3
330
F105C4
100
AcDbEntity
8
Geo
100
AcDbLine
10
-58.3382133995038
20
4.55550938621605
30
0.000000000000000
11
-58.2382133995038
21
4.52119962731376
31
0.000000000000000
  0
LINE
  5
F105C5
330
F105C6
100
AcDbEntity
8
Geo
100
AcDbLine
10
-58.2382133995038
20
4.52119962731376
30
0.000000000000000
11
-58.1382133995038
21
4.48777253260303
31
0.000000000000000
  0
LINE
  5
F105C7
330
F105C8
100
AcDbEntity
8
Geo
100
AcDbLine
10
-58.1382133995038
20
4.48777253260303
30
0.000000000000000
11
-58.0382133995038
21
4.45524048210720
31
0.000000000000000
  0
LINE
  5
F105C9
330
F105CA
100
AcDbEntity
8
Geo
100
AcDbLine
10
-58.0382133995038
20
4.45524048210720
30
0.000000000000000
11
-57.9382133995038
21
4.42361552436199
31
0.000000000000000
  0
LINE
  5
F105CB
330
F105CC
100
AcDbEntity
8
Geo
100
AcDbLine
10
-57.9382133995038
20
4.42361552436199
30
0.000000000000000
11
-57.8382133995038
21
4.39290937195321
31
0.000000000000000
  0
LINE
  5
F105CD
330
F105CE
100
AcDbEntity
8
Geo
100
AcDbLine
10
-57.8382133995038
20
4.39290937195321
30
0.000000000000000
11
-57.7382133995038
21
4.36313339717889
31
0.000000000000000
  0
LINE
  5
F105CF
330
F105D0
100
AcDbEntity
8
Geo
100
AcDbLine
10
-57.7382133995038
20
4.36313339717889
30
0.000000000000000
11
-57.6382133995038
21
4.33429862783747
31
0.000000000000000
  0
LINE
  5
F105D1
330
F105D2
100
AcDbEntity
8
Geo
100
AcDbLine
10
-57.6382133995038
20
4.33429862783747
30
0.000000000000000
11
-57.5382133995038
21
4.30641574314354
31
0.000000000000000
  0
LINE
  5
F105D3
330
F105D4
100
AcDbEntity
8
Geo
100
AcDbLine
10
-57.5382133995038
20
4.30641574314354
30
0.000000000000000
11
-57.4382133995038
21
4.27949506977269
31
0.000000000000000
  0
LINE
  5
F105D5
330
F105D6
100
AcDbEntity
8
Geo
100
AcDbLine
10
-57.4382133995038
20
4.27949506977269
30
0.000000000000000
11
-57.3382133995038
21
4.25354657803696
31
0.000000000000000
  0
LINE
  5
F105D7
330
F105D8
100
AcDbEntity
8
Geo
100
AcDbLine
10
-57.3382133995038
20
4.25354657803696
30
0.000000000000000
11
-57.2382133995038
21
4.22857987819224
31
0.000000000000000
  0
LINE
  5
F105D9
330
F105DA
100
AcDbEntity
8
Geo
100
AcDbLine
10
-57.2382133995038
20
4.22857987819224
30
0.000000000000000
11
-57.1382133995038
21
4.20460421687898
31
0.000000000000000
  0
LINE
  5
F105DB
330
F105DC
100
AcDbEntity
8
Geo
100
AcDbLine
10
-57.1382133995038
20
4.20460421687898
30
0.000000000000000
11
-57.0382133995038
21
4.18162847369769
31
0.000000000000000
  0
LINE
  5
F105DD
330
F105DE
100
AcDbEntity
8
Geo
100
AcDbLine
10
-57.0382133995038
20
4.18162847369769
30
0.000000000000000
11
-56.9382133995038
21
4.15966115792024
31
0.000000000000000
  0
LINE
  5
F105DF
330
F105E0
100
AcDbEntity
8
Geo
100
AcDbLine
10
-56.9382133995038
20
4.15966115792024
30
0.000000000000000
11
-56.8382133995038
21
4.13871040533841
31
0.000000000000000
  0
LINE
  5
F105E1
330
F105E2
100
AcDbEntity
8
Geo
100
AcDbLine
10
-56.8382133995038
20
4.13871040533841
30
0.000000000000000
11
-56.7382133995038
21
4.11878397525069
31
0.000000000000000
  0
LINE
  5
F105E3
330
F105E4
100
AcDbEntity
8
Geo
100
AcDbLine
10
-56.7382133995038
20
4.11878397525069
30
0.000000000000000
11
-56.6382133995038
21
4.09988924758860
31
0.000000000000000
  0
LINE
  5
F105E5
330
F105E6
100
AcDbEntity
8
Geo
100
AcDbLine
10
-56.6382133995038
20
4.09988924758860
30
0.000000000000000
11
-56.5382133995038
21
4.08203322018343
31
0.000000000000000
  0
LINE
  5
F105E7
330
F105E8
100
AcDbEntity
8
Geo
100
AcDbLine
10
-56.5382133995038
20
4.08203322018343
30
0.000000000000000
11
-56.4382133995038
21
4.06522250617456
31
0.000000000000000
  0
LINE
  5
F105E9
330
F105EA
100
AcDbEntity
8
Geo
100
AcDbLine
10
-56.4382133995038
20
4.06522250617456
30
0.000000000000000
11
-56.3382133995038
21
4.04946333156019
31
0.000000000000000
  0
LINE
  5
F105EB
330
F105EC
100
AcDbEntity
8
Geo
100
AcDbLine
10
-56.3382133995038
20
4.04946333156019
30
0.000000000000000
11
-56.2382133995038
21
4.03476153289152
31
0.000000000000000
  0
LINE
  5
F105ED
330
F105EE
100
AcDbEntity
8
Geo
100
AcDbLine
10
-56.2382133995038
20
4.03476153289152
30
0.000000000000000
11
-56.1382133995038
21
4.02112255511110
31
0.000000000000000
  0
LINE
  5
F105EF
330
F105F0
100
AcDbEntity
8
Geo
100
AcDbLine
10
-56.1382133995038
20
4.02112255511110
30
0.000000000000000
11
-56.0382133995038
21
4.00855144953630
31
0.000000000000000
  0
LINE
  5
F105F1
330
F105F2
100
AcDbEntity
8
Geo
100
AcDbLine
10
-56.0382133995038
20
4.00855144953630
30
0.000000000000000
11
-55.9382133995038
21
3.99705287198842
31
0.000000000000000
  0
LINE
  5
F105F3
330
F105F4
100
AcDbEntity
8
Geo
100
AcDbLine
10
-55.9382133995038
20
3.99705287198842
30
0.000000000000000
11
-55.8382133995038
21
3.98663108106846
31
0.000000000000000
  0
LINE
  5
F105F5
330
F105F6
100
AcDbEntity
8
Geo
100
AcDbLine
10
-55.8382133995038
20
3.98663108106846
30
0.000000000000000
11
-55.7382133995038
21
3.97728993657985
31
0.000000000000000
  0
LINE
  5
F105F7
330
F105F8
100
AcDbEntity
8
Geo
100
AcDbLine
10
-55.7382133995038
20
3.97728993657985
30
0.000000000000000
11
-55.6382133995038
21
3.96903289809894
31
0.000000000000000
  0
LINE
  5
F105F9
330
F105FA
100
AcDbEntity
8
Geo
100
AcDbLine
10
-55.6382133995038
20
3.96903289809894
30
0.000000000000000
11
-55.5382133995038
21
3.96186302369377
31
0.000000000000000
  0
LINE
  5
F105FB
330
F105FC
100
AcDbEntity
8
Geo
100
AcDbLine
10
-55.5382133995038
20
3.96186302369377
30
0.000000000000000
11
-55.4382133995038
21
3.95578296879139
31
0.000000000000000
  0
LINE
  5
F105FD
330
F105FE
100
AcDbEntity
8
Geo
100
AcDbLine
10
-55.4382133995038
20
3.95578296879139
30
0.000000000000000
11
-55.3382133995038
21
3.95079498519451
31
0.000000000000000
  0
LINE
  5
F105FF
330
F10600
100
AcDbEntity
8
Geo
100
AcDbLine
10
-55.3382133995038
20
3.95079498519451
30
0.000000000000000
11
-55.2382133995038
21
3.94690092024743
31
0.000000000000000
  0
LINE
  5
F10601
330
F10602
100
AcDbEntity
8
Geo
100
AcDbLine
10
-55.2382133995038
20
3.94690092024743
30
0.000000000000000
11
-55.1382133995038
21
3.94410221615192
31
0.000000000000000
  0
LINE
  5
F10603
330
F10604
100
AcDbEntity
8
Geo
100
AcDbLine
10
-55.1382133995038
20
3.94410221615192
30
0.000000000000000
11
-55.0382133995038
21
3.94239990943305
31
0.000000000000000
  0
LINE
  5
F10605
330
F10606
100
AcDbEntity
8
Geo
100
AcDbLine
10
-55.0382133995038
20
3.94239990943305
30
0.000000000000000
11
-54.9382133995038
21
3.94179463055535
31
0.000000000000000
  0
LINE
  5
F10607
330
F10608
100
AcDbEntity
8
Geo
100
AcDbLine
10
-54.8382133995038
20
9.86664639879217
30
0.000000000000000
11
-54.7382133995038
21
9.86505735585332
31
0.000000000000000
  0
LINE
  5
F10609
330
F1060A
100
AcDbEntity
8
Geo
100
AcDbLine
10
-54.7382133995038
20
9.86505735585332
30
0.000000000000000
11
-54.6382133995038
21
9.86237183162577
31
0.000000000000000
  0
LINE
  5
F1060B
330
F1060C
100
AcDbEntity
8
Geo
100
AcDbLine
10
-54.6382133995038
20
9.86237183162577
30
0.000000000000000
11
-54.5382133995038
21
9.85859082071744
31
0.000000000000000
  0
LINE
  5
F1060D
330
F1060E
100
AcDbEntity
8
Geo
100
AcDbLine
10
-54.5382133995038
20
9.85859082071744
30
0.000000000000000
11
-54.4382133995038
21
9.85371572345949
31
0.000000000000000
  0
LINE
  5
F1060F
330
F10610
100
AcDbEntity
8
Geo
100
AcDbLine
10
-54.4382133995038
20
9.85371572345949
30
0.000000000000000
11
-54.3382133995038
21
9.84774834538781
31
0.000000000000000
  0
LINE
  5
F10611
330
F10612
100
AcDbEntity
8
Geo
100
AcDbLine
10
-54.3382133995038
20
9.84774834538781
30
0.000000000000000
11
-54.2382133995038
21
9.84069089657418
31
0.000000000000000
  0
LINE
  5
F10613
330
F10614
100
AcDbEntity
8
Geo
100
AcDbLine
10
-54.2382133995038
20
9.84069089657418
30
0.000000000000000
11
-54.1382133995038
21
9.83254599080786
31
0.000000000000000
  0
LINE
  5
F10615
330
F10616
100
AcDbEntity
8
Geo
100
AcDbLine
10
-54.1382133995038
20
9.83254599080786
30
0.000000000000000
11
-54.0382133995038
21
9.82331664462752
31
0.000000000000000
  0
LINE
  5
F10617
330
F10618
100
AcDbEntity
8
Geo
100
AcDbLine
10
-54.0382133995038
20
9.82331664462752
30
0.000000000000000
11
-53.9382133995038
21
9.81300627620403
31
0.000000000000000
  0
LINE
  5
F10619
330
F1061A
100
AcDbEntity
8
Geo
100
AcDbLine
10
-53.9382133995038
20
9.81300627620403
30
0.000000000000000
11
-53.8382133995038
21
9.80161870407449
31
0.000000000000000
  0
LINE
  5
F1061B
330
F1061C
100
AcDbEntity
8
Geo
100
AcDbLine
10
-53.8382133995038
20
9.80161870407449
30
0.000000000000000
11
-53.7382133995038
21
9.78915814572803
31
0.000000000000000
  0
LINE
  5
F1061D
330
F1061E
100
AcDbEntity
8
Geo
100
AcDbLine
10
-53.7382133995038
20
9.78915814572803
30
0.000000000000000
11
-53.6382133995038
21
9.77562921604384
31
0.000000000000000
  0
LINE
  5
F1061F
330
F10620
100
AcDbEntity
8
Geo
100
AcDbLine
10
-53.6382133995038
20
9.77562921604384
30
0.000000000000000
11
-53.5382133995038
21
9.76103692558196
31
0.000000000000000
  0
LINE
  5
F10621
330
F10622
100
AcDbEntity
8
Geo
100
AcDbLine
10
-53.5382133995038
20
9.76103692558196
30
0.000000000000000
11
-53.4382133995038
21
9.74538667872761
31
0.000000000000000
  0
LINE
  5
F10623
330
F10624
100
AcDbEntity
8
Geo
100
AcDbLine
10
-53.4382133995038
20
9.74538667872761
30
0.000000000000000
11
-53.3382133995038
21
9.72868427168960
31
0.000000000000000
  0
LINE
  5
F10625
330
F10626
100
AcDbEntity
8
Geo
100
AcDbLine
10
-53.3382133995038
20
9.72868427168960
30
0.000000000000000
11
-53.2382133995038
21
9.71093589035371
31
0.000000000000000
  0
LINE
  5
F10627
330
F10628
100
AcDbEntity
8
Geo
100
AcDbLine
10
-53.2382133995038
20
9.71093589035371
30
0.000000000000000
11
-53.1382133995038
21
9.69214810799161
31
0.000000000000000
  0
LINE
  5
F10629
330
F1062A
100
AcDbEntity
8
Geo
100
AcDbLine
10
-53.1382133995038
20
9.69214810799161
30
0.000000000000000
11
-53.0382133995038
21
9.67232788282645
31
0.000000000000000
  0
LINE
  5
F1062B
330
F1062C
100
AcDbEntity
8
Geo
100
AcDbLine
10
-53.0382133995038
20
9.67232788282645
30
0.000000000000000
11
-52.9382133995038
21
9.65148255545580
31
0.000000000000000
  0
LINE
  5
F1062D
330
F1062E
100
AcDbEntity
8
Geo
100
AcDbLine
10
-52.9382133995038
20
9.65148255545580
30
0.000000000000000
11
-52.8382133995038
21
9.62961984613300
31
0.000000000000000
  0
LINE
  5
F1062F
330
F10630
100
AcDbEntity
8
Geo
100
AcDbLine
10
-52.8382133995038
20
9.62961984613300
30
0.000000000000000
11
-52.7382133995037
21
9.60674785190788
31
0.000000000000000
  0
LINE
  5
F10631
330
F10632
100
AcDbEntity
8
Geo
100
AcDbLine
10
-52.7382133995037
20
9.60674785190788
30
0.000000000000000
11
-52.6382133995037
21
9.58287504362796
31
0.000000000000000
  0
LINE
  5
F10633
330
F10634
100
AcDbEntity
8
Geo
100
AcDbLine
10
-52.6382133995037
20
9.58287504362796
30
0.000000000000000
11
-52.5382133995037
21
9.55801026280120
31
0.000000000000000
  0
LINE
  5
F10635
330
F10636
100
AcDbEntity
8
Geo
100
AcDbLine
10
-52.5382133995037
20
9.55801026280120
30
0.000000000000000
11
-52.4382133995037
21
9.53216271832145
31
0.000000000000000
  0
LINE
  5
F10637
330
F10638
100
AcDbEntity
8
Geo
100
AcDbLine
10
-52.4382133995037
20
9.53216271832145
30
0.000000000000000
11
-52.3382133995037
21
9.50534198305787
31
0.000000000000000
  0
LINE
  5
F10639
330
F1063A
100
AcDbEntity
8
Geo
100
AcDbLine
10
-52.3382133995037
20
9.50534198305787
30
0.000000000000000
11
-52.2382133995037
21
9.47755799030952
31
0.000000000000000
  0
LINE
  5
F1063B
330
F1063C
100
AcDbEntity
8
Geo
100
AcDbLine
10
-52.2382133995037
20
9.47755799030952
30
0.000000000000000
11
-52.1382133995037
21
9.44882103012648
31
0.000000000000000
  0
LINE
  5
F1063D
330
F1063E
100
AcDbEntity
8
Geo
100
AcDbLine
10
-52.1382133995037
20
9.44882103012648
30
0.000000000000000
11
-52.0382133995037
21
9.41914174549886
31
0.000000000000000
  0
LINE
  5
F1063F
330
F10640
100
AcDbEntity
8
Geo
100
AcDbLine
10
-52.0382133995037
20
9.41914174549886
30
0.000000000000000
11
-51.9382133995037
21
9.38853112841502
31
0.000000000000000
  0
LINE
  5
F10641
330
F10642
100
AcDbEntity
8
Geo
100
AcDbLine
10
-51.9382133995037
20
9.38853112841502
30
0.000000000000000
11
-51.8382133995037
21
9.35700051579063
31
0.000000000000000
  0
LINE
  5
F10643
330
F10644
100
AcDbEntity
8
Geo
100
AcDbLine
10
-51.8382133995037
20
9.35700051579063
30
0.000000000000000
11
-51.7382133995037
21
9.32456158526996
31
0.000000000000000
  0
LINE
  5
F10645
330
F10646
100
AcDbEntity
8
Geo
100
AcDbLine
10
-51.7382133995037
20
9.32456158526996
30
0.000000000000000
11
-51.6382133995037
21
9.29122635090089
31
0.000000000000000
  0
LINE
  5
F10647
330
F10648
100
AcDbEntity
8
Geo
100
AcDbLine
10
-51.6382133995037
20
9.29122635090089
30
0.000000000000000
11
-51.5382133995037
21
9.25700715868548
31
0.000000000000000
  0
LINE
  5
F10649
330
F1064A
100
AcDbEntity
8
Geo
100
AcDbLine
10
-51.5382133995037
20
9.25700715868548
30
0.000000000000000
11
-51.4382133995037
21
9.22191668200745
31
0.000000000000000
  0
LINE
  5
F1064B
330
F1064C
100
AcDbEntity
8
Geo
100
AcDbLine
10
-51.4382133995037
20
9.22191668200745
30
0.000000000000000
11
-51.3382133995037
21
9.18596791693853
31
0.000000000000000
  0
LINE
  5
F1064D
330
F1064E
100
AcDbEntity
8
Geo
100
AcDbLine
10
-51.3382133995037
20
9.18596791693853
30
0.000000000000000
11
-51.2382133995037
21
9.14917417742521
31
0.000000000000000
  0
LINE
  5
F1064F
330
F10650
100
AcDbEntity
8
Geo
100
AcDbLine
10
-51.2382133995037
20
9.14917417742521
30
0.000000000000000
11
-51.1382133995037
21
9.11154909035784
31
0.000000000000000
  0
LINE
  5
F10651
330
F10652
100
AcDbEntity
8
Geo
100
AcDbLine
10
-51.1382133995037
20
9.11154909035784
30
0.000000000000000
11
-51.0382133995037
21
9.07310659052376
31
0.000000000000000
  0
LINE
  5
F10653
330
F10654
100
AcDbEntity
8
Geo
100
AcDbLine
10
-51.0382133995037
20
9.07310659052376
30
0.000000000000000
11
-50.9382133995037
21
9.03386091544644
31
0.000000000000000
  0
LINE
  5
F10655
330
F10656
100
AcDbEntity
8
Geo
100
AcDbLine
10
-50.9382133995037
20
9.03386091544644
30
0.000000000000000
11
-50.8382133995037
21
8.99382660011245
31
0.000000000000000
  0
LINE
  5
F10657
330
F10658
100
AcDbEntity
8
Geo
100
AcDbLine
10
-50.8382133995037
20
8.99382660011245
30
0.000000000000000
11
-50.7382133995037
21
8.95301847158838
31
0.000000000000000
  0
LINE
  5
F10659
330
F1065A
100
AcDbEntity
8
Geo
100
AcDbLine
10
-50.7382133995037
20
8.95301847158838
30
0.000000000000000
11
-50.6382133995037
21
8.91145164352941
31
0.000000000000000
  0
LINE
  5
F1065B
330
F1065C
100
AcDbEntity
8
Geo
100
AcDbLine
10
-50.6382133995037
20
8.91145164352941
30
0.000000000000000
11
-50.5382133995037
21
8.86914151058190
31
0.000000000000000
  0
LINE
  5
F1065D
330
F1065E
100
AcDbEntity
8
Geo
100
AcDbLine
10
-50.5382133995037
20
8.86914151058190
30
0.000000000000000
11
-50.4382133995037
21
8.82610374268181
31
0.000000000000000
  0
LINE
  5
F1065F
330
F10660
100
AcDbEntity
8
Geo
100
AcDbLine
10
-50.4382133995037
20
8.82610374268181
30
0.000000000000000
11
-50.3382133995037
21
8.78235427925120
31
0.000000000000000
  0
LINE
  5
F10661
330
F10662
100
AcDbEntity
8
Geo
100
AcDbLine
10
-50.3382133995037
20
8.78235427925120
30
0.000000000000000
11
-50.2382133995037
21
8.73790932329495
31
0.000000000000000
  0
LINE
  5
F10663
330
F10664
100
AcDbEntity
8
Geo
100
AcDbLine
10
-50.2382133995037
20
8.73790932329495
30
0.000000000000000
11
-50.1382133995037
21
8.69278533539981
31
0.000000000000000
  0
LINE
  5
F10665
330
F10666
100
AcDbEntity
8
Geo
100
AcDbLine
10
-50.1382133995037
20
8.69278533539981
30
0.000000000000000
11
-50.0382133995037
21
8.64699902763808
31
0.000000000000000
  0
LINE
  5
F10667
330
F10668
100
AcDbEntity
8
Geo
100
AcDbLine
10
-50.0382133995037
20
8.64699902763808
30
0.000000000000000
11
-49.9382133995037
21
8.60056735737812
31
0.000000000000000
  0
LINE
  5
F10669
330
F1066A
100
AcDbEntity
8
Geo
100
AcDbLine
10
-49.9382133995037
20
8.60056735737812
30
0.000000000000000
11
-49.8382133995037
21
8.55350752100409
31
0.000000000000000
  0
LINE
  5
F1066B
330
F1066C
100
AcDbEntity
8
Geo
100
AcDbLine
10
-49.8382133995037
20
8.55350752100409
30
0.000000000000000
11
-49.7382133995037
21
8.50583694754708
31
0.000000000000000
  0
LINE
  5
F1066D
330
F1066E
100
AcDbEntity
8
Geo
100
AcDbLine
10
-49.7382133995037
20
8.50583694754708
30
0.000000000000000
11
-49.6382133995037
21
8.45757329223010
31
0.000000000000000
  0
LINE
  5
F1066F
330
F10670
100
AcDbEntity
8
Geo
100
AcDbLine
10
-49.6382133995037
20
8.45757329223010
30
0.000000000000000
11
-49.5382133995037
21
8.40873442992935
31
0.000000000000000
  0
LINE
  5
F10671
330
F10672
100
AcDbEntity
8
Geo
100
AcDbLine
10
-49.5382133995037
20
8.40873442992935
30
0.000000000000000
11
-49.4382133995037
21
8.35933844855407
31
0.000000000000000
  0
LINE
  5
F10673
330
F10674
100
AcDbEntity
8
Geo
100
AcDbLine
10
-49.4382133995037
20
8.35933844855407
30
0.000000000000000
11
-49.3382133995037
21
8.30940364234751
31
0.000000000000000
  0
LINE
  5
F10675
330
F10676
100
AcDbEntity
8
Geo
100
AcDbLine
10
-49.3382133995037
20
8.30940364234751
30
0.000000000000000
11
-49.2382133995037
21
8.25894850511157
31
0.000000000000000
  0
LINE
  5
F10677
330
F10678
100
AcDbEntity
8
Geo
100
AcDbLine
10
-49.2382133995037
20
8.25894850511157
30
0.000000000000000
11
-49.1382133995037
21
8.20799172335732
31
0.000000000000000
  0
LINE
  5
F10679
330
F1067A
100
AcDbEntity
8
Geo
100
AcDbLine
10
-49.1382133995037
20
8.20799172335732
30
0.000000000000000
11
-49.0382133995037
21
8.15655216938443
31
0.000000000000000
  0
LINE
  5
F1067B
330
F1067C
100
AcDbEntity
8
Geo
100
AcDbLine
10
-49.0382133995037
20
8.15655216938443
30
0.000000000000000
11
-48.9382133995037
21
8.10464889429154
31
0.000000000000000
  0
LINE
  5
F1067D
330
F1067E
100
AcDbEntity
8
Geo
100
AcDbLine
10
-48.9382133995037
20
8.10464889429154
30
0.000000000000000
11
-48.8382133995037
21
8.05230112092056
31
0.000000000000000
  0
LINE
  5
F1067F
330
F10680
100
AcDbEntity
8
Geo
100
AcDbLine
10
-48.8382133995037
20
8.05230112092056
30
0.000000000000000
11
-48.7382133995037
21
7.99952823673731
31
0.000000000000000
  0
LINE
  5
F10681
330
F10682
100
AcDbEntity
8
Geo
100
AcDbLine
10
-48.7382133995037
20
7.99952823673731
30
0.000000000000000
11
-48.6382133995037
21
7.94634978665121
31
0.000000000000000
  0
LINE
  5
F10683
330
F10684
100
AcDbEntity
8
Geo
100
AcDbLine
10
-48.6382133995037
20
7.94634978665121
30
0.000000000000000
11
-48.5382133995037
21
7.89278546577662
31
0.000000000000000
  0
LINE
  5
F10685
330
F10686
100
AcDbEntity
8
Geo
100
AcDbLine
10
-48.5382133995037
20
7.89278546577662
30
0.000000000000000
11
-48.4382133995037
21
7.83885511213860
31
0.000000000000000
  0
LINE
  5
F10687
330
F10688
100
AcDbEntity
8
Geo
100
AcDbLine
10
-48.4382133995037
20
7.83885511213860
30
0.000000000000000
11
-48.3382133995037
21
7.78457869932573
31
0.000000000000000
  0
LINE
  5
F10689
330
F1068A
100
AcDbEntity
8
Geo
100
AcDbLine
10
-48.3382133995037
20
7.78457869932573
30
0.000000000000000
11
-48.2382133995037
21
7.72997632909269
31
0.000000000000000
  0
LINE
  5
F1068B
330
F1068C
100
AcDbEntity
8
Geo
100
AcDbLine
10
-48.2382133995037
20
7.72997632909269
30
0.000000000000000
11
-48.1382133995037
21
7.67506822391541
31
0.000000000000000
  0
LINE
  5
F1068D
330
F1068E
100
AcDbEntity
8
Geo
100
AcDbLine
10
-48.1382133995037
20
7.67506822391541
30
0.000000000000000
11
-48.0382133995037
21
7.61987471950147
31
0.000000000000000
  0
LINE
  5
F1068F
330
F10690
100
AcDbEntity
8
Geo
100
AcDbLine
10
-48.0382133995037
20
7.61987471950147
30
0.000000000000000
11
-47.9382133995037
21
7.56441625725863
31
0.000000000000000
  0
LINE
  5
F10691
330
F10692
100
AcDbEntity
8
Geo
100
AcDbLine
10
-47.9382133995037
20
7.56441625725863
30
0.000000000000000
11
-47.8382133995037
21
7.50871337672414
31
0.000000000000000
  0
LINE
  5
F10693
330
F10694
100
AcDbEntity
8
Geo
100
AcDbLine
10
-47.8382133995037
20
7.50871337672414
30
0.000000000000000
11
-47.7382133995037
21
7.45278670795776
31
0.000000000000000
  0
LINE
  5
F10695
330
F10696
100
AcDbEntity
8
Geo
100
AcDbLine
10
-47.7382133995037
20
7.45278670795776
30
0.000000000000000
11
-47.6382133995037
21
7.39665696390120
31
0.000000000000000
  0
LINE
  5
F10697
330
F10698
100
AcDbEntity
8
Geo
100
AcDbLine
10
-47.6382133995037
20
7.39665696390120
30
0.000000000000000
11
-47.5382133995037
21
7.34034493270694
31
0.000000000000000
  0
LINE
  5
F10699
330
F1069A
100
AcDbEntity
8
Geo
100
AcDbLine
10
-47.5382133995037
20
7.34034493270694
30
0.000000000000000
11
-47.4382133995037
21
7.28387147003914
31
0.000000000000000
  0
LINE
  5
F1069B
330
F1069C
100
AcDbEntity
8
Geo
100
AcDbLine
10
-47.4382133995037
20
7.28387147003914
30
0.000000000000000
11
-47.3382133995037
21
7.22725749134951
31
0.000000000000000
  0
LINE
  5
F1069D
330
F1069E
100
AcDbEntity
8
Geo
100
AcDbLine
10
-47.3382133995037
20
7.22725749134951
30
0.000000000000000
11
-47.2382133995037
21
7.17052396413117
31
0.000000000000000
  0
LINE
  5
F1069F
330
F106A0
100
AcDbEntity
8
Geo
100
AcDbLine
10
-47.2382133995037
20
7.17052396413117
30
0.000000000000000
11
-47.1382133995037
21
7.11369190015306
31
0.000000000000000
  0
LINE
  5
F106A1
330
F106A2
100
AcDbEntity
8
Geo
100
AcDbLine
10
-47.1382133995037
20
7.11369190015306
30
0.000000000000000
11
-47.0382133995037
21
7.05678234767813
31
0.000000000000000
  0
LINE
  5
F106A3
330
F106A4
100
AcDbEntity
8
Geo
100
AcDbLine
10
-47.0382133995037
20
7.05678234767813
30
0.000000000000000
11
-46.9382133995037
21
6.99981638366788
31
0.000000000000000
  0
LINE
  5
F106A5
330
F106A6
100
AcDbEntity
8
Geo
100
AcDbLine
10
-46.9382133995037
20
6.99981638366788
30
0.000000000000000
11
-46.8382133995037
21
6.94281510597631
31
0.000000000000000
  0
LINE
  5
F106A7
330
F106A8
100
AcDbEntity
8
Geo
100
AcDbLine
10
-46.8382133995037
20
6.94281510597631
30
0.000000000000000
11
-46.7382133995037
21
6.88579962553616
31
0.000000000000000
  0
LINE
  5
F106A9
330
F106AA
100
AcDbEntity
8
Geo
100
AcDbLine
10
-46.7382133995037
20
6.88579962553616
30
0.000000000000000
11
-46.6382133995037
21
6.82879105854029
31
0.000000000000000
  0
LINE
  5
F106AB
330
F106AC
100
AcDbEntity
8
Geo
100
AcDbLine
10
-46.6382133995037
20
6.82879105854029
30
0.000000000000000
11
-46.5382133995037
21
6.77181051862112
31
0.000000000000000
  0
LINE
  5
F106AD
330
F106AE
100
AcDbEntity
8
Geo
100
AcDbLine
10
-46.5382133995037
20
6.77181051862112
30
0.000000000000000
11
-46.4382133995037
21
6.71487910903097
31
0.000000000000000
  0
LINE
  5
F106AF
330
F106B0
100
AcDbEntity
8
Geo
100
AcDbLine
10
-46.4382133995037
20
6.71487910903097
30
0.000000000000000
11
-46.3382133995037
21
6.65801791482630
31
0.000000000000000
  0
LINE
  5
F106B1
330
F106B2
100
AcDbEntity
8
Geo
100
AcDbLine
10
-46.3382133995037
20
6.65801791482630
30
0.000000000000000
11
-46.2382133995037
21
6.60124799505870
31
0.000000000000000
  0
LINE
  5
F106B3
330
F106B4
100
AcDbEntity
8
Geo
100
AcDbLine
10
-46.2382133995037
20
6.60124799505870
30
0.000000000000000
11
-46.1382133995037
21
6.54459037497543
31
0.000000000000000
  0
LINE
  5
F106B5
330
F106B6
100
AcDbEntity
8
Geo
100
AcDbLine
10
-46.1382133995037
20
6.54459037497543
30
0.000000000000000
11
-46.0382133995037
21
6.48806603823258
31
0.000000000000000
  0
LINE
  5
F106B7
330
F106B8
100
AcDbEntity
8
Geo
100
AcDbLine
10
-46.0382133995037
20
6.48806603823258
30
0.000000000000000
11
-45.9382133995037
21
6.43169591912354
31
0.000000000000000
  0
LINE
  5
F106B9
330
F106BA
100
AcDbEntity
8
Geo
100
AcDbLine
10
-45.9382133995037
20
6.43169591912354
30
0.000000000000000
11
-45.8382133995037
21
6.37550089482584
31
0.000000000000000
  0
LINE
  5
F106BB
330
F106BC
100
AcDbEntity
8
Geo
100
AcDbLine
10
-45.8382133995037
20
6.37550089482584
30
0.000000000000000
11
-45.7382133995037
21
6.31950177766906
31
0.000000000000000
  0
LINE
  5
F106BD
330
F106BE
100
AcDbEntity
8
Geo
100
AcDbLine
10
-45.7382133995037
20
6.31950177766906
30
0.000000000000000
11
-45.6382133995036
21
6.26371930742686
31
0.000000000000000
  0
LINE
  5
F106BF
330
F106C0
100
AcDbEntity
8
Geo
100
AcDbLine
10
-45.6382133995036
20
6.26371930742686
30
0.000000000000000
11
-45.5382133995036
21
6.20817414363573
31
0.000000000000000
  0
LINE
  5
F106C1
330
F106C2
100
AcDbEntity
8
Geo
100
AcDbLine
10
-45.5382133995036
20
6.20817414363573
30
0.000000000000000
11
-45.4382133995036
21
6.15288685794363
31
0.000000000000000
  0
LINE
  5
F106C3
330
F106C4
100
AcDbEntity
8
Geo
100
AcDbLine
10
-45.4382133995036
20
6.15288685794363
30
0.000000000000000
11
-45.3382133995036
21
6.09787792649105
31
0.000000000000000
  0
LINE
  5
F106C5
330
F106C6
100
AcDbEntity
8
Geo
100
AcDbLine
10
-45.3382133995036
20
6.09787792649105
30
0.000000000000000
11
-45.2382133995036
21
6.04316772232747
31
0.000000000000000
  0
LINE
  5
F106C7
330
F106C8
100
AcDbEntity
8
Geo
100
AcDbLine
10
-45.2382133995036
20
6.04316772232747
30
0.000000000000000
11
-45.1382133995036
21
5.98877650786610
31
0.000000000000000
  0
LINE
  5
F106C9
330
F106CA
100
AcDbEntity
8
Geo
100
AcDbLine
10
-45.1382133995036
20
5.98877650786610
30
0.000000000000000
11
-45.0382133995036
21
5.93472442737943
31
0.000000000000000
  0
LINE
  5
F106CB
330
F106CC
100
AcDbEntity
8
Geo
100
AcDbLine
10
-45.0382133995036
20
5.93472442737943
30
0.000000000000000
11
-44.9382133995036
21
5.88103149953866
31
0.000000000000000
  0
LINE
  5
F106CD
330
F106CE
100
AcDbEntity
8
Geo
100
AcDbLine
10
-44.9382133995036
20
5.88103149953866
30
0.000000000000000
11
-44.8382133995036
21
5.82771760999958
31
0.000000000000000
  0
LINE
  5
F106CF
330
F106D0
100
AcDbEntity
8
Geo
100
AcDbLine
10
-70.7382133995037
20
6.90446650124071
30
0.000000000000000
11
-70.7382133995037
21
6.90446650124071
31
0.000000000000000
  0
LINE
  5
F106D1
330
F106D2
100
AcDbEntity
8
Geo
100
AcDbLine
10
-70.7382133995037
20
6.90446650124071
30
0.000000000000000
11
-70.7382133995037
21
6.90446650124071
31
0.000000000000000
  0
LINE
  5
F106D3
330
F106D4
100
AcDbEntity
8
Geo
100
AcDbLine
10
79.2617866004963
20
9.30446650124071
30
0.000000000000000
11
79.2617866004963
21
6.90446650124071
31
0.000000000000000
  0
LINE
  5
F106D5
330
F106D6
100
AcDbEntity
8
Geo
100
AcDbLine
10
-70.7382133995037
20
6.90446650124071
30
0.000000000000000
11
-70.7382133995037
21
4.40446650124071
31
0.000000000000000
  0
ARC
  5
F106D7
330
F106D8
100
AcDbEntity
8
Geo
100
AcDbCircle
10
-70.2382133995037
20
4.40446650124071
30
0.000000000000000
 40
0.500000000000000
100
AcDbArc
 50
180.000000000000
 51
270.000000000000
  0
LINE
  5
F106D9
330
F106DA
100
AcDbEntity
8
Geo
100
AcDbLine
10
-70.2382133995037
20
3.90446650124071
30
0.000000000000000
11
-44.7382133995037
21
3.90446650124071
31
0.000000000000000
  0
LINE
  5
F106DB
330
F106DC
100
AcDbEntity
8
Geo
100
AcDbLine
10
-44.7382133995037
20
3.90446650124071
30
0.000000000000000
11
-44.7382133995037
21
3.90496650124071
31
0.000000000000000
  0
LINE
  5
F106DD
330
F106DE
100
AcDbEntity
8
Geo
100
AcDbLine
10
-44.7382133995037
20
3.90496650124071
30
0.000000000000000
11
-42.7382133995037
21
3.90496650124071
31
0.000000000000000
  0
LINE
  5
F106DF
330
F106E0
100
AcDbEntity
8
Geo
100
AcDbLine
10
-42.7382133995037
20
3.90496650124071
30
0.000000000000000
11
-42.7382133995037
21
3.90446650124071
31
0.000000000000000
  0
LINE
  5
F106E1
330
F106E2
100
AcDbEntity
8
Geo
100
AcDbLine
10
-42.7382133995037
20
3.90446650124071
30
0.000000000000000
11
78.6617866004963
21
3.90446650124071
31
0.000000000000000
  0
LINE
  5
F106E3
330
F106E4
100
AcDbEntity
8
Geo
100
AcDbLine
10
78.6617866004963
20
3.90446650124071
30
0.000000000000000
11
79.2617866004963
21
4.50446650124070
31
0.000000000000000
  0
LINE
  5
F106E5
330
F106E6
100
AcDbEntity
8
Geo
100
AcDbLine
10
-70.2382133995037
20
9.90446650124071
30
0.000000000000000
11
-70.2382133995037
21
3.90446650124071
31
0.000000000000000
  0
LINE
  5
F106E7
330
F106E8
100
AcDbEntity
8
Geo
100
AcDbLine
10
-70.2382133995037
20
9.90446650124071
30
0.000000000000000
11
-70.2382133995037
21
3.90446650124071
31
0.000000000000000
  0
LINE
  5
F106E9
330
F106EA
100
AcDbEntity
8
Geo
100
AcDbLine
10
-44.7382133995037
20
9.90446650124071
30
0.000000000000000
11
-44.7382133995037
21
3.90446650124071
31
0.000000000000000
  0
LINE
  5
F106EB
330
F106EC
100
AcDbEntity
8
Geo
100
AcDbLine
10
-44.7382133995037
20
9.90396650124070
30
0.000000000000000
11
-44.7382133995037
21
3.90496650124071
31
0.000000000000000
  0
LINE
  5
F106ED
330
F106EE
100
AcDbEntity
8
Geo
100
AcDbLine
10
-42.7382133995037
20
9.90396650124070
30
0.000000000000000
11
-42.7382133995037
21
3.90496650124071
31
0.000000000000000
  0
LINE
  5
F106EF
330
F106F0
100
AcDbEntity
8
Geo
100
AcDbLine
10
-42.7382133995037
20
9.90396650124070
30
0.000000000000000
11
-42.7382133995037
21
3.90496650124071
31
0.000000000000000
  0
LINE
  5
F106F1
330
F106F2
100
AcDbEntity
8
Geo
100
AcDbLine
10
78.6617866004963
20
9.90446650124071
30
0.000000000000000
11
78.6617866004963
21
3.90446650124071
31
0.000000000000000
  0
LINE
  5
F106F3
330
F106F4
100
AcDbEntity
8
Geo
100
AcDbLine
10
79.2617866004963
20
9.30446650124071
30
0.000000000000000
11
79.2617866004963
21
4.50446650124070
31
0.000000000000000
  0
LWPOLYLINE
  5
F106F5
330
F106F6
100
AcDbEntity
8
Rahmen
100
AcDbPolyline
90
   4
70
   1
43
   0.0
 10
-134.702233250620
 20
99.7890818858561
 10
143.300248138958
 20
99.7890818858561
 10
143.300248138958
 20
-100.049627791563
 10
-134.702233250620
 20
-100.049627791563
  0
TEXT
  5
F106F7
330
F106F8
 100
AcDbEntity
8
Text
100
AcDbText
10
-133.660049627792
20
-99.5496277915633
30
0.000000000000000
40
1.00000000000000
1
ISBESketcher - ©ISBE GmbH      Licensed for: Van Hoorn Hardmetaal BV
100
AcDbText
  0
LWPOLYLINE
  5
F106F9
330
F106FA
100
AcDbEntity
8
Rahmen
100
AcDbPolyline
90
   4
70
   1
43
   0.0
 10
103.436724565757
 20
-97.1836228287841
 10
143.300248138958
 20
-97.1836228287841
 10
143.300248138958
 20
-100.049627791563
 10
103.436724565757
 20
-100.049627791563
  0
TEXT
  5
F106FB
330
F106FC
 100
AcDbEntity
8
Text
100
AcDbText
10
104.478908188586
20
-98.1836228287841
30
0.000000000000000
40
0.750000000000000
1
Created by:
100
AcDbText
  0
TEXT
  5
F106FD
330
F106FE
 100
AcDbEntity
8
Text
100
AcDbText
10
131.315136476427
20
-99.4863523573201
30
0.000000000000000
40
0.750000000000000
1

100
AcDbText
  0
LWPOLYLINE
  5
F106FF
330
F10700
100
AcDbEntity
8
Rahmen
100
AcDbPolyline
90
   4
70
   1
43
   0.0
 10
63.3126550868486
 20
-97.1836228287841
 10
103.436724565757
 20
-97.1836228287841
 10
103.436724565757
 20
-100.049627791563
 10
63.3126550868486
 20
-100.049627791563
  0
TEXT
  5
F10701
330
F10702
 100
AcDbEntity
8
Text
100
AcDbText
10
64.3548387096774
20
-98.1836228287841
30
0.000000000000000
40
0.750000000000000
1
Created for:
100
AcDbText
  0
TEXT
  5
F10703
330
F10704
 100
AcDbEntity
8
Text
100
AcDbText
10
91.4516129032258
20
-99.4863523573201
30
0.000000000000000
40
0.750000000000000
1

100
AcDbText
  0
LWPOLYLINE
  5
F10705
330
F10706
100
AcDbEntity
8
Rahmen
100
AcDbPolyline
90
   4
70
   1
43
   0.0
 10
130.012406947891
 20
-94.0570719602978
 10
143.300248138958
 20
-94.0570719602978
 10
143.300248138958
 20
-97.1836228287841
 10
130.012406947891
 20
-97.1836228287841
  0
TEXT
  5
F10707
330
F10708
 100
AcDbEntity
8
Text
100
AcDbText
10
131.054590570720
20
-95.0570719602978
30
0.000000000000000
40
0.750000000000000
1
Pages
100
AcDbText
  0
TEXT
  5
F10709
330
F1070A
 100
AcDbEntity
8
Text
100
AcDbText
10
141.215880893300
20
-96.3598014888337
30
0.000000000000000
40
0.750000000000000
1

100
AcDbText
  0
LWPOLYLINE
  5
F1070B
330
F1070C
100
AcDbEntity
8
Rahmen
100
AcDbPolyline
90
   4
70
   1
43
   0.0
 10
130.012406947891
 20
-91.1910669975186
 10
143.300248138958
 20
-91.1910669975186
 10
143.300248138958
 20
-94.0570719602978
 10
130.012406947891
 20
-94.0570719602978
  0
TEXT
  5
F1070D
330
F1070E
 100
AcDbEntity
8
Text
100
AcDbText
10
131.054590570720
20
-92.1910669975186
30
0.000000000000000
40
0.750000000000000
1
Page
100
AcDbText
  0
TEXT
  5
F1070F
330
F10710
 100
AcDbEntity
8
Text
100
AcDbText
10
141.215880893300
20
-93.4937965260546
30
0.000000000000000
40
0.750000000000000
1

100
AcDbText
  0
LWPOLYLINE
  5
F10711
330
F10712
100
AcDbEntity
8
Rahmen
100
AcDbPolyline
90
   4
70
   1
43
   0.0
 10
63.3126550868486
 20
-91.1910669975186
 10
130.012406947891
 20
-91.1910669975186
 10
130.012406947891
 20
-97.1836228287841
 10
63.3126550868486
 20
-97.1836228287841
  0
TEXT
  5
F10713
330
F10714
 100
AcDbEntity
8
Text
100
AcDbText
10
64.3548387096774
20
-92.1910669975186
30
0.000000000000000
40
0.750000000000000
1
Date:
100
AcDbText
  0
TEXT
  5
F10715
330
F10716
 100
AcDbEntity
8
Text
100
AcDbText
10
90.4094292803970
20
-95.0570719602978
30
0.000000000000000
40
0.750000000000000
1
21.09.2016
100
AcDbText
  0
LWPOLYLINE
  5
F10717
330
F10718
100
AcDbEntity
8
Rahmen
100
AcDbPolyline
90
   4
70
   1
43
   0.0
 10
63.3126550868486
 20
-85.1985111662531
 10
143.300248138958
 20
-85.1985111662531
 10
143.300248138958
 20
-91.1910669975186
 10
63.3126550868486
 20
-91.1910669975186
  0
TEXT
  5
F10719
330
F1071A
 100
AcDbEntity
8
Text
100
AcDbText
10
-166.228287841191
20
103.260545905707
30
0.000000000000000
40
1.50000000000000
1

100
AcDbText
  0
TEXT
  5
F1071B
330
F1071C
 100
AcDbEntity
8
Text
100
AcDbText
10
83.3746898263027
20
-89.0529363110008
30
0.000000000000000
40
2.50000000000000
1
VHGTF20601500602
100
AcDbText
  0
LWPOLYLINE
  5
F1071D
330
F1071E
100
AcDbEntity
8
Rahmen
100
AcDbPolyline
90
   4
70
   1
43
   0.0
 10
103.436724565757
 20
-79.2059553349876
 10
143.300248138958
 20
-79.2059553349876
 10
143.300248138958
 20
-85.1985111662531
 10
103.436724565757
 20
-85.1985111662531
  0
TEXT
  5
F1071F
330
F10720
 100
AcDbEntity
8
Text
100
AcDbText
10
104.478908188586
20
-80.2059553349876
30
0.000000000000000
40
0.750000000000000
1
Work piece material:
100
AcDbText
  0
TEXT
  5
F10721
330
F10722
 100
AcDbEntity
8
Text
100
AcDbText
10
123.238213399504
20
-84.3746898263027
30
0.000000000000000
40
0.750000000000000
1

100
AcDbText
  0
LWPOLYLINE
  5
F10723
330
F10724
100
AcDbEntity
8
Rahmen
100
AcDbPolyline
90
   4
70
   1
43
   0.0
 10
63.3126550868486
 20
-79.2059553349876
 10
103.436724565757
 20
-79.2059553349876
 10
103.436724565757
 20
-85.1985111662531
 10
63.3126550868486
 20
-85.1985111662531
  0
TEXT
  5
F10725
330
F10726
 100
AcDbEntity
8
Text
100
AcDbText
10
64.3548387096774
20
-80.2059553349876
30
0.000000000000000
40
0.750000000000000
1
Tool material:
100
AcDbText
  0
TEXT
  5
F10727
330
F10728
 100
AcDbEntity
8
Text
100
AcDbText
10
83.1141439205955
20
-84.3746898263027
30
0.000000000000000
40
0.750000000000000
1

100
AcDbText
  0
LWPOLYLINE
  5
F10729
330
F1072A
100
AcDbEntity
8
Rahmen
100
AcDbPolyline
90
   4
70
   1
43
   0.0
 10
103.436724565757
 20
-76.0794044665012
 10
143.300248138958
 20
-76.0794044665012
 10
143.300248138958
 20
-79.2059553349876
 10
103.436724565757
 20
-79.2059553349876
  0
TEXT
  5
F1072B
330
F1072C
 100
AcDbEntity
8
Text
100
AcDbText
10
-166.228287841191
20
103.260545905707
30
0.000000000000000
40
1.50000000000000
1

100
AcDbText
  0
TEXT
  5
F1072D
330
F1072E
 100
AcDbEntity
8
Text
100
AcDbText
10
123.238213399504
20
-78.3821339950372
30
0.000000000000000
40
0.750000000000000
1

100
AcDbText
  0
LWPOLYLINE
  5
F1072F
330
F10730
100
AcDbEntity
8
Rahmen
100
AcDbPolyline
90
   4
70
   1
43
   0.0
 10
63.3126550868486
 20
-76.0794044665012
 10
103.436724565757
 20
-76.0794044665012
 10
103.436724565757
 20
-79.2059553349876
 10
63.3126550868486
 20
-79.2059553349876
  0
TEXT
  5
F10731
330
F10732
 100
AcDbEntity
8
Text
100
AcDbText
10
64.3548387096774
20
-77.0794044665012
30
0.000000000000000
40
0.750000000000000
1
Scale:
100
AcDbText
  0
TEXT
  5
F10733
330
F10734
 100
AcDbEntity
8
Text
100
AcDbText
10
88.8461538461538
20
-77.0794044665012
30
0.000000000000000
40
0.750000000000000
1
1 : 1
100
AcDbText
0
VIEWPORT
5
294
102
{ACAD_XDICTIONARY
360
58A
102
}
330
25D
100
AcDbEntity
67
1
8
0
60
1
100
AcDbViewport
10
0.0
20
0.0
30
0.0
40
10.0
41
10.0
68
-1
69
1
12
0.0
22
0.0
13
0.0
23
0.0
14
1.0
24
1.0
15
0.0
25
0.0
16
0.0
26
0.0
36
1.0
17
0.0
27
0.0
37
0.0
42
0.0
43
0.0
44
0.0
45
10.0
50
0.0
51
0.0000000000007958
72
100
90
32800
1

281
0
71
0
74
0
110
0.0
120
0.0
130
0.0
111
1.0
121
0.0
131
0.0
112
0.0
122
1.0
132
0.0
79
0
146
0.0
1001
VD_INVISIBLE_NOT_FOR_READ
1000
VD_INVISIBLE_NOT_FOR_READ
0
VIEWPORT
5
295
102
{ACAD_XDICTIONARY
360
58C
102
}
330
25D
100
AcDbEntity
67
1
8
0
60
1
100
AcDbViewport
10
0.0
20
0.0
30
0.0
40
10.0
41
10.0
68
0
69
2
12
0.0
22
0.0
13
0.0
23
0.0
14
1.0
24
1.0
15
0.0
25
0.0
16
0.0
26
0.0
36
1.0
17
0.0
27
0.0
37
0.0
42
0.0
43
0.0
44
0.0
45
10.0
50
0.0
51
0.0000000000007958
72
100
90
163872
1

281
0
71
0
74
0
110
0.0
120
0.0
130
0.0
111
1.0
121
0.0
131
0.0
112
0.0
122
1.0
132
0.0
79
0
146
0.0
1001
VD_INVISIBLE_NOT_FOR_READ
1000
VD_INVISIBLE_NOT_FOR_READ
0
ENDSEC
0
SECTION
2
OBJECTS
0
DICTIONARY
5
13
330
0
100
AcDbDictionary
281
1
3
ACAD_COLOR
350
FA7
3
ACAD_GROUP
350
14
3
ACAD_LAYOUT
350
FCF
3
ACAD_MATERIAL
350
F7A
3
ACAD_MLEADERSTYLE
350
FCD
3
ACAD_MLINESTYLE
350
16
3
ACAD_PLOTSETTINGS
350
17
3
ACAD_PLOTSTYLENAME
350
18
3
ACAD_SCALELIST
350
FAB
3
ACAD_TABLESTYLE
350
FA8
3
ACAD_VISUALSTYLE
350
F93
3
ACDB_RECOMPOSE_DATA
350
107E
3
AcDbVariableDictionary
350
FF0
3
DWGPROPS
350
107F
0
DICTIONARY
5
F1000F
330
F1000E
100
AcDbDictionary
280
1
281
1
3
ACAD_MTEXT_2008_RT
360
F10010
0
DICTIONARY
5
F10019
330
F10018
100
AcDbDictionary
280
1
281
1
3
ACAD_MTEXT_2008_RT
360
F1001A
0
DICTIONARY
5
F1001E
330
F1001D
100
AcDbDictionary
280
1
281
1
3
ACAD_MTEXT_2008_RT
360
F1001F
0
DICTIONARY
5
F1000A
330
F10009
100
AcDbDictionary
280
1
281
1
3
ACAD_MTEXT_2008_RT
360
F1000B
0
DICTIONARY
5
F10005
330
F10004
100
AcDbDictionary
280
1
281
1
3
ACAD_MTEXT_2008_RT
360
F10006
0
DICTIONARY
5
F10014
330
F10013
100
AcDbDictionary
280
1
281
1
3
ACAD_MTEXT_2008_RT
360
F10015
0
DICTIONARY
5
FA7
102
{ACAD_REACTORS
330
13
102
}
330
13
100
AcDbDictionary
281
1
0
DICTIONARY
5
14
330
13
100
AcDbDictionary
281
1
0
DICTIONARY
5
FCF
102
{ACAD_REACTORS
330
13
102
}
330
13
100
AcDbDictionary
281
1
3
Layout1
350
FD1
3
Model
350
FD0
0
DICTIONARY
5
F7A
102
{ACAD_REACTORS
330
13
102
}
330
13
100
AcDbDictionary
281
1
3
ByBlock
350
F83
3
ByLayer
350
F7B
3
Global
350
F8B
0
DICTIONARY
5
FCD
102
{ACAD_REACTORS
330
13
102
}
330
13
100
AcDbDictionary
281
1
3
Standard
350
FCE
0
DICTIONARY
5
16
330
13
100
AcDbDictionary
281
1
3
Standard
350
FAA
0
DICTIONARY
5
17
102
{ACAD_REACTORS
330
13
102
}
330
13
100
AcDbDictionary
281
1
0
ACDBDICTIONARYWDFLT
5
18
102
{ACAD_REACTORS
330
13
102
}
330
13
100
AcDbDictionary
281
1
3
Normal
350
19
100
AcDbDictionaryWithDefault
340
19
0
DICTIONARY
5
FAB
102
{ACAD_REACTORS
330
13
102
}
330
13
100
AcDbDictionary
281
1
3
A0
350
FAC
3
A1
350
FAD
3
A2
350
FAE
3
A3
350
FAF
3
A4
350
FB0
3
A5
350
FB1
3
A6
350
FB2
3
A7
350
FB3
3
A8
350
FB4
3
A9
350
FB5
3
B0
350
FB6
3
B1
350
FB7
3
B2
350
FB8
3
B3
350
FB9
3
B4
350
FBA
3
B5
350
FBB
3
B6
350
FBC
3
B7
350
FBD
3
B8
350
FBE
3
B9
350
FBF
3
C0
350
FC0
3
C1
350
FC1
3
C2
350
FC2
3
C3
350
FC3
3
C4
350
FC4
3
C5
350
FC5
3
C6
350
FC6
3
C7
350
FC7
3
C8
350
FC8
3
C9
350
FC9
3
D0
350
FCA
3
D1
350
FCB
3
D2
350
FCC
0
DICTIONARY
5
FA8
102
{ACAD_REACTORS
330
13
102
}
330
13
100
AcDbDictionary
281
1
3
Standard
350
FA9
0
DICTIONARY
5
F93
102
{ACAD_REACTORS
330
13
102
}
330
13
100
AcDbDictionary
281
1
3
2dWireframe
350
F99
3
3D Hidden
350
F9B
3
3dWireframe
350
F9A
3
Basic
350
F98
3
Brighten
350
F9F
3
ColorChange
350
FA3
3
Conceptual
350
F9C
3
Dim
350
F9E
3
EdgeColorOff
350
FA6
3
Facepattern
350
FA2
3
Flat
350
F94
3
FlatWithEdges
350
F95
3
Gouraud
350
F96
3
GouraudWithEdges
350
F97
3
JitterOff
350
FA4
3
Linepattern
350
FA1
3
OverhangOff
350
FA5
3
Realistic
350
F9D
3
Thicken
350
FA0
0
XRECORD
5
107E
102
{ACAD_REACTORS
330
13
102
}
330
13
100
AcDbXrecord
280
1
90
1
330
FA9
330
F1000E
330
F10018
330
F1001D
330
F10009
330
F10004
330
F10013
0
DICTIONARY
5
FF0
102
{ACAD_REACTORS
330
13
102
}
330
13
100
AcDbDictionary
281
1
3
CANNOSCALE
350
FF3
3
CMLEADERSTYLE
350
FF2
3
CTABLESTYLE
350
FF1
3
DIMASSOC
350
FF6
3
INDEXCTL
350
FF5
3
SORTENTS
350
FF4
3
XCLIPFRAME
350
1078
0
XRECORD
5
107F
102
{ACAD_REACTORS
330
13
102
}
330
13
100
AcDbXrecord
280
1
1
DWGPROPS COOKIE
2

3

4

6

7

8

9

300
=
301
=
302
=
303
=
304
=
305
=
306
=
307
=
308
=
309
=
40
0.0
41
0.0
42
0.0
1

90
0
0
XRECORD
5
F10010
102
{ACAD_REACTORS
330
F1000F
102
}
330
F1000F
100
AcDbXrecord
280
1
40
48458.0
1
\A1;122
0
XRECORD
5
F1001A
102
{ACAD_REACTORS
330
F10019
102
}
330
F10019
100
AcDbXrecord
280
1
40
48458.0
1
\A1;26
0
XRECORD
5
F1001F
102
{ACAD_REACTORS
330
F1001E
102
}
330
F1001E
100
AcDbXrecord
280
1
40
48458.0
1
\A1;150
0
XRECORD
5
F1000B
102
{ACAD_REACTORS
330
F1000A
102
}
330
F1000A
100
AcDbXrecord
280
1
40
48458.0
1
\A1;R0.5
0
XRECORD
5
F10006
102
{ACAD_REACTORS
330
F10005
102
}
330
F10005
100
AcDbXrecord
280
1
40
48458.0
1
\A1;6
0
LAYOUT
5
FD1
102
{ACAD_XDICTIONARY
360
10A9
102
}
102
{ACAD_REACTORS
330
FCF
102
}
330
FCF
100
AcDbPlotSettings
1

2
Microsoft XPS Document Writer
4

6

40
0.0
41
0.0
42
0.0
43
0.0
44
0.0
45
0.0
46
0.0
47
0.0
48
0.0
49
0.0
140
0.0
141
0.0
142
1.0
143
1.0
70
688
72
0
73
0
74
5
7

75
16
147
1.0
148
0.0
149
0.0
100
AcDbLayout
1
Layout1
70
1
71
1
10
0.0
20
0.0
11
12.0
21
9.0
12
0.0
22
0.0
32
0.0
14
1.000000000000000E+20
24
1.000000000000000E+20
34
1.000000000000000E+20
15
-1.000000000000000E+20
25
-1.000000000000000E+20
35
-1.000000000000000E+20
146
0.0
13
0.0
23
0.0
33
0.0
16
1.0
26
0.0
36
0.0
17
0.0
27
1.0
37
0.0
76
0
330
25D
0
LAYOUT
5
FD0
102
{ACAD_XDICTIONARY
360
10A7
102
}
102
{ACAD_REACTORS
330
FCF
102
}
330
FCF
100
AcDbPlotSettings
1

2
Microsoft XPS Document Writer
4

6

40
0.0
41
0.0
42
0.0
43
0.0
44
0.0
45
0.0
46
0.0
47
0.0
48
0.0
49
0.0
140
0.0
141
0.0
142
1.0
143
1.0
70
1712
72
0
73
0
74
0
7

75
0
147
1.0
148
0.0
149
0.0
100
AcDbLayout
1
Model
70
1
71
0
10
0.0
20
0.0
11
12.0
21
9.0
12
0.0
22
0.0
32
0.0
14
0.0
24
0.0
34
0.0
15
0.0
25
0.0
35
0.0
146
0.0
13
0.0
23
0.0
33
0.0
16
1.0
26
0.0
36
0.0
17
0.0
27
1.0
37
0.0
76
0
330
261
331
26B
0
MATERIAL
5
F83
102
{ACAD_XDICTIONARY
360
F84
102
}
102
{ACAD_REACTORS
330
F7A
102
}
330
F7A
100
AcDbMaterial
1
ByBlock
72
0
43
0.0208333333333333
43
0.0
43
0.0
43
0.0
43
0.0
43
0.0208333333333333
43
0.0
43
0.0
43
0.0
43
0.0
43
1.0
43
0.0
43
0.0
43
0.0
43
0.0
43
1.0
77
0
47
0.0208333333333333
47
0.0
47
0.0
47
0.0
47
0.0
47
0.0208333333333333
47
0.0
47
0.0
47
0.0
47
0.0
47
1.0
47
0.0
47
0.0
47
0.0
47
0.0
47
1.0
171
0
49
0.0208333333333333
49
0.0
49
0.0
49
0.0
49
0.0
49
0.0208333333333333
49
0.0
49
0.0
49
0.0
49
0.0
49
1.0
49
0.0
49
0.0
49
0.0
49
0.0
49
1.0
175
0
142
0.0208333333333333
142
0.0
142
0.0
142
0.0
142
0.0
142
0.0208333333333333
142
0.0
142
0.0
142
0.0
142
0.0
142
1.0
142
0.0
142
0.0
142
0.0
142
0.0
142
1.0
179
0
144
0.0208333333333333
144
0.0
144
0.0
144
0.0
144
0.0
144
0.0208333333333333
144
0.0
144
0.0
144
0.0
144
0.0
144
1.0
144
0.0
144
0.0
144
0.0
144
0.0
144
1.0
147
0.0208333333333333
147
0.0
147
0.0
147
0.0
147
0.0
147
0.0208333333333333
147
0.0
147
0.0
147
0.0
147
0.0
147
1.0
147
0.0
147
0.0
147
0.0
147
0.0
147
1.0
0
MATERIAL
5
F7B
102
{ACAD_XDICTIONARY
360
F7C
102
}
102
{ACAD_REACTORS
330
F7A
102
}
330
F7A
100
AcDbMaterial
1
ByLayer
72
0
43
0.0208333333333333
43
0.0
43
0.0
43
0.0
43
0.0
43
0.0208333333333333
43
0.0
43
0.0
43
0.0
43
0.0
43
1.0
43
0.0
43
0.0
43
0.0
43
0.0
43
1.0
77
0
47
0.0208333333333333
47
0.0
47
0.0
47
0.0
47
0.0
47
0.0208333333333333
47
0.0
47
0.0
47
0.0
47
0.0
47
1.0
47
0.0
47
0.0
47
0.0
47
0.0
47
1.0
171
0
49
0.0208333333333333
49
0.0
49
0.0
49
0.0
49
0.0
49
0.0208333333333333
49
0.0
49
0.0
49
0.0
49
0.0
49
1.0
49
0.0
49
0.0
49
0.0
49
0.0
49
1.0
175
0
142
0.0208333333333333
142
0.0
142
0.0
142
0.0
142
0.0
142
0.0208333333333333
142
0.0
142
0.0
142
0.0
142
0.0
142
1.0
142
0.0
142
0.0
142
0.0
142
0.0
142
1.0
179
0
144
0.0208333333333333
144
0.0
144
0.0
144
0.0
144
0.0
144
0.0208333333333333
144
0.0
144
0.0
144
0.0
144
0.0
144
1.0
144
0.0
144
0.0
144
0.0
144
0.0
144
1.0
147
0.0208333333333333
147
0.0
147
0.0
147
0.0
147
0.0
147
0.0208333333333333
147
0.0
147
0.0
147
0.0
147
0.0
147
1.0
147
0.0
147
0.0
147
0.0
147
0.0
147
1.0
0
MATERIAL
5
F8B
102
{ACAD_XDICTIONARY
360
F8C
102
}
102
{ACAD_REACTORS
330
F7A
102
}
330
F7A
100
AcDbMaterial
1
Global
72
0
43
0.0208333333333333
43
0.0
43
0.0
43
0.0
43
0.0
43
0.0208333333333333
43
0.0
43
0.0
43
0.0
43
0.0
43
1.0
43
0.0
43
0.0
43
0.0
43
0.0
43
1.0
77
0
47
0.0208333333333333
47
0.0
47
0.0
47
0.0
47
0.0
47
0.0208333333333333
47
0.0
47
0.0
47
0.0
47
0.0
47
1.0
47
0.0
47
0.0
47
0.0
47
0.0
47
1.0
171
0
49
0.0208333333333333
49
0.0
49
0.0
49
0.0
49
0.0
49
0.0208333333333333
49
0.0
49
0.0
49
0.0
49
0.0
49
1.0
49
0.0
49
0.0
49
0.0
49
0.0
49
1.0
175
0
142
0.0208333333333333
142
0.0
142
0.0
142
0.0
142
0.0
142
0.0208333333333333
142
0.0
142
0.0
142
0.0
142
0.0
142
1.0
142
0.0
142
0.0
142
0.0
142
0.0
142
1.0
179
0
144
0.0208333333333333
144
0.0
144
0.0
144
0.0
144
0.0
144
0.0208333333333333
144
0.0
144
0.0
144
0.0
144
0.0
144
1.0
144
0.0
144
0.0
144
0.0
144
0.0
144
1.0
147
0.0208333333333333
147
0.0
147
0.0
147
0.0
147
0.0
147
0.0208333333333333
147
0.0
147
0.0
147
0.0
147
0.0
147
1.0
147
0.0
147
0.0
147
0.0
147
0.0
147
1.0
0
MLEADERSTYLE
5
FCE
102
{ACAD_REACTORS
330
FCD
102
}
330
FCD
100
AcDbMLeaderStyle
170
2
171
1
172
0
90
2
40
0.0
41
0.0
173
1
91
-1056964608
340
256
92
-2
290
1
42
0.09
291
1
43
0.36
3
Standard
44
0.18
300

342
253
174
1
178
6
175
1
176
0
93
-1056964608
45
0.18
292
0
297
0
46
0.18
94
-1056964608
47
1.0
49
1.0
140
1.0
293
1
141
0.0
294
1
177
0
142
1.0
295
0
296
0
143
0.125
1001
ACAD_MLEADERVER
1070
2
0
MLINESTYLE
5
FAA
102
{ACAD_REACTORS
330
16
102
}
330
16
100
AcDbMlineStyle
2
STANDARD
70
0
3

62
256
51
90.0
52
90.0
71
2
49
0.5
62
256
6
BYLAYER
49
-0.5
62
256
6
BYLAYER
0
ACDBPLACEHOLDER
5
19
102
{ACAD_REACTORS
330
18
102
}
330
18
0
SCALE
5
FAC
102
{ACAD_REACTORS
330
FAB
102
}
330
FAB
100
AcDbScale
70
0
300
1:1
140
1.0
141
1.0
290
1
0
SCALE
5
FAD
102
{ACAD_REACTORS
330
FAB
102
}
330
FAB
100
AcDbScale
70
0
300
1:2
140
1.0
141
2.0
290
0
0
SCALE
5
FAE
102
{ACAD_REACTORS
330
FAB
102
}
330
FAB
100
AcDbScale
70
0
300
1:4
140
1.0
141
4.0
290
0
0
SCALE
5
FAF
102
{ACAD_REACTORS
330
FAB
102
}
330
FAB
100
AcDbScale
70
0
300
1:5
140
1.0
141
5.0
290
0
0
SCALE
5
FB0
102
{ACAD_REACTORS
330
FAB
102
}
330
FAB
100
AcDbScale
70
0
300
1:8
140
1.0
141
8.0
290
0
0
SCALE
5
FB1
102
{ACAD_REACTORS
330
FAB
102
}
330
FAB
100
AcDbScale
70
0
300
1:10
140
1.0
141
10.0
290
0
0
SCALE
5
FB2
102
{ACAD_REACTORS
330
FAB
102
}
330
FAB
100
AcDbScale
70
0
300
1:16
140
1.0
141
16.0
290
0
0
SCALE
5
FB3
102
{ACAD_REACTORS
330
FAB
102
}
330
FAB
100
AcDbScale
70
0
300
1:20
140
1.0
141
20.0
290
0
0
SCALE
5
FB4
102
{ACAD_REACTORS
330
FAB
102
}
330
FAB
100
AcDbScale
70
0
300
1:30
140
1.0
141
30.0
290
0
0
SCALE
5
FB5
102
{ACAD_REACTORS
330
FAB
102
}
330
FAB
100
AcDbScale
70
0
300
1:40
140
1.0
141
40.0
290
0
0
SCALE
5
FB6
102
{ACAD_REACTORS
330
FAB
102
}
330
FAB
100
AcDbScale
70
0
300
1:50
140
1.0
141
50.0
290
0
0
SCALE
5
FB7
102
{ACAD_REACTORS
330
FAB
102
}
330
FAB
100
AcDbScale
70
0
300
1:100
140
1.0
141
100.0
290
0
0
SCALE
5
FB8
102
{ACAD_REACTORS
330
FAB
102
}
330
FAB
100
AcDbScale
70
0
300
2:1
140
2.0
141
1.0
290
0
0
SCALE
5
FB9
102
{ACAD_REACTORS
330
FAB
102
}
330
FAB
100
AcDbScale
70
0
300
4:1
140
4.0
141
1.0
290
0
0
SCALE
5
FBA
102
{ACAD_REACTORS
330
FAB
102
}
330
FAB
100
AcDbScale
70
0
300
8:1
140
8.0
141
1.0
290
0
0
SCALE
5
FBB
102
{ACAD_REACTORS
330
FAB
102
}
330
FAB
100
AcDbScale
70
0
300
10:1
140
10.0
141
1.0
290
0
0
SCALE
5
FBC
102
{ACAD_REACTORS
330
FAB
102
}
330
FAB
100
AcDbScale
70
0
300
100:1
140
100.0
141
1.0
290
0
0
SCALE
5
FBD
102
{ACAD_REACTORS
330
FAB
102
}
330
FAB
100
AcDbScale
70
0
300
1/128" = 1'-0"
140
0.0078125
141
12.0
290
0
0
SCALE
5
FBE
102
{ACAD_REACTORS
330
FAB
102
}
330
FAB
100
AcDbScale
70
0
300
1/64" = 1'-0"
140
0.015625
141
12.0
290
0
0
SCALE
5
FBF
102
{ACAD_REACTORS
330
FAB
102
}
330
FAB
100
AcDbScale
70
0
300
1/32" = 1'-0"
140
0.03125
141
12.0
290
0
0
SCALE
5
FC0
102
{ACAD_REACTORS
330
FAB
102
}
330
FAB
100
AcDbScale
70
0
300
1/16" = 1'-0"
140
0.0625
141
12.0
290
0
0
SCALE
5
FC1
102
{ACAD_REACTORS
330
FAB
102
}
330
FAB
100
AcDbScale
70
0
300
3/32" = 1'-0"
140
0.09375
141
12.0
290
0
0
SCALE
5
FC2
102
{ACAD_REACTORS
330
FAB
102
}
330
FAB
100
AcDbScale
70
0
300
1/8" = 1'-0"
140
0.125
141
12.0
290
0
0
SCALE
5
FC3
102
{ACAD_REACTORS
330
FAB
102
}
330
FAB
100
AcDbScale
70
0
300
3/16" = 1'-0"
140
0.1875
141
12.0
290
0
0
SCALE
5
FC4
102
{ACAD_REACTORS
330
FAB
102
}
330
FAB
100
AcDbScale
70
0
300
1/4" = 1'-0"
140
0.25
141
12.0
290
0
0
SCALE
5
FC5
102
{ACAD_REACTORS
330
FAB
102
}
330
FAB
100
AcDbScale
70
0
300
3/8" = 1'-0"
140
0.375
141
12.0
290
0
0
SCALE
5
FC6
102
{ACAD_REACTORS
330
FAB
102
}
330
FAB
100
AcDbScale
70
0
300
1/2" = 1'-0"
140
0.5
141
12.0
290
0
0
SCALE
5
FC7
102
{ACAD_REACTORS
330
FAB
102
}
330
FAB
100
AcDbScale
70
0
300
3/4" = 1'-0"
140
0.75
141
12.0
290
0
0
SCALE
5
FC8
102
{ACAD_REACTORS
330
FAB
102
}
330
FAB
100
AcDbScale
70
0
300
1" = 1'-0"
140
1.0
141
12.0
290
0
0
SCALE
5
FC9
102
{ACAD_REACTORS
330
FAB
102
}
330
FAB
100
AcDbScale
70
0
300
1-1/2" = 1'-0"
140
1.5
141
12.0
290
0
0
SCALE
5
FCA
102
{ACAD_REACTORS
330
FAB
102
}
330
FAB
100
AcDbScale
70
0
300
3" = 1'-0"
140
3.0
141
12.0
290
0
0
SCALE
5
FCB
102
{ACAD_REACTORS
330
FAB
102
}
330
FAB
100
AcDbScale
70
0
300
6" = 1'-0"
140
6.0
141
12.0
290
0
0
SCALE
5
FCC
102
{ACAD_REACTORS
330
FAB
102
}
330
FAB
100
AcDbScale
70
0
300
1'-0" = 1'-0"
140
12.0
141
12.0
290
0
0
TABLESTYLE
5
FA9
102
{ACAD_XDICTIONARY
360
FF8
102
}
102
{ACAD_REACTORS
330
FA8
102
}
330
FA8
100
AcDbTableStyle
3
Standard
70
0
71
0
40
0.06
41
0.06
280
0
281
0
7
Standard
140
0.18
170
2
62
0
63
7
283
0
274
-2
284
1
64
0
275
-2
285
1
65
0
276
-2
286
1
66
0
277
-2
287
1
67
0
278
-2
288
1
68
0
279
-2
289
1
69
0
7
Standard
140
0.25
170
5
62
0
63
7
283
0
274
-2
284
1
64
0
275
-2
285
1
65
0
276
-2
286
1
66
0
277
-2
287
1
67
0
278
-2
288
1
68
0
279
-2
289
1
69
0
7
Standard
140
0.18
170
5
62
0
63
7
283
0
274
-2
284
1
64
0
275
-2
285
1
65
0
276
-2
286
1
66
0
277
-2
287
1
67
0
278
-2
288
1
68
0
279
-2
289
1
69
0
0
VISUALSTYLE
5
F99
102
{ACAD_XDICTIONARY
360
108A
102
}
102
{ACAD_REACTORS
330
F93
102
}
330
F93
100
AcDbVisualStyle
2

70
4
71
0
72
2
73
0
90
0
40
-0.6
41
-30.0
62
5
63
7
74
1
91
4
64
7
65
257
75
1
175
1
42
1.0
92
0
66
257
43
1.0
76
1
77
6
78
2
67
7
79
5
170
0
171
0
290
0
174
0
93
1
44
0.0
173
0
291
0
45
0.0
1001
ACAD
1000
AcDbSavedByObjectVersion
1070
0
0
VISUALSTYLE
5
F9B
102
{ACAD_XDICTIONARY
360
108E
102
}
102
{ACAD_REACTORS
330
F93
102
}
330
F93
100
AcDbVisualStyle
2

70
6
71
1
72
2
73
2
90
0
40
-0.6
41
-30.0
62
5
63
7
74
2
91
2
64
7
65
257
75
2
175
1
42
179.0
92
0
66
257
43
1.0
76
1
77
6
78
2
67
7
79
3
170
0
171
0
290
0
174
0
93
1
44
0.0
173
0
291
0
45
0.0
1001
ACAD
1000
AcDbSavedByObjectVersion
1070
0
0
VISUALSTYLE
5
F9A
102
{ACAD_XDICTIONARY
360
108C
102
}
102
{ACAD_REACTORS
330
F93
102
}
330
F93
100
AcDbVisualStyle
2

70
5
71
0
72
2
73
0
90
0
40
-0.6
41
-30.0
62
5
63
7
74
1
91
4
64
7
65
257
75
1
175
1
42
1.0
92
0
66
257
43
1.0
76
1
77
6
78
2
67
7
79
5
170
0
171
0
290
0
174
0
93
1
44
0.0
173
0
291
0
45
0.0
1001
ACAD
1000
AcDbSavedByObjectVersion
1070
0
0
VISUALSTYLE
5
F98
102
{ACAD_XDICTIONARY
360
1088
102
}
102
{ACAD_REACTORS
330
F93
102
}
330
F93
100
AcDbVisualStyle
2

70
7
71
1
72
0
73
1
90
0
40
-0.6
41
-30.0
62
5
63
7
74
0
91
4
64
7
65
257
75
1
175
1
42
1.0
92
8
66
7
43
1.0
76
1
77
6
78
2
67
7
79
5
170
0
171
0
290
0
174
0
93
1
44
0.0
173
0
291
1
45
0.0
1001
ACAD
1000
AcDbSavedByObjectVersion
1070
0
0
VISUALSTYLE
5
F9F
102
{ACAD_XDICTIONARY
360
1096
102
}
102
{ACAD_REACTORS
330
F93
102
}
330
F93
100
AcDbVisualStyle
2

70
12
71
2
72
2
73
0
90
0
40
-0.6
41
-30.0
62
5
63
7
74
1
91
4
64
7
65
257
75
1
175
1
42
1.0
92
8
66
7
43
1.0
76
1
77
6
78
2
67
7
79
5
170
0
171
0
290
0
174
0
93
1
44
50.0
173
0
291
1
45
0.0
1001
ACAD
1000
AcDbSavedByObjectVersion
1070
0
0
VISUALSTYLE
5
FA3
102
{ACAD_XDICTIONARY
360
109E
102
}
102
{ACAD_REACTORS
330
F93
102
}
330
F93
100
AcDbVisualStyle
2

70
16
71
2
72
2
73
3
90
0
40
-0.6
41
-30.0
62
5
63
8
74
1
91
4
64
7
65
257
75
1
175
1
42
1.0
92
8
66
8
43
1.0
76
1
77
6
78
2
67
7
79
5
170
0
171
0
290
0
174
0
93
1
44
0.0
173
0
291
1
45
0.0
1001
ACAD
1000
AcDbSavedByObjectVersion
1070
0
0
VISUALSTYLE
5
F9C
102
{ACAD_XDICTIONARY
360
1090
102
}
102
{ACAD_REACTORS
330
F93
102
}
330
F93
100
AcDbVisualStyle
2

70
9
71
3
72
2
73
0
90
0
40
-0.6
41
-30.0
62
5
63
7
74
2
91
2
64
7
65
257
75
1
175
1
42
179.0
92
8
66
7
43
1.0
76
1
77
6
78
2
67
7
79
3
170
0
171
0
290
0
174
0
93
1
44
0.0
173
0
291
0
45
0.0
1001
ACAD
1000
AcDbSavedByObjectVersion
1070
0
0
VISUALSTYLE
5
F9E
102
{ACAD_XDICTIONARY
360
1094
102
}
102
{ACAD_REACTORS
330
F93
102
}
330
F93
100
AcDbVisualStyle
2

70
11
71
2
72
2
73
0
90
0
40
-0.6
41
-30.0
62
5
63
7
74
1
91
4
64
7
65
257
75
1
175
1
42
1.0
92
8
66
7
43
1.0
76
1
77
6
78
2
67
7
79
5
170
0
171
0
290
0
174
0
93
1
44
-50.0
173
0
291
1
45
0.0
1001
ACAD
1000
AcDbSavedByObjectVersion
1070
0
0
VISUALSTYLE
5
FA6
102
{ACAD_XDICTIONARY
360
10A4
102
}
102
{ACAD_REACTORS
330
F93
102
}
330
F93
100
AcDbVisualStyle
2

70
22
71
2
72
2
73
0
90
0
40
-0.6
41
-30.0
62
5
63
7
74
1
91
4
64
7
65
257
75
1
175
1
42
1.0
92
8
66
7
43
1.0
76
1
77
6
78
2
67
7
79
5
170
0
171
0
290
0
174
0
93
1
44
0.0
173
0
291
1
45
0.0
1001
ACAD
1000
AcDbSavedByObjectVersion
1070
0
0
VISUALSTYLE
5
FA2
102
{ACAD_XDICTIONARY
360
109C
102
}
102
{ACAD_REACTORS
330
F93
102
}
330
F93
100
AcDbVisualStyle
2

70
15
71
2
72
2
73
0
90
0
40
-0.6
41
-30.0
62
5
63
7
74
1
91
4
64
7
65
257
75
1
175
1
42
1.0
92
8
66
7
43
1.0
76
1
77
6
78
2
67
7
79
5
170
0
171
0
290
0
174
0
93
1
44
0.0
173
0
291
1
45
0.0
1001
ACAD
1000
AcDbSavedByObjectVersion
1070
0
0
VISUALSTYLE
5
F94
102
{ACAD_XDICTIONARY
360
1080
102
}
102
{ACAD_REACTORS
330
F93
102
}
330
F93
100
AcDbVisualStyle
2

70
0
71
2
72
1
73
1
90
2
40
-0.6
41
30.0
62
5
63
7
74
0
91
4
64
7
65
257
75
1
175
1
42
1.0
92
8
66
7
43
1.0
76
1
77
6
78
2
67
7
79
5
170
0
171
0
290
0
174
0
93
13
44
0.0
173
0
291
1
45
0.0
1001
ACAD
1000
AcDbSavedByObjectVersion
1070
0
0
VISUALSTYLE
5
F95
102
{ACAD_XDICTIONARY
360
1082
102
}
102
{ACAD_REACTORS
330
F93
102
}
330
F93
100
AcDbVisualStyle
2

70
1
71
2
72
1
73
1
90
2
40
-0.6
41
30.0
62
5
63
7
74
1
91
4
64
7
65
257
75
1
175
1
42
1.0
92
0
66
257
43
1.0
76
1
77
6
78
2
67
7
79
5
170
0
171
0
290
0
174
0
93
13
44
0.0
173
0
291
1
45
0.0
1001
ACAD
1000
AcDbSavedByObjectVersion
1070
0
0
VISUALSTYLE
5
F96
102
{ACAD_XDICTIONARY
360
1084
102
}
102
{ACAD_REACTORS
330
F93
102
}
330
F93
100
AcDbVisualStyle
2

70
2
71
2
72
2
73
1
90
2
40
-0.6
41
30.0
62
5
63
7
74
0
91
4
64
7
65
257
75
1
175
1
42
1.0
92
0
66
7
43
1.0
76
1
77
6
78
2
67
7
79
5
170
0
171
0
290
0
174
0
93
13
44
0.0
173
0
291
1
45
0.0
1001
ACAD
1000
AcDbSavedByObjectVersion
1070
0
0
VISUALSTYLE
5
F97
102
{ACAD_XDICTIONARY
360
1086
102
}
102
{ACAD_REACTORS
330
F93
102
}
330
F93
100
AcDbVisualStyle
2

70
3
71
2
72
2
73
1
90
2
40
-0.6
41
30.0
62
5
63
7
74
1
91
4
64
7
65
257
75
1
175
1
42
1.0
92
0
66
257
43
1.0
76
1
77
6
78
2
67
7
79
5
170
0
171
0
290
0
174
0
93
13
44
0.0
173
0
291
1
45
0.0
1001
ACAD
1000
AcDbSavedByObjectVersion
1070
0
0
VISUALSTYLE
5
FA4
102
{ACAD_XDICTIONARY
360
10A0
102
}
102
{ACAD_REACTORS
330
F93
102
}
330
F93
100
AcDbVisualStyle
2

70
20
71
2
72
2
73
0
90
0
40
-0.6
41
-30.0
62
5
63
7
74
1
91
4
64
7
65
257
75
1
175
1
42
1.0
92
10
66
7
43
1.0
76
1
77
6
78
2
67
7
79
5
170
0
171
0
290
0
174
0
93
1
44
0.0
173
0
291
1
45
0.0
1001
ACAD
1000
AcDbSavedByObjectVersion
1070
0
0
VISUALSTYLE
5
FA1
102
{ACAD_XDICTIONARY
360
109A
102
}
102
{ACAD_REACTORS
330
F93
102
}
330
F93
100
AcDbVisualStyle
2

70
14
71
2
72
2
73
0
90
0
40
-0.6
41
-30.0
62
5
63
7
74
1
91
4
64
7
65
257
75
7
175
7
42
1.0
92
8
66
7
43
1.0
76
1
77
6
78
2
67
7
79
5
170
0
171
0
290
0
174
0
93
1
44
0.0
173
0
291
1
45
0.0
1001
ACAD
1000
AcDbSavedByObjectVersion
1070
0
0
VISUALSTYLE
5
FA5
102
{ACAD_XDICTIONARY
360
10A2
102
}
102
{ACAD_REACTORS
330
F93
102
}
330
F93
100
AcDbVisualStyle
2

70
21
71
2
72
2
73
0
90
0
40
-0.6
41
-30.0
62
5
63
7
74
1
91
4
64
7
65
257
75
1
175
1
42
1.0
92
9
66
7
43
1.0
76
1
77
6
78
2
67
7
79
5
170
0
171
0
290
0
174
0
93
1
44
0.0
173
0
291
1
45
0.0
1001
ACAD
1000
AcDbSavedByObjectVersion
1070
0
0
VISUALSTYLE
5
F9D
102
{ACAD_XDICTIONARY
360
1092
102
}
102
{ACAD_REACTORS
330
F93
102
}
330
F93
100
AcDbVisualStyle
2

70
8
71
2
72
2
73
0
90
0
40
-0.6
41
-30.0
62
5
63
7
74
1
91
0
64
7
65
257
75
1
175
1
42
1.0
92
8
66
8
43
1.0
76
1
77
6
78
2
67
7
79
5
170
0
171
0
290
0
174
0
93
13
44
0.0
173
0
291
0
45
0.0
1001
ACAD
1000
AcDbSavedByObjectVersion
1070
0
0
VISUALSTYLE
5
FA0
102
{ACAD_XDICTIONARY
360
1098
102
}
102
{ACAD_REACTORS
330
F93
102
}
330
F93
100
AcDbVisualStyle
2

70
13
71
2
72
2
73
0
90
0
40
-0.6
41
-30.0
62
5
63
7
74
1
91
4
64
7
65
257
75
1
175
1
42
1.0
92
12
66
7
43
1.0
76
1
77
6
78
2
67
7
79
5
170
0
171
0
290
0
174
0
93
1
44
0.0
173
0
291
1
45
0.0
1001
ACAD
1000
AcDbSavedByObjectVersion
1070
0
0
DICTIONARYVAR
5
FF3
102
{ACAD_REACTORS
330
FF0
102
}
330
FF0
100
DictionaryVariables
280
0
1
1:1
0
DICTIONARYVAR
5
FF2
102
{ACAD_REACTORS
330
FF0
102
}
330
FF0
100
DictionaryVariables
280
0
1
STANDARD
0
DICTIONARYVAR
5
FF1
102
{ACAD_REACTORS
330
FF0
102
}
330
FF0
100
DictionaryVariables
280
0
1
STANDARD
0
DICTIONARYVAR
5
FF6
102
{ACAD_REACTORS
330
FF0
102
}
330
FF0
100
DictionaryVariables
280
0
1
1
0
DICTIONARYVAR
5
FF5
102
{ACAD_REACTORS
330
FF0
102
}
330
FF0
100
DictionaryVariables
280
0
1
0
0
DICTIONARYVAR
5
FF4
102
{ACAD_REACTORS
330
FF0
102
}
330
FF0
100
DictionaryVariables
280
0
1
127
0
DICTIONARYVAR
5
1078
102
{ACAD_REACTORS
330
FF0
102
}
330
FF0
100
DictionaryVariables
280
0
1
2
0
DICTIONARY
5
10A9
330
FD1
100
AcDbDictionary
280
1
281
1
3
ACAD_XREC_ROUNDTRIP
360
10AA
0
DICTIONARY
5
10A7
330
FD0
100
AcDbDictionary
280
1
281
1
3
ACAD_XREC_ROUNDTRIP
360
10A8
0
DICTIONARY
5
F84
330
F83
100
AcDbDictionary
280
1
281
1
3
ACAD_XREC_ROUNDTRIP
360
FFF
3
BUMPTILE
360
F86
3
DIFFUSETILE
360
F85
3
OPACITYTILE
360
F89
3
REFLECTIONTILE
360
F88
3
REFRACTIONTILE
360
F8A
3
SPECULARTILE
360
F87
0
DICTIONARY
5
F7C
330
F7B
100
AcDbDictionary
280
1
281
1
3
ACAD_XREC_ROUNDTRIP
360
FFE
3
BUMPTILE
360
F7E
3
DIFFUSETILE
360
F7D
3
OPACITYTILE
360
F81
3
REFLECTIONTILE
360
F80
3
REFRACTIONTILE
360
F82
3
SPECULARTILE
360
F7F
0
DICTIONARY
5
F8C
330
F8B
100
AcDbDictionary
280
1
281
1
3
ACAD_XREC_ROUNDTRIP
360
1000
3
BUMPTILE
360
F8E
3
DIFFUSETILE
360
F8D
3
OPACITYTILE
360
F91
3
REFLECTIONTILE
360
F90
3
REFRACTIONTILE
360
F92
3
SPECULARTILE
360
F8F
0
DICTIONARY
5
FF8
330
FA9
100
AcDbDictionary
280
1
281
1
3
ACAD_ROUNDTRIP_2008_TABLESTYLE_CELLSTYLEMAP
360
1079
3
ACAD_XREC_ROUNDTRIP
360
10A6
0
DICTIONARY
5
108A
330
F99
100
AcDbDictionary
280
1
281
1
3
ACAD_XREC_ROUNDTRIP
360
108B
0
DICTIONARY
5
108E
330
F9B
100
AcDbDictionary
280
1
281
1
3
ACAD_XREC_ROUNDTRIP
360
108F
0
DICTIONARY
5
108C
330
F9A
100
AcDbDictionary
280
1
281
1
3
ACAD_XREC_ROUNDTRIP
360
108D
0
DICTIONARY
5
1088
330
F98
100
AcDbDictionary
280
1
281
1
3
ACAD_XREC_ROUNDTRIP
360
1089
0
DICTIONARY
5
1096
330
F9F
100
AcDbDictionary
280
1
281
1
3
ACAD_XREC_ROUNDTRIP
360
1097
0
DICTIONARY
5
109E
330
FA3
100
AcDbDictionary
280
1
281
1
3
ACAD_XREC_ROUNDTRIP
360
109F
0
DICTIONARY
5
1090
330
F9C
100
AcDbDictionary
280
1
281
1
3
ACAD_XREC_ROUNDTRIP
360
1091
0
DICTIONARY
5
1094
330
F9E
100
AcDbDictionary
280
1
281
1
3
ACAD_XREC_ROUNDTRIP
360
1095
0
DICTIONARY
5
10A4
330
FA6
100
AcDbDictionary
280
1
281
1
3
ACAD_XREC_ROUNDTRIP
360
10A5
0
DICTIONARY
5
109C
330
FA2
100
AcDbDictionary
280
1
281
1
3
ACAD_XREC_ROUNDTRIP
360
109D
0
DICTIONARY
5
1080
330
F94
100
AcDbDictionary
280
1
281
1
3
ACAD_XREC_ROUNDTRIP
360
1081
0
DICTIONARY
5
1082
330
F95
100
AcDbDictionary
280
1
281
1
3
ACAD_XREC_ROUNDTRIP
360
1083
0
DICTIONARY
5
1084
330
F96
100
AcDbDictionary
280
1
281
1
3
ACAD_XREC_ROUNDTRIP
360
1085
0
DICTIONARY
5
1086
330
F97
100
AcDbDictionary
280
1
281
1
3
ACAD_XREC_ROUNDTRIP
360
1087
0
DICTIONARY
5
10A0
330
FA4
100
AcDbDictionary
280
1
281
1
3
ACAD_XREC_ROUNDTRIP
360
10A1
0
DICTIONARY
5
109A
330
FA1
100
AcDbDictionary
280
1
281
1
3
ACAD_XREC_ROUNDTRIP
360
109B
0
DICTIONARY
5
10A2
330
FA5
100
AcDbDictionary
280
1
281
1
3
ACAD_XREC_ROUNDTRIP
360
10A3
0
DICTIONARY
5
1092
330
F9D
100
AcDbDictionary
280
1
281
1
3
ACAD_XREC_ROUNDTRIP
360
1093
0
DICTIONARY
5
1098
330
FA0
100
AcDbDictionary
280
1
281
1
3
ACAD_XREC_ROUNDTRIP
360
1099
0
XRECORD
5
10AA
102
{ACAD_REACTORS
330
10A9
102
}
330
10A9
100
AcDbXrecord
280
1
102
SHADEPLOT
70
0
102
SHADEPLOTRESLEVEL
70
2
102
SHADEPLOTCUSTOMDPI
70
300
0
XRECORD
5
10A8
102
{ACAD_REACTORS
330
10A7
102
}
330
10A7
100
AcDbXrecord
280
1
102
SHADEPLOT
70
0
102
SHADEPLOTRESLEVEL
70
2
102
SHADEPLOTCUSTOMDPI
70
300
0
XRECORD
5
FFF
102
{ACAD_REACTORS
330
F84
102
}
330
F84
100
AcDbXrecord
280
1
102
MATERIAL
148
0.0
149
0.0
149
0.0
93
0
94
127
282
0
72
0
77
0
171
0
175
0
179
0
273
0
0
XRECORD
5
F86
102
{ACAD_REACTORS
330
F84
102
}
330
F84
100
AcDbXrecord
280
1
270
1
271
1
0
XRECORD
5
F85
102
{ACAD_REACTORS
330
F84
102
}
330
F84
100
AcDbXrecord
280
1
270
1
271
1
0
XRECORD
5
F89
102
{ACAD_REACTORS
330
F84
102
}
330
F84
100
AcDbXrecord
280
1
270
1
271
1
0
XRECORD
5
F88
102
{ACAD_REACTORS
330
F84
102
}
330
F84
100
AcDbXrecord
280
1
270
1
271
1
0
XRECORD
5
F8A
102
{ACAD_REACTORS
330
F84
102
}
330
F84
100
AcDbXrecord
280
1
270
1
271
1
0
XRECORD
5
F87
102
{ACAD_REACTORS
330
F84
102
}
330
F84
100
AcDbXrecord
280
1
270
1
271
1
0
XRECORD
5
FFE
102
{ACAD_REACTORS
330
F7C
102
}
330
F7C
100
AcDbXrecord
280
1
102
MATERIAL
148
0.0
149
0.0
149
0.0
93
0
94
127
282
0
72
0
77
0
171
0
175
0
179
0
273
0
0
XRECORD
5
F7E
102
{ACAD_REACTORS
330
F7C
102
}
330
F7C
100
AcDbXrecord
280
1
270
1
271
1
0
XRECORD
5
F7D
102
{ACAD_REACTORS
330
F7C
102
}
330
F7C
100
AcDbXrecord
280
1
270
1
271
1
0
XRECORD
5
F81
102
{ACAD_REACTORS
330
F7C
102
}
330
F7C
100
AcDbXrecord
280
1
270
1
271
1
0
XRECORD
5
F80
102
{ACAD_REACTORS
330
F7C
102
}
330
F7C
100
AcDbXrecord
280
1
270
1
271
1
0
XRECORD
5
F82
102
{ACAD_REACTORS
330
F7C
102
}
330
F7C
100
AcDbXrecord
280
1
270
1
271
1
0
XRECORD
5
F7F
102
{ACAD_REACTORS
330
F7C
102
}
330
F7C
100
AcDbXrecord
280
1
270
1
271
1
0
XRECORD
5
1000
102
{ACAD_REACTORS
330
F8C
102
}
330
F8C
100
AcDbXrecord
280
1
102
MATERIAL
148
0.0
149
0.0
149
0.0
93
0
94
127
282
0
72
0
77
0
171
0
175
0
179
0
273
0
0
XRECORD
5
F8E
102
{ACAD_REACTORS
330
F8C
102
}
330
F8C
100
AcDbXrecord
280
1
270
1
271
1
0
XRECORD
5
F8D
102
{ACAD_REACTORS
330
F8C
102
}
330
F8C
100
AcDbXrecord
280
1
270
1
271
1
0
XRECORD
5
F91
102
{ACAD_REACTORS
330
F8C
102
}
330
F8C
100
AcDbXrecord
280
1
270
1
271
1
0
XRECORD
5
F90
102
{ACAD_REACTORS
330
F8C
102
}
330
F8C
100
AcDbXrecord
280
1
270
1
271
1
0
XRECORD
5
F92
102
{ACAD_REACTORS
330
F8C
102
}
330
F8C
100
AcDbXrecord
280
1
270
1
271
1
0
XRECORD
5
F8F
102
{ACAD_REACTORS
330
F8C
102
}
330
F8C
100
AcDbXrecord
280
1
270
1
271
1
0
CELLSTYLEMAP
5
1079
102
{ACAD_REACTORS
330
FF8
102
}
330
FF8
100
AcDbCellStyleMap
90
3
300
CELLSTYLE
1
TABLEFORMAT_BEGIN
90
5
170
1
91
0
92
32768
62
257
93
1
300
CONTENTFORMAT
1
CONTENTFORMAT_BEGIN
90
0
91
0
92
512
93
0
300

40
0.0
140
1.0
94
5
62
0
340
253
144
0.25
309
CONTENTFORMAT_END
171
1
301
MARGIN
1
CELLMARGIN_BEGIN
40
0.06
40
0.06
40
0.06
40
0.06
40
0.18
40
0.18
309
CELLMARGIN_END
94
6
95
1
302
GRIDFORMAT
1
GRIDFORMAT_BEGIN
90
0
91
1
62
0
92
-2
340
0
93
0
40
0.045
309
GRIDFORMAT_END
95
2
302
GRIDFORMAT
1
GRIDFORMAT_BEGIN
90
0
91
1
62
0
92
-2
340
0
93
0
40
0.045
309
GRIDFORMAT_END
95
4
302
GRIDFORMAT
1
GRIDFORMAT_BEGIN
90
0
91
1
62
0
92
-2
340
0
93
0
40
0.045
309
GRIDFORMAT_END
95
8
302
GRIDFORMAT
1
GRIDFORMAT_BEGIN
90
0
91
1
62
0
92
-2
340
0
93
0
40
0.045
309
GRIDFORMAT_END
95
16
302
GRIDFORMAT
1
GRIDFORMAT_BEGIN
90
0
91
1
62
0
92
-2
340
0
93
0
40
0.045
309
GRIDFORMAT_END
95
32
302
GRIDFORMAT
1
GRIDFORMAT_BEGIN
90
0
91
1
62
0
92
-2
340
0
93
0
40
0.045
309
GRIDFORMAT_END
309
TABLEFORMAT_END
1
CELLSTYLE_BEGIN
90
1
91
1
300
_TITLE
309
CELLSTYLE_END
300
CELLSTYLE
1
TABLEFORMAT_BEGIN
90
5
170
1
91
0
92
0
62
257
93
1
300
CONTENTFORMAT
1
CONTENTFORMAT_BEGIN
90
0
91
0
92
512
93
0
300

40
0.0
140
1.0
94
5
62
0
340
253
144
0.18
309
CONTENTFORMAT_END
171
1
301
MARGIN
1
CELLMARGIN_BEGIN
40
0.06
40
0.06
40
0.06
40
0.06
40
0.18
40
0.18
309
CELLMARGIN_END
94
6
95
1
302
GRIDFORMAT
1
GRIDFORMAT_BEGIN
90
0
91
1
62
0
92
-2
340
0
93
0
40
0.045
309
GRIDFORMAT_END
95
2
302
GRIDFORMAT
1
GRIDFORMAT_BEGIN
90
0
91
1
62
0
92
-2
340
0
93
0
40
0.045
309
GRIDFORMAT_END
95
4
302
GRIDFORMAT
1
GRIDFORMAT_BEGIN
90
0
91
1
62
0
92
-2
340
0
93
0
40
0.045
309
GRIDFORMAT_END
95
8
302
GRIDFORMAT
1
GRIDFORMAT_BEGIN
90
0
91
1
62
0
92
-2
340
0
93
0
40
0.045
309
GRIDFORMAT_END
95
16
302
GRIDFORMAT
1
GRIDFORMAT_BEGIN
90
0
91
1
62
0
92
-2
340
0
93
0
40
0.045
309
GRIDFORMAT_END
95
32
302
GRIDFORMAT
1
GRIDFORMAT_BEGIN
90
0
91
1
62
0
92
-2
340
0
93
0
40
0.045
309
GRIDFORMAT_END
309
TABLEFORMAT_END
1
CELLSTYLE_BEGIN
90
2
91
1
300
_HEADER
309
CELLSTYLE_END
300
CELLSTYLE
1
TABLEFORMAT_BEGIN
90
5
170
1
91
0
92
0
62
257
93
1
300
CONTENTFORMAT
1
CONTENTFORMAT_BEGIN
90
0
91
0
92
512
93
0
300

40
0.0
140
1.0
94
2
62
0
340
253
144
0.18
309
CONTENTFORMAT_END
171
1
301
MARGIN
1
CELLMARGIN_BEGIN
40
0.06
40
0.06
40
0.06
40
0.06
40
0.18
40
0.18
309
CELLMARGIN_END
94
6
95
1
302
GRIDFORMAT
1
GRIDFORMAT_BEGIN
90
0
91
1
62
0
92
-2
340
0
93
0
40
0.045
309
GRIDFORMAT_END
95
2
302
GRIDFORMAT
1
GRIDFORMAT_BEGIN
90
0
91
1
62
0
92
-2
340
0
93
0
40
0.045
309
GRIDFORMAT_END
95
4
302
GRIDFORMAT
1
GRIDFORMAT_BEGIN
90
0
91
1
62
0
92
-2
340
0
93
0
40
0.045
309
GRIDFORMAT_END
95
8
302
GRIDFORMAT
1
GRIDFORMAT_BEGIN
90
0
91
1
62
0
92
-2
340
0
93
0
40
0.045
309
GRIDFORMAT_END
95
16
302
GRIDFORMAT
1
GRIDFORMAT_BEGIN
90
0
91
1
62
0
92
-2
340
0
93
0
40
0.045
309
GRIDFORMAT_END
95
32
302
GRIDFORMAT
1
GRIDFORMAT_BEGIN
90
0
91
1
62
0
92
-2
340
0
93
0
40
0.045
309
GRIDFORMAT_END
309
TABLEFORMAT_END
1
CELLSTYLE_BEGIN
90
3
91
2
300
_DATA
309
CELLSTYLE_END
0
XRECORD
5
10A6
102
{ACAD_REACTORS
330
FF8
102
}
330
FF8
100
AcDbXrecord
280
1
102
ACAD_ROUNDTRIP_PRE2007_TABLESTYLE
90
512
91
0
1

92
512
93
0
2

94
512
95
0
3

0
XRECORD
5
108B
102
{ACAD_REACTORS
330
108A
102
}
330
108A
100
AcDbXrecord
280
1
102
RTVSPropertyOp0
70
1
102
RTVSPropertyOp1
70
1
102
RTVSPropertyOp2
70
1
102
RTVSPropertyOp3
70
1
102
RTVSPropertyOp4
70
1
102
RTVSPropertyOp5
70
1
102
RTVSPropertyOp6
70
1
102
RTVSPropertyOp7
70
1
102
RTVSPropertyOp8
70
1
102
RTVSPropertyOp9
70
1
102
RTVSPropertyOp10
70
1
102
RTVSPropertyOp11
70
1
102
RTVSPropertyOp12
70
1
102
RTVSPropertyOp13
70
1
102
RTVSPropertyOp14
70
1
102
RTVSPropertyOp15
70
1
102
RTVSPropertyOp16
70
1
102
RTVSPropertyOp17
70
1
102
RTVSPropertyOp18
70
1
102
RTVSPropertyOp19
70
1
102
RTVSPropertyOp20
70
1
102
RTVSPropertyOp21
70
1
102
RTVSPropertyOp22
70
1
102
RTVSPropertyOp23
70
1
102
RTVSPropertyOp24
70
1
102
RTVSPropertyOp25
70
1
102
RTVSPropertyOp26
70
1
102
RTVSPropertyOp27
70
1
0
XRECORD
5
108F
102
{ACAD_REACTORS
330
108E
102
}
330
108E
100
AcDbXrecord
280
1
102
RTVSPropertyOp0
70
1
102
RTVSPropertyOp1
70
1
102
RTVSPropertyOp2
70
1
102
RTVSPropertyOp3
70
1
102
RTVSPropertyOp4
70
1
102
RTVSPropertyOp5
70
1
102
RTVSPropertyOp6
70
1
102
RTVSPropertyOp7
70
1
102
RTVSPropertyOp8
70
1
102
RTVSPropertyOp9
70
1
102
RTVSPropertyOp10
70
1
102
RTVSPropertyOp11
70
1
102
RTVSPropertyOp12
70
1
102
RTVSPropertyOp13
70
1
102
RTVSPropertyOp14
70
1
102
RTVSPropertyOp15
70
1
102
RTVSPropertyOp16
70
1
102
RTVSPropertyOp17
70
1
102
RTVSPropertyOp18
70
1
102
RTVSPropertyOp19
70
1
102
RTVSPropertyOp20
70
1
102
RTVSPropertyOp21
70
1
102
RTVSPropertyOp22
70
1
102
RTVSPropertyOp23
70
1
102
RTVSPropertyOp24
70
1
102
RTVSPropertyOp25
70
1
102
RTVSPropertyOp26
70
1
102
RTVSPropertyOp27
70
1
0
XRECORD
5
108D
102
{ACAD_REACTORS
330
108C
102
}
330
108C
100
AcDbXrecord
280
1
102
RTVSPropertyOp0
70
1
102
RTVSPropertyOp1
70
1
102
RTVSPropertyOp2
70
1
102
RTVSPropertyOp3
70
1
102
RTVSPropertyOp4
70
1
102
RTVSPropertyOp5
70
1
102
RTVSPropertyOp6
70
1
102
RTVSPropertyOp7
70
1
102
RTVSPropertyOp8
70
1
102
RTVSPropertyOp9
70
1
102
RTVSPropertyOp10
70
1
102
RTVSPropertyOp11
70
1
102
RTVSPropertyOp12
70
1
102
RTVSPropertyOp13
70
1
102
RTVSPropertyOp14
70
1
102
RTVSPropertyOp15
70
1
102
RTVSPropertyOp16
70
1
102
RTVSPropertyOp17
70
1
102
RTVSPropertyOp18
70
1
102
RTVSPropertyOp19
70
1
102
RTVSPropertyOp20
70
1
102
RTVSPropertyOp21
70
1
102
RTVSPropertyOp22
70
1
102
RTVSPropertyOp23
70
1
102
RTVSPropertyOp24
70
1
102
RTVSPropertyOp25
70
1
102
RTVSPropertyOp26
70
1
102
RTVSPropertyOp27
70
1
0
XRECORD
5
1089
102
{ACAD_REACTORS
330
1088
102
}
330
1088
100
AcDbXrecord
280
1
102
RTVSPropertyOp0
70
1
102
RTVSPropertyOp1
70
1
102
RTVSPropertyOp2
70
1
102
RTVSPropertyOp3
70
1
102
RTVSPropertyOp4
70
1
102
RTVSPropertyOp5
70
1
102
RTVSPropertyOp6
70
1
102
RTVSPropertyOp7
70
1
102
RTVSPropertyOp8
70
1
102
RTVSPropertyOp9
70
1
102
RTVSPropertyOp10
70
1
102
RTVSPropertyOp11
70
1
102
RTVSPropertyOp12
70
1
102
RTVSPropertyOp13
70
1
102
RTVSPropertyOp14
70
1
102
RTVSPropertyOp15
70
1
102
RTVSPropertyOp16
70
1
102
RTVSPropertyOp17
70
1
102
RTVSPropertyOp18
70
1
102
RTVSPropertyOp19
70
1
102
RTVSPropertyOp20
70
1
102
RTVSPropertyOp21
70
1
102
RTVSPropertyOp22
70
1
102
RTVSPropertyOp23
70
1
102
RTVSPropertyOp24
70
1
102
RTVSPropertyOp25
70
1
102
RTVSPropertyOp26
70
1
102
RTVSPropertyOp27
70
1
0
XRECORD
5
1097
102
{ACAD_REACTORS
330
1096
102
}
330
1096
100
AcDbXrecord
280
1
102
RTVSPropertyOp0
70
1
102
RTVSPropertyOp1
70
1
102
RTVSPropertyOp2
70
1
102
RTVSPropertyOp3
70
1
102
RTVSPropertyOp4
70
1
102
RTVSPropertyOp5
70
1
102
RTVSPropertyOp6
70
1
102
RTVSPropertyOp7
70
1
102
RTVSPropertyOp8
70
1
102
RTVSPropertyOp9
70
1
102
RTVSPropertyOp10
70
1
102
RTVSPropertyOp11
70
1
102
RTVSPropertyOp12
70
1
102
RTVSPropertyOp13
70
1
102
RTVSPropertyOp14
70
1
102
RTVSPropertyOp15
70
1
102
RTVSPropertyOp16
70
1
102
RTVSPropertyOp17
70
1
102
RTVSPropertyOp18
70
1
102
RTVSPropertyOp19
70
1
102
RTVSPropertyOp20
70
1
102
RTVSPropertyOp21
70
1
102
RTVSPropertyOp22
70
1
102
RTVSPropertyOp23
70
1
102
RTVSPropertyOp24
70
1
102
RTVSPropertyOp25
70
1
102
RTVSPropertyOp26
70
1
102
RTVSPropertyOp27
70
1
0
XRECORD
5
109F
102
{ACAD_REACTORS
330
109E
102
}
330
109E
100
AcDbXrecord
280
1
102
RTVSPropertyOp0
70
1
102
RTVSPropertyOp1
70
1
102
RTVSPropertyOp2
70
1
102
RTVSPropertyOp3
70
1
102
RTVSPropertyOp4
70
1
102
RTVSPropertyOp5
70
1
102
RTVSPropertyOp6
70
1
102
RTVSPropertyOp7
70
1
102
RTVSPropertyOp8
70
1
102
RTVSPropertyOp9
70
1
102
RTVSPropertyOp10
70
1
102
RTVSPropertyOp11
70
1
102
RTVSPropertyOp12
70
1
102
RTVSPropertyOp13
70
1
102
RTVSPropertyOp14
70
1
102
RTVSPropertyOp15
70
1
102
RTVSPropertyOp16
70
1
102
RTVSPropertyOp17
70
1
102
RTVSPropertyOp18
70
1
102
RTVSPropertyOp19
70
1
102
RTVSPropertyOp20
70
1
102
RTVSPropertyOp21
70
1
102
RTVSPropertyOp22
70
1
102
RTVSPropertyOp23
70
1
102
RTVSPropertyOp24
70
1
102
RTVSPropertyOp25
70
1
102
RTVSPropertyOp26
70
1
102
RTVSPropertyOp27
70
1
0
XRECORD
5
1091
102
{ACAD_REACTORS
330
1090
102
}
330
1090
100
AcDbXrecord
280
1
102
RTVSPropertyOp0
70
1
102
RTVSPropertyOp1
70
1
102
RTVSPropertyOp2
70
1
102
RTVSPropertyOp3
70
1
102
RTVSPropertyOp4
70
1
102
RTVSPropertyOp5
70
1
102
RTVSPropertyOp6
70
1
102
RTVSPropertyOp7
70
1
102
RTVSPropertyOp8
70
1
102
RTVSPropertyOp9
70
1
102
RTVSPropertyOp10
70
1
102
RTVSPropertyOp11
70
1
102
RTVSPropertyOp12
70
1
102
RTVSPropertyOp13
70
1
102
RTVSPropertyOp14
70
1
102
RTVSPropertyOp15
70
1
102
RTVSPropertyOp16
70
1
102
RTVSPropertyOp17
70
1
102
RTVSPropertyOp18
70
1
102
RTVSPropertyOp19
70
1
102
RTVSPropertyOp20
70
1
102
RTVSPropertyOp21
70
1
102
RTVSPropertyOp22
70
1
102
RTVSPropertyOp23
70
1
102
RTVSPropertyOp24
70
1
102
RTVSPropertyOp25
70
1
102
RTVSPropertyOp26
70
1
102
RTVSPropertyOp27
70
1
0
XRECORD
5
1095
102
{ACAD_REACTORS
330
1094
102
}
330
1094
100
AcDbXrecord
280
1
102
RTVSPropertyOp0
70
1
102
RTVSPropertyOp1
70
1
102
RTVSPropertyOp2
70
1
102
RTVSPropertyOp3
70
1
102
RTVSPropertyOp4
70
1
102
RTVSPropertyOp5
70
1
102
RTVSPropertyOp6
70
1
102
RTVSPropertyOp7
70
1
102
RTVSPropertyOp8
70
1
102
RTVSPropertyOp9
70
1
102
RTVSPropertyOp10
70
1
102
RTVSPropertyOp11
70
1
102
RTVSPropertyOp12
70
1
102
RTVSPropertyOp13
70
1
102
RTVSPropertyOp14
70
1
102
RTVSPropertyOp15
70
1
102
RTVSPropertyOp16
70
1
102
RTVSPropertyOp17
70
1
102
RTVSPropertyOp18
70
1
102
RTVSPropertyOp19
70
1
102
RTVSPropertyOp20
70
1
102
RTVSPropertyOp21
70
1
102
RTVSPropertyOp22
70
1
102
RTVSPropertyOp23
70
1
102
RTVSPropertyOp24
70
1
102
RTVSPropertyOp25
70
1
102
RTVSPropertyOp26
70
1
102
RTVSPropertyOp27
70
1
0
XRECORD
5
10A5
102
{ACAD_REACTORS
330
10A4
102
}
330
10A4
100
AcDbXrecord
280
1
102
RTVSPropertyOp0
70
0
102
RTVSPropertyOp1
70
0
102
RTVSPropertyOp2
70
0
102
RTVSPropertyOp3
70
0
102
RTVSPropertyOp4
70
0
102
RTVSPropertyOp5
70
0
102
RTVSPropertyOp6
70
0
102
RTVSPropertyOp7
70
0
102
RTVSPropertyOp8
70
0
102
RTVSPropertyOp9
70
0
102
RTVSPropertyOp10
70
0
102
RTVSPropertyOp11
70
0
102
RTVSPropertyOp12
70
0
102
RTVSPropertyOp13
70
0
102
RTVSPropertyOp14
70
2
102
RTVSPropertyOp15
70
0
102
RTVSPropertyOp16
70
0
102
RTVSPropertyOp17
70
0
102
RTVSPropertyOp18
70
0
102
RTVSPropertyOp19
70
0
102
RTVSPropertyOp20
70
0
102
RTVSPropertyOp21
70
0
102
RTVSPropertyOp22
70
0
102
RTVSPropertyOp23
70
0
102
RTVSPropertyOp24
70
0
102
RTVSPropertyOp25
70
0
102
RTVSPropertyOp26
70
0
102
RTVSPropertyOp27
70
0
0
XRECORD
5
109D
102
{ACAD_REACTORS
330
109C
102
}
330
109C
100
AcDbXrecord
280
1
102
RTVSPropertyOp0
70
1
102
RTVSPropertyOp1
70
1
102
RTVSPropertyOp2
70
1
102
RTVSPropertyOp3
70
1
102
RTVSPropertyOp4
70
1
102
RTVSPropertyOp5
70
1
102
RTVSPropertyOp6
70
1
102
RTVSPropertyOp7
70
1
102
RTVSPropertyOp8
70
1
102
RTVSPropertyOp9
70
1
102
RTVSPropertyOp10
70
1
102
RTVSPropertyOp11
70
1
102
RTVSPropertyOp12
70
1
102
RTVSPropertyOp13
70
1
102
RTVSPropertyOp14
70
1
102
RTVSPropertyOp15
70
1
102
RTVSPropertyOp16
70
1
102
RTVSPropertyOp17
70
1
102
RTVSPropertyOp18
70
1
102
RTVSPropertyOp19
70
1
102
RTVSPropertyOp20
70
1
102
RTVSPropertyOp21
70
1
102
RTVSPropertyOp22
70
1
102
RTVSPropertyOp23
70
1
102
RTVSPropertyOp24
70
1
102
RTVSPropertyOp25
70
1
102
RTVSPropertyOp26
70
1
102
RTVSPropertyOp27
70
1
0
XRECORD
5
1081
102
{ACAD_REACTORS
330
1080
102
}
330
1080
100
AcDbXrecord
280
1
102
RTVSPropertyOp0
70
1
102
RTVSPropertyOp1
70
1
102
RTVSPropertyOp2
70
1
102
RTVSPropertyOp3
70
1
102
RTVSPropertyOp4
70
1
102
RTVSPropertyOp5
70
1
102
RTVSPropertyOp6
70
1
102
RTVSPropertyOp7
70
1
102
RTVSPropertyOp8
70
1
102
RTVSPropertyOp9
70
1
102
RTVSPropertyOp10
70
1
102
RTVSPropertyOp11
70
1
102
RTVSPropertyOp12
70
1
102
RTVSPropertyOp13
70
1
102
RTVSPropertyOp14
70
1
102
RTVSPropertyOp15
70
1
102
RTVSPropertyOp16
70
1
102
RTVSPropertyOp17
70
1
102
RTVSPropertyOp18
70
1
102
RTVSPropertyOp19
70
1
102
RTVSPropertyOp20
70
1
102
RTVSPropertyOp21
70
1
102
RTVSPropertyOp22
70
1
102
RTVSPropertyOp23
70
1
102
RTVSPropertyOp24
70
1
102
RTVSPropertyOp25
70
1
102
RTVSPropertyOp26
70
1
102
RTVSPropertyOp27
70
1
0
XRECORD
5
1083
102
{ACAD_REACTORS
330
1082
102
}
330
1082
100
AcDbXrecord
280
1
102
RTVSPropertyOp0
70
1
102
RTVSPropertyOp1
70
1
102
RTVSPropertyOp2
70
1
102
RTVSPropertyOp3
70
1
102
RTVSPropertyOp4
70
1
102
RTVSPropertyOp5
70
1
102
RTVSPropertyOp6
70
1
102
RTVSPropertyOp7
70
1
102
RTVSPropertyOp8
70
1
102
RTVSPropertyOp9
70
1
102
RTVSPropertyOp10
70
1
102
RTVSPropertyOp11
70
1
102
RTVSPropertyOp12
70
1
102
RTVSPropertyOp13
70
1
102
RTVSPropertyOp14
70
1
102
RTVSPropertyOp15
70
1
102
RTVSPropertyOp16
70
1
102
RTVSPropertyOp17
70
1
102
RTVSPropertyOp18
70
1
102
RTVSPropertyOp19
70
1
102
RTVSPropertyOp20
70
1
102
RTVSPropertyOp21
70
1
102
RTVSPropertyOp22
70
1
102
RTVSPropertyOp23
70
1
102
RTVSPropertyOp24
70
1
102
RTVSPropertyOp25
70
1
102
RTVSPropertyOp26
70
1
102
RTVSPropertyOp27
70
1
0
XRECORD
5
1085
102
{ACAD_REACTORS
330
1084
102
}
330
1084
100
AcDbXrecord
280
1
102
RTVSPropertyOp0
70
1
102
RTVSPropertyOp1
70
1
102
RTVSPropertyOp2
70
1
102
RTVSPropertyOp3
70
1
102
RTVSPropertyOp4
70
1
102
RTVSPropertyOp5
70
1
102
RTVSPropertyOp6
70
1
102
RTVSPropertyOp7
70
1
102
RTVSPropertyOp8
70
1
102
RTVSPropertyOp9
70
1
102
RTVSPropertyOp10
70
1
102
RTVSPropertyOp11
70
1
102
RTVSPropertyOp12
70
1
102
RTVSPropertyOp13
70
1
102
RTVSPropertyOp14
70
1
102
RTVSPropertyOp15
70
1
102
RTVSPropertyOp16
70
1
102
RTVSPropertyOp17
70
1
102
RTVSPropertyOp18
70
1
102
RTVSPropertyOp19
70
1
102
RTVSPropertyOp20
70
1
102
RTVSPropertyOp21
70
1
102
RTVSPropertyOp22
70
1
102
RTVSPropertyOp23
70
1
102
RTVSPropertyOp24
70
1
102
RTVSPropertyOp25
70
1
102
RTVSPropertyOp26
70
1
102
RTVSPropertyOp27
70
1
0
XRECORD
5
1087
102
{ACAD_REACTORS
330
1086
102
}
330
1086
100
AcDbXrecord
280
1
102
RTVSPropertyOp0
70
1
102
RTVSPropertyOp1
70
1
102
RTVSPropertyOp2
70
1
102
RTVSPropertyOp3
70
1
102
RTVSPropertyOp4
70
1
102
RTVSPropertyOp5
70
1
102
RTVSPropertyOp6
70
1
102
RTVSPropertyOp7
70
1
102
RTVSPropertyOp8
70
1
102
RTVSPropertyOp9
70
1
102
RTVSPropertyOp10
70
1
102
RTVSPropertyOp11
70
1
102
RTVSPropertyOp12
70
1
102
RTVSPropertyOp13
70
1
102
RTVSPropertyOp14
70
1
102
RTVSPropertyOp15
70
1
102
RTVSPropertyOp16
70
1
102
RTVSPropertyOp17
70
1
102
RTVSPropertyOp18
70
1
102
RTVSPropertyOp19
70
1
102
RTVSPropertyOp20
70
1
102
RTVSPropertyOp21
70
1
102
RTVSPropertyOp22
70
1
102
RTVSPropertyOp23
70
1
102
RTVSPropertyOp24
70
1
102
RTVSPropertyOp25
70
1
102
RTVSPropertyOp26
70
1
102
RTVSPropertyOp27
70
1
0
XRECORD
5
10A1
102
{ACAD_REACTORS
330
10A0
102
}
330
10A0
100
AcDbXrecord
280
1
102
RTVSPropertyOp0
70
0
102
RTVSPropertyOp1
70
0
102
RTVSPropertyOp2
70
0
102
RTVSPropertyOp3
70
0
102
RTVSPropertyOp4
70
0
102
RTVSPropertyOp5
70
0
102
RTVSPropertyOp6
70
0
102
RTVSPropertyOp7
70
0
102
RTVSPropertyOp8
70
0
102
RTVSPropertyOp9
70
0
102
RTVSPropertyOp10
70
0
102
RTVSPropertyOp11
70
0
102
RTVSPropertyOp12
70
0
102
RTVSPropertyOp13
70
0
102
RTVSPropertyOp14
70
2
102
RTVSPropertyOp15
70
0
102
RTVSPropertyOp16
70
0
102
RTVSPropertyOp17
70
0
102
RTVSPropertyOp18
70
0
102
RTVSPropertyOp19
70
0
102
RTVSPropertyOp20
70
0
102
RTVSPropertyOp21
70
0
102
RTVSPropertyOp22
70
0
102
RTVSPropertyOp23
70
0
102
RTVSPropertyOp24
70
0
102
RTVSPropertyOp25
70
0
102
RTVSPropertyOp26
70
0
102
RTVSPropertyOp27
70
0
0
XRECORD
5
109B
102
{ACAD_REACTORS
330
109A
102
}
330
109A
100
AcDbXrecord
280
1
102
RTVSPropertyOp0
70
1
102
RTVSPropertyOp1
70
1
102
RTVSPropertyOp2
70
1
102
RTVSPropertyOp3
70
1
102
RTVSPropertyOp4
70
1
102
RTVSPropertyOp5
70
1
102
RTVSPropertyOp6
70
1
102
RTVSPropertyOp7
70
1
102
RTVSPropertyOp8
70
1
102
RTVSPropertyOp9
70
1
102
RTVSPropertyOp10
70
1
102
RTVSPropertyOp11
70
1
102
RTVSPropertyOp12
70
1
102
RTVSPropertyOp13
70
1
102
RTVSPropertyOp14
70
1
102
RTVSPropertyOp15
70
1
102
RTVSPropertyOp16
70
1
102
RTVSPropertyOp17
70
1
102
RTVSPropertyOp18
70
1
102
RTVSPropertyOp19
70
1
102
RTVSPropertyOp20
70
1
102
RTVSPropertyOp21
70
1
102
RTVSPropertyOp22
70
1
102
RTVSPropertyOp23
70
1
102
RTVSPropertyOp24
70
1
102
RTVSPropertyOp25
70
1
102
RTVSPropertyOp26
70
1
102
RTVSPropertyOp27
70
1
0
XRECORD
5
10A3
102
{ACAD_REACTORS
330
10A2
102
}
330
10A2
100
AcDbXrecord
280
1
102
RTVSPropertyOp0
70
0
102
RTVSPropertyOp1
70
0
102
RTVSPropertyOp2
70
0
102
RTVSPropertyOp3
70
0
102
RTVSPropertyOp4
70
0
102
RTVSPropertyOp5
70
0
102
RTVSPropertyOp6
70
0
102
RTVSPropertyOp7
70
0
102
RTVSPropertyOp8
70
0
102
RTVSPropertyOp9
70
0
102
RTVSPropertyOp10
70
0
102
RTVSPropertyOp11
70
0
102
RTVSPropertyOp12
70
0
102
RTVSPropertyOp13
70
0
102
RTVSPropertyOp14
70
2
102
RTVSPropertyOp15
70
0
102
RTVSPropertyOp16
70
0
102
RTVSPropertyOp17
70
0
102
RTVSPropertyOp18
70
0
102
RTVSPropertyOp19
70
0
102
RTVSPropertyOp20
70
0
102
RTVSPropertyOp21
70
0
102
RTVSPropertyOp22
70
0
102
RTVSPropertyOp23
70
0
102
RTVSPropertyOp24
70
0
102
RTVSPropertyOp25
70
0
102
RTVSPropertyOp26
70
0
102
RTVSPropertyOp27
70
0
0
XRECORD
5
1093
102
{ACAD_REACTORS
330
1092
102
}
330
1092
100
AcDbXrecord
280
1
102
RTVSPropertyOp0
70
1
102
RTVSPropertyOp1
70
1
102
RTVSPropertyOp2
70
1
102
RTVSPropertyOp3
70
1
102
RTVSPropertyOp4
70
1
102
RTVSPropertyOp5
70
1
102
RTVSPropertyOp6
70
1
102
RTVSPropertyOp7
70
1
102
RTVSPropertyOp8
70
1
102
RTVSPropertyOp9
70
1
102
RTVSPropertyOp10
70
1
102
RTVSPropertyOp11
70
1
102
RTVSPropertyOp12
70
1
102
RTVSPropertyOp13
70
1
102
RTVSPropertyOp14
70
1
102
RTVSPropertyOp15
70
1
102
RTVSPropertyOp16
70
1
102
RTVSPropertyOp17
70
1
102
RTVSPropertyOp18
70
1
102
RTVSPropertyOp19
70
1
102
RTVSPropertyOp20
70
1
102
RTVSPropertyOp21
70
1
102
RTVSPropertyOp22
70
1
102
RTVSPropertyOp23
70
1
102
RTVSPropertyOp24
70
1
102
RTVSPropertyOp25
70
1
102
RTVSPropertyOp26
70
1
102
RTVSPropertyOp27
70
1
0
XRECORD
5
1099
102
{ACAD_REACTORS
330
1098
102
}
330
1098
100
AcDbXrecord
280
1
102
RTVSPropertyOp0
70
1
102
RTVSPropertyOp1
70
1
102
RTVSPropertyOp2
70
1
102
RTVSPropertyOp3
70
1
102
RTVSPropertyOp4
70
1
102
RTVSPropertyOp5
70
1
102
RTVSPropertyOp6
70
1
102
RTVSPropertyOp7
70
1
102
RTVSPropertyOp8
70
1
102
RTVSPropertyOp9
70
1
102
RTVSPropertyOp10
70
1
102
RTVSPropertyOp11
70
1
102
RTVSPropertyOp12
70
1
102
RTVSPropertyOp13
70
1
102
RTVSPropertyOp14
70
1
102
RTVSPropertyOp15
70
1
102
RTVSPropertyOp16
70
1
102
RTVSPropertyOp17
70
1
102
RTVSPropertyOp18
70
1
102
RTVSPropertyOp19
70
1
102
RTVSPropertyOp20
70
1
102
RTVSPropertyOp21
70
1
102
RTVSPropertyOp22
70
1
102
RTVSPropertyOp23
70
1
102
RTVSPropertyOp24
70
1
102
RTVSPropertyOp25
70
1
102
RTVSPropertyOp26
70
1
102
RTVSPropertyOp27
70
1
0
ENDSEC
0
EOF
