0
SECTION
2
HEADER
9
$ACADVER
1
AC1015
9
$ACADMAINTVER
70
20
9
$DWGCODEPAGE
3
ANSI_1252
9
$INSBASE
10
0.0
20
0.0
30
0.0
9
$EXTMIN
10
-150.000000000000
20
-105.000000000000
30
0.0
9
$EXTMAX
10
150.000000000000
20
105.000000000000
30
0.0
9
$LIMMIN
10
0.0
20
0.0
9
$LIMMAX
10
12.0
20
9.0
9
$ORTHOMODE
70
0
9
$REGENMODE
70
1
9
$FILLMODE
70
1
9
$QTEXTMODE
70
0
9
$MIRRTEXT
70
1
9
$LTSCALE
40
1.0
9
$ATTMODE
70
1
9
$TEXTSIZE
40
0.2
9
$TRACEWID
40
0.05
9
$TEXTSTYLE
7
Standard
9
$CLAYER
8
0
9
$CELTYPE
6
ByLayer
9
$CECOLOR
62
256
9
$CELTSCALE
40
1.0
9
$DISPSILH
70
0
9
$DIMSCALE
40
1.0
9
$DIMASZ
40
2.5
9
$DIMEXO
40
0.625
9
$DIMDLI
40
0.38
9
$DIMRND
40
0.0
9
$DIMDLE
40
0.0
9
$DIMEXE
40
1.25
9
$DIMTP
40
0.0
9
$DIMTM
40
0.000000001
9
$DIMTXT
40
2.5
9
$DIMCEN
40
0.09
9
$DIMTSZ
40
0.0
9
$DIMTOL
70
1
9
$DIMLIM
70
0
9
$DIMTIH
70
0
9
$DIMTOH
70
0
9
$DIMSE1
70
0
9
$DIMSE2
70
0
9
$DIMTAD
70
1
9
$DIMZIN
70
0
9
$DIMBLK
1
VDDIM_DEFAULT
9
$DIMASO
70
1
9
$DIMSHO
70
1
9
$DIMPOST
1

9
$DIMAPOST
1

9
$DIMALT
70
0
9
$DIMALTD
70
2
9
$DIMALTF
40
25.4
9
$DIMLFAC
40
1.00000000000000
9
$DIMTOFL
70
0
9
$DIMTVP
40
0.0
9
$DIMTIX
70
0
9
$DIMSOXD
70
0
9
$DIMSAH
70
0
9
$DIMBLK1
1

9
$DIMBLK2
1

9
$DIMSTYLE
2
BEM-ISBE
9
$DIMCLRD
70
0
9
$DIMCLRE
70
0
9
$DIMCLRT
70
0
9
$DIMTFAC
40
0.5
9
$DIMGAP
40
0.625
9
$DIMJUST
70
0
9
$DIMSD1
70
0
9
$DIMSD2
70
0
9
$DIMTOLJ
70
1
9
$DIMTZIN
70
0
9
$DIMALTZ
70
0
9
$DIMALTTZ
70
0
9
$DIMUPT
70
0
9
$DIMDEC
70
3
9
$DIMTDEC
70
3
9
$DIMALTU
70
2
9
$DIMALTTD
70
2
9
$DIMTXSTY
7
Standard
9
$DIMAUNIT
70
0
9
$DIMADEC
70
3
9
$DIMALTRND
40
0.0
9
$DIMAZIN
70
0
9
$DIMDSEP
70
46
9
$DIMATFIT
70
3
9
$DIMFRAC
70
0
9
$DIMLDRBLK
1

9
$DIMLUNIT
70
2
9
$DIMLWD
70
-2
9
$DIMLWE
70
-2
9
$DIMTMOVE
70
0
9
$LUNITS
70
2
9
$LUPREC
70
4
9
$SKETCHINC
40
0.1
9
$FILLETRAD
40
0.5
9
$AUNITS
70
0
9
$AUPREC
70
0
9
$MENU
1
.
9
$ELEVATION
40
0.0
9
$PELEVATION
40
0.0
9
$THICKNESS
40
0.0
9
$LIMCHECK
70
0
9
$CHAMFERA
40
0.5
9
$CHAMFERB
40
0.5
9
$CHAMFERC
40
1.0
9
$CHAMFERD
40
0.0
9
$SKPOLY
70
0
9
$TDCREATE
40
0.0
9
$TDUCREATE
40
0.0
9
$TDUPDATE
40
0.0
9
$TDUUPDATE
40
0.0
9
$TDINDWG
40
0.0
9
$TDUSRTIMER
40
0.0
9
$USRTIMER
70
1
9
$ANGBASE
50
0.0
9
$ANGDIR
70
0
9
$PDMODE
70
0
9
$PDSIZE
40
0.0
9
$PLINEWID
40
0.0
9
$SPLFRAME
70
0
9
$SPLINETYPE
70
6
9
$SPLINESEGS
70
8
9
$HANDSEED
5
10AB
9
$SURFTAB1
70
6
9
$SURFTAB2
70
6
9
$SURFTYPE
70
6
9
$SURFU
70
6
9
$SURFV
70
6
9
$UCSBASE
2

9
$UCSNAME
2

9
$UCSORG
10
0.0
20
0.0
30
0.0
9
$UCSXDIR
10
1.0
20
0.0
30
0.0
9
$UCSYDIR
10
0.0
20
1.0
30
0.0
9
$UCSORTHOREF
2

9
$UCSORTHOVIEW
70
0
9
$UCSORGTOP
10
0.0
20
0.0
30
0.0
9
$UCSORGBOTTOM
10
0.0
20
0.0
30
0.0
9
$UCSORGLEFT
10
0.0
20
0.0
30
0.0
9
$UCSORGRIGHT
10
0.0
20
0.0
30
0.0
9
$UCSORGFRONT
10
0.0
20
0.0
30
0.0
9
$UCSORGBACK
10
0.0
20
0.0
30
0.0
9
$PUCSBASE
2

9
$PUCSNAME
2

9
$PUCSORG
10
0.0
20
0.0
30
0.0
9
$PUCSXDIR
10
1.0
20
0.0
30
0.0
9
$PUCSYDIR
10
0.0
20
1.0
30
0.0
9
$PUCSORTHOREF
2

9
$PUCSORTHOVIEW
70
0
9
$PUCSORGTOP
10
0.0
20
0.0
30
0.0
9
$PUCSORGBOTTOM
10
0.0
20
0.0
30
0.0
9
$PUCSORGLEFT
10
0.0
20
0.0
30
0.0
9
$PUCSORGRIGHT
10
0.0
20
0.0
30
0.0
9
$PUCSORGFRONT
10
0.0
20
0.0
30
0.0
9
$PUCSORGBACK
10
0.0
20
0.0
30
0.0
9
$USERI1
70
0
9
$USERI2
70
0
9
$USERI3
70
0
9
$USERI4
70
0
9
$USERI5
70
0
9
$USERR1
40
0.0
9
$USERR2
40
0.0
9
$USERR3
40
0.0
9
$USERR4
40
0.0
9
$USERR5
40
0.0
9
$WORLDVIEW
70
1
9
$SHADEDGE
70
3
9
$SHADEDIF
70
70
9
$TILEMODE
70
1
9
$MAXACTVP
70
64
9
$PINSBASE
10
0.0
20
0.0
30
0.0
9
$PLIMCHECK
70
0
9
$PEXTMIN
10
1.000000000000000E+20
20
1.000000000000000E+20
30
1.000000000000000E+20
9
$PEXTMAX
10
-1.000000000000000E+20
20
-1.000000000000000E+20
30
-1.000000000000000E+20
9
$PLIMMIN
10
0.0
20
0.0
9
$PLIMMAX
10
12.0
20
9.0
9
$UNITMODE
70
0
9
$VISRETAIN
70
1
9
$PLINEGEN
70
0
9
$PSLTSCALE
70
1
9
$TREEDEPTH
70
3020
9
$CMLSTYLE
2
Standard
9
$CMLJUST
70
0
9
$CMLSCALE
40
1.0
9
$PROXYGRAPHICS
70
1
9
$MEASUREMENT
70
0
9
$CELWEIGHT
370
-1
9
$ENDCAPS
280
0
9
$JOINSTYLE
280
0
9
$LWDISPLAY
290
0
9
$INSUNITS
70
4
9
$HYPERLINKBASE
1

9
$STYLESHEET
1

9
$XEDIT
290
1
9
$CEPSNTYPE
380
0
9
$PSTYLEMODE
290
0
9
$FINGERPRINTGUID
2
{FAEB1C30-E019-11D5-929B-00C0DF256EC4}
9
$VERSIONGUID
2
{04C5C4E4-4947-4D90-8812-D401569E61F7}
9
$EXTNAMES
290
1
9
$PSVPSCALE
40
0.0
9
$OLESTARTUP
290
0
0
ENDSEC
0
SECTION
2
TABLES
0
TABLE
2
VPORT
5
24A
330
0
100
AcDbSymbolTable
70
1
0
VPORT
5
26B
330
24A
100
AcDbSymbolTableRecord
100
AcDbViewportTableRecord
2
*Active
70
0
10
0.0
20
0.0
11
1.0
21
1.0
12
0.000000000000000
22
0.000000000000000
13
0.0
23
0.0
14
10.0
24
10.0
15
10.0
25
10.0
16
0.0
26
0.0
36
1.0
17
0.0
27
0.0
37
0.0
40
210.000000000000
41
1.42857142857143
42
1.0
43
0.0
44
0.0
50
0.0
51
0.0000000000007958
71
0
72
100
73
1
74
3
75
0
76
0
77
0
78
1
281
0
65
1
110
0.0
120
0.0
130
0.0
111
1.0
121
0.0
131
0.0
112
0.0
122
1.0
132
0.0
79
0
146
0.0
0
ENDTAB
0
TABLE
2
LTYPE
5
247
330
0
100
AcDbSymbolTable
70
25
0
LTYPE
5
256
330
247
100
AcDbSymbolTableRecord
100
AcDbLinetypeTableRecord
2
ByBlock
70
0
3

72
65
73
0
40
0.0
0
LTYPE
5
257
330
247
100
AcDbSymbolTableRecord
100
AcDbLinetypeTableRecord
2
ByLayer
70
0
3

72
65
73
0
40
0.0
0
LTYPE
5
258
330
247
100
AcDbSymbolTableRecord
100
AcDbLinetypeTableRecord
2
Continuous
70
0
3
Solid line
72
65
73
0
40
0.0
0
LTYPE
5
273
330
247
100
AcDbSymbolTableRecord
100
AcDbLinetypeTableRecord
2
CENTER
70
0
3
Center ____ _ ____ _ ____ _ ____ _ ____ _ ____
72
65
73
4
40
2.0
49
1.25
74
0
49
-0.25
74
0
49
0.25
74
0
49
-0.25
74
0
0
LTYPE
5
274
330
247
100
AcDbSymbolTableRecord
100
AcDbLinetypeTableRecord
2
DASHDOT
70
0
3
Dashdot __ . __ . __ . __ . __ . __ . __ . __
72
65
73
4
40
1.0
49
0.5
74
0
49
-0.25
74
0
49
0.0
74
0
49
-0.25
74
0
0
LTYPE
5
275
330
247
100
AcDbSymbolTableRecord
100
AcDbLinetypeTableRecord
2
DASHED
70
0
3
Dashed __ __ __ __ __ __ __ __ __ __ __ __ __ _
72
65
73
2
40
0.75
49
0.5
74
0
49
-0.25
74
0
0
LTYPE
5
276
330
247
100
AcDbSymbolTableRecord
100
AcDbLinetypeTableRecord
2
HIDDEN
70
0
3
Hidden __ __ __ __ __ __ __ __ __ __ __ __ __ __
72
65
73
2
40
0.375
49
0.25
74
0
49
-0.125
74
0
0
LTYPE
5
277
330
247
100
AcDbSymbolTableRecord
100
AcDbLinetypeTableRecord
2
HIDDEN2
70
0
3
Hidden2 _ _ _ _ _ _ _ _ _ _ _ _ _ _ _ _ _
72
65
73
2
40
0.1875
49
0.125
74
0
49
-0.0625
74
0
0
LTYPE
5
278
330
247
100
AcDbSymbolTableRecord
100
AcDbLinetypeTableRecord
2
BORDER
70
0
3
Border __ __ . __ __ . __ __ . __ __ . __ __ .
72
65
73
6
40
1.75
49
0.5
74
0
49
-0.25
74
0
49
0.5
74
0
49
-0.25
74
0
49
0.0
74
0
49
-0.25
74
0
0
LTYPE
5
279
330
247
100
AcDbSymbolTableRecord
100
AcDbLinetypeTableRecord
2
BORDER2
70
0
3
Border2 __.__.__.__.__.__.__.__.__.__.__.
72
65
73
6
40
0.875
49
0.25
74
0
49
-0.125
74
0
49
0.25
74
0
49
-0.125
74
0
49
0.0
74
0
49
-0.125
74
0
0
LTYPE
5
27A
330
247
100
AcDbSymbolTableRecord
100
AcDbLinetypeTableRecord
2
BORDERX2
70
0
3
Borderx2  ____  ____  .  ____  ____  .  ___
72
65
73
6
40
3.5
49
1.0
74
0
49
-0.5
74
0
49
1.0
74
0
49
-0.5
74
0
49
0.0
74
0
49
-0.5
74
0
0
LTYPE
5
27B
330
247
100
AcDbSymbolTableRecord
100
AcDbLinetypeTableRecord
2
CENTER2
70
0
3
Center2  ___ _ ___ _ ___ _ ___ _ ___ _ ___
72
65
73
4
40
1.125
49
0.75
74
0
49
-0.125
74
0
49
0.125
74
0
49
-0.125
74
0
0
LTYPE
5
27C
330
247
100
AcDbSymbolTableRecord
100
AcDbLinetypeTableRecord
2
CENTERX2
70
0
3
Centerx2  ________  __  ________  __  _____
72
65
73
4
40
4.0
49
2.5
74
0
49
-0.5
74
0
49
0.5
74
0
49
-0.5
74
0
0
LTYPE
5
27D
330
247
100
AcDbSymbolTableRecord
100
AcDbLinetypeTableRecord
2
DASHDOT2
70
0
3
Dashdot2  _._._._._._._._._._._._._._._.
72
65
73
4
40
0.5
49
0.25
74
0
49
-0.125
74
0
49
0.0
74
0
49
-0.125
74
0
0
LTYPE
5
27E
330
247
100
AcDbSymbolTableRecord
100
AcDbLinetypeTableRecord
2
DASHDOTX2
70
0
3
Dashdotx2 ____  .  ____  .  ____  .  ___
72
65
73
4
40
2.0
49
1.0
74
0
49
-0.5
74
0
49
0.0
74
0
49
-0.5
74
0
0
LTYPE
5
27F
330
247
100
AcDbSymbolTableRecord
100
AcDbLinetypeTableRecord
2
DASHED2
70
0
3
Dashed2 _ _ _ _ _ _ _ _ _ _ _ _ _ _ _ _ _
72
65
73
2
40
0.375
49
0.25
74
0
49
-0.125
74
0
0
LTYPE
5
280
330
247
100
AcDbSymbolTableRecord
100
AcDbLinetypeTableRecord
2
DASHEDX2
70
0
3
Dashedx2 ____  ____  ____  ____  ____  ___
72
65
73
2
40
1.5
49
1.0
74
0
49
-0.5
74
0
0
LTYPE
5
281
330
247
100
AcDbSymbolTableRecord
100
AcDbLinetypeTableRecord
2
DIVIDE
70
0
3
Divide ____ . . ____ . . ____ . . ____ . . ____
72
65
73
6
40
1.25
49
0.5
74
0
49
-0.25
74
0
49
0.0
74
0
49
-0.25
74
0
49
0.0
74
0
49
-0.25
74
0
0
LTYPE
5
282
330
247
100
AcDbSymbolTableRecord
100
AcDbLinetypeTableRecord
2
DIVIDE2
70
0
3
Divide2 __..__..__..__..__..__..__..__.._
72
65
73
6
40
0.625
49
0.25
74
0
49
-0.125
74
0
49
0.0
74
0
49
-0.125
74
0
49
0.0
74
0
49
-0.125
74
0
0
LTYPE
5
283
330
247
100
AcDbSymbolTableRecord
100
AcDbLinetypeTableRecord
2
DIVIDEX2
70
0
3
Dividex2 ________  .  .  ________  .  .  _
72
65
73
6
40
2.5
49
1.0
74
0
49
-0.5
74
0
49
0.0
74
0
49
-0.5
74
0
49
0.0
74
0
49
-0.5
74
0
0
LTYPE
5
284
330
247
100
AcDbSymbolTableRecord
100
AcDbLinetypeTableRecord
2
DOT
70
0
3
Dot . . . . . . . . . . . . . . . . . . . . . . . .
72
65
73
2
40
0.25
49
0.0
74
0
49
-0.25
74
0
0
LTYPE
5
285
330
247
100
AcDbSymbolTableRecord
100
AcDbLinetypeTableRecord
2
DOT2
70
0
3
Dot2 ........................................
72
65
73
2
40
0.125
49
0.0
74
0
49
-0.125
74
0
0
LTYPE
5
286
330
247
100
AcDbSymbolTableRecord
100
AcDbLinetypeTableRecord
2
DOTX2
70
0
3
Dotx2 .  .  .  .  .  .  .  .  .  .  .  .  .  .
72
65
73
2
40
0.5
49
0.0
74
0
49
-0.5
74
0
0
LTYPE
5
287
330
247
100
AcDbSymbolTableRecord
100
AcDbLinetypeTableRecord
2
HIDDENX2
70
0
3
Hiddenx2 ____ ____ ____ ____ ____ ____ ____
72
65
73
2
40
0.75
49
0.5
74
0
49
-0.25
74
0
0
LTYPE
5
288
330
247
100
AcDbSymbolTableRecord
100
AcDbLinetypeTableRecord
2
PHANTOM
70
0
3
Phantom ______  __  __  ______  __  __  ______
72
65
73
6
40
2.5
49
1.25
74
0
49
-0.25
74
0
49
0.25
74
0
49
-0.25
74
0
49
0.25
74
0
49
-0.25
74
0
0
LTYPE
5
289
330
247
100
AcDbSymbolTableRecord
100
AcDbLinetypeTableRecord
2
PHANTOM2
70
0
3
Phantom2 ___ _ _ ___ _ _ ___ _ _ ___ _ _
72
65
73
6
40
1.25
49
0.625
74
0
49
-0.125
74
0
49
0.125
74
0
49
-0.125
74
0
49
0.125
74
0
49
-0.125
74
0
0
LTYPE
5
28A
330
247
100
AcDbSymbolTableRecord
100
AcDbLinetypeTableRecord
2
PHANTOMX2
70
0
3
Phantomx2 ____________    ____    ____   _
72
65
73
6
40
5.0
49
2.5
74
0
49
-0.5
74
0
49
0.5
74
0
49
-0.5
74
0
49
0.5
74
0
49
-0.5
74
0
0
ENDTAB
0
TABLE
2
LAYER
5
244
330
0
100
AcDbSymbolTable
70
6
0
LAYER
5
252
330
244
100
AcDbSymbolTableRecord
100
AcDbLayerTableRecord
2
0
70
0
62
7
6
Continuous
370
0
390
251
0
LAYER
5
23F
330
244
100
AcDbSymbolTableRecord
100
AcDbLayerTableRecord
2
Bemassung
70
0
 62
   7
6
Continuous
370
0
390
251
0
LAYER
5
240
330
244
100
AcDbSymbolTableRecord
100
AcDbLayerTableRecord
2
Rahmen
70
0
 62
   7
6
Continuous
370
0
390
251
0
LAYER
5
241
330
244
100
AcDbSymbolTableRecord
100
AcDbLayerTableRecord
2
Geo
70
0
 62
   7
6
Continuous
370
0
390
251
0
LAYER
5
33A
330
244
100
AcDbSymbolTableRecord
100
AcDbLayerTableRecord
2
Defpoints
70
0
62
7
6
Continuous
290
0
370
-3
390
251
0
LAYER
5
57E
330
244
100
AcDbSymbolTableRecord
100
AcDbLayerTableRecord
2
Text
70
0
 62
   7
6
Continuous
370
0
390
251
1001
AcAecLayerStandard
1000

1000

0
ENDTAB
0
TABLE
2
STYLE
5
245
330
0
100
AcDbSymbolTable
70
2
0
STYLE
5
253
330
245
100
AcDbSymbolTableRecord
100
AcDbTextStyleTableRecord
2
Standard
70
0
40
0.0
41
1.0
50
0.0
71
0
42
0.2
3
Arial
4

1001
ACAD
1000
Arial
1071
0
0
STYLE
5
132
330
245
100
AcDbSymbolTableRecord
100
AcDbTextStyleTableRecord
2
Beschriftung
70
0
40
0.0
41
1.0
50
0.0
71
0
42
0.2
3
Arial
4

1001
ACAD
1000
Arial
1071
0
1001
AcadAnnotative
1000
AnnotativeData
1070
1
1070
1
0
ENDTAB
0
TABLE
2
VIEW
5
248
330
0
100
AcDbSymbolTable
70
0
0
ENDTAB
0
TABLE
2
UCS
5
249
330
0
100
AcDbSymbolTable
70
0
0
ENDTAB
0
TABLE
2
APPID
5
24B
330
0
100
AcDbSymbolTable
70
13
0
APPID
5
254
330
24B
100
AcDbSymbolTableRecord
100
AcDbRegAppTableRecord
2
ACAD
70
0
0
APPID
5
26C
330
24B
100
AcDbSymbolTableRecord
100
AcDbRegAppTableRecord
2
VD_INVISIBLE_NOT_FOR_READ
70
0
0
APPID
5
26D
330
24B
100
AcDbSymbolTableRecord
100
AcDbRegAppTableRecord
2
VD_TEMPHATCH
70
0
0
APPID
5
26E
330
24B
100
AcDbSymbolTableRecord
100
AcDbRegAppTableRecord
2
VDEXTRAPARAM
70
0
0
APPID
5
26F
330
24B
100
AcDbSymbolTableRecord
100
AcDbRegAppTableRecord
2
PE_URL
70
0
0
APPID
5
270
330
24B
100
AcDbSymbolTableRecord
100
AcDbRegAppTableRecord
2
VD_UNKNOWN
70
0
0
APPID
5
28F
330
24B
100
AcDbSymbolTableRecord
100
AcDbRegAppTableRecord
2
AcadAnnotative
70
0
0
APPID
5
290
330
24B
100
AcDbSymbolTableRecord
100
AcDbRegAppTableRecord
2
ACAD_DSTYLE_DIMJAG
70
0
0
APPID
5
291
330
24B
100
AcDbSymbolTableRecord
100
AcDbRegAppTableRecord
2
ACAD_DSTYLE_DIMTALN
70
0
0
APPID
5
293
330
24B
100
AcDbSymbolTableRecord
100
AcDbRegAppTableRecord
2
ACAD_PSEXT
70
0
0
APPID
5
42A
330
24B
100
AcDbSymbolTableRecord
100
AcDbRegAppTableRecord
2
ACAD_MLEADERVER
70
0
0
APPID
5
532
330
24B
100
AcDbSymbolTableRecord
100
AcDbRegAppTableRecord
2
ACAD_EXEMPT_FROM_CAD_STANDARDS
70
0
0
APPID
5
57F
330
24B
100
AcDbSymbolTableRecord
100
AcDbRegAppTableRecord
2
AcAecLayerStandard
70
0
0
ENDTAB
0
TABLE
2
DIMSTYLE
5
24C
330
0
100
AcDbSymbolTable
70
3
100
AcDbDimStyleTable
71
2
340
27
340
269
0
DIMSTYLE
105
269
330
24C
100
AcDbSymbolTableRecord
100
AcDbDimStyleTableRecord
2
Standard
70
0
172
1
174
1
288
1
340
253
342
23C
0
DIMSTYLE
105
137
330
24C
100
AcDbSymbolTableRecord
100
AcDbDimStyleTableRecord
2
Beschriftung
70
0
41
2.5
42
0.625
44
1.25
73
0
74
0
77
1
140
2.5
147
0.625
172
1
174
1
271
2
288
1
340
253
342
23C
1001
AcadAnnotative
1000
AnnotativeData
1070
1
1070
1
1001
ACAD_DSTYLE_DIMJAG
1070
388
1040
1.5
1001
ACAD_DSTYLE_DIMTALN
1070
392
1070
0
0
DIMSTYLE
105
27
102
{ACAD_REACTORS
330
F10012
330
F10021
330
F1002B
330
F10030
330
F10003
330
F1001C
330
F1000D
330
F10008
330
F10017
330
F10026
102
}
330
24C
100
AcDbSymbolTableRecord
100
AcDbDimStyleTableRecord
2
BEM-ISBE
70
0
41
2.5
42
0.625
44
1.25
48
0.000000001
71
1
73
0
74
0
77
1
140
2.5
144
1.00000000000000
146
0.5
147
0.625
171
 3
172
 1
179
 3
271
 3
272
 3
274
 3
340
253
342
23C
1001
ACAD_DSTYLE_DIMJAG
1070
388
1040
1.5
1001
ACAD_DSTYLE_DIMTALN
1070
392
1070
1
0
ENDTAB
0
TABLE
2
BLOCK_RECORD
5
243
330
0
100
AcDbSymbolTable
70
5
0
BLOCK_RECORD
5
261
330
243
100
AcDbSymbolTableRecord
100
AcDbBlockTableRecord
2
*Model_Space
340
FD0
0
BLOCK_RECORD
5
25D
330
243
100
AcDbSymbolTableRecord
100
AcDbBlockTableRecord
2
*Paper_Space
340
FD1
0
BLOCK_RECORD
5
265
330
243
100
AcDbSymbolTableRecord
100
AcDbBlockTableRecord
2
*Paper_Space0
340
0
0
BLOCK_RECORD
5
23C
330
243
100
AcDbSymbolTableRecord
100
AcDbBlockTableRecord
2
VDDIM_DEFAULT
340
0
102
{BLKREFS
102
}
0
BLOCK_RECORD
5
23E
330
243
100
AcDbSymbolTableRecord
100
AcDbBlockTableRecord
2
VDDIM_NONE
340
0
0
BLOCK_RECORD
5
F10011
330
243
100
AcDbSymbolTableRecord
100
AcDbBlockTableRecord
2
*D6
340
0
0
BLOCK_RECORD
5
F10020
330
243
100
AcDbSymbolTableRecord
100
AcDbBlockTableRecord
2
*D9
340
0
0
BLOCK_RECORD
5
F1002A
330
243
100
AcDbSymbolTableRecord
100
AcDbBlockTableRecord
2
*D11
340
0
0
BLOCK_RECORD
5
F1002F
330
243
100
AcDbSymbolTableRecord
100
AcDbBlockTableRecord
2
*D12
340
0
0
BLOCK_RECORD
5
F10002
330
243
100
AcDbSymbolTableRecord
100
AcDbBlockTableRecord
2
*D3
340
0
0
BLOCK_RECORD
5
F1001B
330
243
100
AcDbSymbolTableRecord
100
AcDbBlockTableRecord
2
*D8
340
0
0
BLOCK_RECORD
5
F1000C
330
243
100
AcDbSymbolTableRecord
100
AcDbBlockTableRecord
2
*D5
340
0
0
BLOCK_RECORD
5
F10007
330
243
100
AcDbSymbolTableRecord
100
AcDbBlockTableRecord
2
*D4
340
0
0
BLOCK_RECORD
5
F10016
330
243
100
AcDbSymbolTableRecord
100
AcDbBlockTableRecord
2
*D7
340
0
0
BLOCK_RECORD
5
F10025
330
243
100
AcDbSymbolTableRecord
100
AcDbBlockTableRecord
2
*D10
340
0
0
ENDTAB
0
ENDSEC
0
SECTION
2
BLOCKS
0
BLOCK
5
262
330
261
100
AcDbEntity
8
0
100
AcDbBlockBegin
2
*Model_Space
70
0
10
0.0
20
0.0
30
0.0
3
*Model_Space
1

0
ENDBLK
5
263
330
261
100
AcDbEntity
8
0
100
AcDbBlockEnd
0
BLOCK
5
25E
330
25D
100
AcDbEntity
67
1
8
0
100
AcDbBlockBegin
2
*Paper_Space
70
0
10
0.0
20
0.0
30
0.0
3
*Paper_Space
1

0
ENDBLK
5
25F
330
25D
100
AcDbEntity
67
1
8
0
100
AcDbBlockEnd
0
BLOCK
5
266
330
265
100
AcDbEntity
8
0
100
AcDbBlockBegin
2
*Paper_Space0
70
0
10
0.0
20
0.0
30
0.0
3
*Paper_Space0
1

0
VIEWPORT
5
296
102
{ACAD_XDICTIONARY
360
58E
102
}
330
265
100
AcDbEntity
8
0
60
1
100
AcDbViewport
10
0.0
20
0.0
30
0.0
40
10.0
41
10.0
69
0
12
0.0
22
0.0
13
0.0
23
0.0
14
1.0
24
1.0
15
0.0
25
0.0
16
0.0
26
0.0
36
1.0
17
0.0
27
0.0
37
0.0
42
0.0
43
0.0
44
0.0
45
10.0
50
0.0
51
0.0000000000007958
72
100
90
163872
1

281
0
71
0
74
0
110
0.0
120
0.0
130
0.0
111
1.0
121
0.0
131
0.0
112
0.0
122
1.0
132
0.0
79
0
146
0.0
1001
VD_INVISIBLE_NOT_FOR_READ
1000
VD_INVISIBLE_NOT_FOR_READ
0
VIEWPORT
5
297
102
{ACAD_XDICTIONARY
360
590
102
}
330
265
100
AcDbEntity
8
0
60
1
100
AcDbViewport
10
0.0
20
0.0
30
0.0
40
10.0
41
10.0
69
0
12
0.0
22
0.0
13
0.0
23
0.0
14
1.0
24
1.0
15
0.0
25
0.0
16
0.0
26
0.0
36
1.0
17
0.0
27
0.0
37
0.0
42
0.0
43
0.0
44
0.0
45
10.0
50
0.0
51
0.0000000000007958
72
100
90
163872
1

281
0
71
0
74
0
110
0.0
120
0.0
130
0.0
111
1.0
121
0.0
131
0.0
112
0.0
122
1.0
132
0.0
79
0
146
0.0
1001
VD_INVISIBLE_NOT_FOR_READ
1000
VD_INVISIBLE_NOT_FOR_READ
0
ENDBLK
5
267
330
265
100
AcDbEntity
8
0
100
AcDbBlockEnd
0
BLOCK
5
28B
330
23C
100
AcDbEntity
8
0
100
AcDbBlockBegin
2
VDDIM_DEFAULT
70
0
10
0.0
20
0.0
30
0.0
3
VDDIM_DEFAULT
1

0
LWPOLYLINE
5
23D
330
23C
100
AcDbEntity
8
0
6
Continuous
62
0
100
AcDbPolyline
90
4
70
0
43
0.0
10
0.0
20
0.0
10
-1.0
20
-0.1665
10
-1.0
20
0.1665
10
0.0
20
0.0
1001
VDEXTRAPARAM
1071
1
1071
0
1071
0
1040
1.0
1000

1000

1040
0.0
1040
0.0
0
HATCH
5
292
330
23C
100
AcDbEntity
8
0
6
Continuous
62
0
100
AcDbHatch
10
0.0
20
0.0
30
0.0
210
0.0
220
0.0
230
1.0
2
SOLID
70
1
71
0
91
1
92
2
72
0
73
1
93
3
10
0.0
20
0.0
10
-1.0
20
-0.1665
10
-1.0
20
0.1665
97
0
75
0
76
1
98
1
10
0.0
20
0.0
1001
VDEXTRAPARAM
1071
1
1071
0
1071
0
1040
1.0
1000

1000

1040
0.0
1040
0.0
1001
VD_TEMPHATCH
1000
VD_TEMPHATCH
0
ENDBLK
5
28C
330
23C
100
AcDbEntity
8
0
100
AcDbBlockEnd
0
BLOCK
5
28D
330
23E
100
AcDbEntity
8
0
100
AcDbBlockBegin
2
VDDIM_NONE
70
0
10
0.0
20
0.0
30
0.0
3
VDDIM_NONE
1

0
ENDBLK
5
28E
330
23E
100
AcDbEntity
8
0
100
AcDbBlockEnd
  0
BLOCK
  5
F10034
330
F10011
100
AcDbEntity
  8
0
100
AcDbBlockBegin
  2
*D6
 70
     1
 10
0.0
 20
0.0
 30
0.0
  3
*D6
  1

  0
LINE
  5
F10035
330
F10011
100
AcDbEntity
  8
Bemassung
 62
     0
370
    -2
100
AcDbLine
10
-96.0776493592753
20
-12.3409663388465
30
0.000000000000000
11
-96.0776493592753
21
22.6590336611535
31
0.000000000000000
  0
LINE
  5
F10036
330
F10011
100
AcDbEntity
  8
Bemassung
 62
     0
370
    -2
100
AcDbLine
10
-85.5776493592753
20
-0.340966338846485
30
0.000000000000000
11
-85.5776493592753
21
12.6590336611535
31
0.000000000000000
  0
LINE
  5
F10037
330
F10011
100
AcDbEntity
  8
Bemassung
 62
     0
370
    -2
100
AcDbLine
10
-96.0776493592753
20
10.6590336611535
30
0.000000000000000
11
-73.5639245921453
21
10.6590336611535
31
0.000000000000000
  0
INSERT
  5
F10038
330
F10011
100
AcDbEntity
  8
Bemassung
 62
     0
370
    -2
100
AcDbBlockReference
  2
VDDIM_DEFAULT
10
-96.0776493592753
20
10.6590336611535
30
0.000000000000000
 41
2.50000000000000
 42
2.50000000000000
 43
2.50000000000000
 50
180.000000000000
  0
INSERT
  5
F10039
330
F10011
100
AcDbEntity
  8
Bemassung
 62
     0
370
    -2
100
AcDbBlockReference
  2
VDDIM_DEFAULT
10
-85.5776493592753
20
10.6590336611535
30
0.000000000000000
 41
2.50000000000000
 42
2.50000000000000
 43
2.50000000000000
  0
MTEXT
  5
F1003A
330
F10011
100
AcDbEntity
  8
Bemassung
 62
     0
100
AcDbMText
10
-90.8276493592753
20
11.3257003278202
30
0.000000000000000
 40
2.50000000000000
 41
0.0
 71
     8
 72
     1
  1
10.5
 11
1.00000000000000
 21
0.000000000000000
 31
0.0
 73
     1
 44
1.0
1001
ACAD
1000
MTEXTBEGIN
1070
73
1070
1
1070
44
1040
1.0
1070
74
1070
0
1000
MTEXTEND
  0
POINT
  5
F1003B
330
F10011
100
AcDbEntity
  8
Bemassung
 62
     0
100
AcDbPoint
10
-96.0776493592753
20
-12.3409663388465
30
0.000000000000000
  0
POINT
  5
F1003C
330
F10011
100
AcDbEntity
  8
Bemassung
 62
     0
100
AcDbPoint
10
-85.5776493592753
20
-0.340966338846485
30
0.000000000000000
  0
ENDBLK
  5
F1003D
330
F10011
100
AcDbEntity
  8
0
100
AcDbBlockEnd
  0
BLOCK
  5
F1003E
330
F10020
100
AcDbEntity
  8
0
100
AcDbBlockBegin
  2
*D9
 70
     1
 10
0.0
 20
0.0
 30
0.0
  3
*D9
  1

  0
LINE
  5
F1003F
330
F10020
100
AcDbEntity
  8
Bemassung
 62
     0
370
    -2
100
AcDbLine
10
-81.8455985517064
20
0.659033661153515
30
0.000000000000000
11
-81.8455985517064
21
17.6590336611535
31
0.000000000000000
  0
LINE
  5
F10040
330
F10020
100
AcDbEntity
  8
Bemassung
 62
     0
370
    -2
100
AcDbLine
10
-45.0776493592753
20
-0.340966338846484
30
0.000000000000000
11
-45.0776493592753
21
22.6590336611535
31
0.000000000000000
  0
LINE
  5
F10041
330
F10020
100
AcDbEntity
  8
Bemassung
 62
     0
370
    -2
100
AcDbLine
10
-81.8455985517064
20
15.6590336611535
30
0.000000000000000
11
36.6563813186468
21
15.6590336611535
31
0.000000000000000
  0
INSERT
  5
F10042
330
F10020
100
AcDbEntity
  8
Bemassung
 62
     0
370
    -2
100
AcDbBlockReference
  2
VDDIM_DEFAULT
10
-81.8455985517064
20
15.6590336611535
30
0.000000000000000
 41
2.50000000000000
 42
2.50000000000000
 43
2.50000000000000
 50
180.000000000000
  0
INSERT
  5
F10043
330
F10020
100
AcDbEntity
  8
Bemassung
 62
     0
370
    -2
100
AcDbBlockReference
  2
VDDIM_DEFAULT
10
-45.0776493592753
20
15.6590336611535
30
0.000000000000000
 41
2.50000000000000
 42
2.50000000000000
 43
2.50000000000000
  0
MTEXT
  5
F10044
330
F10020
100
AcDbEntity
  8
Bemassung
 62
     0
100
AcDbMText
10
-63.4616239554908
20
16.3257003278202
30
0.000000000000000
 40
2.50000000000000
 41
0.0
 71
     8
 72
     1
  1
36.768
 11
1.00000000000000
 21
0.000000000000000
 31
0.0
 73
     1
 44
1.0
1001
ACAD
1000
MTEXTBEGIN
1070
73
1070
1
1070
44
1040
1.0
1070
74
1070
0
1000
MTEXTEND
  0
POINT
  5
F10045
330
F10020
100
AcDbEntity
  8
Bemassung
 62
     0
100
AcDbPoint
10
-81.8455985517064
20
0.659033661153515
30
0.000000000000000
  0
POINT
  5
F10046
330
F10020
100
AcDbEntity
  8
Bemassung
 62
     0
100
AcDbPoint
10
-45.0776493592753
20
-0.340966338846484
30
0.000000000000000
  0
ENDBLK
  5
F10047
330
F10020
100
AcDbEntity
  8
0
100
AcDbBlockEnd
  0
BLOCK
  5
F10048
330
F1002A
100
AcDbEntity
  8
0
100
AcDbBlockBegin
  2
*D11
 70
     1
 10
0.0
 20
0.0
 30
0.0
  3
*D11
  1

  0
LINE
  5
F10049
330
F1002A
100
AcDbEntity
  8
Bemassung
 62
     0
370
    -2
100
AcDbLine
10
-87.0776493592753
20
-4.34096633884649
30
0.000000000000000
11
-87.0776493592753
21
-12.3409663388465
31
0.000000000000000
  0
LINE
  5
F1004A
330
F1002A
100
AcDbEntity
  8
Bemassung
 62
     0
370
    -2
100
AcDbLine
10
-96.0776493592753
20
-12.3409663388465
30
0.000000000000000
11
-96.0776493592753
21
22.6590336611535
31
0.000000000000000
  0
LINE
  5
F1004B
330
F1002A
100
AcDbEntity
  8
Bemassung
 62
     0
370
    -2
100
AcDbLine
10
-77.6715136322990
20
-10.3409663388465
30
0.000000000000000
11
-96.0776493592753
21
-10.3409663388465
31
0.000000000000000
  0
INSERT
  5
F1004C
330
F1002A
100
AcDbEntity
  8
Bemassung
 62
     0
370
    -2
100
AcDbBlockReference
  2
VDDIM_DEFAULT
10
-87.0776493592753
20
-10.3409663388465
30
0.000000000000000
 41
2.50000000000000
 42
2.50000000000000
 43
2.50000000000000
  0
INSERT
  5
F1004D
330
F1002A
100
AcDbEntity
  8
Bemassung
 62
     0
370
    -2
100
AcDbBlockReference
  2
VDDIM_DEFAULT
10
-96.0776493592753
20
-10.3409663388465
30
0.000000000000000
 41
2.50000000000000
 42
2.50000000000000
 43
2.50000000000000
 50
180.000000000000
  0
MTEXT
  5
F1004E
330
F1002A
100
AcDbEntity
  8
Bemassung
 62
     0
100
AcDbMText
10
-91.5776493592753
20
-9.67429967217982
30
0.000000000000000
 40
2.50000000000000
 41
0.0
 71
     8
 72
     1
  1
9
 11
1.00000000000000
 21
0.000000000000000
 31
0.0
 73
     1
 44
1.0
1001
ACAD
1000
MTEXTBEGIN
1070
73
1070
1
1070
44
1040
1.0
1070
74
1070
0
1000
MTEXTEND
  0
POINT
  5
F1004F
330
F1002A
100
AcDbEntity
  8
Bemassung
 62
     0
100
AcDbPoint
10
-87.0776493592753
20
-4.34096633884649
30
0.000000000000000
  0
POINT
  5
F10050
330
F1002A
100
AcDbEntity
  8
Bemassung
 62
     0
100
AcDbPoint
10
-96.0776493592753
20
-12.3409663388465
30
0.000000000000000
  0
ENDBLK
  5
F10051
330
F1002A
100
AcDbEntity
  8
0
100
AcDbBlockEnd
  0
BLOCK
  5
F10052
330
F1002F
100
AcDbEntity
  8
0
100
AcDbBlockBegin
  2
*D12
 70
     1
 10
0.0
 20
0.0
 30
0.0
  3
*D12
  1

  0
LINE
  5
F10053
330
F1002F
100
AcDbEntity
  8
Bemassung
 62
     0
370
    -2
100
AcDbLine
10
-45.0776493592753
20
-0.340966338846484
30
0.000000000000000
11
-45.0776493592753
21
22.6590336611535
31
0.000000000000000
  0
LINE
  5
F10054
330
F1002F
100
AcDbEntity
  8
Bemassung
 62
     0
370
    -2
100
AcDbLine
10
-96.0776493592753
20
-12.3409663388465
30
0.000000000000000
11
-96.0776493592753
21
22.6590336611535
31
0.000000000000000
  0
LINE
  5
F10055
330
F1002F
100
AcDbEntity
  8
Bemassung
 62
     0
370
    -2
100
AcDbLine
10
6.70521123419246
20
20.6590336611535
30
0.000000000000000
11
-96.0776493592753
21
20.6590336611535
31
0.000000000000000
  0
INSERT
  5
F10056
330
F1002F
100
AcDbEntity
  8
Bemassung
 62
     0
370
    -2
100
AcDbBlockReference
  2
VDDIM_DEFAULT
10
-45.0776493592753
20
20.6590336611535
30
0.000000000000000
 41
2.50000000000000
 42
2.50000000000000
 43
2.50000000000000
  0
INSERT
  5
F10057
330
F1002F
100
AcDbEntity
  8
Bemassung
 62
     0
370
    -2
100
AcDbBlockReference
  2
VDDIM_DEFAULT
10
-96.0776493592753
20
20.6590336611535
30
0.000000000000000
 41
2.50000000000000
 42
2.50000000000000
 43
2.50000000000000
 50
180.000000000000
  0
MTEXT
  5
F10058
330
F1002F
100
AcDbEntity
  8
Bemassung
 62
     0
100
AcDbMText
10
-70.5776493592753
20
21.3257003278202
30
0.000000000000000
 40
2.50000000000000
 41
0.0
 71
     8
 72
     1
  1
51
 11
1.00000000000000
 21
0.000000000000000
 31
0.0
 73
     1
 44
1.0
1001
ACAD
1000
MTEXTBEGIN
1070
73
1070
1
1070
44
1040
1.0
1070
74
1070
0
1000
MTEXTEND
  0
POINT
  5
F10059
330
F1002F
100
AcDbEntity
  8
Bemassung
 62
     0
100
AcDbPoint
10
-45.0776493592753
20
-0.340966338846484
30
0.000000000000000
  0
POINT
  5
F1005A
330
F1002F
100
AcDbEntity
  8
Bemassung
 62
     0
100
AcDbPoint
10
-96.0776493592753
20
-12.3409663388465
30
0.000000000000000
  0
ENDBLK
  5
F1005B
330
F1002F
100
AcDbEntity
  8
0
100
AcDbBlockEnd
  0
BLOCK
  5
F1005C
330
F10002
100
AcDbEntity
  8
0
100
AcDbBlockBegin
  2
*D3
 70
     1
 10
0.0
 20
0.0
 30
0.0
  3
*D3
  1

 0
ARC
  5
F1005D
330
F10002
100
AcDbEntity
  8
Bemassung
 62
     0
370
   -2
100
AcDbCircle
10
-96.0775275246791
20
-0.547946238186985
30
0.000000000000000
 40
18.9091232513799
100
AcDbArc
 50
90.0000000000000
 51
102.871576386721
  0
LINE
  5
F1005E
330
F10002
100
AcDbEntity
  8
Bemassung
 62
     0
370
    -2
100
AcDbLine
10
-96.0775275246791
20
-0.547946238186985
30
0.000000000000000
11
-96.0775275246791
21
20.3611770131929
31
0.000000000000000
  0
LINE
  5
F1005F
330
F10002
100
AcDbEntity
  8
Bemassung
 62
     0
370
    -2
100
AcDbLine
10
-96.0775275246791
20
-0.547946238186985
30
0.000000000000000
11
-96.8072454026428
21
20.3484397402538
31
0.000000000000000
  0
INSERT
  5
F10060
330
F10002
100
AcDbEntity
  8
Bemassung
 62
     0
370
    -2
100
AcDbBlockReference
  2
VDDIM_DEFAULT
10
-96.0775275246791
20
18.3611770131929
30
0.000000000000000
 41
2.50000000000000
 42
2.50000000000000
 43
2.50000000000000
 50
179.848496819447
  0
INSERT
  5
F10061
330
F10002
100
AcDbEntity
  8
Bemassung
 62
     0
370
    -2
100
AcDbBlockReference
  2
VDDIM_DEFAULT
10
-96.7374464092378
20
18.3496580862156
30
0.000000000000000
 41
2.50000000000000
 42
2.50000000000000
 43
2.50000000000000
 50
2.15150318055596
  0
MTEXT
  5
F10062
330
F10002
100
AcDbEntity
  8
Bemassung
 62
     0
100
AcDbMText
10
-100.573799305348
20
17.8188303491795
30
0.000000000000000
 40
2.50000000000000
 41
0.0
 71
     8
 72
     1
  1
2°
 11
0.971723943659110
 21
0.236119836776980
 31
0.0
 73
     1
 44
1.0
1001
ACAD
1000
MTEXTBEGIN
1070
73
1070
1
1070
44
1040
1.0
1070
74
1070
0
1000
MTEXTEND
  0
POINT
  5
F10063
330
F10002
100
AcDbEntity
  8
Bemassung
 62
     0
100
AcDbPoint
10
-96.0775275246791
20
-0.547946238186985
30
0.000000000000000
  0
POINT
  5
F10064
330
F10002
100
AcDbEntity
  8
Bemassung
 62
     0
100
AcDbPoint
10
-96.0775275246791
20
18.3611770131929
30
0.000000000000000
  0
POINT
  5
F10065
330
F10002
100
AcDbEntity
  8
Bemassung
 62
     0
100
AcDbPoint
10
-96.7374464092378
20
18.3496580862156
30
0.000000000000000
  0
POINT
  5
F10066
330
F10002
100
AcDbEntity
  8
Bemassung
 62
     0
100
AcDbPoint
10
-96.4075372290348
20
18.3582970621333
30
0.000000000000000
  0
ENDBLK
  5
F10067
330
F10002
100
AcDbEntity
  8
0
100
AcDbBlockEnd
  0
BLOCK
  5
F10068
330
F1001B
100
AcDbEntity
  8
0
100
AcDbBlockBegin
  2
*D8
 70
     1
 10
0.0
 20
0.0
 30
0.0
  3
*D8
  1

 0
ARC
  5
F10069
330
F1001B
100
AcDbEntity
  8
Bemassung
 62
     0
370
   -2
100
AcDbCircle
10
-81.8455985517064
20
0.659033661153515
30
0.000000000000000
 40
14.6059850576126
100
AcDbArc
 50
0.000000000000000
 51
18.3736136711317
  0
LINE
  5
F1006A
330
F1001B
100
AcDbEntity
  8
Bemassung
 62
     0
370
    -2
100
AcDbLine
10
-81.8455985517064
20
0.659033661153515
30
0.000000000000000
11
-65.2396134940937
21
0.659033661153515
31
0.000000000000000
  0
LINE
  5
F1006B
330
F1001B
100
AcDbEntity
  8
Bemassung
 62
     0
370
    -2
100
AcDbLine
10
-81.8455985517064
20
0.659033661153515
30
0.000000000000000
11
-65.8054487135880
21
4.95697885675154
31
0.000000000000000
  0
INSERT
  5
F1006C
330
F1001B
100
AcDbEntity
  8
Bemassung
 62
     0
370
    -2
100
AcDbBlockReference
  2
VDDIM_DEFAULT
10
-67.2396134940937
20
0.659033661153515
30
0.000000000000000
 41
2.50000000000000
 42
2.50000000000000
 43
2.50000000000000
 50
89.8038615978550
  0
INSERT
  5
F1006D
330
F1001B
100
AcDbEntity
  8
Bemassung
 62
     0
370
    -2
100
AcDbBlockReference
  2
VDDIM_DEFAULT
10
-67.7373003661661
20
4.43934076654650
30
0.000000000000000
 41
2.50000000000000
 42
2.50000000000000
 43
2.50000000000000
 50
285.196138402143
  0
MTEXT
  5
F1006E
330
F1001B
100
AcDbEntity
  8
Bemassung
 62
     0
100
AcDbMText
10
-69.2784231510123
20
8.10221187690207
30
0.000000000000000
 40
2.50000000000000
 41
0.0
 71
     8
 72
     1
  1
15°
 11
0.502417364539808
 21
-0.864625231998739
 31
0.0
 73
     1
 44
1.0
1001
ACAD
1000
MTEXTBEGIN
1070
73
1070
1
1070
44
1040
1.0
1070
74
1070
0
1000
MTEXTEND
  0
POINT
  5
F1006F
330
F1001B
100
AcDbEntity
  8
Bemassung
 62
     0
100
AcDbPoint
10
-81.8455985517064
20
0.659033661153515
30
0.000000000000000
  0
POINT
  5
F10070
330
F1001B
100
AcDbEntity
  8
Bemassung
 62
     0
100
AcDbPoint
10
-67.2396134940937
20
0.659033661153515
30
0.000000000000000
  0
POINT
  5
F10071
330
F1001B
100
AcDbEntity
  8
Bemassung
 62
     0
100
AcDbPoint
10
-67.7373003661661
20
4.43934076654650
30
0.000000000000000
  0
POINT
  5
F10072
330
F1001B
100
AcDbEntity
  8
Bemassung
 62
     0
100
AcDbPoint
10
-67.3645697210337
20
2.56549727434666
30
0.000000000000000
  0
ENDBLK
  5
F10073
330
F1001B
100
AcDbEntity
  8
0
100
AcDbBlockEnd
  0
BLOCK
  5
F10074
330
F1000C
100
AcDbEntity
  8
0
100
AcDbBlockBegin
  2
*D5
 70
     1
 10
0.0
 20
0.0
 30
0.0
  3
*D5
  1

  0
LINE
  5
F10075
330
F1000C
100
AcDbEntity
  8
Bemassung
 62
     0
370
    -2
100
AcDbLine
10
-96.0215173193430
20
-0.402034664754686
30
0.000000000000000
11
-107.346245861719
21
10.5341285663554
31
0.000000000000000
  0
INSERT
  5
F10076
330
F1000C
100
AcDbEntity
  8
Bemassung
 62
     0
370
    -2
100
AcDbBlockReference
  2
VDDIM_DEFAULT
10
-96.0215173193430
20
-0.402034664754686
30
0.000000000000000
 41
2.50000000000000
 42
2.50000000000000
 43
2.50000000000000
 50
316.000000000000
  0
MTEXT
  5
F10077
330
F1000C
100
AcDbEntity
  8
Bemassung
 62
     0
100
AcDbMText
10
-103.214915322730
20
6.54454903983527
30
0.000000000000000
 40
2.50000000000000
 41
0.0
 71
     8
 72
     1
  1
R0.2
 11
0.719339800338652
 21
-0.694658370458996
 31
0.0
 73
     1
 44
1.0
1001
ACAD
1000
MTEXTBEGIN
1070
73
1070
1
1070
44
1040
1.0
1070
74
1070
0
1000
MTEXTEND
  0
POINT
  5
F10078
330
F1000C
100
AcDbEntity
  8
Bemassung
 62
     0
100
AcDbPoint
10
-96.0215173193430
20
-0.402034664754686
30
0.000000000000000
  0
POINT
  5
F10079
330
F1000C
100
AcDbEntity
  8
Bemassung
 62
     0
100
AcDbPoint
10
-95.8776493592753
20
-0.540966338846485
30
0.000000000000000
  0
ENDBLK
  5
F1007A
330
F1000C
100
AcDbEntity
  8
0
100
AcDbBlockEnd
  0
BLOCK
  5
F1007B
330
F10007
100
AcDbEntity
  8
0
100
AcDbBlockBegin
  2
*D4
 70
     1
 10
0.0
 20
0.0
 30
0.0
  3
*D4
  1

  0
LINE
  5
F1007C
330
F10007
100
AcDbEntity
  8
Bemassung
 62
     0
370
    -2
100
AcDbLine
10
-95.8776493592753
20
-4.34096633884649
30
0.000000000000000
11
-108.077649359275
21
-4.34096633884649
31
0.000000000000000
  0
LINE
  5
F1007D
330
F10007
100
AcDbEntity
  8
Bemassung
 62
     0
370
    -2
100
AcDbLine
10
-95.8776493592753
20
-0.340966338846485
30
0.000000000000000
11
-108.077649359275
21
-0.340966338846485
31
0.000000000000000
  0
LINE
  5
F1007E
330
F10007
100
AcDbEntity
  8
Bemassung
 62
     0
370
    -2
100
AcDbLine
10
-106.077649359275
20
-4.34096633884649
30
0.000000000000000
11
-106.077649359275
21
-0.340966338846485
31
0.000000000000000
  0
INSERT
  5
F1007F
330
F10007
100
AcDbEntity
  8
Bemassung
 62
     0
370
    -2
100
AcDbBlockReference
  2
VDDIM_DEFAULT
10
-106.077649359275
20
-4.34096633884649
30
0.000000000000000
 41
2.50000000000000
 42
2.50000000000000
 43
2.50000000000000
 50
270.000000000000
  0
INSERT
  5
F10080
330
F10007
100
AcDbEntity
  8
Bemassung
 62
     0
370
    -2
100
AcDbBlockReference
  2
VDDIM_DEFAULT
10
-106.077649359275
20
-0.340966338846485
30
0.000000000000000
 41
2.50000000000000
 42
2.50000000000000
 43
2.50000000000000
 50
90.0000000000000
  0
MTEXT
  5
F10081
330
F10007
100
AcDbEntity
  8
Bemassung
 62
     0
100
AcDbMText
10
-105.410982692609
20
-2.34096633884649
30
0.000000000000000
 40
2.50000000000000
 41
0.0
 71
     8
 72
     1
  1
4
 11
6.12323399573677e-017
 21
1.00000000000000
 31
0.0
 73
     1
 44
1.0
1001
ACAD
1000
MTEXTBEGIN
1070
73
1070
1
1070
44
1040
1.0
1070
74
1070
0
1000
MTEXTEND
  0
POINT
  5
F10082
330
F10007
100
AcDbEntity
  8
Bemassung
 62
     0
100
AcDbPoint
10
-95.8776493592753
20
-4.34096633884649
30
0.000000000000000
  0
POINT
  5
F10083
330
F10007
100
AcDbEntity
  8
Bemassung
 62
     0
100
AcDbPoint
10
-95.8776493592753
20
-0.340966338846485
30
0.000000000000000
  0
ENDBLK
  5
F10084
330
F10007
100
AcDbEntity
  8
0
100
AcDbBlockEnd
  0
BLOCK
  5
F10085
330
F10016
100
AcDbEntity
  8
0
100
AcDbBlockBegin
  2
*D7
 70
     1
 10
0.0
 20
0.0
 30
0.0
  3
*D7
  1

  0
LINE
  5
F10086
330
F10016
100
AcDbEntity
  8
Bemassung
 62
     0
370
    -2
100
AcDbLine
10
-81.8455985517064
20
-5.34096633884649
30
0.000000000000000
11
-74.6063680671651
21
-5.34096633884649
31
0.000000000000000
  0
LINE
  5
F10087
330
F10016
100
AcDbEntity
  8
Bemassung
 62
     0
370
    -2
100
AcDbLine
10
-81.8455985517064
20
0.659033661153515
30
0.000000000000000
11
-74.6063680671651
21
0.659033661153515
31
0.000000000000000
  0
LINE
  5
F10088
330
F10016
100
AcDbEntity
  8
Bemassung
 62
     0
370
    -2
100
AcDbLine
10
-76.6063680671651
20
-30.5352521310098
30
0.000000000000000
11
-76.6063680671651
21
0.659033661153515
31
0.000000000000000
  0
INSERT
  5
F10089
330
F10016
100
AcDbEntity
  8
Bemassung
 62
     0
370
    -2
100
AcDbBlockReference
  2
VDDIM_DEFAULT
10
-76.6063680671651
20
-5.34096633884649
30
0.000000000000000
 41
2.50000000000000
 42
2.50000000000000
 43
2.50000000000000
 50
270.000000000000
  0
INSERT
  5
F1008A
330
F10016
100
AcDbEntity
  8
Bemassung
 62
     0
370
    -2
100
AcDbBlockReference
  2
VDDIM_DEFAULT
10
-76.6063680671651
20
0.659033661153515
30
0.000000000000000
 41
2.50000000000000
 42
2.50000000000000
 43
2.50000000000000
 50
90.0000000000000
  0
MTEXT
  5
F1008B
330
F10016
100
AcDbEntity
  8
Bemassung
 62
     0
100
AcDbMText
10
-75.9397014004984
20
-8.83401290021419
30
0.000000000000000
 40
2.50000000000000
 41
0.0
 71
     8
 72
     1
  1
6
 11
6.12323399573677e-017
 21
1.00000000000000
 31
0.0
 73
     1
 44
1.0
1001
ACAD
1000
MTEXTBEGIN
1070
73
1070
1
1070
44
1040
1.0
1070
74
1070
0
1000
MTEXTEND
  0
POINT
  5
F1008C
330
F10016
100
AcDbEntity
  8
Bemassung
 62
     0
100
AcDbPoint
10
-81.8455985517064
20
-5.34096633884649
30
0.000000000000000
  0
POINT
  5
F1008D
330
F10016
100
AcDbEntity
  8
Bemassung
 62
     0
100
AcDbPoint
10
-81.8455985517064
20
0.659033661153515
30
0.000000000000000
  0
ENDBLK
  5
F1008E
330
F10016
100
AcDbEntity
  8
0
100
AcDbBlockEnd
  0
BLOCK
  5
F1008F
330
F10025
100
AcDbEntity
  8
0
100
AcDbBlockBegin
  2
*D10
 70
     1
 10
0.0
 20
0.0
 30
0.0
  3
*D10
  1

  0
LINE
  5
F10090
330
F10025
100
AcDbEntity
  8
Bemassung
 62
     0
370
    -2
100
AcDbLine
10
-46.0776493592753
20
-5.34096633884649
30
0.000000000000000
11
-33.0776493592753
21
-5.34096633884649
31
0.000000000000000
  0
LINE
  5
F10091
330
F10025
100
AcDbEntity
  8
Bemassung
 62
     0
370
    -2
100
AcDbLine
10
-46.0776493592753
20
0.659033661153515
30
0.000000000000000
11
-33.0776493592753
21
0.659033661153515
31
0.000000000000000
  0
LINE
  5
F10092
330
F10025
100
AcDbEntity
  8
Bemassung
 62
     0
370
    -2
100
AcDbLine
10
-35.0776493592753
20
-5.34096633884649
30
0.000000000000000
11
-35.0776493592753
21
0.659033661153515
31
0.000000000000000
  0
INSERT
  5
F10093
330
F10025
100
AcDbEntity
  8
Bemassung
 62
     0
370
    -2
100
AcDbBlockReference
  2
VDDIM_DEFAULT
10
-35.0776493592753
20
-5.34096633884649
30
0.000000000000000
 41
2.50000000000000
 42
2.50000000000000
 43
2.50000000000000
 50
270.000000000000
  0
INSERT
  5
F10094
330
F10025
100
AcDbEntity
  8
Bemassung
 62
     0
370
    -2
100
AcDbBlockReference
  2
VDDIM_DEFAULT
10
-35.0776493592753
20
0.659033661153515
30
0.000000000000000
 41
2.50000000000000
 42
2.50000000000000
 43
2.50000000000000
 50
90.0000000000000
  0
MTEXT
  5
F10095
330
F10025
100
AcDbEntity
  8
Bemassung
 62
     0
100
AcDbMText
10
-34.4109826926086
20
-2.34096633884649
30
0.000000000000000
 40
2.50000000000000
 41
0.0
 71
     8
 72
     1
  1
6h6
 11
6.12323399573677e-017
 21
1.00000000000000
 31
0.0
 73
     1
 44
1.0
  0
POINT
  5
F10096
330
F10025
100
AcDbEntity
  8
Bemassung
 62
     0
100
AcDbPoint
10
-46.0776493592753
20
-5.34096633884649
30
0.000000000000000
  0
POINT
  5
F10097
330
F10025
100
AcDbEntity
  8
Bemassung
 62
     0
100
AcDbPoint
10
-46.0776493592753
20
0.659033661153515
30
0.000000000000000
  0
ENDBLK
  5
F10098
330
F10025
100
AcDbEntity
  8
0
100
AcDbBlockEnd
0
ENDSEC
0
SECTION
2
ENTITIES
  0
DIMENSION
  5
F10012
330
261
100
AcDbEntity
  8
Bemassung
100
AcDbDimension
  2
*D6
10
-85.5776493592753
20
10.6590336611535
30
0.000000000000000
11
-90.8276493592753
21
11.3257003278202
31
0.000000000000000
 70
32
 1
10.5
 71
     8
  3
BEM-ISBE
100
AcDbAlignedDimension
13
-96.0776493592753
23
-12.3409663388465
33
0.000000000000000
14
-85.5776493592753
24
-0.340966338846485
34
0.000000000000000
100
AcDbRotatedDimension
1001
ACAD
1000
DSTYLE
1002
{
1070
284
1070
8
1070
78
1070
8
1070
144
1040
1.00000000000000
1070
147
1040
0.625
1070
 72
1070
 0
1070
 71
1070
 0
1002
}
  0
DIMENSION
  5
F10021
330
261
100
AcDbEntity
  8
Bemassung
100
AcDbDimension
  2
*D9
10
-45.0776493592753
20
15.6590336611535
30
0.000000000000000
11
-63.4616239554908
21
16.3257003278202
31
0.000000000000000
 70
32
 1
36.768
 71
     8
  3
BEM-ISBE
100
AcDbAlignedDimension
13
-81.8455985517064
23
0.659033661153515
33
0.000000000000000
14
-45.0776493592753
24
-0.340966338846484
34
0.000000000000000
100
AcDbRotatedDimension
1001
ACAD
1000
DSTYLE
1002
{
1070
284
1070
8
1070
78
1070
8
1070
144
1040
1.00000000000000
1070
147
1040
0.625
1070
 72
1070
 0
1070
 71
1070
 0
1002
}
  0
DIMENSION
  5
F1002B
330
261
100
AcDbEntity
  8
Bemassung
100
AcDbDimension
  2
*D11
10
-96.0776493592753
20
-10.3409663388465
30
0.000000000000000
11
-91.5776493592753
21
-9.67429967217982
31
0.000000000000000
 70
32
 1
9
 71
     8
  3
BEM-ISBE
100
AcDbAlignedDimension
13
-87.0776493592753
23
-4.34096633884649
33
0.000000000000000
14
-96.0776493592753
24
-12.3409663388465
34
0.000000000000000
100
AcDbRotatedDimension
1001
ACAD
1000
DSTYLE
1002
{
1070
284
1070
8
1070
78
1070
8
1070
144
1040
1.00000000000000
1070
147
1040
0.625
1070
 72
1070
 0
1070
 71
1070
 0
1002
}
  0
DIMENSION
  5
F10030
330
261
100
AcDbEntity
  8
Bemassung
100
AcDbDimension
  2
*D12
10
-96.0776493592753
20
20.6590336611535
30
0.000000000000000
11
-70.5776493592753
21
21.3257003278202
31
0.000000000000000
 70
32
 1
51
 71
     8
  3
BEM-ISBE
100
AcDbAlignedDimension
13
-45.0776493592753
23
-0.340966338846484
33
0.000000000000000
14
-96.0776493592753
24
-12.3409663388465
34
0.000000000000000
100
AcDbRotatedDimension
1001
ACAD
1000
DSTYLE
1002
{
1070
284
1070
8
1070
78
1070
8
1070
144
1040
1.00000000000000
1070
147
1040
0.625
1070
 72
1070
 0
1070
 71
1070
 0
1002
}
  0
DIMENSION
  5
F10003
330
261
100
AcDbEntity
  8
Bemassung
100
AcDbDimension
  2
*D3
10
-96.0775275246791
20
-0.547946238186985
30
0.000000000000000
11
-100.573799305348
21
17.8188303491795
31
0.000000000000000
 70
34
 1
2°
 71
     8
  3
BEM-ISBE
100
AcDb2LineAngularDimension
13
-96.0775275246791
23
-0.547946238186985
33
0.000000000000000
14
-100.289847174423
24
17.8860252629372
34
0.000000000000000
15
-96.0775275246791
25
18.3611770131929
35
0.000000000000000
16
-96.4075372290348
26
18.3582970621333
36
0.000000000000000
1001
ACAD
1000
DSTYLE
1002
{
1070
284
1070
8
1070
79
1070
2
1070
147
1040
0.625
1070
 72
1070
 0
1070
 71
1070
 0
1002
}
  0
DIMENSION
  5
F1001C
330
261
100
AcDbEntity
  8
Bemassung
100
AcDbDimension
  2
*D8
10
-81.8455985517064
20
0.659033661153515
30
0.000000000000000
11
-69.2784231510123
21
8.10221187690207
31
0.000000000000000
 70
34
 1
15°
 71
     8
  3
BEM-ISBE
100
AcDb2LineAngularDimension
13
-81.8455985517064
23
0.659033661153515
33
0.000000000000000
14
-67.9842079701708
24
5.26301570383355
34
0.000000000000000
15
-67.2396134940937
25
0.659033661153515
35
0.000000000000000
16
-67.3645697210337
26
2.56549727434666
36
0.000000000000000
1001
ACAD
1000
DSTYLE
1002
{
1070
284
1070
8
1070
79
1070
2
1070
147
1040
0.625
1070
 72
1070
 0
1070
 71
1070
 0
1002
}
  0
DIMENSION
  5
F1000D
330
261
100
AcDbEntity
  8
Bemassung
100
AcDbDimension
  2
*D5
10
-95.8776493592753
20
-0.540966338846485
30
0.000000000000000
11
-103.214915322730
21
6.54454903983527
31
0.000000000000000
 70
164
 1
R0.2
 71
     8
  3
BEM-ISBE
100
AcDbRadialDimension
15
-96.0215173193430
25
-0.402034664754686
35
0.000000000000000
40
0.0
1001
ACAD
1000
DSTYLE
1002
{
1070
284
1070
8
1070
78
1070
8
1070
144
1040
1.00000000000000
1070
147
1040
0.625
1070
 72
1070
 0
1070
 71
1070
 0
1002
}
  0
DIMENSION
  5
F10008
330
261
100
AcDbEntity
  8
Bemassung
100
AcDbDimension
  2
*D4
10
-106.077649359275
20
-0.340966338846485
30
0.000000000000000
11
-105.410982692609
21
-2.34096633884649
31
0.000000000000000
 70
32
 1
4
 71
     8
  3
BEM-ISBE
100
AcDbAlignedDimension
13
-95.8776493592753
23
-4.34096633884649
33
0.000000000000000
14
-95.8776493592753
24
-0.340966338846485
34
0.000000000000000
50
90.0000000000000
100
AcDbRotatedDimension
1001
ACAD
1000
DSTYLE
1002
{
1070
284
1070
8
1070
78
1070
8
1070
144
1040
1.00000000000000
1070
147
1040
0.625
1070
 72
1070
 0
1070
 71
1070
 0
1002
}
  0
DIMENSION
  5
F10017
330
261
100
AcDbEntity
  8
Bemassung
100
AcDbDimension
  2
*D7
10
-76.6063680671651
20
0.659033661153515
30
0.000000000000000
11
-75.9397014004984
21
-8.83401290021419
31
0.000000000000000
 70
32
 1
6
 71
     8
  3
BEM-ISBE
100
AcDbAlignedDimension
13
-81.8455985517064
23
-5.34096633884649
33
0.000000000000000
14
-81.8455985517064
24
0.659033661153515
34
0.000000000000000
50
90.0000000000000
100
AcDbRotatedDimension
1001
ACAD
1000
DSTYLE
1002
{
1070
284
1070
8
1070
78
1070
8
1070
144
1040
1.00000000000000
1070
147
1040
0.625
1070
 72
1070
 0
1070
 71
1070
 0
1002
}
  0
DIMENSION
  5
F10026
330
261
100
AcDbEntity
  8
Bemassung
100
AcDbDimension
  2
*D10
10
-35.0776493592753
20
0.659033661153515
30
0.000000000000000
11
-34.4109826926086
21
-2.34096633884649
31
0.000000000000000
 70
32
 1
6h6
 71
     8
  3
BEM-ISBE
100
AcDbAlignedDimension
13
-46.0776493592753
23
-5.34096633884649
33
0.000000000000000
14
-46.0776493592753
24
0.659033661153515
34
0.000000000000000
50
90.0000000000000
100
AcDbRotatedDimension
1001
ACAD
1000
DSTYLE
1002
{
1070
284
1070
8
1070
78
1070
8
1070
144
1040
1.00000000000000
1070
147
1040
0.625
1070
 72
1070
 0
1070
 71
1070
 0
1002
}
  0
LINE
  5
F10099
330
F1009A
100
AcDbEntity
8
Geo
100
AcDbLine
10
-96.0149138830499
20
-2.34096633884649
30
0.000000000000000
11
-96.0775275246791
21
-0.547946238186985
31
0.000000000000000
  0
ARC
  5
F1009B
330
F1009C
100
AcDbEntity
8
Geo
100
AcDbCircle
10
-95.8776493592753
20
-0.540966338846485
30
0.000000000000000
 40
0.200000000000000
100
AcDbArc
 50
90.0000000000000
 51
182.000000000000
  0
LINE
  5
F1009D
330
F1009E
100
AcDbEntity
8
Geo
100
AcDbLine
10
-95.8776493592753
20
-0.340966338846485
30
0.000000000000000
11
-87.0776493592753
21
-0.340966338846485
31
0.000000000000000
  0
LINE
  5
F1009F
330
F100A0
100
AcDbEntity
8
Geo
100
AcDbLine
10
-87.0776493592753
20
-0.340966338846485
30
0.000000000000000
11
-85.5776493592753
21
-0.340966338846485
31
0.000000000000000
  0
LINE
  5
F100A1
330
F100A2
100
AcDbEntity
8
Geo
100
AcDbLine
10
-85.5776493592753
20
-0.340966338846485
30
0.000000000000000
11
-81.8455985517064
21
0.659033661153515
31
0.000000000000000
  0
LINE
  5
F100A3
330
F100A4
100
AcDbEntity
8
Geo
100
AcDbLine
10
-81.8455985517064
20
0.659033661153515
30
0.000000000000000
11
-46.0776493592753
21
0.659033661153515
31
0.000000000000000
  0
LINE
  5
F100A5
330
F100A6
100
AcDbEntity
8
Geo
100
AcDbLine
10
-46.0776493592753
20
0.659033661153515
30
0.000000000000000
11
-45.0776493592753
21
-0.340966338846484
31
0.000000000000000
  0
LINE
  5
F100A7
330
F100A8
100
AcDbEntity
8
Geo
100
AcDbLine
10
-92.8776493592753
20
-0.341589132772714
30
0.000000000000000
11
-92.7776493592753
21
-0.341149492506385
31
0.000000000000000
  0
LINE
  5
F100A9
330
F100AA
100
AcDbEntity
8
Geo
100
AcDbLine
10
-92.7776493592753
20
-0.341149492506385
30
0.000000000000000
11
-92.6776493592753
21
-0.343672178117929
31
0.000000000000000
  0
LINE
  5
F100AB
330
F100AC
100
AcDbEntity
8
Geo
100
AcDbLine
10
-92.6776493592753
20
-0.343672178117929
30
0.000000000000000
11
-92.5776493592753
21
-0.349153452756700
31
0.000000000000000
  0
LINE
  5
F100AD
330
F100AE
100
AcDbEntity
8
Geo
100
AcDbLine
10
-92.5776493592753
20
-0.349153452756700
30
0.000000000000000
11
-92.4776493592752
21
-0.357585197018297
31
0.000000000000000
  0
LINE
  5
F100AF
330
F100B0
100
AcDbEntity
8
Geo
100
AcDbLine
10
-92.4776493592752
20
-0.357585197018297
30
0.000000000000000
11
-92.3776493592753
21
-0.368954920971821
31
0.000000000000000
  0
LINE
  5
F100B1
330
F100B2
100
AcDbEntity
8
Geo
100
AcDbLine
10
-92.3776493592753
20
-0.368954920971821
30
0.000000000000000
11
-92.2776493592753
21
-0.383245782661192
31
0.000000000000000
  0
LINE
  5
F100B3
330
F100B4
100
AcDbEntity
8
Geo
100
AcDbLine
10
-92.2776493592753
20
-0.383245782661192
30
0.000000000000000
11
-92.1776493592753
21
-0.400436613053119
31
0.000000000000000
  0
LINE
  5
F100B5
330
F100B6
100
AcDbEntity
8
Geo
100
AcDbLine
10
-92.1776493592753
20
-0.400436613053119
30
0.000000000000000
11
-92.0776493592753
21
-0.420501947394753
31
0.000000000000000
  0
LINE
  5
F100B7
330
F100B8
100
AcDbEntity
8
Geo
100
AcDbLine
10
-92.0776493592753
20
-0.420501947394753
30
0.000000000000000
11
-91.9776493592753
21
-0.446353524304195
31
0.000000000000000
  0
LINE
  5
F100B9
330
F100BA
100
AcDbEntity
8
Geo
100
AcDbLine
10
-91.9776493592753
20
-0.446353524304195
30
0.000000000000000
11
-91.8776493592753
21
-0.475123079695418
31
0.000000000000000
  0
LINE
  5
F100BB
330
F100BC
100
AcDbEntity
8
Geo
100
AcDbLine
10
-91.8776493592753
20
-0.475123079695418
30
0.000000000000000
11
-91.7776493592753
21
-0.506559789092495
31
0.000000000000000
  0
LINE
  5
F100BD
330
F100BE
100
AcDbEntity
8
Geo
100
AcDbLine
10
-91.7776493592753
20
-0.506559789092495
30
0.000000000000000
11
-91.6776493592753
21
-0.540417330237703
31
0.000000000000000
  0
LINE
  5
F100BF
330
F100C0
100
AcDbEntity
8
Geo
100
AcDbLine
10
-91.6776493592753
20
-0.540417330237703
30
0.000000000000000
11
-91.5776493592753
21
-0.576454748234335
31
0.000000000000000
  0
LINE
  5
F100C1
330
F100C2
100
AcDbEntity
8
Geo
100
AcDbLine
10
-91.5776493592753
20
-0.576454748234335
30
0.000000000000000
11
-91.4776493592753
21
-0.614437211024633
31
0.000000000000000
  0
LINE
  5
F100C3
330
F100C4
100
AcDbEntity
8
Geo
100
AcDbLine
10
-91.4776493592753
20
-0.614437211024633
30
0.000000000000000
11
-91.3776493592753
21
-0.654136660139164
31
0.000000000000000
  0
LINE
  5
F100C5
330
F100C6
100
AcDbEntity
8
Geo
100
AcDbLine
10
-91.3776493592753
20
-0.654136660139164
30
0.000000000000000
11
-91.2776493592753
21
-0.695332361981633
31
0.000000000000000
  0
LINE
  5
F100C7
330
F100C8
100
AcDbEntity
8
Geo
100
AcDbLine
10
-91.2776493592753
20
-0.695332361981633
30
0.000000000000000
11
-91.1776493592753
21
-0.737811365159728
31
0.000000000000000
  0
LINE
  5
F100C9
330
F100CA
100
AcDbEntity
8
Geo
100
AcDbLine
10
-91.1776493592753
20
-0.737811365159728
30
0.000000000000000
11
-91.0776493592753
21
-0.781368869544940
31
0.000000000000000
  0
LINE
  5
F100CB
330
F100CC
100
AcDbEntity
8
Geo
100
AcDbLine
10
-91.0776493592753
20
-0.781368869544940
30
0.000000000000000
11
-90.9776493592753
21
-0.825808512849493
31
0.000000000000000
  0
LINE
  5
F100CD
330
F100CE
100
AcDbEntity
8
Geo
100
AcDbLine
10
-90.9776493592753
20
-0.825808512849493
30
0.000000000000000
11
-90.8776493592753
21
-0.870942580553284
31
0.000000000000000
  0
LINE
  5
F100CF
330
F100D0
100
AcDbEntity
8
Geo
100
AcDbLine
10
-90.8776493592753
20
-0.870942580553284
30
0.000000000000000
11
-90.7776493592753
21
-0.916592145004655
31
0.000000000000000
  0
LINE
  5
F100D1
330
F100D2
100
AcDbEntity
8
Geo
100
AcDbLine
10
-90.7776493592753
20
-0.916592145004655
30
0.000000000000000
11
-90.6776493592753
21
-0.962587139462419
31
0.000000000000000
  0
LINE
  5
F100D3
330
F100D4
100
AcDbEntity
8
Geo
100
AcDbLine
10
-90.6776493592753
20
-0.962587139462419
30
0.000000000000000
11
-90.5776493592753
21
-1.00876637274868
31
0.000000000000000
  0
LINE
  5
F100D5
330
F100D6
100
AcDbEntity
8
Geo
100
AcDbLine
10
-90.5776493592753
20
-1.00876637274868
30
0.000000000000000
11
-90.4776493592753
21
-1.05497749004873
31
0.000000000000000
  0
LINE
  5
F100D7
330
F100D8
100
AcDbEntity
8
Geo
100
AcDbLine
10
-90.4776493592753
20
-1.05497749004873
30
0.000000000000000
11
-90.3776493592753
21
-1.10107688523063
31
0.000000000000000
  0
LINE
  5
F100D9
330
F100DA
100
AcDbEntity
8
Geo
100
AcDbLine
10
-90.3776493592753
20
-1.10107688523063
30
0.000000000000000
11
-90.2776493592753
21
-1.14692956986886
31
0.000000000000000
  0
LINE
  5
F100DB
330
F100DC
100
AcDbEntity
8
Geo
100
AcDbLine
10
-90.2776493592753
20
-1.14692956986886
30
0.000000000000000
11
-90.1776493592753
21
-1.19240900394713
31
0.000000000000000
  0
LINE
  5
F100DD
330
F100DE
100
AcDbEntity
8
Geo
100
AcDbLine
10
-90.1776493592753
20
-1.19240900394713
30
0.000000000000000
11
-90.0776493592753
21
-1.23739689299101
31
0.000000000000000
  0
LINE
  5
F100DF
330
F100E0
100
AcDbEntity
8
Geo
100
AcDbLine
10
-90.0776493592753
20
-1.23739689299101
30
0.000000000000000
11
-89.9776493592753
21
-1.28178295614401
31
0.000000000000000
  0
LINE
  5
F100E1
330
F100E2
100
AcDbEntity
8
Geo
100
AcDbLine
10
-89.9776493592753
20
-1.28178295614401
30
0.000000000000000
11
-89.8776493592753
21
-1.32546466945543
31
0.000000000000000
  0
LINE
  5
F100E3
330
F100E4
100
AcDbEntity
8
Geo
100
AcDbLine
10
-89.8776493592753
20
-1.32546466945543
30
0.000000000000000
11
-89.7776493592753
21
-1.36834698839823
31
0.000000000000000
  0
LINE
  5
F100E5
330
F100E6
100
AcDbEntity
8
Geo
100
AcDbLine
10
-89.7776493592753
20
-1.36834698839823
30
0.000000000000000
11
-89.6776493592753
21
-1.41034205338242
31
0.000000000000000
  0
LINE
  5
F100E7
330
F100E8
100
AcDbEntity
8
Geo
100
AcDbLine
10
-89.6776493592753
20
-1.41034205338242
30
0.000000000000000
11
-89.5776493592753
21
-1.45136888177745
31
0.000000000000000
  0
LINE
  5
F100E9
330
F100EA
100
AcDbEntity
8
Geo
100
AcDbLine
10
-89.5776493592753
20
-1.45136888177745
30
0.000000000000000
11
-89.4776493592753
21
-1.49135304970744
31
0.000000000000000
  0
LINE
  5
F100EB
330
F100EC
100
AcDbEntity
8
Geo
100
AcDbLine
10
-89.4776493592753
20
-1.49135304970744
30
0.000000000000000
11
-89.3776493592753
21
-1.53022636663849
31
0.000000000000000
  0
LINE
  5
F100ED
330
F100EE
100
AcDbEntity
8
Geo
100
AcDbLine
10
-89.3776493592753
20
-1.53022636663849
30
0.000000000000000
11
-89.2776493592753
21
-1.56792654553839
31
0.000000000000000
  0
LINE
  5
F100EF
330
F100F0
100
AcDbEntity
8
Geo
100
AcDbLine
10
-89.2776493592753
20
-1.56792654553839
30
0.000000000000000
11
-89.1776493592753
21
-1.60439687115852
31
0.000000000000000
  0
LINE
  5
F100F1
330
F100F2
100
AcDbEntity
8
Geo
100
AcDbLine
10
-89.1776493592753
20
-1.60439687115852
30
0.000000000000000
11
-89.0776493592753
21
-1.63958586876556
31
0.000000000000000
  0
LINE
  5
F100F3
330
F100F4
100
AcDbEntity
8
Geo
100
AcDbLine
10
-89.0776493592753
20
-1.63958586876556
30
0.000000000000000
11
-88.9776493592753
21
-1.67344697543870
31
0.000000000000000
  0
LINE
  5
F100F5
330
F100F6
100
AcDbEntity
8
Geo
100
AcDbLine
10
-88.9776493592753
20
-1.67344697543870
30
0.000000000000000
11
-88.8776493592753
21
-1.70593821584647
31
0.000000000000000
  0
LINE
  5
F100F7
330
F100F8
100
AcDbEntity
8
Geo
100
AcDbLine
10
-88.8776493592753
20
-1.70593821584647
30
0.000000000000000
11
-88.7776493592753
21
-1.73702188422681
31
0.000000000000000
  0
LINE
  5
F100F9
330
F100FA
100
AcDbEntity
8
Geo
100
AcDbLine
10
-88.7776493592753
20
-1.73702188422681
30
0.000000000000000
11
-88.6776493592753
21
-1.76666423411542
31
0.000000000000000
  0
LINE
  5
F100FB
330
F100FC
100
AcDbEntity
8
Geo
100
AcDbLine
10
-88.6776493592753
20
-1.76666423411542
30
0.000000000000000
11
-88.5776493592753
21
-1.79483517720004
31
0.000000000000000
  0
LINE
  5
F100FD
330
F100FE
100
AcDbEntity
8
Geo
100
AcDbLine
10
-88.5776493592753
20
-1.79483517720004
30
0.000000000000000
11
-88.4776493592753
21
-1.82150799252314
31
0.000000000000000
  0
LINE
  5
F100FF
330
F10100
100
AcDbEntity
8
Geo
100
AcDbLine
10
-88.4776493592753
20
-1.82150799252314
30
0.000000000000000
11
-88.3776493592753
21
-1.84665904711185
31
0.000000000000000
  0
LINE
  5
F10101
330
F10102
100
AcDbEntity
8
Geo
100
AcDbLine
10
-88.3776493592753
20
-1.84665904711185
30
0.000000000000000
11
-88.2776493592753
21
-1.87026752898205
31
0.000000000000000
  0
LINE
  5
F10103
330
F10104
100
AcDbEntity
8
Geo
100
AcDbLine
10
-88.2776493592753
20
-1.87026752898205
30
0.000000000000000
11
-88.1776493592753
21
-1.89231519334298
31
0.000000000000000
  0
LINE
  5
F10105
330
F10106
100
AcDbEntity
8
Geo
100
AcDbLine
10
-88.1776493592753
20
-1.89231519334298
30
0.000000000000000
11
-88.0776493592753
21
-1.91278612271914
31
0.000000000000000
  0
LINE
  5
F10107
330
F10108
100
AcDbEntity
8
Geo
100
AcDbLine
10
-88.0776493592753
20
-1.91278612271914
30
0.000000000000000
11
-87.9776493592753
21
-1.93166650160711
31
0.000000000000000
  0
LINE
  5
F10109
330
F1010A
100
AcDbEntity
8
Geo
100
AcDbLine
10
-87.9776493592753
20
-1.93166650160711
30
0.000000000000000
11
-87.8776493592753
21
-1.94894440619640
31
0.000000000000000
  0
LINE
  5
F1010B
330
F1010C
100
AcDbEntity
8
Geo
100
AcDbLine
10
-87.8776493592753
20
-1.94894440619640
30
0.000000000000000
11
-87.7776493592753
21
-1.96460960960379
31
0.000000000000000
  0
LINE
  5
F1010D
330
F1010E
100
AcDbEntity
8
Geo
100
AcDbLine
10
-87.7776493592753
20
-1.96460960960379
30
0.000000000000000
11
-87.6776493592753
21
-1.97865340300070
31
0.000000000000000
  0
LINE
  5
F1010F
330
F10110
100
AcDbEntity
8
Geo
100
AcDbLine
10
-87.6776493592753
20
-1.97865340300070
30
0.000000000000000
11
-87.5776493592753
21
-1.99106843295117
31
0.000000000000000
  0
LINE
  5
F10111
330
F10112
100
AcDbEntity
8
Geo
100
AcDbLine
10
-87.5776493592753
20
-1.99106843295117
30
0.000000000000000
11
-87.4776493592753
21
-2.00184855522377
31
0.000000000000000
  0
LINE
  5
F10113
330
F10114
100
AcDbEntity
8
Geo
100
AcDbLine
10
-87.4776493592753
20
-2.00184855522377
30
0.000000000000000
11
-87.3776493592753
21
-2.01098870529423
31
0.000000000000000
  0
LINE
  5
F10115
330
F10116
100
AcDbEntity
8
Geo
100
AcDbLine
10
-87.3776493592753
20
-2.01098870529423
30
0.000000000000000
11
-87.2776493592753
21
-2.01848478571428
31
0.000000000000000
  0
LINE
  5
F10117
330
F10118
100
AcDbEntity
8
Geo
100
AcDbLine
10
-87.2776493592753
20
-2.01848478571428
30
0.000000000000000
11
-87.1776493592753
21
-2.02433357048792
31
0.000000000000000
  0
LINE
  5
F10119
330
F1011A
100
AcDbEntity
8
Geo
100
AcDbLine
10
-87.1776493592753
20
-2.02433357048792
30
0.000000000000000
11
-87.0776493592753
21
-2.02853262656580
31
0.000000000000000
  0
LINE
  5
F1011B
330
F1011C
100
AcDbEntity
8
Geo
100
AcDbLine
10
-96.0776493592753
20
-0.540966338846485
30
0.000000000000000
11
-95.9776493592753
21
-0.369222711043093
31
0.000000000000000
  0
LINE
  5
F1011D
330
F1011E
100
AcDbEntity
8
Geo
100
AcDbLine
10
-95.9776493592753
20
-0.369222711043093
30
0.000000000000000
11
-95.8776493592753
21
-0.346889338967227
31
0.000000000000000
  0
LINE
  5
F1011F
330
F10120
100
AcDbEntity
8
Geo
100
AcDbLine
10
-95.8776493592753
20
-0.346889338967227
30
0.000000000000000
11
-95.7776493592753
21
-0.354284863947798
31
0.000000000000000
  0
LINE
  5
F10121
330
F10122
100
AcDbEntity
8
Geo
100
AcDbLine
10
-95.7776493592753
20
-0.354284863947798
30
0.000000000000000
11
-95.6776493592753
21
-0.364623257399024
31
0.000000000000000
  0
LINE
  5
F10123
330
F10124
100
AcDbEntity
8
Geo
100
AcDbLine
10
-95.6776493592753
20
-0.364623257399024
30
0.000000000000000
11
-95.5776493592753
21
-0.377889205073248
31
0.000000000000000
  0
LINE
  5
F10125
330
F10126
100
AcDbEntity
8
Geo
100
AcDbLine
10
-95.5776493592753
20
-0.377889205073248
30
0.000000000000000
11
-95.4776493592753
21
-0.394063056140863
31
0.000000000000000
  0
LINE
  5
F10127
330
F10128
100
AcDbEntity
8
Geo
100
AcDbLine
10
-95.4776493592753
20
-0.394063056140863
30
0.000000000000000
11
-95.3776493592753
21
-0.413120852299064
31
0.000000000000000
  0
LINE
  5
F10129
330
F1012A
100
AcDbEntity
8
Geo
100
AcDbLine
10
-95.3776493592753
20
-0.413120852299064
30
0.000000000000000
11
-95.2776493592753
21
-0.435034363261242
31
0.000000000000000
  0
LINE
  5
F1012B
330
F1012C
100
AcDbEntity
8
Geo
100
AcDbLine
10
-95.2776493592753
20
-0.435034363261242
30
0.000000000000000
11
-95.1776493592753
21
-0.459771128574473
31
0.000000000000000
  0
LINE
  5
F1012D
330
F1012E
100
AcDbEntity
8
Geo
100
AcDbLine
10
-95.1776493592753
20
-0.459771128574473
30
0.000000000000000
11
-95.0776493592753
21
-0.487294505703138
31
0.000000000000000
  0
LINE
  5
F1012F
330
F10130
100
AcDbEntity
8
Geo
100
AcDbLine
10
-95.0776493592753
20
-0.487294505703138
30
0.000000000000000
11
-94.9776493592753
21
-0.517563724307463
31
0.000000000000000
  0
LINE
  5
F10131
330
F10132
100
AcDbEntity
8
Geo
100
AcDbLine
10
-94.9776493592753
20
-0.517563724307463
30
0.000000000000000
11
-94.8776493592753
21
-0.550533946636560
31
0.000000000000000
  0
LINE
  5
F10133
330
F10134
100
AcDbEntity
8
Geo
100
AcDbLine
10
-94.8776493592753
20
-0.550533946636560
30
0.000000000000000
11
-94.7776493592753
21
-0.586156333946530
31
0.000000000000000
  0
LINE
  5
F10135
330
F10136
100
AcDbEntity
8
Geo
100
AcDbLine
10
-94.7776493592753
20
-0.586156333946530
30
0.000000000000000
11
-94.6776493592753
21
-0.624378118845222
31
0.000000000000000
  0
LINE
  5
F10137
330
F10138
100
AcDbEntity
8
Geo
100
AcDbLine
10
-94.6776493592753
20
-0.624378118845222
30
0.000000000000000
11
-94.5776493592753
21
-0.665142683456499
31
0.000000000000000
  0
LINE
  5
F10139
330
F1013A
100
AcDbEntity
8
Geo
100
AcDbLine
10
-94.5776493592753
20
-0.665142683456499
30
0.000000000000000
11
-94.4776493592753
21
-0.708389643288217
31
0.000000000000000
  0
LINE
  5
F1013B
330
F1013C
100
AcDbEntity
8
Geo
100
AcDbLine
10
-94.4776493592753
20
-0.708389643288217
30
0.000000000000000
11
-94.3776493592753
21
-0.754054936679686
31
0.000000000000000
  0
LINE
  5
F1013D
330
F1013E
100
AcDbEntity
8
Geo
100
AcDbLine
10
-94.3776493592753
20
-0.754054936679686
30
0.000000000000000
11
-94.2776493592753
21
-0.802070919696124
31
0.000000000000000
  0
LINE
  5
F1013F
330
F10140
100
AcDbEntity
8
Geo
100
AcDbLine
10
-94.2776493592753
20
-0.802070919696124
30
0.000000000000000
11
-94.1776493592753
21
-0.852366466329516
31
0.000000000000000
  0
LINE
  5
F10141
330
F10142
100
AcDbEntity
8
Geo
100
AcDbLine
10
-94.1776493592753
20
-0.852366466329516
30
0.000000000000000
11
-94.0776493592753
21
-0.904867073857470
31
0.000000000000000
  0
LINE
  5
F10143
330
F10144
100
AcDbEntity
8
Geo
100
AcDbLine
10
-94.0776493592753
20
-0.904867073857470
30
0.000000000000000
11
-93.9776493592753
21
-0.959494973204000
31
0.000000000000000
  0
LINE
  5
F10145
330
F10146
100
AcDbEntity
8
Geo
100
AcDbLine
10
-93.9776493592753
20
-0.959494973204000
30
0.000000000000000
11
-93.8776493592753
21
-1.01616924413874
31
0.000000000000000
  0
LINE
  5
F10147
330
F10148
100
AcDbEntity
8
Geo
100
AcDbLine
10
-93.8776493592753
20
-1.01616924413874
30
0.000000000000000
11
-93.7776493592753
21
-1.07480593514399
31
0.000000000000000
  0
LINE
  5
F10149
330
F1014A
100
AcDbEntity
8
Geo
100
AcDbLine
10
-93.7776493592753
20
-1.07480593514399
30
0.000000000000000
11
-93.6776493592753
21
-1.13531818777193
31
0.000000000000000
  0
LINE
  5
F1014B
330
F1014C
100
AcDbEntity
8
Geo
100
AcDbLine
10
-93.6776493592753
20
-1.13531818777193
30
0.000000000000000
11
-93.5776493592753
21
-1.19761636530798
31
0.000000000000000
  0
LINE
  5
F1014D
330
F1014E
100
AcDbEntity
8
Geo
100
AcDbLine
10
-93.5776493592753
20
-1.19761636530798
30
0.000000000000000
11
-93.4776493592753
21
-1.26160818554950
31
0.000000000000000
  0
LINE
  5
F1014F
330
F10150
100
AcDbEntity
8
Geo
100
AcDbLine
10
-93.4776493592753
20
-1.26160818554950
30
0.000000000000000
11
-93.3776493592753
21
-1.32719885750330
31
0.000000000000000
  0
LINE
  5
F10151
330
F10152
100
AcDbEntity
8
Geo
100
AcDbLine
10
-93.3776493592753
20
-1.32719885750330
30
0.000000000000000
11
-93.2776493592753
21
-1.39429122179938
31
0.000000000000000
  0
LINE
  5
F10153
330
F10154
100
AcDbEntity
8
Geo
100
AcDbLine
10
-93.2776493592753
20
-1.39429122179938
30
0.000000000000000
11
-93.1776493592753
21
-1.46278589461301
31
0.000000000000000
  0
LINE
  5
F10155
330
F10156
100
AcDbEntity
8
Geo
100
AcDbLine
10
-93.1776493592753
20
-1.46278589461301
30
0.000000000000000
11
-93.0776493592753
21
-1.53258141488183
31
0.000000000000000
  0
LINE
  5
F10157
330
F10158
100
AcDbEntity
8
Geo
100
AcDbLine
10
-93.0776493592753
20
-1.53258141488183
30
0.000000000000000
11
-92.9776493592753
21
-1.60357439459996
31
0.000000000000000
  0
LINE
  5
F10159
330
F1015A
100
AcDbEntity
8
Geo
100
AcDbLine
10
-92.9776493592753
20
-1.60357439459996
30
0.000000000000000
11
-92.8776493592753
21
-1.67565967196653
31
0.000000000000000
  0
LINE
  5
F1015B
330
F1015C
100
AcDbEntity
8
Geo
100
AcDbLine
10
-92.8776493592753
20
-1.67565967196653
30
0.000000000000000
11
-92.7776493592753
21
-1.74873046716171
31
0.000000000000000
  0
LINE
  5
F1015D
330
F1015E
100
AcDbEntity
8
Geo
100
AcDbLine
10
-92.7776493592753
20
-1.74873046716171
30
0.000000000000000
11
-92.6776493592753
21
-1.82267854051949
31
0.000000000000000
  0
LINE
  5
F1015F
330
F10160
100
AcDbEntity
8
Geo
100
AcDbLine
10
-92.6776493592753
20
-1.82267854051949
30
0.000000000000000
11
-92.5776493592753
21
-1.89739435286296
31
0.000000000000000
  0
LINE
  5
F10161
330
F10162
100
AcDbEntity
8
Geo
100
AcDbLine
10
-92.5776493592753
20
-1.89739435286296
30
0.000000000000000
11
-92.4776493592752
21
-1.97276722776452
31
0.000000000000000
  0
LINE
  5
F10163
330
F10164
100
AcDbEntity
8
Geo
100
AcDbLine
10
-92.4776493592752
20
-1.97276722776452
30
0.000000000000000
11
-92.3776493592753
21
-2.04868551549075
31
0.000000000000000
  0
LINE
  5
F10165
330
F10166
100
AcDbEntity
8
Geo
100
AcDbLine
10
-92.3776493592753
20
-2.04868551549075
30
0.000000000000000
11
-92.2776493592753
21
-2.12503675838895
31
0.000000000000000
  0
LINE
  5
F10167
330
F10168
100
AcDbEntity
8
Geo
100
AcDbLine
10
-92.2776493592753
20
-2.12503675838895
30
0.000000000000000
11
-92.1776493592753
21
-2.20170785747056
31
0.000000000000000
  0
LINE
  5
F10169
330
F1016A
100
AcDbEntity
8
Geo
100
AcDbLine
10
-92.1776493592753
20
-2.20170785747056
30
0.000000000000000
11
-92.0776493592753
21
-2.27858523994449
31
0.000000000000000
  0
LINE
  5
F1016B
330
F1016C
100
AcDbEntity
8
Geo
100
AcDbLine
10
-92.0776493592753
20
-2.27858523994449
30
0.000000000000000
11
-91.9776493592753
21
-2.26900999806813
31
0.000000000000000
  0
LINE
  5
F1016D
330
F1016E
100
AcDbEntity
8
Geo
100
AcDbLine
10
-91.9776493592753
20
-2.26900999806813
30
0.000000000000000
11
-91.8776493592753
21
-2.25962213516259
31
0.000000000000000
  0
LINE
  5
F1016F
330
F10170
100
AcDbEntity
8
Geo
100
AcDbLine
10
-91.8776493592753
20
-2.25962213516259
30
0.000000000000000
11
-91.7776493592753
21
-2.25042175810519
31
0.000000000000000
  0
LINE
  5
F10171
330
F10172
100
AcDbEntity
8
Geo
100
AcDbLine
10
-91.7776493592753
20
-2.25042175810519
30
0.000000000000000
11
-91.6776493592753
21
-2.24140895173430
31
0.000000000000000
  0
LINE
  5
F10173
330
F10174
100
AcDbEntity
8
Geo
100
AcDbLine
10
-91.6776493592753
20
-2.24140895173430
30
0.000000000000000
11
-91.5776493592753
21
-2.23258378004507
31
0.000000000000000
  0
LINE
  5
F10175
330
F10176
100
AcDbEntity
8
Geo
100
AcDbLine
10
-91.5776493592753
20
-2.23258378004507
30
0.000000000000000
11
-91.4776493592753
21
-2.22394628736159
31
0.000000000000000
  0
LINE
  5
F10177
330
F10178
100
AcDbEntity
8
Geo
100
AcDbLine
10
-91.4776493592753
20
-2.22394628736159
30
0.000000000000000
11
-91.3776493592753
21
-2.21549649948531
31
0.000000000000000
  0
LINE
  5
F10179
330
F1017A
100
AcDbEntity
8
Geo
100
AcDbLine
10
-91.3776493592753
20
-2.21549649948531
30
0.000000000000000
11
-91.2776493592753
21
-2.20723442481963
31
0.000000000000000
  0
LINE
  5
F1017B
330
F1017C
100
AcDbEntity
8
Geo
100
AcDbLine
10
-91.2776493592753
20
-2.20723442481963
30
0.000000000000000
11
-91.1776493592753
21
-2.19916005547057
31
0.000000000000000
  0
LINE
  5
F1017D
330
F1017E
100
AcDbEntity
8
Geo
100
AcDbLine
10
-91.1776493592753
20
-2.19916005547057
30
0.000000000000000
11
-91.0776493592753
21
-2.19127336832340
31
0.000000000000000
  0
LINE
  5
F1017F
330
F10180
100
AcDbEntity
8
Geo
100
AcDbLine
10
-91.0776493592753
20
-2.19127336832340
30
0.000000000000000
11
-90.9776493592753
21
-2.18357432609511
31
0.000000000000000
  0
LINE
  5
F10181
330
F10182
100
AcDbEntity
8
Geo
100
AcDbLine
10
-90.9776493592753
20
-2.18357432609511
30
0.000000000000000
11
-90.8776493592753
21
-2.17606287836277
31
0.000000000000000
  0
LINE
  5
F10183
330
F10184
100
AcDbEntity
8
Geo
100
AcDbLine
10
-90.8776493592753
20
-2.17606287836277
30
0.000000000000000
11
-90.7776493592753
21
-2.16873896256756
31
0.000000000000000
  0
LINE
  5
F10185
330
F10186
100
AcDbEntity
8
Geo
100
AcDbLine
10
-90.7776493592753
20
-2.16873896256756
30
0.000000000000000
11
-90.6776493592753
21
-2.16160250499452
31
0.000000000000000
  0
LINE
  5
F10187
330
F10188
100
AcDbEntity
8
Geo
100
AcDbLine
10
-90.6776493592753
20
-2.16160250499452
30
0.000000000000000
11
-90.5776493592753
21
-2.15465342172797
31
0.000000000000000
  0
LINE
  5
F10189
330
F1018A
100
AcDbEntity
8
Geo
100
AcDbLine
10
-90.5776493592753
20
-2.15465342172797
30
0.000000000000000
11
-90.4776493592753
21
-2.14789161958247
31
0.000000000000000
  0
LINE
  5
F1018B
330
F1018C
100
AcDbEntity
8
Geo
100
AcDbLine
10
-90.4776493592753
20
-2.14789161958247
30
0.000000000000000
11
-90.3776493592753
21
-2.14131699700944
31
0.000000000000000
  0
LINE
  5
F1018D
330
F1018E
100
AcDbEntity
8
Geo
100
AcDbLine
10
-90.3776493592753
20
-2.14131699700944
30
0.000000000000000
11
-90.2776493592753
21
-2.13492944497929
31
0.000000000000000
  0
LINE
  5
F1018F
330
F10190
100
AcDbEntity
8
Geo
100
AcDbLine
10
-90.2776493592753
20
-2.13492944497929
30
0.000000000000000
11
-90.1776493592753
21
-2.12872884783906
31
0.000000000000000
  0
LINE
  5
F10191
330
F10192
100
AcDbEntity
8
Geo
100
AcDbLine
10
-90.1776493592753
20
-2.12872884783906
30
0.000000000000000
11
-90.0776493592753
21
-2.12271508414563
31
0.000000000000000
  0
LINE
  5
F10193
330
F10194
100
AcDbEntity
8
Geo
100
AcDbLine
10
-90.0776493592753
20
-2.12271508414563
30
0.000000000000000
11
-89.9776493592753
21
-2.11688802747444
31
0.000000000000000
  0
LINE
  5
F10195
330
F10196
100
AcDbEntity
8
Geo
100
AcDbLine
10
-89.9776493592753
20
-2.11688802747444
30
0.000000000000000
11
-89.8776493592753
21
-2.11124754720375
31
0.000000000000000
  0
LINE
  5
F10197
330
F10198
100
AcDbEntity
8
Geo
100
AcDbLine
10
-89.8776493592753
20
-2.11124754720375
30
0.000000000000000
11
-89.7776493592753
21
-2.10579350927434
31
0.000000000000000
  0
LINE
  5
F10199
330
F1019A
100
AcDbEntity
8
Geo
100
AcDbLine
10
-89.7776493592753
20
-2.10579350927434
30
0.000000000000000
11
-89.6776493592753
21
-2.10052577692487
31
0.000000000000000
  0
LINE
  5
F1019B
330
F1019C
100
AcDbEntity
8
Geo
100
AcDbLine
10
-89.6776493592753
20
-2.10052577692487
30
0.000000000000000
11
-89.5776493592753
21
-2.09544421140272
31
0.000000000000000
  0
LINE
  5
F1019D
330
F1019E
100
AcDbEntity
8
Geo
100
AcDbLine
10
-89.5776493592753
20
-2.09544421140272
30
0.000000000000000
11
-89.4776493592753
21
-2.09054867265036
31
0.000000000000000
  0
LINE
  5
F1019F
330
F101A0
100
AcDbEntity
8
Geo
100
AcDbLine
10
-89.4776493592753
20
-2.09054867265036
30
0.000000000000000
11
-89.3776493592753
21
-2.08583901996737
31
0.000000000000000
  0
LINE
  5
F101A1
330
F101A2
100
AcDbEntity
8
Geo
100
AcDbLine
10
-89.3776493592753
20
-2.08583901996737
30
0.000000000000000
11
-89.2776493592753
21
-2.08131511264806
31
0.000000000000000
  0
LINE
  5
F101A3
330
F101A4
100
AcDbEntity
8
Geo
100
AcDbLine
10
-89.2776493592753
20
-2.08131511264806
30
0.000000000000000
11
-89.1776493592753
21
-2.07697681059467
31
0.000000000000000
  0
LINE
  5
F101A5
330
F101A6
100
AcDbEntity
8
Geo
100
AcDbLine
10
-89.1776493592753
20
-2.07697681059467
30
0.000000000000000
11
-89.0776493592753
21
-2.07282397490624
31
0.000000000000000
  0
LINE
  5
F101A7
330
F101A8
100
AcDbEntity
8
Geo
100
AcDbLine
10
-89.0776493592753
20
-2.07282397490624
30
0.000000000000000
11
-88.9776493592753
21
-2.06885646844323
31
0.000000000000000
  0
LINE
  5
F101A9
330
F101AA
100
AcDbEntity
8
Geo
100
AcDbLine
10
-88.9776493592753
20
-2.06885646844323
30
0.000000000000000
11
-88.8776493592753
21
-2.06507415636778
31
0.000000000000000
  0
LINE
  5
F101AB
330
F101AC
100
AcDbEntity
8
Geo
100
AcDbLine
10
-88.8776493592753
20
-2.06507415636778
30
0.000000000000000
11
-88.7776493592753
21
-2.06147690665973
31
0.000000000000000
  0
LINE
  5
F101AD
330
F101AE
100
AcDbEntity
8
Geo
100
AcDbLine
10
-88.7776493592753
20
-2.06147690665973
30
0.000000000000000
11
-88.6776493592753
21
-2.05806459060842
31
0.000000000000000
  0
LINE
  5
F101AF
330
F101B0
100
AcDbEntity
8
Geo
100
AcDbLine
10
-88.6776493592753
20
-2.05806459060842
30
0.000000000000000
11
-88.5776493592753
21
-2.05483708328033
31
0.000000000000000
  0
LINE
  5
F101B1
330
F101B2
100
AcDbEntity
8
Geo
100
AcDbLine
10
-88.5776493592753
20
-2.05483708328033
30
0.000000000000000
11
-88.4776493592753
21
-2.05179426396249
31
0.000000000000000
  0
LINE
  5
F101B3
330
F101B4
100
AcDbEntity
8
Geo
100
AcDbLine
10
-88.4776493592753
20
-2.05179426396249
30
0.000000000000000
11
-88.3776493592753
21
-2.04893601658182
31
0.000000000000000
  0
LINE
  5
F101B5
330
F101B6
100
AcDbEntity
8
Geo
100
AcDbLine
10
-88.3776493592753
20
-2.04893601658182
30
0.000000000000000
11
-88.2776493592753
21
-2.04626223010037
31
0.000000000000000
  0
LINE
  5
F101B7
330
F101B8
100
AcDbEntity
8
Geo
100
AcDbLine
10
-88.2776493592753
20
-2.04626223010037
30
0.000000000000000
11
-88.1776493592753
21
-2.04377279888641
31
0.000000000000000
  0
LINE
  5
F101B9
330
F101BA
100
AcDbEntity
8
Geo
100
AcDbLine
10
-88.1776493592753
20
-2.04377279888641
30
0.000000000000000
11
-88.0776493592753
21
-2.04146762306160
31
0.000000000000000
  0
LINE
  5
F101BB
330
F101BC
100
AcDbEntity
8
Geo
100
AcDbLine
10
-88.0776493592753
20
-2.04146762306160
30
0.000000000000000
11
-87.9776493592753
21
-2.03934660882409
31
0.000000000000000
  0
LINE
  5
F101BD
330
F101BE
100
AcDbEntity
8
Geo
100
AcDbLine
10
-87.9776493592753
20
-2.03934660882409
30
0.000000000000000
11
-87.8776493592753
21
-2.03740966874760
31
0.000000000000000
  0
LINE
  5
F101BF
330
F101C0
100
AcDbEntity
8
Geo
100
AcDbLine
10
-87.8776493592753
20
-2.03740966874760
30
0.000000000000000
11
-87.7776493592753
21
-2.03565672205663
31
0.000000000000000
  0
LINE
  5
F101C1
330
F101C2
100
AcDbEntity
8
Geo
100
AcDbLine
10
-87.7776493592753
20
-2.03565672205663
30
0.000000000000000
11
-87.6776493592753
21
-2.03408769487767
31
0.000000000000000
  0
LINE
  5
F101C3
330
F101C4
100
AcDbEntity
8
Geo
100
AcDbLine
10
-87.6776493592753
20
-2.03408769487767
30
0.000000000000000
11
-87.5776493592753
21
-2.03270252046656
31
0.000000000000000
  0
LINE
  5
F101C5
330
F101C6
100
AcDbEntity
8
Geo
100
AcDbLine
10
-87.5776493592753
20
-2.03270252046656
30
0.000000000000000
11
-87.4776493592753
21
-2.03150113941189
31
0.000000000000000
  0
LINE
  5
F101C7
330
F101C8
100
AcDbEntity
8
Geo
100
AcDbLine
10
-87.4776493592753
20
-2.03150113941189
30
0.000000000000000
11
-87.3776493592753
21
-2.03048349981464
31
0.000000000000000
  0
LINE
  5
F101C9
330
F101CA
100
AcDbEntity
8
Geo
100
AcDbLine
10
-87.3776493592753
20
-2.03048349981464
30
0.000000000000000
11
-87.2776493592753
21
-2.02964955744384
31
0.000000000000000
  0
LINE
  5
F101CB
330
F101CC
100
AcDbEntity
8
Geo
100
AcDbLine
10
-87.2776493592753
20
-2.02964955744384
30
0.000000000000000
11
-87.1776493592753
21
-2.02899927586853
31
0.000000000000000
  0
LINE
  5
F101CD
330
F101CE
100
AcDbEntity
8
Geo
100
AcDbLine
10
-87.1776493592753
20
-2.02899927586853
30
0.000000000000000
11
-87.0776493592753
21
-2.02853262656580
31
0.000000000000000
  0
LINE
  5
F101CF
330
F101D0
100
AcDbEntity
8
Geo
100
AcDbLine
10
-96.0776493592753
20
-0.629064609515210
30
0.000000000000000
11
-95.9776493592753
21
-0.489190357348951
31
0.000000000000000
  0
LINE
  5
F101D1
330
F101D2
100
AcDbEntity
8
Geo
100
AcDbLine
10
-95.9776493592753
20
-0.489190357348951
30
0.000000000000000
11
-95.8776493592753
21
-0.492015717756947
31
0.000000000000000
  0
LINE
  5
F101D3
330
F101D4
100
AcDbEntity
8
Geo
100
AcDbLine
10
-95.8776493592753
20
-0.492015717756947
30
0.000000000000000
11
-95.7776493592753
21
-0.522725912391895
31
0.000000000000000
  0
LINE
  5
F101D5
330
F101D6
100
AcDbEntity
8
Geo
100
AcDbLine
10
-95.7776493592753
20
-0.522725912391895
30
0.000000000000000
11
-95.6776493592753
21
-0.556129464009676
31
0.000000000000000
  0
LINE
  5
F101D7
330
F101D8
100
AcDbEntity
8
Geo
100
AcDbLine
10
-95.6776493592753
20
-0.556129464009676
30
0.000000000000000
11
-95.5776493592753
21
-0.592176891976326
31
0.000000000000000
  0
LINE
  5
F101D9
330
F101DA
100
AcDbEntity
8
Geo
100
AcDbLine
10
-95.5776493592753
20
-0.592176891976326
30
0.000000000000000
11
-95.4776493592753
21
-0.630814799287568
31
0.000000000000000
  0
LINE
  5
F101DB
330
F101DC
100
AcDbEntity
8
Geo
100
AcDbLine
10
-95.4776493592753
20
-0.630814799287568
30
0.000000000000000
11
-95.3776493592753
21
-0.671985951665721
31
0.000000000000000
  0
LINE
  5
F101DD
330
F101DE
100
AcDbEntity
8
Geo
100
AcDbLine
10
-95.3776493592753
20
-0.671985951665721
30
0.000000000000000
11
-95.2776493592753
21
-0.715629362340755
31
0.000000000000000
  0
LINE
  5
F101DF
330
F101E0
100
AcDbEntity
8
Geo
100
AcDbLine
10
-95.2776493592753
20
-0.715629362340755
30
0.000000000000000
11
-95.1776493592753
21
-0.761680382389905
31
0.000000000000000
  0
LINE
  5
F101E1
330
F101E2
100
AcDbEntity
8
Geo
100
AcDbLine
10
-95.1776493592753
20
-0.761680382389905
30
0.000000000000000
11
-95.0776493592753
21
-0.810070796502033
31
0.000000000000000
  0
LINE
  5
F101E3
330
F101E4
100
AcDbEntity
8
Geo
100
AcDbLine
10
-95.0776493592753
20
-0.810070796502033
30
0.000000000000000
11
-94.9776493592753
21
-0.860728924024869
31
0.000000000000000
  0
LINE
  5
F101E5
330
F101E6
100
AcDbEntity
8
Geo
100
AcDbLine
10
-94.9776493592753
20
-0.860728924024869
30
0.000000000000000
11
-94.8776493592753
21
-0.913579725145461
31
0.000000000000000
  0
LINE
  5
F101E7
330
F101E8
100
AcDbEntity
8
Geo
100
AcDbLine
10
-94.8776493592753
20
-0.913579725145461
30
0.000000000000000
11
-94.7776493592753
21
-0.968544912046548
31
0.000000000000000
  0
LINE
  5
F101E9
330
F101EA
100
AcDbEntity
8
Geo
100
AcDbLine
10
-94.7776493592753
20
-0.968544912046548
30
0.000000000000000
11
-94.6776493592753
21
-1.02554306487419
31
0.000000000000000
  0
LINE
  5
F101EB
330
F101EC
100
AcDbEntity
8
Geo
100
AcDbLine
10
-94.6776493592753
20
-1.02554306487419
30
0.000000000000000
11
-94.5776493592753
21
-1.08448975234487
31
0.000000000000000
  0
LINE
  5
F101ED
330
F101EE
100
AcDbEntity
8
Geo
100
AcDbLine
10
-94.5776493592753
20
-1.08448975234487
30
0.000000000000000
11
-94.4776493592753
21
-1.14529765681348
31
0.000000000000000
  0
LINE
  5
F101EF
330
F101F0
100
AcDbEntity
8
Geo
100
AcDbLine
10
-94.4776493592753
20
-1.14529765681348
30
0.000000000000000
11
-94.3776493592753
21
-1.20787670361676
31
0.000000000000000
  0
LINE
  5
F101F1
330
F101F2
100
AcDbEntity
8
Geo
100
AcDbLine
10
-94.3776493592753
20
-1.20787670361676
30
0.000000000000000
11
-94.2776493592753
21
-1.27213419450082
31
0.000000000000000
  0
LINE
  5
F101F3
330
F101F4
100
AcDbEntity
8
Geo
100
AcDbLine
10
-94.2776493592753
20
-1.27213419450082
30
0.000000000000000
11
-94.1776493592753
21
-1.33797494493492
31
0.000000000000000
  0
LINE
  5
F101F5
330
F101F6
100
AcDbEntity
8
Geo
100
AcDbLine
10
-94.1776493592753
20
-1.33797494493492
30
0.000000000000000
11
-94.0776493592753
21
-1.40530142510817
31
0.000000000000000
  0
LINE
  5
F101F7
330
F101F8
100
AcDbEntity
8
Geo
100
AcDbLine
10
-94.0776493592753
20
-1.40530142510817
30
0.000000000000000
11
-93.9776493592753
21
-1.47401390440032
31
0.000000000000000
  0
LINE
  5
F101F9
330
F101FA
100
AcDbEntity
8
Geo
100
AcDbLine
10
-93.9776493592753
20
-1.47401390440032
30
0.000000000000000
11
-93.8776493592753
21
-1.54401059911257
31
0.000000000000000
  0
LINE
  5
F101FB
330
F101FC
100
AcDbEntity
8
Geo
100
AcDbLine
10
-93.8776493592753
20
-1.54401059911257
30
0.000000000000000
11
-93.7776493592753
21
-1.61518782323963
31
0.000000000000000
  0
LINE
  5
F101FD
330
F101FE
100
AcDbEntity
8
Geo
100
AcDbLine
10
-93.7776493592753
20
-1.61518782323963
30
0.000000000000000
11
-93.6776493592753
21
-1.68744014205964
31
0.000000000000000
  0
LINE
  5
F101FF
330
F10200
100
AcDbEntity
8
Geo
100
AcDbLine
10
-93.6776493592753
20
-1.68744014205964
30
0.000000000000000
11
-93.5776493592753
21
-1.76066052831451
31
0.000000000000000
  0
LINE
  5
F10201
330
F10202
100
AcDbEntity
8
Geo
100
AcDbLine
10
-93.5776493592753
20
-1.76066052831451
30
0.000000000000000
11
-93.4776493592753
21
-1.83474052074919
31
0.000000000000000
  0
LINE
  5
F10203
330
F10204
100
AcDbEntity
8
Geo
100
AcDbLine
10
-93.4776493592753
20
-1.83474052074919
30
0.000000000000000
11
-93.3776493592753
21
-1.90957038477523
31
0.000000000000000
  0
LINE
  5
F10205
330
F10206
100
AcDbEntity
8
Geo
100
AcDbLine
10
-93.3776493592753
20
-1.90957038477523
30
0.000000000000000
11
-93.2776493592753
21
-1.98503927502045
31
0.000000000000000
  0
LINE
  5
F10207
330
F10208
100
AcDbEntity
8
Geo
100
AcDbLine
10
-93.2776493592753
20
-1.98503927502045
30
0.000000000000000
11
-93.1776493592753
21
-2.06103539952401
31
0.000000000000000
  0
LINE
  5
F10209
330
F1020A
100
AcDbEntity
8
Geo
100
AcDbLine
10
-93.1776493592753
20
-2.06103539952401
30
0.000000000000000
11
-93.0776493592753
21
-2.13744618533373
31
0.000000000000000
  0
LINE
  5
F1020B
330
F1020C
100
AcDbEntity
8
Geo
100
AcDbLine
10
-93.0776493592753
20
-2.13744618533373
30
0.000000000000000
11
-92.9776493592753
21
-2.21415844526020
31
0.000000000000000
  0
LINE
  5
F1020D
330
F1020E
100
AcDbEntity
8
Geo
100
AcDbLine
10
-92.9776493592753
20
-2.21415844526020
30
0.000000000000000
11
-92.8776493592753
21
-2.29105854554083
31
0.000000000000000
  0
LINE
  5
F1020F
330
F10210
100
AcDbEntity
8
Geo
100
AcDbLine
10
-92.8776493592753
20
-2.29105854554083
30
0.000000000000000
11
-92.7776493592753
21
-2.36803257416540
31
0.000000000000000
  0
LINE
  5
F10211
330
F10212
100
AcDbEntity
8
Geo
100
AcDbLine
10
-92.7776493592753
20
-2.36803257416540
30
0.000000000000000
11
-92.6776493592753
21
-2.44496650961372
31
0.000000000000000
  0
LINE
  5
F10213
330
F10214
100
AcDbEntity
8
Geo
100
AcDbLine
10
-92.6776493592753
20
-2.44496650961372
30
0.000000000000000
11
-92.5776493592753
21
-2.52174638975555
31
0.000000000000000
  0
LINE
  5
F10215
330
F10216
100
AcDbEntity
8
Geo
100
AcDbLine
10
-92.5776493592753
20
-2.52174638975555
30
0.000000000000000
11
-92.4776493592752
21
-2.59825848066259
31
0.000000000000000
  0
LINE
  5
F10217
330
F10218
100
AcDbEntity
8
Geo
100
AcDbLine
10
-92.4776493592752
20
-2.59825848066259
30
0.000000000000000
11
-92.3776493592753
21
-2.67438944508233
31
0.000000000000000
  0
LINE
  5
F10219
330
F1021A
100
AcDbEntity
8
Geo
100
AcDbLine
10
-92.3776493592753
20
-2.67438944508233
30
0.000000000000000
11
-92.2776493592753
21
-2.75002651032442
31
0.000000000000000
  0
LINE
  5
F1021B
330
F1021C
100
AcDbEntity
8
Geo
100
AcDbLine
10
-92.2776493592753
20
-2.75002651032442
30
0.000000000000000
11
-92.1776493592753
21
-2.82505763531062
31
0.000000000000000
  0
LINE
  5
F1021D
330
F1021E
100
AcDbEntity
8
Geo
100
AcDbLine
10
-92.1776493592753
20
-2.82505763531062
30
0.000000000000000
11
-92.0776493592753
21
-2.89937167654119
31
0.000000000000000
  0
LINE
  5
F1021F
330
F10220
100
AcDbEntity
8
Geo
100
AcDbLine
10
-92.0776493592753
20
-2.89937167654119
30
0.000000000000000
11
-91.9776493592753
21
-2.98162403447821
31
0.000000000000000
  0
LINE
  5
F10221
330
F10222
100
AcDbEntity
8
Geo
100
AcDbLine
10
-91.9776493592753
20
-2.98162403447821
30
0.000000000000000
11
-91.8776493592753
21
-3.06112530204873
31
0.000000000000000
  0
LINE
  5
F10223
330
F10224
100
AcDbEntity
8
Geo
100
AcDbLine
10
-91.8776493592753
20
-3.06112530204873
30
0.000000000000000
11
-91.7776493592753
21
-3.13780547582438
31
0.000000000000000
  0
LINE
  5
F10225
330
F10226
100
AcDbEntity
8
Geo
100
AcDbLine
10
-91.7776493592753
20
-3.13780547582438
30
0.000000000000000
11
-91.6776493592753
21
-3.21161165560753
31
0.000000000000000
  0
LINE
  5
F10227
330
F10228
100
AcDbEntity
8
Geo
100
AcDbLine
10
-91.6776493592753
20
-3.21161165560753
30
0.000000000000000
11
-91.5776493592753
21
-3.28250701592602
31
0.000000000000000
  0
LINE
  5
F10229
330
F1022A
100
AcDbEntity
8
Geo
100
AcDbLine
10
-91.5776493592753
20
-3.28250701592602
30
0.000000000000000
11
-91.4776493592753
21
-3.35046976666767
31
0.000000000000000
  0
LINE
  5
F1022B
330
F1022C
100
AcDbEntity
8
Geo
100
AcDbLine
10
-91.4776493592753
20
-3.35046976666767
30
0.000000000000000
11
-91.3776493592753
21
-3.41549211100468
31
0.000000000000000
  0
LINE
  5
F1022D
330
F1022E
100
AcDbEntity
8
Geo
100
AcDbLine
10
-91.3776493592753
20
-3.41549211100468
30
0.000000000000000
11
-91.2776493592753
21
-3.47757920793956
31
0.000000000000000
  0
LINE
  5
F1022F
330
F10230
100
AcDbEntity
8
Geo
100
AcDbLine
10
-91.2776493592753
20
-3.47757920793956
30
0.000000000000000
11
-91.1776493592753
21
-3.53674814601008
31
0.000000000000000
  0
LINE
  5
F10231
330
F10232
100
AcDbEntity
8
Geo
100
AcDbLine
10
-91.1776493592753
20
-3.53674814601008
30
0.000000000000000
11
-91.0776493592753
21
-3.59302693392495
31
0.000000000000000
  0
LINE
  5
F10233
330
F10234
100
AcDbEntity
8
Geo
100
AcDbLine
10
-91.0776493592753
20
-3.59302693392495
30
0.000000000000000
11
-90.9776493592753
21
-3.64645351316881
31
0.000000000000000
  0
LINE
  5
F10235
330
F10236
100
AcDbEntity
8
Geo
100
AcDbLine
10
-90.9776493592753
20
-3.64645351316881
30
0.000000000000000
11
-90.8776493592753
21
-3.69707479691816
31
0.000000000000000
  0
LINE
  5
F10237
330
F10238
100
AcDbEntity
8
Geo
100
AcDbLine
10
-90.8776493592753
20
-3.69707479691816
30
0.000000000000000
11
-90.7776493592753
21
-3.74494573895086
31
0.000000000000000
  0
LINE
  5
F10239
330
F1023A
100
AcDbEntity
8
Geo
100
AcDbLine
10
-90.7776493592753
20
-3.74494573895086
30
0.000000000000000
11
-90.6776493592753
21
-3.79012843561322
31
0.000000000000000
  0
LINE
  5
F1023B
330
F1023C
100
AcDbEntity
8
Geo
100
AcDbLine
10
-90.6776493592753
20
-3.79012843561322
30
0.000000000000000
11
-90.5776493592753
21
-3.83269126333123
31
0.000000000000000
  0
LINE
  5
F1023D
330
F1023E
100
AcDbEntity
8
Geo
100
AcDbLine
10
-90.5776493592753
20
-3.83269126333123
30
0.000000000000000
11
-90.4776493592753
21
-3.87270805361691
31
0.000000000000000
  0
LINE
  5
F1023F
330
F10240
100
AcDbEntity
8
Geo
100
AcDbLine
10
-90.4776493592753
20
-3.87270805361691
30
0.000000000000000
11
-90.3776493592753
21
-3.91025730702677
31
0.000000000000000
  0
LINE
  5
F10241
330
F10242
100
AcDbEntity
8
Geo
100
AcDbLine
10
-90.3776493592753
20
-3.91025730702677
30
0.000000000000000
11
-90.2776493592753
21
-3.94542144707778
31
0.000000000000000
  0
LINE
  5
F10243
330
F10244
100
AcDbEntity
8
Geo
100
AcDbLine
10
-90.2776493592753
20
-3.94542144707778
30
0.000000000000000
11
-90.1776493592753
21
-3.97828611471463
31
0.000000000000000
  0
LINE
  5
F10245
330
F10246
100
AcDbEntity
8
Geo
100
AcDbLine
10
-90.1776493592753
20
-3.97828611471463
30
0.000000000000000
11
-90.0776493592753
21
-4.00893950355096
31
0.000000000000000
  0
LINE
  5
F10247
330
F10248
100
AcDbEntity
8
Geo
100
AcDbLine
10
-90.0776493592753
20
-4.00893950355096
30
0.000000000000000
11
-89.9776493592753
21
-4.03747173577482
31
0.000000000000000
  0
LINE
  5
F10249
330
F1024A
100
AcDbEntity
8
Geo
100
AcDbLine
10
-89.9776493592753
20
-4.03747173577482
30
0.000000000000000
11
-89.8776493592753
21
-4.06397427831281
31
0.000000000000000
  0
LINE
  5
F1024B
330
F1024C
100
AcDbEntity
8
Geo
100
AcDbLine
10
-89.8776493592753
20
-4.06397427831281
30
0.000000000000000
11
-89.7776493592753
21
-4.08853939858780
31
0.000000000000000
  0
LINE
  5
F1024D
330
F1024E
100
AcDbEntity
8
Geo
100
AcDbLine
10
-89.7776493592753
20
-4.08853939858780
30
0.000000000000000
11
-89.6776493592753
21
-4.11125965897863
31
0.000000000000000
  0
LINE
  5
F1024F
330
F10250
100
AcDbEntity
8
Geo
100
AcDbLine
10
-89.6776493592753
20
-4.11125965897863
30
0.000000000000000
11
-89.5776493592753
21
-4.13222744889614
31
0.000000000000000
  0
LINE
  5
F10251
330
F10252
100
AcDbEntity
8
Geo
100
AcDbLine
10
-89.5776493592753
20
-4.13222744889614
30
0.000000000000000
11
-89.4776493592753
21
-4.15153455322515
31
0.000000000000000
  0
LINE
  5
F10253
330
F10254
100
AcDbEntity
8
Geo
100
AcDbLine
10
-89.4776493592753
20
-4.15153455322515
30
0.000000000000000
11
-89.3776493592753
21
-4.16927175574602
31
0.000000000000000
  0
LINE
  5
F10255
330
F10256
100
AcDbEntity
8
Geo
100
AcDbLine
10
-89.3776493592753
20
-4.16927175574602
30
0.000000000000000
11
-89.2776493592753
21
-4.18552847603845
31
0.000000000000000
  0
LINE
  5
F10257
330
F10258
100
AcDbEntity
8
Geo
100
AcDbLine
10
-89.2776493592753
20
-4.18552847603845
30
0.000000000000000
11
-89.1776493592753
21
-4.20039243828412
31
0.000000000000000
  0
LINE
  5
F10259
330
F1025A
100
AcDbEntity
8
Geo
100
AcDbLine
10
-89.1776493592753
20
-4.20039243828412
30
0.000000000000000
11
-89.0776493592753
21
-4.21394937032036
31
0.000000000000000
  0
LINE
  5
F1025B
330
F1025C
100
AcDbEntity
8
Geo
100
AcDbLine
10
-89.0776493592753
20
-4.21394937032036
30
0.000000000000000
11
-88.9776493592753
21
-4.22628273125273
31
0.000000000000000
  0
LINE
  5
F1025D
330
F1025E
100
AcDbEntity
8
Geo
100
AcDbLine
10
-88.9776493592753
20
-4.22628273125273
30
0.000000000000000
11
-88.8776493592753
21
-4.23747346590905
31
0.000000000000000
  0
LINE
  5
F1025F
330
F10260
100
AcDbEntity
8
Geo
100
AcDbLine
10
-88.8776493592753
20
-4.23747346590905
30
0.000000000000000
11
-88.7776493592753
21
-4.24759978440810
31
0.000000000000000
  0
LINE
  5
F10261
330
F10262
100
AcDbEntity
8
Geo
100
AcDbLine
10
-88.7776493592753
20
-4.24759978440810
30
0.000000000000000
11
-88.6776493592753
21
-4.25673696512236
31
0.000000000000000
  0
LINE
  5
F10263
330
F10264
100
AcDbEntity
8
Geo
100
AcDbLine
10
-88.6776493592753
20
-4.25673696512236
30
0.000000000000000
11
-88.5776493592753
21
-4.26495717933370
31
0.000000000000000
  0
LINE
  5
F10265
330
F10266
100
AcDbEntity
8
Geo
100
AcDbLine
10
-88.5776493592753
20
-4.26495717933370
30
0.000000000000000
11
-88.4776493592753
21
-4.27232933591229
31
0.000000000000000
  0
LINE
  5
F10267
330
F10268
100
AcDbEntity
8
Geo
100
AcDbLine
10
-88.4776493592753
20
-4.27232933591229
30
0.000000000000000
11
-88.3776493592753
21
-4.27891894439131
31
0.000000000000000
  0
LINE
  5
F10269
330
F1026A
100
AcDbEntity
8
Geo
100
AcDbLine
10
-88.3776493592753
20
-4.27891894439131
30
0.000000000000000
11
-88.2776493592753
21
-4.28478799486131
31
0.000000000000000
  0
LINE
  5
F1026B
330
F1026C
100
AcDbEntity
8
Geo
100
AcDbLine
10
-88.2776493592753
20
-4.28478799486131
30
0.000000000000000
11
-88.1776493592753
21
-4.28999485316802
31
0.000000000000000
  0
LINE
  5
F1026D
330
F1026E
100
AcDbEntity
8
Geo
100
AcDbLine
10
-88.1776493592753
20
-4.28999485316802
30
0.000000000000000
11
-88.0776493592753
21
-4.29459416996406
31
0.000000000000000
  0
LINE
  5
F1026F
330
F10270
100
AcDbEntity
8
Geo
100
AcDbLine
10
-88.0776493592753
20
-4.29459416996406
30
0.000000000000000
11
-87.9776493592753
21
-4.29863680223807
31
0.000000000000000
  0
LINE
  5
F10271
330
F10272
100
AcDbEntity
8
Geo
100
AcDbLine
10
-87.9776493592753
20
-4.29863680223807
30
0.000000000000000
11
-87.8776493592753
21
-4.30216974602314
31
0.000000000000000
  0
LINE
  5
F10273
330
F10274
100
AcDbEntity
8
Geo
100
AcDbLine
10
-87.8776493592753
20
-4.30216974602314
30
0.000000000000000
11
-87.7776493592753
21
-4.30523607906898
31
0.000000000000000
  0
LINE
  5
F10275
330
F10276
100
AcDbEntity
8
Geo
100
AcDbLine
10
-87.7776493592753
20
-4.30523607906898
30
0.000000000000000
11
-87.6776493592753
21
-4.30787491234928
31
0.000000000000000
  0
LINE
  5
F10277
330
F10278
100
AcDbEntity
8
Geo
100
AcDbLine
10
-87.6776493592753
20
-4.30787491234928
30
0.000000000000000
11
-87.5776493592753
21
-4.31012134936497
31
0.000000000000000
  0
LINE
  5
F10279
330
F1027A
100
AcDbEntity
8
Geo
100
AcDbLine
10
-87.5776493592753
20
-4.31012134936497
30
0.000000000000000
11
-87.4776493592753
21
-4.31200645229695
31
0.000000000000000
  0
LINE
  5
F1027B
330
F1027C
100
AcDbEntity
8
Geo
100
AcDbLine
10
-87.4776493592753
20
-4.31200645229695
30
0.000000000000000
11
-87.3776493592753
21
-4.31355721415623
31
0.000000000000000
  0
LINE
  5
F1027D
330
F1027E
100
AcDbEntity
8
Geo
100
AcDbLine
10
-87.3776493592753
20
-4.31355721415623
30
0.000000000000000
11
-87.2776493592753
21
-4.31479653617589
31
0.000000000000000
  0
LINE
  5
F1027F
330
F10280
100
AcDbEntity
8
Geo
100
AcDbLine
10
-87.2776493592753
20
-4.31479653617589
30
0.000000000000000
11
-87.1776493592753
21
-4.31574320978700
31
0.000000000000000
  0
LINE
  5
F10281
330
F10282
100
AcDbEntity
8
Geo
100
AcDbLine
10
-87.1776493592753
20
-4.31574320978700
30
0.000000000000000
11
-87.0776493592753
21
-4.31641190261951
31
0.000000000000000
  0
LINE
  5
F10283
330
F10284
100
AcDbEntity
8
Geo
100
AcDbLine
10
-96.0776493592753
20
-2.34096633884649
30
0.000000000000000
11
-95.9776493592753
21
-2.41689628643978
31
0.000000000000000
  0
LINE
  5
F10285
330
F10286
100
AcDbEntity
8
Geo
100
AcDbLine
10
-95.9776493592753
20
-2.41689628643978
30
0.000000000000000
11
-95.8776493592753
21
-2.49477439634850
31
0.000000000000000
  0
LINE
  5
F10287
330
F10288
100
AcDbEntity
8
Geo
100
AcDbLine
10
-95.8776493592753
20
-2.49477439634850
30
0.000000000000000
11
-95.7776493592753
21
-2.57139358830796
31
0.000000000000000
  0
LINE
  5
F10289
330
F1028A
100
AcDbEntity
8
Geo
100
AcDbLine
10
-95.7776493592753
20
-2.57139358830796
30
0.000000000000000
11
-95.6776493592753
21
-2.64767144870734
31
0.000000000000000
  0
LINE
  5
F1028B
330
F1028C
100
AcDbEntity
8
Geo
100
AcDbLine
10
-95.6776493592753
20
-2.64767144870734
30
0.000000000000000
11
-95.5776493592753
21
-2.72349498725946
31
0.000000000000000
  0
LINE
  5
F1028D
330
F1028E
100
AcDbEntity
8
Geo
100
AcDbLine
10
-95.5776493592753
20
-2.72349498725946
30
0.000000000000000
11
-95.4776493592753
21
-2.79875188666345
31
0.000000000000000
  0
LINE
  5
F1028F
330
F10290
100
AcDbEntity
8
Geo
100
AcDbLine
10
-95.4776493592753
20
-2.79875188666345
30
0.000000000000000
11
-95.3776493592753
21
-2.87333066898022
31
0.000000000000000
  0
LINE
  5
F10291
330
F10292
100
AcDbEntity
8
Geo
100
AcDbLine
10
-95.3776493592753
20
-2.87333066898022
30
0.000000000000000
11
-95.2776493592753
21
-2.94712086076457
31
0.000000000000000
  0
LINE
  5
F10293
330
F10294
100
AcDbEntity
8
Geo
100
AcDbLine
10
-95.2776493592753
20
-2.94712086076457
30
0.000000000000000
11
-95.1776493592753
21
-3.02001315670932
31
0.000000000000000
  0
LINE
  5
F10295
330
F10296
100
AcDbEntity
8
Geo
100
AcDbLine
10
-95.1776493592753
20
-3.02001315670932
30
0.000000000000000
11
-95.0776493592753
21
-3.09189958155917
31
0.000000000000000
  0
LINE
  5
F10297
330
F10298
100
AcDbEntity
8
Geo
100
AcDbLine
10
-95.0776493592753
20
-3.09189958155917
30
0.000000000000000
11
-94.9776493592753
21
-3.16267365005423
31
0.000000000000000
  0
LINE
  5
F10299
330
F1029A
100
AcDbEntity
8
Geo
100
AcDbLine
10
-94.9776493592753
20
-3.16267365005423
30
0.000000000000000
11
-94.8776493592753
21
-3.23223052466652
31
0.000000000000000
  0
LINE
  5
F1029B
330
F1029C
100
AcDbEntity
8
Geo
100
AcDbLine
10
-94.8776493592753
20
-3.23223052466652
30
0.000000000000000
11
-94.7776493592753
21
-3.30046717089565
31
0.000000000000000
  0
LINE
  5
F1029D
330
F1029E
100
AcDbEntity
8
Geo
100
AcDbLine
10
-94.7776493592753
20
-3.30046717089565
30
0.000000000000000
11
-94.6776493592753
21
-3.36728250989365
31
0.000000000000000
  0
LINE
  5
F1029F
330
F102A0
100
AcDbEntity
8
Geo
100
AcDbLine
10
-94.6776493592753
20
-3.36728250989365
30
0.000000000000000
11
-94.5776493592753
21
-3.43257756819298
31
0.000000000000000
  0
LINE
  5
F102A1
330
F102A2
100
AcDbEntity
8
Geo
100
AcDbLine
10
-94.5776493592753
20
-3.43257756819298
30
0.000000000000000
11
-94.4776493592753
21
-3.49625562431574
31
0.000000000000000
  0
LINE
  5
F102A3
330
F102A4
100
AcDbEntity
8
Geo
100
AcDbLine
10
-94.4776493592753
20
-3.49625562431574
30
0.000000000000000
11
-94.3776493592753
21
-3.55822235204708
31
0.000000000000000
  0
LINE
  5
F102A5
330
F102A6
100
AcDbEntity
8
Geo
100
AcDbLine
10
-94.3776493592753
20
-3.55822235204708
30
0.000000000000000
11
-94.2776493592753
21
-3.61838596016050
31
0.000000000000000
  0
LINE
  5
F102A7
330
F102A8
100
AcDbEntity
8
Geo
100
AcDbLine
10
-94.2776493592753
20
-3.61838596016050
30
0.000000000000000
11
-94.1776493592753
21
-3.67665732838803
31
0.000000000000000
  0
LINE
  5
F102A9
330
F102AA
100
AcDbEntity
8
Geo
100
AcDbLine
10
-94.1776493592753
20
-3.67665732838803
30
0.000000000000000
11
-94.0776493592753
21
-3.73295013943399
31
0.000000000000000
  0
LINE
  5
F102AB
330
F102AC
100
AcDbEntity
8
Geo
100
AcDbLine
10
-94.0776493592753
20
-3.73295013943399
30
0.000000000000000
11
-93.9776493592753
21
-3.78718100683665
31
0.000000000000000
  0
LINE
  5
F102AD
330
F102AE
100
AcDbEntity
8
Geo
100
AcDbLine
10
-93.9776493592753
20
-3.78718100683665
30
0.000000000000000
11
-93.8776493592753
21
-3.83926959848852
31
0.000000000000000
  0
LINE
  5
F102AF
330
F102B0
100
AcDbEntity
8
Geo
100
AcDbLine
10
-93.8776493592753
20
-3.83926959848852
30
0.000000000000000
11
-93.7776493592753
21
-3.88913875563214
31
0.000000000000000
  0
LINE
  5
F102B1
330
F102B2
100
AcDbEntity
8
Geo
100
AcDbLine
10
-93.7776493592753
20
-3.88913875563214
30
0.000000000000000
11
-93.6776493592753
21
-3.93671460715528
31
0.000000000000000
  0
LINE
  5
F102B3
330
F102B4
100
AcDbEntity
8
Geo
100
AcDbLine
10
-93.6776493592753
20
-3.93671460715528
30
0.000000000000000
11
-93.5776493592753
21
-3.98192667901608
31
0.000000000000000
  0
LINE
  5
F102B5
330
F102B6
100
AcDbEntity
8
Geo
100
AcDbLine
10
-93.5776493592753
20
-3.98192667901608
30
0.000000000000000
11
-93.4776493592753
21
-4.02470799863618
31
0.000000000000000
  0
LINE
  5
F102B7
330
F102B8
100
AcDbEntity
8
Geo
100
AcDbLine
10
-93.4776493592753
20
-4.02470799863618
30
0.000000000000000
11
-93.3776493592753
21
-4.06499519410706
31
0.000000000000000
  0
LINE
  5
F102B9
330
F102BA
100
AcDbEntity
8
Geo
100
AcDbLine
10
-93.3776493592753
20
-4.06499519410706
30
0.000000000000000
11
-93.2776493592753
21
-4.10272858806284
31
0.000000000000000
  0
LINE
  5
F102BB
330
F102BC
100
AcDbEntity
8
Geo
100
AcDbLine
10
-93.2776493592753
20
-4.10272858806284
30
0.000000000000000
11
-93.1776493592753
21
-4.13785228608018
31
0.000000000000000
  0
LINE
  5
F102BD
330
F102BE
100
AcDbEntity
8
Geo
100
AcDbLine
10
-93.1776493592753
20
-4.13785228608018
30
0.000000000000000
11
-93.0776493592753
21
-4.17031425947467
31
0.000000000000000
  0
LINE
  5
F102BF
330
F102C0
100
AcDbEntity
8
Geo
100
AcDbLine
10
-93.0776493592753
20
-4.17031425947467
30
0.000000000000000
11
-92.9776493592753
21
-4.20006642237086
31
0.000000000000000
  0
LINE
  5
F102C1
330
F102C2
100
AcDbEntity
8
Geo
100
AcDbLine
10
-92.9776493592753
20
-4.20006642237086
30
0.000000000000000
11
-92.8776493592753
21
-4.22706470293175
31
0.000000000000000
  0
LINE
  5
F102C3
330
F102C4
100
AcDbEntity
8
Geo
100
AcDbLine
10
-92.8776493592753
20
-4.22706470293175
30
0.000000000000000
11
-92.7776493592753
21
-4.25126910864236
31
0.000000000000000
  0
LINE
  5
F102C5
330
F102C6
100
AcDbEntity
8
Geo
100
AcDbLine
10
-92.7776493592753
20
-4.25126910864236
30
0.000000000000000
11
-92.6776493592753
21
-4.27264378555061
31
0.000000000000000
  0
LINE
  5
F102C7
330
F102C8
100
AcDbEntity
8
Geo
100
AcDbLine
10
-92.6776493592753
20
-4.27264378555061
30
0.000000000000000
11
-92.5776493592753
21
-4.29115707137770
31
0.000000000000000
  0
LINE
  5
F102C9
330
F102CA
100
AcDbEntity
8
Geo
100
AcDbLine
10
-92.5776493592753
20
-4.29115707137770
30
0.000000000000000
11
-92.4776493592752
21
-4.30678154241941
31
0.000000000000000
  0
LINE
  5
F102CB
330
F102CC
100
AcDbEntity
8
Geo
100
AcDbLine
10
-92.4776493592752
20
-4.30678154241941
30
0.000000000000000
11
-92.3776493592753
21
-4.31949405416879
31
0.000000000000000
  0
LINE
  5
F102CD
330
F102CE
100
AcDbEntity
8
Geo
100
AcDbLine
10
-92.3776493592753
20
-4.31949405416879
30
0.000000000000000
11
-92.2776493592753
21
-4.32927577560009
31
0.000000000000000
  0
LINE
  5
F102CF
330
F102D0
100
AcDbEntity
8
Geo
100
AcDbLine
10
-92.2776493592753
20
-4.32927577560009
30
0.000000000000000
11
-92.1776493592753
21
-4.33611221706313
31
0.000000000000000
  0
LINE
  5
F102D1
330
F102D2
100
AcDbEntity
8
Geo
100
AcDbLine
10
-92.1776493592753
20
-4.33611221706313
30
0.000000000000000
11
-92.0776493592753
21
-4.33999325174680
31
0.000000000000000
  0
LINE
  5
F102D3
330
F102D4
100
AcDbEntity
8
Geo
100
AcDbLine
10
-92.0776493592753
20
-4.33999325174680
30
0.000000000000000
11
-91.9776493592753
21
-4.33967149094416
31
0.000000000000000
  0
LINE
  5
F102D5
330
F102D6
100
AcDbEntity
8
Geo
100
AcDbLine
10
-91.9776493592753
20
-4.33967149094416
30
0.000000000000000
11
-91.8776493592753
21
-4.33931143430098
31
0.000000000000000
  0
LINE
  5
F102D7
330
F102D8
100
AcDbEntity
8
Geo
100
AcDbLine
10
-91.8776493592753
20
-4.33931143430098
30
0.000000000000000
11
-91.7776493592753
21
-4.33891570729864
31
0.000000000000000
  0
LINE
  5
F102D9
330
F102DA
100
AcDbEntity
8
Geo
100
AcDbLine
10
-91.7776493592753
20
-4.33891570729864
30
0.000000000000000
11
-91.6776493592753
21
-4.33848688358974
31
0.000000000000000
  0
LINE
  5
F102DB
330
F102DC
100
AcDbEntity
8
Geo
100
AcDbLine
10
-91.6776493592753
20
-4.33848688358974
30
0.000000000000000
11
-91.5776493592753
21
-4.33802748486772
31
0.000000000000000
  0
LINE
  5
F102DD
330
F102DE
100
AcDbEntity
8
Geo
100
AcDbLine
10
-91.5776493592753
20
-4.33802748486772
30
0.000000000000000
11
-91.4776493592753
21
-4.33753998075166
31
0.000000000000000
  0
LINE
  5
F102DF
330
F102E0
100
AcDbEntity
8
Geo
100
AcDbLine
10
-91.4776493592753
20
-4.33753998075166
30
0.000000000000000
11
-91.3776493592753
21
-4.33702678868529
31
0.000000000000000
  0
LINE
  5
F102E1
330
F102E2
100
AcDbEntity
8
Geo
100
AcDbLine
10
-91.3776493592753
20
-4.33702678868529
30
0.000000000000000
11
-91.2776493592753
21
-4.33649027384970
31
0.000000000000000
  0
LINE
  5
F102E3
330
F102E4
100
AcDbEntity
8
Geo
100
AcDbLine
10
-91.2776493592753
20
-4.33649027384970
30
0.000000000000000
11
-91.1776493592753
21
-4.33593274908880
31
0.000000000000000
  0
LINE
  5
F102E5
330
F102E6
100
AcDbEntity
8
Geo
100
AcDbLine
10
-91.1776493592753
20
-4.33593274908880
30
0.000000000000000
11
-91.0776493592753
21
-4.33535647484696
31
0.000000000000000
  0
LINE
  5
F102E7
330
F102E8
100
AcDbEntity
8
Geo
100
AcDbLine
10
-91.0776493592753
20
-4.33535647484696
30
0.000000000000000
11
-90.9776493592753
21
-4.33476365911805
31
0.000000000000000
  0
LINE
  5
F102E9
330
F102EA
100
AcDbEntity
8
Geo
100
AcDbLine
10
-90.9776493592753
20
-4.33476365911805
30
0.000000000000000
11
-90.8776493592753
21
-4.33415645740530
31
0.000000000000000
  0
LINE
  5
F102EB
330
F102EC
100
AcDbEntity
8
Geo
100
AcDbLine
10
-90.8776493592753
20
-4.33415645740530
30
0.000000000000000
11
-90.7776493592753
21
-4.33353697269114
31
0.000000000000000
  0
LINE
  5
F102ED
330
F102EE
100
AcDbEntity
8
Geo
100
AcDbLine
10
-90.7776493592753
20
-4.33353697269114
30
0.000000000000000
11
-90.6776493592753
21
-4.33290725541653
31
0.000000000000000
  0
LINE
  5
F102EF
330
F102F0
100
AcDbEntity
8
Geo
100
AcDbLine
10
-90.6776493592753
20
-4.33290725541653
30
0.000000000000000
11
-90.5776493592753
21
-4.33226930346909
31
0.000000000000000
  0
LINE
  5
F102F1
330
F102F2
100
AcDbEntity
8
Geo
100
AcDbLine
10
-90.5776493592753
20
-4.33226930346909
30
0.000000000000000
11
-90.4776493592753
21
-4.33162506217932
31
0.000000000000000
  0
LINE
  5
F102F3
330
F102F4
100
AcDbEntity
8
Geo
100
AcDbLine
10
-90.4776493592753
20
-4.33162506217932
30
0.000000000000000
11
-90.3776493592753
21
-4.33097642432446
31
0.000000000000000
  0
LINE
  5
F102F5
330
F102F6
100
AcDbEntity
8
Geo
100
AcDbLine
10
-90.3776493592753
20
-4.33097642432446
30
0.000000000000000
11
-90.2776493592753
21
-4.33032523013925
31
0.000000000000000
  0
LINE
  5
F102F7
330
F102F8
100
AcDbEntity
8
Geo
100
AcDbLine
10
-90.2776493592753
20
-4.33032523013925
30
0.000000000000000
11
-90.1776493592753
21
-4.32967326733315
31
0.000000000000000
  0
LINE
  5
F102F9
330
F102FA
100
AcDbEntity
8
Geo
100
AcDbLine
10
-90.1776493592753
20
-4.32967326733315
30
0.000000000000000
11
-90.0776493592753
21
-4.32902227111336
31
0.000000000000000
  0
LINE
  5
F102FB
330
F102FC
100
AcDbEntity
8
Geo
100
AcDbLine
10
-90.0776493592753
20
-4.32902227111336
30
0.000000000000000
11
-89.9776493592753
21
-4.32837392421308
31
0.000000000000000
  0
LINE
  5
F102FD
330
F102FE
100
AcDbEntity
8
Geo
100
AcDbLine
10
-89.9776493592753
20
-4.32837392421308
30
0.000000000000000
11
-89.8776493592753
21
-4.32772985692462
31
0.000000000000000
  0
LINE
  5
F102FF
330
F10300
100
AcDbEntity
8
Geo
100
AcDbLine
10
-89.8776493592753
20
-4.32772985692462
30
0.000000000000000
11
-89.7776493592753
21
-4.32709164713673
31
0.000000000000000
  0
LINE
  5
F10301
330
F10302
100
AcDbEntity
8
Geo
100
AcDbLine
10
-89.7776493592753
20
-4.32709164713673
30
0.000000000000000
11
-89.6776493592753
21
-4.32646082037566
31
0.000000000000000
  0
LINE
  5
F10303
330
F10304
100
AcDbEntity
8
Geo
100
AcDbLine
10
-89.6776493592753
20
-4.32646082037566
30
0.000000000000000
11
-89.5776493592753
21
-4.32583884984952
31
0.000000000000000
  0
LINE
  5
F10305
330
F10306
100
AcDbEntity
8
Geo
100
AcDbLine
10
-89.5776493592753
20
-4.32583884984952
30
0.000000000000000
11
-89.4776493592753
21
-4.32522715649544
31
0.000000000000000
  0
LINE
  5
F10307
330
F10308
100
AcDbEntity
8
Geo
100
AcDbLine
10
-89.4776493592753
20
-4.32522715649544
30
0.000000000000000
11
-89.3776493592753
21
-4.32462710902912
31
0.000000000000000
  0
LINE
  5
F10309
330
F1030A
100
AcDbEntity
8
Geo
100
AcDbLine
10
-89.3776493592753
20
-4.32462710902912
30
0.000000000000000
11
-89.2776493592753
21
-4.32404002399630
31
0.000000000000000
  0
LINE
  5
F1030B
330
F1030C
100
AcDbEntity
8
Geo
100
AcDbLine
10
-89.2776493592753
20
-4.32404002399630
30
0.000000000000000
11
-89.1776493592753
21
-4.32346716582573
31
0.000000000000000
  0
LINE
  5
F1030D
330
F1030E
100
AcDbEntity
8
Geo
100
AcDbLine
10
-89.1776493592753
20
-4.32346716582573
30
0.000000000000000
11
-89.0776493592753
21
-4.32290974688329
31
0.000000000000000
  0
LINE
  5
F1030F
330
F10310
100
AcDbEntity
8
Geo
100
AcDbLine
10
-89.0776493592753
20
-4.32290974688329
30
0.000000000000000
11
-88.9776493592753
21
-4.32236892752682
31
0.000000000000000
  0
LINE
  5
F10311
330
F10312
100
AcDbEntity
8
Geo
100
AcDbLine
10
-88.9776493592753
20
-4.32236892752682
30
0.000000000000000
11
-88.8776493592753
21
-4.32184581616133
31
0.000000000000000
  0
LINE
  5
F10313
330
F10314
100
AcDbEntity
8
Geo
100
AcDbLine
10
-88.8776493592753
20
-4.32184581616133
30
0.000000000000000
11
-88.7776493592753
21
-4.32134146929423
31
0.000000000000000
  0
LINE
  5
F10315
330
F10316
100
AcDbEntity
8
Geo
100
AcDbLine
10
-88.7776493592753
20
-4.32134146929423
30
0.000000000000000
11
-88.6776493592753
21
-4.32085689159021
31
0.000000000000000
  0
LINE
  5
F10317
330
F10318
100
AcDbEntity
8
Geo
100
AcDbLine
10
-88.6776493592753
20
-4.32085689159021
30
0.000000000000000
11
-88.5776493592753
21
-4.32039303592551
31
0.000000000000000
  0
LINE
  5
F10319
330
F1031A
100
AcDbEntity
8
Geo
100
AcDbLine
10
-88.5776493592753
20
-4.32039303592551
30
0.000000000000000
11
-88.4776493592753
21
-4.31995080344121
31
0.000000000000000
  0
LINE
  5
F1031B
330
F1031C
100
AcDbEntity
8
Geo
100
AcDbLine
10
-88.4776493592753
20
-4.31995080344121
30
0.000000000000000
11
-88.3776493592753
21
-4.31953104359536
31
0.000000000000000
  0
LINE
  5
F1031D
330
F1031E
100
AcDbEntity
8
Geo
100
AcDbLine
10
-88.3776493592753
20
-4.31953104359536
30
0.000000000000000
11
-88.2776493592753
21
-4.31913455421346
31
0.000000000000000
  0
LINE
  5
F1031F
330
F10320
100
AcDbEntity
8
Geo
100
AcDbLine
10
-88.2776493592753
20
-4.31913455421346
30
0.000000000000000
11
-88.1776493592753
21
-4.31876208153732
31
0.000000000000000
  0
LINE
  5
F10321
330
F10322
100
AcDbEntity
8
Geo
100
AcDbLine
10
-88.1776493592753
20
-4.31876208153732
30
0.000000000000000
11
-88.0776493592753
21
-4.31841432027184
31
0.000000000000000
  0
LINE
  5
F10323
330
F10324
100
AcDbEntity
8
Geo
100
AcDbLine
10
-88.0776493592753
20
-4.31841432027184
30
0.000000000000000
11
-87.9776493592753
21
-4.31809191362954
31
0.000000000000000
  0
LINE
  5
F10325
330
F10326
100
AcDbEntity
8
Geo
100
AcDbLine
10
-87.9776493592753
20
-4.31809191362954
30
0.000000000000000
11
-87.8776493592753
21
-4.31779545337270
31
0.000000000000000
  0
LINE
  5
F10327
330
F10328
100
AcDbEntity
8
Geo
100
AcDbLine
10
-87.8776493592753
20
-4.31779545337270
30
0.000000000000000
11
-87.7776493592753
21
-4.31752547985280
31
0.000000000000000
  0
LINE
  5
F10329
330
F1032A
100
AcDbEntity
8
Geo
100
AcDbLine
10
-87.7776493592753
20
-4.31752547985280
30
0.000000000000000
11
-87.6776493592753
21
-4.31728248204723
31
0.000000000000000
  0
LINE
  5
F1032B
330
F1032C
100
AcDbEntity
8
Geo
100
AcDbLine
10
-87.6776493592753
20
-4.31728248204723
30
0.000000000000000
11
-87.5776493592753
21
-4.31706689759288
31
0.000000000000000
  0
LINE
  5
F1032D
330
F1032E
100
AcDbEntity
8
Geo
100
AcDbLine
10
-87.5776493592753
20
-4.31706689759288
30
0.000000000000000
11
-87.4776493592753
21
-4.31687911281676
31
0.000000000000000
  0
LINE
  5
F1032F
330
F10330
100
AcDbEntity
8
Geo
100
AcDbLine
10
-87.4776493592753
20
-4.31687911281676
30
0.000000000000000
11
-87.3776493592753
21
-4.31671946276322
31
0.000000000000000
  0
LINE
  5
F10331
330
F10332
100
AcDbEntity
8
Geo
100
AcDbLine
10
-87.3776493592753
20
-4.31671946276322
30
0.000000000000000
11
-87.2776493592753
21
-4.31658823121787
31
0.000000000000000
  0
LINE
  5
F10333
330
F10334
100
AcDbEntity
8
Geo
100
AcDbLine
10
-87.2776493592753
20
-4.31658823121787
30
0.000000000000000
11
-87.1776493592753
21
-4.31648565072802
31
0.000000000000000
  0
LINE
  5
F10335
330
F10336
100
AcDbEntity
8
Geo
100
AcDbLine
10
-87.1776493592753
20
-4.31648565072802
30
0.000000000000000
11
-87.0776493592753
21
-4.31641190261951
31
0.000000000000000
  0
LINE
  5
F10337
330
F10338
100
AcDbEntity
8
Geo
100
AcDbLine
10
-96.0776493592753
20
-2.89719692872139
30
0.000000000000000
11
-95.9776493592753
21
-3.02248229982879
31
0.000000000000000
  0
LINE
  5
F10339
330
F1033A
100
AcDbEntity
8
Geo
100
AcDbLine
10
-95.9776493592753
20
-3.02248229982879
30
0.000000000000000
11
-95.8776493592753
21
-3.10345017524736
31
0.000000000000000
  0
LINE
  5
F1033B
330
F1033C
100
AcDbEntity
8
Geo
100
AcDbLine
10
-95.8776493592753
20
-3.10345017524736
30
0.000000000000000
11
-95.7776493592753
21
-3.17403401413236
31
0.000000000000000
  0
LINE
  5
F1033D
330
F1033E
100
AcDbEntity
8
Geo
100
AcDbLine
10
-95.7776493592753
20
-3.17403401413236
30
0.000000000000000
11
-95.6776493592753
21
-3.24338383104328
31
0.000000000000000
  0
LINE
  5
F1033F
330
F10340
100
AcDbEntity
8
Geo
100
AcDbLine
10
-95.6776493592753
20
-3.24338383104328
30
0.000000000000000
11
-95.5776493592753
21
-3.31139689819400
31
0.000000000000000
  0
LINE
  5
F10341
330
F10342
100
AcDbEntity
8
Geo
100
AcDbLine
10
-95.5776493592753
20
-3.31139689819400
30
0.000000000000000
11
-95.4776493592753
21
-3.37797246792396
31
0.000000000000000
  0
LINE
  5
F10343
330
F10344
100
AcDbEntity
8
Geo
100
AcDbLine
10
-95.4776493592753
20
-3.37797246792396
30
0.000000000000000
11
-95.3776493592753
21
-3.44301192193546
31
0.000000000000000
  0
LINE
  5
F10345
330
F10346
100
AcDbEntity
8
Geo
100
AcDbLine
10
-95.3776493592753
20
-3.44301192193546
30
0.000000000000000
11
-95.2776493592753
21
-3.50641891737690
31
0.000000000000000
  0
LINE
  5
F10347
330
F10348
100
AcDbEntity
8
Geo
100
AcDbLine
10
-95.2776493592753
20
-3.50641891737690
30
0.000000000000000
11
-95.1776493592753
21
-3.56809952955522
31
0.000000000000000
  0
LINE
  5
F10349
330
F1034A
100
AcDbEntity
8
Geo
100
AcDbLine
10
-95.1776493592753
20
-3.56809952955522
30
0.000000000000000
11
-95.0776493592753
21
-3.62796239106648
31
0.000000000000000
  0
LINE
  5
F1034B
330
F1034C
100
AcDbEntity
8
Geo
100
AcDbLine
10
-95.0776493592753
20
-3.62796239106648
30
0.000000000000000
11
-94.9776493592753
21
-3.68591882713824
31
0.000000000000000
  0
LINE
  5
F1034D
330
F1034E
100
AcDbEntity
8
Geo
100
AcDbLine
10
-94.9776493592753
20
-3.68591882713824
30
0.000000000000000
11
-94.8776493592753
21
-3.74188298698337
31
0.000000000000000
  0
LINE
  5
F1034F
330
F10350
100
AcDbEntity
8
Geo
100
AcDbLine
10
-94.8776493592753
20
-3.74188298698337
30
0.000000000000000
11
-94.7776493592753
21
-3.79577197097072
31
0.000000000000000
  0
LINE
  5
F10351
330
F10352
100
AcDbEntity
8
Geo
100
AcDbLine
10
-94.7776493592753
20
-3.79577197097072
30
0.000000000000000
11
-94.6776493592753
21
-3.84750595342420
31
0.000000000000000
  0
LINE
  5
F10353
330
F10354
100
AcDbEntity
8
Geo
100
AcDbLine
10
-94.6776493592753
20
-3.84750595342420
30
0.000000000000000
11
-94.5776493592753
21
-3.89700830086847
31
0.000000000000000
  0
LINE
  5
F10355
330
F10356
100
AcDbEntity
8
Geo
100
AcDbLine
10
-94.5776493592753
20
-3.89700830086847
30
0.000000000000000
11
-94.4776493592753
21
-3.94420568554598
31
0.000000000000000
  0
LINE
  5
F10357
330
F10358
100
AcDbEntity
8
Geo
100
AcDbLine
10
-94.4776493592753
20
-3.94420568554598
30
0.000000000000000
11
-94.3776493592753
21
-3.98902819403728
31
0.000000000000000
  0
LINE
  5
F10359
330
F1035A
100
AcDbEntity
8
Geo
100
AcDbLine
10
-94.3776493592753
20
-3.98902819403728
30
0.000000000000000
11
-94.2776493592753
21
-4.03140943082368
31
0.000000000000000
  0
LINE
  5
F1035B
330
F1035C
100
AcDbEntity
8
Geo
100
AcDbLine
10
-94.2776493592753
20
-4.03140943082368
30
0.000000000000000
11
-94.1776493592753
21
-4.07128661663881
31
0.000000000000000
  0
LINE
  5
F1035D
330
F1035E
100
AcDbEntity
8
Geo
100
AcDbLine
10
-94.1776493592753
20
-4.07128661663881
30
0.000000000000000
11
-94.0776493592753
21
-4.10860068146349
31
0.000000000000000
  0
LINE
  5
F1035F
330
F10360
100
AcDbEntity
8
Geo
100
AcDbLine
10
-94.0776493592753
20
-4.10860068146349
30
0.000000000000000
11
-93.9776493592753
21
-4.14329635202605
31
0.000000000000000
  0
LINE
  5
F10361
330
F10362
100
AcDbEntity
8
Geo
100
AcDbLine
10
-93.9776493592753
20
-4.14329635202605
30
0.000000000000000
11
-93.8776493592753
21
-4.17532223367855
31
0.000000000000000
  0
LINE
  5
F10363
330
F10364
100
AcDbEntity
8
Geo
100
AcDbLine
10
-93.8776493592753
20
-4.17532223367855
30
0.000000000000000
11
-93.7776493592753
21
-4.20463088652761
31
0.000000000000000
  0
LINE
  5
F10365
330
F10366
100
AcDbEntity
8
Geo
100
AcDbLine
10
-93.7776493592753
20
-4.20463088652761
30
0.000000000000000
11
-93.6776493592753
21
-4.23117889570704
31
0.000000000000000
  0
LINE
  5
F10367
330
F10368
100
AcDbEntity
8
Geo
100
AcDbLine
10
-93.6776493592753
20
-4.23117889570704
30
0.000000000000000
11
-93.5776493592753
21
-4.25492693568823
31
0.000000000000000
  0
LINE
  5
F10369
330
F1036A
100
AcDbEntity
8
Geo
100
AcDbLine
10
-93.5776493592753
20
-4.25492693568823
30
0.000000000000000
11
-93.4776493592753
21
-4.27583982853301
31
0.000000000000000
  0
LINE
  5
F1036B
330
F1036C
100
AcDbEntity
8
Geo
100
AcDbLine
10
-93.4776493592753
20
-4.27583982853301
30
0.000000000000000
11
-93.3776493592753
21
-4.29388659600266
31
0.000000000000000
  0
LINE
  5
F1036D
330
F1036E
100
AcDbEntity
8
Geo
100
AcDbLine
10
-93.3776493592753
20
-4.29388659600266
30
0.000000000000000
11
-93.2776493592753
21
-4.30904050544595
31
0.000000000000000
  0
LINE
  5
F1036F
330
F10370
100
AcDbEntity
8
Geo
100
AcDbLine
10
-93.2776493592753
20
-4.30904050544595
30
0.000000000000000
11
-93.1776493592753
21
-4.32127910939816
31
0.000000000000000
  0
LINE
  5
F10371
330
F10372
100
AcDbEntity
8
Geo
100
AcDbLine
10
-93.1776493592753
20
-4.32127910939816
30
0.000000000000000
11
-93.0776493592753
21
-4.33058427883249
31
0.000000000000000
  0
LINE
  5
F10373
330
F10374
100
AcDbEntity
8
Geo
100
AcDbLine
10
-93.0776493592753
20
-4.33058427883249
30
0.000000000000000
11
-92.9776493592753
21
-4.33694223001456
31
0.000000000000000
  0
LINE
  5
F10375
330
F10376
100
AcDbEntity
8
Geo
100
AcDbLine
10
-92.9776493592753
20
-4.33694223001456
30
0.000000000000000
11
-92.8776493592753
21
-4.34034354492026
31
0.000000000000000
  0
LINE
  5
F10377
330
F10378
100
AcDbEntity
8
Geo
100
AcDbLine
10
-96.0776493592753
20
-0.575695974379871
30
0.000000000000000
11
-95.9776493592753
21
-0.411505805987295
31
0.000000000000000
  0
LINE
  5
F10379
330
F1037A
100
AcDbEntity
8
Geo
100
AcDbLine
10
-96.0776493592753
20
-2.53792788944893
30
0.000000000000000
11
-95.9776493592753
21
-2.61237554334941
31
0.000000000000000
  0
LINE
  5
F1037B
330
F1037C
100
AcDbEntity
8
Geo
100
AcDbLine
10
-95.9776493592753
20
-0.411505805987295
30
0.000000000000000
11
-95.8776493592753
21
-0.396663259433256
31
0.000000000000000
  0
LINE
  5
F1037D
330
F1037E
100
AcDbEntity
8
Geo
100
AcDbLine
10
-95.9776493592753
20
-2.61237554334941
30
0.000000000000000
11
-95.8776493592753
21
-2.68848179641737
31
0.000000000000000
  0
LINE
  5
F1037F
330
F10380
100
AcDbEntity
8
Geo
100
AcDbLine
10
-95.8776493592753
20
-0.396663259433256
30
0.000000000000000
11
-95.7776493592753
21
-0.411475879897372
31
0.000000000000000
  0
LINE
  5
F10381
330
F10382
100
AcDbEntity
8
Geo
100
AcDbLine
10
-95.8776493592753
20
-2.68848179641737
30
0.000000000000000
11
-95.7776493592753
21
-2.76304219303718
31
0.000000000000000
  0
LINE
  5
F10383
330
F10384
100
AcDbEntity
8
Geo
100
AcDbLine
10
-95.7776493592753
20
-0.411475879897372
30
0.000000000000000
11
-95.6776493592753
21
-0.429146651860767
31
0.000000000000000
  0
LINE
  5
F10385
330
F10386
100
AcDbEntity
8
Geo
100
AcDbLine
10
-95.7776493592753
20
-2.76304219303718
30
0.000000000000000
11
-95.6776493592753
21
-2.83697736928865
31
0.000000000000000
  0
LINE
  5
F10387
330
F10388
100
AcDbEntity
8
Geo
100
AcDbLine
10
-95.6776493592753
20
-0.429146651860767
30
0.000000000000000
11
-95.5776493592753
21
-0.449649399633820
31
0.000000000000000
  0
LINE
  5
F10389
330
F1038A
100
AcDbEntity
8
Geo
100
AcDbLine
10
-95.6776493592753
20
-2.83697736928865
30
0.000000000000000
11
-95.5776493592753
21
-2.91017780509932
31
0.000000000000000
  0
LINE
  5
F1038B
330
F1038C
100
AcDbEntity
8
Geo
100
AcDbLine
10
-95.5776493592753
20
-0.449649399633820
30
0.000000000000000
11
-95.4776493592753
21
-0.472953752525131
31
0.000000000000000
  0
LINE
  5
F1038D
330
F1038E
100
AcDbEntity
8
Geo
100
AcDbLine
10
-95.5776493592753
20
-2.91017780509932
30
0.000000000000000
11
-95.4776493592753
21
-2.98253506876673
31
0.000000000000000
  0
LINE
  5
F1038F
330
F10390
100
AcDbEntity
8
Geo
100
AcDbLine
10
-95.4776493592753
20
-0.472953752525131
30
0.000000000000000
11
-95.3776493592753
21
-0.499025189829586
31
0.000000000000000
  0
LINE
  5
F10391
330
F10392
100
AcDbEntity
8
Geo
100
AcDbLine
10
-95.4776493592753
20
-2.98253506876673
30
0.000000000000000
11
-95.3776493592753
21
-3.05394197757811
31
0.000000000000000
  0
LINE
  5
F10393
330
F10394
100
AcDbEntity
8
Geo
100
AcDbLine
10
-95.3776493592753
20
-0.499025189829586
30
0.000000000000000
11
-95.2776493592753
21
-0.527825091963826
31
0.000000000000000
  0
LINE
  5
F10395
330
F10396
100
AcDbEntity
8
Geo
100
AcDbLine
10
-95.3776493592753
20
-3.05394197757811
30
0.000000000000000
11
-95.2776493592753
21
-3.12429275658003
31
0.000000000000000
  0
LINE
  5
F10397
330
F10398
100
AcDbEntity
8
Geo
100
AcDbLine
10
-95.2776493592753
20
-0.527825091963826
30
0.000000000000000
11
-95.1776493592753
21
-0.559310797673380
31
0.000000000000000
  0
LINE
  5
F10399
330
F1039A
100
AcDbEntity
8
Geo
100
AcDbLine
10
-95.2776493592753
20
-3.12429275658003
30
0.000000000000000
11
-95.1776493592753
21
-3.19348319526261
31
0.000000000000000
  0
LINE
  5
F1039B
330
F1039C
100
AcDbEntity
8
Geo
100
AcDbLine
10
-95.1776493592753
20
-0.559310797673380
30
0.000000000000000
11
-95.0776493592753
21
-0.593435667226729
31
0.000000000000000
  0
LINE
  5
F1039D
330
F1039E
100
AcDbEntity
8
Geo
100
AcDbLine
10
-95.1776493592753
20
-3.19348319526261
30
0.000000000000000
11
-95.0776493592753
21
-3.26141080192651
31
0.000000000000000
  0
LINE
  5
F1039F
330
F103A0
100
AcDbEntity
8
Geo
100
AcDbLine
10
-95.0776493592753
20
-0.593435667226729
30
0.000000000000000
11
-94.9776493592753
21
-0.630149151502664
31
0.000000000000000
  0
LINE
  5
F103A1
330
F103A2
100
AcDbEntity
8
Geo
100
AcDbLine
10
-95.0776493592753
20
-3.26141080192651
30
0.000000000000000
11
-94.9776493592753
21
-3.32797495550363
31
0.000000000000000
  0
LINE
  5
F103A3
330
F103A4
100
AcDbEntity
8
Geo
100
AcDbLine
10
-94.9776493592753
20
-0.630149151502664
30
0.000000000000000
11
-94.8776493592753
21
-0.669396866868638
31
0.000000000000000
  0
LINE
  5
F103A5
330
F103A6
100
AcDbEntity
8
Geo
100
AcDbLine
10
-94.9776493592753
20
-3.32797495550363
30
0.000000000000000
11
-94.8776493592753
21
-3.39307705460703
31
0.000000000000000
  0
LINE
  5
F103A7
330
F103A8
100
AcDbEntity
8
Geo
100
AcDbLine
10
-94.8776493592753
20
-0.669396866868638
30
0.000000000000000
11
-94.7776493592753
21
-0.711120675739154
31
0.000000000000000
  0
LINE
  5
F103A9
330
F103AA
100
AcDbEntity
8
Geo
100
AcDbLine
10
-94.8776493592753
20
-3.39307705460703
30
0.000000000000000
11
-94.7776493592753
21
-3.45662066358901
31
0.000000000000000
  0
LINE
  5
F103AB
330
F103AC
100
AcDbEntity
8
Geo
100
AcDbLine
10
-94.7776493592753
20
-0.711120675739154
30
0.000000000000000
11
-94.6776493592753
21
-0.755258772694900
31
0.000000000000000
  0
LINE
  5
F103AD
330
F103AE
100
AcDbEntity
8
Geo
100
AcDbLine
10
-94.7776493592753
20
-3.45662066358901
30
0.000000000000000
11
-94.6776493592753
21
-3.51851165539107
31
0.000000000000000
  0
LINE
  5
F103AF
330
F103B0
100
AcDbEntity
8
Geo
100
AcDbLine
10
-94.6776493592753
20
-0.755258772694900
30
0.000000000000000
11
-94.5776493592753
21
-0.801745776035020
31
0.000000000000000
  0
LINE
  5
F103B1
330
F103B2
100
AcDbEntity
8
Geo
100
AcDbLine
10
-94.6776493592753
20
-3.51851165539107
30
0.000000000000000
11
-94.5776493592753
21
-3.57865835097423
31
0.000000000000000
  0
LINE
  5
F103B3
330
F103B4
100
AcDbEntity
8
Geo
100
AcDbLine
10
-94.5776493592753
20
-0.801745776035020
30
0.000000000000000
11
-94.4776493592753
21
-0.850512824626941
31
0.000000000000000
  0
LINE
  5
F103B5
330
F103B6
100
AcDbEntity
8
Geo
100
AcDbLine
10
-94.5776493592753
20
-3.57865835097423
30
0.000000000000000
11
-94.4776493592753
21
-3.63697165512303
31
0.000000000000000
  0
LINE
  5
F103B7
330
F103B8
100
AcDbEntity
8
Geo
100
AcDbLine
10
-94.4776493592753
20
-0.850512824626941
30
0.000000000000000
11
-94.3776493592753
21
-0.901487679910268
31
0.000000000000000
  0
LINE
  5
F103B9
330
F103BA
100
AcDbEntity
8
Geo
100
AcDbLine
10
-94.4776493592753
20
-3.63697165512303
30
0.000000000000000
11
-94.3776493592753
21
-3.69336518842218
31
0.000000000000000
  0
LINE
  5
F103BB
330
F103BC
100
AcDbEntity
8
Geo
100
AcDbLine
10
-94.3776493592753
20
-0.901487679910268
30
0.000000000000000
11
-94.2776493592753
21
-0.954594832903665
31
0.000000000000000
  0
LINE
  5
F103BD
330
F103BE
100
AcDbEntity
8
Geo
100
AcDbLine
10
-94.3776493592753
20
-3.69336518842218
30
0.000000000000000
11
-94.2776493592753
21
-3.74775541521021
31
0.000000000000000
  0
LINE
  5
F103BF
330
F103C0
100
AcDbEntity
8
Geo
100
AcDbLine
10
-94.2776493592753
20
-0.954594832903665
30
0.000000000000000
11
-94.1776493592753
21
-1.00975561605620
31
0.000000000000000
  0
LINE
  5
F103C1
330
F103C2
100
AcDbEntity
8
Geo
100
AcDbLine
10
-94.2776493592753
20
-3.74775541521021
30
0.000000000000000
11
-94.1776493592753
21
-3.80006176732080
31
0.000000000000000
  0
LINE
  5
F103C3
330
F103C4
100
AcDbEntity
8
Geo
100
AcDbLine
10
-94.1776493592753
20
-1.00975561605620
30
0.000000000000000
11
-94.0776493592753
21
-1.06688831977748
31
0.000000000000000
  0
LINE
  5
F103C5
330
F103C6
100
AcDbEntity
8
Geo
100
AcDbLine
10
-94.1776493592753
20
-3.80006176732080
30
0.000000000000000
11
-94.0776493592753
21
-3.85020676342823
31
0.000000000000000
  0
LINE
  5
F103C7
330
F103C8
100
AcDbEntity
8
Geo
100
AcDbLine
10
-94.0776493592753
20
-1.06688831977748
30
0.000000000000000
11
-93.9776493592753
21
-1.12590831347395
31
0.000000000000000
  0
LINE
  5
F103C9
330
F103CA
100
AcDbEntity
8
Geo
100
AcDbLine
10
-94.0776493592753
20
-3.85020676342823
30
0.000000000000000
11
-93.9776493592753
21
-3.89811612382039
31
0.000000000000000
  0
LINE
  5
F103CB
330
F103CC
100
AcDbEntity
8
Geo
100
AcDbLine
10
-93.9776493592753
20
-1.12590831347395
30
0.000000000000000
11
-93.8776493592753
21
-1.18672817091208
31
0.000000000000000
  0
LINE
  5
F103CD
330
F103CE
100
AcDbEntity
8
Geo
100
AcDbLine
10
-93.9776493592753
20
-3.89811612382039
30
0.000000000000000
11
-93.8776493592753
21
-3.94371888042921
31
0.000000000000000
  0
LINE
  5
F103CF
330
F103D0
100
AcDbEntity
8
Geo
100
AcDbLine
10
-93.8776493592753
20
-1.18672817091208
30
0.000000000000000
11
-93.7776493592753
21
-1.24925779972270
31
0.000000000000000
  0
LINE
  5
F103D1
330
F103D2
100
AcDbEntity
8
Geo
100
AcDbLine
10
-93.8776493592753
20
-3.94371888042921
30
0.000000000000000
11
-93.7776493592753
21
-3.98694748195557
31
0.000000000000000
  0
LINE
  5
F103D3
330
F103D4
100
AcDbEntity
8
Geo
100
AcDbLine
10
-93.7776493592753
20
-1.24925779972270
30
0.000000000000000
11
-93.6776493592753
21
-1.31340457485472
31
0.000000000000000
  0
LINE
  5
F103D5
330
F103D6
100
AcDbEntity
8
Geo
100
AcDbLine
10
-93.7776493592753
20
-3.98694748195557
30
0.000000000000000
11
-93.6776493592753
21
-4.02773789393289
31
0.000000000000000
  0
LINE
  5
F103D7
330
F103D8
100
AcDbEntity
8
Geo
100
AcDbLine
10
-93.6776493592753
20
-1.31340457485472
30
0.000000000000000
11
-93.5776493592753
21
-1.37907347578049
31
0.000000000000000
  0
LINE
  5
F103D9
330
F103DA
100
AcDbEntity
8
Geo
100
AcDbLine
10
-93.6776493592753
20
-4.02773789393289
30
0.000000000000000
11
-93.5776493592753
21
-4.06602969358137
31
0.000000000000000
  0
LINE
  5
F103DB
330
F103DC
100
AcDbEntity
8
Geo
100
AcDbLine
10
-93.5776493592753
20
-1.37907347578049
30
0.000000000000000
11
-93.4776493592753
21
-1.44616722724955
31
0.000000000000000
  0
LINE
  5
F103DD
330
F103DE
100
AcDbEntity
8
Geo
100
AcDbLine
10
-93.5776493592753
20
-4.06602969358137
30
0.000000000000000
11
-93.4776493592753
21
-4.10176615931212
31
0.000000000000000
  0
LINE
  5
F103DF
330
F103E0
100
AcDbEntity
8
Geo
100
AcDbLine
10
-93.4776493592753
20
-1.44616722724955
30
0.000000000000000
11
-93.3776493592753
21
-1.51458644338236
31
0.000000000000000
  0
LINE
  5
F103E1
330
F103E2
100
AcDbEntity
8
Geo
100
AcDbLine
10
-93.4776493592753
20
-4.10176615931212
30
0.000000000000000
11
-93.3776493592753
21
-4.13489435474879
31
0.000000000000000
  0
LINE
  5
F103E3
330
F103E4
100
AcDbEntity
8
Geo
100
AcDbLine
10
-93.3776493592753
20
-1.51458644338236
30
0.000000000000000
11
-93.2776493592753
21
-1.58422977489042
31
0.000000000000000
  0
LINE
  5
F103E5
330
F103E6
100
AcDbEntity
8
Geo
100
AcDbLine
10
-93.3776493592753
20
-4.13489435474879
30
0.000000000000000
11
-93.2776493592753
21
-4.16536520714213
31
0.000000000000000
  0
LINE
  5
F103E7
330
F103E8
100
AcDbEntity
8
Geo
100
AcDbLine
10
-93.2776493592753
20
-1.58422977489042
30
0.000000000000000
11
-93.1776493592753
21
-1.65499405920484
31
0.000000000000000
  0
LINE
  5
F103E9
330
F103EA
100
AcDbEntity
8
Geo
100
AcDbLine
10
-93.2776493592753
20
-4.16536520714213
30
0.000000000000000
11
-93.1776493592753
21
-4.19313358006141
31
0.000000000000000
  0
LINE
  5
F103EB
330
F103EC
100
AcDbEntity
8
Geo
100
AcDbLine
10
-93.1776493592753
20
-1.65499405920484
30
0.000000000000000
11
-93.0776493592753
21
-1.72677447329096
31
0.000000000000000
  0
LINE
  5
F103ED
330
F103EE
100
AcDbEntity
8
Geo
100
AcDbLine
10
-93.1776493592753
20
-4.19313358006141
30
0.000000000000000
11
-93.0776493592753
21
-4.21815834025494
31
0.000000000000000
  0
LINE
  5
F103EF
330
F103F0
100
AcDbEntity
8
Geo
100
AcDbLine
10
-93.0776493592753
20
-1.72677447329096
30
0.000000000000000
11
-92.9776493592753
21
-1.79946468892247
31
0.000000000000000
  0
LINE
  5
F103F1
330
F103F2
100
AcDbEntity
8
Geo
100
AcDbLine
10
-93.0776493592753
20
-4.21815834025494
30
0.000000000000000
11
-92.9776493592753
21
-4.24040241858069
31
0.000000000000000
  0
LINE
  5
F103F3
330
F103F4
100
AcDbEntity
8
Geo
100
AcDbLine
10
-92.9776493592753
20
-1.79946468892247
30
0.000000000000000
11
-92.8776493592753
21
-1.87295703018535
31
0.000000000000000
  0
LINE
  5
F103F5
330
F103F6
100
AcDbEntity
8
Geo
100
AcDbLine
10
-92.9776493592753
20
-4.24040241858069
30
0.000000000000000
11
-92.8776493592753
21
-4.25983286491675
31
0.000000000000000
  0
LINE
  5
F103F7
330
F103F8
100
AcDbEntity
8
Geo
100
AcDbLine
10
-92.8776493592753
20
-1.87295703018535
30
0.000000000000000
11
-92.7776493592753
21
-1.94714263297798
31
0.000000000000000
  0
LINE
  5
F103F9
330
F103FA
100
AcDbEntity
8
Geo
100
AcDbLine
10
-92.8776493592753
20
-4.25983286491675
30
0.000000000000000
11
-92.7776493592753
21
-4.27642089697035
31
0.000000000000000
  0
LINE
  5
F103FB
330
F103FC
100
AcDbEntity
8
Geo
100
AcDbLine
10
-92.7776493592753
20
-1.94714263297798
30
0.000000000000000
11
-92.6776493592753
21
-2.02191160627144
31
0.000000000000000
  0
LINE
  5
F103FD
330
F103FE
100
AcDbEntity
8
Geo
100
AcDbLine
10
-92.7776493592753
20
-4.27642089697035
30
0.000000000000000
11
-92.6776493592753
21
-4.29014194291297
31
0.000000000000000
  0
LINE
  5
F103FF
330
F10400
100
AcDbEntity
8
Geo
100
AcDbLine
10
-92.6776493592753
20
-2.02191160627144
30
0.000000000000000
11
-92.5776493592753
21
-2.09715319489090
31
0.000000000000000
  0
LINE
  5
F10401
330
F10402
100
AcDbEntity
8
Geo
100
AcDbLine
10
-92.6776493592753
20
-4.29014194291297
30
0.000000000000000
11
-92.5776493592753
21
-4.30097567777856
31
0.000000000000000
  0
LINE
  5
F10403
330
F10404
100
AcDbEntity
8
Geo
100
AcDbLine
10
-92.5776493592753
20
-2.09715319489090
30
0.000000000000000
11
-92.4776493592752
21
-2.17275594357711
31
0.000000000000000
  0
LINE
  5
F10405
330
F10406
100
AcDbEntity
8
Geo
100
AcDbLine
10
-92.5776493592753
20
-4.30097567777856
30
0.000000000000000
11
-92.4776493592752
21
-4.30890605357094
31
0.000000000000000
  0
LINE
  5
F10407
330
F10408
100
AcDbEntity
8
Geo
100
AcDbLine
10
-92.4776493592752
20
-2.17275594357711
30
0.000000000000000
11
-92.3776493592753
21
-2.24860786208491
31
0.000000000000000
  0
LINE
  5
F10409
330
F1040A
100
AcDbEntity
8
Geo
100
AcDbLine
10
-92.4776493592752
20
-4.30890605357094
30
0.000000000000000
11
-92.3776493592753
21
-4.31392132303562
31
0.000000000000000
  0
LINE
  5
F1040B
330
F1040C
100
AcDbEntity
8
Geo
100
AcDbLine
10
-92.3776493592753
20
-2.24860786208491
30
0.000000000000000
11
-92.2776493592753
21
-2.32459659107426
31
0.000000000000000
  0
LINE
  5
F1040D
330
F1040E
100
AcDbEntity
8
Geo
100
AcDbLine
10
-92.3776493592753
20
-4.31392132303562
30
0.000000000000000
11
-92.2776493592753
21
-4.31601405706099
31
0.000000000000000
  0
LINE
  5
F1040F
330
F10410
100
AcDbEntity
8
Geo
100
AcDbLine
10
-92.2776493592753
20
-2.32459659107426
30
0.000000000000000
11
-92.1776493592753
21
-2.40060956854793
31
0.000000000000000
  0
LINE
  5
F10411
330
F10412
100
AcDbEntity
8
Geo
100
AcDbLine
10
-96.0776493592753
20
-2.34096633884649
30
0.000000000000000
11
-96.0776493592753
21
-2.34096633884649
31
0.000000000000000
  0
LINE
  5
F10413
330
F10414
100
AcDbEntity
8
Geo
100
AcDbLine
10
-96.0776493592753
20
-2.34096633884649
30
0.000000000000000
11
-96.0776493592753
21
-2.34096633884649
31
0.000000000000000
  0
LINE
  5
F10415
330
F10416
100
AcDbEntity
8
Geo
100
AcDbLine
10
-97.0776493592753
20
-2.34096633884649
30
0.000000000000000
11
-96.7776493592753
21
-2.34096633884649
31
0.000000000000000
  0
LINE
  5
F10417
330
F10418
100
AcDbEntity
8
Geo
100
AcDbLine
10
-96.6501493592753
20
-2.34096633884649
30
0.000000000000000
11
-96.5651493592753
21
-2.34096633884649
31
0.000000000000000
  0
LINE
  5
F10419
330
F1041A
100
AcDbEntity
8
Geo
100
AcDbLine
10
-96.3526493592753
20
-2.34096633884649
30
0.000000000000000
11
-95.9276493592753
21
-2.34096633884649
31
0.000000000000000
  0
LINE
  5
F1041B
330
F1041C
100
AcDbEntity
8
Geo
100
AcDbLine
10
-95.8001493592753
20
-2.34096633884649
30
0.000000000000000
11
-95.7151493592753
21
-2.34096633884649
31
0.000000000000000
  0
LINE
  5
F1041D
330
F1041E
100
AcDbEntity
8
Geo
100
AcDbLine
10
-95.5026493592753
20
-2.34096633884649
30
0.000000000000000
11
-95.0776493592753
21
-2.34096633884649
31
0.000000000000000
  0
LINE
  5
F1041F
330
F10420
100
AcDbEntity
8
Geo
100
AcDbLine
10
-45.0776493592753
20
-0.340966338846484
30
0.000000000000000
11
-45.0776493592753
21
-2.34096633884649
31
0.000000000000000
  0
LINE
  5
F10421
330
F10422
100
AcDbEntity
8
Geo
100
AcDbLine
10
-96.0149138830499
20
-2.34096633884649
30
0.000000000000000
11
-96.0775275246791
21
-4.13398643950599
31
0.000000000000000
  0
ARC
  5
F10423
330
F10424
100
AcDbEntity
8
Geo
100
AcDbCircle
10
-95.8776493592753
20
-4.14096633884649
30
0.000000000000000
 40
0.199999999999999
100
AcDbArc
 50
178.000000000000
 51
270.000000000000
  0
LINE
  5
F10425
330
F10426
100
AcDbEntity
8
Geo
100
AcDbLine
10
-95.8776493592753
20
-4.34096633884649
30
0.000000000000000
11
-87.0776493592753
21
-4.34096633884649
31
0.000000000000000
  0
LINE
  5
F10427
330
F10428
100
AcDbEntity
8
Geo
100
AcDbLine
10
-87.0776493592753
20
-4.34096633884649
30
0.000000000000000
11
-85.5776493592753
21
-4.34096633884649
31
0.000000000000000
  0
LINE
  5
F10429
330
F1042A
100
AcDbEntity
8
Geo
100
AcDbLine
10
-85.5776493592753
20
-4.34096633884649
30
0.000000000000000
11
-81.8455985517064
21
-5.34096633884649
31
0.000000000000000
  0
LINE
  5
F1042B
330
F1042C
100
AcDbEntity
8
Geo
100
AcDbLine
10
-81.8455985517064
20
-5.34096633884649
30
0.000000000000000
11
-46.0776493592753
21
-5.34096633884649
31
0.000000000000000
  0
LINE
  5
F1042D
330
F1042E
100
AcDbEntity
8
Geo
100
AcDbLine
10
-46.0776493592753
20
-5.34096633884649
30
0.000000000000000
11
-45.0776493592753
21
-4.34096633884649
31
0.000000000000000
  0
LINE
  5
F1042F
330
F10430
100
AcDbEntity
8
Geo
100
AcDbLine
10
-95.8776493592753
20
-0.340966338846485
30
0.000000000000000
11
-95.8776493592753
21
-4.34096633884649
31
0.000000000000000
  0
LINE
  5
F10431
330
F10432
100
AcDbEntity
8
Geo
100
AcDbLine
10
-95.8776493592753
20
-0.340966338846485
30
0.000000000000000
11
-95.8776493592753
21
-4.34096633884649
31
0.000000000000000
  0
LINE
  5
F10433
330
F10434
100
AcDbEntity
8
Geo
100
AcDbLine
10
-87.0776493592753
20
-0.340966338846485
30
0.000000000000000
11
-87.0776493592753
21
-4.34096633884649
31
0.000000000000000
  0
LINE
  5
F10435
330
F10436
100
AcDbEntity
8
Geo
100
AcDbLine
10
-87.0776493592753
20
-0.340966338846485
30
0.000000000000000
11
-87.0776493592753
21
-4.34096633884649
31
0.000000000000000
  0
LINE
  5
F10437
330
F10438
100
AcDbEntity
8
Geo
100
AcDbLine
10
-85.5776493592753
20
-0.340966338846485
30
0.000000000000000
11
-85.5776493592753
21
-4.34096633884649
31
0.000000000000000
  0
LINE
  5
F10439
330
F1043A
100
AcDbEntity
8
Geo
100
AcDbLine
10
-81.8455985517064
20
0.659033661153515
30
0.000000000000000
11
-81.8455985517064
21
-5.34096633884649
31
0.000000000000000
  0
LINE
  5
F1043B
330
F1043C
100
AcDbEntity
8
Geo
100
AcDbLine
10
-81.8455985517064
20
0.659033661153515
30
0.000000000000000
11
-81.8455985517064
21
-5.34096633884649
31
0.000000000000000
  0
LINE
  5
F1043D
330
F1043E
100
AcDbEntity
8
Geo
100
AcDbLine
10
-46.0776493592753
20
0.659033661153515
30
0.000000000000000
11
-46.0776493592753
21
-5.34096633884649
31
0.000000000000000
  0
LINE
  5
F1043F
330
F10440
100
AcDbEntity
8
Geo
100
AcDbLine
10
-45.0776493592753
20
-0.340966338846484
30
0.000000000000000
11
-45.0776493592753
21
-4.34096633884649
31
0.000000000000000
  0
LWPOLYLINE
  5
F10441
330
F10442
100
AcDbEntity
8
Rahmen
100
AcDbPolyline
90
   4
70
   1
43
   0.0
 10
-125.593385767426
 20
102.961391673987
 10
134.382770565638
 20
102.961391673987
 10
134.382770565638
 20
-102.931508963719
 10
-125.593385767426
 20
-102.931508963719
  0
TEXT
  5
F10443
330
F10444
 100
AcDbEntity
8
Text
100
AcDbText
10
-124.566488507388
20
-102.431508963719
30
0.000000000000000
40
1.00000000000000
1
ISBESketcher
100
AcDbText
  0
LWPOLYLINE
  5
F10445
330
F10446
100
AcDbEntity
8
Rahmen
100
AcDbPolyline
90
   4
70
   1
43
   0.0
 10
94.3337774241390
 20
-100.021966726944
 10
134.382770565638
 20
-100.021966726944
 10
134.382770565638
 20
-102.931508963719
 10
94.3337774241390
 20
-102.931508963719
  0
TEXT
  5
F10447
330
F10448
 100
AcDbEntity
8
Text
100
AcDbText
10
95.5000000000000
20
-102.020172945029
30
0.000000000000000
40
0.750000000000000
1
Created by:
100
AcDbText
  0
TEXT
  5
F10449
330
F1044A
 100
AcDbEntity
8
Text
100
AcDbText
10
120.446205479923
20
-102.020172945029
30
0.000000000000000
40
0.750000000000000
1
nsarkol
100
AcDbText
  0
LWPOLYLINE
  5
F1044B
330
F1044C
100
AcDbEntity
8
Rahmen
100
AcDbPolyline
90
   4
70
   1
43
   0.0
 10
54.4559338259797
 20
-100.021966726944
 10
94.3337774241390
 20
-100.021966726944
 10
94.3337774241390
 20
-102.931508963719
 10
54.4559338259797
 20
-102.931508963719
  0
TEXT
  5
F1044D
330
F1044E
 100
AcDbEntity
8
Text
100
AcDbText
10
55.5000000000000
20
-102.020172945029
30
0.000000000000000
40
0.750000000000000
1
Created for:
100
AcDbText
  0
TEXT
  5
F1044F
330
F10450
 100
AcDbEntity
8
Text
100
AcDbText
10
0.000000000000000
20
0.250000000000000
30
0.000000000000000
40
0.750000000000000
1

100
AcDbText
  0
LWPOLYLINE
  5
F10451
330
F10452
100
AcDbEntity
8
Rahmen
100
AcDbPolyline
90
   4
70
   1
43
   0.0
 10
121.033106185138
 20
-97.1124244901684
 10
134.382770565638
 20
-97.1124244901684
 10
134.382770565638
 20
-100.021966726944
 10
121.033106185138
 20
-100.021966726944
  0
TEXT
  5
F10453
330
F10454
 100
AcDbEntity
8
Text
100
AcDbText
10
122.166666666667
20
-99.0201729450288
30
0.000000000000000
40
0.750000000000000
1
Pages
100
AcDbText
  0
TEXT
  5
F10455
330
F10456
 100
AcDbEntity
8
Text
100
AcDbText
10
0.000000000000000
20
0.250000000000000
30
0.000000000000000
40
0.750000000000000
1

100
AcDbText
  0
LWPOLYLINE
  5
F10457
330
F10458
100
AcDbEntity
8
Rahmen
100
AcDbPolyline
90
   4
70
   1
43
   0.0
 10
121.033106185138
 20
-94.0317327100531
 10
134.382770565638
 20
-94.0317327100531
 10
134.382770565638
 20
-97.1124244901684
 10
121.033106185138
 20
-97.1124244901684
  0
TEXT
  5
F10459
330
F1045A
 100
AcDbEntity
8
Text
100
AcDbText
10
122.166666666667
20
-96.0201729450288
30
0.000000000000000
40
0.750000000000000
1
Page
100
AcDbText
  0
TEXT
  5
F1045B
330
F1045C
 100
AcDbEntity
8
Text
100
AcDbText
10
0.000000000000000
20
0.250000000000000
30
0.000000000000000
40
0.750000000000000
1

100
AcDbText
  0
LWPOLYLINE
  5
F1045D
330
F1045E
100
AcDbEntity
8
Rahmen
100
AcDbPolyline
90
   4
70
   1
43
   0.0
 10
54.4559338259797
 20
-94.0317327100531
 10
121.033106185138
 20
-94.0317327100531
 10
121.033106185138
 20
-100.021966726944
 10
54.4559338259797
 20
-100.021966726944
  0
TEXT
  5
F1045F
330
F10460
 100
AcDbEntity
8
Text
100
AcDbText
10
55.5000000000000
20
-96.0201729450288
30
0.000000000000000
40
0.750000000000000
1
Date:
100
AcDbText
  0
TEXT
  5
F10461
330
F10462
 100
AcDbEntity
8
Text
100
AcDbText
10
84.6670667815482
20
-99.0201729450288
30
0.000000000000000
40
0.750000000000000
1
05.07.2016
100
AcDbText
  0
LWPOLYLINE
  5
F10463
330
F10464
100
AcDbEntity
8
Rahmen
100
AcDbPolyline
90
   4
70
   1
43
   0.0
 10
54.4559338259797
 20
-88.0414986931622
 10
134.382770565638
 20
-88.0414986931622
 10
134.382770565638
 20
-94.0317327100531
 10
54.4559338259797
 20
-94.0317327100531
  0
TEXT
  5
F10465
330
F10466
 100
AcDbEntity
8
Text
100
AcDbText
10
0.000000000000000
20
0.500000000000000
30
0.000000000000000
40
1.50000000000000
1

100
AcDbText
  0
TEXT
  5
F10467
330
F10468
 100
AcDbEntity
8
Text
100
AcDbText
10
70.4534891607666
20
-92.5627602734230
30
0.000000000000000
40
2.50000000000000
1
VHVTR 4 040 051 06 03 
100
AcDbText
  0
LWPOLYLINE
  5
F10469
330
F1046A
100
AcDbEntity
8
Rahmen
100
AcDbPolyline
90
   4
70
   1
43
   0.0
 10
94.3337774241390
 20
-82.0512646762713
 10
134.382770565638
 20
-82.0512646762713
 10
134.382770565638
 20
-88.0414986931622
 10
94.3337774241390
 20
-88.0414986931622
  0
TEXT
  5
F1046B
330
F1046C
 100
AcDbEntity
8
Text
100
AcDbText
10
95.5000000000000
20
-84.0201729450288
30
0.000000000000000
40
0.750000000000000
1
Work piece material:
100
AcDbText
  0
TEXT
  5
F1046D
330
F1046E
 100
AcDbEntity
8
Text
100
AcDbText
10
0.000000000000000
20
0.250000000000000
30
0.000000000000000
40
0.750000000000000
1

100
AcDbText
  0
LWPOLYLINE
  5
F1046F
330
F10470
100
AcDbEntity
8
Rahmen
100
AcDbPolyline
90
   4
70
   1
43
   0.0
 10
54.4559338259797
 20
-82.0512646762713
 10
94.3337774241390
 20
-82.0512646762713
 10
94.3337774241390
 20
-88.0414986931622
 10
54.4559338259797
 20
-88.0414986931622
  0
TEXT
  5
F10471
330
F10472
 100
AcDbEntity
8
Text
100
AcDbText
10
55.5000000000000
20
-84.0201729450288
30
0.000000000000000
40
0.750000000000000
1
Tool material:
100
AcDbText
  0
TEXT
  5
F10473
330
F10474
 100
AcDbEntity
8
Text
100
AcDbText
10
0.000000000000000
20
0.250000000000000
30
0.000000000000000
40
0.750000000000000
1

100
AcDbText
  0
LWPOLYLINE
  5
F10475
330
F10476
100
AcDbEntity
8
Rahmen
100
AcDbPolyline
90
   4
70
   1
43
   0.0
 10
94.3337774241390
 20
-79.1417224394958
 10
134.382770565638
 20
-79.1417224394958
 10
134.382770565638
 20
-82.0512646762713
 10
94.3337774241390
 20
-82.0512646762713
  0
TEXT
  5
F10477
330
F10478
 100
AcDbEntity
8
Text
100
AcDbText
10
0.000000000000000
20
0.500000000000000
30
0.000000000000000
40
1.50000000000000
1

100
AcDbText
  0
TEXT
  5
F10479
330
F1047A
 100
AcDbEntity
8
Text
100
AcDbText
10
0.000000000000000
20
0.250000000000000
30
0.000000000000000
40
0.750000000000000
1

100
AcDbText
  0
LWPOLYLINE
  5
F1047B
330
F1047C
100
AcDbEntity
8
Rahmen
100
AcDbPolyline
90
   4
70
   1
43
   0.0
 10
54.4559338259797
 20
-79.1417224394958
 10
94.3337774241390
 20
-79.1417224394958
 10
94.3337774241390
 20
-82.0512646762713
 10
54.4559338259797
 20
-82.0512646762713
  0
TEXT
  5
F1047D
330
F1047E
 100
AcDbEntity
8
Text
100
AcDbText
10
55.5000000000000
20
-81.0201729450288
30
0.000000000000000
40
0.750000000000000
1
Scale:
100
AcDbText
  0
TEXT
  5
F1047F
330
F10480
 100
AcDbEntity
8
Text
100
AcDbText
10
81.2163784249520
20
-81.0201729450288
30
0.000000000000000
40
0.750000000000000
1
4 : 1
100
AcDbText
0
VIEWPORT
5
294
102
{ACAD_XDICTIONARY
360
58A
102
}
330
25D
100
AcDbEntity
67
1
8
0
60
1
100
AcDbViewport
10
0.0
20
0.0
30
0.0
40
10.0
41
10.0
68
-1
69
1
12
0.0
22
0.0
13
0.0
23
0.0
14
1.0
24
1.0
15
0.0
25
0.0
16
0.0
26
0.0
36
1.0
17
0.0
27
0.0
37
0.0
42
0.0
43
0.0
44
0.0
45
10.0
50
0.0
51
0.0000000000007958
72
100
90
32800
1

281
0
71
0
74
0
110
0.0
120
0.0
130
0.0
111
1.0
121
0.0
131
0.0
112
0.0
122
1.0
132
0.0
79
0
146
0.0
1001
VD_INVISIBLE_NOT_FOR_READ
1000
VD_INVISIBLE_NOT_FOR_READ
0
VIEWPORT
5
295
102
{ACAD_XDICTIONARY
360
58C
102
}
330
25D
100
AcDbEntity
67
1
8
0
60
1
100
AcDbViewport
10
0.0
20
0.0
30
0.0
40
10.0
41
10.0
68
0
69
2
12
0.0
22
0.0
13
0.0
23
0.0
14
1.0
24
1.0
15
0.0
25
0.0
16
0.0
26
0.0
36
1.0
17
0.0
27
0.0
37
0.0
42
0.0
43
0.0
44
0.0
45
10.0
50
0.0
51
0.0000000000007958
72
100
90
163872
1

281
0
71
0
74
0
110
0.0
120
0.0
130
0.0
111
1.0
121
0.0
131
0.0
112
0.0
122
1.0
132
0.0
79
0
146
0.0
1001
VD_INVISIBLE_NOT_FOR_READ
1000
VD_INVISIBLE_NOT_FOR_READ
0
ENDSEC
0
SECTION
2
OBJECTS
0
DICTIONARY
5
13
330
0
100
AcDbDictionary
281
1
3
ACAD_COLOR
350
FA7
3
ACAD_GROUP
350
14
3
ACAD_LAYOUT
350
FCF
3
ACAD_MATERIAL
350
F7A
3
ACAD_MLEADERSTYLE
350
FCD
3
ACAD_MLINESTYLE
350
16
3
ACAD_PLOTSETTINGS
350
17
3
ACAD_PLOTSTYLENAME
350
18
3
ACAD_SCALELIST
350
FAB
3
ACAD_TABLESTYLE
350
FA8
3
ACAD_VISUALSTYLE
350
F93
3
ACDB_RECOMPOSE_DATA
350
107E
3
AcDbVariableDictionary
350
FF0
3
DWGPROPS
350
107F
0
DICTIONARY
5
F10014
330
F10013
100
AcDbDictionary
280
1
281
1
3
ACAD_MTEXT_2008_RT
360
F10015
0
DICTIONARY
5
F10023
330
F10022
100
AcDbDictionary
280
1
281
1
3
ACAD_MTEXT_2008_RT
360
F10024
0
DICTIONARY
5
F1002D
330
F1002C
100
AcDbDictionary
280
1
281
1
3
ACAD_MTEXT_2008_RT
360
F1002E
0
DICTIONARY
5
F10032
330
F10031
100
AcDbDictionary
280
1
281
1
3
ACAD_MTEXT_2008_RT
360
F10033
0
DICTIONARY
5
F10005
330
F10004
100
AcDbDictionary
280
1
281
1
3
ACAD_MTEXT_2008_RT
360
F10006
0
DICTIONARY
5
F1001E
330
F1001D
100
AcDbDictionary
280
1
281
1
3
ACAD_MTEXT_2008_RT
360
F1001F
0
DICTIONARY
5
F1000F
330
F1000E
100
AcDbDictionary
280
1
281
1
3
ACAD_MTEXT_2008_RT
360
F10010
0
DICTIONARY
5
F1000A
330
F10009
100
AcDbDictionary
280
1
281
1
3
ACAD_MTEXT_2008_RT
360
F1000B
0
DICTIONARY
5
F10019
330
F10018
100
AcDbDictionary
280
1
281
1
3
ACAD_MTEXT_2008_RT
360
F1001A
0
DICTIONARY
5
F10028
330
F10027
100
AcDbDictionary
280
1
281
1
3
ACAD_MTEXT_2008_RT
360
F10029
0
DICTIONARY
5
FA7
102
{ACAD_REACTORS
330
13
102
}
330
13
100
AcDbDictionary
281
1
0
DICTIONARY
5
14
330
13
100
AcDbDictionary
281
1
0
DICTIONARY
5
FCF
102
{ACAD_REACTORS
330
13
102
}
330
13
100
AcDbDictionary
281
1
3
Layout1
350
FD1
3
Model
350
FD0
0
DICTIONARY
5
F7A
102
{ACAD_REACTORS
330
13
102
}
330
13
100
AcDbDictionary
281
1
3
ByBlock
350
F83
3
ByLayer
350
F7B
3
Global
350
F8B
0
DICTIONARY
5
FCD
102
{ACAD_REACTORS
330
13
102
}
330
13
100
AcDbDictionary
281
1
3
Standard
350
FCE
0
DICTIONARY
5
16
330
13
100
AcDbDictionary
281
1
3
Standard
350
FAA
0
DICTIONARY
5
17
102
{ACAD_REACTORS
330
13
102
}
330
13
100
AcDbDictionary
281
1
0
ACDBDICTIONARYWDFLT
5
18
102
{ACAD_REACTORS
330
13
102
}
330
13
100
AcDbDictionary
281
1
3
Normal
350
19
100
AcDbDictionaryWithDefault
340
19
0
DICTIONARY
5
FAB
102
{ACAD_REACTORS
330
13
102
}
330
13
100
AcDbDictionary
281
1
3
A0
350
FAC
3
A1
350
FAD
3
A2
350
FAE
3
A3
350
FAF
3
A4
350
FB0
3
A5
350
FB1
3
A6
350
FB2
3
A7
350
FB3
3
A8
350
FB4
3
A9
350
FB5
3
B0
350
FB6
3
B1
350
FB7
3
B2
350
FB8
3
B3
350
FB9
3
B4
350
FBA
3
B5
350
FBB
3
B6
350
FBC
3
B7
350
FBD
3
B8
350
FBE
3
B9
350
FBF
3
C0
350
FC0
3
C1
350
FC1
3
C2
350
FC2
3
C3
350
FC3
3
C4
350
FC4
3
C5
350
FC5
3
C6
350
FC6
3
C7
350
FC7
3
C8
350
FC8
3
C9
350
FC9
3
D0
350
FCA
3
D1
350
FCB
3
D2
350
FCC
0
DICTIONARY
5
FA8
102
{ACAD_REACTORS
330
13
102
}
330
13
100
AcDbDictionary
281
1
3
Standard
350
FA9
0
DICTIONARY
5
F93
102
{ACAD_REACTORS
330
13
102
}
330
13
100
AcDbDictionary
281
1
3
2dWireframe
350
F99
3
3D Hidden
350
F9B
3
3dWireframe
350
F9A
3
Basic
350
F98
3
Brighten
350
F9F
3
ColorChange
350
FA3
3
Conceptual
350
F9C
3
Dim
350
F9E
3
EdgeColorOff
350
FA6
3
Facepattern
350
FA2
3
Flat
350
F94
3
FlatWithEdges
350
F95
3
Gouraud
350
F96
3
GouraudWithEdges
350
F97
3
JitterOff
350
FA4
3
Linepattern
350
FA1
3
OverhangOff
350
FA5
3
Realistic
350
F9D
3
Thicken
350
FA0
0
XRECORD
5
107E
102
{ACAD_REACTORS
330
13
102
}
330
13
100
AcDbXrecord
280
1
90
1
330
FA9
330
F10013
330
F10022
330
F1002C
330
F10031
330
F10004
330
F1001D
330
F1000E
330
F10009
330
F10018
330
F10027
0
XRECORD
5
F10015
102
{ACAD_REACTORS
330
F10014
102
}
330
F10014
100
AcDbXrecord
280
1
40
48458.0
1
10.5
0
XRECORD
5
F10024
102
{ACAD_REACTORS
330
F10023
102
}
330
F10023
100
AcDbXrecord
280
1
40
48458.0
1
36.768
0
XRECORD
5
F1002E
102
{ACAD_REACTORS
330
F1002D
102
}
330
F1002D
100
AcDbXrecord
280
1
40
48458.0
1
9
0
XRECORD
5
F10033
102
{ACAD_REACTORS
330
F10032
102
}
330
F10032
100
AcDbXrecord
280
1
40
48458.0
1
51
0
XRECORD
5
F10006
102
{ACAD_REACTORS
330
F10005
102
}
330
F10005
100
AcDbXrecord
280
1
40
48458.0
1
2°
0
XRECORD
5
F1001F
102
{ACAD_REACTORS
330
F1001E
102
}
330
F1001E
100
AcDbXrecord
280
1
40
48458.0
1
15°
0
XRECORD
5
F10010
102
{ACAD_REACTORS
330
F1000F
102
}
330
F1000F
100
AcDbXrecord
280
1
40
48458.0
1
R0.2
0
XRECORD
5
F1000B
102
{ACAD_REACTORS
330
F1000A
102
}
330
F1000A
100
AcDbXrecord
280
1
40
48458.0
1
4
0
XRECORD
5
F1001A
102
{ACAD_REACTORS
330
F10019
102
}
330
F10019
100
AcDbXrecord
280
1
40
48458.0
1
6
0
LAYOUT
5
FD1
102
{ACAD_XDICTIONARY
360
10A9
102
}
102
{ACAD_REACTORS
330
FCF
102
}
330
FCF
100
AcDbPlotSettings
1

2
Microsoft XPS Document Writer
4

6

40
0.0
41
0.0
42
0.0
43
0.0
44
0.0
45
0.0
46
0.0
47
0.0
48
0.0
49
0.0
140
0.0
141
0.0
142
1.0
143
1.0
70
688
72
0
73
0
74
5
7

75
16
147
1.0
148
0.0
149
0.0
100
AcDbLayout
1
Layout1
70
1
71
1
10
0.0
20
0.0
11
12.0
21
9.0
12
0.0
22
0.0
32
0.0
14
1.000000000000000E+20
24
1.000000000000000E+20
34
1.000000000000000E+20
15
-1.000000000000000E+20
25
-1.000000000000000E+20
35
-1.000000000000000E+20
146
0.0
13
0.0
23
0.0
33
0.0
16
1.0
26
0.0
36
0.0
17
0.0
27
1.0
37
0.0
76
0
330
25D
0
LAYOUT
5
FD0
102
{ACAD_XDICTIONARY
360
10A7
102
}
102
{ACAD_REACTORS
330
FCF
102
}
330
FCF
100
AcDbPlotSettings
1

2
Microsoft XPS Document Writer
4

6

40
0.0
41
0.0
42
0.0
43
0.0
44
0.0
45
0.0
46
0.0
47
0.0
48
0.0
49
0.0
140
0.0
141
0.0
142
1.0
143
1.0
70
1712
72
0
73
0
74
0
7

75
0
147
1.0
148
0.0
149
0.0
100
AcDbLayout
1
Model
70
1
71
0
10
0.0
20
0.0
11
12.0
21
9.0
12
0.0
22
0.0
32
0.0
14
0.0
24
0.0
34
0.0
15
0.0
25
0.0
35
0.0
146
0.0
13
0.0
23
0.0
33
0.0
16
1.0
26
0.0
36
0.0
17
0.0
27
1.0
37
0.0
76
0
330
261
331
26B
0
MATERIAL
5
F83
102
{ACAD_XDICTIONARY
360
F84
102
}
102
{ACAD_REACTORS
330
F7A
102
}
330
F7A
100
AcDbMaterial
1
ByBlock
72
0
43
0.0208333333333333
43
0.0
43
0.0
43
0.0
43
0.0
43
0.0208333333333333
43
0.0
43
0.0
43
0.0
43
0.0
43
1.0
43
0.0
43
0.0
43
0.0
43
0.0
43
1.0
77
0
47
0.0208333333333333
47
0.0
47
0.0
47
0.0
47
0.0
47
0.0208333333333333
47
0.0
47
0.0
47
0.0
47
0.0
47
1.0
47
0.0
47
0.0
47
0.0
47
0.0
47
1.0
171
0
49
0.0208333333333333
49
0.0
49
0.0
49
0.0
49
0.0
49
0.0208333333333333
49
0.0
49
0.0
49
0.0
49
0.0
49
1.0
49
0.0
49
0.0
49
0.0
49
0.0
49
1.0
175
0
142
0.0208333333333333
142
0.0
142
0.0
142
0.0
142
0.0
142
0.0208333333333333
142
0.0
142
0.0
142
0.0
142
0.0
142
1.0
142
0.0
142
0.0
142
0.0
142
0.0
142
1.0
179
0
144
0.0208333333333333
144
0.0
144
0.0
144
0.0
144
0.0
144
0.0208333333333333
144
0.0
144
0.0
144
0.0
144
0.0
144
1.0
144
0.0
144
0.0
144
0.0
144
0.0
144
1.0
147
0.0208333333333333
147
0.0
147
0.0
147
0.0
147
0.0
147
0.0208333333333333
147
0.0
147
0.0
147
0.0
147
0.0
147
1.0
147
0.0
147
0.0
147
0.0
147
0.0
147
1.0
0
MATERIAL
5
F7B
102
{ACAD_XDICTIONARY
360
F7C
102
}
102
{ACAD_REACTORS
330
F7A
102
}
330
F7A
100
AcDbMaterial
1
ByLayer
72
0
43
0.0208333333333333
43
0.0
43
0.0
43
0.0
43
0.0
43
0.0208333333333333
43
0.0
43
0.0
43
0.0
43
0.0
43
1.0
43
0.0
43
0.0
43
0.0
43
0.0
43
1.0
77
0
47
0.0208333333333333
47
0.0
47
0.0
47
0.0
47
0.0
47
0.0208333333333333
47
0.0
47
0.0
47
0.0
47
0.0
47
1.0
47
0.0
47
0.0
47
0.0
47
0.0
47
1.0
171
0
49
0.0208333333333333
49
0.0
49
0.0
49
0.0
49
0.0
49
0.0208333333333333
49
0.0
49
0.0
49
0.0
49
0.0
49
1.0
49
0.0
49
0.0
49
0.0
49
0.0
49
1.0
175
0
142
0.0208333333333333
142
0.0
142
0.0
142
0.0
142
0.0
142
0.0208333333333333
142
0.0
142
0.0
142
0.0
142
0.0
142
1.0
142
0.0
142
0.0
142
0.0
142
0.0
142
1.0
179
0
144
0.0208333333333333
144
0.0
144
0.0
144
0.0
144
0.0
144
0.0208333333333333
144
0.0
144
0.0
144
0.0
144
0.0
144
1.0
144
0.0
144
0.0
144
0.0
144
0.0
144
1.0
147
0.0208333333333333
147
0.0
147
0.0
147
0.0
147
0.0
147
0.0208333333333333
147
0.0
147
0.0
147
0.0
147
0.0
147
1.0
147
0.0
147
0.0
147
0.0
147
0.0
147
1.0
0
MATERIAL
5
F8B
102
{ACAD_XDICTIONARY
360
F8C
102
}
102
{ACAD_REACTORS
330
F7A
102
}
330
F7A
100
AcDbMaterial
1
Global
72
0
43
0.0208333333333333
43
0.0
43
0.0
43
0.0
43
0.0
43
0.0208333333333333
43
0.0
43
0.0
43
0.0
43
0.0
43
1.0
43
0.0
43
0.0
43
0.0
43
0.0
43
1.0
77
0
47
0.0208333333333333
47
0.0
47
0.0
47
0.0
47
0.0
47
0.0208333333333333
47
0.0
47
0.0
47
0.0
47
0.0
47
1.0
47
0.0
47
0.0
47
0.0
47
0.0
47
1.0
171
0
49
0.0208333333333333
49
0.0
49
0.0
49
0.0
49
0.0
49
0.0208333333333333
49
0.0
49
0.0
49
0.0
49
0.0
49
1.0
49
0.0
49
0.0
49
0.0
49
0.0
49
1.0
175
0
142
0.0208333333333333
142
0.0
142
0.0
142
0.0
142
0.0
142
0.0208333333333333
142
0.0
142
0.0
142
0.0
142
0.0
142
1.0
142
0.0
142
0.0
142
0.0
142
0.0
142
1.0
179
0
144
0.0208333333333333
144
0.0
144
0.0
144
0.0
144
0.0
144
0.0208333333333333
144
0.0
144
0.0
144
0.0
144
0.0
144
1.0
144
0.0
144
0.0
144
0.0
144
0.0
144
1.0
147
0.0208333333333333
147
0.0
147
0.0
147
0.0
147
0.0
147
0.0208333333333333
147
0.0
147
0.0
147
0.0
147
0.0
147
1.0
147
0.0
147
0.0
147
0.0
147
0.0
147
1.0
0
MLEADERSTYLE
5
FCE
102
{ACAD_REACTORS
330
FCD
102
}
330
FCD
100
AcDbMLeaderStyle
170
2
171
1
172
0
90
2
40
0.0
41
0.0
173
1
91
-1056964608
340
256
92
-2
290
1
42
0.09
291
1
43
0.36
3
Standard
44
0.18
300

342
253
174
1
178
6
175
1
176
0
93
-1056964608
45
0.18
292
0
297
0
46
0.18
94
-1056964608
47
1.0
49
1.0
140
1.0
293
1
141
0.0
294
1
177
0
142
1.0
295
0
296
0
143
0.125
1001
ACAD_MLEADERVER
1070
2
0
MLINESTYLE
5
FAA
102
{ACAD_REACTORS
330
16
102
}
330
16
100
AcDbMlineStyle
2
STANDARD
70
0
3

62
256
51
90.0
52
90.0
71
2
49
0.5
62
256
6
BYLAYER
49
-0.5
62
256
6
BYLAYER
0
ACDBPLACEHOLDER
5
19
102
{ACAD_REACTORS
330
18
102
}
330
18
0
SCALE
5
FAC
102
{ACAD_REACTORS
330
FAB
102
}
330
FAB
100
AcDbScale
70
0
300
1:1
140
1.0
141
1.0
290
1
0
SCALE
5
FAD
102
{ACAD_REACTORS
330
FAB
102
}
330
FAB
100
AcDbScale
70
0
300
1:2
140
1.0
141
2.0
290
0
0
SCALE
5
FAE
102
{ACAD_REACTORS
330
FAB
102
}
330
FAB
100
AcDbScale
70
0
300
1:4
140
1.0
141
4.0
290
0
0
SCALE
5
FAF
102
{ACAD_REACTORS
330
FAB
102
}
330
FAB
100
AcDbScale
70
0
300
1:5
140
1.0
141
5.0
290
0
0
SCALE
5
FB0
102
{ACAD_REACTORS
330
FAB
102
}
330
FAB
100
AcDbScale
70
0
300
1:8
140
1.0
141
8.0
290
0
0
SCALE
5
FB1
102
{ACAD_REACTORS
330
FAB
102
}
330
FAB
100
AcDbScale
70
0
300
1:10
140
1.0
141
10.0
290
0
0
SCALE
5
FB2
102
{ACAD_REACTORS
330
FAB
102
}
330
FAB
100
AcDbScale
70
0
300
1:16
140
1.0
141
16.0
290
0
0
SCALE
5
FB3
102
{ACAD_REACTORS
330
FAB
102
}
330
FAB
100
AcDbScale
70
0
300
1:20
140
1.0
141
20.0
290
0
0
SCALE
5
FB4
102
{ACAD_REACTORS
330
FAB
102
}
330
FAB
100
AcDbScale
70
0
300
1:30
140
1.0
141
30.0
290
0
0
SCALE
5
FB5
102
{ACAD_REACTORS
330
FAB
102
}
330
FAB
100
AcDbScale
70
0
300
1:40
140
1.0
141
40.0
290
0
0
SCALE
5
FB6
102
{ACAD_REACTORS
330
FAB
102
}
330
FAB
100
AcDbScale
70
0
300
1:50
140
1.0
141
50.0
290
0
0
SCALE
5
FB7
102
{ACAD_REACTORS
330
FAB
102
}
330
FAB
100
AcDbScale
70
0
300
1:100
140
1.0
141
100.0
290
0
0
SCALE
5
FB8
102
{ACAD_REACTORS
330
FAB
102
}
330
FAB
100
AcDbScale
70
0
300
2:1
140
2.0
141
1.0
290
0
0
SCALE
5
FB9
102
{ACAD_REACTORS
330
FAB
102
}
330
FAB
100
AcDbScale
70
0
300
4:1
140
4.0
141
1.0
290
0
0
SCALE
5
FBA
102
{ACAD_REACTORS
330
FAB
102
}
330
FAB
100
AcDbScale
70
0
300
8:1
140
8.0
141
1.0
290
0
0
SCALE
5
FBB
102
{ACAD_REACTORS
330
FAB
102
}
330
FAB
100
AcDbScale
70
0
300
10:1
140
10.0
141
1.0
290
0
0
SCALE
5
FBC
102
{ACAD_REACTORS
330
FAB
102
}
330
FAB
100
AcDbScale
70
0
300
100:1
140
100.0
141
1.0
290
0
0
SCALE
5
FBD
102
{ACAD_REACTORS
330
FAB
102
}
330
FAB
100
AcDbScale
70
0
300
1/128" = 1'-0"
140
0.0078125
141
12.0
290
0
0
SCALE
5
FBE
102
{ACAD_REACTORS
330
FAB
102
}
330
FAB
100
AcDbScale
70
0
300
1/64" = 1'-0"
140
0.015625
141
12.0
290
0
0
SCALE
5
FBF
102
{ACAD_REACTORS
330
FAB
102
}
330
FAB
100
AcDbScale
70
0
300
1/32" = 1'-0"
140
0.03125
141
12.0
290
0
0
SCALE
5
FC0
102
{ACAD_REACTORS
330
FAB
102
}
330
FAB
100
AcDbScale
70
0
300
1/16" = 1'-0"
140
0.0625
141
12.0
290
0
0
SCALE
5
FC1
102
{ACAD_REACTORS
330
FAB
102
}
330
FAB
100
AcDbScale
70
0
300
3/32" = 1'-0"
140
0.09375
141
12.0
290
0
0
SCALE
5
FC2
102
{ACAD_REACTORS
330
FAB
102
}
330
FAB
100
AcDbScale
70
0
300
1/8" = 1'-0"
140
0.125
141
12.0
290
0
0
SCALE
5
FC3
102
{ACAD_REACTORS
330
FAB
102
}
330
FAB
100
AcDbScale
70
0
300
3/16" = 1'-0"
140
0.1875
141
12.0
290
0
0
SCALE
5
FC4
102
{ACAD_REACTORS
330
FAB
102
}
330
FAB
100
AcDbScale
70
0
300
1/4" = 1'-0"
140
0.25
141
12.0
290
0
0
SCALE
5
FC5
102
{ACAD_REACTORS
330
FAB
102
}
330
FAB
100
AcDbScale
70
0
300
3/8" = 1'-0"
140
0.375
141
12.0
290
0
0
SCALE
5
FC6
102
{ACAD_REACTORS
330
FAB
102
}
330
FAB
100
AcDbScale
70
0
300
1/2" = 1'-0"
140
0.5
141
12.0
290
0
0
SCALE
5
FC7
102
{ACAD_REACTORS
330
FAB
102
}
330
FAB
100
AcDbScale
70
0
300
3/4" = 1'-0"
140
0.75
141
12.0
290
0
0
SCALE
5
FC8
102
{ACAD_REACTORS
330
FAB
102
}
330
FAB
100
AcDbScale
70
0
300
1" = 1'-0"
140
1.0
141
12.0
290
0
0
SCALE
5
FC9
102
{ACAD_REACTORS
330
FAB
102
}
330
FAB
100
AcDbScale
70
0
300
1-1/2" = 1'-0"
140
1.5
141
12.0
290
0
0
SCALE
5
FCA
102
{ACAD_REACTORS
330
FAB
102
}
330
FAB
100
AcDbScale
70
0
300
3" = 1'-0"
140
3.0
141
12.0
290
0
0
SCALE
5
FCB
102
{ACAD_REACTORS
330
FAB
102
}
330
FAB
100
AcDbScale
70
0
300
6" = 1'-0"
140
6.0
141
12.0
290
0
0
SCALE
5
FCC
102
{ACAD_REACTORS
330
FAB
102
}
330
FAB
100
AcDbScale
70
0
300
1'-0" = 1'-0"
140
12.0
141
12.0
290
0
0
TABLESTYLE
5
FA9
102
{ACAD_XDICTIONARY
360
FF8
102
}
102
{ACAD_REACTORS
330
FA8
102
}
330
FA8
100
AcDbTableStyle
3
Standard
70
0
71
0
40
0.06
41
0.06
280
0
281
0
7
Standard
140
0.18
170
2
62
0
63
7
283
0
274
-2
284
1
64
0
275
-2
285
1
65
0
276
-2
286
1
66
0
277
-2
287
1
67
0
278
-2
288
1
68
0
279
-2
289
1
69
0
7
Standard
140
0.25
170
5
62
0
63
7
283
0
274
-2
284
1
64
0
275
-2
285
1
65
0
276
-2
286
1
66
0
277
-2
287
1
67
0
278
-2
288
1
68
0
279
-2
289
1
69
0
7
Standard
140
0.18
170
5
62
0
63
7
283
0
274
-2
284
1
64
0
275
-2
285
1
65
0
276
-2
286
1
66
0
277
-2
287
1
67
0
278
-2
288
1
68
0
279
-2
289
1
69
0
0
VISUALSTYLE
5
F99
102
{ACAD_XDICTIONARY
360
108A
102
}
102
{ACAD_REACTORS
330
F93
102
}
330
F93
100
AcDbVisualStyle
2

70
4
71
0
72
2
73
0
90
0
40
-0.6
41
-30.0
62
5
63
7
74
1
91
4
64
7
65
257
75
1
175
1
42
1.0
92
0
66
257
43
1.0
76
1
77
6
78
2
67
7
79
5
170
0
171
0
290
0
174
0
93
1
44
0.0
173
0
291
0
45
0.0
1001
ACAD
1000
AcDbSavedByObjectVersion
1070
0
0
VISUALSTYLE
5
F9B
102
{ACAD_XDICTIONARY
360
108E
102
}
102
{ACAD_REACTORS
330
F93
102
}
330
F93
100
AcDbVisualStyle
2

70
6
71
1
72
2
73
2
90
0
40
-0.6
41
-30.0
62
5
63
7
74
2
91
2
64
7
65
257
75
2
175
1
42
179.0
92
0
66
257
43
1.0
76
1
77
6
78
2
67
7
79
3
170
0
171
0
290
0
174
0
93
1
44
0.0
173
0
291
0
45
0.0
1001
ACAD
1000
AcDbSavedByObjectVersion
1070
0
0
VISUALSTYLE
5
F9A
102
{ACAD_XDICTIONARY
360
108C
102
}
102
{ACAD_REACTORS
330
F93
102
}
330
F93
100
AcDbVisualStyle
2

70
5
71
0
72
2
73
0
90
0
40
-0.6
41
-30.0
62
5
63
7
74
1
91
4
64
7
65
257
75
1
175
1
42
1.0
92
0
66
257
43
1.0
76
1
77
6
78
2
67
7
79
5
170
0
171
0
290
0
174
0
93
1
44
0.0
173
0
291
0
45
0.0
1001
ACAD
1000
AcDbSavedByObjectVersion
1070
0
0
VISUALSTYLE
5
F98
102
{ACAD_XDICTIONARY
360
1088
102
}
102
{ACAD_REACTORS
330
F93
102
}
330
F93
100
AcDbVisualStyle
2

70
7
71
1
72
0
73
1
90
0
40
-0.6
41
-30.0
62
5
63
7
74
0
91
4
64
7
65
257
75
1
175
1
42
1.0
92
8
66
7
43
1.0
76
1
77
6
78
2
67
7
79
5
170
0
171
0
290
0
174
0
93
1
44
0.0
173
0
291
1
45
0.0
1001
ACAD
1000
AcDbSavedByObjectVersion
1070
0
0
VISUALSTYLE
5
F9F
102
{ACAD_XDICTIONARY
360
1096
102
}
102
{ACAD_REACTORS
330
F93
102
}
330
F93
100
AcDbVisualStyle
2

70
12
71
2
72
2
73
0
90
0
40
-0.6
41
-30.0
62
5
63
7
74
1
91
4
64
7
65
257
75
1
175
1
42
1.0
92
8
66
7
43
1.0
76
1
77
6
78
2
67
7
79
5
170
0
171
0
290
0
174
0
93
1
44
50.0
173
0
291
1
45
0.0
1001
ACAD
1000
AcDbSavedByObjectVersion
1070
0
0
VISUALSTYLE
5
FA3
102
{ACAD_XDICTIONARY
360
109E
102
}
102
{ACAD_REACTORS
330
F93
102
}
330
F93
100
AcDbVisualStyle
2

70
16
71
2
72
2
73
3
90
0
40
-0.6
41
-30.0
62
5
63
8
74
1
91
4
64
7
65
257
75
1
175
1
42
1.0
92
8
66
8
43
1.0
76
1
77
6
78
2
67
7
79
5
170
0
171
0
290
0
174
0
93
1
44
0.0
173
0
291
1
45
0.0
1001
ACAD
1000
AcDbSavedByObjectVersion
1070
0
0
VISUALSTYLE
5
F9C
102
{ACAD_XDICTIONARY
360
1090
102
}
102
{ACAD_REACTORS
330
F93
102
}
330
F93
100
AcDbVisualStyle
2

70
9
71
3
72
2
73
0
90
0
40
-0.6
41
-30.0
62
5
63
7
74
2
91
2
64
7
65
257
75
1
175
1
42
179.0
92
8
66
7
43
1.0
76
1
77
6
78
2
67
7
79
3
170
0
171
0
290
0
174
0
93
1
44
0.0
173
0
291
0
45
0.0
1001
ACAD
1000
AcDbSavedByObjectVersion
1070
0
0
VISUALSTYLE
5
F9E
102
{ACAD_XDICTIONARY
360
1094
102
}
102
{ACAD_REACTORS
330
F93
102
}
330
F93
100
AcDbVisualStyle
2

70
11
71
2
72
2
73
0
90
0
40
-0.6
41
-30.0
62
5
63
7
74
1
91
4
64
7
65
257
75
1
175
1
42
1.0
92
8
66
7
43
1.0
76
1
77
6
78
2
67
7
79
5
170
0
171
0
290
0
174
0
93
1
44
-50.0
173
0
291
1
45
0.0
1001
ACAD
1000
AcDbSavedByObjectVersion
1070
0
0
VISUALSTYLE
5
FA6
102
{ACAD_XDICTIONARY
360
10A4
102
}
102
{ACAD_REACTORS
330
F93
102
}
330
F93
100
AcDbVisualStyle
2

70
22
71
2
72
2
73
0
90
0
40
-0.6
41
-30.0
62
5
63
7
74
1
91
4
64
7
65
257
75
1
175
1
42
1.0
92
8
66
7
43
1.0
76
1
77
6
78
2
67
7
79
5
170
0
171
0
290
0
174
0
93
1
44
0.0
173
0
291
1
45
0.0
1001
ACAD
1000
AcDbSavedByObjectVersion
1070
0
0
VISUALSTYLE
5
FA2
102
{ACAD_XDICTIONARY
360
109C
102
}
102
{ACAD_REACTORS
330
F93
102
}
330
F93
100
AcDbVisualStyle
2

70
15
71
2
72
2
73
0
90
0
40
-0.6
41
-30.0
62
5
63
7
74
1
91
4
64
7
65
257
75
1
175
1
42
1.0
92
8
66
7
43
1.0
76
1
77
6
78
2
67
7
79
5
170
0
171
0
290
0
174
0
93
1
44
0.0
173
0
291
1
45
0.0
1001
ACAD
1000
AcDbSavedByObjectVersion
1070
0
0
VISUALSTYLE
5
F94
102
{ACAD_XDICTIONARY
360
1080
102
}
102
{ACAD_REACTORS
330
F93
102
}
330
F93
100
AcDbVisualStyle
2

70
0
71
2
72
1
73
1
90
2
40
-0.6
41
30.0
62
5
63
7
74
0
91
4
64
7
65
257
75
1
175
1
42
1.0
92
8
66
7
43
1.0
76
1
77
6
78
2
67
7
79
5
170
0
171
0
290
0
174
0
93
13
44
0.0
173
0
291
1
45
0.0
1001
ACAD
1000
AcDbSavedByObjectVersion
1070
0
0
VISUALSTYLE
5
F95
102
{ACAD_XDICTIONARY
360
1082
102
}
102
{ACAD_REACTORS
330
F93
102
}
330
F93
100
AcDbVisualStyle
2

70
1
71
2
72
1
73
1
90
2
40
-0.6
41
30.0
62
5
63
7
74
1
91
4
64
7
65
257
75
1
175
1
42
1.0
92
0
66
257
43
1.0
76
1
77
6
78
2
67
7
79
5
170
0
171
0
290
0
174
0
93
13
44
0.0
173
0
291
1
45
0.0
1001
ACAD
1000
AcDbSavedByObjectVersion
1070
0
0
VISUALSTYLE
5
F96
102
{ACAD_XDICTIONARY
360
1084
102
}
102
{ACAD_REACTORS
330
F93
102
}
330
F93
100
AcDbVisualStyle
2

70
2
71
2
72
2
73
1
90
2
40
-0.6
41
30.0
62
5
63
7
74
0
91
4
64
7
65
257
75
1
175
1
42
1.0
92
0
66
7
43
1.0
76
1
77
6
78
2
67
7
79
5
170
0
171
0
290
0
174
0
93
13
44
0.0
173
0
291
1
45
0.0
1001
ACAD
1000
AcDbSavedByObjectVersion
1070
0
0
VISUALSTYLE
5
F97
102
{ACAD_XDICTIONARY
360
1086
102
}
102
{ACAD_REACTORS
330
F93
102
}
330
F93
100
AcDbVisualStyle
2

70
3
71
2
72
2
73
1
90
2
40
-0.6
41
30.0
62
5
63
7
74
1
91
4
64
7
65
257
75
1
175
1
42
1.0
92
0
66
257
43
1.0
76
1
77
6
78
2
67
7
79
5
170
0
171
0
290
0
174
0
93
13
44
0.0
173
0
291
1
45
0.0
1001
ACAD
1000
AcDbSavedByObjectVersion
1070
0
0
VISUALSTYLE
5
FA4
102
{ACAD_XDICTIONARY
360
10A0
102
}
102
{ACAD_REACTORS
330
F93
102
}
330
F93
100
AcDbVisualStyle
2

70
20
71
2
72
2
73
0
90
0
40
-0.6
41
-30.0
62
5
63
7
74
1
91
4
64
7
65
257
75
1
175
1
42
1.0
92
10
66
7
43
1.0
76
1
77
6
78
2
67
7
79
5
170
0
171
0
290
0
174
0
93
1
44
0.0
173
0
291
1
45
0.0
1001
ACAD
1000
AcDbSavedByObjectVersion
1070
0
0
VISUALSTYLE
5
FA1
102
{ACAD_XDICTIONARY
360
109A
102
}
102
{ACAD_REACTORS
330
F93
102
}
330
F93
100
AcDbVisualStyle
2

70
14
71
2
72
2
73
0
90
0
40
-0.6
41
-30.0
62
5
63
7
74
1
91
4
64
7
65
257
75
7
175
7
42
1.0
92
8
66
7
43
1.0
76
1
77
6
78
2
67
7
79
5
170
0
171
0
290
0
174
0
93
1
44
0.0
173
0
291
1
45
0.0
1001
ACAD
1000
AcDbSavedByObjectVersion
1070
0
0
VISUALSTYLE
5
FA5
102
{ACAD_XDICTIONARY
360
10A2
102
}
102
{ACAD_REACTORS
330
F93
102
}
330
F93
100
AcDbVisualStyle
2

70
21
71
2
72
2
73
0
90
0
40
-0.6
41
-30.0
62
5
63
7
74
1
91
4
64
7
65
257
75
1
175
1
42
1.0
92
9
66
7
43
1.0
76
1
77
6
78
2
67
7
79
5
170
0
171
0
290
0
174
0
93
1
44
0.0
173
0
291
1
45
0.0
1001
ACAD
1000
AcDbSavedByObjectVersion
1070
0
0
VISUALSTYLE
5
F9D
102
{ACAD_XDICTIONARY
360
1092
102
}
102
{ACAD_REACTORS
330
F93
102
}
330
F93
100
AcDbVisualStyle
2

70
8
71
2
72
2
73
0
90
0
40
-0.6
41
-30.0
62
5
63
7
74
1
91
0
64
7
65
257
75
1
175
1
42
1.0
92
8
66
8
43
1.0
76
1
77
6
78
2
67
7
79
5
170
0
171
0
290
0
174
0
93
13
44
0.0
173
0
291
0
45
0.0
1001
ACAD
1000
AcDbSavedByObjectVersion
1070
0
0
VISUALSTYLE
5
FA0
102
{ACAD_XDICTIONARY
360
1098
102
}
102
{ACAD_REACTORS
330
F93
102
}
330
F93
100
AcDbVisualStyle
2

70
13
71
2
72
2
73
0
90
0
40
-0.6
41
-30.0
62
5
63
7
74
1
91
4
64
7
65
257
75
1
175
1
42
1.0
92
12
66
7
43
1.0
76
1
77
6
78
2
67
7
79
5
170
0
171
0
290
0
174
0
93
1
44
0.0
173
0
291
1
45
0.0
1001
ACAD
1000
AcDbSavedByObjectVersion
1070
0
0
DICTIONARYVAR
5
FF3
102
{ACAD_REACTORS
330
FF0
102
}
330
FF0
100
DictionaryVariables
280
0
1
1:1
0
DICTIONARYVAR
5
FF2
102
{ACAD_REACTORS
330
FF0
102
}
330
FF0
100
DictionaryVariables
280
0
1
STANDARD
0
DICTIONARYVAR
5
FF1
102
{ACAD_REACTORS
330
FF0
102
}
330
FF0
100
DictionaryVariables
280
0
1
STANDARD
0
DICTIONARYVAR
5
FF6
102
{ACAD_REACTORS
330
FF0
102
}
330
FF0
100
DictionaryVariables
280
0
1
1
0
DICTIONARYVAR
5
FF5
102
{ACAD_REACTORS
330
FF0
102
}
330
FF0
100
DictionaryVariables
280
0
1
0
0
DICTIONARYVAR
5
FF4
102
{ACAD_REACTORS
330
FF0
102
}
330
FF0
100
DictionaryVariables
280
0
1
127
0
DICTIONARYVAR
5
1078
102
{ACAD_REACTORS
330
FF0
102
}
330
FF0
100
DictionaryVariables
280
0
1
2
0
DICTIONARY
5
10A9
330
FD1
100
AcDbDictionary
280
1
281
1
3
ACAD_XREC_ROUNDTRIP
360
10AA
0
DICTIONARY
5
10A7
330
FD0
100
AcDbDictionary
280
1
281
1
3
ACAD_XREC_ROUNDTRIP
360
10A8
0
DICTIONARY
5
F84
330
F83
100
AcDbDictionary
280
1
281
1
3
ACAD_XREC_ROUNDTRIP
360
FFF
3
BUMPTILE
360
F86
3
DIFFUSETILE
360
F85
3
OPACITYTILE
360
F89
3
REFLECTIONTILE
360
F88
3
REFRACTIONTILE
360
F8A
3
SPECULARTILE
360
F87
0
DICTIONARY
5
F7C
330
F7B
100
AcDbDictionary
280
1
281
1
3
ACAD_XREC_ROUNDTRIP
360
FFE
3
BUMPTILE
360
F7E
3
DIFFUSETILE
360
F7D
3
OPACITYTILE
360
F81
3
REFLECTIONTILE
360
F80
3
REFRACTIONTILE
360
F82
3
SPECULARTILE
360
F7F
0
DICTIONARY
5
F8C
330
F8B
100
AcDbDictionary
280
1
281
1
3
ACAD_XREC_ROUNDTRIP
360
1000
3
BUMPTILE
360
F8E
3
DIFFUSETILE
360
F8D
3
OPACITYTILE
360
F91
3
REFLECTIONTILE
360
F90
3
REFRACTIONTILE
360
F92
3
SPECULARTILE
360
F8F
0
DICTIONARY
5
FF8
330
FA9
100
AcDbDictionary
280
1
281
1
3
ACAD_ROUNDTRIP_2008_TABLESTYLE_CELLSTYLEMAP
360
1079
3
ACAD_XREC_ROUNDTRIP
360
10A6
0
DICTIONARY
5
108A
330
F99
100
AcDbDictionary
280
1
281
1
3
ACAD_XREC_ROUNDTRIP
360
108B
0
DICTIONARY
5
108E
330
F9B
100
AcDbDictionary
280
1
281
1
3
ACAD_XREC_ROUNDTRIP
360
108F
0
DICTIONARY
5
108C
330
F9A
100
AcDbDictionary
280
1
281
1
3
ACAD_XREC_ROUNDTRIP
360
108D
0
DICTIONARY
5
1088
330
F98
100
AcDbDictionary
280
1
281
1
3
ACAD_XREC_ROUNDTRIP
360
1089
0
DICTIONARY
5
1096
330
F9F
100
AcDbDictionary
280
1
281
1
3
ACAD_XREC_ROUNDTRIP
360
1097
0
DICTIONARY
5
109E
330
FA3
100
AcDbDictionary
280
1
281
1
3
ACAD_XREC_ROUNDTRIP
360
109F
0
DICTIONARY
5
1090
330
F9C
100
AcDbDictionary
280
1
281
1
3
ACAD_XREC_ROUNDTRIP
360
1091
0
DICTIONARY
5
1094
330
F9E
100
AcDbDictionary
280
1
281
1
3
ACAD_XREC_ROUNDTRIP
360
1095
0
DICTIONARY
5
10A4
330
FA6
100
AcDbDictionary
280
1
281
1
3
ACAD_XREC_ROUNDTRIP
360
10A5
0
DICTIONARY
5
109C
330
FA2
100
AcDbDictionary
280
1
281
1
3
ACAD_XREC_ROUNDTRIP
360
109D
0
DICTIONARY
5
1080
330
F94
100
AcDbDictionary
280
1
281
1
3
ACAD_XREC_ROUNDTRIP
360
1081
0
DICTIONARY
5
1082
330
F95
100
AcDbDictionary
280
1
281
1
3
ACAD_XREC_ROUNDTRIP
360
1083
0
DICTIONARY
5
1084
330
F96
100
AcDbDictionary
280
1
281
1
3
ACAD_XREC_ROUNDTRIP
360
1085
0
DICTIONARY
5
1086
330
F97
100
AcDbDictionary
280
1
281
1
3
ACAD_XREC_ROUNDTRIP
360
1087
0
DICTIONARY
5
10A0
330
FA4
100
AcDbDictionary
280
1
281
1
3
ACAD_XREC_ROUNDTRIP
360
10A1
0
DICTIONARY
5
109A
330
FA1
100
AcDbDictionary
280
1
281
1
3
ACAD_XREC_ROUNDTRIP
360
109B
0
DICTIONARY
5
10A2
330
FA5
100
AcDbDictionary
280
1
281
1
3
ACAD_XREC_ROUNDTRIP
360
10A3
0
DICTIONARY
5
1092
330
F9D
100
AcDbDictionary
280
1
281
1
3
ACAD_XREC_ROUNDTRIP
360
1093
0
DICTIONARY
5
1098
330
FA0
100
AcDbDictionary
280
1
281
1
3
ACAD_XREC_ROUNDTRIP
360
1099
0
XRECORD
5
10AA
102
{ACAD_REACTORS
330
10A9
102
}
330
10A9
100
AcDbXrecord
280
1
102
SHADEPLOT
70
0
102
SHADEPLOTRESLEVEL
70
2
102
SHADEPLOTCUSTOMDPI
70
300
0
XRECORD
5
10A8
102
{ACAD_REACTORS
330
10A7
102
}
330
10A7
100
AcDbXrecord
280
1
102
SHADEPLOT
70
0
102
SHADEPLOTRESLEVEL
70
2
102
SHADEPLOTCUSTOMDPI
70
300
0
XRECORD
5
FFF
102
{ACAD_REACTORS
330
F84
102
}
330
F84
100
AcDbXrecord
280
1
102
MATERIAL
148
0.0
149
0.0
149
0.0
93
0
94
127
282
0
72
0
77
0
171
0
175
0
179
0
273
0
0
XRECORD
5
F86
102
{ACAD_REACTORS
330
F84
102
}
330
F84
100
AcDbXrecord
280
1
270
1
271
1
0
XRECORD
5
F85
102
{ACAD_REACTORS
330
F84
102
}
330
F84
100
AcDbXrecord
280
1
270
1
271
1
0
XRECORD
5
F89
102
{ACAD_REACTORS
330
F84
102
}
330
F84
100
AcDbXrecord
280
1
270
1
271
1
0
XRECORD
5
F88
102
{ACAD_REACTORS
330
F84
102
}
330
F84
100
AcDbXrecord
280
1
270
1
271
1
0
XRECORD
5
F8A
102
{ACAD_REACTORS
330
F84
102
}
330
F84
100
AcDbXrecord
280
1
270
1
271
1
0
XRECORD
5
F87
102
{ACAD_REACTORS
330
F84
102
}
330
F84
100
AcDbXrecord
280
1
270
1
271
1
0
XRECORD
5
FFE
102
{ACAD_REACTORS
330
F7C
102
}
330
F7C
100
AcDbXrecord
280
1
102
MATERIAL
148
0.0
149
0.0
149
0.0
93
0
94
127
282
0
72
0
77
0
171
0
175
0
179
0
273
0
0
XRECORD
5
F7E
102
{ACAD_REACTORS
330
F7C
102
}
330
F7C
100
AcDbXrecord
280
1
270
1
271
1
0
XRECORD
5
F7D
102
{ACAD_REACTORS
330
F7C
102
}
330
F7C
100
AcDbXrecord
280
1
270
1
271
1
0
XRECORD
5
F81
102
{ACAD_REACTORS
330
F7C
102
}
330
F7C
100
AcDbXrecord
280
1
270
1
271
1
0
XRECORD
5
F80
102
{ACAD_REACTORS
330
F7C
102
}
330
F7C
100
AcDbXrecord
280
1
270
1
271
1
0
XRECORD
5
F82
102
{ACAD_REACTORS
330
F7C
102
}
330
F7C
100
AcDbXrecord
280
1
270
1
271
1
0
XRECORD
5
F7F
102
{ACAD_REACTORS
330
F7C
102
}
330
F7C
100
AcDbXrecord
280
1
270
1
271
1
0
XRECORD
5
1000
102
{ACAD_REACTORS
330
F8C
102
}
330
F8C
100
AcDbXrecord
280
1
102
MATERIAL
148
0.0
149
0.0
149
0.0
93
0
94
127
282
0
72
0
77
0
171
0
175
0
179
0
273
0
0
XRECORD
5
F8E
102
{ACAD_REACTORS
330
F8C
102
}
330
F8C
100
AcDbXrecord
280
1
270
1
271
1
0
XRECORD
5
F8D
102
{ACAD_REACTORS
330
F8C
102
}
330
F8C
100
AcDbXrecord
280
1
270
1
271
1
0
XRECORD
5
F91
102
{ACAD_REACTORS
330
F8C
102
}
330
F8C
100
AcDbXrecord
280
1
270
1
271
1
0
XRECORD
5
F90
102
{ACAD_REACTORS
330
F8C
102
}
330
F8C
100
AcDbXrecord
280
1
270
1
271
1
0
XRECORD
5
F92
102
{ACAD_REACTORS
330
F8C
102
}
330
F8C
100
AcDbXrecord
280
1
270
1
271
1
0
XRECORD
5
F8F
102
{ACAD_REACTORS
330
F8C
102
}
330
F8C
100
AcDbXrecord
280
1
270
1
271
1
0
CELLSTYLEMAP
5
1079
102
{ACAD_REACTORS
330
FF8
102
}
330
FF8
100
AcDbCellStyleMap
90
3
300
CELLSTYLE
1
TABLEFORMAT_BEGIN
90
5
170
1
91
0
92
32768
62
257
93
1
300
CONTENTFORMAT
1
CONTENTFORMAT_BEGIN
90
0
91
0
92
512
93
0
300

40
0.0
140
1.0
94
5
62
0
340
253
144
0.25
309
CONTENTFORMAT_END
171
1
301
MARGIN
1
CELLMARGIN_BEGIN
40
0.06
40
0.06
40
0.06
40
0.06
40
0.18
40
0.18
309
CELLMARGIN_END
94
6
95
1
302
GRIDFORMAT
1
GRIDFORMAT_BEGIN
90
0
91
1
62
0
92
-2
340
0
93
0
40
0.045
309
GRIDFORMAT_END
95
2
302
GRIDFORMAT
1
GRIDFORMAT_BEGIN
90
0
91
1
62
0
92
-2
340
0
93
0
40
0.045
309
GRIDFORMAT_END
95
4
302
GRIDFORMAT
1
GRIDFORMAT_BEGIN
90
0
91
1
62
0
92
-2
340
0
93
0
40
0.045
309
GRIDFORMAT_END
95
8
302
GRIDFORMAT
1
GRIDFORMAT_BEGIN
90
0
91
1
62
0
92
-2
340
0
93
0
40
0.045
309
GRIDFORMAT_END
95
16
302
GRIDFORMAT
1
GRIDFORMAT_BEGIN
90
0
91
1
62
0
92
-2
340
0
93
0
40
0.045
309
GRIDFORMAT_END
95
32
302
GRIDFORMAT
1
GRIDFORMAT_BEGIN
90
0
91
1
62
0
92
-2
340
0
93
0
40
0.045
309
GRIDFORMAT_END
309
TABLEFORMAT_END
1
CELLSTYLE_BEGIN
90
1
91
1
300
_TITLE
309
CELLSTYLE_END
300
CELLSTYLE
1
TABLEFORMAT_BEGIN
90
5
170
1
91
0
92
0
62
257
93
1
300
CONTENTFORMAT
1
CONTENTFORMAT_BEGIN
90
0
91
0
92
512
93
0
300

40
0.0
140
1.0
94
5
62
0
340
253
144
0.18
309
CONTENTFORMAT_END
171
1
301
MARGIN
1
CELLMARGIN_BEGIN
40
0.06
40
0.06
40
0.06
40
0.06
40
0.18
40
0.18
309
CELLMARGIN_END
94
6
95
1
302
GRIDFORMAT
1
GRIDFORMAT_BEGIN
90
0
91
1
62
0
92
-2
340
0
93
0
40
0.045
309
GRIDFORMAT_END
95
2
302
GRIDFORMAT
1
GRIDFORMAT_BEGIN
90
0
91
1
62
0
92
-2
340
0
93
0
40
0.045
309
GRIDFORMAT_END
95
4
302
GRIDFORMAT
1
GRIDFORMAT_BEGIN
90
0
91
1
62
0
92
-2
340
0
93
0
40
0.045
309
GRIDFORMAT_END
95
8
302
GRIDFORMAT
1
GRIDFORMAT_BEGIN
90
0
91
1
62
0
92
-2
340
0
93
0
40
0.045
309
GRIDFORMAT_END
95
16
302
GRIDFORMAT
1
GRIDFORMAT_BEGIN
90
0
91
1
62
0
92
-2
340
0
93
0
40
0.045
309
GRIDFORMAT_END
95
32
302
GRIDFORMAT
1
GRIDFORMAT_BEGIN
90
0
91
1
62
0
92
-2
340
0
93
0
40
0.045
309
GRIDFORMAT_END
309
TABLEFORMAT_END
1
CELLSTYLE_BEGIN
90
2
91
1
300
_HEADER
309
CELLSTYLE_END
300
CELLSTYLE
1
TABLEFORMAT_BEGIN
90
5
170
1
91
0
92
0
62
257
93
1
300
CONTENTFORMAT
1
CONTENTFORMAT_BEGIN
90
0
91
0
92
512
93
0
300

40
0.0
140
1.0
94
2
62
0
340
253
144
0.18
309
CONTENTFORMAT_END
171
1
301
MARGIN
1
CELLMARGIN_BEGIN
40
0.06
40
0.06
40
0.06
40
0.06
40
0.18
40
0.18
309
CELLMARGIN_END
94
6
95
1
302
GRIDFORMAT
1
GRIDFORMAT_BEGIN
90
0
91
1
62
0
92
-2
340
0
93
0
40
0.045
309
GRIDFORMAT_END
95
2
302
GRIDFORMAT
1
GRIDFORMAT_BEGIN
90
0
91
1
62
0
92
-2
340
0
93
0
40
0.045
309
GRIDFORMAT_END
95
4
302
GRIDFORMAT
1
GRIDFORMAT_BEGIN
90
0
91
1
62
0
92
-2
340
0
93
0
40
0.045
309
GRIDFORMAT_END
95
8
302
GRIDFORMAT
1
GRIDFORMAT_BEGIN
90
0
91
1
62
0
92
-2
340
0
93
0
40
0.045
309
GRIDFORMAT_END
95
16
302
GRIDFORMAT
1
GRIDFORMAT_BEGIN
90
0
91
1
62
0
92
-2
340
0
93
0
40
0.045
309
GRIDFORMAT_END
95
32
302
GRIDFORMAT
1
GRIDFORMAT_BEGIN
90
0
91
1
62
0
92
-2
340
0
93
0
40
0.045
309
GRIDFORMAT_END
309
TABLEFORMAT_END
1
CELLSTYLE_BEGIN
90
3
91
2
300
_DATA
309
CELLSTYLE_END
0
XRECORD
5
10A6
102
{ACAD_REACTORS
330
FF8
102
}
330
FF8
100
AcDbXrecord
280
1
102
ACAD_ROUNDTRIP_PRE2007_TABLESTYLE
90
512
91
0
1

92
512
93
0
2

94
512
95
0
3

0
XRECORD
5
108B
102
{ACAD_REACTORS
330
108A
102
}
330
108A
100
AcDbXrecord
280
1
102
RTVSPropertyOp0
70
1
102
RTVSPropertyOp1
70
1
102
RTVSPropertyOp2
70
1
102
RTVSPropertyOp3
70
1
102
RTVSPropertyOp4
70
1
102
RTVSPropertyOp5
70
1
102
RTVSPropertyOp6
70
1
102
RTVSPropertyOp7
70
1
102
RTVSPropertyOp8
70
1
102
RTVSPropertyOp9
70
1
102
RTVSPropertyOp10
70
1
102
RTVSPropertyOp11
70
1
102
RTVSPropertyOp12
70
1
102
RTVSPropertyOp13
70
1
102
RTVSPropertyOp14
70
1
102
RTVSPropertyOp15
70
1
102
RTVSPropertyOp16
70
1
102
RTVSPropertyOp17
70
1
102
RTVSPropertyOp18
70
1
102
RTVSPropertyOp19
70
1
102
RTVSPropertyOp20
70
1
102
RTVSPropertyOp21
70
1
102
RTVSPropertyOp22
70
1
102
RTVSPropertyOp23
70
1
102
RTVSPropertyOp24
70
1
102
RTVSPropertyOp25
70
1
102
RTVSPropertyOp26
70
1
102
RTVSPropertyOp27
70
1
0
XRECORD
5
108F
102
{ACAD_REACTORS
330
108E
102
}
330
108E
100
AcDbXrecord
280
1
102
RTVSPropertyOp0
70
1
102
RTVSPropertyOp1
70
1
102
RTVSPropertyOp2
70
1
102
RTVSPropertyOp3
70
1
102
RTVSPropertyOp4
70
1
102
RTVSPropertyOp5
70
1
102
RTVSPropertyOp6
70
1
102
RTVSPropertyOp7
70
1
102
RTVSPropertyOp8
70
1
102
RTVSPropertyOp9
70
1
102
RTVSPropertyOp10
70
1
102
RTVSPropertyOp11
70
1
102
RTVSPropertyOp12
70
1
102
RTVSPropertyOp13
70
1
102
RTVSPropertyOp14
70
1
102
RTVSPropertyOp15
70
1
102
RTVSPropertyOp16
70
1
102
RTVSPropertyOp17
70
1
102
RTVSPropertyOp18
70
1
102
RTVSPropertyOp19
70
1
102
RTVSPropertyOp20
70
1
102
RTVSPropertyOp21
70
1
102
RTVSPropertyOp22
70
1
102
RTVSPropertyOp23
70
1
102
RTVSPropertyOp24
70
1
102
RTVSPropertyOp25
70
1
102
RTVSPropertyOp26
70
1
102
RTVSPropertyOp27
70
1
0
XRECORD
5
108D
102
{ACAD_REACTORS
330
108C
102
}
330
108C
100
AcDbXrecord
280
1
102
RTVSPropertyOp0
70
1
102
RTVSPropertyOp1
70
1
102
RTVSPropertyOp2
70
1
102
RTVSPropertyOp3
70
1
102
RTVSPropertyOp4
70
1
102
RTVSPropertyOp5
70
1
102
RTVSPropertyOp6
70
1
102
RTVSPropertyOp7
70
1
102
RTVSPropertyOp8
70
1
102
RTVSPropertyOp9
70
1
102
RTVSPropertyOp10
70
1
102
RTVSPropertyOp11
70
1
102
RTVSPropertyOp12
70
1
102
RTVSPropertyOp13
70
1
102
RTVSPropertyOp14
70
1
102
RTVSPropertyOp15
70
1
102
RTVSPropertyOp16
70
1
102
RTVSPropertyOp17
70
1
102
RTVSPropertyOp18
70
1
102
RTVSPropertyOp19
70
1
102
RTVSPropertyOp20
70
1
102
RTVSPropertyOp21
70
1
102
RTVSPropertyOp22
70
1
102
RTVSPropertyOp23
70
1
102
RTVSPropertyOp24
70
1
102
RTVSPropertyOp25
70
1
102
RTVSPropertyOp26
70
1
102
RTVSPropertyOp27
70
1
0
XRECORD
5
1089
102
{ACAD_REACTORS
330
1088
102
}
330
1088
100
AcDbXrecord
280
1
102
RTVSPropertyOp0
70
1
102
RTVSPropertyOp1
70
1
102
RTVSPropertyOp2
70
1
102
RTVSPropertyOp3
70
1
102
RTVSPropertyOp4
70
1
102
RTVSPropertyOp5
70
1
102
RTVSPropertyOp6
70
1
102
RTVSPropertyOp7
70
1
102
RTVSPropertyOp8
70
1
102
RTVSPropertyOp9
70
1
102
RTVSPropertyOp10
70
1
102
RTVSPropertyOp11
70
1
102
RTVSPropertyOp12
70
1
102
RTVSPropertyOp13
70
1
102
RTVSPropertyOp14
70
1
102
RTVSPropertyOp15
70
1
102
RTVSPropertyOp16
70
1
102
RTVSPropertyOp17
70
1
102
RTVSPropertyOp18
70
1
102
RTVSPropertyOp19
70
1
102
RTVSPropertyOp20
70
1
102
RTVSPropertyOp21
70
1
102
RTVSPropertyOp22
70
1
102
RTVSPropertyOp23
70
1
102
RTVSPropertyOp24
70
1
102
RTVSPropertyOp25
70
1
102
RTVSPropertyOp26
70
1
102
RTVSPropertyOp27
70
1
0
XRECORD
5
1097
102
{ACAD_REACTORS
330
1096
102
}
330
1096
100
AcDbXrecord
280
1
102
RTVSPropertyOp0
70
1
102
RTVSPropertyOp1
70
1
102
RTVSPropertyOp2
70
1
102
RTVSPropertyOp3
70
1
102
RTVSPropertyOp4
70
1
102
RTVSPropertyOp5
70
1
102
RTVSPropertyOp6
70
1
102
RTVSPropertyOp7
70
1
102
RTVSPropertyOp8
70
1
102
RTVSPropertyOp9
70
1
102
RTVSPropertyOp10
70
1
102
RTVSPropertyOp11
70
1
102
RTVSPropertyOp12
70
1
102
RTVSPropertyOp13
70
1
102
RTVSPropertyOp14
70
1
102
RTVSPropertyOp15
70
1
102
RTVSPropertyOp16
70
1
102
RTVSPropertyOp17
70
1
102
RTVSPropertyOp18
70
1
102
RTVSPropertyOp19
70
1
102
RTVSPropertyOp20
70
1
102
RTVSPropertyOp21
70
1
102
RTVSPropertyOp22
70
1
102
RTVSPropertyOp23
70
1
102
RTVSPropertyOp24
70
1
102
RTVSPropertyOp25
70
1
102
RTVSPropertyOp26
70
1
102
RTVSPropertyOp27
70
1
0
XRECORD
5
109F
102
{ACAD_REACTORS
330
109E
102
}
330
109E
100
AcDbXrecord
280
1
102
RTVSPropertyOp0
70
1
102
RTVSPropertyOp1
70
1
102
RTVSPropertyOp2
70
1
102
RTVSPropertyOp3
70
1
102
RTVSPropertyOp4
70
1
102
RTVSPropertyOp5
70
1
102
RTVSPropertyOp6
70
1
102
RTVSPropertyOp7
70
1
102
RTVSPropertyOp8
70
1
102
RTVSPropertyOp9
70
1
102
RTVSPropertyOp10
70
1
102
RTVSPropertyOp11
70
1
102
RTVSPropertyOp12
70
1
102
RTVSPropertyOp13
70
1
102
RTVSPropertyOp14
70
1
102
RTVSPropertyOp15
70
1
102
RTVSPropertyOp16
70
1
102
RTVSPropertyOp17
70
1
102
RTVSPropertyOp18
70
1
102
RTVSPropertyOp19
70
1
102
RTVSPropertyOp20
70
1
102
RTVSPropertyOp21
70
1
102
RTVSPropertyOp22
70
1
102
RTVSPropertyOp23
70
1
102
RTVSPropertyOp24
70
1
102
RTVSPropertyOp25
70
1
102
RTVSPropertyOp26
70
1
102
RTVSPropertyOp27
70
1
0
XRECORD
5
1091
102
{ACAD_REACTORS
330
1090
102
}
330
1090
100
AcDbXrecord
280
1
102
RTVSPropertyOp0
70
1
102
RTVSPropertyOp1
70
1
102
RTVSPropertyOp2
70
1
102
RTVSPropertyOp3
70
1
102
RTVSPropertyOp4
70
1
102
RTVSPropertyOp5
70
1
102
RTVSPropertyOp6
70
1
102
RTVSPropertyOp7
70
1
102
RTVSPropertyOp8
70
1
102
RTVSPropertyOp9
70
1
102
RTVSPropertyOp10
70
1
102
RTVSPropertyOp11
70
1
102
RTVSPropertyOp12
70
1
102
RTVSPropertyOp13
70
1
102
RTVSPropertyOp14
70
1
102
RTVSPropertyOp15
70
1
102
RTVSPropertyOp16
70
1
102
RTVSPropertyOp17
70
1
102
RTVSPropertyOp18
70
1
102
RTVSPropertyOp19
70
1
102
RTVSPropertyOp20
70
1
102
RTVSPropertyOp21
70
1
102
RTVSPropertyOp22
70
1
102
RTVSPropertyOp23
70
1
102
RTVSPropertyOp24
70
1
102
RTVSPropertyOp25
70
1
102
RTVSPropertyOp26
70
1
102
RTVSPropertyOp27
70
1
0
XRECORD
5
1095
102
{ACAD_REACTORS
330
1094
102
}
330
1094
100
AcDbXrecord
280
1
102
RTVSPropertyOp0
70
1
102
RTVSPropertyOp1
70
1
102
RTVSPropertyOp2
70
1
102
RTVSPropertyOp3
70
1
102
RTVSPropertyOp4
70
1
102
RTVSPropertyOp5
70
1
102
RTVSPropertyOp6
70
1
102
RTVSPropertyOp7
70
1
102
RTVSPropertyOp8
70
1
102
RTVSPropertyOp9
70
1
102
RTVSPropertyOp10
70
1
102
RTVSPropertyOp11
70
1
102
RTVSPropertyOp12
70
1
102
RTVSPropertyOp13
70
1
102
RTVSPropertyOp14
70
1
102
RTVSPropertyOp15
70
1
102
RTVSPropertyOp16
70
1
102
RTVSPropertyOp17
70
1
102
RTVSPropertyOp18
70
1
102
RTVSPropertyOp19
70
1
102
RTVSPropertyOp20
70
1
102
RTVSPropertyOp21
70
1
102
RTVSPropertyOp22
70
1
102
RTVSPropertyOp23
70
1
102
RTVSPropertyOp24
70
1
102
RTVSPropertyOp25
70
1
102
RTVSPropertyOp26
70
1
102
RTVSPropertyOp27
70
1
0
XRECORD
5
10A5
102
{ACAD_REACTORS
330
10A4
102
}
330
10A4
100
AcDbXrecord
280
1
102
RTVSPropertyOp0
70
0
102
RTVSPropertyOp1
70
0
102
RTVSPropertyOp2
70
0
102
RTVSPropertyOp3
70
0
102
RTVSPropertyOp4
70
0
102
RTVSPropertyOp5
70
0
102
RTVSPropertyOp6
70
0
102
RTVSPropertyOp7
70
0
102
RTVSPropertyOp8
70
0
102
RTVSPropertyOp9
70
0
102
RTVSPropertyOp10
70
0
102
RTVSPropertyOp11
70
0
102
RTVSPropertyOp12
70
0
102
RTVSPropertyOp13
70
0
102
RTVSPropertyOp14
70
2
102
RTVSPropertyOp15
70
0
102
RTVSPropertyOp16
70
0
102
RTVSPropertyOp17
70
0
102
RTVSPropertyOp18
70
0
102
RTVSPropertyOp19
70
0
102
RTVSPropertyOp20
70
0
102
RTVSPropertyOp21
70
0
102
RTVSPropertyOp22
70
0
102
RTVSPropertyOp23
70
0
102
RTVSPropertyOp24
70
0
102
RTVSPropertyOp25
70
0
102
RTVSPropertyOp26
70
0
102
RTVSPropertyOp27
70
0
0
XRECORD
5
109D
102
{ACAD_REACTORS
330
109C
102
}
330
109C
100
AcDbXrecord
280
1
102
RTVSPropertyOp0
70
1
102
RTVSPropertyOp1
70
1
102
RTVSPropertyOp2
70
1
102
RTVSPropertyOp3
70
1
102
RTVSPropertyOp4
70
1
102
RTVSPropertyOp5
70
1
102
RTVSPropertyOp6
70
1
102
RTVSPropertyOp7
70
1
102
RTVSPropertyOp8
70
1
102
RTVSPropertyOp9
70
1
102
RTVSPropertyOp10
70
1
102
RTVSPropertyOp11
70
1
102
RTVSPropertyOp12
70
1
102
RTVSPropertyOp13
70
1
102
RTVSPropertyOp14
70
1
102
RTVSPropertyOp15
70
1
102
RTVSPropertyOp16
70
1
102
RTVSPropertyOp17
70
1
102
RTVSPropertyOp18
70
1
102
RTVSPropertyOp19
70
1
102
RTVSPropertyOp20
70
1
102
RTVSPropertyOp21
70
1
102
RTVSPropertyOp22
70
1
102
RTVSPropertyOp23
70
1
102
RTVSPropertyOp24
70
1
102
RTVSPropertyOp25
70
1
102
RTVSPropertyOp26
70
1
102
RTVSPropertyOp27
70
1
0
XRECORD
5
1081
102
{ACAD_REACTORS
330
1080
102
}
330
1080
100
AcDbXrecord
280
1
102
RTVSPropertyOp0
70
1
102
RTVSPropertyOp1
70
1
102
RTVSPropertyOp2
70
1
102
RTVSPropertyOp3
70
1
102
RTVSPropertyOp4
70
1
102
RTVSPropertyOp5
70
1
102
RTVSPropertyOp6
70
1
102
RTVSPropertyOp7
70
1
102
RTVSPropertyOp8
70
1
102
RTVSPropertyOp9
70
1
102
RTVSPropertyOp10
70
1
102
RTVSPropertyOp11
70
1
102
RTVSPropertyOp12
70
1
102
RTVSPropertyOp13
70
1
102
RTVSPropertyOp14
70
1
102
RTVSPropertyOp15
70
1
102
RTVSPropertyOp16
70
1
102
RTVSPropertyOp17
70
1
102
RTVSPropertyOp18
70
1
102
RTVSPropertyOp19
70
1
102
RTVSPropertyOp20
70
1
102
RTVSPropertyOp21
70
1
102
RTVSPropertyOp22
70
1
102
RTVSPropertyOp23
70
1
102
RTVSPropertyOp24
70
1
102
RTVSPropertyOp25
70
1
102
RTVSPropertyOp26
70
1
102
RTVSPropertyOp27
70
1
0
XRECORD
5
1083
102
{ACAD_REACTORS
330
1082
102
}
330
1082
100
AcDbXrecord
280
1
102
RTVSPropertyOp0
70
1
102
RTVSPropertyOp1
70
1
102
RTVSPropertyOp2
70
1
102
RTVSPropertyOp3
70
1
102
RTVSPropertyOp4
70
1
102
RTVSPropertyOp5
70
1
102
RTVSPropertyOp6
70
1
102
RTVSPropertyOp7
70
1
102
RTVSPropertyOp8
70
1
102
RTVSPropertyOp9
70
1
102
RTVSPropertyOp10
70
1
102
RTVSPropertyOp11
70
1
102
RTVSPropertyOp12
70
1
102
RTVSPropertyOp13
70
1
102
RTVSPropertyOp14
70
1
102
RTVSPropertyOp15
70
1
102
RTVSPropertyOp16
70
1
102
RTVSPropertyOp17
70
1
102
RTVSPropertyOp18
70
1
102
RTVSPropertyOp19
70
1
102
RTVSPropertyOp20
70
1
102
RTVSPropertyOp21
70
1
102
RTVSPropertyOp22
70
1
102
RTVSPropertyOp23
70
1
102
RTVSPropertyOp24
70
1
102
RTVSPropertyOp25
70
1
102
RTVSPropertyOp26
70
1
102
RTVSPropertyOp27
70
1
0
XRECORD
5
1085
102
{ACAD_REACTORS
330
1084
102
}
330
1084
100
AcDbXrecord
280
1
102
RTVSPropertyOp0
70
1
102
RTVSPropertyOp1
70
1
102
RTVSPropertyOp2
70
1
102
RTVSPropertyOp3
70
1
102
RTVSPropertyOp4
70
1
102
RTVSPropertyOp5
70
1
102
RTVSPropertyOp6
70
1
102
RTVSPropertyOp7
70
1
102
RTVSPropertyOp8
70
1
102
RTVSPropertyOp9
70
1
102
RTVSPropertyOp10
70
1
102
RTVSPropertyOp11
70
1
102
RTVSPropertyOp12
70
1
102
RTVSPropertyOp13
70
1
102
RTVSPropertyOp14
70
1
102
RTVSPropertyOp15
70
1
102
RTVSPropertyOp16
70
1
102
RTVSPropertyOp17
70
1
102
RTVSPropertyOp18
70
1
102
RTVSPropertyOp19
70
1
102
RTVSPropertyOp20
70
1
102
RTVSPropertyOp21
70
1
102
RTVSPropertyOp22
70
1
102
RTVSPropertyOp23
70
1
102
RTVSPropertyOp24
70
1
102
RTVSPropertyOp25
70
1
102
RTVSPropertyOp26
70
1
102
RTVSPropertyOp27
70
1
0
XRECORD
5
1087
102
{ACAD_REACTORS
330
1086
102
}
330
1086
100
AcDbXrecord
280
1
102
RTVSPropertyOp0
70
1
102
RTVSPropertyOp1
70
1
102
RTVSPropertyOp2
70
1
102
RTVSPropertyOp3
70
1
102
RTVSPropertyOp4
70
1
102
RTVSPropertyOp5
70
1
102
RTVSPropertyOp6
70
1
102
RTVSPropertyOp7
70
1
102
RTVSPropertyOp8
70
1
102
RTVSPropertyOp9
70
1
102
RTVSPropertyOp10
70
1
102
RTVSPropertyOp11
70
1
102
RTVSPropertyOp12
70
1
102
RTVSPropertyOp13
70
1
102
RTVSPropertyOp14
70
1
102
RTVSPropertyOp15
70
1
102
RTVSPropertyOp16
70
1
102
RTVSPropertyOp17
70
1
102
RTVSPropertyOp18
70
1
102
RTVSPropertyOp19
70
1
102
RTVSPropertyOp20
70
1
102
RTVSPropertyOp21
70
1
102
RTVSPropertyOp22
70
1
102
RTVSPropertyOp23
70
1
102
RTVSPropertyOp24
70
1
102
RTVSPropertyOp25
70
1
102
RTVSPropertyOp26
70
1
102
RTVSPropertyOp27
70
1
0
XRECORD
5
10A1
102
{ACAD_REACTORS
330
10A0
102
}
330
10A0
100
AcDbXrecord
280
1
102
RTVSPropertyOp0
70
0
102
RTVSPropertyOp1
70
0
102
RTVSPropertyOp2
70
0
102
RTVSPropertyOp3
70
0
102
RTVSPropertyOp4
70
0
102
RTVSPropertyOp5
70
0
102
RTVSPropertyOp6
70
0
102
RTVSPropertyOp7
70
0
102
RTVSPropertyOp8
70
0
102
RTVSPropertyOp9
70
0
102
RTVSPropertyOp10
70
0
102
RTVSPropertyOp11
70
0
102
RTVSPropertyOp12
70
0
102
RTVSPropertyOp13
70
0
102
RTVSPropertyOp14
70
2
102
RTVSPropertyOp15
70
0
102
RTVSPropertyOp16
70
0
102
RTVSPropertyOp17
70
0
102
RTVSPropertyOp18
70
0
102
RTVSPropertyOp19
70
0
102
RTVSPropertyOp20
70
0
102
RTVSPropertyOp21
70
0
102
RTVSPropertyOp22
70
0
102
RTVSPropertyOp23
70
0
102
RTVSPropertyOp24
70
0
102
RTVSPropertyOp25
70
0
102
RTVSPropertyOp26
70
0
102
RTVSPropertyOp27
70
0
0
XRECORD
5
109B
102
{ACAD_REACTORS
330
109A
102
}
330
109A
100
AcDbXrecord
280
1
102
RTVSPropertyOp0
70
1
102
RTVSPropertyOp1
70
1
102
RTVSPropertyOp2
70
1
102
RTVSPropertyOp3
70
1
102
RTVSPropertyOp4
70
1
102
RTVSPropertyOp5
70
1
102
RTVSPropertyOp6
70
1
102
RTVSPropertyOp7
70
1
102
RTVSPropertyOp8
70
1
102
RTVSPropertyOp9
70
1
102
RTVSPropertyOp10
70
1
102
RTVSPropertyOp11
70
1
102
RTVSPropertyOp12
70
1
102
RTVSPropertyOp13
70
1
102
RTVSPropertyOp14
70
1
102
RTVSPropertyOp15
70
1
102
RTVSPropertyOp16
70
1
102
RTVSPropertyOp17
70
1
102
RTVSPropertyOp18
70
1
102
RTVSPropertyOp19
70
1
102
RTVSPropertyOp20
70
1
102
RTVSPropertyOp21
70
1
102
RTVSPropertyOp22
70
1
102
RTVSPropertyOp23
70
1
102
RTVSPropertyOp24
70
1
102
RTVSPropertyOp25
70
1
102
RTVSPropertyOp26
70
1
102
RTVSPropertyOp27
70
1
0
XRECORD
5
10A3
102
{ACAD_REACTORS
330
10A2
102
}
330
10A2
100
AcDbXrecord
280
1
102
RTVSPropertyOp0
70
0
102
RTVSPropertyOp1
70
0
102
RTVSPropertyOp2
70
0
102
RTVSPropertyOp3
70
0
102
RTVSPropertyOp4
70
0
102
RTVSPropertyOp5
70
0
102
RTVSPropertyOp6
70
0
102
RTVSPropertyOp7
70
0
102
RTVSPropertyOp8
70
0
102
RTVSPropertyOp9
70
0
102
RTVSPropertyOp10
70
0
102
RTVSPropertyOp11
70
0
102
RTVSPropertyOp12
70
0
102
RTVSPropertyOp13
70
0
102
RTVSPropertyOp14
70
2
102
RTVSPropertyOp15
70
0
102
RTVSPropertyOp16
70
0
102
RTVSPropertyOp17
70
0
102
RTVSPropertyOp18
70
0
102
RTVSPropertyOp19
70
0
102
RTVSPropertyOp20
70
0
102
RTVSPropertyOp21
70
0
102
RTVSPropertyOp22
70
0
102
RTVSPropertyOp23
70
0
102
RTVSPropertyOp24
70
0
102
RTVSPropertyOp25
70
0
102
RTVSPropertyOp26
70
0
102
RTVSPropertyOp27
70
0
0
XRECORD
5
1093
102
{ACAD_REACTORS
330
1092
102
}
330
1092
100
AcDbXrecord
280
1
102
RTVSPropertyOp0
70
1
102
RTVSPropertyOp1
70
1
102
RTVSPropertyOp2
70
1
102
RTVSPropertyOp3
70
1
102
RTVSPropertyOp4
70
1
102
RTVSPropertyOp5
70
1
102
RTVSPropertyOp6
70
1
102
RTVSPropertyOp7
70
1
102
RTVSPropertyOp8
70
1
102
RTVSPropertyOp9
70
1
102
RTVSPropertyOp10
70
1
102
RTVSPropertyOp11
70
1
102
RTVSPropertyOp12
70
1
102
RTVSPropertyOp13
70
1
102
RTVSPropertyOp14
70
1
102
RTVSPropertyOp15
70
1
102
RTVSPropertyOp16
70
1
102
RTVSPropertyOp17
70
1
102
RTVSPropertyOp18
70
1
102
RTVSPropertyOp19
70
1
102
RTVSPropertyOp20
70
1
102
RTVSPropertyOp21
70
1
102
RTVSPropertyOp22
70
1
102
RTVSPropertyOp23
70
1
102
RTVSPropertyOp24
70
1
102
RTVSPropertyOp25
70
1
102
RTVSPropertyOp26
70
1
102
RTVSPropertyOp27
70
1
0
XRECORD
5
1099
102
{ACAD_REACTORS
330
1098
102
}
330
1098
100
AcDbXrecord
280
1
102
RTVSPropertyOp0
70
1
102
RTVSPropertyOp1
70
1
102
RTVSPropertyOp2
70
1
102
RTVSPropertyOp3
70
1
102
RTVSPropertyOp4
70
1
102
RTVSPropertyOp5
70
1
102
RTVSPropertyOp6
70
1
102
RTVSPropertyOp7
70
1
102
RTVSPropertyOp8
70
1
102
RTVSPropertyOp9
70
1
102
RTVSPropertyOp10
70
1
102
RTVSPropertyOp11
70
1
102
RTVSPropertyOp12
70
1
102
RTVSPropertyOp13
70
1
102
RTVSPropertyOp14
70
1
102
RTVSPropertyOp15
70
1
102
RTVSPropertyOp16
70
1
102
RTVSPropertyOp17
70
1
102
RTVSPropertyOp18
70
1
102
RTVSPropertyOp19
70
1
102
RTVSPropertyOp20
70
1
102
RTVSPropertyOp21
70
1
102
RTVSPropertyOp22
70
1
102
RTVSPropertyOp23
70
1
102
RTVSPropertyOp24
70
1
102
RTVSPropertyOp25
70
1
102
RTVSPropertyOp26
70
1
102
RTVSPropertyOp27
70
1
0
ENDSEC
0
EOF
