0
SECTION
2
HEADER
9
$ACADVER
1
AC1015
9
$ACADMAINTVER
70
20
9
$DWGCODEPAGE
3
ANSI_1252
9
$INSBASE
10
0.0
20
0.0
30
0.0
9
$EXTMIN
10
-150.000000000000
20
-105.000000000000
30
0.0
9
$EXTMAX
10
150.000000000000
20
105.000000000000
30
0.0
9
$LIMMIN
10
0.0
20
0.0
9
$LIMMAX
10
12.0
20
9.0
9
$ORTHOMODE
70
0
9
$REGENMODE
70
1
9
$FILLMODE
70
1
9
$QTEXTMODE
70
0
9
$MIRRTEXT
70
1
9
$LTSCALE
40
1.0
9
$ATTMODE
70
1
9
$TEXTSIZE
40
0.2
9
$TRACEWID
40
0.05
9
$TEXTSTYLE
7
Standard
9
$CLAYER
8
0
9
$CELTYPE
6
ByLayer
9
$CECOLOR
62
256
9
$CELTSCALE
40
1.0
9
$DISPSILH
70
0
9
$DIMSCALE
40
1.0
9
$DIMASZ
40
2.5
9
$DIMEXO
40
0.625
9
$DIMDLI
40
0.38
9
$DIMRND
40
0.0
9
$DIMDLE
40
0.0
9
$DIMEXE
40
1.25
9
$DIMTP
40
0.0
9
$DIMTM
40
0.000000001
9
$DIMTXT
40
2.5
9
$DIMCEN
40
0.09
9
$DIMTSZ
40
0.0
9
$DIMTOL
70
1
9
$DIMLIM
70
0
9
$DIMTIH
70
0
9
$DIMTOH
70
0
9
$DIMSE1
70
0
9
$DIMSE2
70
0
9
$DIMTAD
70
1
9
$DIMZIN
70
0
9
$DIMBLK
1
VDDIM_DEFAULT
9
$DIMASO
70
1
9
$DIMSHO
70
1
9
$DIMPOST
1

9
$DIMAPOST
1

9
$DIMALT
70
0
9
$DIMALTD
70
2
9
$DIMALTF
40
25.4
9
$DIMLFAC
40
1.00000000000000
9
$DIMTOFL
70
0
9
$DIMTVP
40
0.0
9
$DIMTIX
70
0
9
$DIMSOXD
70
0
9
$DIMSAH
70
0
9
$DIMBLK1
1

9
$DIMBLK2
1

9
$DIMSTYLE
2
BEM-ISBE
9
$DIMCLRD
70
0
9
$DIMCLRE
70
0
9
$DIMCLRT
70
0
9
$DIMTFAC
40
0.5
9
$DIMGAP
40
0.625
9
$DIMJUST
70
0
9
$DIMSD1
70
0
9
$DIMSD2
70
0
9
$DIMTOLJ
70
1
9
$DIMTZIN
70
0
9
$DIMALTZ
70
0
9
$DIMALTTZ
70
0
9
$DIMUPT
70
0
9
$DIMDEC
70
3
9
$DIMTDEC
70
3
9
$DIMALTU
70
2
9
$DIMALTTD
70
2
9
$DIMTXSTY
7
Standard
9
$DIMAUNIT
70
0
9
$DIMADEC
70
3
9
$DIMALTRND
40
0.0
9
$DIMAZIN
70
0
9
$DIMDSEP
70
46
9
$DIMATFIT
70
3
9
$DIMFRAC
70
0
9
$DIMLDRBLK
1

9
$DIMLUNIT
70
2
9
$DIMLWD
70
-2
9
$DIMLWE
70
-2
9
$DIMTMOVE
70
0
9
$LUNITS
70
2
9
$LUPREC
70
4
9
$SKETCHINC
40
0.1
9
$FILLETRAD
40
0.5
9
$AUNITS
70
0
9
$AUPREC
70
0
9
$MENU
1
.
9
$ELEVATION
40
0.0
9
$PELEVATION
40
0.0
9
$THICKNESS
40
0.0
9
$LIMCHECK
70
0
9
$CHAMFERA
40
0.5
9
$CHAMFERB
40
0.5
9
$CHAMFERC
40
1.0
9
$CHAMFERD
40
0.0
9
$SKPOLY
70
0
9
$TDCREATE
40
0.0
9
$TDUCREATE
40
0.0
9
$TDUPDATE
40
0.0
9
$TDUUPDATE
40
0.0
9
$TDINDWG
40
0.0
9
$TDUSRTIMER
40
0.0
9
$USRTIMER
70
1
9
$ANGBASE
50
0.0
9
$ANGDIR
70
0
9
$PDMODE
70
0
9
$PDSIZE
40
0.0
9
$PLINEWID
40
0.0
9
$SPLFRAME
70
0
9
$SPLINETYPE
70
6
9
$SPLINESEGS
70
8
9
$HANDSEED
5
10AB
9
$SURFTAB1
70
6
9
$SURFTAB2
70
6
9
$SURFTYPE
70
6
9
$SURFU
70
6
9
$SURFV
70
6
9
$UCSBASE
2

9
$UCSNAME
2

9
$UCSORG
10
0.0
20
0.0
30
0.0
9
$UCSXDIR
10
1.0
20
0.0
30
0.0
9
$UCSYDIR
10
0.0
20
1.0
30
0.0
9
$UCSORTHOREF
2

9
$UCSORTHOVIEW
70
0
9
$UCSORGTOP
10
0.0
20
0.0
30
0.0
9
$UCSORGBOTTOM
10
0.0
20
0.0
30
0.0
9
$UCSORGLEFT
10
0.0
20
0.0
30
0.0
9
$UCSORGRIGHT
10
0.0
20
0.0
30
0.0
9
$UCSORGFRONT
10
0.0
20
0.0
30
0.0
9
$UCSORGBACK
10
0.0
20
0.0
30
0.0
9
$PUCSBASE
2

9
$PUCSNAME
2

9
$PUCSORG
10
0.0
20
0.0
30
0.0
9
$PUCSXDIR
10
1.0
20
0.0
30
0.0
9
$PUCSYDIR
10
0.0
20
1.0
30
0.0
9
$PUCSORTHOREF
2

9
$PUCSORTHOVIEW
70
0
9
$PUCSORGTOP
10
0.0
20
0.0
30
0.0
9
$PUCSORGBOTTOM
10
0.0
20
0.0
30
0.0
9
$PUCSORGLEFT
10
0.0
20
0.0
30
0.0
9
$PUCSORGRIGHT
10
0.0
20
0.0
30
0.0
9
$PUCSORGFRONT
10
0.0
20
0.0
30
0.0
9
$PUCSORGBACK
10
0.0
20
0.0
30
0.0
9
$USERI1
70
0
9
$USERI2
70
0
9
$USERI3
70
0
9
$USERI4
70
0
9
$USERI5
70
0
9
$USERR1
40
0.0
9
$USERR2
40
0.0
9
$USERR3
40
0.0
9
$USERR4
40
0.0
9
$USERR5
40
0.0
9
$WORLDVIEW
70
1
9
$SHADEDGE
70
3
9
$SHADEDIF
70
70
9
$TILEMODE
70
1
9
$MAXACTVP
70
64
9
$PINSBASE
10
0.0
20
0.0
30
0.0
9
$PLIMCHECK
70
0
9
$PEXTMIN
10
1.000000000000000E+20
20
1.000000000000000E+20
30
1.000000000000000E+20
9
$PEXTMAX
10
-1.000000000000000E+20
20
-1.000000000000000E+20
30
-1.000000000000000E+20
9
$PLIMMIN
10
0.0
20
0.0
9
$PLIMMAX
10
12.0
20
9.0
9
$UNITMODE
70
0
9
$VISRETAIN
70
1
9
$PLINEGEN
70
0
9
$PSLTSCALE
70
1
9
$TREEDEPTH
70
3020
9
$CMLSTYLE
2
Standard
9
$CMLJUST
70
0
9
$CMLSCALE
40
1.0
9
$PROXYGRAPHICS
70
1
9
$MEASUREMENT
70
0
9
$CELWEIGHT
370
-1
9
$ENDCAPS
280
0
9
$JOINSTYLE
280
0
9
$LWDISPLAY
290
0
9
$INSUNITS
70
4
9
$HYPERLINKBASE
1

9
$STYLESHEET
1

9
$XEDIT
290
1
9
$CEPSNTYPE
380
0
9
$PSTYLEMODE
290
0
9
$FINGERPRINTGUID
2
{FAEB1C30-E019-11D5-929B-00C0DF256EC4}
9
$VERSIONGUID
2
{04C5C4E4-4947-4D90-8812-D401569E61F7}
9
$EXTNAMES
290
1
9
$PSVPSCALE
40
0.0
9
$OLESTARTUP
290
0
0
ENDSEC
0
SECTION
2
CLASSES
0
CLASS
1
ACDBDICTIONARYWDFLT
2
AcDbDictionaryWithDefault
3
ObjectDBX Classes
90
0
280
0
281
0
0
CLASS
1
ACDBPLACEHOLDER
2
AcDbPlaceHolder
3
ObjectDBX Classes
90
0
280
0
281
0
0
CLASS
1
LAYOUT
2
AcDbLayout
3
ObjectDBX Classes
90
0
280
0
281
0
0
CLASS
1
MATERIAL
2
AcDbMaterial
3
ObjectDBX Classes
90
1153
280
0
281
0
0
CLASS
1
VISUALSTYLE
2
AcDbVisualStyle
3
ObjectDBX Classes
90
4095
280
0
281
0
0
CLASS
1
TABLESTYLE
2
AcDbTableStyle
3
ObjectDBX Classes
90
4095
280
0
281
0
0
CLASS
1
SCALE
2
AcDbScale
3
ObjectDBX Classes
90
1153
280
0
281
0
0
CLASS
1
MLEADERSTYLE
2
AcDbMLeaderStyle
3
ACDB_MLEADERSTYLE_CLASS
90
4095
280
0
281
0
0
CLASS
1
DICTIONARYVAR
2
AcDbDictionaryVar
3
ObjectDBX Classes
90
0
280
0
281
0
0
CLASS
1
CELLSTYLEMAP
2
AcDbCellStyleMap
3
ObjectDBX Classes
90
1152
280
0
281
0
0
ENDSEC
0
SECTION
2
TABLES
0
TABLE
2
VPORT
5
24A
330
0
100
AcDbSymbolTable
70
1
0
VPORT
5
26B
330
24A
100
AcDbSymbolTableRecord
100
AcDbViewportTableRecord
2
*Active
70
0
10
0.0
20
0.0
11
1.0
21
1.0
12
0.000000000000000
22
0.000000000000000
13
0.0
23
0.0
14
10.0
24
10.0
15
10.0
25
10.0
16
0.0
26
0.0
36
1.0
17
0.0
27
0.0
37
0.0
40
210.000000000000
41
1.42857142857143
42
1.0
43
0.0
44
0.0
50
0.0
51
0.0000000000007958
71
0
72
100
73
1
74
3
75
0
76
0
77
0
78
1
281
0
65
1
110
0.0
120
0.0
130
0.0
111
1.0
121
0.0
131
0.0
112
0.0
122
1.0
132
0.0
79
0
146
0.0
0
ENDTAB
0
TABLE
2
LTYPE
5
247
330
0
100
AcDbSymbolTable
70
25
0
LTYPE
5
256
330
247
100
AcDbSymbolTableRecord
100
AcDbLinetypeTableRecord
2
ByBlock
70
0
3

72
65
73
0
40
0.0
0
LTYPE
5
257
330
247
100
AcDbSymbolTableRecord
100
AcDbLinetypeTableRecord
2
ByLayer
70
0
3

72
65
73
0
40
0.0
0
LTYPE
5
258
330
247
100
AcDbSymbolTableRecord
100
AcDbLinetypeTableRecord
2
Continuous
70
0
3
Solid line
72
65
73
0
40
0.0
0
LTYPE
5
273
330
247
100
AcDbSymbolTableRecord
100
AcDbLinetypeTableRecord
2
CENTER
70
0
3
Center ____ _ ____ _ ____ _ ____ _ ____ _ ____
72
65
73
4
40
2.0
49
1.25
74
0
49
-0.25
74
0
49
0.25
74
0
49
-0.25
74
0
0
LTYPE
5
274
330
247
100
AcDbSymbolTableRecord
100
AcDbLinetypeTableRecord
2
DASHDOT
70
0
3
Dashdot __ . __ . __ . __ . __ . __ . __ . __
72
65
73
4
40
1.0
49
0.5
74
0
49
-0.25
74
0
49
0.0
74
0
49
-0.25
74
0
0
LTYPE
5
275
330
247
100
AcDbSymbolTableRecord
100
AcDbLinetypeTableRecord
2
DASHED
70
0
3
Dashed __ __ __ __ __ __ __ __ __ __ __ __ __ _
72
65
73
2
40
0.75
49
0.5
74
0
49
-0.25
74
0
0
LTYPE
5
276
330
247
100
AcDbSymbolTableRecord
100
AcDbLinetypeTableRecord
2
HIDDEN
70
0
3
Hidden __ __ __ __ __ __ __ __ __ __ __ __ __ __
72
65
73
2
40
0.375
49
0.25
74
0
49
-0.125
74
0
0
LTYPE
5
277
330
247
100
AcDbSymbolTableRecord
100
AcDbLinetypeTableRecord
2
HIDDEN2
70
0
3
Hidden2 _ _ _ _ _ _ _ _ _ _ _ _ _ _ _ _ _
72
65
73
2
40
0.1875
49
0.125
74
0
49
-0.0625
74
0
0
LTYPE
5
278
330
247
100
AcDbSymbolTableRecord
100
AcDbLinetypeTableRecord
2
BORDER
70
0
3
Border __ __ . __ __ . __ __ . __ __ . __ __ .
72
65
73
6
40
1.75
49
0.5
74
0
49
-0.25
74
0
49
0.5
74
0
49
-0.25
74
0
49
0.0
74
0
49
-0.25
74
0
0
LTYPE
5
279
330
247
100
AcDbSymbolTableRecord
100
AcDbLinetypeTableRecord
2
BORDER2
70
0
3
Border2 __.__.__.__.__.__.__.__.__.__.__.
72
65
73
6
40
0.875
49
0.25
74
0
49
-0.125
74
0
49
0.25
74
0
49
-0.125
74
0
49
0.0
74
0
49
-0.125
74
0
0
LTYPE
5
27A
330
247
100
AcDbSymbolTableRecord
100
AcDbLinetypeTableRecord
2
BORDERX2
70
0
3
Borderx2  ____  ____  .  ____  ____  .  ___
72
65
73
6
40
3.5
49
1.0
74
0
49
-0.5
74
0
49
1.0
74
0
49
-0.5
74
0
49
0.0
74
0
49
-0.5
74
0
0
LTYPE
5
27B
330
247
100
AcDbSymbolTableRecord
100
AcDbLinetypeTableRecord
2
CENTER2
70
0
3
Center2  ___ _ ___ _ ___ _ ___ _ ___ _ ___
72
65
73
4
40
1.125
49
0.75
74
0
49
-0.125
74
0
49
0.125
74
0
49
-0.125
74
0
0
LTYPE
5
27C
330
247
100
AcDbSymbolTableRecord
100
AcDbLinetypeTableRecord
2
CENTERX2
70
0
3
Centerx2  ________  __  ________  __  _____
72
65
73
4
40
4.0
49
2.5
74
0
49
-0.5
74
0
49
0.5
74
0
49
-0.5
74
0
0
LTYPE
5
27D
330
247
100
AcDbSymbolTableRecord
100
AcDbLinetypeTableRecord
2
DASHDOT2
70
0
3
Dashdot2  _._._._._._._._._._._._._._._.
72
65
73
4
40
0.5
49
0.25
74
0
49
-0.125
74
0
49
0.0
74
0
49
-0.125
74
0
0
LTYPE
5
27E
330
247
100
AcDbSymbolTableRecord
100
AcDbLinetypeTableRecord
2
DASHDOTX2
70
0
3
Dashdotx2 ____  .  ____  .  ____  .  ___
72
65
73
4
40
2.0
49
1.0
74
0
49
-0.5
74
0
49
0.0
74
0
49
-0.5
74
0
0
LTYPE
5
27F
330
247
100
AcDbSymbolTableRecord
100
AcDbLinetypeTableRecord
2
DASHED2
70
0
3
Dashed2 _ _ _ _ _ _ _ _ _ _ _ _ _ _ _ _ _
72
65
73
2
40
0.375
49
0.25
74
0
49
-0.125
74
0
0
LTYPE
5
280
330
247
100
AcDbSymbolTableRecord
100
AcDbLinetypeTableRecord
2
DASHEDX2
70
0
3
Dashedx2 ____  ____  ____  ____  ____  ___
72
65
73
2
40
1.5
49
1.0
74
0
49
-0.5
74
0
0
LTYPE
5
281
330
247
100
AcDbSymbolTableRecord
100
AcDbLinetypeTableRecord
2
DIVIDE
70
0
3
Divide ____ . . ____ . . ____ . . ____ . . ____
72
65
73
6
40
1.25
49
0.5
74
0
49
-0.25
74
0
49
0.0
74
0
49
-0.25
74
0
49
0.0
74
0
49
-0.25
74
0
0
LTYPE
5
282
330
247
100
AcDbSymbolTableRecord
100
AcDbLinetypeTableRecord
2
DIVIDE2
70
0
3
Divide2 __..__..__..__..__..__..__..__.._
72
65
73
6
40
0.625
49
0.25
74
0
49
-0.125
74
0
49
0.0
74
0
49
-0.125
74
0
49
0.0
74
0
49
-0.125
74
0
0
LTYPE
5
283
330
247
100
AcDbSymbolTableRecord
100
AcDbLinetypeTableRecord
2
DIVIDEX2
70
0
3
Dividex2 ________  .  .  ________  .  .  _
72
65
73
6
40
2.5
49
1.0
74
0
49
-0.5
74
0
49
0.0
74
0
49
-0.5
74
0
49
0.0
74
0
49
-0.5
74
0
0
LTYPE
5
284
330
247
100
AcDbSymbolTableRecord
100
AcDbLinetypeTableRecord
2
DOT
70
0
3
Dot . . . . . . . . . . . . . . . . . . . . . . . .
72
65
73
2
40
0.25
49
0.0
74
0
49
-0.25
74
0
0
LTYPE
5
285
330
247
100
AcDbSymbolTableRecord
100
AcDbLinetypeTableRecord
2
DOT2
70
0
3
Dot2 ........................................
72
65
73
2
40
0.125
49
0.0
74
0
49
-0.125
74
0
0
LTYPE
5
286
330
247
100
AcDbSymbolTableRecord
100
AcDbLinetypeTableRecord
2
DOTX2
70
0
3
Dotx2 .  .  .  .  .  .  .  .  .  .  .  .  .  .
72
65
73
2
40
0.5
49
0.0
74
0
49
-0.5
74
0
0
LTYPE
5
287
330
247
100
AcDbSymbolTableRecord
100
AcDbLinetypeTableRecord
2
HIDDENX2
70
0
3
Hiddenx2 ____ ____ ____ ____ ____ ____ ____
72
65
73
2
40
0.75
49
0.5
74
0
49
-0.25
74
0
0
LTYPE
5
288
330
247
100
AcDbSymbolTableRecord
100
AcDbLinetypeTableRecord
2
PHANTOM
70
0
3
Phantom ______  __  __  ______  __  __  ______
72
65
73
6
40
2.5
49
1.25
74
0
49
-0.25
74
0
49
0.25
74
0
49
-0.25
74
0
49
0.25
74
0
49
-0.25
74
0
0
LTYPE
5
289
330
247
100
AcDbSymbolTableRecord
100
AcDbLinetypeTableRecord
2
PHANTOM2
70
0
3
Phantom2 ___ _ _ ___ _ _ ___ _ _ ___ _ _
72
65
73
6
40
1.25
49
0.625
74
0
49
-0.125
74
0
49
0.125
74
0
49
-0.125
74
0
49
0.125
74
0
49
-0.125
74
0
0
LTYPE
5
28A
330
247
100
AcDbSymbolTableRecord
100
AcDbLinetypeTableRecord
2
PHANTOMX2
70
0
3
Phantomx2 ____________    ____    ____   _
72
65
73
6
40
5.0
49
2.5
74
0
49
-0.5
74
0
49
0.5
74
0
49
-0.5
74
0
49
0.5
74
0
49
-0.5
74
0
0
ENDTAB
0
TABLE
2
LAYER
5
244
330
0
100
AcDbSymbolTable
70
6
0
LAYER
5
252
330
244
100
AcDbSymbolTableRecord
100
AcDbLayerTableRecord
2
0
70
0
62
7
6
Continuous
370
0
390
251
0
LAYER
5
23F
330
244
100
AcDbSymbolTableRecord
100
AcDbLayerTableRecord
2
Bemassung
70
0
 62
   7
6
Continuous
370
0
390
251
0
LAYER
5
240
330
244
100
AcDbSymbolTableRecord
100
AcDbLayerTableRecord
2
Rahmen
70
0
 62
   7
6
Continuous
370
0
390
251
0
LAYER
5
241
330
244
100
AcDbSymbolTableRecord
100
AcDbLayerTableRecord
2
Geo
70
0
 62
   7
6
Continuous
370
0
390
251
0
LAYER
5
33A
330
244
100
AcDbSymbolTableRecord
100
AcDbLayerTableRecord
2
Defpoints
70
0
62
7
6
Continuous
290
0
370
-3
390
251
0
LAYER
5
57E
330
244
100
AcDbSymbolTableRecord
100
AcDbLayerTableRecord
2
Text
70
0
 62
   7
6
Continuous
370
0
390
251
1001
AcAecLayerStandard
1000

1000

0
ENDTAB
0
TABLE
2
STYLE
5
245
330
0
100
AcDbSymbolTable
70
2
0
STYLE
5
253
330
245
100
AcDbSymbolTableRecord
100
AcDbTextStyleTableRecord
2
Standard
70
0
40
0.0
41
1.0
50
0.0
71
0
42
0.2
3
Arial
4

1001
ACAD
1000
Arial
1071
0
0
STYLE
5
132
330
245
100
AcDbSymbolTableRecord
100
AcDbTextStyleTableRecord
2
Beschriftung
70
0
40
0.0
41
1.0
50
0.0
71
0
42
0.2
3
Arial
4

1001
ACAD
1000
Arial
1071
0
1001
AcadAnnotative
1000
AnnotativeData
1070
1
1070
1
0
ENDTAB
0
TABLE
2
VIEW
5
248
330
0
100
AcDbSymbolTable
70
0
0
ENDTAB
0
TABLE
2
UCS
5
249
330
0
100
AcDbSymbolTable
70
0
0
ENDTAB
0
TABLE
2
APPID
5
24B
330
0
100
AcDbSymbolTable
70
13
0
APPID
5
254
330
24B
100
AcDbSymbolTableRecord
100
AcDbRegAppTableRecord
2
ACAD
70
0
0
APPID
5
26C
330
24B
100
AcDbSymbolTableRecord
100
AcDbRegAppTableRecord
2
VD_INVISIBLE_NOT_FOR_READ
70
0
0
APPID
5
26D
330
24B
100
AcDbSymbolTableRecord
100
AcDbRegAppTableRecord
2
VD_TEMPHATCH
70
0
0
APPID
5
26E
330
24B
100
AcDbSymbolTableRecord
100
AcDbRegAppTableRecord
2
VDEXTRAPARAM
70
0
0
APPID
5
26F
330
24B
100
AcDbSymbolTableRecord
100
AcDbRegAppTableRecord
2
PE_URL
70
0
0
APPID
5
270
330
24B
100
AcDbSymbolTableRecord
100
AcDbRegAppTableRecord
2
VD_UNKNOWN
70
0
0
APPID
5
28F
330
24B
100
AcDbSymbolTableRecord
100
AcDbRegAppTableRecord
2
AcadAnnotative
70
0
0
APPID
5
290
330
24B
100
AcDbSymbolTableRecord
100
AcDbRegAppTableRecord
2
ACAD_DSTYLE_DIMJAG
70
0
0
APPID
5
291
330
24B
100
AcDbSymbolTableRecord
100
AcDbRegAppTableRecord
2
ACAD_DSTYLE_DIMTALN
70
0
0
APPID
5
293
330
24B
100
AcDbSymbolTableRecord
100
AcDbRegAppTableRecord
2
ACAD_PSEXT
70
0
0
APPID
5
42A
330
24B
100
AcDbSymbolTableRecord
100
AcDbRegAppTableRecord
2
ACAD_MLEADERVER
70
0
0
APPID
5
532
330
24B
100
AcDbSymbolTableRecord
100
AcDbRegAppTableRecord
2
ACAD_EXEMPT_FROM_CAD_STANDARDS
70
0
0
APPID
5
57F
330
24B
100
AcDbSymbolTableRecord
100
AcDbRegAppTableRecord
2
AcAecLayerStandard
70
0
0
ENDTAB
0
TABLE
2
DIMSTYLE
5
24C
330
0
100
AcDbSymbolTable
70
3
100
AcDbDimStyleTable
71
2
340
27
340
269
0
DIMSTYLE
105
269
330
24C
100
AcDbSymbolTableRecord
100
AcDbDimStyleTableRecord
2
Standard
70
0
172
1
174
1
288
1
340
253
342
23C
0
DIMSTYLE
105
137
330
24C
100
AcDbSymbolTableRecord
100
AcDbDimStyleTableRecord
2
Beschriftung
70
0
41
2.5
42
0.625
44
1.25
73
0
74
0
77
1
140
2.5
147
0.625
172
1
174
1
271
2
288
1
340
253
342
23C
1001
AcadAnnotative
1000
AnnotativeData
1070
1
1070
1
1001
ACAD_DSTYLE_DIMJAG
1070
388
1040
1.5
1001
ACAD_DSTYLE_DIMTALN
1070
392
1070
0
0
DIMSTYLE
105
27
102
{ACAD_REACTORS
330
F10012
330
F10017
330
F10021
330
F10026
330
F10008
330
F10003
330
F1000D
330
F1001C
102
}
330
24C
100
AcDbSymbolTableRecord
100
AcDbDimStyleTableRecord
2
BEM-ISBE
70
0
41
2.5
42
0.625
44
1.25
48
0.000000001
71
1
73
0
74
0
77
1
140
2.5
144
1.00000000000000
146
0.5
147
0.625
171
 3
172
 1
179
 3
271
 3
272
 3
274
 3
340
253
342
23C
1001
ACAD_DSTYLE_DIMJAG
1070
388
1040
1.5
1001
ACAD_DSTYLE_DIMTALN
1070
392
1070
1
0
ENDTAB
0
TABLE
2
BLOCK_RECORD
5
243
330
0
100
AcDbSymbolTable
70
5
0
BLOCK_RECORD
5
261
330
243
100
AcDbSymbolTableRecord
100
AcDbBlockTableRecord
2
*Model_Space
340
FD0
0
BLOCK_RECORD
5
25D
330
243
100
AcDbSymbolTableRecord
100
AcDbBlockTableRecord
2
*Paper_Space
340
FD1
0
BLOCK_RECORD
5
265
330
243
100
AcDbSymbolTableRecord
100
AcDbBlockTableRecord
2
*Paper_Space0
340
0
0
BLOCK_RECORD
5
23C
330
243
100
AcDbSymbolTableRecord
100
AcDbBlockTableRecord
2
VDDIM_DEFAULT
340
0
102
{BLKREFS
102
}
0
BLOCK_RECORD
5
23E
330
243
100
AcDbSymbolTableRecord
100
AcDbBlockTableRecord
2
VDDIM_NONE
340
0
0
BLOCK_RECORD
5
F10011
330
243
100
AcDbSymbolTableRecord
100
AcDbBlockTableRecord
2
*D6
340
0
0
BLOCK_RECORD
5
F10016
330
243
100
AcDbSymbolTableRecord
100
AcDbBlockTableRecord
2
*D7
340
0
0
BLOCK_RECORD
5
F10020
330
243
100
AcDbSymbolTableRecord
100
AcDbBlockTableRecord
2
*D9
340
0
0
BLOCK_RECORD
5
F10025
330
243
100
AcDbSymbolTableRecord
100
AcDbBlockTableRecord
2
*D10
340
0
0
BLOCK_RECORD
5
F10007
330
243
100
AcDbSymbolTableRecord
100
AcDbBlockTableRecord
2
*D4
340
0
0
BLOCK_RECORD
5
F10002
330
243
100
AcDbSymbolTableRecord
100
AcDbBlockTableRecord
2
*D3
340
0
0
BLOCK_RECORD
5
F1000C
330
243
100
AcDbSymbolTableRecord
100
AcDbBlockTableRecord
2
*D5
340
0
0
BLOCK_RECORD
5
F1001B
330
243
100
AcDbSymbolTableRecord
100
AcDbBlockTableRecord
2
*D8
340
0
0
ENDTAB
0
ENDSEC
0
SECTION
2
BLOCKS
0
BLOCK
5
262
330
261
100
AcDbEntity
8
0
100
AcDbBlockBegin
2
*Model_Space
70
0
10
0.0
20
0.0
30
0.0
3
*Model_Space
1

0
ENDBLK
5
263
330
261
100
AcDbEntity
8
0
100
AcDbBlockEnd
0
BLOCK
5
25E
330
25D
100
AcDbEntity
67
1
8
0
100
AcDbBlockBegin
2
*Paper_Space
70
0
10
0.0
20
0.0
30
0.0
3
*Paper_Space
1

0
ENDBLK
5
25F
330
25D
100
AcDbEntity
67
1
8
0
100
AcDbBlockEnd
0
BLOCK
5
266
330
265
100
AcDbEntity
8
0
100
AcDbBlockBegin
2
*Paper_Space0
70
0
10
0.0
20
0.0
30
0.0
3
*Paper_Space0
1

0
VIEWPORT
5
296
102
{ACAD_XDICTIONARY
360
58E
102
}
330
265
100
AcDbEntity
8
0
60
1
100
AcDbViewport
10
0.0
20
0.0
30
0.0
40
10.0
41
10.0
69
0
12
0.0
22
0.0
13
0.0
23
0.0
14
1.0
24
1.0
15
0.0
25
0.0
16
0.0
26
0.0
36
1.0
17
0.0
27
0.0
37
0.0
42
0.0
43
0.0
44
0.0
45
10.0
50
0.0
51
0.0000000000007958
72
100
90
163872
1

281
0
71
0
74
0
110
0.0
120
0.0
130
0.0
111
1.0
121
0.0
131
0.0
112
0.0
122
1.0
132
0.0
79
0
146
0.0
1001
VD_INVISIBLE_NOT_FOR_READ
1000
VD_INVISIBLE_NOT_FOR_READ
0
VIEWPORT
5
297
102
{ACAD_XDICTIONARY
360
590
102
}
330
265
100
AcDbEntity
8
0
60
1
100
AcDbViewport
10
0.0
20
0.0
30
0.0
40
10.0
41
10.0
69
0
12
0.0
22
0.0
13
0.0
23
0.0
14
1.0
24
1.0
15
0.0
25
0.0
16
0.0
26
0.0
36
1.0
17
0.0
27
0.0
37
0.0
42
0.0
43
0.0
44
0.0
45
10.0
50
0.0
51
0.0000000000007958
72
100
90
163872
1

281
0
71
0
74
0
110
0.0
120
0.0
130
0.0
111
1.0
121
0.0
131
0.0
112
0.0
122
1.0
132
0.0
79
0
146
0.0
1001
VD_INVISIBLE_NOT_FOR_READ
1000
VD_INVISIBLE_NOT_FOR_READ
0
ENDBLK
5
267
330
265
100
AcDbEntity
8
0
100
AcDbBlockEnd
0
BLOCK
5
28B
330
23C
100
AcDbEntity
8
0
100
AcDbBlockBegin
2
VDDIM_DEFAULT
70
0
10
0.0
20
0.0
30
0.0
3
VDDIM_DEFAULT
1

0
LWPOLYLINE
5
23D
330
23C
100
AcDbEntity
8
0
6
Continuous
62
0
100
AcDbPolyline
90
4
70
0
43
0.0
10
0.0
20
0.0
10
-1.0
20
-0.1665
10
-1.0
20
0.1665
10
0.0
20
0.0
1001
VDEXTRAPARAM
1071
1
1071
0
1071
0
1040
1.0
1000

1000

1040
0.0
1040
0.0
0
HATCH
5
292
330
23C
100
AcDbEntity
8
0
6
Continuous
62
0
100
AcDbHatch
10
0.0
20
0.0
30
0.0
210
0.0
220
0.0
230
1.0
2
SOLID
70
1
71
0
91
1
92
2
72
0
73
1
93
3
10
0.0
20
0.0
10
-1.0
20
-0.1665
10
-1.0
20
0.1665
97
0
75
0
76
1
98
1
10
0.0
20
0.0
1001
VDEXTRAPARAM
1071
1
1071
0
1071
0
1040
1.0
1000

1000

1040
0.0
1040
0.0
1001
VD_TEMPHATCH
1000
VD_TEMPHATCH
0
ENDBLK
5
28C
330
23C
100
AcDbEntity
8
0
100
AcDbBlockEnd
0
BLOCK
5
28D
330
23E
100
AcDbEntity
8
0
100
AcDbBlockBegin
2
VDDIM_NONE
70
0
10
0.0
20
0.0
30
0.0
3
VDDIM_NONE
1

0
ENDBLK
5
28E
330
23E
100
AcDbEntity
8
0
100
AcDbBlockEnd
  0
BLOCK
  5
F1002A
330
F10011
100
AcDbEntity
  8
0
100
AcDbBlockBegin
  2
*D6
 70
     1
 10
0.0
 20
0.0
 30
0.0
  3
*D6
  1

  0
LINE
  5
F1002B
330
F10011
100
AcDbEntity
  8
Bemassung
 62
     0
370
    -2
100
AcDbLine
10
-70.8833746898263
20
-13.0322580645161
30
0.000000000000000
11
-70.8833746898263
21
36.9677419354839
31
0.000000000000000
  0
LINE
  5
F1002C
330
F10011
100
AcDbEntity
  8
Bemassung
 62
     0
370
    -2
100
AcDbLine
10
29.1166253101737
20
14.6677419354839
30
0.000000000000000
11
29.1166253101737
21
26.9677419354839
31
0.000000000000000
  0
LINE
  5
F1002D
330
F10011
100
AcDbEntity
  8
Bemassung
 62
     0
370
    -2
100
AcDbLine
10
-70.8833746898263
20
24.9677419354839
30
0.000000000000000
11
29.1166253101737
21
24.9677419354839
31
0.000000000000000
  0
INSERT
  5
F1002E
330
F10011
100
AcDbEntity
  8
Bemassung
 62
     0
370
    -2
100
AcDbBlockReference
  2
VDDIM_DEFAULT
10
-70.8833746898263
20
24.9677419354839
30
0.000000000000000
 41
2.50000000000000
 42
2.50000000000000
 43
2.50000000000000
 50
180.000000000000
  0
INSERT
  5
F1002F
330
F10011
100
AcDbEntity
  8
Bemassung
 62
     0
370
    -2
100
AcDbBlockReference
  2
VDDIM_DEFAULT
10
29.1166253101737
20
24.9677419354839
30
0.000000000000000
 41
2.50000000000000
 42
2.50000000000000
 43
2.50000000000000
  0
MTEXT
  5
F10030
102
{ACAD_XDICTIONARY
360
F10014
102
}
330
F10011
100
AcDbEntity
  8
Bemassung
 62
     0
100
AcDbMText
10
-20.8833746898263
20
25.6344086021505
30
0.000000000000000
 40
2.50000000000000
 41
0.0
 71
     8
 72
     1
  1
\A1;100
 11
1.00000000000000
 21
0.000000000000000
 31
0.0
 73
     1
 44
1.0
1001
ACAD
1000
MTEXTBEGIN
1070
73
1070
1
1070
44
1040
1.0
1070
74
1070
0
1000
MTEXTEND
  0
POINT
  5
F10031
330
F10011
100
AcDbEntity
  8
Bemassung
 62
     0
100
AcDbPoint
10
-70.8833746898263
20
-13.0322580645161
30
0.000000000000000
  0
POINT
  5
F10032
330
F10011
100
AcDbEntity
  8
Bemassung
 62
     0
100
AcDbPoint
10
29.1166253101737
20
14.6677419354839
30
0.000000000000000
  0
ENDBLK
  5
F10033
330
F10011
100
AcDbEntity
  8
0
100
AcDbBlockEnd
  0
BLOCK
  5
F10034
330
F10016
100
AcDbEntity
  8
0
100
AcDbBlockBegin
  2
*D7
 70
     1
 10
0.0
 20
0.0
 30
0.0
  3
*D7
  1

  0
LINE
  5
F10035
330
F10016
100
AcDbEntity
  8
Bemassung
 62
     0
370
    -2
100
AcDbLine
10
29.1166253101737
20
14.6677419354839
30
0.000000000000000
11
29.1166253101737
21
31.9677419354839
31
0.000000000000000
  0
LINE
  5
F10036
330
F10016
100
AcDbEntity
  8
Bemassung
 62
     0
370
    -2
100
AcDbLine
10
79.1166253101737
20
14.4677419354839
30
0.000000000000000
11
79.1166253101737
21
36.9677419354839
31
0.000000000000000
  0
LINE
  5
F10037
330
F10016
100
AcDbEntity
  8
Bemassung
 62
     0
370
    -2
100
AcDbLine
10
29.1166253101737
20
29.9677419354839
30
0.000000000000000
11
79.1166253101737
21
29.9677419354839
31
0.000000000000000
  0
INSERT
  5
F10038
330
F10016
100
AcDbEntity
  8
Bemassung
 62
     0
370
    -2
100
AcDbBlockReference
  2
VDDIM_DEFAULT
10
29.1166253101737
20
29.9677419354839
30
0.000000000000000
 41
2.50000000000000
 42
2.50000000000000
 43
2.50000000000000
 50
180.000000000000
  0
INSERT
  5
F10039
330
F10016
100
AcDbEntity
  8
Bemassung
 62
     0
370
    -2
100
AcDbBlockReference
  2
VDDIM_DEFAULT
10
79.1166253101737
20
29.9677419354839
30
0.000000000000000
 41
2.50000000000000
 42
2.50000000000000
 43
2.50000000000000
  0
MTEXT
  5
F1003A
102
{ACAD_XDICTIONARY
360
F10019
102
}
330
F10016
100
AcDbEntity
  8
Bemassung
 62
     0
100
AcDbMText
10
54.1166253101737
20
30.6344086021505
30
0.000000000000000
 40
2.50000000000000
 41
0.0
 71
     8
 72
     1
  1
\A1;50
 11
1.00000000000000
 21
0.000000000000000
 31
0.0
 73
     1
 44
1.0
1001
ACAD
1000
MTEXTBEGIN
1070
73
1070
1
1070
44
1040
1.0
1070
74
1070
0
1000
MTEXTEND
  0
POINT
  5
F1003B
330
F10016
100
AcDbEntity
  8
Bemassung
 62
     0
100
AcDbPoint
10
29.1166253101737
20
14.6677419354839
30
0.000000000000000
  0
POINT
  5
F1003C
330
F10016
100
AcDbEntity
  8
Bemassung
 62
     0
100
AcDbPoint
10
79.1166253101737
20
14.4677419354839
30
0.000000000000000
  0
ENDBLK
  5
F1003D
330
F10016
100
AcDbEntity
  8
0
100
AcDbBlockEnd
  0
BLOCK
  5
F1003E
330
F10020
100
AcDbEntity
  8
0
100
AcDbBlockBegin
  2
*D9
 70
     1
 10
0.0
 20
0.0
 30
0.0
  3
*D9
  1

  0
LINE
  5
F1003F
330
F10020
100
AcDbEntity
  8
Bemassung
 62
     0
370
    -2
100
AcDbLine
10
-50.8833746898263
20
-0.732258064516128
30
0.000000000000000
11
-50.8833746898263
21
-13.0322580645161
31
0.000000000000000
  0
LINE
  5
F10040
330
F10020
100
AcDbEntity
  8
Bemassung
 62
     0
370
    -2
100
AcDbLine
10
-70.8833746898263
20
-13.0322580645161
30
0.000000000000000
11
-70.8833746898263
21
36.9677419354839
31
0.000000000000000
  0
LINE
  5
F10041
330
F10020
100
AcDbEntity
  8
Bemassung
 62
     0
370
    -2
100
AcDbLine
10
-50.8833746898263
20
-11.0322580645161
30
0.000000000000000
11
-70.8833746898263
21
-11.0322580645161
31
0.000000000000000
  0
INSERT
  5
F10042
330
F10020
100
AcDbEntity
  8
Bemassung
 62
     0
370
    -2
100
AcDbBlockReference
  2
VDDIM_DEFAULT
10
-50.8833746898263
20
-11.0322580645161
30
0.000000000000000
 41
2.50000000000000
 42
2.50000000000000
 43
2.50000000000000
  0
INSERT
  5
F10043
330
F10020
100
AcDbEntity
  8
Bemassung
 62
     0
370
    -2
100
AcDbBlockReference
  2
VDDIM_DEFAULT
10
-70.8833746898263
20
-11.0322580645161
30
0.000000000000000
 41
2.50000000000000
 42
2.50000000000000
 43
2.50000000000000
 50
180.000000000000
  0
MTEXT
  5
F10044
102
{ACAD_XDICTIONARY
360
F10023
102
}
330
F10020
100
AcDbEntity
  8
Bemassung
 62
     0
100
AcDbMText
10
-60.8833746898263
20
-10.3655913978495
30
0.000000000000000
 40
2.50000000000000
 41
0.0
 71
     8
 72
     1
  1
\A1;20
 11
1.00000000000000
 21
0.000000000000000
 31
0.0
 73
     1
 44
1.0
1001
ACAD
1000
MTEXTBEGIN
1070
73
1070
1
1070
44
1040
1.0
1070
74
1070
0
1000
MTEXTEND
  0
POINT
  5
F10045
330
F10020
100
AcDbEntity
  8
Bemassung
 62
     0
100
AcDbPoint
10
-50.8833746898263
20
-0.732258064516128
30
0.000000000000000
  0
POINT
  5
F10046
330
F10020
100
AcDbEntity
  8
Bemassung
 62
     0
100
AcDbPoint
10
-70.8833746898263
20
-13.0322580645161
30
0.000000000000000
  0
ENDBLK
  5
F10047
330
F10020
100
AcDbEntity
  8
0
100
AcDbBlockEnd
  0
BLOCK
  5
F10048
330
F10025
100
AcDbEntity
  8
0
100
AcDbBlockBegin
  2
*D10
 70
     1
 10
0.0
 20
0.0
 30
0.0
  3
*D10
  1

  0
LINE
  5
F10049
330
F10025
100
AcDbEntity
  8
Bemassung
 62
     0
370
    -2
100
AcDbLine
10
79.1166253101737
20
14.4677419354839
30
0.000000000000000
11
79.1166253101737
21
36.9677419354839
31
0.000000000000000
  0
LINE
  5
F1004A
330
F10025
100
AcDbEntity
  8
Bemassung
 62
     0
370
    -2
100
AcDbLine
10
-70.8833746898263
20
-13.0322580645161
30
0.000000000000000
11
-70.8833746898263
21
36.9677419354839
31
0.000000000000000
  0
LINE
  5
F1004B
330
F10025
100
AcDbEntity
  8
Bemassung
 62
     0
370
    -2
100
AcDbLine
10
79.1166253101737
20
34.9677419354839
30
0.000000000000000
11
-70.8833746898263
21
34.9677419354839
31
0.000000000000000
  0
INSERT
  5
F1004C
330
F10025
100
AcDbEntity
  8
Bemassung
 62
     0
370
    -2
100
AcDbBlockReference
  2
VDDIM_DEFAULT
10
79.1166253101737
20
34.9677419354839
30
0.000000000000000
 41
2.50000000000000
 42
2.50000000000000
 43
2.50000000000000
  0
INSERT
  5
F1004D
330
F10025
100
AcDbEntity
  8
Bemassung
 62
     0
370
    -2
100
AcDbBlockReference
  2
VDDIM_DEFAULT
10
-70.8833746898263
20
34.9677419354839
30
0.000000000000000
 41
2.50000000000000
 42
2.50000000000000
 43
2.50000000000000
 50
180.000000000000
  0
MTEXT
  5
F1004E
102
{ACAD_XDICTIONARY
360
F10028
102
}
330
F10025
100
AcDbEntity
  8
Bemassung
 62
     0
100
AcDbMText
10
4.11662531017370
20
35.6344086021505
30
0.000000000000000
 40
2.50000000000000
 41
0.0
 71
     8
 72
     1
  1
\A1;150
 11
1.00000000000000
 21
0.000000000000000
 31
0.0
 73
     1
 44
1.0
1001
ACAD
1000
MTEXTBEGIN
1070
73
1070
1
1070
44
1040
1.0
1070
74
1070
0
1000
MTEXTEND
  0
POINT
  5
F1004F
330
F10025
100
AcDbEntity
  8
Bemassung
 62
     0
100
AcDbPoint
10
79.1166253101737
20
14.4677419354839
30
0.000000000000000
  0
POINT
  5
F10050
330
F10025
100
AcDbEntity
  8
Bemassung
 62
     0
100
AcDbPoint
10
-70.8833746898263
20
-13.0322580645161
30
0.000000000000000
  0
ENDBLK
  5
F10051
330
F10025
100
AcDbEntity
  8
0
100
AcDbBlockEnd
  0
BLOCK
  5
F10052
330
F10007
100
AcDbEntity
  8
0
100
AcDbBlockBegin
  2
*D4
 70
     1
 10
0.0
 20
0.0
 30
0.0
  3
*D4
  1

  0
LINE
  5
F10053
330
F10007
100
AcDbEntity
  8
Bemassung
 62
     0
370
    -2
100
AcDbLine
10
-67.8327001265270
20
14.9387802026215
30
0.000000000000000
11
-83.2705614554035
21
27.1609116754309
31
0.000000000000000
  0
INSERT
  5
F10054
330
F10007
100
AcDbEntity
  8
Bemassung
 62
     0
370
    -2
100
AcDbBlockReference
  2
VDDIM_DEFAULT
10
-67.8327001265270
20
14.9387802026215
30
0.000000000000000
 41
2.50000000000000
 42
2.50000000000000
 43
2.50000000000000
 50
321.631393841608
  0
MTEXT
  5
F10055
102
{ACAD_XDICTIONARY
360
F1000A
102
}
330
F10007
100
AcDbEntity
  8
Bemassung
 62
     0
100
AcDbMText
10
-80.2702410790362
20
24.7855625697929
30
0.000000000000000
 40
2.50000000000000
 41
0.0
 71
     8
 72
     1
  1
\A1;R3.5
 11
0.784033682624600
 21
-0.620718281114797
 31
0.0
 73
     1
 44
1.0
1001
ACAD
1000
MTEXTBEGIN
1070
73
1070
1
1070
44
1040
1.0
1070
74
1070
0
1000
MTEXTEND
  0
POINT
  5
F10056
330
F10007
100
AcDbEntity
  8
Bemassung
 62
     0
100
AcDbPoint
10
-67.8327001265270
20
14.9387802026215
30
0.000000000000000
  0
POINT
  5
F10057
330
F10007
100
AcDbEntity
  8
Bemassung
 62
     0
100
AcDbPoint
10
-67.3833746898263
20
11.4677419354839
30
0.000000000000000
  0
ENDBLK
  5
F10058
330
F10007
100
AcDbEntity
  8
0
100
AcDbBlockEnd
  0
BLOCK
  5
F10059
330
F10002
100
AcDbEntity
  8
0
100
AcDbBlockBegin
  2
*D3
 70
     1
 10
0.0
 20
0.0
 30
0.0
  3
*D3
  1

  0
LINE
  5
F1005A
330
F10002
100
AcDbEntity
  8
Bemassung
 62
     0
370
    -2
100
AcDbLine
10
-67.3833746898263
20
-1.03225806451613
30
0.000000000000000
11
-82.8833746898263
21
-1.03225806451613
31
0.000000000000000
  0
LINE
  5
F1005B
330
F10002
100
AcDbEntity
  8
Bemassung
 62
     0
370
    -2
100
AcDbLine
10
-67.3833746898263
20
14.9677419354839
30
0.000000000000000
11
-82.8833746898263
21
14.9677419354839
31
0.000000000000000
  0
LINE
  5
F1005C
330
F10002
100
AcDbEntity
  8
Bemassung
 62
     0
370
    -2
100
AcDbLine
10
-80.8833746898263
20
-1.03225806451613
30
0.000000000000000
11
-80.8833746898263
21
14.9677419354839
31
0.000000000000000
  0
INSERT
  5
F1005D
330
F10002
100
AcDbEntity
  8
Bemassung
 62
     0
370
    -2
100
AcDbBlockReference
  2
VDDIM_DEFAULT
10
-80.8833746898263
20
-1.03225806451613
30
0.000000000000000
 41
2.50000000000000
 42
2.50000000000000
 43
2.50000000000000
 50
270.000000000000
  0
INSERT
  5
F1005E
330
F10002
100
AcDbEntity
  8
Bemassung
 62
     0
370
    -2
100
AcDbBlockReference
  2
VDDIM_DEFAULT
10
-80.8833746898263
20
14.9677419354839
30
0.000000000000000
 41
2.50000000000000
 42
2.50000000000000
 43
2.50000000000000
 50
90.0000000000000
  0
MTEXT
  5
F1005F
102
{ACAD_XDICTIONARY
360
F10005
102
}
330
F10002
100
AcDbEntity
  8
Bemassung
 62
     0
100
AcDbMText
10
-81.5500413564930
20
6.96774193548387
30
0.000000000000000
 40
2.50000000000000
 41
0.0
 71
     8
 72
     1
  1
\A1;16
 11
6.12323399573677e-017
 21
1.00000000000000
 31
0.0
 73
     1
 44
1.0
1001
ACAD
1000
MTEXTBEGIN
1070
73
1070
1
1070
44
1040
1.0
1070
74
1070
0
1000
MTEXTEND
  0
POINT
  5
F10060
330
F10002
100
AcDbEntity
  8
Bemassung
 62
     0
100
AcDbPoint
10
-67.3833746898263
20
-1.03225806451613
30
0.000000000000000
  0
POINT
  5
F10061
330
F10002
100
AcDbEntity
  8
Bemassung
 62
     0
100
AcDbPoint
10
-67.3833746898263
20
14.9677419354839
30
0.000000000000000
  0
ENDBLK
  5
F10062
330
F10002
100
AcDbEntity
  8
0
100
AcDbBlockEnd
  0
BLOCK
  5
F10063
330
F1000C
100
AcDbEntity
  8
0
100
AcDbBlockBegin
  2
*D5
 70
     1
 10
0.0
 20
0.0
 30
0.0
  3
*D5
  1

  0
LINE
  5
F10064
330
F1000C
100
AcDbEntity
  8
Bemassung
 62
     0
370
    -2
100
AcDbLine
10
-50.8833746898263
20
-0.732258064516128
30
0.000000000000000
11
-27.8833746898263
21
-0.732258064516128
31
0.000000000000000
  0
LINE
  5
F10065
330
F1000C
100
AcDbEntity
  8
Bemassung
 62
     0
370
    -2
100
AcDbLine
10
-50.8833746898263
20
14.6677419354839
30
0.000000000000000
11
-27.8833746898263
21
14.6677419354839
31
0.000000000000000
  0
LINE
  5
F10066
330
F1000C
100
AcDbEntity
  8
Bemassung
 62
     0
370
    -2
100
AcDbLine
10
-29.8833746898263
20
-13.3995037220844
30
0.000000000000000
11
-29.8833746898263
21
14.6677419354839
31
0.000000000000000
  0
INSERT
  5
F10067
330
F1000C
100
AcDbEntity
  8
Bemassung
 62
     0
370
    -2
100
AcDbBlockReference
  2
VDDIM_DEFAULT
10
-29.8833746898263
20
-0.732258064516128
30
0.000000000000000
 41
2.50000000000000
 42
2.50000000000000
 43
2.50000000000000
 50
270.000000000000
  0
INSERT
  5
F10068
330
F1000C
100
AcDbEntity
  8
Bemassung
 62
     0
370
    -2
100
AcDbBlockReference
  2
VDDIM_DEFAULT
10
-29.8833746898263
20
14.6677419354839
30
0.000000000000000
 41
2.50000000000000
 42
2.50000000000000
 43
2.50000000000000
 50
90.0000000000000
  0
MTEXT
  5
F10069
102
{ACAD_XDICTIONARY
360
F1000F
102
}
330
F1000C
100
AcDbEntity
  8
Bemassung
 62
     0
100
AcDbMText
10
-30.5500413564930
20
-2.55897301560805
30
0.000000000000000
 40
2.50000000000000
 41
0.0
 71
     8
 72
     1
  1
\A1;15.4
 11
6.12323399573677e-017
 21
1.00000000000000
 31
0.0
 73
     1
 44
1.0
1001
ACAD
1000
MTEXTBEGIN
1070
73
1070
1
1070
44
1040
1.0
1070
74
1070
0
1000
MTEXTEND
  0
POINT
  5
F1006A
330
F1000C
100
AcDbEntity
  8
Bemassung
 62
     0
100
AcDbPoint
10
-50.8833746898263
20
-0.732258064516128
30
0.000000000000000
  0
POINT
  5
F1006B
330
F1000C
100
AcDbEntity
  8
Bemassung
 62
     0
100
AcDbPoint
10
-50.8833746898263
20
14.6677419354839
30
0.000000000000000
  0
ENDBLK
  5
F1006C
330
F1000C
100
AcDbEntity
  8
0
100
AcDbBlockEnd
  0
BLOCK
  5
F1006D
330
F1001B
100
AcDbEntity
  8
0
100
AcDbBlockBegin
  2
*D8
 70
     1
 10
0.0
 20
0.0
 30
0.0
  3
*D8
  1

  0
LINE
  5
F1006E
330
F1001B
100
AcDbEntity
  8
Bemassung
 62
     0
370
    -2
100
AcDbLine
10
78.6166253101737
20
-1.03225806451613
30
0.000000000000000
11
91.1166253101737
21
-1.03225806451613
31
0.000000000000000
  0
LINE
  5
F1006F
330
F1001B
100
AcDbEntity
  8
Bemassung
 62
     0
370
    -2
100
AcDbLine
10
78.6166253101737
20
14.9677419354839
30
0.000000000000000
11
91.1166253101737
21
14.9677419354839
31
0.000000000000000
  0
LINE
  5
F10070
330
F1001B
100
AcDbEntity
  8
Bemassung
 62
     0
370
    -2
100
AcDbLine
10
89.1166253101737
20
-1.03225806451613
30
0.000000000000000
11
89.1166253101737
21
14.9677419354839
31
0.000000000000000
  0
INSERT
  5
F10071
330
F1001B
100
AcDbEntity
  8
Bemassung
 62
     0
370
    -2
100
AcDbBlockReference
  2
VDDIM_DEFAULT
10
89.1166253101737
20
-1.03225806451613
30
0.000000000000000
 41
2.50000000000000
 42
2.50000000000000
 43
2.50000000000000
 50
270.000000000000
  0
INSERT
  5
F10072
330
F1001B
100
AcDbEntity
  8
Bemassung
 62
     0
370
    -2
100
AcDbBlockReference
  2
VDDIM_DEFAULT
10
89.1166253101737
20
14.9677419354839
30
0.000000000000000
 41
2.50000000000000
 42
2.50000000000000
 43
2.50000000000000
 50
90.0000000000000
  0
MTEXT
  5
F10073
330
F1001B
100
AcDbEntity
  8
Bemassung
 62
     0
100
AcDbMText
10
88.4499586435070
20
6.96774193548387
30
0.000000000000000
 40
2.50000000000000
 41
0.0
 71
     8
 72
     1
  1
\A1;16 h5
 11
6.12323399573677e-017
 21
1.00000000000000
 31
0.0
 73
     1
 44
1.0
  0
POINT
  5
F10074
330
F1001B
100
AcDbEntity
  8
Bemassung
 62
     0
100
AcDbPoint
10
78.6166253101737
20
-1.03225806451613
30
0.000000000000000
  0
POINT
  5
F10075
330
F1001B
100
AcDbEntity
  8
Bemassung
 62
     0
100
AcDbPoint
10
78.6166253101737
20
14.9677419354839
30
0.000000000000000
  0
ENDBLK
  5
F10076
330
F1001B
100
AcDbEntity
  8
0
100
AcDbBlockEnd
0
ENDSEC
0
SECTION
2
ENTITIES
  0
DIMENSION
  5
F10012
330
261
100
AcDbEntity
  8
Bemassung
100
AcDbDimension
  2
*D6
10
29.1166253101737
20
24.9677419354839
30
0.000000000000000
11
-20.8833746898263
21
25.6344086021505
31
0.000000000000000
 70
32
 1
<>
 71
     8
  3
BEM-ISBE
100
AcDbAlignedDimension
13
-70.8833746898263
23
-13.0322580645161
33
0.000000000000000
14
29.1166253101737
24
14.6677419354839
34
0.000000000000000
100
AcDbRotatedDimension
1001
ACAD
1000
DSTYLE
1002
{
1070
284
1070
8
1070
78
1070
8
1070
144
1040
1.00000000000000
1070
147
1040
0.625
1070
 72
1070
 0
1070
 71
1070
 0
1002
}
  0
DIMENSION
  5
F10017
330
261
100
AcDbEntity
  8
Bemassung
100
AcDbDimension
  2
*D7
10
79.1166253101737
20
29.9677419354839
30
0.000000000000000
11
54.1166253101737
21
30.6344086021505
31
0.000000000000000
 70
32
 1
<>
 71
     8
  3
BEM-ISBE
100
AcDbAlignedDimension
13
29.1166253101737
23
14.6677419354839
33
0.000000000000000
14
79.1166253101737
24
14.4677419354839
34
0.000000000000000
100
AcDbRotatedDimension
1001
ACAD
1000
DSTYLE
1002
{
1070
284
1070
8
1070
78
1070
8
1070
144
1040
1.00000000000000
1070
147
1040
0.625
1070
 72
1070
 0
1070
 71
1070
 0
1002
}
  0
DIMENSION
  5
F10021
330
261
100
AcDbEntity
  8
Bemassung
100
AcDbDimension
  2
*D9
10
-70.8833746898263
20
-11.0322580645161
30
0.000000000000000
11
-60.8833746898263
21
-10.3655913978495
31
0.000000000000000
 70
32
 1
<>
 71
     8
  3
BEM-ISBE
100
AcDbAlignedDimension
13
-50.8833746898263
23
-0.732258064516128
33
0.000000000000000
14
-70.8833746898263
24
-13.0322580645161
34
0.000000000000000
100
AcDbRotatedDimension
1001
ACAD
1000
DSTYLE
1002
{
1070
284
1070
8
1070
78
1070
8
1070
144
1040
1.00000000000000
1070
147
1040
0.625
1070
 72
1070
 0
1070
 71
1070
 0
1002
}
  0
DIMENSION
  5
F10026
330
261
100
AcDbEntity
  8
Bemassung
100
AcDbDimension
  2
*D10
10
-70.8833746898263
20
34.9677419354839
30
0.000000000000000
11
4.11662531017370
21
35.6344086021505
31
0.000000000000000
 70
32
 1
<>
 71
     8
  3
BEM-ISBE
100
AcDbAlignedDimension
13
79.1166253101737
23
14.4677419354839
33
0.000000000000000
14
-70.8833746898263
24
-13.0322580645161
34
0.000000000000000
100
AcDbRotatedDimension
1001
ACAD
1000
DSTYLE
1002
{
1070
284
1070
8
1070
78
1070
8
1070
144
1040
1.00000000000000
1070
147
1040
0.625
1070
 72
1070
 0
1070
 71
1070
 0
1002
}
  0
DIMENSION
  5
F10008
330
261
100
AcDbEntity
  8
Bemassung
100
AcDbDimension
  2
*D4
10
-67.3833746898263
20
11.4677419354839
30
0.000000000000000
11
-80.2702410790362
21
24.7855625697929
31
0.000000000000000
 70
164
 1
<>
 71
     8
  3
BEM-ISBE
100
AcDbRadialDimension
15
-67.8327001265270
25
14.9387802026215
35
0.000000000000000
40
0.0
1001
ACAD
1000
DSTYLE
1002
{
1070
284
1070
8
1070
78
1070
8
1070
144
1040
1.00000000000000
1070
147
1040
0.625
1070
 72
1070
 0
1070
 71
1070
 0
1002
}
  0
DIMENSION
  5
F10003
330
261
100
AcDbEntity
  8
Bemassung
100
AcDbDimension
  2
*D3
10
-80.8833746898263
20
14.9677419354839
30
0.000000000000000
11
-81.5500413564930
21
6.96774193548387
31
0.000000000000000
 70
32
 1
Ø<>
 71
     8
  3
BEM-ISBE
100
AcDbAlignedDimension
13
-67.3833746898263
23
-1.03225806451613
33
0.000000000000000
14
-67.3833746898263
24
14.9677419354839
34
0.000000000000000
50
90.0000000000000
100
AcDbRotatedDimension
1001
ACAD
1000
DSTYLE
1002
{
1070
284
1070
8
1070
78
1070
8
1070
144
1040
1.00000000000000
1070
147
1040
0.625
1070
 72
1070
 0
1070
 71
1070
 0
1002
}
  0
DIMENSION
  5
F1000D
330
261
100
AcDbEntity
  8
Bemassung
100
AcDbDimension
  2
*D5
10
-29.8833746898263
20
14.6677419354839
30
0.000000000000000
11
-30.5500413564930
21
-2.55897301560805
31
0.000000000000000
 70
32
 1
Ø<>
 71
     8
  3
BEM-ISBE
100
AcDbAlignedDimension
13
-50.8833746898263
23
-0.732258064516128
33
0.000000000000000
14
-50.8833746898263
24
14.6677419354839
34
0.000000000000000
50
90.0000000000000
100
AcDbRotatedDimension
1001
ACAD
1000
DSTYLE
1002
{
1070
284
1070
8
1070
78
1070
8
1070
144
1040
1.00000000000000
1070
147
1040
0.625
1070
 72
1070
 0
1070
 71
1070
 0
1002
}
  0
DIMENSION
  5
F1001C
330
261
100
AcDbEntity
  8
Bemassung
100
AcDbDimension
  2
*D8
10
89.1166253101737
20
14.9677419354839
30
0.000000000000000
11
88.4499586435070
21
6.96774193548387
31
0.000000000000000
 70
32
 1
Ø<> h5
 71
     8
  3
BEM-ISBE
100
AcDbAlignedDimension
13
78.6166253101737
23
-1.03225806451613
33
0.000000000000000
14
78.6166253101737
24
14.9677419354839
34
0.000000000000000
50
90.0000000000000
100
AcDbRotatedDimension
1001
ACAD
1000
DSTYLE
1002
{
1070
284
1070
8
1070
78
1070
8
1070
144
1040
1.00000000000000
1070
147
1040
0.625
1070
 72
1070
 0
1070
 71
1070
 0
1002
}
  0
LINE
  5
F10077
330
F10078
100
AcDbEntity
8
Geo
100
AcDbLine
10
-70.8833746898263
20
6.96774193548387
30
0.000000000000000
11
-70.8833746898263
21
11.4677419354839
31
0.000000000000000
  0
ARC
  5
F10079
330
F1007A
100
AcDbEntity
8
Geo
100
AcDbCircle
10
-67.3833746898263
20
11.4677419354839
30
0.000000000000000
 40
3.50000000000000
100
AcDbArc
 50
89.9999999999998
 51
180.000000000000
  0
LINE
  5
F1007B
330
F1007C
100
AcDbEntity
8
Geo
100
AcDbLine
10
-67.3833746898263
20
14.9677419354839
30
0.000000000000000
11
-50.8833746898263
21
14.9677419354839
31
0.000000000000000
  0
LINE
  5
F1007D
330
F1007E
100
AcDbEntity
8
Geo
100
AcDbLine
10
-50.8833746898263
20
14.9677419354839
30
0.000000000000000
11
-50.8833746898263
21
14.6677419354839
31
0.000000000000000
  0
LINE
  5
F1007F
330
F10080
100
AcDbEntity
8
Geo
100
AcDbLine
10
-50.8833746898263
20
14.6677419354839
30
0.000000000000000
11
29.1166253101737
21
14.6677419354839
31
0.000000000000000
  0
LINE
  5
F10081
330
F10082
100
AcDbEntity
8
Geo
100
AcDbLine
10
29.1166253101737
20
14.6677419354839
30
0.000000000000000
11
29.1166253101737
21
14.9677419354839
31
0.000000000000000
  0
LINE
  5
F10083
330
F10084
100
AcDbEntity
8
Geo
100
AcDbLine
10
29.1166253101737
20
14.9677419354839
30
0.000000000000000
11
78.6166253101737
21
14.9677419354839
31
0.000000000000000
  0
LINE
  5
F10085
330
F10086
100
AcDbEntity
8
Geo
100
AcDbLine
10
78.6166253101737
20
14.9677419354839
30
0.000000000000000
11
79.1166253101737
21
14.4677419354839
31
0.000000000000000
  0
LINE
  5
F10087
330
F10088
100
AcDbEntity
8
Geo
100
AcDbLine
10
-50.7833746898263
20
14.6677419354839
30
0.000000000000000
11
-50.6833746898263
21
14.2885071930520
31
0.000000000000000
  0
LINE
  5
F10089
330
F1008A
100
AcDbEntity
8
Geo
100
AcDbLine
10
-70.8833746898263
20
11.4677419354839
30
0.000000000000000
11
-70.7833746898263
21
12.2983913736003
31
0.000000000000000
  0
LINE
  5
F1008B
330
F1008C
100
AcDbEntity
8
Geo
100
AcDbLine
10
-70.7833746898263
20
12.2983913736003
30
0.000000000000000
11
-70.6833746898263
21
12.6338772618291
31
0.000000000000000
  0
LINE
  5
F1008D
330
F1008E
100
AcDbEntity
8
Geo
100
AcDbLine
10
-70.6833746898263
20
12.6338772618291
30
0.000000000000000
11
-70.5833746898263
21
12.8853572559972
31
0.000000000000000
  0
LINE
  5
F1008F
330
F10090
100
AcDbEntity
8
Geo
100
AcDbLine
10
-70.5833746898263
20
12.8853572559972
30
0.000000000000000
11
-70.4833746898263
21
13.0923115833956
31
0.000000000000000
  0
LINE
  5
F10091
330
F10092
100
AcDbEntity
8
Geo
100
AcDbLine
10
-70.4833746898263
20
13.0923115833956
30
0.000000000000000
11
-70.3833746898263
21
13.2701348409881
31
0.000000000000000
  0
LINE
  5
F10093
330
F10094
100
AcDbEntity
8
Geo
100
AcDbLine
10
-70.3833746898263
20
13.2701348409881
30
0.000000000000000
11
-70.2833746898263
21
13.4267688853227
31
0.000000000000000
  0
LINE
  5
F10095
330
F10096
100
AcDbEntity
8
Geo
100
AcDbLine
10
-70.2833746898263
20
13.4267688853227
30
0.000000000000000
11
-70.1833746898263
21
13.5669564123621
31
0.000000000000000
  0
LINE
  5
F10097
330
F10098
100
AcDbEntity
8
Geo
100
AcDbLine
10
-70.1833746898263
20
13.5669564123621
30
0.000000000000000
11
-70.0833746898263
21
13.6938019386213
31
0.000000000000000
  0
LINE
  5
F10099
330
F1009A
100
AcDbEntity
8
Geo
100
AcDbLine
10
-70.0833746898263
20
13.6938019386213
30
0.000000000000000
11
-69.9833746898263
21
13.8094705140820
31
0.000000000000000
  0
LINE
  5
F1009B
330
F1009C
100
AcDbEntity
8
Geo
100
AcDbLine
10
-69.9833746898263
20
13.8094705140820
30
0.000000000000000
11
-69.8833746898263
21
13.9155437153206
31
0.000000000000000
  0
LINE
  5
F1009D
330
F1009E
100
AcDbEntity
8
Geo
100
AcDbLine
10
-69.8833746898263
20
13.9155437153206
30
0.000000000000000
11
-69.7833746898263
21
14.0132185395043
31
0.000000000000000
  0
LINE
  5
F1009F
330
F100A0
100
AcDbEntity
8
Geo
100
AcDbLine
10
-69.7833746898263
20
14.0132185395043
30
0.000000000000000
11
-69.6833746898263
21
14.1034265078907
31
0.000000000000000
  0
LINE
  5
F100A1
330
F100A2
100
AcDbEntity
8
Geo
100
AcDbLine
10
-69.6833746898263
20
14.1034265078907
30
0.000000000000000
11
-69.5833746898263
21
14.1869089634729
31
0.000000000000000
  0
LINE
  5
F100A3
330
F100A4
100
AcDbEntity
8
Geo
100
AcDbLine
10
-69.5833746898263
20
14.1869089634729
30
0.000000000000000
11
-69.4833746898263
21
14.2642667975788
31
0.000000000000000
  0
LINE
  5
F100A5
330
F100A6
100
AcDbEntity
8
Geo
100
AcDbLine
10
-69.4833746898263
20
14.2642667975788
30
0.000000000000000
11
-69.3833746898263
21
14.3359944891587
31
0.000000000000000
  0
LINE
  5
F100A7
330
F100A8
100
AcDbEntity
8
Geo
100
AcDbLine
10
-69.3833746898263
20
14.3359944891587
30
0.000000000000000
11
-69.2833746898263
21
14.4025041158035
31
0.000000000000000
  0
LINE
  5
F100A9
330
F100AA
100
AcDbEntity
8
Geo
100
AcDbLine
10
-69.2833746898263
20
14.4025041158035
30
0.000000000000000
11
-69.1833746898263
21
14.4641427276821
31
0.000000000000000
  0
LINE
  5
F100AB
330
F100AC
100
AcDbEntity
8
Geo
100
AcDbLine
10
-69.1833746898263
20
14.4641427276821
30
0.000000000000000
11
-69.0833746898263
21
14.5212051963690
31
0.000000000000000
  0
LINE
  5
F100AD
330
F100AE
100
AcDbEntity
8
Geo
100
AcDbLine
10
-69.0833746898263
20
14.5212051963690
30
0.000000000000000
11
-68.9833746898263
21
14.5739438979961
31
0.000000000000000
  0
LINE
  5
F100AF
330
F100B0
100
AcDbEntity
8
Geo
100
AcDbLine
10
-68.9833746898263
20
14.5739438979961
30
0.000000000000000
11
-68.8833746898263
21
14.6225761311520
31
0.000000000000000
  0
LINE
  5
F100B1
330
F100B2
100
AcDbEntity
8
Geo
100
AcDbLine
10
-68.8833746898263
20
14.6225761311520
30
0.000000000000000
11
-68.7833746898263
21
14.6672898810270
31
0.000000000000000
  0
LINE
  5
F100B3
330
F100B4
100
AcDbEntity
8
Geo
100
AcDbLine
10
-68.7833746898263
20
14.6672898810270
30
0.000000000000000
11
-68.6833746898263
21
14.7082483543340
31
0.000000000000000
  0
LINE
  5
F100B5
330
F100B6
100
AcDbEntity
8
Geo
100
AcDbLine
10
-68.6833746898263
20
14.7082483543340
30
0.000000000000000
11
-68.5833746898263
21
14.7455935855337
31
0.000000000000000
  0
LINE
  5
F100B7
330
F100B8
100
AcDbEntity
8
Geo
100
AcDbLine
10
-68.5833746898263
20
14.7455935855337
30
0.000000000000000
11
-68.4833746898263
21
14.7794493308211
31
0.000000000000000
  0
LINE
  5
F100B9
330
F100BA
100
AcDbEntity
8
Geo
100
AcDbLine
10
-68.4833746898263
20
14.7794493308211
30
0.000000000000000
11
-68.3833746898263
21
14.8099234081954
31
0.000000000000000
  0
LINE
  5
F100BB
330
F100BC
100
AcDbEntity
8
Geo
100
AcDbLine
10
-68.3833746898263
20
14.8099234081954
30
0.000000000000000
11
-68.2833746898263
21
14.8371096009858
31
0.000000000000000
  0
LINE
  5
F100BD
330
F100BE
100
AcDbEntity
8
Geo
100
AcDbLine
10
-68.2833746898263
20
14.8371096009858
30
0.000000000000000
11
-68.1833746898263
21
14.8610892128914
31
0.000000000000000
  0
LINE
  5
F100BF
330
F100C0
100
AcDbEntity
8
Geo
100
AcDbLine
10
-68.1833746898263
20
14.8610892128914
30
0.000000000000000
11
-68.0833746898263
21
14.8819323412577
31
0.000000000000000
  0
LINE
  5
F100C1
330
F100C2
100
AcDbEntity
8
Geo
100
AcDbLine
10
-68.0833746898263
20
14.8819323412577
30
0.000000000000000
11
-67.9833746898263
21
14.8996989195655
31
0.000000000000000
  0
LINE
  5
F100C3
330
F100C4
100
AcDbEntity
8
Geo
100
AcDbLine
10
-67.9833746898263
20
14.8996989195655
30
0.000000000000000
11
-67.8833746898263
21
14.9144395682987
31
0.000000000000000
  0
LINE
  5
F100C5
330
F100C6
100
AcDbEntity
8
Geo
100
AcDbLine
10
-67.8833746898263
20
14.9144395682987
30
0.000000000000000
11
-67.7833746898263
21
14.9261962843737
31
0.000000000000000
  0
LINE
  5
F100C7
330
F100C8
100
AcDbEntity
8
Geo
100
AcDbLine
10
-67.7833746898263
20
14.9261962843737
30
0.000000000000000
11
-67.6833746898263
21
14.9350029923652
31
0.000000000000000
  0
LINE
  5
F100C9
330
F100CA
100
AcDbEntity
8
Geo
100
AcDbLine
10
-67.6833746898263
20
14.9350029923652
30
0.000000000000000
11
-67.5833746898263
21
14.9408859752876
31
0.000000000000000
  0
LINE
  5
F100CB
330
F100CC
100
AcDbEntity
8
Geo
100
AcDbLine
10
-67.5833746898263
20
14.9408859752876
30
0.000000000000000
11
-67.4833746898263
21
14.9438641982904
31
0.000000000000000
  0
LINE
  5
F100CD
330
F100CE
100
AcDbEntity
8
Geo
100
AcDbLine
10
-67.4833746898263
20
14.9438641982904
30
0.000000000000000
11
-67.3833746898263
21
14.9439495349854
31
0.000000000000000
  0
LINE
  5
F100CF
330
F100D0
100
AcDbEntity
8
Geo
100
AcDbLine
10
-67.3833746898263
20
14.9439495349854
30
0.000000000000000
11
-67.2833746898263
21
14.9425712704439
31
0.000000000000000
  0
LINE
  5
F100D1
330
F100D2
100
AcDbEntity
8
Geo
100
AcDbLine
10
-67.2833746898263
20
14.9425712704439
30
0.000000000000000
11
-67.1833746898263
21
14.9411542641919
31
0.000000000000000
  0
LINE
  5
F100D3
330
F100D4
100
AcDbEntity
8
Geo
100
AcDbLine
10
-67.1833746898263
20
14.9411542641919
30
0.000000000000000
11
-67.0833746898263
21
14.9396985231135
31
0.000000000000000
  0
LINE
  5
F100D5
330
F100D6
100
AcDbEntity
8
Geo
100
AcDbLine
10
-67.0833746898263
20
14.9396985231135
30
0.000000000000000
11
-66.9833746898263
21
14.9382040542804
31
0.000000000000000
  0
LINE
  5
F100D7
330
F100D8
100
AcDbEntity
8
Geo
100
AcDbLine
10
-66.9833746898263
20
14.9382040542804
30
0.000000000000000
11
-66.8833746898263
21
14.9366708649530
31
0.000000000000000
  0
LINE
  5
F100D9
330
F100DA
100
AcDbEntity
8
Geo
100
AcDbLine
10
-66.8833746898263
20
14.9366708649530
30
0.000000000000000
11
-66.7833746898263
21
14.9350989625793
31
0.000000000000000
  0
LINE
  5
F100DB
330
F100DC
100
AcDbEntity
8
Geo
100
AcDbLine
10
-66.7833746898263
20
14.9350989625793
30
0.000000000000000
11
-66.6833746898263
21
14.9334883547957
31
0.000000000000000
  0
LINE
  5
F100DD
330
F100DE
100
AcDbEntity
8
Geo
100
AcDbLine
10
-66.6833746898263
20
14.9334883547957
30
0.000000000000000
11
-66.5833746898263
21
14.9318390494265
31
0.000000000000000
  0
LINE
  5
F100DF
330
F100E0
100
AcDbEntity
8
Geo
100
AcDbLine
10
-66.5833746898263
20
14.9318390494265
30
0.000000000000000
11
-66.4833746898263
21
14.9301510544841
31
0.000000000000000
  0
LINE
  5
F100E1
330
F100E2
100
AcDbEntity
8
Geo
100
AcDbLine
10
-66.4833746898263
20
14.9301510544841
30
0.000000000000000
11
-66.3833746898263
21
14.9284243781687
31
0.000000000000000
  0
LINE
  5
F100E3
330
F100E4
100
AcDbEntity
8
Geo
100
AcDbLine
10
-66.3833746898263
20
14.9284243781687
30
0.000000000000000
11
-66.2833746898263
21
14.9266590288686
31
0.000000000000000
  0
LINE
  5
F100E5
330
F100E6
100
AcDbEntity
8
Geo
100
AcDbLine
10
-66.2833746898263
20
14.9266590288686
30
0.000000000000000
11
-66.1833746898263
21
14.9248550151597
31
0.000000000000000
  0
LINE
  5
F100E7
330
F100E8
100
AcDbEntity
8
Geo
100
AcDbLine
10
-66.1833746898263
20
14.9248550151597
30
0.000000000000000
11
-66.0833746898263
21
14.9230123458060
31
0.000000000000000
  0
LINE
  5
F100E9
330
F100EA
100
AcDbEntity
8
Geo
100
AcDbLine
10
-66.0833746898263
20
14.9230123458060
30
0.000000000000000
11
-65.9833746898263
21
14.9211310297592
31
0.000000000000000
  0
LINE
  5
F100EB
330
F100EC
100
AcDbEntity
8
Geo
100
AcDbLine
10
-65.9833746898263
20
14.9211310297592
30
0.000000000000000
11
-65.8833746898263
21
14.9192110761586
31
0.000000000000000
  0
LINE
  5
F100ED
330
F100EE
100
AcDbEntity
8
Geo
100
AcDbLine
10
-65.8833746898263
20
14.9192110761586
30
0.000000000000000
11
-65.7833746898263
21
14.9172524943315
31
0.000000000000000
  0
LINE
  5
F100EF
330
F100F0
100
AcDbEntity
8
Geo
100
AcDbLine
10
-65.7833746898263
20
14.9172524943315
30
0.000000000000000
11
-65.6833746898263
21
14.9152552937926
31
0.000000000000000
  0
LINE
  5
F100F1
330
F100F2
100
AcDbEntity
8
Geo
100
AcDbLine
10
-65.6833746898263
20
14.9152552937926
30
0.000000000000000
11
-65.5833746898263
21
14.9132194842443
31
0.000000000000000
  0
LINE
  5
F100F3
330
F100F4
100
AcDbEntity
8
Geo
100
AcDbLine
10
-65.5833746898263
20
14.9132194842443
30
0.000000000000000
11
-65.4833746898263
21
14.9111450755766
31
0.000000000000000
  0
LINE
  5
F100F5
330
F100F6
100
AcDbEntity
8
Geo
100
AcDbLine
10
-65.4833746898263
20
14.9111450755766
30
0.000000000000000
11
-65.3833746898263
21
14.9090320778669
31
0.000000000000000
  0
LINE
  5
F100F7
330
F100F8
100
AcDbEntity
8
Geo
100
AcDbLine
10
-65.3833746898263
20
14.9090320778669
30
0.000000000000000
11
-65.2833746898263
21
14.9068805013802
31
0.000000000000000
  0
LINE
  5
F100F9
330
F100FA
100
AcDbEntity
8
Geo
100
AcDbLine
10
-65.2833746898263
20
14.9068805013802
30
0.000000000000000
11
-65.1833746898263
21
14.9046903565689
31
0.000000000000000
  0
LINE
  5
F100FB
330
F100FC
100
AcDbEntity
8
Geo
100
AcDbLine
10
-65.1833746898263
20
14.9046903565689
30
0.000000000000000
11
-65.0833746898263
21
14.9024616540726
31
0.000000000000000
  0
LINE
  5
F100FD
330
F100FE
100
AcDbEntity
8
Geo
100
AcDbLine
10
-65.0833746898263
20
14.9024616540726
30
0.000000000000000
11
-64.9833746898263
21
14.9001944047184
31
0.000000000000000
  0
LINE
  5
F100FF
330
F10100
100
AcDbEntity
8
Geo
100
AcDbLine
10
-64.9833746898263
20
14.9001944047184
30
0.000000000000000
11
-64.8833746898263
21
14.8978886195206
31
0.000000000000000
  0
LINE
  5
F10101
330
F10102
100
AcDbEntity
8
Geo
100
AcDbLine
10
-64.8833746898263
20
14.8978886195206
30
0.000000000000000
11
-64.7833746898263
21
14.8955443096807
31
0.000000000000000
  0
LINE
  5
F10103
330
F10104
100
AcDbEntity
8
Geo
100
AcDbLine
10
-64.7833746898263
20
14.8955443096807
30
0.000000000000000
11
-64.6833746898263
21
14.8931614865874
31
0.000000000000000
  0
LINE
  5
F10105
330
F10106
100
AcDbEntity
8
Geo
100
AcDbLine
10
-64.6833746898263
20
14.8931614865874
30
0.000000000000000
11
-64.5833746898263
21
14.8907401618163
31
0.000000000000000
  0
LINE
  5
F10107
330
F10108
100
AcDbEntity
8
Geo
100
AcDbLine
10
-64.5833746898263
20
14.8907401618163
30
0.000000000000000
11
-64.4833746898263
21
14.8882803471304
31
0.000000000000000
  0
LINE
  5
F10109
330
F1010A
100
AcDbEntity
8
Geo
100
AcDbLine
10
-64.4833746898263
20
14.8882803471304
30
0.000000000000000
11
-64.3833746898263
21
14.8857820544793
31
0.000000000000000
  0
LINE
  5
F1010B
330
F1010C
100
AcDbEntity
8
Geo
100
AcDbLine
10
-64.3833746898263
20
14.8857820544793
30
0.000000000000000
11
-64.2833746898263
21
14.8832452959997
31
0.000000000000000
  0
LINE
  5
F1010D
330
F1010E
100
AcDbEntity
8
Geo
100
AcDbLine
10
-64.2833746898263
20
14.8832452959997
30
0.000000000000000
11
-64.1833746898263
21
14.8806700840154
31
0.000000000000000
  0
LINE
  5
F1010F
330
F10110
100
AcDbEntity
8
Geo
100
AcDbLine
10
-64.1833746898263
20
14.8806700840154
30
0.000000000000000
11
-64.0833746898263
21
14.8780564310365
31
0.000000000000000
  0
LINE
  5
F10111
330
F10112
100
AcDbEntity
8
Geo
100
AcDbLine
10
-64.0833746898263
20
14.8780564310365
30
0.000000000000000
11
-63.9833746898263
21
14.8754043497603
31
0.000000000000000
  0
LINE
  5
F10113
330
F10114
100
AcDbEntity
8
Geo
100
AcDbLine
10
-63.9833746898263
20
14.8754043497603
30
0.000000000000000
11
-63.8833746898263
21
14.8727138530705
31
0.000000000000000
  0
LINE
  5
F10115
330
F10116
100
AcDbEntity
8
Geo
100
AcDbLine
10
-63.8833746898263
20
14.8727138530705
30
0.000000000000000
11
-63.7833746898263
21
14.8699849540376
31
0.000000000000000
  0
LINE
  5
F10117
330
F10118
100
AcDbEntity
8
Geo
100
AcDbLine
10
-63.7833746898263
20
14.8699849540376
30
0.000000000000000
11
-63.6833746898263
21
14.8672176659185
31
0.000000000000000
  0
LINE
  5
F10119
330
F1011A
100
AcDbEntity
8
Geo
100
AcDbLine
10
-63.6833746898263
20
14.8672176659185
30
0.000000000000000
11
-63.5833746898263
21
14.8644120021568
31
0.000000000000000
  0
LINE
  5
F1011B
330
F1011C
100
AcDbEntity
8
Geo
100
AcDbLine
10
-63.5833746898263
20
14.8644120021568
30
0.000000000000000
11
-63.4833746898263
21
14.8615679763824
31
0.000000000000000
  0
LINE
  5
F1011D
330
F1011E
100
AcDbEntity
8
Geo
100
AcDbLine
10
-63.4833746898263
20
14.8615679763824
30
0.000000000000000
11
-63.3833746898263
21
14.8586856024114
31
0.000000000000000
  0
LINE
  5
F1011F
330
F10120
100
AcDbEntity
8
Geo
100
AcDbLine
10
-63.3833746898263
20
14.8586856024114
30
0.000000000000000
11
-63.2833746898263
21
14.8557648942466
31
0.000000000000000
  0
LINE
  5
F10121
330
F10122
100
AcDbEntity
8
Geo
100
AcDbLine
10
-63.2833746898263
20
14.8557648942466
30
0.000000000000000
11
-63.1833746898263
21
14.8528058660767
31
0.000000000000000
  0
LINE
  5
F10123
330
F10124
100
AcDbEntity
8
Geo
100
AcDbLine
10
-63.1833746898263
20
14.8528058660767
30
0.000000000000000
11
-63.0833746898263
21
14.8498085322766
31
0.000000000000000
  0
LINE
  5
F10125
330
F10126
100
AcDbEntity
8
Geo
100
AcDbLine
10
-63.0833746898263
20
14.8498085322766
30
0.000000000000000
11
-62.9833746898263
21
14.8467729074074
31
0.000000000000000
  0
LINE
  5
F10127
330
F10128
100
AcDbEntity
8
Geo
100
AcDbLine
10
-62.9833746898263
20
14.8467729074074
30
0.000000000000000
11
-62.8833746898263
21
14.8436990062162
31
0.000000000000000
  0
LINE
  5
F10129
330
F1012A
100
AcDbEntity
8
Geo
100
AcDbLine
10
-62.8833746898263
20
14.8436990062162
30
0.000000000000000
11
-62.7833746898263
21
14.8405868436359
31
0.000000000000000
  0
LINE
  5
F1012B
330
F1012C
100
AcDbEntity
8
Geo
100
AcDbLine
10
-62.7833746898263
20
14.8405868436359
30
0.000000000000000
11
-62.6833746898263
21
14.8374364347855
31
0.000000000000000
  0
LINE
  5
F1012D
330
F1012E
100
AcDbEntity
8
Geo
100
AcDbLine
10
-62.6833746898263
20
14.8374364347855
30
0.000000000000000
11
-62.5833746898263
21
14.8342477949696
31
0.000000000000000
  0
LINE
  5
F1012F
330
F10130
100
AcDbEntity
8
Geo
100
AcDbLine
10
-62.5833746898263
20
14.8342477949696
30
0.000000000000000
11
-62.4833746898263
21
14.8310209396787
31
0.000000000000000
  0
LINE
  5
F10131
330
F10132
100
AcDbEntity
8
Geo
100
AcDbLine
10
-62.4833746898263
20
14.8310209396787
30
0.000000000000000
11
-62.3833746898263
21
14.8277558845887
31
0.000000000000000
  0
LINE
  5
F10133
330
F10134
100
AcDbEntity
8
Geo
100
AcDbLine
10
-62.3833746898263
20
14.8277558845887
30
0.000000000000000
11
-62.2833746898263
21
14.8244526455613
31
0.000000000000000
  0
LINE
  5
F10135
330
F10136
100
AcDbEntity
8
Geo
100
AcDbLine
10
-62.2833746898263
20
14.8244526455613
30
0.000000000000000
11
-62.1833746898263
21
14.8211112386438
31
0.000000000000000
  0
LINE
  5
F10137
330
F10138
100
AcDbEntity
8
Geo
100
AcDbLine
10
-62.1833746898263
20
14.8211112386438
30
0.000000000000000
11
-62.0833746898263
21
14.8177316800685
31
0.000000000000000
  0
LINE
  5
F10139
330
F1013A
100
AcDbEntity
8
Geo
100
AcDbLine
10
-62.0833746898263
20
14.8177316800685
30
0.000000000000000
11
-61.9833746898263
21
14.8143139862534
31
0.000000000000000
  0
LINE
  5
F1013B
330
F1013C
100
AcDbEntity
8
Geo
100
AcDbLine
10
-61.9833746898263
20
14.8143139862534
30
0.000000000000000
11
-61.8833746898263
21
14.8108581738017
31
0.000000000000000
  0
LINE
  5
F1013D
330
F1013E
100
AcDbEntity
8
Geo
100
AcDbLine
10
-61.8833746898263
20
14.8108581738017
30
0.000000000000000
11
-61.7833746898263
21
14.8073642595016
31
0.000000000000000
  0
LINE
  5
F1013F
330
F10140
100
AcDbEntity
8
Geo
100
AcDbLine
10
-61.7833746898263
20
14.8073642595016
30
0.000000000000000
11
-61.6833746898263
21
14.8038322603267
31
0.000000000000000
  0
LINE
  5
F10141
330
F10142
100
AcDbEntity
8
Geo
100
AcDbLine
10
-61.6833746898263
20
14.8038322603267
30
0.000000000000000
11
-61.5833746898263
21
14.8002621934353
31
0.000000000000000
  0
LINE
  5
F10143
330
F10144
100
AcDbEntity
8
Geo
100
AcDbLine
10
-61.5833746898263
20
14.8002621934353
30
0.000000000000000
11
-61.4833746898263
21
14.7966540761709
31
0.000000000000000
  0
LINE
  5
F10145
330
F10146
100
AcDbEntity
8
Geo
100
AcDbLine
10
-61.4833746898263
20
14.7966540761709
30
0.000000000000000
11
-61.3833746898263
21
14.7930079260617
31
0.000000000000000
  0
LINE
  5
F10147
330
F10148
100
AcDbEntity
8
Geo
100
AcDbLine
10
-61.3833746898263
20
14.7930079260617
30
0.000000000000000
11
-61.2833746898263
21
14.7893237608206
31
0.000000000000000
  0
LINE
  5
F10149
330
F1014A
100
AcDbEntity
8
Geo
100
AcDbLine
10
-61.2833746898263
20
14.7893237608206
30
0.000000000000000
11
-61.1833746898263
21
14.7856015983453
31
0.000000000000000
  0
LINE
  5
F1014B
330
F1014C
100
AcDbEntity
8
Geo
100
AcDbLine
10
-61.1833746898263
20
14.7856015983453
30
0.000000000000000
11
-61.0833746898263
21
14.7818414567181
31
0.000000000000000
  0
LINE
  5
F1014D
330
F1014E
100
AcDbEntity
8
Geo
100
AcDbLine
10
-61.0833746898263
20
14.7818414567181
30
0.000000000000000
11
-60.9833746898263
21
14.7780433542058
31
0.000000000000000
  0
LINE
  5
F1014F
330
F10150
100
AcDbEntity
8
Geo
100
AcDbLine
10
-60.9833746898263
20
14.7780433542058
30
0.000000000000000
11
-60.8833746898263
21
14.7742073092595
31
0.000000000000000
  0
LINE
  5
F10151
330
F10152
100
AcDbEntity
8
Geo
100
AcDbLine
10
-60.8833746898263
20
14.7742073092595
30
0.000000000000000
11
-60.7833746898263
21
14.7703333405148
31
0.000000000000000
  0
LINE
  5
F10153
330
F10154
100
AcDbEntity
8
Geo
100
AcDbLine
10
-60.7833746898263
20
14.7703333405148
30
0.000000000000000
11
-60.6833746898263
21
14.7664214667913
31
0.000000000000000
  0
LINE
  5
F10155
330
F10156
100
AcDbEntity
8
Geo
100
AcDbLine
10
-60.6833746898263
20
14.7664214667913
30
0.000000000000000
11
-60.5833746898263
21
14.7624717070930
31
0.000000000000000
  0
LINE
  5
F10157
330
F10158
100
AcDbEntity
8
Geo
100
AcDbLine
10
-60.5833746898263
20
14.7624717070930
30
0.000000000000000
11
-60.4833746898263
21
14.7584840806078
31
0.000000000000000
  0
LINE
  5
F10159
330
F1015A
100
AcDbEntity
8
Geo
100
AcDbLine
10
-60.4833746898263
20
14.7584840806078
30
0.000000000000000
11
-60.3833746898263
21
14.7544586067075
31
0.000000000000000
  0
LINE
  5
F1015B
330
F1015C
100
AcDbEntity
8
Geo
100
AcDbLine
10
-60.3833746898263
20
14.7544586067075
30
0.000000000000000
11
-60.2833746898263
21
14.7503953049479
31
0.000000000000000
  0
LINE
  5
F1015D
330
F1015E
100
AcDbEntity
8
Geo
100
AcDbLine
10
-60.2833746898263
20
14.7503953049479
30
0.000000000000000
11
-60.1833746898263
21
14.7462941950685
31
0.000000000000000
  0
LINE
  5
F1015F
330
F10160
100
AcDbEntity
8
Geo
100
AcDbLine
10
-60.1833746898263
20
14.7462941950685
30
0.000000000000000
11
-60.0833746898263
21
14.7421552969925
31
0.000000000000000
  0
LINE
  5
F10161
330
F10162
100
AcDbEntity
8
Geo
100
AcDbLine
10
-60.0833746898263
20
14.7421552969925
30
0.000000000000000
11
-59.9833746898263
21
14.7379786308268
31
0.000000000000000
  0
LINE
  5
F10163
330
F10164
100
AcDbEntity
8
Geo
100
AcDbLine
10
-59.9833746898263
20
14.7379786308268
30
0.000000000000000
11
-59.8833746898263
21
14.7337642168614
31
0.000000000000000
  0
LINE
  5
F10165
330
F10166
100
AcDbEntity
8
Geo
100
AcDbLine
10
-59.8833746898263
20
14.7337642168614
30
0.000000000000000
11
-59.7833746898263
21
14.7295120755700
31
0.000000000000000
  0
LINE
  5
F10167
330
F10168
100
AcDbEntity
8
Geo
100
AcDbLine
10
-59.7833746898263
20
14.7295120755700
30
0.000000000000000
11
-59.6833746898263
21
14.7252222276096
31
0.000000000000000
  0
LINE
  5
F10169
330
F1016A
100
AcDbEntity
8
Geo
100
AcDbLine
10
-59.6833746898263
20
14.7252222276096
30
0.000000000000000
11
-59.5833746898263
21
14.7208946938201
31
0.000000000000000
  0
LINE
  5
F1016B
330
F1016C
100
AcDbEntity
8
Geo
100
AcDbLine
10
-59.5833746898263
20
14.7208946938201
30
0.000000000000000
11
-59.4833746898263
21
14.7165294952248
31
0.000000000000000
  0
LINE
  5
F1016D
330
F1016E
100
AcDbEntity
8
Geo
100
AcDbLine
10
-59.4833746898263
20
14.7165294952248
30
0.000000000000000
11
-59.3833746898263
21
14.7121266530298
31
0.000000000000000
  0
LINE
  5
F1016F
330
F10170
100
AcDbEntity
8
Geo
100
AcDbLine
10
-59.3833746898263
20
14.7121266530298
30
0.000000000000000
11
-59.2833746898263
21
14.7076861886241
31
0.000000000000000
  0
LINE
  5
F10171
330
F10172
100
AcDbEntity
8
Geo
100
AcDbLine
10
-59.2833746898263
20
14.7076861886241
30
0.000000000000000
11
-59.1833746898263
21
14.7032081235794
31
0.000000000000000
  0
LINE
  5
F10173
330
F10174
100
AcDbEntity
8
Geo
100
AcDbLine
10
-59.1833746898263
20
14.7032081235794
30
0.000000000000000
11
-59.0833746898263
21
14.6986924796502
31
0.000000000000000
  0
LINE
  5
F10175
330
F10176
100
AcDbEntity
8
Geo
100
AcDbLine
10
-59.0833746898263
20
14.6986924796502
30
0.000000000000000
11
-58.9833746898263
21
14.6941392787735
31
0.000000000000000
  0
LINE
  5
F10177
330
F10178
100
AcDbEntity
8
Geo
100
AcDbLine
10
-58.9833746898263
20
14.6941392787735
30
0.000000000000000
11
-58.8833746898263
21
14.6895485430687
31
0.000000000000000
  0
LINE
  5
F10179
330
F1017A
100
AcDbEntity
8
Geo
100
AcDbLine
10
-58.8833746898263
20
14.6895485430687
30
0.000000000000000
11
-58.7833746898263
21
14.6849202948376
31
0.000000000000000
  0
LINE
  5
F1017B
330
F1017C
100
AcDbEntity
8
Geo
100
AcDbLine
10
-58.7833746898263
20
14.6849202948376
30
0.000000000000000
11
-58.6833746898263
21
14.6802545565642
31
0.000000000000000
  0
LINE
  5
F1017D
330
F1017E
100
AcDbEntity
8
Geo
100
AcDbLine
10
-58.6833746898263
20
14.6802545565642
30
0.000000000000000
11
-58.5833746898263
21
14.6755513509147
31
0.000000000000000
  0
LINE
  5
F1017F
330
F10180
100
AcDbEntity
8
Geo
100
AcDbLine
10
-58.5833746898263
20
14.6755513509147
30
0.000000000000000
11
-58.4833746898263
21
14.6708107007373
31
0.000000000000000
  0
LINE
  5
F10181
330
F10182
100
AcDbEntity
8
Geo
100
AcDbLine
10
-58.4833746898263
20
14.6708107007373
30
0.000000000000000
11
-58.3833746898263
21
14.6660326290620
31
0.000000000000000
  0
LINE
  5
F10183
330
F10184
100
AcDbEntity
8
Geo
100
AcDbLine
10
-58.3833746898263
20
14.6660326290620
30
0.000000000000000
11
-58.2833746898263
21
14.6612171591007
31
0.000000000000000
  0
LINE
  5
F10185
330
F10186
100
AcDbEntity
8
Geo
100
AcDbLine
10
-58.2833746898263
20
14.6612171591007
30
0.000000000000000
11
-58.1833746898263
21
14.6563643142469
31
0.000000000000000
  0
LINE
  5
F10187
330
F10188
100
AcDbEntity
8
Geo
100
AcDbLine
10
-58.1833746898263
20
14.6563643142469
30
0.000000000000000
11
-58.0833746898263
21
14.6514741180757
31
0.000000000000000
  0
LINE
  5
F10189
330
F1018A
100
AcDbEntity
8
Geo
100
AcDbLine
10
-58.0833746898263
20
14.6514741180757
30
0.000000000000000
11
-57.9833746898263
21
14.6465465943438
31
0.000000000000000
  0
LINE
  5
F1018B
330
F1018C
100
AcDbEntity
8
Geo
100
AcDbLine
10
-57.9833746898263
20
14.6465465943438
30
0.000000000000000
11
-57.8833746898263
21
14.6415817669890
31
0.000000000000000
  0
LINE
  5
F1018D
330
F1018E
100
AcDbEntity
8
Geo
100
AcDbLine
10
-57.8833746898263
20
14.6415817669890
30
0.000000000000000
11
-57.7833746898263
21
14.6365796601305
31
0.000000000000000
  0
LINE
  5
F1018F
330
F10190
100
AcDbEntity
8
Geo
100
AcDbLine
10
-57.7833746898263
20
14.6365796601305
30
0.000000000000000
11
-57.6833746898263
21
14.6315402980684
31
0.000000000000000
  0
LINE
  5
F10191
330
F10192
100
AcDbEntity
8
Geo
100
AcDbLine
10
-57.6833746898263
20
14.6315402980684
30
0.000000000000000
11
-57.5833746898263
21
14.6264637052840
31
0.000000000000000
  0
LINE
  5
F10193
330
F10194
100
AcDbEntity
8
Geo
100
AcDbLine
10
-57.5833746898263
20
14.6264637052840
30
0.000000000000000
11
-57.4833746898263
21
14.6213499064393
31
0.000000000000000
  0
LINE
  5
F10195
330
F10196
100
AcDbEntity
8
Geo
100
AcDbLine
10
-57.4833746898263
20
14.6213499064393
30
0.000000000000000
11
-57.3833746898263
21
14.6161989263773
31
0.000000000000000
  0
LINE
  5
F10197
330
F10198
100
AcDbEntity
8
Geo
100
AcDbLine
10
-57.3833746898263
20
14.6161989263773
30
0.000000000000000
11
-57.2833746898263
21
14.6110107901213
31
0.000000000000000
  0
LINE
  5
F10199
330
F1019A
100
AcDbEntity
8
Geo
100
AcDbLine
10
-57.2833746898263
20
14.6110107901213
30
0.000000000000000
11
-57.1833746898263
21
14.6057855228753
31
0.000000000000000
  0
LINE
  5
F1019B
330
F1019C
100
AcDbEntity
8
Geo
100
AcDbLine
10
-57.1833746898263
20
14.6057855228753
30
0.000000000000000
11
-57.0833746898263
21
14.6005231500237
31
0.000000000000000
  0
LINE
  5
F1019D
330
F1019E
100
AcDbEntity
8
Geo
100
AcDbLine
10
-57.0833746898263
20
14.6005231500237
30
0.000000000000000
11
-56.9833746898263
21
14.5952236971310
31
0.000000000000000
  0
LINE
  5
F1019F
330
F101A0
100
AcDbEntity
8
Geo
100
AcDbLine
10
-56.9833746898263
20
14.5952236971310
30
0.000000000000000
11
-56.8833746898263
21
14.5898871899420
31
0.000000000000000
  0
LINE
  5
F101A1
330
F101A2
100
AcDbEntity
8
Geo
100
AcDbLine
10
-56.8833746898263
20
14.5898871899420
30
0.000000000000000
11
-56.7833746898263
21
14.5845136543815
31
0.000000000000000
  0
LINE
  5
F101A3
330
F101A4
100
AcDbEntity
8
Geo
100
AcDbLine
10
-56.7833746898263
20
14.5845136543815
30
0.000000000000000
11
-56.6833746898263
21
14.5791031165540
31
0.000000000000000
  0
LINE
  5
F101A5
330
F101A6
100
AcDbEntity
8
Geo
100
AcDbLine
10
-56.6833746898263
20
14.5791031165540
30
0.000000000000000
11
-56.5833746898263
21
14.5736556027439
31
0.000000000000000
  0
LINE
  5
F101A7
330
F101A8
100
AcDbEntity
8
Geo
100
AcDbLine
10
-56.5833746898263
20
14.5736556027439
30
0.000000000000000
11
-56.4833746898263
21
14.5681711394153
31
0.000000000000000
  0
LINE
  5
F101A9
330
F101AA
100
AcDbEntity
8
Geo
100
AcDbLine
10
-56.4833746898263
20
14.5681711394153
30
0.000000000000000
11
-56.3833746898263
21
14.5626497532117
31
0.000000000000000
  0
LINE
  5
F101AB
330
F101AC
100
AcDbEntity
8
Geo
100
AcDbLine
10
-56.3833746898263
20
14.5626497532117
30
0.000000000000000
11
-56.2833746898263
21
14.5570914709559
31
0.000000000000000
  0
LINE
  5
F101AD
330
F101AE
100
AcDbEntity
8
Geo
100
AcDbLine
10
-56.2833746898263
20
14.5570914709559
30
0.000000000000000
11
-56.1833746898263
21
14.5514963196502
31
0.000000000000000
  0
LINE
  5
F101AF
330
F101B0
100
AcDbEntity
8
Geo
100
AcDbLine
10
-56.1833746898263
20
14.5514963196502
30
0.000000000000000
11
-56.0833746898263
21
14.5458643264756
31
0.000000000000000
  0
LINE
  5
F101B1
330
F101B2
100
AcDbEntity
8
Geo
100
AcDbLine
10
-56.0833746898263
20
14.5458643264756
30
0.000000000000000
11
-55.9833746898263
21
14.5401955187925
31
0.000000000000000
  0
LINE
  5
F101B3
330
F101B4
100
AcDbEntity
8
Geo
100
AcDbLine
10
-55.9833746898263
20
14.5401955187925
30
0.000000000000000
11
-55.8833746898263
21
14.5344899241399
31
0.000000000000000
  0
LINE
  5
F101B5
330
F101B6
100
AcDbEntity
8
Geo
100
AcDbLine
10
-55.8833746898263
20
14.5344899241399
30
0.000000000000000
11
-55.7833746898263
21
14.5287475702356
31
0.000000000000000
  0
LINE
  5
F101B7
330
F101B8
100
AcDbEntity
8
Geo
100
AcDbLine
10
-55.7833746898263
20
14.5287475702356
30
0.000000000000000
11
-55.6833746898263
21
14.5229684849759
31
0.000000000000000
  0
LINE
  5
F101B9
330
F101BA
100
AcDbEntity
8
Geo
100
AcDbLine
10
-55.6833746898263
20
14.5229684849759
30
0.000000000000000
11
-55.5833746898263
21
14.5171526964356
31
0.000000000000000
  0
LINE
  5
F101BB
330
F101BC
100
AcDbEntity
8
Geo
100
AcDbLine
10
-55.5833746898263
20
14.5171526964356
30
0.000000000000000
11
-55.4833746898263
21
14.5113002328678
31
0.000000000000000
  0
LINE
  5
F101BD
330
F101BE
100
AcDbEntity
8
Geo
100
AcDbLine
10
-55.4833746898263
20
14.5113002328678
30
0.000000000000000
11
-55.3833746898263
21
14.5054111227038
31
0.000000000000000
  0
LINE
  5
F101BF
330
F101C0
100
AcDbEntity
8
Geo
100
AcDbLine
10
-55.3833746898263
20
14.5054111227038
30
0.000000000000000
11
-55.2833746898263
21
14.4994853945529
31
0.000000000000000
  0
LINE
  5
F101C1
330
F101C2
100
AcDbEntity
8
Geo
100
AcDbLine
10
-55.2833746898263
20
14.4994853945529
30
0.000000000000000
11
-55.1833746898263
21
14.4935230772021
31
0.000000000000000
  0
LINE
  5
F101C3
330
F101C4
100
AcDbEntity
8
Geo
100
AcDbLine
10
-55.1833746898263
20
14.4935230772021
30
0.000000000000000
11
-55.0833746898263
21
14.4875241996165
31
0.000000000000000
  0
LINE
  5
F101C5
330
F101C6
100
AcDbEntity
8
Geo
100
AcDbLine
10
-55.0833746898263
20
14.4875241996165
30
0.000000000000000
11
-54.9833746898263
21
14.4814887909387
31
0.000000000000000
  0
LINE
  5
F101C7
330
F101C8
100
AcDbEntity
8
Geo
100
AcDbLine
10
-54.9833746898263
20
14.4814887909387
30
0.000000000000000
11
-54.8833746898263
21
14.4754168804885
31
0.000000000000000
  0
LINE
  5
F101C9
330
F101CA
100
AcDbEntity
8
Geo
100
AcDbLine
10
-54.8833746898263
20
14.4754168804885
30
0.000000000000000
11
-54.7833746898263
21
14.4693084977634
31
0.000000000000000
  0
LINE
  5
F101CB
330
F101CC
100
AcDbEntity
8
Geo
100
AcDbLine
10
-54.7833746898263
20
14.4693084977634
30
0.000000000000000
11
-54.6833746898263
21
14.4631636724378
31
0.000000000000000
  0
LINE
  5
F101CD
330
F101CE
100
AcDbEntity
8
Geo
100
AcDbLine
10
-54.6833746898263
20
14.4631636724378
30
0.000000000000000
11
-54.5833746898263
21
14.4569824343634
31
0.000000000000000
  0
LINE
  5
F101CF
330
F101D0
100
AcDbEntity
8
Geo
100
AcDbLine
10
-54.5833746898263
20
14.4569824343634
30
0.000000000000000
11
-54.4833746898263
21
14.4507648135685
31
0.000000000000000
  0
LINE
  5
F101D1
330
F101D2
100
AcDbEntity
8
Geo
100
AcDbLine
10
-54.4833746898263
20
14.4507648135685
30
0.000000000000000
11
-54.3833746898263
21
14.4445108402584
31
0.000000000000000
  0
LINE
  5
F101D3
330
F101D4
100
AcDbEntity
8
Geo
100
AcDbLine
10
-54.3833746898263
20
14.4445108402584
30
0.000000000000000
11
-54.2833746898263
21
14.4382205448148
31
0.000000000000000
  0
LINE
  5
F101D5
330
F101D6
100
AcDbEntity
8
Geo
100
AcDbLine
10
-54.2833746898263
20
14.4382205448148
30
0.000000000000000
11
-54.1833746898263
21
14.4318939577960
31
0.000000000000000
  0
LINE
  5
F101D7
330
F101D8
100
AcDbEntity
8
Geo
100
AcDbLine
10
-54.1833746898263
20
14.4318939577960
30
0.000000000000000
11
-54.0833746898263
21
14.4255311099365
31
0.000000000000000
  0
LINE
  5
F101D9
330
F101DA
100
AcDbEntity
8
Geo
100
AcDbLine
10
-54.0833746898263
20
14.4255311099365
30
0.000000000000000
11
-53.9833746898263
21
14.4191320321471
31
0.000000000000000
  0
LINE
  5
F101DB
330
F101DC
100
AcDbEntity
8
Geo
100
AcDbLine
10
-53.9833746898263
20
14.4191320321471
30
0.000000000000000
11
-53.8833746898263
21
14.4126967555145
31
0.000000000000000
  0
LINE
  5
F101DD
330
F101DE
100
AcDbEntity
8
Geo
100
AcDbLine
10
-53.8833746898263
20
14.4126967555145
30
0.000000000000000
11
-53.7833746898263
21
14.4062253113011
31
0.000000000000000
  0
LINE
  5
F101DF
330
F101E0
100
AcDbEntity
8
Geo
100
AcDbLine
10
-53.7833746898263
20
14.4062253113011
30
0.000000000000000
11
-53.6833746898263
21
14.3997177309454
31
0.000000000000000
  0
LINE
  5
F101E1
330
F101E2
100
AcDbEntity
8
Geo
100
AcDbLine
10
-53.6833746898263
20
14.3997177309454
30
0.000000000000000
11
-53.5833746898263
21
14.3931740460611
31
0.000000000000000
  0
LINE
  5
F101E3
330
F101E4
100
AcDbEntity
8
Geo
100
AcDbLine
10
-53.5833746898263
20
14.3931740460611
30
0.000000000000000
11
-53.4833746898263
21
14.3865942884374
31
0.000000000000000
  0
LINE
  5
F101E5
330
F101E6
100
AcDbEntity
8
Geo
100
AcDbLine
10
-53.4833746898263
20
14.3865942884374
30
0.000000000000000
11
-53.3833746898263
21
14.3799784900388
31
0.000000000000000
  0
LINE
  5
F101E7
330
F101E8
100
AcDbEntity
8
Geo
100
AcDbLine
10
-53.3833746898263
20
14.3799784900388
30
0.000000000000000
11
-53.2833746898263
21
14.3733266830048
31
0.000000000000000
  0
LINE
  5
F101E9
330
F101EA
100
AcDbEntity
8
Geo
100
AcDbLine
10
-53.2833746898263
20
14.3733266830048
30
0.000000000000000
11
-53.1833746898263
21
14.3666388996499
31
0.000000000000000
  0
LINE
  5
F101EB
330
F101EC
100
AcDbEntity
8
Geo
100
AcDbLine
10
-53.1833746898263
20
14.3666388996499
30
0.000000000000000
11
-53.0833746898263
21
14.3599151724633
31
0.000000000000000
  0
LINE
  5
F101ED
330
F101EE
100
AcDbEntity
8
Geo
100
AcDbLine
10
-53.0833746898263
20
14.3599151724633
30
0.000000000000000
11
-52.9833746898263
21
14.3531555341089
31
0.000000000000000
  0
LINE
  5
F101EF
330
F101F0
100
AcDbEntity
8
Geo
100
AcDbLine
10
-52.9833746898263
20
14.3531555341089
30
0.000000000000000
11
-52.8833746898263
21
14.3463600174250
31
0.000000000000000
  0
LINE
  5
F101F1
330
F101F2
100
AcDbEntity
8
Geo
100
AcDbLine
10
-52.8833746898263
20
14.3463600174250
30
0.000000000000000
11
-52.7833746898263
21
14.3395286554242
31
0.000000000000000
  0
LINE
  5
F101F3
330
F101F4
100
AcDbEntity
8
Geo
100
AcDbLine
10
-52.7833746898263
20
14.3395286554242
30
0.000000000000000
11
-52.6833746898263
21
14.3326614812933
31
0.000000000000000
  0
LINE
  5
F101F5
330
F101F6
100
AcDbEntity
8
Geo
100
AcDbLine
10
-52.6833746898263
20
14.3326614812933
30
0.000000000000000
11
-52.5833746898263
21
14.3257585283930
31
0.000000000000000
  0
LINE
  5
F101F7
330
F101F8
100
AcDbEntity
8
Geo
100
AcDbLine
10
-52.5833746898263
20
14.3257585283930
30
0.000000000000000
11
-52.4833746898263
21
14.3188198302577
31
0.000000000000000
  0
LINE
  5
F101F9
330
F101FA
100
AcDbEntity
8
Geo
100
AcDbLine
10
-52.4833746898263
20
14.3188198302577
30
0.000000000000000
11
-52.3833746898263
21
14.3118454205958
31
0.000000000000000
  0
LINE
  5
F101FB
330
F101FC
100
AcDbEntity
8
Geo
100
AcDbLine
10
-52.3833746898263
20
14.3118454205958
30
0.000000000000000
11
-52.2833746898263
21
14.3048353332889
31
0.000000000000000
  0
LINE
  5
F101FD
330
F101FE
100
AcDbEntity
8
Geo
100
AcDbLine
10
-52.2833746898263
20
14.3048353332889
30
0.000000000000000
11
-52.1833746898263
21
14.2977896023919
31
0.000000000000000
  0
LINE
  5
F101FF
330
F10200
100
AcDbEntity
8
Geo
100
AcDbLine
10
-52.1833746898263
20
14.2977896023919
30
0.000000000000000
11
-52.0833746898263
21
14.2907082621331
31
0.000000000000000
  0
LINE
  5
F10201
330
F10202
100
AcDbEntity
8
Geo
100
AcDbLine
10
-52.0833746898263
20
14.2907082621331
30
0.000000000000000
11
-51.9833746898263
21
14.2835913469135
31
0.000000000000000
  0
LINE
  5
F10203
330
F10204
100
AcDbEntity
8
Geo
100
AcDbLine
10
-51.9833746898263
20
14.2835913469135
30
0.000000000000000
11
-51.8833746898263
21
14.2764388913072
31
0.000000000000000
  0
LINE
  5
F10205
330
F10206
100
AcDbEntity
8
Geo
100
AcDbLine
10
-51.8833746898263
20
14.2764388913072
30
0.000000000000000
11
-51.7833746898263
21
14.2692509300607
31
0.000000000000000
  0
LINE
  5
F10207
330
F10208
100
AcDbEntity
8
Geo
100
AcDbLine
10
-51.7833746898263
20
14.2692509300607
30
0.000000000000000
11
-51.6833746898263
21
14.2620274980932
31
0.000000000000000
  0
LINE
  5
F10209
330
F1020A
100
AcDbEntity
8
Geo
100
AcDbLine
10
-51.6833746898263
20
14.2620274980932
30
0.000000000000000
11
-51.5833746898263
21
14.2547686304960
31
0.000000000000000
  0
LINE
  5
F1020B
330
F1020C
100
AcDbEntity
8
Geo
100
AcDbLine
10
-51.5833746898263
20
14.2547686304960
30
0.000000000000000
11
-51.4833746898263
21
14.2474743625328
31
0.000000000000000
  0
LINE
  5
F1020D
330
F1020E
100
AcDbEntity
8
Geo
100
AcDbLine
10
-51.4833746898263
20
14.2474743625328
30
0.000000000000000
11
-51.3833746898263
21
14.2401447296391
31
0.000000000000000
  0
LINE
  5
F1020F
330
F10210
100
AcDbEntity
8
Geo
100
AcDbLine
10
-51.3833746898263
20
14.2401447296391
30
0.000000000000000
11
-51.2833746898263
21
14.2327797674223
31
0.000000000000000
  0
LINE
  5
F10211
330
F10212
100
AcDbEntity
8
Geo
100
AcDbLine
10
-51.2833746898263
20
14.2327797674223
30
0.000000000000000
11
-51.1833746898263
21
14.2253795116612
31
0.000000000000000
  0
LINE
  5
F10213
330
F10214
100
AcDbEntity
8
Geo
100
AcDbLine
10
-51.1833746898263
20
14.2253795116612
30
0.000000000000000
11
-51.0833746898263
21
14.2179439983064
31
0.000000000000000
  0
LINE
  5
F10215
330
F10216
100
AcDbEntity
8
Geo
100
AcDbLine
10
-51.0833746898263
20
14.2179439983064
30
0.000000000000000
11
-50.9833746898263
21
14.2104732634796
31
0.000000000000000
  0
LINE
  5
F10217
330
F10218
100
AcDbEntity
8
Geo
100
AcDbLine
10
-50.9833746898263
20
14.2104732634796
30
0.000000000000000
11
-50.8833746898263
21
14.2029673434735
31
0.000000000000000
  0
LINE
  5
F10219
330
F1021A
100
AcDbEntity
8
Geo
100
AcDbLine
10
-50.8833746898263
20
14.2029673434735
30
0.000000000000000
11
-50.7833746898263
21
14.0318323036558
31
0.000000000000000
  0
LINE
  5
F1021B
330
F1021C
100
AcDbEntity
8
Geo
100
AcDbLine
10
-50.7833746898263
20
14.0318323036558
30
0.000000000000000
11
-50.6833746898263
21
14.2885071930520
31
0.000000000000000
  0
LINE
  5
F1021D
330
F1021E
100
AcDbEntity
8
Geo
100
AcDbLine
10
-70.8833746898263
20
11.2474962588121
30
0.000000000000000
11
-70.7833746898263
21
12.0338601062387
31
0.000000000000000
  0
LINE
  5
F1021F
330
F10220
100
AcDbEntity
8
Geo
100
AcDbLine
10
-70.7833746898263
20
12.0338601062387
30
0.000000000000000
11
-70.6833746898263
21
12.3488383955176
31
0.000000000000000
  0
LINE
  5
F10221
330
F10222
100
AcDbEntity
8
Geo
100
AcDbLine
10
-70.6833746898263
20
12.3488383955176
30
0.000000000000000
11
-70.5833746898263
21
12.5836368999200
31
0.000000000000000
  0
LINE
  5
F10223
330
F10224
100
AcDbEntity
8
Geo
100
AcDbLine
10
-70.5833746898263
20
12.5836368999200
30
0.000000000000000
11
-70.4833746898263
21
12.7758675884629
31
0.000000000000000
  0
LINE
  5
F10225
330
F10226
100
AcDbEntity
8
Geo
100
AcDbLine
10
-70.4833746898263
20
12.7758675884629
30
0.000000000000000
11
-70.3833746898263
21
12.9402100953105
31
0.000000000000000
  0
LINE
  5
F10227
330
F10228
100
AcDbEntity
8
Geo
100
AcDbLine
10
-70.3833746898263
20
12.9402100953105
30
0.000000000000000
11
-70.2833746898263
21
13.0842445903829
31
0.000000000000000
  0
LINE
  5
F10229
330
F1022A
100
AcDbEntity
8
Geo
100
AcDbLine
10
-70.2833746898263
20
13.0842445903829
30
0.000000000000000
11
-70.1833746898263
21
13.2125022751311
31
0.000000000000000
  0
LINE
  5
F1022B
330
F1022C
100
AcDbEntity
8
Geo
100
AcDbLine
10
-70.1833746898263
20
13.2125022751311
30
0.000000000000000
11
-70.0833746898263
21
13.3279523534361
31
0.000000000000000
  0
LINE
  5
F1022D
330
F1022E
100
AcDbEntity
8
Geo
100
AcDbLine
10
-70.0833746898263
20
13.3279523534361
30
0.000000000000000
11
-69.9833746898263
21
13.4326678431466
31
0.000000000000000
  0
LINE
  5
F1022F
330
F10230
100
AcDbEntity
8
Geo
100
AcDbLine
10
-69.9833746898263
20
13.4326678431466
30
0.000000000000000
11
-69.8833746898263
21
13.5281649205966
31
0.000000000000000
  0
LINE
  5
F10231
330
F10232
100
AcDbEntity
8
Geo
100
AcDbLine
10
-69.8833746898263
20
13.5281649205966
30
0.000000000000000
11
-69.7833746898263
21
13.6155925771426
31
0.000000000000000
  0
LINE
  5
F10233
330
F10234
100
AcDbEntity
8
Geo
100
AcDbLine
10
-69.7833746898263
20
13.6155925771426
30
0.000000000000000
11
-69.6833746898263
21
13.6958462297522
31
0.000000000000000
  0
LINE
  5
F10235
330
F10236
100
AcDbEntity
8
Geo
100
AcDbLine
10
-69.6833746898263
20
13.6958462297522
30
0.000000000000000
11
-69.5833746898263
21
13.7696395708774
31
0.000000000000000
  0
LINE
  5
F10237
330
F10238
100
AcDbEntity
8
Geo
100
AcDbLine
10
-69.5833746898263
20
13.7696395708774
30
0.000000000000000
11
-69.4833746898263
21
13.8375520349249
31
0.000000000000000
  0
LINE
  5
F10239
330
F1023A
100
AcDbEntity
8
Geo
100
AcDbLine
10
-69.4833746898263
20
13.8375520349249
30
0.000000000000000
11
-69.3833746898263
21
13.9000613022554
31
0.000000000000000
  0
LINE
  5
F1023B
330
F1023C
100
AcDbEntity
8
Geo
100
AcDbLine
10
-69.3833746898263
20
13.9000613022554
30
0.000000000000000
11
-69.2833746898263
21
13.9575662359052
31
0.000000000000000
  0
LINE
  5
F1023D
330
F1023E
100
AcDbEntity
8
Geo
100
AcDbLine
10
-69.2833746898263
20
13.9575662359052
30
0.000000000000000
11
-69.1833746898263
21
14.0104034847887
31
0.000000000000000
  0
LINE
  5
F1023F
330
F10240
100
AcDbEntity
8
Geo
100
AcDbLine
10
-69.1833746898263
20
14.0104034847887
30
0.000000000000000
11
-69.0833746898263
21
14.0588597677412
31
0.000000000000000
  0
LINE
  5
F10241
330
F10242
100
AcDbEntity
8
Geo
100
AcDbLine
10
-69.0833746898263
20
14.0588597677412
30
0.000000000000000
11
-68.9833746898263
21
14.1031811352809
31
0.000000000000000
  0
LINE
  5
F10243
330
F10244
100
AcDbEntity
8
Geo
100
AcDbLine
10
-68.9833746898263
20
14.1031811352809
30
0.000000000000000
11
-68.8833746898263
21
14.1435800682735
31
0.000000000000000
  0
LINE
  5
F10245
330
F10246
100
AcDbEntity
8
Geo
100
AcDbLine
10
-68.8833746898263
20
14.1435800682735
30
0.000000000000000
11
-68.7833746898263
21
14.1802409971231
31
0.000000000000000
  0
LINE
  5
F10247
330
F10248
100
AcDbEntity
8
Geo
100
AcDbLine
10
-68.7833746898263
20
14.1802409971231
30
0.000000000000000
11
-68.6833746898263
21
14.2133246467675
31
0.000000000000000
  0
LINE
  5
F10249
330
F1024A
100
AcDbEntity
8
Geo
100
AcDbLine
10
-68.6833746898263
20
14.2133246467675
30
0.000000000000000
11
-68.5833746898263
21
14.2429714944467
31
0.000000000000000
  0
LINE
  5
F1024B
330
F1024C
100
AcDbEntity
8
Geo
100
AcDbLine
10
-68.5833746898263
20
14.2429714944467
30
0.000000000000000
11
-68.4833746898263
21
14.2693045470040
31
0.000000000000000
  0
LINE
  5
F1024D
330
F1024E
100
AcDbEntity
8
Geo
100
AcDbLine
10
-68.4833746898263
20
14.2693045470040
30
0.000000000000000
11
-68.3833746898263
21
14.2924315889875
31
0.000000000000000
  0
LINE
  5
F1024F
330
F10250
100
AcDbEntity
8
Geo
100
AcDbLine
10
-68.3833746898263
20
14.2924315889875
30
0.000000000000000
11
-68.2833746898263
21
14.3124470137483
31
0.000000000000000
  0
LINE
  5
F10251
330
F10252
100
AcDbEntity
8
Geo
100
AcDbLine
10
-68.2833746898263
20
14.3124470137483
30
0.000000000000000
11
-68.1833746898263
21
14.3294333217432
31
0.000000000000000
  0
LINE
  5
F10253
330
F10254
100
AcDbEntity
8
Geo
100
AcDbLine
10
-68.1833746898263
20
14.3294333217432
30
0.000000000000000
11
-68.0833746898263
21
14.3434623498904
31
0.000000000000000
  0
LINE
  5
F10255
330
F10256
100
AcDbEntity
8
Geo
100
AcDbLine
10
-68.0833746898263
20
14.3434623498904
30
0.000000000000000
11
-67.9833746898263
21
14.3545962807970
31
0.000000000000000
  0
LINE
  5
F10257
330
F10258
100
AcDbEntity
8
Geo
100
AcDbLine
10
-67.9833746898263
20
14.3545962807970
30
0.000000000000000
11
-67.8833746898263
21
14.3628884694080
31
0.000000000000000
  0
LINE
  5
F10259
330
F1025A
100
AcDbEntity
8
Geo
100
AcDbLine
10
-67.8833746898263
20
14.3628884694080
30
0.000000000000000
11
-67.7833746898263
21
14.3683841160610
31
0.000000000000000
  0
LINE
  5
F1025B
330
F1025C
100
AcDbEntity
8
Geo
100
AcDbLine
10
-67.7833746898263
20
14.3683841160610
30
0.000000000000000
11
-67.6833746898263
21
14.3711208083084
31
0.000000000000000
  0
LINE
  5
F1025D
330
F1025E
100
AcDbEntity
8
Geo
100
AcDbLine
10
-67.6833746898263
20
14.3711208083084
30
0.000000000000000
11
-67.5833746898263
21
14.3711289486594
31
0.000000000000000
  0
LINE
  5
F1025F
330
F10260
100
AcDbEntity
8
Geo
100
AcDbLine
10
-67.5833746898263
20
14.3711289486594
30
0.000000000000000
11
-67.4833746898263
21
14.3684320812120
31
0.000000000000000
  0
LINE
  5
F10261
330
F10262
100
AcDbEntity
8
Geo
100
AcDbLine
10
-67.4833746898263
20
14.3684320812120
30
0.000000000000000
11
-67.3833746898263
21
14.3630471267002
31
0.000000000000000
  0
LINE
  5
F10263
330
F10264
100
AcDbEntity
8
Geo
100
AcDbLine
10
-67.3833746898263
20
14.3630471267002
30
0.000000000000000
11
-67.2833746898263
21
14.3563041880494
31
0.000000000000000
  0
LINE
  5
F10265
330
F10266
100
AcDbEntity
8
Geo
100
AcDbLine
10
-67.2833746898263
20
14.3563041880494
30
0.000000000000000
11
-67.1833746898263
21
14.3495253557728
31
0.000000000000000
  0
LINE
  5
F10267
330
F10268
100
AcDbEntity
8
Geo
100
AcDbLine
10
-67.1833746898263
20
14.3495253557728
30
0.000000000000000
11
-67.0833746898263
21
14.3427106628022
31
0.000000000000000
  0
LINE
  5
F10269
330
F1026A
100
AcDbEntity
8
Geo
100
AcDbLine
10
-67.0833746898263
20
14.3427106628022
30
0.000000000000000
11
-66.9833746898263
21
14.3358601422433
31
0.000000000000000
  0
LINE
  5
F1026B
330
F1026C
100
AcDbEntity
8
Geo
100
AcDbLine
10
-66.9833746898263
20
14.3358601422433
30
0.000000000000000
11
-66.8833746898263
21
14.3289738273759
31
0.000000000000000
  0
LINE
  5
F1026D
330
F1026E
100
AcDbEntity
8
Geo
100
AcDbLine
10
-66.8833746898263
20
14.3289738273759
30
0.000000000000000
11
-66.7833746898263
21
14.3220517516536
31
0.000000000000000
  0
LINE
  5
F1026F
330
F10270
100
AcDbEntity
8
Geo
100
AcDbLine
10
-66.7833746898263
20
14.3220517516536
30
0.000000000000000
11
-66.6833746898263
21
14.3150939487040
31
0.000000000000000
  0
LINE
  5
F10271
330
F10272
100
AcDbEntity
8
Geo
100
AcDbLine
10
-66.6833746898263
20
14.3150939487040
30
0.000000000000000
11
-66.5833746898263
21
14.3081004523280
31
0.000000000000000
  0
LINE
  5
F10273
330
F10274
100
AcDbEntity
8
Geo
100
AcDbLine
10
-66.5833746898263
20
14.3081004523280
30
0.000000000000000
11
-66.4833746898263
21
14.3010712965001
31
0.000000000000000
  0
LINE
  5
F10275
330
F10276
100
AcDbEntity
8
Geo
100
AcDbLine
10
-66.4833746898263
20
14.3010712965001
30
0.000000000000000
11
-66.3833746898263
21
14.2940065153678
31
0.000000000000000
  0
LINE
  5
F10277
330
F10278
100
AcDbEntity
8
Geo
100
AcDbLine
10
-66.3833746898263
20
14.2940065153678
30
0.000000000000000
11
-66.2833746898263
21
14.2869061432519
31
0.000000000000000
  0
LINE
  5
F10279
330
F1027A
100
AcDbEntity
8
Geo
100
AcDbLine
10
-66.2833746898263
20
14.2869061432519
30
0.000000000000000
11
-66.1833746898263
21
14.2797702146459
31
0.000000000000000
  0
LINE
  5
F1027B
330
F1027C
100
AcDbEntity
8
Geo
100
AcDbLine
10
-66.1833746898263
20
14.2797702146459
30
0.000000000000000
11
-66.0833746898263
21
14.2725987642162
31
0.000000000000000
  0
LINE
  5
F1027D
330
F1027E
100
AcDbEntity
8
Geo
100
AcDbLine
10
-66.0833746898263
20
14.2725987642162
30
0.000000000000000
11
-65.9833746898263
21
14.2653918268017
31
0.000000000000000
  0
LINE
  5
F1027F
330
F10280
100
AcDbEntity
8
Geo
100
AcDbLine
10
-65.9833746898263
20
14.2653918268017
30
0.000000000000000
11
-65.8833746898263
21
14.2581494374137
31
0.000000000000000
  0
LINE
  5
F10281
330
F10282
100
AcDbEntity
8
Geo
100
AcDbLine
10
-65.8833746898263
20
14.2581494374137
30
0.000000000000000
11
-65.7833746898263
21
14.2508716312357
31
0.000000000000000
  0
LINE
  5
F10283
330
F10284
100
AcDbEntity
8
Geo
100
AcDbLine
10
-65.7833746898263
20
14.2508716312357
30
0.000000000000000
11
-65.6833746898263
21
14.2435584436232
31
0.000000000000000
  0
LINE
  5
F10285
330
F10286
100
AcDbEntity
8
Geo
100
AcDbLine
10
-65.6833746898263
20
14.2435584436232
30
0.000000000000000
11
-65.5833746898263
21
14.2362099101037
31
0.000000000000000
  0
LINE
  5
F10287
330
F10288
100
AcDbEntity
8
Geo
100
AcDbLine
10
-65.5833746898263
20
14.2362099101037
30
0.000000000000000
11
-65.4833746898263
21
14.2288260663765
31
0.000000000000000
  0
LINE
  5
F10289
330
F1028A
100
AcDbEntity
8
Geo
100
AcDbLine
10
-65.4833746898263
20
14.2288260663765
30
0.000000000000000
11
-65.3833746898263
21
14.2214069483121
31
0.000000000000000
  0
LINE
  5
F1028B
330
F1028C
100
AcDbEntity
8
Geo
100
AcDbLine
10
-65.3833746898263
20
14.2214069483121
30
0.000000000000000
11
-65.2833746898263
21
14.2139525919527
31
0.000000000000000
  0
LINE
  5
F1028D
330
F1028E
100
AcDbEntity
8
Geo
100
AcDbLine
10
-65.2833746898263
20
14.2139525919527
30
0.000000000000000
11
-65.1833746898263
21
14.2064630335115
31
0.000000000000000
  0
LINE
  5
F1028F
330
F10290
100
AcDbEntity
8
Geo
100
AcDbLine
10
-65.1833746898263
20
14.2064630335115
30
0.000000000000000
11
-65.0833746898263
21
14.1989383093728
31
0.000000000000000
  0
LINE
  5
F10291
330
F10292
100
AcDbEntity
8
Geo
100
AcDbLine
10
-65.0833746898263
20
14.1989383093728
30
0.000000000000000
11
-64.9833746898263
21
14.1913784560917
31
0.000000000000000
  0
LINE
  5
F10293
330
F10294
100
AcDbEntity
8
Geo
100
AcDbLine
10
-64.9833746898263
20
14.1913784560917
30
0.000000000000000
11
-64.8833746898263
21
14.1837835103938
31
0.000000000000000
  0
LINE
  5
F10295
330
F10296
100
AcDbEntity
8
Geo
100
AcDbLine
10
-64.8833746898263
20
14.1837835103938
30
0.000000000000000
11
-64.7833746898263
21
14.1761535091756
31
0.000000000000000
  0
LINE
  5
F10297
330
F10298
100
AcDbEntity
8
Geo
100
AcDbLine
10
-64.7833746898263
20
14.1761535091756
30
0.000000000000000
11
-64.6833746898263
21
14.1684884895035
31
0.000000000000000
  0
LINE
  5
F10299
330
F1029A
100
AcDbEntity
8
Geo
100
AcDbLine
10
-64.6833746898263
20
14.1684884895035
30
0.000000000000000
11
-64.5833746898263
21
14.1607884886141
31
0.000000000000000
  0
LINE
  5
F1029B
330
F1029C
100
AcDbEntity
8
Geo
100
AcDbLine
10
-64.5833746898263
20
14.1607884886141
30
0.000000000000000
11
-64.4833746898263
21
14.1530535439141
31
0.000000000000000
  0
LINE
  5
F1029D
330
F1029E
100
AcDbEntity
8
Geo
100
AcDbLine
10
-64.4833746898263
20
14.1530535439141
30
0.000000000000000
11
-64.3833746898263
21
14.1452836929797
31
0.000000000000000
  0
LINE
  5
F1029F
330
F102A0
100
AcDbEntity
8
Geo
100
AcDbLine
10
-64.3833746898263
20
14.1452836929797
30
0.000000000000000
11
-64.2833746898263
21
14.1374789735570
31
0.000000000000000
  0
LINE
  5
F102A1
330
F102A2
100
AcDbEntity
8
Geo
100
AcDbLine
10
-64.2833746898263
20
14.1374789735570
30
0.000000000000000
11
-64.1833746898263
21
14.1296394235613
31
0.000000000000000
  0
LINE
  5
F102A3
330
F102A4
100
AcDbEntity
8
Geo
100
AcDbLine
10
-64.1833746898263
20
14.1296394235613
30
0.000000000000000
11
-64.0833746898263
21
14.1217650810770
31
0.000000000000000
  0
LINE
  5
F102A5
330
F102A6
100
AcDbEntity
8
Geo
100
AcDbLine
10
-64.0833746898263
20
14.1217650810770
30
0.000000000000000
11
-63.9833746898263
21
14.1138559843578
31
0.000000000000000
  0
LINE
  5
F102A7
330
F102A8
100
AcDbEntity
8
Geo
100
AcDbLine
10
-63.9833746898263
20
14.1138559843578
30
0.000000000000000
11
-63.8833746898263
21
14.1059121718259
31
0.000000000000000
  0
LINE
  5
F102A9
330
F102AA
100
AcDbEntity
8
Geo
100
AcDbLine
10
-63.8833746898263
20
14.1059121718259
30
0.000000000000000
11
-63.7833746898263
21
14.0979336820725
31
0.000000000000000
  0
LINE
  5
F102AB
330
F102AC
100
AcDbEntity
8
Geo
100
AcDbLine
10
-63.7833746898263
20
14.0979336820725
30
0.000000000000000
11
-63.6833746898263
21
14.0899205538570
31
0.000000000000000
  0
LINE
  5
F102AD
330
F102AE
100
AcDbEntity
8
Geo
100
AcDbLine
10
-63.6833746898263
20
14.0899205538570
30
0.000000000000000
11
-63.5833746898263
21
14.0818728261072
31
0.000000000000000
  0
LINE
  5
F102AF
330
F102B0
100
AcDbEntity
8
Geo
100
AcDbLine
10
-63.5833746898263
20
14.0818728261072
30
0.000000000000000
11
-63.4833746898263
21
14.0737905379189
31
0.000000000000000
  0
LINE
  5
F102B1
330
F102B2
100
AcDbEntity
8
Geo
100
AcDbLine
10
-63.4833746898263
20
14.0737905379189
30
0.000000000000000
11
-63.3833746898263
21
14.0656737285559
31
0.000000000000000
  0
LINE
  5
F102B3
330
F102B4
100
AcDbEntity
8
Geo
100
AcDbLine
10
-63.3833746898263
20
14.0656737285559
30
0.000000000000000
11
-63.2833746898263
21
14.0575224374496
31
0.000000000000000
  0
LINE
  5
F102B5
330
F102B6
100
AcDbEntity
8
Geo
100
AcDbLine
10
-63.2833746898263
20
14.0575224374496
30
0.000000000000000
11
-63.1833746898263
21
14.0493367041991
31
0.000000000000000
  0
LINE
  5
F102B7
330
F102B8
100
AcDbEntity
8
Geo
100
AcDbLine
10
-63.1833746898263
20
14.0493367041991
30
0.000000000000000
11
-63.0833746898263
21
14.0411165685705
31
0.000000000000000
  0
LINE
  5
F102B9
330
F102BA
100
AcDbEntity
8
Geo
100
AcDbLine
10
-63.0833746898263
20
14.0411165685705
30
0.000000000000000
11
-62.9833746898263
21
14.0328620704973
31
0.000000000000000
  0
LINE
  5
F102BB
330
F102BC
100
AcDbEntity
8
Geo
100
AcDbLine
10
-62.9833746898263
20
14.0328620704973
30
0.000000000000000
11
-62.8833746898263
21
14.0245732500798
31
0.000000000000000
  0
LINE
  5
F102BD
330
F102BE
100
AcDbEntity
8
Geo
100
AcDbLine
10
-62.8833746898263
20
14.0245732500798
30
0.000000000000000
11
-62.7833746898263
21
14.0162501475851
31
0.000000000000000
  0
LINE
  5
F102BF
330
F102C0
100
AcDbEntity
8
Geo
100
AcDbLine
10
-62.7833746898263
20
14.0162501475851
30
0.000000000000000
11
-62.6833746898263
21
14.0078928034468
31
0.000000000000000
  0
LINE
  5
F102C1
330
F102C2
100
AcDbEntity
8
Geo
100
AcDbLine
10
-62.6833746898263
20
14.0078928034468
30
0.000000000000000
11
-62.5833746898263
21
13.9995012582650
31
0.000000000000000
  0
LINE
  5
F102C3
330
F102C4
100
AcDbEntity
8
Geo
100
AcDbLine
10
-62.5833746898263
20
13.9995012582650
30
0.000000000000000
11
-62.4833746898263
21
13.9910755528056
31
0.000000000000000
  0
LINE
  5
F102C5
330
F102C6
100
AcDbEntity
8
Geo
100
AcDbLine
10
-62.4833746898263
20
13.9910755528056
30
0.000000000000000
11
-62.3833746898263
21
13.9826157280008
31
0.000000000000000
  0
LINE
  5
F102C7
330
F102C8
100
AcDbEntity
8
Geo
100
AcDbLine
10
-62.3833746898263
20
13.9826157280008
30
0.000000000000000
11
-62.2833746898263
21
13.9741218249484
31
0.000000000000000
  0
LINE
  5
F102C9
330
F102CA
100
AcDbEntity
8
Geo
100
AcDbLine
10
-62.2833746898263
20
13.9741218249484
30
0.000000000000000
11
-62.1833746898263
21
13.9655938849118
31
0.000000000000000
  0
LINE
  5
F102CB
330
F102CC
100
AcDbEntity
8
Geo
100
AcDbLine
10
-62.1833746898263
20
13.9655938849118
30
0.000000000000000
11
-62.0833746898263
21
13.9570319493196
31
0.000000000000000
  0
LINE
  5
F102CD
330
F102CE
100
AcDbEntity
8
Geo
100
AcDbLine
10
-62.0833746898263
20
13.9570319493196
30
0.000000000000000
11
-61.9833746898263
21
13.9484360597658
31
0.000000000000000
  0
LINE
  5
F102CF
330
F102D0
100
AcDbEntity
8
Geo
100
AcDbLine
10
-61.9833746898263
20
13.9484360597658
30
0.000000000000000
11
-61.8833746898263
21
13.9398062580092
31
0.000000000000000
  0
LINE
  5
F102D1
330
F102D2
100
AcDbEntity
8
Geo
100
AcDbLine
10
-61.8833746898263
20
13.9398062580092
30
0.000000000000000
11
-61.7833746898263
21
13.9311425859733
31
0.000000000000000
  0
LINE
  5
F102D3
330
F102D4
100
AcDbEntity
8
Geo
100
AcDbLine
10
-61.7833746898263
20
13.9311425859733
30
0.000000000000000
11
-61.6833746898263
21
13.9224450857463
31
0.000000000000000
  0
LINE
  5
F102D5
330
F102D6
100
AcDbEntity
8
Geo
100
AcDbLine
10
-61.6833746898263
20
13.9224450857463
30
0.000000000000000
11
-61.5833746898263
21
13.9137137995805
31
0.000000000000000
  0
LINE
  5
F102D7
330
F102D8
100
AcDbEntity
8
Geo
100
AcDbLine
10
-61.5833746898263
20
13.9137137995805
30
0.000000000000000
11
-61.4833746898263
21
13.9049487698926
31
0.000000000000000
  0
LINE
  5
F102D9
330
F102DA
100
AcDbEntity
8
Geo
100
AcDbLine
10
-61.4833746898263
20
13.9049487698926
30
0.000000000000000
11
-61.3833746898263
21
13.8961500392631
31
0.000000000000000
  0
LINE
  5
F102DB
330
F102DC
100
AcDbEntity
8
Geo
100
AcDbLine
10
-61.3833746898263
20
13.8961500392631
30
0.000000000000000
11
-61.2833746898263
21
13.8873176504362
31
0.000000000000000
  0
LINE
  5
F102DD
330
F102DE
100
AcDbEntity
8
Geo
100
AcDbLine
10
-61.2833746898263
20
13.8873176504362
30
0.000000000000000
11
-61.1833746898263
21
13.8784516463196
31
0.000000000000000
  0
LINE
  5
F102DF
330
F102E0
100
AcDbEntity
8
Geo
100
AcDbLine
10
-61.1833746898263
20
13.8784516463196
30
0.000000000000000
11
-61.0833746898263
21
13.8695520699843
31
0.000000000000000
  0
LINE
  5
F102E1
330
F102E2
100
AcDbEntity
8
Geo
100
AcDbLine
10
-61.0833746898263
20
13.8695520699843
30
0.000000000000000
11
-60.9833746898263
21
13.8606189646646
31
0.000000000000000
  0
LINE
  5
F102E3
330
F102E4
100
AcDbEntity
8
Geo
100
AcDbLine
10
-60.9833746898263
20
13.8606189646646
30
0.000000000000000
11
-60.8833746898263
21
13.8516523737573
31
0.000000000000000
  0
LINE
  5
F102E5
330
F102E6
100
AcDbEntity
8
Geo
100
AcDbLine
10
-60.8833746898263
20
13.8516523737573
30
0.000000000000000
11
-60.7833746898263
21
13.8426523408223
31
0.000000000000000
  0
LINE
  5
F102E7
330
F102E8
100
AcDbEntity
8
Geo
100
AcDbLine
10
-60.7833746898263
20
13.8426523408223
30
0.000000000000000
11
-60.6833746898263
21
13.8336189095815
31
0.000000000000000
  0
LINE
  5
F102E9
330
F102EA
100
AcDbEntity
8
Geo
100
AcDbLine
10
-60.6833746898263
20
13.8336189095815
30
0.000000000000000
11
-60.5833746898263
21
13.8245521239196
31
0.000000000000000
  0
LINE
  5
F102EB
330
F102EC
100
AcDbEntity
8
Geo
100
AcDbLine
10
-60.5833746898263
20
13.8245521239196
30
0.000000000000000
11
-60.4833746898263
21
13.8154520278827
31
0.000000000000000
  0
LINE
  5
F102ED
330
F102EE
100
AcDbEntity
8
Geo
100
AcDbLine
10
-60.4833746898263
20
13.8154520278827
30
0.000000000000000
11
-60.3833746898263
21
13.8063186656794
31
0.000000000000000
  0
LINE
  5
F102EF
330
F102F0
100
AcDbEntity
8
Geo
100
AcDbLine
10
-60.3833746898263
20
13.8063186656794
30
0.000000000000000
11
-60.2833746898263
21
13.7971520816793
31
0.000000000000000
  0
LINE
  5
F102F1
330
F102F2
100
AcDbEntity
8
Geo
100
AcDbLine
10
-60.2833746898263
20
13.7971520816793
30
0.000000000000000
11
-60.1833746898263
21
13.7879523204137
31
0.000000000000000
  0
LINE
  5
F102F3
330
F102F4
100
AcDbEntity
8
Geo
100
AcDbLine
10
-60.1833746898263
20
13.7879523204137
30
0.000000000000000
11
-60.0833746898263
21
13.7787194265751
31
0.000000000000000
  0
LINE
  5
F102F5
330
F102F6
100
AcDbEntity
8
Geo
100
AcDbLine
10
-60.0833746898263
20
13.7787194265751
30
0.000000000000000
11
-59.9833746898263
21
13.7694534450169
31
0.000000000000000
  0
LINE
  5
F102F7
330
F102F8
100
AcDbEntity
8
Geo
100
AcDbLine
10
-59.9833746898263
20
13.7694534450169
30
0.000000000000000
11
-59.8833746898263
21
13.7601544207531
31
0.000000000000000
  0
LINE
  5
F102F9
330
F102FA
100
AcDbEntity
8
Geo
100
AcDbLine
10
-59.8833746898263
20
13.7601544207531
30
0.000000000000000
11
-59.7833746898263
21
13.7508223989585
31
0.000000000000000
  0
LINE
  5
F102FB
330
F102FC
100
AcDbEntity
8
Geo
100
AcDbLine
10
-59.7833746898263
20
13.7508223989585
30
0.000000000000000
11
-59.6833746898263
21
13.7414574249679
31
0.000000000000000
  0
LINE
  5
F102FD
330
F102FE
100
AcDbEntity
8
Geo
100
AcDbLine
10
-59.6833746898263
20
13.7414574249679
30
0.000000000000000
11
-59.5833746898263
21
13.7320595442764
31
0.000000000000000
  0
LINE
  5
F102FF
330
F10300
100
AcDbEntity
8
Geo
100
AcDbLine
10
-59.5833746898263
20
13.7320595442764
30
0.000000000000000
11
-59.4833746898263
21
13.7226288025390
31
0.000000000000000
  0
LINE
  5
F10301
330
F10302
100
AcDbEntity
8
Geo
100
AcDbLine
10
-59.4833746898263
20
13.7226288025390
30
0.000000000000000
11
-59.3833746898263
21
13.7131652455701
31
0.000000000000000
  0
LINE
  5
F10303
330
F10304
100
AcDbEntity
8
Geo
100
AcDbLine
10
-59.3833746898263
20
13.7131652455701
30
0.000000000000000
11
-59.2833746898263
21
13.7036689193436
31
0.000000000000000
  0
LINE
  5
F10305
330
F10306
100
AcDbEntity
8
Geo
100
AcDbLine
10
-59.2833746898263
20
13.7036689193436
30
0.000000000000000
11
-59.1833746898263
21
13.6941398699928
31
0.000000000000000
  0
LINE
  5
F10307
330
F10308
100
AcDbEntity
8
Geo
100
AcDbLine
10
-59.1833746898263
20
13.6941398699928
30
0.000000000000000
11
-59.0833746898263
21
13.6845781438097
31
0.000000000000000
  0
LINE
  5
F10309
330
F1030A
100
AcDbEntity
8
Geo
100
AcDbLine
10
-59.0833746898263
20
13.6845781438097
30
0.000000000000000
11
-58.9833746898263
21
13.6749837872451
31
0.000000000000000
  0
LINE
  5
F1030B
330
F1030C
100
AcDbEntity
8
Geo
100
AcDbLine
10
-58.9833746898263
20
13.6749837872451
30
0.000000000000000
11
-58.8833746898263
21
13.6653568469086
31
0.000000000000000
  0
LINE
  5
F1030D
330
F1030E
100
AcDbEntity
8
Geo
100
AcDbLine
10
-58.8833746898263
20
13.6653568469086
30
0.000000000000000
11
-58.7833746898263
21
13.6556973695676
31
0.000000000000000
  0
LINE
  5
F1030F
330
F10310
100
AcDbEntity
8
Geo
100
AcDbLine
10
-58.7833746898263
20
13.6556973695676
30
0.000000000000000
11
-58.6833746898263
21
13.6460054021480
31
0.000000000000000
  0
LINE
  5
F10311
330
F10312
100
AcDbEntity
8
Geo
100
AcDbLine
10
-58.6833746898263
20
13.6460054021480
30
0.000000000000000
11
-58.5833746898263
21
13.6362809917333
31
0.000000000000000
  0
LINE
  5
F10313
330
F10314
100
AcDbEntity
8
Geo
100
AcDbLine
10
-58.5833746898263
20
13.6362809917333
30
0.000000000000000
11
-58.4833746898263
21
13.6265241855647
31
0.000000000000000
  0
LINE
  5
F10315
330
F10316
100
AcDbEntity
8
Geo
100
AcDbLine
10
-58.4833746898263
20
13.6265241855647
30
0.000000000000000
11
-58.3833746898263
21
13.6167350310407
31
0.000000000000000
  0
LINE
  5
F10317
330
F10318
100
AcDbEntity
8
Geo
100
AcDbLine
10
-58.3833746898263
20
13.6167350310407
30
0.000000000000000
11
-58.2833746898263
21
13.6069135757170
31
0.000000000000000
  0
LINE
  5
F10319
330
F1031A
100
AcDbEntity
8
Geo
100
AcDbLine
10
-58.2833746898263
20
13.6069135757170
30
0.000000000000000
11
-58.1833746898263
21
13.5970598673063
31
0.000000000000000
  0
LINE
  5
F1031B
330
F1031C
100
AcDbEntity
8
Geo
100
AcDbLine
10
-58.1833746898263
20
13.5970598673063
30
0.000000000000000
11
-58.0833746898263
21
13.5871739536778
31
0.000000000000000
  0
LINE
  5
F1031D
330
F1031E
100
AcDbEntity
8
Geo
100
AcDbLine
10
-58.0833746898263
20
13.5871739536778
30
0.000000000000000
11
-57.9833746898263
21
13.5772558828574
31
0.000000000000000
  0
LINE
  5
F1031F
330
F10320
100
AcDbEntity
8
Geo
100
AcDbLine
10
-57.9833746898263
20
13.5772558828574
30
0.000000000000000
11
-57.8833746898263
21
13.5673057030269
31
0.000000000000000
  0
LINE
  5
F10321
330
F10322
100
AcDbEntity
8
Geo
100
AcDbLine
10
-57.8833746898263
20
13.5673057030269
30
0.000000000000000
11
-57.7833746898263
21
13.5573234625244
31
0.000000000000000
  0
LINE
  5
F10323
330
F10324
100
AcDbEntity
8
Geo
100
AcDbLine
10
-57.7833746898263
20
13.5573234625244
30
0.000000000000000
11
-57.6833746898263
21
13.5473092098435
31
0.000000000000000
  0
LINE
  5
F10325
330
F10326
100
AcDbEntity
8
Geo
100
AcDbLine
10
-57.6833746898263
20
13.5473092098435
30
0.000000000000000
11
-57.5833746898263
21
13.5372629936335
31
0.000000000000000
  0
LINE
  5
F10327
330
F10328
100
AcDbEntity
8
Geo
100
AcDbLine
10
-57.5833746898263
20
13.5372629936335
30
0.000000000000000
11
-57.4833746898263
21
13.5271848626989
31
0.000000000000000
  0
LINE
  5
F10329
330
F1032A
100
AcDbEntity
8
Geo
100
AcDbLine
10
-57.4833746898263
20
13.5271848626989
30
0.000000000000000
11
-57.3833746898263
21
13.5170748659992
31
0.000000000000000
  0
LINE
  5
F1032B
330
F1032C
100
AcDbEntity
8
Geo
100
AcDbLine
10
-57.3833746898263
20
13.5170748659992
30
0.000000000000000
11
-57.2833746898263
21
13.5069330526488
31
0.000000000000000
  0
LINE
  5
F1032D
330
F1032E
100
AcDbEntity
8
Geo
100
AcDbLine
10
-57.2833746898263
20
13.5069330526488
30
0.000000000000000
11
-57.1833746898263
21
13.4967594719166
31
0.000000000000000
  0
LINE
  5
F1032F
330
F10330
100
AcDbEntity
8
Geo
100
AcDbLine
10
-57.1833746898263
20
13.4967594719166
30
0.000000000000000
11
-57.0833746898263
21
13.4865541732258
31
0.000000000000000
  0
LINE
  5
F10331
330
F10332
100
AcDbEntity
8
Geo
100
AcDbLine
10
-57.0833746898263
20
13.4865541732258
30
0.000000000000000
11
-56.9833746898263
21
13.4763172061538
31
0.000000000000000
  0
LINE
  5
F10333
330
F10334
100
AcDbEntity
8
Geo
100
AcDbLine
10
-56.9833746898263
20
13.4763172061538
30
0.000000000000000
11
-56.8833746898263
21
13.4660486204318
31
0.000000000000000
  0
LINE
  5
F10335
330
F10336
100
AcDbEntity
8
Geo
100
AcDbLine
10
-56.8833746898263
20
13.4660486204318
30
0.000000000000000
11
-56.7833746898263
21
13.4557484659444
31
0.000000000000000
  0
LINE
  5
F10337
330
F10338
100
AcDbEntity
8
Geo
100
AcDbLine
10
-56.7833746898263
20
13.4557484659444
30
0.000000000000000
11
-56.6833746898263
21
13.4454167927299
31
0.000000000000000
  0
LINE
  5
F10339
330
F1033A
100
AcDbEntity
8
Geo
100
AcDbLine
10
-56.6833746898263
20
13.4454167927299
30
0.000000000000000
11
-56.5833746898263
21
13.4350536509795
31
0.000000000000000
  0
LINE
  5
F1033B
330
F1033C
100
AcDbEntity
8
Geo
100
AcDbLine
10
-56.5833746898263
20
13.4350536509795
30
0.000000000000000
11
-56.4833746898263
21
13.4246590910374
31
0.000000000000000
  0
LINE
  5
F1033D
330
F1033E
100
AcDbEntity
8
Geo
100
AcDbLine
10
-56.4833746898263
20
13.4246590910374
30
0.000000000000000
11
-56.3833746898263
21
13.4142331634002
31
0.000000000000000
  0
LINE
  5
F1033F
330
F10340
100
AcDbEntity
8
Geo
100
AcDbLine
10
-56.3833746898263
20
13.4142331634002
30
0.000000000000000
11
-56.2833746898263
21
13.4037759187172
31
0.000000000000000
  0
LINE
  5
F10341
330
F10342
100
AcDbEntity
8
Geo
100
AcDbLine
10
-56.2833746898263
20
13.4037759187172
30
0.000000000000000
11
-56.1833746898263
21
13.3932874077896
31
0.000000000000000
  0
LINE
  5
F10343
330
F10344
100
AcDbEntity
8
Geo
100
AcDbLine
10
-56.1833746898263
20
13.3932874077896
30
0.000000000000000
11
-56.0833746898263
21
13.3827676815706
31
0.000000000000000
  0
LINE
  5
F10345
330
F10346
100
AcDbEntity
8
Geo
100
AcDbLine
10
-56.0833746898263
20
13.3827676815706
30
0.000000000000000
11
-55.9833746898263
21
13.3722167911650
31
0.000000000000000
  0
LINE
  5
F10347
330
F10348
100
AcDbEntity
8
Geo
100
AcDbLine
10
-55.9833746898263
20
13.3722167911650
30
0.000000000000000
11
-55.8833746898263
21
13.3616347878290
31
0.000000000000000
  0
LINE
  5
F10349
330
F1034A
100
AcDbEntity
8
Geo
100
AcDbLine
10
-55.8833746898263
20
13.3616347878290
30
0.000000000000000
11
-55.7833746898263
21
13.3510217229700
31
0.000000000000000
  0
LINE
  5
F1034B
330
F1034C
100
AcDbEntity
8
Geo
100
AcDbLine
10
-55.7833746898263
20
13.3510217229700
30
0.000000000000000
11
-55.6833746898263
21
13.3403776481463
31
0.000000000000000
  0
LINE
  5
F1034D
330
F1034E
100
AcDbEntity
8
Geo
100
AcDbLine
10
-55.6833746898263
20
13.3403776481463
30
0.000000000000000
11
-55.5833746898263
21
13.3297026150666
31
0.000000000000000
  0
LINE
  5
F1034F
330
F10350
100
AcDbEntity
8
Geo
100
AcDbLine
10
-55.5833746898263
20
13.3297026150666
30
0.000000000000000
11
-55.4833746898263
21
13.3189966755904
31
0.000000000000000
  0
LINE
  5
F10351
330
F10352
100
AcDbEntity
8
Geo
100
AcDbLine
10
-55.4833746898263
20
13.3189966755904
30
0.000000000000000
11
-55.3833746898263
21
13.3082598817271
31
0.000000000000000
  0
LINE
  5
F10353
330
F10354
100
AcDbEntity
8
Geo
100
AcDbLine
10
-55.3833746898263
20
13.3082598817271
30
0.000000000000000
11
-55.2833746898263
21
13.2974922856359
31
0.000000000000000
  0
LINE
  5
F10355
330
F10356
100
AcDbEntity
8
Geo
100
AcDbLine
10
-55.2833746898263
20
13.2974922856359
30
0.000000000000000
11
-55.1833746898263
21
13.2866939396259
31
0.000000000000000
  0
LINE
  5
F10357
330
F10358
100
AcDbEntity
8
Geo
100
AcDbLine
10
-55.1833746898263
20
13.2866939396259
30
0.000000000000000
11
-55.0833746898263
21
13.2758648961555
31
0.000000000000000
  0
LINE
  5
F10359
330
F1035A
100
AcDbEntity
8
Geo
100
AcDbLine
10
-55.0833746898263
20
13.2758648961555
30
0.000000000000000
11
-54.9833746898263
21
13.2650052078320
31
0.000000000000000
  0
LINE
  5
F1035B
330
F1035C
100
AcDbEntity
8
Geo
100
AcDbLine
10
-54.9833746898263
20
13.2650052078320
30
0.000000000000000
11
-54.8833746898263
21
13.2541149274119
31
0.000000000000000
  0
LINE
  5
F1035D
330
F1035E
100
AcDbEntity
8
Geo
100
AcDbLine
10
-54.8833746898263
20
13.2541149274119
30
0.000000000000000
11
-54.7833746898263
21
13.2431941078001
31
0.000000000000000
  0
LINE
  5
F1035F
330
F10360
100
AcDbEntity
8
Geo
100
AcDbLine
10
-54.7833746898263
20
13.2431941078001
30
0.000000000000000
11
-54.6833746898263
21
13.2322428020500
31
0.000000000000000
  0
LINE
  5
F10361
330
F10362
100
AcDbEntity
8
Geo
100
AcDbLine
10
-54.6833746898263
20
13.2322428020500
30
0.000000000000000
11
-54.5833746898263
21
13.2212610633629
31
0.000000000000000
  0
LINE
  5
F10363
330
F10364
100
AcDbEntity
8
Geo
100
AcDbLine
10
-54.5833746898263
20
13.2212610633629
30
0.000000000000000
11
-54.4833746898263
21
13.2102489450881
31
0.000000000000000
  0
LINE
  5
F10365
330
F10366
100
AcDbEntity
8
Geo
100
AcDbLine
10
-54.4833746898263
20
13.2102489450881
30
0.000000000000000
11
-54.3833746898263
21
13.1992065007226
31
0.000000000000000
  0
LINE
  5
F10367
330
F10368
100
AcDbEntity
8
Geo
100
AcDbLine
10
-54.3833746898263
20
13.1992065007226
30
0.000000000000000
11
-54.2833746898263
21
13.1881337839104
31
0.000000000000000
  0
LINE
  5
F10369
330
F1036A
100
AcDbEntity
8
Geo
100
AcDbLine
10
-54.2833746898263
20
13.1881337839104
30
0.000000000000000
11
-54.1833746898263
21
13.1770308484429
31
0.000000000000000
  0
LINE
  5
F1036B
330
F1036C
100
AcDbEntity
8
Geo
100
AcDbLine
10
-54.1833746898263
20
13.1770308484429
30
0.000000000000000
11
-54.0833746898263
21
13.1658977482580
31
0.000000000000000
  0
LINE
  5
F1036D
330
F1036E
100
AcDbEntity
8
Geo
100
AcDbLine
10
-54.0833746898263
20
13.1658977482580
30
0.000000000000000
11
-53.9833746898263
21
13.1547345374404
31
0.000000000000000
  0
LINE
  5
F1036F
330
F10370
100
AcDbEntity
8
Geo
100
AcDbLine
10
-53.9833746898263
20
13.1547345374404
30
0.000000000000000
11
-53.8833746898263
21
13.1435412702209
31
0.000000000000000
  0
LINE
  5
F10371
330
F10372
100
AcDbEntity
8
Geo
100
AcDbLine
10
-53.8833746898263
20
13.1435412702209
30
0.000000000000000
11
-53.7833746898263
21
13.1323180009764
31
0.000000000000000
  0
LINE
  5
F10373
330
F10374
100
AcDbEntity
8
Geo
100
AcDbLine
10
-53.7833746898263
20
13.1323180009764
30
0.000000000000000
11
-53.6833746898263
21
13.1210647842296
31
0.000000000000000
  0
LINE
  5
F10375
330
F10376
100
AcDbEntity
8
Geo
100
AcDbLine
10
-53.6833746898263
20
13.1210647842296
30
0.000000000000000
11
-53.5833746898263
21
13.1097816746484
31
0.000000000000000
  0
LINE
  5
F10377
330
F10378
100
AcDbEntity
8
Geo
100
AcDbLine
10
-53.5833746898263
20
13.1097816746484
30
0.000000000000000
11
-53.4833746898263
21
13.0984687270464
31
0.000000000000000
  0
LINE
  5
F10379
330
F1037A
100
AcDbEntity
8
Geo
100
AcDbLine
10
-53.4833746898263
20
13.0984687270464
30
0.000000000000000
11
-53.3833746898263
21
13.0871259963816
31
0.000000000000000
  0
LINE
  5
F1037B
330
F1037C
100
AcDbEntity
8
Geo
100
AcDbLine
10
-53.3833746898263
20
13.0871259963816
30
0.000000000000000
11
-53.2833746898263
21
13.0757535377573
31
0.000000000000000
  0
LINE
  5
F1037D
330
F1037E
100
AcDbEntity
8
Geo
100
AcDbLine
10
-53.2833746898263
20
13.0757535377573
30
0.000000000000000
11
-53.1833746898263
21
13.0643514064206
31
0.000000000000000
  0
LINE
  5
F1037F
330
F10380
100
AcDbEntity
8
Geo
100
AcDbLine
10
-53.1833746898263
20
13.0643514064206
30
0.000000000000000
11
-53.0833746898263
21
13.0529196577631
31
0.000000000000000
  0
LINE
  5
F10381
330
F10382
100
AcDbEntity
8
Geo
100
AcDbLine
10
-53.0833746898263
20
13.0529196577631
30
0.000000000000000
11
-52.9833746898263
21
13.0414583473204
31
0.000000000000000
  0
LINE
  5
F10383
330
F10384
100
AcDbEntity
8
Geo
100
AcDbLine
10
-52.9833746898263
20
13.0414583473204
30
0.000000000000000
11
-52.8833746898263
21
13.0299675307713
31
0.000000000000000
  0
LINE
  5
F10385
330
F10386
100
AcDbEntity
8
Geo
100
AcDbLine
10
-52.8833746898263
20
13.0299675307713
30
0.000000000000000
11
-52.7833746898263
21
13.0184472639383
31
0.000000000000000
  0
LINE
  5
F10387
330
F10388
100
AcDbEntity
8
Geo
100
AcDbLine
10
-52.7833746898263
20
13.0184472639383
30
0.000000000000000
11
-52.6833746898263
21
13.0068976027868
31
0.000000000000000
  0
LINE
  5
F10389
330
F1038A
100
AcDbEntity
8
Geo
100
AcDbLine
10
-52.6833746898263
20
13.0068976027868
30
0.000000000000000
11
-52.5833746898263
21
12.9953186034251
31
0.000000000000000
  0
LINE
  5
F1038B
330
F1038C
100
AcDbEntity
8
Geo
100
AcDbLine
10
-52.5833746898263
20
12.9953186034251
30
0.000000000000000
11
-52.4833746898263
21
12.9837103221039
31
0.000000000000000
  0
LINE
  5
F1038D
330
F1038E
100
AcDbEntity
8
Geo
100
AcDbLine
10
-52.4833746898263
20
12.9837103221039
30
0.000000000000000
11
-52.3833746898263
21
12.9720728152162
31
0.000000000000000
  0
LINE
  5
F1038F
330
F10390
100
AcDbEntity
8
Geo
100
AcDbLine
10
-52.3833746898263
20
12.9720728152162
30
0.000000000000000
11
-52.2833746898263
21
12.9604061392971
31
0.000000000000000
  0
LINE
  5
F10391
330
F10392
100
AcDbEntity
8
Geo
100
AcDbLine
10
-52.2833746898263
20
12.9604061392971
30
0.000000000000000
11
-52.1833746898263
21
12.9487103510232
31
0.000000000000000
  0
LINE
  5
F10393
330
F10394
100
AcDbEntity
8
Geo
100
AcDbLine
10
-52.1833746898263
20
12.9487103510232
30
0.000000000000000
11
-52.0833746898263
21
12.9369855072126
31
0.000000000000000
  0
LINE
  5
F10395
330
F10396
100
AcDbEntity
8
Geo
100
AcDbLine
10
-52.0833746898263
20
12.9369855072126
30
0.000000000000000
11
-51.9833746898263
21
12.9252316648246
31
0.000000000000000
  0
LINE
  5
F10397
330
F10398
100
AcDbEntity
8
Geo
100
AcDbLine
10
-51.9833746898263
20
12.9252316648246
30
0.000000000000000
11
-51.8833746898263
21
12.9134488809594
31
0.000000000000000
  0
LINE
  5
F10399
330
F1039A
100
AcDbEntity
8
Geo
100
AcDbLine
10
-51.8833746898263
20
12.9134488809594
30
0.000000000000000
11
-51.7833746898263
21
12.9016372128577
31
0.000000000000000
  0
LINE
  5
F1039B
330
F1039C
100
AcDbEntity
8
Geo
100
AcDbLine
10
-51.7833746898263
20
12.9016372128577
30
0.000000000000000
11
-51.6833746898263
21
12.8897967179006
31
0.000000000000000
  0
LINE
  5
F1039D
330
F1039E
100
AcDbEntity
8
Geo
100
AcDbLine
10
-51.6833746898263
20
12.8897967179006
30
0.000000000000000
11
-51.5833746898263
21
12.8779274536092
31
0.000000000000000
  0
LINE
  5
F1039F
330
F103A0
100
AcDbEntity
8
Geo
100
AcDbLine
10
-51.5833746898263
20
12.8779274536092
30
0.000000000000000
11
-51.4833746898263
21
12.8660294776444
31
0.000000000000000
  0
LINE
  5
F103A1
330
F103A2
100
AcDbEntity
8
Geo
100
AcDbLine
10
-51.4833746898263
20
12.8660294776444
30
0.000000000000000
11
-51.3833746898263
21
12.8541028478065
31
0.000000000000000
  0
LINE
  5
F103A3
330
F103A4
100
AcDbEntity
8
Geo
100
AcDbLine
10
-51.3833746898263
20
12.8541028478065
30
0.000000000000000
11
-51.2833746898263
21
12.8421476220351
31
0.000000000000000
  0
LINE
  5
F103A5
330
F103A6
100
AcDbEntity
8
Geo
100
AcDbLine
10
-51.2833746898263
20
12.8421476220351
30
0.000000000000000
11
-51.1833746898263
21
12.8301638584086
31
0.000000000000000
  0
LINE
  5
F103A7
330
F103A8
100
AcDbEntity
8
Geo
100
AcDbLine
10
-51.1833746898263
20
12.8301638584086
30
0.000000000000000
11
-51.0833746898263
21
12.8181516151441
31
0.000000000000000
  0
LINE
  5
F103A9
330
F103AA
100
AcDbEntity
8
Geo
100
AcDbLine
10
-51.0833746898263
20
12.8181516151441
30
0.000000000000000
11
-50.9833746898263
21
12.8061109505972
31
0.000000000000000
  0
LINE
  5
F103AB
330
F103AC
100
AcDbEntity
8
Geo
100
AcDbLine
10
-50.9833746898263
20
12.8061109505972
30
0.000000000000000
11
-50.8833746898263
21
12.7940419232613
31
0.000000000000000
  0
LINE
  5
F103AD
330
F103AE
100
AcDbEntity
8
Geo
100
AcDbLine
10
-50.8833746898263
20
12.7940419232613
30
0.000000000000000
11
-50.7833746898263
21
10.8724992148567
31
0.000000000000000
  0
LINE
  5
F103AF
330
F103B0
100
AcDbEntity
8
Geo
100
AcDbLine
10
-50.7833746898263
20
10.8724992148567
30
0.000000000000000
11
-50.6833746898263
21
4.58102954317870
31
0.000000000000000
  0
LINE
  5
F103B1
330
F103B2
100
AcDbEntity
8
Geo
100
AcDbLine
10
-70.8833746898263
20
6.96774193548386
30
0.000000000000000
11
-70.7833746898263
21
6.95599269994994
31
0.000000000000000
  0
LINE
  5
F103B3
330
F103B4
100
AcDbEntity
8
Geo
100
AcDbLine
10
-70.7833746898263
20
6.95599269994994
30
0.000000000000000
11
-70.6833746898263
21
6.94276446033669
31
0.000000000000000
  0
LINE
  5
F103B5
330
F103B6
100
AcDbEntity
8
Geo
100
AcDbLine
10
-70.6833746898263
20
6.94276446033669
30
0.000000000000000
11
-70.5833746898263
21
6.92861254361810
31
0.000000000000000
  0
LINE
  5
F103B7
330
F103B8
100
AcDbEntity
8
Geo
100
AcDbLine
10
-70.5833746898263
20
6.92861254361810
30
0.000000000000000
11
-70.4833746898263
21
6.91374419272315
31
0.000000000000000
  0
LINE
  5
F103B9
330
F103BA
100
AcDbEntity
8
Geo
100
AcDbLine
10
-70.4833746898263
20
6.91374419272315
30
0.000000000000000
11
-70.3833746898263
21
6.89828400405549
31
0.000000000000000
  0
LINE
  5
F103BB
330
F103BC
100
AcDbEntity
8
Geo
100
AcDbLine
10
-70.3833746898263
20
6.89828400405549
30
0.000000000000000
11
-70.2833746898263
21
6.88231940160462
31
0.000000000000000
  0
LINE
  5
F103BD
330
F103BE
100
AcDbEntity
8
Geo
100
AcDbLine
10
-70.2833746898263
20
6.88231940160462
30
0.000000000000000
11
-70.1833746898263
21
6.86591714400028
31
0.000000000000000
  0
LINE
  5
F103BF
330
F103C0
100
AcDbEntity
8
Geo
100
AcDbLine
10
-70.1833746898263
20
6.86591714400028
30
0.000000000000000
11
-70.0833746898263
21
6.84913105747060
31
0.000000000000000
  0
LINE
  5
F103C1
330
F103C2
100
AcDbEntity
8
Geo
100
AcDbLine
10
-70.0833746898263
20
6.84913105747060
30
0.000000000000000
11
-69.9833746898263
21
6.83200623000713
31
0.000000000000000
  0
LINE
  5
F103C3
330
F103C4
100
AcDbEntity
8
Geo
100
AcDbLine
10
-69.9833746898263
20
6.83200623000713
30
0.000000000000000
11
-69.8833746898263
21
6.81458151910057
31
0.000000000000000
  0
LINE
  5
F103C5
330
F103C6
100
AcDbEntity
8
Geo
100
AcDbLine
10
-69.8833746898263
20
6.81458151910057
30
0.000000000000000
11
-69.7833746898263
21
6.79689116041013
31
0.000000000000000
  0
LINE
  5
F103C7
330
F103C8
100
AcDbEntity
8
Geo
100
AcDbLine
10
-69.7833746898263
20
6.79689116041013
30
0.000000000000000
11
-69.6833746898263
21
6.77896585647266
31
0.000000000000000
  0
LINE
  5
F103C9
330
F103CA
100
AcDbEntity
8
Geo
100
AcDbLine
10
-69.6833746898263
20
6.77896585647266
30
0.000000000000000
11
-69.5833746898263
21
6.76083354545226
31
0.000000000000000
  0
LINE
  5
F103CB
330
F103CC
100
AcDbEntity
8
Geo
100
AcDbLine
10
-69.5833746898263
20
6.76083354545226
30
0.000000000000000
11
-69.4833746898263
21
6.74251996313015
31
0.000000000000000
  0
LINE
  5
F103CD
330
F103CE
100
AcDbEntity
8
Geo
100
AcDbLine
10
-69.4833746898263
20
6.74251996313015
30
0.000000000000000
11
-69.3833746898263
21
6.72404906590047
31
0.000000000000000
  0
LINE
  5
F103CF
330
F103D0
100
AcDbEntity
8
Geo
100
AcDbLine
10
-69.3833746898263
20
6.72404906590047
30
0.000000000000000
11
-69.2833746898263
21
6.70544335724409
31
0.000000000000000
  0
LINE
  5
F103D1
330
F103D2
100
AcDbEntity
8
Geo
100
AcDbLine
10
-69.2833746898263
20
6.70544335724409
30
0.000000000000000
11
-69.1833746898263
21
6.68672414534212
31
0.000000000000000
  0
LINE
  5
F103D3
330
F103D4
100
AcDbEntity
8
Geo
100
AcDbLine
10
-69.1833746898263
20
6.68672414534212
30
0.000000000000000
11
-69.0833746898263
21
6.66791175044536
31
0.000000000000000
  0
LINE
  5
F103D5
330
F103D6
100
AcDbEntity
8
Geo
100
AcDbLine
10
-69.0833746898263
20
6.66791175044536
30
0.000000000000000
11
-68.9833746898263
21
6.64902567488987
31
0.000000000000000
  0
LINE
  5
F103D7
330
F103D8
100
AcDbEntity
8
Geo
100
AcDbLine
10
-68.9833746898263
20
6.64902567488987
30
0.000000000000000
11
-68.8833746898263
21
6.63008474491209
31
0.000000000000000
  0
LINE
  5
F103D9
330
F103DA
100
AcDbEntity
8
Geo
100
AcDbLine
10
-68.8833746898263
20
6.63008474491209
30
0.000000000000000
11
-68.7833746898263
21
6.61110723091241
31
0.000000000000000
  0
LINE
  5
F103DB
330
F103DC
100
AcDbEntity
8
Geo
100
AcDbLine
10
-68.7833746898263
20
6.61110723091241
30
0.000000000000000
11
-68.6833746898263
21
6.59211095110026
31
0.000000000000000
  0
LINE
  5
F103DD
330
F103DE
100
AcDbEntity
8
Geo
100
AcDbLine
10
-68.6833746898263
20
6.59211095110026
30
0.000000000000000
11
-68.5833746898263
21
6.57311336225359
31
0.000000000000000
  0
LINE
  5
F103DF
330
F103E0
100
AcDbEntity
8
Geo
100
AcDbLine
10
-68.5833746898263
20
6.57311336225359
30
0.000000000000000
11
-68.4833746898263
21
6.55413164047408
31
0.000000000000000
  0
LINE
  5
F103E1
330
F103E2
100
AcDbEntity
8
Geo
100
AcDbLine
10
-68.4833746898263
20
6.55413164047408
30
0.000000000000000
11
-68.3833746898263
21
6.53518275420591
31
0.000000000000000
  0
LINE
  5
F103E3
330
F103E4
100
AcDbEntity
8
Geo
100
AcDbLine
10
-68.3833746898263
20
6.53518275420591
30
0.000000000000000
11
-68.2833746898263
21
6.51628353134109
31
0.000000000000000
  0
LINE
  5
F103E5
330
F103E6
100
AcDbEntity
8
Geo
100
AcDbLine
10
-68.2833746898263
20
6.51628353134109
30
0.000000000000000
11
-68.1833746898263
21
6.49745072190949
31
0.000000000000000
  0
LINE
  5
F103E7
330
F103E8
100
AcDbEntity
8
Geo
100
AcDbLine
10
-68.1833746898263
20
6.49745072190949
30
0.000000000000000
11
-68.0833746898263
21
6.47870105761586
31
0.000000000000000
  0
LINE
  5
F103E9
330
F103EA
100
AcDbEntity
8
Geo
100
AcDbLine
10
-68.0833746898263
20
6.47870105761586
30
0.000000000000000
11
-67.9833746898263
21
6.46005130931647
31
0.000000000000000
  0
LINE
  5
F103EB
330
F103EC
100
AcDbEntity
8
Geo
100
AcDbLine
10
-67.9833746898263
20
6.46005130931647
30
0.000000000000000
11
-67.8833746898263
21
6.44151834341046
31
0.000000000000000
  0
LINE
  5
F103ED
330
F103EE
100
AcDbEntity
8
Geo
100
AcDbLine
10
-67.8833746898263
20
6.44151834341046
30
0.000000000000000
11
-67.7833746898263
21
6.42311917804465
31
0.000000000000000
  0
LINE
  5
F103EF
330
F103F0
100
AcDbEntity
8
Geo
100
AcDbLine
10
-67.7833746898263
20
6.42311917804465
30
0.000000000000000
11
-67.6833746898263
21
6.40487103998882
31
0.000000000000000
  0
LINE
  5
F103F1
330
F103F2
100
AcDbEntity
8
Geo
100
AcDbLine
10
-67.6833746898263
20
6.40487103998882
30
0.000000000000000
11
-67.5833746898263
21
6.38679142302809
31
0.000000000000000
  0
LINE
  5
F103F3
330
F103F4
100
AcDbEntity
8
Geo
100
AcDbLine
10
-67.5833746898263
20
6.38679142302809
30
0.000000000000000
11
-67.4833746898263
21
6.36889814873606
31
0.000000000000000
  0
LINE
  5
F103F5
330
F103F6
100
AcDbEntity
8
Geo
100
AcDbLine
10
-67.4833746898263
20
6.36889814873606
30
0.000000000000000
11
-67.3833746898263
21
6.35120943053895
31
0.000000000000000
  0
LINE
  5
F103F7
330
F103F8
100
AcDbEntity
8
Geo
100
AcDbLine
10
-67.3833746898263
20
6.35120943053895
30
0.000000000000000
11
-67.2833746898263
21
6.33363068478610
31
0.000000000000000
  0
LINE
  5
F103F9
330
F103FA
100
AcDbEntity
8
Geo
100
AcDbLine
10
-67.2833746898263
20
6.33363068478610
30
0.000000000000000
11
-67.1833746898263
21
6.31605501954486
31
0.000000000000000
  0
LINE
  5
F103FB
330
F103FC
100
AcDbEntity
8
Geo
100
AcDbLine
10
-67.1833746898263
20
6.31605501954486
30
0.000000000000000
11
-67.0833746898263
21
6.29848252019780
31
0.000000000000000
  0
LINE
  5
F103FD
330
F103FE
100
AcDbEntity
8
Geo
100
AcDbLine
10
-67.0833746898263
20
6.29848252019780
30
0.000000000000000
11
-66.9833746898263
21
6.28091327211209
31
0.000000000000000
  0
LINE
  5
F103FF
330
F10400
100
AcDbEntity
8
Geo
100
AcDbLine
10
-66.9833746898263
20
6.28091327211209
30
0.000000000000000
11
-66.8833746898263
21
6.26334736063912
31
0.000000000000000
  0
LINE
  5
F10401
330
F10402
100
AcDbEntity
8
Geo
100
AcDbLine
10
-66.8833746898263
20
6.26334736063912
30
0.000000000000000
11
-66.7833746898263
21
6.24578487111406
31
0.000000000000000
  0
LINE
  5
F10403
330
F10404
100
AcDbEntity
8
Geo
100
AcDbLine
10
-66.7833746898263
20
6.24578487111406
30
0.000000000000000
11
-66.6833746898263
21
6.22822588885547
31
0.000000000000000
  0
LINE
  5
F10405
330
F10406
100
AcDbEntity
8
Geo
100
AcDbLine
10
-66.6833746898263
20
6.22822588885547
30
0.000000000000000
11
-66.5833746898263
21
6.21067049916486
31
0.000000000000000
  0
LINE
  5
F10407
330
F10408
100
AcDbEntity
8
Geo
100
AcDbLine
10
-66.5833746898263
20
6.21067049916486
30
0.000000000000000
11
-66.4833746898263
21
6.19311878732628
31
0.000000000000000
  0
LINE
  5
F10409
330
F1040A
100
AcDbEntity
8
Geo
100
AcDbLine
10
-66.4833746898263
20
6.19311878732628
30
0.000000000000000
11
-66.3833746898263
21
6.17557083860593
31
0.000000000000000
  0
LINE
  5
F1040B
330
F1040C
100
AcDbEntity
8
Geo
100
AcDbLine
10
-66.3833746898263
20
6.17557083860593
30
0.000000000000000
11
-66.2833746898263
21
6.15802673825172
31
0.000000000000000
  0
LINE
  5
F1040D
330
F1040E
100
AcDbEntity
8
Geo
100
AcDbLine
10
-66.2833746898263
20
6.15802673825172
30
0.000000000000000
11
-66.1833746898263
21
6.14048657149287
31
0.000000000000000
  0
LINE
  5
F1040F
330
F10410
100
AcDbEntity
8
Geo
100
AcDbLine
10
-66.1833746898263
20
6.14048657149287
30
0.000000000000000
11
-66.0833746898263
21
6.12295042353949
31
0.000000000000000
  0
LINE
  5
F10411
330
F10412
100
AcDbEntity
8
Geo
100
AcDbLine
10
-66.0833746898263
20
6.12295042353949
30
0.000000000000000
11
-65.9833746898263
21
6.10541837958215
31
0.000000000000000
  0
LINE
  5
F10413
330
F10414
100
AcDbEntity
8
Geo
100
AcDbLine
10
-65.9833746898263
20
6.10541837958215
30
0.000000000000000
11
-65.8833746898263
21
6.08789052479151
31
0.000000000000000
  0
LINE
  5
F10415
330
F10416
100
AcDbEntity
8
Geo
100
AcDbLine
10
-65.8833746898263
20
6.08789052479151
30
0.000000000000000
11
-65.7833746898263
21
6.07036694431786
31
0.000000000000000
  0
LINE
  5
F10417
330
F10418
100
AcDbEntity
8
Geo
100
AcDbLine
10
-65.7833746898263
20
6.07036694431786
30
0.000000000000000
11
-65.6833746898263
21
6.05284772329073
31
0.000000000000000
  0
LINE
  5
F10419
330
F1041A
100
AcDbEntity
8
Geo
100
AcDbLine
10
-65.6833746898263
20
6.05284772329073
30
0.000000000000000
11
-65.5833746898263
21
6.03533294681847
31
0.000000000000000
  0
LINE
  5
F1041B
330
F1041C
100
AcDbEntity
8
Geo
100
AcDbLine
10
-65.5833746898263
20
6.03533294681847
30
0.000000000000000
11
-65.4833746898263
21
6.01782269998784
31
0.000000000000000
  0
LINE
  5
F1041D
330
F1041E
100
AcDbEntity
8
Geo
100
AcDbLine
10
-65.4833746898263
20
6.01782269998784
30
0.000000000000000
11
-65.3833746898263
21
6.00031706786361
31
0.000000000000000
  0
LINE
  5
F1041F
330
F10420
100
AcDbEntity
8
Geo
100
AcDbLine
10
-65.3833746898263
20
6.00031706786361
30
0.000000000000000
11
-65.2833746898263
21
5.98281613548810
31
0.000000000000000
  0
LINE
  5
F10421
330
F10422
100
AcDbEntity
8
Geo
100
AcDbLine
10
-65.2833746898263
20
5.98281613548810
30
0.000000000000000
11
-65.1833746898263
21
5.96531998788083
31
0.000000000000000
  0
LINE
  5
F10423
330
F10424
100
AcDbEntity
8
Geo
100
AcDbLine
10
-65.1833746898263
20
5.96531998788083
30
0.000000000000000
11
-65.0833746898263
21
5.94782871003806
31
0.000000000000000
  0
LINE
  5
F10425
330
F10426
100
AcDbEntity
8
Geo
100
AcDbLine
10
-65.0833746898263
20
5.94782871003806
30
0.000000000000000
11
-64.9833746898263
21
5.93034238693238
31
0.000000000000000
  0
LINE
  5
F10427
330
F10428
100
AcDbEntity
8
Geo
100
AcDbLine
10
-64.9833746898263
20
5.93034238693238
30
0.000000000000000
11
-64.8833746898263
21
5.91286110351235
31
0.000000000000000
  0
LINE
  5
F10429
330
F1042A
100
AcDbEntity
8
Geo
100
AcDbLine
10
-64.8833746898263
20
5.91286110351235
30
0.000000000000000
11
-64.7833746898263
21
5.89538494470199
31
0.000000000000000
  0
LINE
  5
F1042B
330
F1042C
100
AcDbEntity
8
Geo
100
AcDbLine
10
-64.7833746898263
20
5.89538494470199
30
0.000000000000000
11
-64.6833746898263
21
5.87791399540049
31
0.000000000000000
  0
LINE
  5
F1042D
330
F1042E
100
AcDbEntity
8
Geo
100
AcDbLine
10
-64.6833746898263
20
5.87791399540049
30
0.000000000000000
11
-64.5833746898263
21
5.86044834048167
31
0.000000000000000
  0
LINE
  5
F1042F
330
F10430
100
AcDbEntity
8
Geo
100
AcDbLine
10
-64.5833746898263
20
5.86044834048167
30
0.000000000000000
11
-64.4833746898263
21
5.84298806479367
31
0.000000000000000
  0
LINE
  5
F10431
330
F10432
100
AcDbEntity
8
Geo
100
AcDbLine
10
-64.4833746898263
20
5.84298806479367
30
0.000000000000000
11
-64.3833746898263
21
5.82553325315850
31
0.000000000000000
  0
LINE
  5
F10433
330
F10434
100
AcDbEntity
8
Geo
100
AcDbLine
10
-64.3833746898263
20
5.82553325315850
30
0.000000000000000
11
-64.2833746898263
21
5.80808399037159
31
0.000000000000000
  0
LINE
  5
F10435
330
F10436
100
AcDbEntity
8
Geo
100
AcDbLine
10
-64.2833746898263
20
5.80808399037159
30
0.000000000000000
11
-64.1833746898263
21
5.79064036120144
31
0.000000000000000
  0
LINE
  5
F10437
330
F10438
100
AcDbEntity
8
Geo
100
AcDbLine
10
-64.1833746898263
20
5.79064036120144
30
0.000000000000000
11
-64.0833746898263
21
5.77320245038919
31
0.000000000000000
  0
LINE
  5
F10439
330
F1043A
100
AcDbEntity
8
Geo
100
AcDbLine
10
-64.0833746898263
20
5.77320245038919
30
0.000000000000000
11
-63.9833746898263
21
5.75577034264817
31
0.000000000000000
  0
LINE
  5
F1043B
330
F1043C
100
AcDbEntity
8
Geo
100
AcDbLine
10
-63.9833746898263
20
5.75577034264817
30
0.000000000000000
11
-63.8833746898263
21
5.73834412266355
31
0.000000000000000
  0
LINE
  5
F1043D
330
F1043E
100
AcDbEntity
8
Geo
100
AcDbLine
10
-63.8833746898263
20
5.73834412266355
30
0.000000000000000
11
-63.7833746898263
21
5.72092387509188
31
0.000000000000000
  0
LINE
  5
F1043F
330
F10440
100
AcDbEntity
8
Geo
100
AcDbLine
10
-63.7833746898263
20
5.72092387509188
30
0.000000000000000
11
-63.6833746898263
21
5.70350968456070
31
0.000000000000000
  0
LINE
  5
F10441
330
F10442
100
AcDbEntity
8
Geo
100
AcDbLine
10
-63.6833746898263
20
5.70350968456070
30
0.000000000000000
11
-63.5833746898263
21
5.68610163566813
31
0.000000000000000
  0
LINE
  5
F10443
330
F10444
100
AcDbEntity
8
Geo
100
AcDbLine
10
-63.5833746898263
20
5.68610163566813
30
0.000000000000000
11
-63.4833746898263
21
5.66869981298243
31
0.000000000000000
  0
LINE
  5
F10445
330
F10446
100
AcDbEntity
8
Geo
100
AcDbLine
10
-63.4833746898263
20
5.66869981298243
30
0.000000000000000
11
-63.3833746898263
21
5.65130430104165
31
0.000000000000000
  0
LINE
  5
F10447
330
F10448
100
AcDbEntity
8
Geo
100
AcDbLine
10
-63.3833746898263
20
5.65130430104165
30
0.000000000000000
11
-63.2833746898263
21
5.63391518435316
31
0.000000000000000
  0
LINE
  5
F10449
330
F1044A
100
AcDbEntity
8
Geo
100
AcDbLine
10
-63.2833746898263
20
5.63391518435316
30
0.000000000000000
11
-63.1833746898263
21
5.61653254739326
31
0.000000000000000
  0
LINE
  5
F1044B
330
F1044C
100
AcDbEntity
8
Geo
100
AcDbLine
10
-63.1833746898263
20
5.61653254739326
30
0.000000000000000
11
-63.0833746898263
21
5.59915647460678
31
0.000000000000000
  0
LINE
  5
F1044D
330
F1044E
100
AcDbEntity
8
Geo
100
AcDbLine
10
-63.0833746898263
20
5.59915647460678
30
0.000000000000000
11
-62.9833746898263
21
5.58178705040666
31
0.000000000000000
  0
LINE
  5
F1044F
330
F10450
100
AcDbEntity
8
Geo
100
AcDbLine
10
-62.9833746898263
20
5.58178705040666
30
0.000000000000000
11
-62.8833746898263
21
5.56442435917354
31
0.000000000000000
  0
LINE
  5
F10451
330
F10452
100
AcDbEntity
8
Geo
100
AcDbLine
10
-62.8833746898263
20
5.56442435917354
30
0.000000000000000
11
-62.7833746898263
21
5.54706848525535
31
0.000000000000000
  0
LINE
  5
F10453
330
F10454
100
AcDbEntity
8
Geo
100
AcDbLine
10
-62.7833746898263
20
5.54706848525535
30
0.000000000000000
11
-62.6833746898263
21
5.52971951296691
31
0.000000000000000
  0
LINE
  5
F10455
330
F10456
100
AcDbEntity
8
Geo
100
AcDbLine
10
-62.6833746898263
20
5.52971951296691
30
0.000000000000000
11
-62.5833746898263
21
5.51237752658949
31
0.000000000000000
  0
LINE
  5
F10457
330
F10458
100
AcDbEntity
8
Geo
100
AcDbLine
10
-62.5833746898263
20
5.51237752658949
30
0.000000000000000
11
-62.4833746898263
21
5.49504261037045
31
0.000000000000000
  0
LINE
  5
F10459
330
F1045A
100
AcDbEntity
8
Geo
100
AcDbLine
10
-62.4833746898263
20
5.49504261037045
30
0.000000000000000
11
-62.3833746898263
21
5.47771484852278
31
0.000000000000000
  0
LINE
  5
F1045B
330
F1045C
100
AcDbEntity
8
Geo
100
AcDbLine
10
-62.3833746898263
20
5.47771484852278
30
0.000000000000000
11
-62.2833746898263
21
5.46039432522472
31
0.000000000000000
  0
LINE
  5
F1045D
330
F1045E
100
AcDbEntity
8
Geo
100
AcDbLine
10
-62.2833746898263
20
5.46039432522472
30
0.000000000000000
11
-62.1833746898263
21
5.44308112461937
31
0.000000000000000
  0
LINE
  5
F1045F
330
F10460
100
AcDbEntity
8
Geo
100
AcDbLine
10
-62.1833746898263
20
5.44308112461937
30
0.000000000000000
11
-62.0833746898263
21
5.42577533081422
31
0.000000000000000
  0
LINE
  5
F10461
330
F10462
100
AcDbEntity
8
Geo
100
AcDbLine
10
-62.0833746898263
20
5.42577533081422
30
0.000000000000000
11
-61.9833746898263
21
5.40847702788080
31
0.000000000000000
  0
LINE
  5
F10463
330
F10464
100
AcDbEntity
8
Geo
100
AcDbLine
10
-61.9833746898263
20
5.40847702788080
30
0.000000000000000
11
-61.8833746898263
21
5.39118629985424
31
0.000000000000000
  0
LINE
  5
F10465
330
F10466
100
AcDbEntity
8
Geo
100
AcDbLine
10
-61.8833746898263
20
5.39118629985424
30
0.000000000000000
11
-61.7833746898263
21
5.37390323073287
31
0.000000000000000
  0
LINE
  5
F10467
330
F10468
100
AcDbEntity
8
Geo
100
AcDbLine
10
-61.7833746898263
20
5.37390323073287
30
0.000000000000000
11
-61.6833746898263
21
5.35662790447782
31
0.000000000000000
  0
LINE
  5
F10469
330
F1046A
100
AcDbEntity
8
Geo
100
AcDbLine
10
-61.6833746898263
20
5.35662790447782
30
0.000000000000000
11
-61.5833746898263
21
5.33936040501260
31
0.000000000000000
  0
LINE
  5
F1046B
330
F1046C
100
AcDbEntity
8
Geo
100
AcDbLine
10
-61.5833746898263
20
5.33936040501260
30
0.000000000000000
11
-61.4833746898263
21
5.32210081622271
31
0.000000000000000
  0
LINE
  5
F1046D
330
F1046E
100
AcDbEntity
8
Geo
100
AcDbLine
10
-61.4833746898263
20
5.32210081622271
30
0.000000000000000
11
-61.3833746898263
21
5.30484922195520
31
0.000000000000000
  0
LINE
  5
F1046F
330
F10470
100
AcDbEntity
8
Geo
100
AcDbLine
10
-61.3833746898263
20
5.30484922195520
30
0.000000000000000
11
-61.2833746898263
21
5.28760570601829
31
0.000000000000000
  0
LINE
  5
F10471
330
F10472
100
AcDbEntity
8
Geo
100
AcDbLine
10
-61.2833746898263
20
5.28760570601829
30
0.000000000000000
11
-61.1833746898263
21
5.27037035218096
31
0.000000000000000
  0
LINE
  5
F10473
330
F10474
100
AcDbEntity
8
Geo
100
AcDbLine
10
-61.1833746898263
20
5.27037035218096
30
0.000000000000000
11
-61.0833746898263
21
5.25314324417254
31
0.000000000000000
  0
LINE
  5
F10475
330
F10476
100
AcDbEntity
8
Geo
100
AcDbLine
10
-61.0833746898263
20
5.25314324417254
30
0.000000000000000
11
-60.9833746898263
21
5.23592446568230
31
0.000000000000000
  0
LINE
  5
F10477
330
F10478
100
AcDbEntity
8
Geo
100
AcDbLine
10
-60.9833746898263
20
5.23592446568230
30
0.000000000000000
11
-60.8833746898263
21
5.21871410035904
31
0.000000000000000
  0
LINE
  5
F10479
330
F1047A
100
AcDbEntity
8
Geo
100
AcDbLine
10
-60.8833746898263
20
5.21871410035904
30
0.000000000000000
11
-60.7833746898263
21
5.20151223181068
31
0.000000000000000
  0
LINE
  5
F1047B
330
F1047C
100
AcDbEntity
8
Geo
100
AcDbLine
10
-60.7833746898263
20
5.20151223181068
30
0.000000000000000
11
-60.6833746898263
21
5.18431894360390
31
0.000000000000000
  0
LINE
  5
F1047D
330
F1047E
100
AcDbEntity
8
Geo
100
AcDbLine
10
-60.6833746898263
20
5.18431894360390
30
0.000000000000000
11
-60.5833746898263
21
5.16713431926364
31
0.000000000000000
  0
LINE
  5
F1047F
330
F10480
100
AcDbEntity
8
Geo
100
AcDbLine
10
-60.5833746898263
20
5.16713431926364
30
0.000000000000000
11
-60.4833746898263
21
5.14995844227281
31
0.000000000000000
  0
LINE
  5
F10481
330
F10482
100
AcDbEntity
8
Geo
100
AcDbLine
10
-60.4833746898263
20
5.14995844227281
30
0.000000000000000
11
-60.3833746898263
21
5.13279139607179
31
0.000000000000000
  0
LINE
  5
F10483
330
F10484
100
AcDbEntity
8
Geo
100
AcDbLine
10
-60.3833746898263
20
5.13279139607179
30
0.000000000000000
11
-60.2833746898263
21
5.11563326405806
31
0.000000000000000
  0
LINE
  5
F10485
330
F10486
100
AcDbEntity
8
Geo
100
AcDbLine
10
-60.2833746898263
20
5.11563326405806
30
0.000000000000000
11
-60.1833746898263
21
5.09848412958580
31
0.000000000000000
  0
LINE
  5
F10487
330
F10488
100
AcDbEntity
8
Geo
100
AcDbLine
10
-60.1833746898263
20
5.09848412958580
30
0.000000000000000
11
-60.0833746898263
21
5.08134407596550
31
0.000000000000000
  0
LINE
  5
F10489
330
F1048A
100
AcDbEntity
8
Geo
100
AcDbLine
10
-60.0833746898263
20
5.08134407596550
30
0.000000000000000
11
-59.9833746898263
21
5.06421318646350
31
0.000000000000000
  0
LINE
  5
F1048B
330
F1048C
100
AcDbEntity
8
Geo
100
AcDbLine
10
-59.9833746898263
20
5.06421318646350
30
0.000000000000000
11
-59.8833746898263
21
5.04709154430165
31
0.000000000000000
  0
LINE
  5
F1048D
330
F1048E
100
AcDbEntity
8
Geo
100
AcDbLine
10
-59.8833746898263
20
5.04709154430165
30
0.000000000000000
11
-59.7833746898263
21
5.02997923265687
31
0.000000000000000
  0
LINE
  5
F1048F
330
F10490
100
AcDbEntity
8
Geo
100
AcDbLine
10
-59.7833746898263
20
5.02997923265687
30
0.000000000000000
11
-59.6833746898263
21
5.01287633466073
31
0.000000000000000
  0
LINE
  5
F10491
330
F10492
100
AcDbEntity
8
Geo
100
AcDbLine
10
-59.6833746898263
20
5.01287633466073
30
0.000000000000000
11
-59.5833746898263
21
4.99578293339909
31
0.000000000000000
  0
LINE
  5
F10493
330
F10494
100
AcDbEntity
8
Geo
100
AcDbLine
10
-59.5833746898263
20
4.99578293339909
30
0.000000000000000
11
-59.4833746898263
21
4.97869911191168
31
0.000000000000000
  0
LINE
  5
F10495
330
F10496
100
AcDbEntity
8
Geo
100
AcDbLine
10
-59.4833746898263
20
4.97869911191168
30
0.000000000000000
11
-59.3833746898263
21
4.96162495319168
31
0.000000000000000
  0
LINE
  5
F10497
330
F10498
100
AcDbEntity
8
Geo
100
AcDbLine
10
-59.3833746898263
20
4.96162495319168
30
0.000000000000000
11
-59.2833746898263
21
4.94456054018532
31
0.000000000000000
  0
LINE
  5
F10499
330
F1049A
100
AcDbEntity
8
Geo
100
AcDbLine
10
-59.2833746898263
20
4.94456054018532
30
0.000000000000000
11
-59.1833746898263
21
4.92750595579151
31
0.000000000000000
  0
LINE
  5
F1049B
330
F1049C
100
AcDbEntity
8
Geo
100
AcDbLine
10
-59.1833746898263
20
4.92750595579151
30
0.000000000000000
11
-59.0833746898263
21
4.91046128286139
31
0.000000000000000
  0
LINE
  5
F1049D
330
F1049E
100
AcDbEntity
8
Geo
100
AcDbLine
10
-59.0833746898263
20
4.91046128286139
30
0.000000000000000
11
-58.9833746898263
21
4.89342660419796
31
0.000000000000000
  0
LINE
  5
F1049F
330
F104A0
100
AcDbEntity
8
Geo
100
AcDbLine
10
-58.9833746898263
20
4.89342660419796
30
0.000000000000000
11
-58.8833746898263
21
4.87640200255567
31
0.000000000000000
  0
LINE
  5
F104A1
330
F104A2
100
AcDbEntity
8
Geo
100
AcDbLine
10
-58.8833746898263
20
4.87640200255567
30
0.000000000000000
11
-58.7833746898263
21
4.85938756064001
31
0.000000000000000
  0
LINE
  5
F104A3
330
F104A4
100
AcDbEntity
8
Geo
100
AcDbLine
10
-58.7833746898263
20
4.85938756064001
30
0.000000000000000
11
-58.6833746898263
21
4.84238336110711
31
0.000000000000000
  0
LINE
  5
F104A5
330
F104A6
100
AcDbEntity
8
Geo
100
AcDbLine
10
-58.6833746898263
20
4.84238336110711
30
0.000000000000000
11
-58.5833746898263
21
4.82538948656336
31
0.000000000000000
  0
LINE
  5
F104A7
330
F104A8
100
AcDbEntity
8
Geo
100
AcDbLine
10
-58.5833746898263
20
4.82538948656336
30
0.000000000000000
11
-58.4833746898263
21
4.80840601956497
31
0.000000000000000
  0
LINE
  5
F104A9
330
F104AA
100
AcDbEntity
8
Geo
100
AcDbLine
10
-58.4833746898263
20
4.80840601956497
30
0.000000000000000
11
-58.3833746898263
21
4.79143304261761
31
0.000000000000000
  0
LINE
  5
F104AB
330
F104AC
100
AcDbEntity
8
Geo
100
AcDbLine
10
-58.3833746898263
20
4.79143304261761
30
0.000000000000000
11
-58.2833746898263
21
4.77447063817597
31
0.000000000000000
  0
LINE
  5
F104AD
330
F104AE
100
AcDbEntity
8
Geo
100
AcDbLine
10
-58.2833746898263
20
4.77447063817597
30
0.000000000000000
11
-58.1833746898263
21
4.75751888864339
31
0.000000000000000
  0
LINE
  5
F104AF
330
F104B0
100
AcDbEntity
8
Geo
100
AcDbLine
10
-58.1833746898263
20
4.75751888864339
30
0.000000000000000
11
-58.0833746898263
21
4.74057787637146
31
0.000000000000000
  0
LINE
  5
F104B1
330
F104B2
100
AcDbEntity
8
Geo
100
AcDbLine
10
-58.0833746898263
20
4.74057787637146
30
0.000000000000000
11
-57.9833746898263
21
4.72364768365958
31
0.000000000000000
  0
LINE
  5
F104B3
330
F104B4
100
AcDbEntity
8
Geo
100
AcDbLine
10
-57.9833746898263
20
4.72364768365958
30
0.000000000000000
11
-57.8833746898263
21
4.70672839275460
31
0.000000000000000
  0
LINE
  5
F104B5
330
F104B6
100
AcDbEntity
8
Geo
100
AcDbLine
10
-57.8833746898263
20
4.70672839275460
30
0.000000000000000
11
-57.7833746898263
21
4.68982008585043
31
0.000000000000000
  0
LINE
  5
F104B7
330
F104B8
100
AcDbEntity
8
Geo
100
AcDbLine
10
-57.7833746898263
20
4.68982008585043
30
0.000000000000000
11
-57.6833746898263
21
4.67292284508760
31
0.000000000000000
  0
LINE
  5
F104B9
330
F104BA
100
AcDbEntity
8
Geo
100
AcDbLine
10
-57.6833746898263
20
4.67292284508760
30
0.000000000000000
11
-57.5833746898263
21
4.65603675255287
31
0.000000000000000
  0
LINE
  5
F104BB
330
F104BC
100
AcDbEntity
8
Geo
100
AcDbLine
10
-57.5833746898263
20
4.65603675255287
30
0.000000000000000
11
-57.4833746898263
21
4.63916189027886
31
0.000000000000000
  0
LINE
  5
F104BD
330
F104BE
100
AcDbEntity
8
Geo
100
AcDbLine
10
-57.4833746898263
20
4.63916189027886
30
0.000000000000000
11
-57.3833746898263
21
4.62229834024363
31
0.000000000000000
  0
LINE
  5
F104BF
330
F104C0
100
AcDbEntity
8
Geo
100
AcDbLine
10
-57.3833746898263
20
4.62229834024363
30
0.000000000000000
11
-57.2833746898263
21
4.60544618437029
31
0.000000000000000
  0
LINE
  5
F104C1
330
F104C2
100
AcDbEntity
8
Geo
100
AcDbLine
10
-57.2833746898263
20
4.60544618437029
30
0.000000000000000
11
-57.1833746898263
21
4.58860550452659
31
0.000000000000000
  0
LINE
  5
F104C3
330
F104C4
100
AcDbEntity
8
Geo
100
AcDbLine
10
-57.1833746898263
20
4.58860550452659
30
0.000000000000000
11
-57.0833746898263
21
4.57177638252452
31
0.000000000000000
  0
LINE
  5
F104C5
330
F104C6
100
AcDbEntity
8
Geo
100
AcDbLine
10
-57.0833746898263
20
4.57177638252452
30
0.000000000000000
11
-56.9833746898263
21
4.55495890011994
31
0.000000000000000
  0
LINE
  5
F104C7
330
F104C8
100
AcDbEntity
8
Geo
100
AcDbLine
10
-56.9833746898263
20
4.55495890011994
30
0.000000000000000
11
-56.8833746898263
21
4.53815313901215
31
0.000000000000000
  0
LINE
  5
F104C9
330
F104CA
100
AcDbEntity
8
Geo
100
AcDbLine
10
-56.8833746898263
20
4.53815313901215
30
0.000000000000000
11
-56.7833746898263
21
4.52135918084353
31
0.000000000000000
  0
LINE
  5
F104CB
330
F104CC
100
AcDbEntity
8
Geo
100
AcDbLine
10
-56.7833746898263
20
4.52135918084353
30
0.000000000000000
11
-56.6833746898263
21
4.50457710719910
31
0.000000000000000
  0
LINE
  5
F104CD
330
F104CE
100
AcDbEntity
8
Geo
100
AcDbLine
10
-56.6833746898263
20
4.50457710719910
30
0.000000000000000
11
-56.5833746898263
21
4.48780699960614
31
0.000000000000000
  0
LINE
  5
F104CF
330
F104D0
100
AcDbEntity
8
Geo
100
AcDbLine
10
-56.5833746898263
20
4.48780699960614
30
0.000000000000000
11
-56.4833746898263
21
4.47104893953382
31
0.000000000000000
  0
LINE
  5
F104D1
330
F104D2
100
AcDbEntity
8
Geo
100
AcDbLine
10
-56.4833746898263
20
4.47104893953382
30
0.000000000000000
11
-56.3833746898263
21
4.45430300839278
31
0.000000000000000
  0
LINE
  5
F104D3
330
F104D4
100
AcDbEntity
8
Geo
100
AcDbLine
10
-56.3833746898263
20
4.45430300839278
30
0.000000000000000
11
-56.2833746898263
21
4.43756928753472
31
0.000000000000000
  0
LINE
  5
F104D5
330
F104D6
100
AcDbEntity
8
Geo
100
AcDbLine
10
-56.2833746898263
20
4.43756928753472
30
0.000000000000000
11
-56.1833746898263
21
4.42084785825205
31
0.000000000000000
  0
LINE
  5
F104D7
330
F104D8
100
AcDbEntity
8
Geo
100
AcDbLine
10
-56.1833746898263
20
4.42084785825205
30
0.000000000000000
11
-56.0833746898263
21
4.40413880177743
31
0.000000000000000
  0
LINE
  5
F104D9
330
F104DA
100
AcDbEntity
8
Geo
100
AcDbLine
10
-56.0833746898263
20
4.40413880177743
30
0.000000000000000
11
-55.9833746898263
21
4.38744219928344
31
0.000000000000000
  0
LINE
  5
F104DB
330
F104DC
100
AcDbEntity
8
Geo
100
AcDbLine
10
-55.9833746898263
20
4.38744219928344
30
0.000000000000000
11
-55.8833746898263
21
4.37075813188217
31
0.000000000000000
  0
LINE
  5
F104DD
330
F104DE
100
AcDbEntity
8
Geo
100
AcDbLine
10
-55.8833746898263
20
4.37075813188217
30
0.000000000000000
11
-55.7833746898263
21
4.35408668062477
31
0.000000000000000
  0
LINE
  5
F104DF
330
F104E0
100
AcDbEntity
8
Geo
100
AcDbLine
10
-55.7833746898263
20
4.35408668062477
30
0.000000000000000
11
-55.6833746898263
21
4.33742792650116
31
0.000000000000000
  0
LINE
  5
F104E1
330
F104E2
100
AcDbEntity
8
Geo
100
AcDbLine
10
-55.6833746898263
20
4.33742792650116
30
0.000000000000000
11
-55.5833746898263
21
4.32078195043951
31
0.000000000000000
  0
LINE
  5
F104E3
330
F104E4
100
AcDbEntity
8
Geo
100
AcDbLine
10
-55.5833746898263
20
4.32078195043951
30
0.000000000000000
11
-55.4833746898263
21
4.30414883330598
31
0.000000000000000
  0
LINE
  5
F104E5
330
F104E6
100
AcDbEntity
8
Geo
100
AcDbLine
10
-55.4833746898263
20
4.30414883330598
30
0.000000000000000
11
-55.3833746898263
21
4.28752865590422
31
0.000000000000000
  0
LINE
  5
F104E7
330
F104E8
100
AcDbEntity
8
Geo
100
AcDbLine
10
-55.3833746898263
20
4.28752865590422
30
0.000000000000000
11
-55.2833746898263
21
4.27092149897502
31
0.000000000000000
  0
LINE
  5
F104E9
330
F104EA
100
AcDbEntity
8
Geo
100
AcDbLine
10
-55.2833746898263
20
4.27092149897502
30
0.000000000000000
11
-55.1833746898263
21
4.25432744319594
31
0.000000000000000
  0
LINE
  5
F104EB
330
F104EC
100
AcDbEntity
8
Geo
100
AcDbLine
10
-55.1833746898263
20
4.25432744319594
30
0.000000000000000
11
-55.0833746898263
21
4.23774656918088
31
0.000000000000000
  0
LINE
  5
F104ED
330
F104EE
100
AcDbEntity
8
Geo
100
AcDbLine
10
-55.0833746898263
20
4.23774656918088
30
0.000000000000000
11
-54.9833746898263
21
4.22117895747970
31
0.000000000000000
  0
LINE
  5
F104EF
330
F104F0
100
AcDbEntity
8
Geo
100
AcDbLine
10
-54.9833746898263
20
4.22117895747970
30
0.000000000000000
11
-54.8833746898263
21
4.20462468857783
31
0.000000000000000
  0
LINE
  5
F104F1
330
F104F2
100
AcDbEntity
8
Geo
100
AcDbLine
10
-54.8833746898263
20
4.20462468857783
30
0.000000000000000
11
-54.7833746898263
21
4.18808384289590
31
0.000000000000000
  0
LINE
  5
F104F3
330
F104F4
100
AcDbEntity
8
Geo
100
AcDbLine
10
-54.7833746898263
20
4.18808384289590
30
0.000000000000000
11
-54.6833746898263
21
4.17155650078930
31
0.000000000000000
  0
LINE
  5
F104F5
330
F104F6
100
AcDbEntity
8
Geo
100
AcDbLine
10
-54.6833746898263
20
4.17155650078930
30
0.000000000000000
11
-54.5833746898263
21
4.15504274254785
31
0.000000000000000
  0
LINE
  5
F104F7
330
F104F8
100
AcDbEntity
8
Geo
100
AcDbLine
10
-54.5833746898263
20
4.15504274254785
30
0.000000000000000
11
-54.4833746898263
21
4.13854264839536
31
0.000000000000000
  0
LINE
  5
F104F9
330
F104FA
100
AcDbEntity
8
Geo
100
AcDbLine
10
-54.4833746898263
20
4.13854264839536
30
0.000000000000000
11
-54.3833746898263
21
4.12205629848926
31
0.000000000000000
  0
LINE
  5
F104FB
330
F104FC
100
AcDbEntity
8
Geo
100
AcDbLine
10
-54.3833746898263
20
4.12205629848926
30
0.000000000000000
11
-54.2833746898263
21
4.10558377292023
31
0.000000000000000
  0
LINE
  5
F104FD
330
F104FE
100
AcDbEntity
8
Geo
100
AcDbLine
10
-54.2833746898263
20
4.10558377292023
30
0.000000000000000
11
-54.1833746898263
21
4.08912515171177
31
0.000000000000000
  0
LINE
  5
F104FF
330
F10500
100
AcDbEntity
8
Geo
100
AcDbLine
10
-54.1833746898263
20
4.08912515171177
30
0.000000000000000
11
-54.0833746898263
21
4.07268051481984
31
0.000000000000000
  0
LINE
  5
F10501
330
F10502
100
AcDbEntity
8
Geo
100
AcDbLine
10
-54.0833746898263
20
4.07268051481984
30
0.000000000000000
11
-53.9833746898263
21
4.05624994213247
31
0.000000000000000
  0
LINE
  5
F10503
330
F10504
100
AcDbEntity
8
Geo
100
AcDbLine
10
-53.9833746898263
20
4.05624994213247
30
0.000000000000000
11
-53.8833746898263
21
4.03983351346934
31
0.000000000000000
  0
LINE
  5
F10505
330
F10506
100
AcDbEntity
8
Geo
100
AcDbLine
10
-53.8833746898263
20
4.03983351346934
30
0.000000000000000
11
-53.7833746898263
21
4.02343130858146
31
0.000000000000000
  0
LINE
  5
F10507
330
F10508
100
AcDbEntity
8
Geo
100
AcDbLine
10
-53.7833746898263
20
4.02343130858146
30
0.000000000000000
11
-53.6833746898263
21
4.00704340715072
31
0.000000000000000
  0
LINE
  5
F10509
330
F1050A
100
AcDbEntity
8
Geo
100
AcDbLine
10
-53.6833746898263
20
4.00704340715072
30
0.000000000000000
11
-53.5833746898263
21
3.99066988878951
31
0.000000000000000
  0
LINE
  5
F1050B
330
F1050C
100
AcDbEntity
8
Geo
100
AcDbLine
10
-53.5833746898263
20
3.99066988878951
30
0.000000000000000
11
-53.4833746898263
21
3.97431083304037
31
0.000000000000000
  0
LINE
  5
F1050D
330
F1050E
100
AcDbEntity
8
Geo
100
AcDbLine
10
-53.4833746898263
20
3.97431083304037
30
0.000000000000000
11
-53.3833746898263
21
3.95796631937556
31
0.000000000000000
  0
LINE
  5
F1050F
330
F10510
100
AcDbEntity
8
Geo
100
AcDbLine
10
-53.3833746898263
20
3.95796631937556
30
0.000000000000000
11
-53.2833746898263
21
3.94163642719672
31
0.000000000000000
  0
LINE
  5
F10511
330
F10512
100
AcDbEntity
8
Geo
100
AcDbLine
10
-53.2833746898263
20
3.94163642719672
30
0.000000000000000
11
-53.1833746898263
21
3.92532123583444
31
0.000000000000000
  0
LINE
  5
F10513
330
F10514
100
AcDbEntity
8
Geo
100
AcDbLine
10
-53.1833746898263
20
3.92532123583444
30
0.000000000000000
11
-53.0833746898263
21
3.90902082454789
31
0.000000000000000
  0
LINE
  5
F10515
330
F10516
100
AcDbEntity
8
Geo
100
AcDbLine
10
-53.0833746898263
20
3.90902082454789
30
0.000000000000000
11
-52.9833746898263
21
3.89273527252446
31
0.000000000000000
  0
LINE
  5
F10517
330
F10518
100
AcDbEntity
8
Geo
100
AcDbLine
10
-52.9833746898263
20
3.89273527252446
30
0.000000000000000
11
-52.8833746898263
21
3.87646465887934
31
0.000000000000000
  0
LINE
  5
F10519
330
F1051A
100
AcDbEntity
8
Geo
100
AcDbLine
10
-52.8833746898263
20
3.87646465887934
30
0.000000000000000
11
-52.7833746898263
21
3.86020906265513
31
0.000000000000000
  0
LINE
  5
F1051B
330
F1051C
100
AcDbEntity
8
Geo
100
AcDbLine
10
-52.7833746898263
20
3.86020906265513
30
0.000000000000000
11
-52.6833746898263
21
3.84396856282151
31
0.000000000000000
  0
LINE
  5
F1051D
330
F1051E
100
AcDbEntity
8
Geo
100
AcDbLine
10
-52.6833746898263
20
3.84396856282151
30
0.000000000000000
11
-52.5833746898263
21
3.82774323827481
31
0.000000000000000
  0
LINE
  5
F1051F
330
F10520
100
AcDbEntity
8
Geo
100
AcDbLine
10
-52.5833746898263
20
3.82774323827481
30
0.000000000000000
11
-52.4833746898263
21
3.81153316783763
31
0.000000000000000
  0
LINE
  5
F10521
330
F10522
100
AcDbEntity
8
Geo
100
AcDbLine
10
-52.4833746898263
20
3.81153316783763
30
0.000000000000000
11
-52.3833746898263
21
3.79533843025847
31
0.000000000000000
  0
LINE
  5
F10523
330
F10524
100
AcDbEntity
8
Geo
100
AcDbLine
10
-52.3833746898263
20
3.79533843025847
30
0.000000000000000
11
-52.2833746898263
21
3.77915910421134
31
0.000000000000000
  0
LINE
  5
F10525
330
F10526
100
AcDbEntity
8
Geo
100
AcDbLine
10
-52.2833746898263
20
3.77915910421134
30
0.000000000000000
11
-52.1833746898263
21
3.76299526829539
31
0.000000000000000
  0
LINE
  5
F10527
330
F10528
100
AcDbEntity
8
Geo
100
AcDbLine
10
-52.1833746898263
20
3.76299526829539
30
0.000000000000000
11
-52.0833746898263
21
3.74684700103451
31
0.000000000000000
  0
LINE
  5
F10529
330
F1052A
100
AcDbEntity
8
Geo
100
AcDbLine
10
-52.0833746898263
20
3.74684700103451
30
0.000000000000000
11
-51.9833746898263
21
3.73071438087697
31
0.000000000000000
  0
LINE
  5
F1052B
330
F1052C
100
AcDbEntity
8
Geo
100
AcDbLine
10
-51.9833746898263
20
3.73071438087697
30
0.000000000000000
11
-51.8833746898263
21
3.71459748619501
31
0.000000000000000
  0
LINE
  5
F1052D
330
F1052E
100
AcDbEntity
8
Geo
100
AcDbLine
10
-51.8833746898263
20
3.71459748619501
30
0.000000000000000
11
-51.7833746898263
21
3.69849639528448
31
0.000000000000000
  0
LINE
  5
F1052F
330
F10530
100
AcDbEntity
8
Geo
100
AcDbLine
10
-51.7833746898263
20
3.69849639528448
30
0.000000000000000
11
-51.6833746898263
21
3.68241118636446
31
0.000000000000000
  0
LINE
  5
F10531
330
F10532
100
AcDbEntity
8
Geo
100
AcDbLine
10
-51.6833746898263
20
3.68241118636446
30
0.000000000000000
11
-51.5833746898263
21
3.66634193757689
31
0.000000000000000
  0
LINE
  5
F10533
330
F10534
100
AcDbEntity
8
Geo
100
AcDbLine
10
-51.5833746898263
20
3.66634193757689
30
0.000000000000000
11
-51.4833746898263
21
3.65028872698613
31
0.000000000000000
  0
LINE
  5
F10535
330
F10536
100
AcDbEntity
8
Geo
100
AcDbLine
10
-51.4833746898263
20
3.65028872698613
30
0.000000000000000
11
-51.3833746898263
21
3.63425163257868
31
0.000000000000000
  0
LINE
  5
F10537
330
F10538
100
AcDbEntity
8
Geo
100
AcDbLine
10
-51.3833746898263
20
3.63425163257868
30
0.000000000000000
11
-51.2833746898263
21
3.61823073226271
31
0.000000000000000
  0
LINE
  5
F10539
330
F1053A
100
AcDbEntity
8
Geo
100
AcDbLine
10
-51.2833746898263
20
3.61823073226271
30
0.000000000000000
11
-51.1833746898263
21
3.60222610386773
31
0.000000000000000
  0
LINE
  5
F1053B
330
F1053C
100
AcDbEntity
8
Geo
100
AcDbLine
10
-51.1833746898263
20
3.60222610386773
30
0.000000000000000
11
-51.0833746898263
21
3.58623782514423
31
0.000000000000000
  0
LINE
  5
F1053D
330
F1053E
100
AcDbEntity
8
Geo
100
AcDbLine
10
-51.0833746898263
20
3.58623782514423
30
0.000000000000000
11
-50.9833746898263
21
3.57026597376321
31
0.000000000000000
  0
LINE
  5
F1053F
330
F10540
100
AcDbEntity
8
Geo
100
AcDbLine
10
-50.9833746898263
20
3.57026597376321
30
0.000000000000000
11
-50.8833746898263
21
3.55431062731593
31
0.000000000000000
  0
LINE
  5
F10541
330
F10542
100
AcDbEntity
8
Geo
100
AcDbLine
10
-50.8833746898263
20
3.55431062731593
30
0.000000000000000
11
-50.7833746898263
21
3.90365524116511
31
0.000000000000000
  0
LINE
  5
F10543
330
F10544
100
AcDbEntity
8
Geo
100
AcDbLine
10
-50.7833746898263
20
3.90365524116511
30
0.000000000000000
11
-50.6833746898263
21
4.58102954317870
31
0.000000000000000
  0
LINE
  5
F10545
330
F10546
100
AcDbEntity
8
Geo
100
AcDbLine
10
-70.8833746898263
20
5.57716546079662
30
0.000000000000000
11
-70.7833746898263
21
5.30930648103464
31
0.000000000000000
  0
LINE
  5
F10547
330
F10548
100
AcDbEntity
8
Geo
100
AcDbLine
10
-70.7833746898263
20
5.30930648103464
30
0.000000000000000
11
-70.6833746898263
21
5.19305483671568
31
0.000000000000000
  0
LINE
  5
F10549
330
F1054A
100
AcDbEntity
8
Geo
100
AcDbLine
10
-70.6833746898263
20
5.19305483671568
30
0.000000000000000
11
-70.5833746898263
21
5.10188397215912
31
0.000000000000000
  0
LINE
  5
F1054B
330
F1054C
100
AcDbEntity
8
Geo
100
AcDbLine
10
-70.5833746898263
20
5.10188397215912
30
0.000000000000000
11
-70.4833746898263
21
5.02379092592839
31
0.000000000000000
  0
LINE
  5
F1054D
330
F1054E
100
AcDbEntity
8
Geo
100
AcDbLine
10
-70.4833746898263
20
5.02379092592839
30
0.000000000000000
11
-70.3833746898263
21
4.95413700416167
31
0.000000000000000
  0
LINE
  5
F1054F
330
F10550
100
AcDbEntity
8
Geo
100
AcDbLine
10
-70.3833746898263
20
4.95413700416167
30
0.000000000000000
11
-70.2833746898263
21
4.89055118337362
31
0.000000000000000
  0
LINE
  5
F10551
330
F10552
100
AcDbEntity
8
Geo
100
AcDbLine
10
-70.2833746898263
20
4.89055118337362
30
0.000000000000000
11
-70.1833746898263
21
4.83163138114249
31
0.000000000000000
  0
LINE
  5
F10553
330
F10554
100
AcDbEntity
8
Geo
100
AcDbLine
10
-70.1833746898263
20
4.83163138114249
30
0.000000000000000
11
-70.0833746898263
21
4.77646944089082
31
0.000000000000000
  0
LINE
  5
F10555
330
F10556
100
AcDbEntity
8
Geo
100
AcDbLine
10
-70.0833746898263
20
4.77646944089082
30
0.000000000000000
11
-69.9833746898263
21
4.72443920660876
31
0.000000000000000
  0
LINE
  5
F10557
330
F10558
100
AcDbEntity
8
Geo
100
AcDbLine
10
-69.9833746898263
20
4.72443920660876
30
0.000000000000000
11
-69.8833746898263
21
4.67508889992606
31
0.000000000000000
  0
LINE
  5
F10559
330
F1055A
100
AcDbEntity
8
Geo
100
AcDbLine
10
-69.8833746898263
20
4.67508889992606
30
0.000000000000000
11
-69.7833746898263
21
4.62808118842255
31
0.000000000000000
  0
LINE
  5
F1055B
330
F1055C
100
AcDbEntity
8
Geo
100
AcDbLine
10
-69.7833746898263
20
4.62808118842255
30
0.000000000000000
11
-69.6833746898263
21
4.58315741604682
31
0.000000000000000
  0
LINE
  5
F1055D
330
F1055E
100
AcDbEntity
8
Geo
100
AcDbLine
10
-69.6833746898263
20
4.58315741604682
30
0.000000000000000
11
-69.5833746898263
21
4.54011506598833
31
0.000000000000000
  0
LINE
  5
F1055F
330
F10560
100
AcDbEntity
8
Geo
100
AcDbLine
10
-69.5833746898263
20
4.54011506598833
30
0.000000000000000
11
-69.4833746898263
21
4.49879292879741
31
0.000000000000000
  0
LINE
  5
F10561
330
F10562
100
AcDbEntity
8
Geo
100
AcDbLine
10
-69.4833746898263
20
4.49879292879741
30
0.000000000000000
11
-69.3833746898263
21
4.45906098595984
31
0.000000000000000
  0
LINE
  5
F10563
330
F10564
100
AcDbEntity
8
Geo
100
AcDbLine
10
-69.3833746898263
20
4.45906098595984
30
0.000000000000000
11
-69.2833746898263
21
4.42081330057910
31
0.000000000000000
  0
LINE
  5
F10565
330
F10566
100
AcDbEntity
8
Geo
100
AcDbLine
10
-69.2833746898263
20
4.42081330057910
30
0.000000000000000
11
-69.1833746898263
21
4.38396289353967
31
0.000000000000000
  0
LINE
  5
F10567
330
F10568
100
AcDbEntity
8
Geo
100
AcDbLine
10
-69.1833746898263
20
4.38396289353967
30
0.000000000000000
11
-69.0833746898263
21
4.34843797022076
31
0.000000000000000
  0
LINE
  5
F10569
330
F1056A
100
AcDbEntity
8
Geo
100
AcDbLine
10
-69.0833746898263
20
4.34843797022076
30
0.000000000000000
11
-68.9833746898263
21
4.31417908993241
31
0.000000000000000
  0
LINE
  5
F1056B
330
F1056C
100
AcDbEntity
8
Geo
100
AcDbLine
10
-68.9833746898263
20
4.31417908993241
30
0.000000000000000
11
-68.8833746898263
21
4.28113700853277
31
0.000000000000000
  0
LINE
  5
F1056D
330
F1056E
100
AcDbEntity
8
Geo
100
AcDbLine
10
-68.8833746898263
20
4.28113700853277
30
0.000000000000000
11
-68.7833746898263
21
4.24927101158671
31
0.000000000000000
  0
LINE
  5
F1056F
330
F10570
100
AcDbEntity
8
Geo
100
AcDbLine
10
-68.7833746898263
20
4.24927101158671
30
0.000000000000000
11
-68.6833746898263
21
4.21854761157046
31
0.000000000000000
  0
LINE
  5
F10571
330
F10572
100
AcDbEntity
8
Geo
100
AcDbLine
10
-68.6833746898263
20
4.21854761157046
30
0.000000000000000
11
-68.5833746898263
21
4.18893951980438
31
0.000000000000000
  0
LINE
  5
F10573
330
F10574
100
AcDbEntity
8
Geo
100
AcDbLine
10
-68.5833746898263
20
4.18893951980438
30
0.000000000000000
11
-68.4833746898263
21
4.16042482896443
31
0.000000000000000
  0
LINE
  5
F10575
330
F10576
100
AcDbEntity
8
Geo
100
AcDbLine
10
-68.4833746898263
20
4.16042482896443
30
0.000000000000000
11
-68.3833746898263
21
4.13298635940602
31
0.000000000000000
  0
LINE
  5
F10577
330
F10578
100
AcDbEntity
8
Geo
100
AcDbLine
10
-68.3833746898263
20
4.13298635940602
30
0.000000000000000
11
-68.2833746898263
21
4.10661113476292
31
0.000000000000000
  0
LINE
  5
F10579
330
F1057A
100
AcDbEntity
8
Geo
100
AcDbLine
10
-68.2833746898263
20
4.10661113476292
30
0.000000000000000
11
-68.1833746898263
21
4.08128996103551
31
0.000000000000000
  0
LINE
  5
F1057B
330
F1057C
100
AcDbEntity
8
Geo
100
AcDbLine
10
-68.1833746898263
20
4.08128996103551
30
0.000000000000000
11
-68.0833746898263
21
4.05701708974958
31
0.000000000000000
  0
LINE
  5
F1057D
330
F1057E
100
AcDbEntity
8
Geo
100
AcDbLine
10
-68.0833746898263
20
4.05701708974958
30
0.000000000000000
11
-67.9833746898263
21
4.03378995047316
31
0.000000000000000
  0
LINE
  5
F1057F
330
F10580
100
AcDbEntity
8
Geo
100
AcDbLine
10
-67.9833746898263
20
4.03378995047316
30
0.000000000000000
11
-67.8833746898263
21
4.01160894151531
31
0.000000000000000
  0
LINE
  5
F10581
330
F10582
100
AcDbEntity
8
Geo
100
AcDbLine
10
-67.8833746898263
20
4.01160894151531
30
0.000000000000000
11
-67.7833746898263
21
3.99047727033454
31
0.000000000000000
  0
LINE
  5
F10583
330
F10584
100
AcDbEntity
8
Geo
100
AcDbLine
10
-67.7833746898263
20
3.99047727033454
30
0.000000000000000
11
-67.6833746898263
21
3.97040083729244
31
0.000000000000000
  0
LINE
  5
F10585
330
F10586
100
AcDbEntity
8
Geo
100
AcDbLine
10
-67.6833746898263
20
3.97040083729244
30
0.000000000000000
11
-67.5833746898263
21
3.95138815806916
31
0.000000000000000
  0
LINE
  5
F10587
330
F10588
100
AcDbEntity
8
Geo
100
AcDbLine
10
-67.5833746898263
20
3.95138815806916
30
0.000000000000000
11
-67.4833746898263
21
3.93345032143496
31
0.000000000000000
  0
LINE
  5
F10589
330
F1058A
100
AcDbEntity
8
Geo
100
AcDbLine
10
-67.4833746898263
20
3.93345032143496
30
0.000000000000000
11
-67.3833746898263
21
3.91660098023970
31
0.000000000000000
  0
LINE
  5
F1058B
330
F1058C
100
AcDbEntity
8
Geo
100
AcDbLine
10
-67.3833746898263
20
3.91660098023970
30
0.000000000000000
11
-67.2833746898263
21
3.90030850670923
31
0.000000000000000
  0
LINE
  5
F1058D
330
F1058E
100
AcDbEntity
8
Geo
100
AcDbLine
10
-67.2833746898263
20
3.90030850670923
30
0.000000000000000
11
-67.1833746898263
21
3.88403093476631
31
0.000000000000000
  0
LINE
  5
F1058F
330
F10590
100
AcDbEntity
8
Geo
100
AcDbLine
10
-67.1833746898263
20
3.88403093476631
30
0.000000000000000
11
-67.0833746898263
21
3.86776834348735
31
0.000000000000000
  0
LINE
  5
F10591
330
F10592
100
AcDbEntity
8
Geo
100
AcDbLine
10
-67.0833746898263
20
3.86776834348735
30
0.000000000000000
11
-66.9833746898263
21
3.85152081187601
31
0.000000000000000
  0
LINE
  5
F10593
330
F10594
100
AcDbEntity
8
Geo
100
AcDbLine
10
-66.9833746898263
20
3.85152081187601
30
0.000000000000000
11
-66.8833746898263
21
3.83528841886276
31
0.000000000000000
  0
LINE
  5
F10595
330
F10596
100
AcDbEntity
8
Geo
100
AcDbLine
10
-66.8833746898263
20
3.83528841886276
30
0.000000000000000
11
-66.7833746898263
21
3.81907124330455
31
0.000000000000000
  0
LINE
  5
F10597
330
F10598
100
AcDbEntity
8
Geo
100
AcDbLine
10
-66.7833746898263
20
3.81907124330455
30
0.000000000000000
11
-66.6833746898263
21
3.80286936398441
31
0.000000000000000
  0
LINE
  5
F10599
330
F1059A
100
AcDbEntity
8
Geo
100
AcDbLine
10
-66.6833746898263
20
3.80286936398441
30
0.000000000000000
11
-66.5833746898263
21
3.78668285961103
31
0.000000000000000
  0
LINE
  5
F1059B
330
F1059C
100
AcDbEntity
8
Geo
100
AcDbLine
10
-66.5833746898263
20
3.78668285961103
30
0.000000000000000
11
-66.4833746898263
21
3.77051180881844
31
0.000000000000000
  0
LINE
  5
F1059D
330
F1059E
100
AcDbEntity
8
Geo
100
AcDbLine
10
-66.4833746898263
20
3.77051180881844
30
0.000000000000000
11
-66.3833746898263
21
3.75435629016558
31
0.000000000000000
  0
LINE
  5
F1059F
330
F105A0
100
AcDbEntity
8
Geo
100
AcDbLine
10
-66.3833746898263
20
3.75435629016558
30
0.000000000000000
11
-66.2833746898263
21
3.73821638213593
31
0.000000000000000
  0
LINE
  5
F105A1
330
F105A2
100
AcDbEntity
8
Geo
100
AcDbLine
10
-66.2833746898263
20
3.73821638213593
30
0.000000000000000
11
-66.1833746898263
21
3.72209216313716
31
0.000000000000000
  0
LINE
  5
F105A3
330
F105A4
100
AcDbEntity
8
Geo
100
AcDbLine
10
-66.1833746898263
20
3.72209216313716
30
0.000000000000000
11
-66.0833746898263
21
3.70598371150068
31
0.000000000000000
  0
LINE
  5
F105A5
330
F105A6
100
AcDbEntity
8
Geo
100
AcDbLine
10
-66.0833746898263
20
3.70598371150068
30
0.000000000000000
11
-65.9833746898263
21
3.68989110548135
31
0.000000000000000
  0
LINE
  5
F105A7
330
F105A8
100
AcDbEntity
8
Geo
100
AcDbLine
10
-65.9833746898263
20
3.68989110548135
30
0.000000000000000
11
-65.8833746898263
21
3.67381442325701
31
0.000000000000000
  0
LINE
  5
F105A9
330
F105AA
100
AcDbEntity
8
Geo
100
AcDbLine
10
-65.8833746898263
20
3.67381442325701
30
0.000000000000000
11
-65.7833746898263
21
3.65775374292818
31
0.000000000000000
  0
LINE
  5
F105AB
330
F105AC
100
AcDbEntity
8
Geo
100
AcDbLine
10
-65.7833746898263
20
3.65775374292818
30
0.000000000000000
11
-65.6833746898263
21
3.64170914251760
31
0.000000000000000
  0
LINE
  5
F105AD
330
F105AE
100
AcDbEntity
8
Geo
100
AcDbLine
10
-65.6833746898263
20
3.64170914251760
30
0.000000000000000
11
-65.5833746898263
21
3.62568069996994
31
0.000000000000000
  0
LINE
  5
F105AF
330
F105B0
100
AcDbEntity
8
Geo
100
AcDbLine
10
-65.5833746898263
20
3.62568069996994
30
0.000000000000000
11
-65.4833746898263
21
3.60966849315135
31
0.000000000000000
  0
LINE
  5
F105B1
330
F105B2
100
AcDbEntity
8
Geo
100
AcDbLine
10
-65.4833746898263
20
3.60966849315135
30
0.000000000000000
11
-65.3833746898263
21
3.59367259984909
31
0.000000000000000
  0
LINE
  5
F105B3
330
F105B4
100
AcDbEntity
8
Geo
100
AcDbLine
10
-65.3833746898263
20
3.59367259984909
30
0.000000000000000
11
-65.2833746898263
21
3.57769309777121
31
0.000000000000000
  0
LINE
  5
F105B5
330
F105B6
100
AcDbEntity
8
Geo
100
AcDbLine
10
-65.2833746898263
20
3.57769309777121
30
0.000000000000000
11
-65.1833746898263
21
3.56173006454610
31
0.000000000000000
  0
LINE
  5
F105B7
330
F105B8
100
AcDbEntity
8
Geo
100
AcDbLine
10
-65.1833746898263
20
3.56173006454610
30
0.000000000000000
11
-65.0833746898263
21
3.54578357772215
31
0.000000000000000
  0
LINE
  5
F105B9
330
F105BA
100
AcDbEntity
8
Geo
100
AcDbLine
10
-65.0833746898263
20
3.54578357772215
30
0.000000000000000
11
-64.9833746898263
21
3.52985371476739
31
0.000000000000000
  0
LINE
  5
F105BB
330
F105BC
100
AcDbEntity
8
Geo
100
AcDbLine
10
-64.9833746898263
20
3.52985371476739
30
0.000000000000000
11
-64.8833746898263
21
3.51394055306905
31
0.000000000000000
  0
LINE
  5
F105BD
330
F105BE
100
AcDbEntity
8
Geo
100
AcDbLine
10
-64.8833746898263
20
3.51394055306905
30
0.000000000000000
11
-64.7833746898263
21
3.49804416993327
31
0.000000000000000
  0
LINE
  5
F105BF
330
F105C0
100
AcDbEntity
8
Geo
100
AcDbLine
10
-64.7833746898263
20
3.49804416993327
30
0.000000000000000
11
-64.6833746898263
21
3.48216464258464
31
0.000000000000000
  0
LINE
  5
F105C1
330
F105C2
100
AcDbEntity
8
Geo
100
AcDbLine
10
-64.6833746898263
20
3.48216464258464
30
0.000000000000000
11
-64.5833746898263
21
3.46630204816590
31
0.000000000000000
  0
LINE
  5
F105C3
330
F105C4
100
AcDbEntity
8
Geo
100
AcDbLine
10
-64.5833746898263
20
3.46630204816590
30
0.000000000000000
11
-64.4833746898263
21
3.45045646373749
31
0.000000000000000
  0
LINE
  5
F105C5
330
F105C6
100
AcDbEntity
8
Geo
100
AcDbLine
10
-64.4833746898263
20
3.45045646373749
30
0.000000000000000
11
-64.3833746898263
21
3.43462796627726
31
0.000000000000000
  0
LINE
  5
F105C7
330
F105C8
100
AcDbEntity
8
Geo
100
AcDbLine
10
-64.3833746898263
20
3.43462796627726
30
0.000000000000000
11
-64.2833746898263
21
3.41881663268002
31
0.000000000000000
  0
LINE
  5
F105C9
330
F105CA
100
AcDbEntity
8
Geo
100
AcDbLine
10
-64.2833746898263
20
3.41881663268002
30
0.000000000000000
11
-64.1833746898263
21
3.40302253975722
31
0.000000000000000
  0
LINE
  5
F105CB
330
F105CC
100
AcDbEntity
8
Geo
100
AcDbLine
10
-64.1833746898263
20
3.40302253975722
30
0.000000000000000
11
-64.0833746898263
21
3.38724576423652
31
0.000000000000000
  0
LINE
  5
F105CD
330
F105CE
100
AcDbEntity
8
Geo
100
AcDbLine
10
-64.0833746898263
20
3.38724576423652
30
0.000000000000000
11
-63.9833746898263
21
3.37148638276149
31
0.000000000000000
  0
LINE
  5
F105CF
330
F105D0
100
AcDbEntity
8
Geo
100
AcDbLine
10
-63.9833746898263
20
3.37148638276149
30
0.000000000000000
11
-63.8833746898263
21
3.35574447189117
31
0.000000000000000
  0
LINE
  5
F105D1
330
F105D2
100
AcDbEntity
8
Geo
100
AcDbLine
10
-63.8833746898263
20
3.35574447189117
30
0.000000000000000
11
-63.7833746898263
21
3.34002010809977
31
0.000000000000000
  0
LINE
  5
F105D3
330
F105D4
100
AcDbEntity
8
Geo
100
AcDbLine
10
-63.7833746898263
20
3.34002010809977
30
0.000000000000000
11
-63.6833746898263
21
3.32431336777620
31
0.000000000000000
  0
LINE
  5
F105D5
330
F105D6
100
AcDbEntity
8
Geo
100
AcDbLine
10
-63.6833746898263
20
3.32431336777620
30
0.000000000000000
11
-63.5833746898263
21
3.30862432722380
31
0.000000000000000
  0
LINE
  5
F105D7
330
F105D8
100
AcDbEntity
8
Geo
100
AcDbLine
10
-63.5833746898263
20
3.30862432722380
30
0.000000000000000
11
-63.4833746898263
21
3.29295306265990
31
0.000000000000000
  0
LINE
  5
F105D9
330
F105DA
100
AcDbEntity
8
Geo
100
AcDbLine
10
-63.4833746898263
20
3.29295306265990
30
0.000000000000000
11
-63.3833746898263
21
3.27729965021549
31
0.000000000000000
  0
LINE
  5
F105DB
330
F105DC
100
AcDbEntity
8
Geo
100
AcDbLine
10
-63.3833746898263
20
3.27729965021549
30
0.000000000000000
11
-63.2833746898263
21
3.26166416593482
31
0.000000000000000
  0
LINE
  5
F105DD
330
F105DE
100
AcDbEntity
8
Geo
100
AcDbLine
10
-63.2833746898263
20
3.26166416593482
30
0.000000000000000
11
-63.1833746898263
21
3.24604668577505
31
0.000000000000000
  0
LINE
  5
F105DF
330
F105E0
100
AcDbEntity
8
Geo
100
AcDbLine
10
-63.1833746898263
20
3.24604668577505
30
0.000000000000000
11
-63.0833746898263
21
3.23044728560589
31
0.000000000000000
  0
LINE
  5
F105E1
330
F105E2
100
AcDbEntity
8
Geo
100
AcDbLine
10
-63.0833746898263
20
3.23044728560589
30
0.000000000000000
11
-62.9833746898263
21
3.21486604120920
31
0.000000000000000
  0
LINE
  5
F105E3
330
F105E4
100
AcDbEntity
8
Geo
100
AcDbLine
10
-62.9833746898263
20
3.21486604120920
30
0.000000000000000
11
-62.8833746898263
21
3.19930302827864
31
0.000000000000000
  0
LINE
  5
F105E5
330
F105E6
100
AcDbEntity
8
Geo
100
AcDbLine
10
-62.8833746898263
20
3.19930302827864
30
0.000000000000000
11
-62.7833746898263
21
3.18375832241931
31
0.000000000000000
  0
LINE
  5
F105E7
330
F105E8
100
AcDbEntity
8
Geo
100
AcDbLine
10
-62.7833746898263
20
3.18375832241931
30
0.000000000000000
11
-62.6833746898263
21
3.16823199914737
31
0.000000000000000
  0
LINE
  5
F105E9
330
F105EA
100
AcDbEntity
8
Geo
100
AcDbLine
10
-62.6833746898263
20
3.16823199914737
30
0.000000000000000
11
-62.5833746898263
21
3.15272413388968
31
0.000000000000000
  0
LINE
  5
F105EB
330
F105EC
100
AcDbEntity
8
Geo
100
AcDbLine
10
-62.5833746898263
20
3.15272413388968
30
0.000000000000000
11
-62.4833746898263
21
3.13723480198342
31
0.000000000000000
  0
LINE
  5
F105ED
330
F105EE
100
AcDbEntity
8
Geo
100
AcDbLine
10
-62.4833746898263
20
3.13723480198342
30
0.000000000000000
11
-62.3833746898263
21
3.12176407867575
31
0.000000000000000
  0
LINE
  5
F105EF
330
F105F0
100
AcDbEntity
8
Geo
100
AcDbLine
10
-62.3833746898263
20
3.12176407867575
30
0.000000000000000
11
-62.2833746898263
21
3.10631203912343
31
0.000000000000000
  0
LINE
  5
F105F1
330
F105F2
100
AcDbEntity
8
Geo
100
AcDbLine
10
-62.2833746898263
20
3.10631203912343
30
0.000000000000000
11
-62.1833746898263
21
3.09087875839244
31
0.000000000000000
  0
LINE
  5
F105F3
330
F105F4
100
AcDbEntity
8
Geo
100
AcDbLine
10
-62.1833746898263
20
3.09087875839244
30
0.000000000000000
11
-62.0833746898263
21
3.07546431145764
31
0.000000000000000
  0
LINE
  5
F105F5
330
F105F6
100
AcDbEntity
8
Geo
100
AcDbLine
10
-62.0833746898263
20
3.07546431145764
30
0.000000000000000
11
-61.9833746898263
21
3.06006877320239
31
0.000000000000000
  0
LINE
  5
F105F7
330
F105F8
100
AcDbEntity
8
Geo
100
AcDbLine
10
-61.9833746898263
20
3.06006877320239
30
0.000000000000000
11
-61.8833746898263
21
3.04469221841819
31
0.000000000000000
  0
LINE
  5
F105F9
330
F105FA
100
AcDbEntity
8
Geo
100
AcDbLine
10
-61.8833746898263
20
3.04469221841819
30
0.000000000000000
11
-61.7833746898263
21
3.02933472180434
31
0.000000000000000
  0
LINE
  5
F105FB
330
F105FC
100
AcDbEntity
8
Geo
100
AcDbLine
10
-61.7833746898263
20
3.02933472180434
30
0.000000000000000
11
-61.6833746898263
21
3.01399635796752
31
0.000000000000000
  0
LINE
  5
F105FD
330
F105FE
100
AcDbEntity
8
Geo
100
AcDbLine
10
-61.6833746898263
20
3.01399635796752
30
0.000000000000000
11
-61.5833746898263
21
2.99867720142149
31
0.000000000000000
  0
LINE
  5
F105FF
330
F10600
100
AcDbEntity
8
Geo
100
AcDbLine
10
-61.5833746898263
20
2.99867720142149
30
0.000000000000000
11
-61.4833746898263
21
2.98337732658670
31
0.000000000000000
  0
LINE
  5
F10601
330
F10602
100
AcDbEntity
8
Geo
100
AcDbLine
10
-61.4833746898263
20
2.98337732658670
30
0.000000000000000
11
-61.3833746898263
21
2.96809680778990
31
0.000000000000000
  0
LINE
  5
F10603
330
F10604
100
AcDbEntity
8
Geo
100
AcDbLine
10
-61.3833746898263
20
2.96809680778990
30
0.000000000000000
11
-61.2833746898263
21
2.95283571926385
31
0.000000000000000
  0
LINE
  5
F10605
330
F10606
100
AcDbEntity
8
Geo
100
AcDbLine
10
-61.2833746898263
20
2.95283571926385
30
0.000000000000000
11
-61.1833746898263
21
2.93759413514689
31
0.000000000000000
  0
LINE
  5
F10607
330
F10608
100
AcDbEntity
8
Geo
100
AcDbLine
10
-61.1833746898263
20
2.93759413514689
30
0.000000000000000
11
-61.0833746898263
21
2.92237212948261
31
0.000000000000000
  0
LINE
  5
F10609
330
F1060A
100
AcDbEntity
8
Geo
100
AcDbLine
10
-61.0833746898263
20
2.92237212948261
30
0.000000000000000
11
-60.9833746898263
21
2.90716977621951
31
0.000000000000000
  0
LINE
  5
F1060B
330
F1060C
100
AcDbEntity
8
Geo
100
AcDbLine
10
-60.9833746898263
20
2.90716977621951
30
0.000000000000000
11
-60.8833746898263
21
2.89198714921058
31
0.000000000000000
  0
LINE
  5
F1060D
330
F1060E
100
AcDbEntity
8
Geo
100
AcDbLine
10
-60.8833746898263
20
2.89198714921058
30
0.000000000000000
11
-60.7833746898263
21
2.87682432221302
31
0.000000000000000
  0
LINE
  5
F1060F
330
F10610
100
AcDbEntity
8
Geo
100
AcDbLine
10
-60.7833746898263
20
2.87682432221302
30
0.000000000000000
11
-60.6833746898263
21
2.86168136888781
31
0.000000000000000
  0
LINE
  5
F10611
330
F10612
100
AcDbEntity
8
Geo
100
AcDbLine
10
-60.6833746898263
20
2.86168136888781
30
0.000000000000000
11
-60.5833746898263
21
2.84655836279942
31
0.000000000000000
  0
LINE
  5
F10613
330
F10614
100
AcDbEntity
8
Geo
100
AcDbLine
10
-60.5833746898263
20
2.84655836279942
30
0.000000000000000
11
-60.4833746898263
21
2.83145537741536
31
0.000000000000000
  0
LINE
  5
F10615
330
F10616
100
AcDbEntity
8
Geo
100
AcDbLine
10
-60.4833746898263
20
2.83145537741536
30
0.000000000000000
11
-60.3833746898263
21
2.81637248610594
31
0.000000000000000
  0
LINE
  5
F10617
330
F10618
100
AcDbEntity
8
Geo
100
AcDbLine
10
-60.3833746898263
20
2.81637248610594
30
0.000000000000000
11
-60.2833746898263
21
2.80130976214382
31
0.000000000000000
  0
LINE
  5
F10619
330
F1061A
100
AcDbEntity
8
Geo
100
AcDbLine
10
-60.2833746898263
20
2.80130976214382
30
0.000000000000000
11
-60.1833746898263
21
2.78626727870368
31
0.000000000000000
  0
LINE
  5
F1061B
330
F1061C
100
AcDbEntity
8
Geo
100
AcDbLine
10
-60.1833746898263
20
2.78626727870368
30
0.000000000000000
11
-60.0833746898263
21
2.77124510886190
31
0.000000000000000
  0
LINE
  5
F1061D
330
F1061E
100
AcDbEntity
8
Geo
100
AcDbLine
10
-60.0833746898263
20
2.77124510886190
30
0.000000000000000
11
-59.9833746898263
21
2.75624332559615
31
0.000000000000000
  0
LINE
  5
F1061F
330
F10620
100
AcDbEntity
8
Geo
100
AcDbLine
10
-59.9833746898263
20
2.75624332559615
30
0.000000000000000
11
-59.8833746898263
21
2.74126200178509
31
0.000000000000000
  0
LINE
  5
F10621
330
F10622
100
AcDbEntity
8
Geo
100
AcDbLine
10
-59.8833746898263
20
2.74126200178509
30
0.000000000000000
11
-59.7833746898263
21
2.72630121020795
31
0.000000000000000
  0
LINE
  5
F10623
330
F10624
100
AcDbEntity
8
Geo
100
AcDbLine
10
-59.7833746898263
20
2.72630121020795
30
0.000000000000000
11
-59.6833746898263
21
2.71136102354426
31
0.000000000000000
  0
LINE
  5
F10625
330
F10626
100
AcDbEntity
8
Geo
100
AcDbLine
10
-59.6833746898263
20
2.71136102354426
30
0.000000000000000
11
-59.5833746898263
21
2.69644151437340
31
0.000000000000000
  0
LINE
  5
F10627
330
F10628
100
AcDbEntity
8
Geo
100
AcDbLine
10
-59.5833746898263
20
2.69644151437340
30
0.000000000000000
11
-59.4833746898263
21
2.68154275517434
31
0.000000000000000
  0
LINE
  5
F10629
330
F1062A
100
AcDbEntity
8
Geo
100
AcDbLine
10
-59.4833746898263
20
2.68154275517434
30
0.000000000000000
11
-59.3833746898263
21
2.66666481832524
31
0.000000000000000
  0
LINE
  5
F1062B
330
F1062C
100
AcDbEntity
8
Geo
100
AcDbLine
10
-59.3833746898263
20
2.66666481832524
30
0.000000000000000
11
-59.2833746898263
21
2.65180777610308
31
0.000000000000000
  0
LINE
  5
F1062D
330
F1062E
100
AcDbEntity
8
Geo
100
AcDbLine
10
-59.2833746898263
20
2.65180777610308
30
0.000000000000000
11
-59.1833746898263
21
2.63697170068337
31
0.000000000000000
  0
LINE
  5
F1062F
330
F10630
100
AcDbEntity
8
Geo
100
AcDbLine
10
-59.1833746898263
20
2.63697170068337
30
0.000000000000000
11
-59.0833746898263
21
2.62215666413973
31
0.000000000000000
  0
LINE
  5
F10631
330
F10632
100
AcDbEntity
8
Geo
100
AcDbLine
10
-59.0833746898263
20
2.62215666413973
30
0.000000000000000
11
-58.9833746898263
21
2.60736273844359
31
0.000000000000000
  0
LINE
  5
F10633
330
F10634
100
AcDbEntity
8
Geo
100
AcDbLine
10
-58.9833746898263
20
2.60736273844359
30
0.000000000000000
11
-58.8833746898263
21
2.59258999546382
31
0.000000000000000
  0
LINE
  5
F10635
330
F10636
100
AcDbEntity
8
Geo
100
AcDbLine
10
-58.8833746898263
20
2.59258999546382
30
0.000000000000000
11
-58.7833746898263
21
2.57783850696640
31
0.000000000000000
  0
LINE
  5
F10637
330
F10638
100
AcDbEntity
8
Geo
100
AcDbLine
10
-58.7833746898263
20
2.57783850696640
30
0.000000000000000
11
-58.6833746898263
21
2.56310834461403
31
0.000000000000000
  0
LINE
  5
F10639
330
F1063A
100
AcDbEntity
8
Geo
100
AcDbLine
10
-58.6833746898263
20
2.56310834461403
30
0.000000000000000
11
-58.5833746898263
21
2.54839957996582
31
0.000000000000000
  0
LINE
  5
F1063B
330
F1063C
100
AcDbEntity
8
Geo
100
AcDbLine
10
-58.5833746898263
20
2.54839957996582
30
0.000000000000000
11
-58.4833746898263
21
2.53371228447693
31
0.000000000000000
  0
LINE
  5
F1063D
330
F1063E
100
AcDbEntity
8
Geo
100
AcDbLine
10
-58.4833746898263
20
2.53371228447693
30
0.000000000000000
11
-58.3833746898263
21
2.51904652949823
31
0.000000000000000
  0
LINE
  5
F1063F
330
F10640
100
AcDbEntity
8
Geo
100
AcDbLine
10
-58.3833746898263
20
2.51904652949823
30
0.000000000000000
11
-58.2833746898263
21
2.50440238627593
31
0.000000000000000
  0
LINE
  5
F10641
330
F10642
100
AcDbEntity
8
Geo
100
AcDbLine
10
-58.2833746898263
20
2.50440238627593
30
0.000000000000000
11
-58.1833746898263
21
2.48977992595125
31
0.000000000000000
  0
LINE
  5
F10643
330
F10644
100
AcDbEntity
8
Geo
100
AcDbLine
10
-58.1833746898263
20
2.48977992595125
30
0.000000000000000
11
-58.0833746898263
21
2.47517921956010
31
0.000000000000000
  0
LINE
  5
F10645
330
F10646
100
AcDbEntity
8
Geo
100
AcDbLine
10
-58.0833746898263
20
2.47517921956010
30
0.000000000000000
11
-57.9833746898263
21
2.46060033803268
31
0.000000000000000
  0
LINE
  5
F10647
330
F10648
100
AcDbEntity
8
Geo
100
AcDbLine
10
-57.9833746898263
20
2.46060033803268
30
0.000000000000000
11
-57.8833746898263
21
2.44604335219318
31
0.000000000000000
  0
LINE
  5
F10649
330
F1064A
100
AcDbEntity
8
Geo
100
AcDbLine
10
-57.8833746898263
20
2.44604335219318
30
0.000000000000000
11
-57.7833746898263
21
2.43150833275943
31
0.000000000000000
  0
LINE
  5
F1064B
330
F1064C
100
AcDbEntity
8
Geo
100
AcDbLine
10
-57.7833746898263
20
2.43150833275943
30
0.000000000000000
11
-57.6833746898263
21
2.41699535034252
31
0.000000000000000
  0
LINE
  5
F1064D
330
F1064E
100
AcDbEntity
8
Geo
100
AcDbLine
10
-57.6833746898263
20
2.41699535034252
30
0.000000000000000
11
-57.5833746898263
21
2.40250447544650
31
0.000000000000000
  0
LINE
  5
F1064F
330
F10650
100
AcDbEntity
8
Geo
100
AcDbLine
10
-57.5833746898263
20
2.40250447544650
30
0.000000000000000
11
-57.4833746898263
21
2.38803577846803
31
0.000000000000000
  0
LINE
  5
F10651
330
F10652
100
AcDbEntity
8
Geo
100
AcDbLine
10
-57.4833746898263
20
2.38803577846803
30
0.000000000000000
11
-57.3833746898263
21
2.37358932969601
31
0.000000000000000
  0
LINE
  5
F10653
330
F10654
100
AcDbEntity
8
Geo
100
AcDbLine
10
-57.3833746898263
20
2.37358932969601
30
0.000000000000000
11
-57.2833746898263
21
2.35916519931128
31
0.000000000000000
  0
LINE
  5
F10655
330
F10656
100
AcDbEntity
8
Geo
100
AcDbLine
10
-57.2833746898263
20
2.35916519931128
30
0.000000000000000
11
-57.1833746898263
21
2.34476345738624
31
0.000000000000000
  0
LINE
  5
F10657
330
F10658
100
AcDbEntity
8
Geo
100
AcDbLine
10
-57.1833746898263
20
2.34476345738624
30
0.000000000000000
11
-57.0833746898263
21
2.33038417388454
31
0.000000000000000
  0
LINE
  5
F10659
330
F1065A
100
AcDbEntity
8
Geo
100
AcDbLine
10
-57.0833746898263
20
2.33038417388454
30
0.000000000000000
11
-56.9833746898263
21
2.31602741866071
31
0.000000000000000
  0
LINE
  5
F1065B
330
F1065C
100
AcDbEntity
8
Geo
100
AcDbLine
10
-56.9833746898263
20
2.31602741866071
30
0.000000000000000
11
-56.8833746898263
21
2.30169326145986
31
0.000000000000000
  0
LINE
  5
F1065D
330
F1065E
100
AcDbEntity
8
Geo
100
AcDbLine
10
-56.8833746898263
20
2.30169326145986
30
0.000000000000000
11
-56.7833746898263
21
2.28738177191729
31
0.000000000000000
  0
LINE
  5
F1065F
330
F10660
100
AcDbEntity
8
Geo
100
AcDbLine
10
-56.7833746898263
20
2.28738177191729
30
0.000000000000000
11
-56.6833746898263
21
2.27309301955821
31
0.000000000000000
  0
LINE
  5
F10661
330
F10662
100
AcDbEntity
8
Geo
100
AcDbLine
10
-56.6833746898263
20
2.27309301955821
30
0.000000000000000
11
-56.5833746898263
21
2.25882707379736
31
0.000000000000000
  0
LINE
  5
F10663
330
F10664
100
AcDbEntity
8
Geo
100
AcDbLine
10
-56.5833746898263
20
2.25882707379736
30
0.000000000000000
11
-56.4833746898263
21
2.24458400393868
31
0.000000000000000
  0
LINE
  5
F10665
330
F10666
100
AcDbEntity
8
Geo
100
AcDbLine
10
-56.4833746898263
20
2.24458400393868
30
0.000000000000000
11
-56.3833746898263
21
2.23036387917499
31
0.000000000000000
  0
LINE
  5
F10667
330
F10668
100
AcDbEntity
8
Geo
100
AcDbLine
10
-56.3833746898263
20
2.23036387917499
30
0.000000000000000
11
-56.2833746898263
21
2.21616676858764
31
0.000000000000000
  0
LINE
  5
F10669
330
F1066A
100
AcDbEntity
8
Geo
100
AcDbLine
10
-56.2833746898263
20
2.21616676858764
30
0.000000000000000
11
-56.1833746898263
21
2.20199274114616
31
0.000000000000000
  0
LINE
  5
F1066B
330
F1066C
100
AcDbEntity
8
Geo
100
AcDbLine
10
-56.1833746898263
20
2.20199274114616
30
0.000000000000000
11
-56.0833746898263
21
2.18784186570797
31
0.000000000000000
  0
LINE
  5
F1066D
330
F1066E
100
AcDbEntity
8
Geo
100
AcDbLine
10
-56.0833746898263
20
2.18784186570797
30
0.000000000000000
11
-55.9833746898263
21
2.17371421101799
31
0.000000000000000
  0
LINE
  5
F1066F
330
F10670
100
AcDbEntity
8
Geo
100
AcDbLine
10
-55.9833746898263
20
2.17371421101799
30
0.000000000000000
11
-55.8833746898263
21
2.15960984570837
31
0.000000000000000
  0
LINE
  5
F10671
330
F10672
100
AcDbEntity
8
Geo
100
AcDbLine
10
-55.8833746898263
20
2.15960984570837
30
0.000000000000000
11
-55.7833746898263
21
2.14552883829808
31
0.000000000000000
  0
LINE
  5
F10673
330
F10674
100
AcDbEntity
8
Geo
100
AcDbLine
10
-55.7833746898263
20
2.14552883829808
30
0.000000000000000
11
-55.6833746898263
21
2.13147125719264
31
0.000000000000000
  0
LINE
  5
F10675
330
F10676
100
AcDbEntity
8
Geo
100
AcDbLine
10
-55.6833746898263
20
2.13147125719264
30
0.000000000000000
11
-55.5833746898263
21
2.11743717068376
31
0.000000000000000
  0
LINE
  5
F10677
330
F10678
100
AcDbEntity
8
Geo
100
AcDbLine
10
-55.5833746898263
20
2.11743717068376
30
0.000000000000000
11
-55.4833746898263
21
2.10342664694902
31
0.000000000000000
  0
LINE
  5
F10679
330
F1067A
100
AcDbEntity
8
Geo
100
AcDbLine
10
-55.4833746898263
20
2.10342664694902
30
0.000000000000000
11
-55.3833746898263
21
2.08943975405152
31
0.000000000000000
  0
LINE
  5
F1067B
330
F1067C
100
AcDbEntity
8
Geo
100
AcDbLine
10
-55.3833746898263
20
2.08943975405152
30
0.000000000000000
11
-55.2833746898263
21
2.07547655993957
31
0.000000000000000
  0
LINE
  5
F1067D
330
F1067E
100
AcDbEntity
8
Geo
100
AcDbLine
10
-55.2833746898263
20
2.07547655993957
30
0.000000000000000
11
-55.1833746898263
21
2.06153713244634
31
0.000000000000000
  0
LINE
  5
F1067F
330
F10680
100
AcDbEntity
8
Geo
100
AcDbLine
10
-55.1833746898263
20
2.06153713244634
30
0.000000000000000
11
-55.0833746898263
21
2.04762153928956
31
0.000000000000000
  0
LINE
  5
F10681
330
F10682
100
AcDbEntity
8
Geo
100
AcDbLine
10
-55.0833746898263
20
2.04762153928956
30
0.000000000000000
11
-54.9833746898263
21
2.03372984807117
31
0.000000000000000
  0
LINE
  5
F10683
330
F10684
100
AcDbEntity
8
Geo
100
AcDbLine
10
-54.9833746898263
20
2.03372984807117
30
0.000000000000000
11
-54.8833746898263
21
2.01986212627696
31
0.000000000000000
  0
LINE
  5
F10685
330
F10686
100
AcDbEntity
8
Geo
100
AcDbLine
10
-54.8833746898263
20
2.01986212627696
30
0.000000000000000
11
-54.7833746898263
21
2.00601844127634
31
0.000000000000000
  0
LINE
  5
F10687
330
F10688
100
AcDbEntity
8
Geo
100
AcDbLine
10
-54.7833746898263
20
2.00601844127634
30
0.000000000000000
11
-54.6833746898263
21
1.99219886032188
31
0.000000000000000
  0
LINE
  5
F10689
330
F1068A
100
AcDbEntity
8
Geo
100
AcDbLine
10
-54.6833746898263
20
1.99219886032188
30
0.000000000000000
11
-54.5833746898263
21
1.97840345054911
31
0.000000000000000
  0
LINE
  5
F1068B
330
F1068C
100
AcDbEntity
8
Geo
100
AcDbLine
10
-54.5833746898263
20
1.97840345054911
30
0.000000000000000
11
-54.4833746898263
21
1.96463227897610
31
0.000000000000000
  0
LINE
  5
F1068D
330
F1068E
100
AcDbEntity
8
Geo
100
AcDbLine
10
-54.4833746898263
20
1.96463227897610
30
0.000000000000000
11
-54.3833746898263
21
1.95088541250319
31
0.000000000000000
  0
LINE
  5
F1068F
330
F10690
100
AcDbEntity
8
Geo
100
AcDbLine
10
-54.3833746898263
20
1.95088541250319
30
0.000000000000000
11
-54.2833746898263
21
1.93716291791264
31
0.000000000000000
  0
LINE
  5
F10691
330
F10692
100
AcDbEntity
8
Geo
100
AcDbLine
10
-54.2833746898263
20
1.93716291791264
30
0.000000000000000
11
-54.1833746898263
21
1.92346486186830
31
0.000000000000000
  0
LINE
  5
F10693
330
F10694
100
AcDbEntity
8
Geo
100
AcDbLine
10
-54.1833746898263
20
1.92346486186830
30
0.000000000000000
11
-54.0833746898263
21
1.90979131091531
31
0.000000000000000
  0
LINE
  5
F10695
330
F10696
100
AcDbEntity
8
Geo
100
AcDbLine
10
-54.0833746898263
20
1.90979131091531
30
0.000000000000000
11
-53.9833746898263
21
1.89614233147978
31
0.000000000000000
  0
LINE
  5
F10697
330
F10698
100
AcDbEntity
8
Geo
100
AcDbLine
10
-53.9833746898263
20
1.89614233147978
30
0.000000000000000
11
-53.8833746898263
21
1.88251798986841
31
0.000000000000000
  0
LINE
  5
F10699
330
F1069A
100
AcDbEntity
8
Geo
100
AcDbLine
10
-53.8833746898263
20
1.88251798986841
30
0.000000000000000
11
-53.7833746898263
21
1.86891835226825
31
0.000000000000000
  0
LINE
  5
F1069B
330
F1069C
100
AcDbEntity
8
Geo
100
AcDbLine
10
-53.7833746898263
20
1.86891835226825
30
0.000000000000000
11
-53.6833746898263
21
1.85534348474632
31
0.000000000000000
  0
LINE
  5
F1069D
330
F1069E
100
AcDbEntity
8
Geo
100
AcDbLine
10
-53.6833746898263
20
1.85534348474632
30
0.000000000000000
11
-53.5833746898263
21
1.84179345324930
31
0.000000000000000
  0
LINE
  5
F1069F
330
F106A0
100
AcDbEntity
8
Geo
100
AcDbLine
10
-53.5833746898263
20
1.84179345324930
30
0.000000000000000
11
-53.4833746898263
21
1.82826832360323
31
0.000000000000000
  0
LINE
  5
F106A1
330
F106A2
100
AcDbEntity
8
Geo
100
AcDbLine
10
-53.4833746898263
20
1.82826832360323
30
0.000000000000000
11
-53.3833746898263
21
1.81476816151317
31
0.000000000000000
  0
LINE
  5
F106A3
330
F106A4
100
AcDbEntity
8
Geo
100
AcDbLine
10
-53.3833746898263
20
1.81476816151317
30
0.000000000000000
11
-53.2833746898263
21
1.80129303256290
31
0.000000000000000
  0
LINE
  5
F106A5
330
F106A6
100
AcDbEntity
8
Geo
100
AcDbLine
10
-53.2833746898263
20
1.80129303256290
30
0.000000000000000
11
-53.1833746898263
21
1.78784300221456
31
0.000000000000000
  0
LINE
  5
F106A7
330
F106A8
100
AcDbEntity
8
Geo
100
AcDbLine
10
-53.1833746898263
20
1.78784300221456
30
0.000000000000000
11
-53.0833746898263
21
1.77441813580840
31
0.000000000000000
  0
LINE
  5
F106A9
330
F106AA
100
AcDbEntity
8
Geo
100
AcDbLine
10
-53.0833746898263
20
1.77441813580840
30
0.000000000000000
11
-52.9833746898263
21
1.76101849856239
31
0.000000000000000
  0
LINE
  5
F106AB
330
F106AC
100
AcDbEntity
8
Geo
100
AcDbLine
10
-52.9833746898263
20
1.76101849856239
30
0.000000000000000
11
-52.8833746898263
21
1.74764415557195
31
0.000000000000000
  0
LINE
  5
F106AD
330
F106AE
100
AcDbEntity
8
Geo
100
AcDbLine
10
-52.8833746898263
20
1.74764415557195
30
0.000000000000000
11
-52.7833746898263
21
1.73429517180962
31
0.000000000000000
  0
LINE
  5
F106AF
330
F106B0
100
AcDbEntity
8
Geo
100
AcDbLine
10
-52.7833746898263
20
1.73429517180962
30
0.000000000000000
11
-52.6833746898263
21
1.72097161212476
31
0.000000000000000
  0
LINE
  5
F106B1
330
F106B2
100
AcDbEntity
8
Geo
100
AcDbLine
10
-52.6833746898263
20
1.72097161212476
30
0.000000000000000
11
-52.5833746898263
21
1.70767354124319
31
0.000000000000000
  0
LINE
  5
F106B3
330
F106B4
100
AcDbEntity
8
Geo
100
AcDbLine
10
-52.5833746898263
20
1.70767354124319
30
0.000000000000000
11
-52.4833746898263
21
1.69440102376692
31
0.000000000000000
  0
LINE
  5
F106B5
330
F106B6
100
AcDbEntity
8
Geo
100
AcDbLine
10
-52.4833746898263
20
1.69440102376692
30
0.000000000000000
11
-52.3833746898263
21
1.68115412417383
31
0.000000000000000
  0
LINE
  5
F106B7
330
F106B8
100
AcDbEntity
8
Geo
100
AcDbLine
10
-52.3833746898263
20
1.68115412417383
30
0.000000000000000
11
-52.2833746898263
21
1.66793290681734
31
0.000000000000000
  0
LINE
  5
F106B9
330
F106BA
100
AcDbEntity
8
Geo
100
AcDbLine
10
-52.2833746898263
20
1.66793290681734
30
0.000000000000000
11
-52.1833746898263
21
1.65473743592611
31
0.000000000000000
  0
LINE
  5
F106BB
330
F106BC
100
AcDbEntity
8
Geo
100
AcDbLine
10
-52.1833746898263
20
1.65473743592611
30
0.000000000000000
11
-52.0833746898263
21
1.64156777560371
31
0.000000000000000
  0
LINE
  5
F106BD
330
F106BE
100
AcDbEntity
8
Geo
100
AcDbLine
10
-52.0833746898263
20
1.64156777560371
30
0.000000000000000
11
-51.9833746898263
21
1.62842398982833
31
0.000000000000000
  0
LINE
  5
F106BF
330
F106C0
100
AcDbEntity
8
Geo
100
AcDbLine
10
-51.9833746898263
20
1.62842398982833
30
0.000000000000000
11
-51.8833746898263
21
1.61530614245248
31
0.000000000000000
  0
LINE
  5
F106C1
330
F106C2
100
AcDbEntity
8
Geo
100
AcDbLine
10
-51.8833746898263
20
1.61530614245248
30
0.000000000000000
11
-51.7833746898263
21
1.60221429720263
31
0.000000000000000
  0
LINE
  5
F106C3
330
F106C4
100
AcDbEntity
8
Geo
100
AcDbLine
10
-51.7833746898263
20
1.60221429720263
30
0.000000000000000
11
-51.6833746898263
21
1.58914851767896
31
0.000000000000000
  0
LINE
  5
F106C5
330
F106C6
100
AcDbEntity
8
Geo
100
AcDbLine
10
-51.6833746898263
20
1.58914851767896
30
0.000000000000000
11
-51.5833746898263
21
1.57610886735500
31
0.000000000000000
  0
LINE
  5
F106C7
330
F106C8
100
AcDbEntity
8
Geo
100
AcDbLine
10
-51.5833746898263
20
1.57610886735500
30
0.000000000000000
11
-51.4833746898263
21
1.56309540957736
31
0.000000000000000
  0
LINE
  5
F106C9
330
F106CA
100
AcDbEntity
8
Geo
100
AcDbLine
10
-51.4833746898263
20
1.56309540957736
30
0.000000000000000
11
-51.3833746898263
21
1.55010820756540
31
0.000000000000000
  0
LINE
  5
F106CB
330
F106CC
100
AcDbEntity
8
Geo
100
AcDbLine
10
-51.3833746898263
20
1.55010820756540
30
0.000000000000000
11
-51.2833746898263
21
1.53714732441092
31
0.000000000000000
  0
LINE
  5
F106CD
330
F106CE
100
AcDbEntity
8
Geo
100
AcDbLine
10
-51.2833746898263
20
1.53714732441092
30
0.000000000000000
11
-51.1833746898263
21
1.52421282307789
31
0.000000000000000
  0
LINE
  5
F106CF
330
F106D0
100
AcDbEntity
8
Geo
100
AcDbLine
10
-51.1833746898263
20
1.52421282307789
30
0.000000000000000
11
-51.0833746898263
21
1.51130476640208
31
0.000000000000000
  0
LINE
  5
F106D1
330
F106D2
100
AcDbEntity
8
Geo
100
AcDbLine
10
-51.0833746898263
20
1.51130476640208
30
0.000000000000000
11
-50.9833746898263
21
1.49842321709083
31
0.000000000000000
  0
LINE
  5
F106D3
330
F106D4
100
AcDbEntity
8
Geo
100
AcDbLine
10
-50.9833746898263
20
1.49842321709083
30
0.000000000000000
11
-50.8833746898263
21
1.48556823772269
31
0.000000000000000
  0
LINE
  5
F106D5
330
F106D6
100
AcDbEntity
8
Geo
100
AcDbLine
10
-50.8833746898263
20
1.48556823772269
30
0.000000000000000
11
-50.7833746898263
21
0.331261649279115
31
0.000000000000000
  0
LINE
  5
F106D7
330
F106D8
100
AcDbEntity
8
Geo
100
AcDbLine
10
-50.7833746898263
20
0.331261649279115
30
0.000000000000000
11
-50.6833746898263
21
-0.732258064516128
31
0.000000000000000
  0
LINE
  5
F106D9
330
F106DA
100
AcDbEntity
8
Geo
100
AcDbLine
10
-70.8833746898263
20
11.4156474821838
30
0.000000000000000
11
-70.7833746898263
21
12.2456458666986
31
0.000000000000000
  0
LINE
  5
F106DB
330
F106DC
100
AcDbEntity
8
Geo
100
AcDbLine
10
-70.8833746898263
20
6.67229960958021
30
0.000000000000000
11
-70.7833746898263
21
6.66066591230330
31
0.000000000000000
  0
LINE
  5
F106DD
330
F106DE
100
AcDbEntity
8
Geo
100
AcDbLine
10
-70.7833746898263
20
12.2456458666986
30
0.000000000000000
11
-70.6833746898263
21
12.5804809575633
31
0.000000000000000
  0
LINE
  5
F106DF
330
F106E0
100
AcDbEntity
8
Geo
100
AcDbLine
10
-70.7833746898263
20
6.66066591230330
30
0.000000000000000
11
-70.6833746898263
21
6.64755464564422
31
0.000000000000000
  0
LINE
  5
F106E1
330
F106E2
100
AcDbEntity
8
Geo
100
AcDbLine
10
-70.6833746898263
20
12.5804809575633
30
0.000000000000000
11
-70.5833746898263
21
12.8313104137667
31
0.000000000000000
  0
LINE
  5
F106E3
330
F106E4
100
AcDbEntity
8
Geo
100
AcDbLine
10
-70.6833746898263
20
6.64755464564422
30
0.000000000000000
11
-70.5833746898263
21
6.63352113600868
31
0.000000000000000
  0
LINE
  5
F106E5
330
F106E6
100
AcDbEntity
8
Geo
100
AcDbLine
10
-70.5833746898263
20
12.8313104137667
30
0.000000000000000
11
-70.4833746898263
21
13.0376144657597
31
0.000000000000000
  0
LINE
  5
F106E7
330
F106E8
100
AcDbEntity
8
Geo
100
AcDbLine
10
-70.5833746898263
20
6.63352113600868
30
0.000000000000000
11
-70.4833746898263
21
6.61877262575046
31
0.000000000000000
  0
LINE
  5
F106E9
330
F106EA
100
AcDbEntity
8
Geo
100
AcDbLine
10
-70.4833746898263
20
13.0376144657597
30
0.000000000000000
11
-70.3833746898263
21
13.2147877136653
31
0.000000000000000
  0
LINE
  5
F106EB
330
F106EC
100
AcDbEntity
8
Geo
100
AcDbLine
10
-70.4833746898263
20
6.61877262575046
30
0.000000000000000
11
-70.3833746898263
21
6.60343371069101
31
0.000000000000000
  0
LINE
  5
F106ED
330
F106EE
100
AcDbEntity
8
Geo
100
AcDbLine
10
-70.3833746898263
20
13.2147877136653
30
0.000000000000000
11
-70.2833746898263
21
13.3707720171894
31
0.000000000000000
  0
LINE
  5
F106EF
330
F106F0
100
AcDbEntity
8
Geo
100
AcDbLine
10
-70.3833746898263
20
6.60343371069101
30
0.000000000000000
11
-70.2833746898263
21
6.58759181423068
31
0.000000000000000
  0
LINE
  5
F106F1
330
F106F2
100
AcDbEntity
8
Geo
100
AcDbLine
10
-70.2833746898263
20
13.3707720171894
30
0.000000000000000
11
-70.1833746898263
21
13.5103100754510
31
0.000000000000000
  0
LINE
  5
F106F3
330
F106F4
100
AcDbEntity
8
Geo
100
AcDbLine
10
-70.2833746898263
20
6.58759181423068
30
0.000000000000000
11
-70.1833746898263
21
6.57131369440311
31
0.000000000000000
  0
LINE
  5
F106F5
330
F106F6
100
AcDbEntity
8
Geo
100
AcDbLine
10
-70.1833746898263
20
13.5103100754510
30
0.000000000000000
11
-70.0833746898263
21
13.6365064081201
31
0.000000000000000
  0
LINE
  5
F106F7
330
F106F8
100
AcDbEntity
8
Geo
100
AcDbLine
10
-70.1833746898263
20
6.57131369440311
30
0.000000000000000
11
-70.0833746898263
21
6.55465317683337
31
0.000000000000000
  0
LINE
  5
F106F9
330
F106FA
100
AcDbEntity
8
Geo
100
AcDbLine
10
-70.0833746898263
20
13.6365064081201
30
0.000000000000000
11
-69.9833746898263
21
13.7515260683325
31
0.000000000000000
  0
LINE
  5
F106FB
330
F106FC
100
AcDbEntity
8
Geo
100
AcDbLine
10
-70.0833746898263
20
6.55465317683337
30
0.000000000000000
11
-69.9833746898263
21
6.53765534890300
31
0.000000000000000
  0
LINE
  5
F106FD
330
F106FE
100
AcDbEntity
8
Geo
100
AcDbLine
10
-69.9833746898263
20
13.7515260683325
30
0.000000000000000
11
-69.8833746898263
21
13.8569506358166
31
0.000000000000000
  0
LINE
  5
F106FF
330
F10700
100
AcDbEntity
8
Geo
100
AcDbLine
10
-69.9833746898263
20
6.53765534890300
30
0.000000000000000
11
-69.8833746898263
21
6.52035906748573
31
0.000000000000000
  0
LINE
  5
F10701
330
F10702
100
AcDbEntity
8
Geo
100
AcDbLine
10
-69.8833746898263
20
13.8569506358166
30
0.000000000000000
11
-69.7833746898263
21
13.9539771108911
31
0.000000000000000
  0
LINE
  5
F10703
330
F10704
100
AcDbEntity
8
Geo
100
AcDbLine
10
-69.8833746898263
20
6.52035906748573
30
0.000000000000000
11
-69.7833746898263
21
6.50279856761685
31
0.000000000000000
  0
LINE
  5
F10705
330
F10706
100
AcDbEntity
8
Geo
100
AcDbLine
10
-69.7833746898263
20
13.9539771108911
30
0.000000000000000
11
-69.6833746898263
21
14.0435370179630
31
0.000000000000000
  0
LINE
  5
F10707
330
F10708
100
AcDbEntity
8
Geo
100
AcDbLine
10
-69.7833746898263
20
6.50279856761685
30
0.000000000000000
11
-69.6833746898263
21
6.48500455120238
31
0.000000000000000
  0
LINE
  5
F10709
330
F1070A
100
AcDbEntity
8
Geo
100
AcDbLine
10
-69.6833746898263
20
14.0435370179630
30
0.000000000000000
11
-69.5833746898263
21
14.1263717031738
31
0.000000000000000
  0
LINE
  5
F1070B
330
F1070C
100
AcDbEntity
8
Geo
100
AcDbLine
10
-69.6833746898263
20
6.48500455120238
30
0.000000000000000
11
-69.5833746898263
21
6.46700495576861
31
0.000000000000000
  0
LINE
  5
F1070D
330
F1070E
100
AcDbEntity
8
Geo
100
AcDbLine
10
-69.5833746898263
20
14.1263717031738
30
0.000000000000000
11
-69.4833746898263
21
14.2030820609982
31
0.000000000000000
  0
LINE
  5
F1070F
330
F10710
100
AcDbEntity
8
Geo
100
AcDbLine
10
-69.5833746898263
20
6.46700495576861
30
0.000000000000000
11
-69.4833746898263
21
6.44882551645203
31
0.000000000000000
  0
LINE
  5
F10711
330
F10712
100
AcDbEntity
8
Geo
100
AcDbLine
10
-69.4833746898263
20
14.2030820609982
30
0.000000000000000
11
-69.3833746898263
21
14.2741625735320
31
0.000000000000000
  0
LINE
  5
F10713
330
F10714
100
AcDbEntity
8
Geo
100
AcDbLine
10
-69.4833746898263
20
6.44882551645203
30
0.000000000000000
11
-69.3833746898263
21
6.43049018899511
31
0.000000000000000
  0
LINE
  5
F10715
330
F10716
100
AcDbEntity
8
Geo
100
AcDbLine
10
-69.3833746898263
20
14.2741625735320
30
0.000000000000000
11
-69.2833746898263
21
14.3400253215101
31
0.000000000000000
  0
LINE
  5
F10717
330
F10718
100
AcDbEntity
8
Geo
100
AcDbLine
10
-69.3833746898263
20
6.43049018899511
30
0.000000000000000
11
-69.2833746898263
21
6.41202147622013
31
0.000000000000000
  0
LINE
  5
F10719
330
F1071A
100
AcDbEntity
8
Geo
100
AcDbLine
10
-69.2833746898263
20
14.3400253215101
30
0.000000000000000
11
-69.1833746898263
21
14.4010173582438
31
0.000000000000000
  0
LINE
  5
F1071B
330
F1071C
100
AcDbEntity
8
Geo
100
AcDbLine
10
-69.2833746898263
20
6.41202147622013
30
0.000000000000000
11
-69.1833746898263
21
6.39344068564267
31
0.000000000000000
  0
LINE
  5
F1071D
330
F1071E
100
AcDbEntity
8
Geo
100
AcDbLine
10
-69.1833746898263
20
14.4010173582438
30
0.000000000000000
11
-69.0833746898263
21
14.4574335584488
31
0.000000000000000
  0
LINE
  5
F1071F
330
F10720
100
AcDbEntity
8
Geo
100
AcDbLine
10
-69.1833746898263
20
6.39344068564267
30
0.000000000000000
11
-69.0833746898263
21
6.37476813684107
31
0.000000000000000
  0
LINE
  5
F10721
330
F10722
100
AcDbEntity
8
Geo
100
AcDbLine
10
-69.0833746898263
20
14.4574335584488
30
0.000000000000000
11
-68.9833746898263
21
14.5095263013966
31
0.000000000000000
  0
LINE
  5
F10723
330
F10724
100
AcDbEntity
8
Geo
100
AcDbLine
10
-69.0833746898263
20
6.37476813684107
30
0.000000000000000
11
-68.9833746898263
21
6.35602333147204
31
0.000000000000000
  0
LINE
  5
F10725
330
F10726
100
AcDbEntity
8
Geo
100
AcDbLine
10
-68.9833746898263
20
14.5095263013966
30
0.000000000000000
11
-68.8833746898263
21
14.5575128888138
31
0.000000000000000
  0
LINE
  5
F10727
330
F10728
100
AcDbEntity
8
Geo
100
AcDbLine
10
-68.9833746898263
20
6.35602333147204
30
0.000000000000000
11
-68.8833746898263
21
6.33722509508571
31
0.000000000000000
  0
LINE
  5
F10729
330
F1072A
100
AcDbEntity
8
Geo
100
AcDbLine
10
-68.8833746898263
20
14.5575128888138
30
0.000000000000000
11
-68.7833746898263
21
14.6015813090271
31
0.000000000000000
  0
LINE
  5
F1072B
330
F1072C
100
AcDbEntity
8
Geo
100
AcDbLine
10
-68.8833746898263
20
6.33722509508571
30
0.000000000000000
11
-68.7833746898263
21
6.31839169738928
31
0.000000000000000
  0
LINE
  5
F1072D
330
F1072E
100
AcDbEntity
8
Geo
100
AcDbLine
10
-68.7833746898263
20
14.6015813090271
30
0.000000000000000
11
-68.6833746898263
21
14.6418947718847
31
0.000000000000000
  0
LINE
  5
F1072F
330
F10730
100
AcDbEntity
8
Geo
100
AcDbLine
10
-68.7833746898263
20
6.31839169738928
30
0.000000000000000
11
-68.6833746898263
21
6.29954095589204
31
0.000000000000000
  0
LINE
  5
F10731
330
F10732
100
AcDbEntity
8
Geo
100
AcDbLine
10
-68.6833746898263
20
14.6418947718847
30
0.000000000000000
11
-68.5833746898263
21
14.6785953149805
31
0.000000000000000
  0
LINE
  5
F10733
330
F10734
100
AcDbEntity
8
Geo
100
AcDbLine
10
-68.6833746898263
20
6.29954095589204
30
0.000000000000000
11
-68.5833746898263
21
6.28069032666494
31
0.000000000000000
  0
LINE
  5
F10735
330
F10736
100
AcDbEntity
8
Geo
100
AcDbLine
10
-68.5833746898263
20
14.6785953149805
30
0.000000000000000
11
-68.4833746898263
21
14.7118066976416
31
0.000000000000000
  0
LINE
  5
F10737
330
F10738
100
AcDbEntity
8
Geo
100
AcDbLine
10
-68.5833746898263
20
6.28069032666494
30
0.000000000000000
11
-68.4833746898263
21
6.26185698509572
31
0.000000000000000
  0
LINE
  5
F10739
330
F1073A
100
AcDbEntity
8
Geo
100
AcDbLine
10
-68.4833746898263
20
14.7118066976416
30
0.000000000000000
11
-68.3833746898263
21
14.7416367409973
31
0.000000000000000
  0
LINE
  5
F1073B
330
F1073C
100
AcDbEntity
8
Geo
100
AcDbLine
10
-68.4833746898263
20
6.26185698509572
30
0.000000000000000
11
-68.3833746898263
21
6.24305789890772
31
0.000000000000000
  0
LINE
  5
F1073D
330
F1073E
100
AcDbEntity
8
Geo
100
AcDbLine
10
-68.3833746898263
20
14.7416367409973
30
0.000000000000000
11
-68.2833746898263
21
14.7681792315058
31
0.000000000000000
  0
LINE
  5
F1073F
330
F10740
100
AcDbEntity
8
Geo
100
AcDbLine
10
-68.3833746898263
20
6.24305789890772
30
0.000000000000000
11
-68.2833746898263
21
6.22430989526524
31
0.000000000000000
  0
LINE
  5
F10741
330
F10742
100
AcDbEntity
8
Geo
100
AcDbLine
10
-68.2833746898263
20
14.7681792315058
30
0.000000000000000
11
-68.1833746898263
21
14.7915154759930
31
0.000000000000000
  0
LINE
  5
F10743
330
F10744
100
AcDbEntity
8
Geo
100
AcDbLine
10
-68.2833746898263
20
6.22430989526524
30
0.000000000000000
11
-68.1833746898263
21
6.20562972346352
31
0.000000000000000
  0
LINE
  5
F10745
330
F10746
100
AcDbEntity
8
Geo
100
AcDbLine
10
-68.1833746898263
20
14.7915154759930
30
0.000000000000000
11
-68.0833746898263
21
14.8117155749302
31
0.000000000000000
  0
LINE
  5
F10747
330
F10748
100
AcDbEntity
8
Geo
100
AcDbLine
10
-68.1833746898263
20
6.20562972346352
30
0.000000000000000
11
-68.0833746898263
21
6.18703411446579
31
0.000000000000000
  0
LINE
  5
F10749
330
F1074A
100
AcDbEntity
8
Geo
100
AcDbLine
10
-68.0833746898263
20
14.8117155749302
30
0.000000000000000
11
-67.9833746898263
21
14.8288394649218
31
0.000000000000000
  0
LINE
  5
F1074B
330
F1074C
100
AcDbEntity
8
Geo
100
AcDbLine
10
-68.0833746898263
20
6.18703411446579
30
0.000000000000000
11
-67.9833746898263
21
6.16853983837992
31
0.000000000000000
  0
LINE
  5
F1074D
330
F1074E
100
AcDbEntity
8
Geo
100
AcDbLine
10
-67.9833746898263
20
14.8288394649218
30
0.000000000000000
11
-67.8833746898263
21
14.8429377695738
31
0.000000000000000
  0
LINE
  5
F1074F
330
F10750
100
AcDbEntity
8
Geo
100
AcDbLine
10
-67.9833746898263
20
6.16853983837992
30
0.000000000000000
11
-67.8833746898263
21
6.15016376084979
31
0.000000000000000
  0
LINE
  5
F10751
330
F10752
100
AcDbEntity
8
Geo
100
AcDbLine
10
-67.8833746898263
20
14.8429377695738
30
0.000000000000000
11
-67.7833746898263
21
14.8540524889234
31
0.000000000000000
  0
LINE
  5
F10753
330
F10754
100
AcDbEntity
8
Geo
100
AcDbLine
10
-67.8833746898263
20
6.15016376084979
30
0.000000000000000
11
-67.7833746898263
21
6.13192289926001
31
0.000000000000000
  0
LINE
  5
F10755
330
F10756
100
AcDbEntity
8
Geo
100
AcDbLine
10
-67.7833746898263
20
14.8540524889234
30
0.000000000000000
11
-67.6833746898263
21
14.8622175506638
31
0.000000000000000
  0
LINE
  5
F10757
330
F10758
100
AcDbEntity
8
Geo
100
AcDbLine
10
-67.7833746898263
20
6.13192289926001
30
0.000000000000000
11
-67.6833746898263
21
6.11383447961137
31
0.000000000000000
  0
LINE
  5
F10759
330
F1075A
100
AcDbEntity
8
Geo
100
AcDbLine
10
-67.6833746898263
20
14.8622175506638
30
0.000000000000000
11
-67.5833746898263
21
14.8674592409269
31
0.000000000000000
  0
LINE
  5
F1075B
330
F1075C
100
AcDbEntity
8
Geo
100
AcDbLine
10
-67.6833746898263
20
6.11383447961137
30
0.000000000000000
11
-67.5833746898263
21
6.09591599491305
31
0.000000000000000
  0
LINE
  5
F1075D
330
F1075E
100
AcDbEntity
8
Geo
100
AcDbLine
10
-67.5833746898263
20
14.8674592409269
30
0.000000000000000
11
-67.4833746898263
21
14.8697965279772
31
0.000000000000000
  0
LINE
  5
F1075F
330
F10760
100
AcDbEntity
8
Geo
100
AcDbLine
10
-67.5833746898263
20
6.09591599491305
30
0.000000000000000
11
-67.4833746898263
21
6.07818526595586
31
0.000000000000000
  0
LINE
  5
F10761
330
F10762
100
AcDbEntity
8
Geo
100
AcDbLine
10
-67.4833746898263
20
14.8697965279772
30
0.000000000000000
11
-67.3833746898263
21
14.8692412885404
31
0.000000000000000
  0
LINE
  5
F10763
330
F10764
100
AcDbEntity
8
Geo
100
AcDbLine
10
-67.4833746898263
20
6.07818526595586
30
0.000000000000000
11
-67.3833746898263
21
6.06066050537641
31
0.000000000000000
  0
LINE
  5
F10765
330
F10766
100
AcDbEntity
8
Geo
100
AcDbLine
10
-67.3833746898263
20
14.8692412885404
30
0.000000000000000
11
-67.2833746898263
21
14.8672228107996
31
0.000000000000000
  0
LINE
  5
F10767
330
F10768
100
AcDbEntity
8
Geo
100
AcDbLine
10
-67.3833746898263
20
6.06066050537641
30
0.000000000000000
11
-67.2833746898263
21
6.04324712872750
31
0.000000000000000
  0
LINE
  5
F10769
330
F1076A
100
AcDbEntity
8
Geo
100
AcDbLine
10
-67.2833746898263
20
14.8672228107996
30
0.000000000000000
11
-67.1833746898263
21
14.8651659573912
31
0.000000000000000
  0
LINE
  5
F1076B
330
F1076C
100
AcDbEntity
8
Geo
100
AcDbLine
10
-67.2833746898263
20
6.04324712872750
30
0.000000000000000
11
-67.1833746898263
21
6.02583824327313
31
0.000000000000000
  0
LINE
  5
F1076D
330
F1076E
100
AcDbEntity
8
Geo
100
AcDbLine
10
-67.1833746898263
20
14.8651659573912
30
0.000000000000000
11
-67.0833746898263
21
14.8630707383073
31
0.000000000000000
  0
LINE
  5
F1076F
330
F10770
100
AcDbEntity
8
Geo
100
AcDbLine
10
-67.1833746898263
20
6.02583824327313
30
0.000000000000000
11
-67.0833746898263
21
6.00843393358566
31
0.000000000000000
  0
LINE
  5
F10771
330
F10772
100
AcDbEntity
8
Geo
100
AcDbLine
10
-67.0833746898263
20
14.8630707383073
30
0.000000000000000
11
-66.9833746898263
21
14.8609371637265
31
0.000000000000000
  0
LINE
  5
F10773
330
F10774
100
AcDbEntity
8
Geo
100
AcDbLine
10
-67.0833746898263
20
6.00843393358566
30
0.000000000000000
11
-66.9833746898263
21
5.99103428421520
31
0.000000000000000
  0
LINE
  5
F10775
330
F10776
100
AcDbEntity
8
Geo
100
AcDbLine
10
-66.9833746898263
20
14.8609371637265
30
0.000000000000000
11
-66.8833746898263
21
14.8587652440137
31
0.000000000000000
  0
LINE
  5
F10777
330
F10778
100
AcDbEntity
8
Geo
100
AcDbLine
10
-66.9833746898263
20
5.99103428421520
30
0.000000000000000
11
-66.8833746898263
21
5.97363937968921
31
0.000000000000000
  0
LINE
  5
F10779
330
F1077A
100
AcDbEntity
8
Geo
100
AcDbLine
10
-66.8833746898263
20
14.8587652440137
30
0.000000000000000
11
-66.7833746898263
21
14.8565549897201
31
0.000000000000000
  0
LINE
  5
F1077B
330
F1077C
100
AcDbEntity
8
Geo
100
AcDbLine
10
-66.8833746898263
20
5.97363937968921
30
0.000000000000000
11
-66.7833746898263
21
5.95624930451213
31
0.000000000000000
  0
LINE
  5
F1077D
330
F1077E
100
AcDbEntity
8
Geo
100
AcDbLine
10
-66.7833746898263
20
14.8565549897201
30
0.000000000000000
11
-66.6833746898263
21
14.8543064115832
31
0.000000000000000
  0
LINE
  5
F1077F
330
F10780
100
AcDbEntity
8
Geo
100
AcDbLine
10
-66.7833746898263
20
5.95624930451213
30
0.000000000000000
11
-66.6833746898263
21
5.93886414316491
31
0.000000000000000
  0
LINE
  5
F10781
330
F10782
100
AcDbEntity
8
Geo
100
AcDbLine
10
-66.6833746898263
20
14.8543064115832
30
0.000000000000000
11
-66.5833746898263
21
14.8520195205264
31
0.000000000000000
  0
LINE
  5
F10783
330
F10784
100
AcDbEntity
8
Geo
100
AcDbLine
10
-66.6833746898263
20
5.93886414316491
30
0.000000000000000
11
-66.5833746898263
21
5.92148398010464
31
0.000000000000000
  0
LINE
  5
F10785
330
F10786
100
AcDbEntity
8
Geo
100
AcDbLine
10
-66.5833746898263
20
14.8520195205264
30
0.000000000000000
11
-66.4833746898263
21
14.8496943276596
31
0.000000000000000
  0
LINE
  5
F10787
330
F10788
100
AcDbEntity
8
Geo
100
AcDbLine
10
-66.5833746898263
20
5.92148398010464
30
0.000000000000000
11
-66.4833746898263
21
5.90410889976414
31
0.000000000000000
  0
LINE
  5
F10789
330
F1078A
100
AcDbEntity
8
Geo
100
AcDbLine
10
-66.4833746898263
20
14.8496943276596
30
0.000000000000000
11
-66.3833746898263
21
14.8473308442784
31
0.000000000000000
  0
LINE
  5
F1078B
330
F1078C
100
AcDbEntity
8
Geo
100
AcDbLine
10
-66.4833746898263
20
5.90410889976414
30
0.000000000000000
11
-66.3833746898263
21
5.88673898655152
31
0.000000000000000
  0
LINE
  5
F1078D
330
F1078E
100
AcDbEntity
8
Geo
100
AcDbLine
10
-66.3833746898263
20
14.8473308442784
30
0.000000000000000
11
-66.2833746898263
21
14.8449290818648
31
0.000000000000000
  0
LINE
  5
F1078F
330
F10790
100
AcDbEntity
8
Geo
100
AcDbLine
10
-66.3833746898263
20
5.88673898655152
30
0.000000000000000
11
-66.2833746898263
21
5.86937432484980
31
0.000000000000000
  0
LINE
  5
F10791
330
F10792
100
AcDbEntity
8
Geo
100
AcDbLine
10
-66.2833746898263
20
14.8449290818648
30
0.000000000000000
11
-66.1833746898263
21
14.8424890520864
31
0.000000000000000
  0
LINE
  5
F10793
330
F10794
100
AcDbEntity
8
Geo
100
AcDbLine
10
-66.2833746898263
20
5.86937432484980
30
0.000000000000000
11
-66.1833746898263
21
5.85201499901647
31
0.000000000000000
  0
LINE
  5
F10795
330
F10796
100
AcDbEntity
8
Geo
100
AcDbLine
10
-66.1833746898263
20
14.8424890520864
30
0.000000000000000
11
-66.0833746898263
21
14.8400107667969
31
0.000000000000000
  0
LINE
  5
F10797
330
F10798
100
AcDbEntity
8
Geo
100
AcDbLine
10
-66.1833746898263
20
5.85201499901647
30
0.000000000000000
11
-66.0833746898263
21
5.83466109338313
31
0.000000000000000
  0
LINE
  5
F10799
330
F1079A
100
AcDbEntity
8
Geo
100
AcDbLine
10
-66.0833746898263
20
14.8400107667969
30
0.000000000000000
11
-65.9833746898263
21
14.8374942380359
31
0.000000000000000
  0
LINE
  5
F1079B
330
F1079C
100
AcDbEntity
8
Geo
100
AcDbLine
10
-66.0833746898263
20
5.83466109338313
30
0.000000000000000
11
-65.9833746898263
21
5.81731269225502
31
0.000000000000000
  0
LINE
  5
F1079D
330
F1079E
100
AcDbEntity
8
Geo
100
AcDbLine
10
-65.9833746898263
20
14.8374942380359
30
0.000000000000000
11
-65.8833746898263
21
14.8349394780286
31
0.000000000000000
  0
LINE
  5
F1079F
330
F107A0
100
AcDbEntity
8
Geo
100
AcDbLine
10
-65.9833746898263
20
5.81731269225502
30
0.000000000000000
11
-65.8833746898263
21
5.79996987991066
31
0.000000000000000
  0
LINE
  5
F107A1
330
F107A2
100
AcDbEntity
8
Geo
100
AcDbLine
10
-65.8833746898263
20
14.8349394780286
30
0.000000000000000
11
-65.7833746898263
21
14.8323464991860
31
0.000000000000000
  0
LINE
  5
F107A3
330
F107A4
100
AcDbEntity
8
Geo
100
AcDbLine
10
-65.8833746898263
20
5.79996987991066
30
0.000000000000000
11
-65.7833746898263
21
5.78263274060139
31
0.000000000000000
  0
LINE
  5
F107A5
330
F107A6
100
AcDbEntity
8
Geo
100
AcDbLine
10
-65.7833746898263
20
14.8323464991860
30
0.000000000000000
11
-65.6833746898263
21
14.8297153141048
31
0.000000000000000
  0
LINE
  5
F107A7
330
F107A8
100
AcDbEntity
8
Geo
100
AcDbLine
10
-65.7833746898263
20
5.78263274060139
30
0.000000000000000
11
-65.6833746898263
21
5.76530135855103
31
0.000000000000000
  0
LINE
  5
F107A9
330
F107AA
100
AcDbEntity
8
Geo
100
AcDbLine
10
-65.6833746898263
20
14.8297153141048
30
0.000000000000000
11
-65.5833746898263
21
14.8270459355674
31
0.000000000000000
  0
LINE
  5
F107AB
330
F107AC
100
AcDbEntity
8
Geo
100
AcDbLine
10
-65.6833746898263
20
5.76530135855103
30
0.000000000000000
11
-65.5833746898263
21
5.74797581795540
31
0.000000000000000
  0
LINE
  5
F107AD
330
F107AE
100
AcDbEntity
8
Geo
100
AcDbLine
10
-65.5833746898263
20
14.8270459355674
30
0.000000000000000
11
-65.4833746898263
21
14.8243383765415
31
0.000000000000000
  0
LINE
  5
F107AF
330
F107B0
100
AcDbEntity
8
Geo
100
AcDbLine
10
-65.5833746898263
20
5.74797581795540
30
0.000000000000000
11
-65.4833746898263
21
5.73065620298196
31
0.000000000000000
  0
LINE
  5
F107B1
330
F107B2
100
AcDbEntity
8
Geo
100
AcDbLine
10
-65.4833746898263
20
14.8243383765415
30
0.000000000000000
11
-65.3833746898263
21
14.8215926501805
31
0.000000000000000
  0
LINE
  5
F107B3
330
F107B4
100
AcDbEntity
8
Geo
100
AcDbLine
10
-65.4833746898263
20
5.73065620298196
30
0.000000000000000
11
-65.3833746898263
21
5.71334259776937
31
0.000000000000000
  0
LINE
  5
F107B5
330
F107B6
100
AcDbEntity
8
Geo
100
AcDbLine
10
-65.3833746898263
20
14.8215926501805
30
0.000000000000000
11
-65.2833746898263
21
14.8188087698231
31
0.000000000000000
  0
LINE
  5
F107B7
330
F107B8
100
AcDbEntity
8
Geo
100
AcDbLine
10
-65.3833746898263
20
5.71334259776937
30
0.000000000000000
11
-65.2833746898263
21
5.69603508642711
31
0.000000000000000
  0
LINE
  5
F107B9
330
F107BA
100
AcDbEntity
8
Geo
100
AcDbLine
10
-65.2833746898263
20
14.8188087698231
30
0.000000000000000
11
-65.1833746898263
21
14.8159867489934
31
0.000000000000000
  0
LINE
  5
F107BB
330
F107BC
100
AcDbEntity
8
Geo
100
AcDbLine
10
-65.2833746898263
20
5.69603508642711
30
0.000000000000000
11
-65.1833746898263
21
5.67873375303504
31
0.000000000000000
  0
LINE
  5
F107BD
330
F107BE
100
AcDbEntity
8
Geo
100
AcDbLine
10
-65.1833746898263
20
14.8159867489934
30
0.000000000000000
11
-65.0833746898263
21
14.8131266014007
31
0.000000000000000
  0
LINE
  5
F107BF
330
F107C0
100
AcDbEntity
8
Geo
100
AcDbLine
10
-65.1833746898263
20
5.67873375303504
30
0.000000000000000
11
-65.0833746898263
21
5.66143868164301
31
0.000000000000000
  0
LINE
  5
F107C1
330
F107C2
100
AcDbEntity
8
Geo
100
AcDbLine
10
-65.0833746898263
20
14.8131266014007
30
0.000000000000000
11
-64.9833746898263
21
14.8102283409398
31
0.000000000000000
  0
LINE
  5
F107C3
330
F107C4
100
AcDbEntity
8
Geo
100
AcDbLine
10
-65.0833746898263
20
5.66143868164301
30
0.000000000000000
11
-64.9833746898263
21
5.64414995627046
31
0.000000000000000
  0
LINE
  5
F107C5
330
F107C6
100
AcDbEntity
8
Geo
100
AcDbLine
10
-64.9833746898263
20
14.8102283409398
30
0.000000000000000
11
-64.8833746898263
21
14.8072919816902
31
0.000000000000000
  0
LINE
  5
F107C7
330
F107C8
100
AcDbEntity
8
Geo
100
AcDbLine
10
-64.9833746898263
20
5.64414995627046
30
0.000000000000000
11
-64.8833746898263
21
5.62686766090600
31
0.000000000000000
  0
LINE
  5
F107C9
330
F107CA
100
AcDbEntity
8
Geo
100
AcDbLine
10
-64.8833746898263
20
14.8072919816902
30
0.000000000000000
11
-64.7833746898263
21
14.8043175379169
31
0.000000000000000
  0
LINE
  5
F107CB
330
F107CC
100
AcDbEntity
8
Geo
100
AcDbLine
10
-64.8833746898263
20
5.62686766090600
30
0.000000000000000
11
-64.7833746898263
21
5.60959187950700
31
0.000000000000000
  0
LINE
  5
F107CD
330
F107CE
100
AcDbEntity
8
Geo
100
AcDbLine
10
-64.7833746898263
20
14.8043175379169
30
0.000000000000000
11
-64.6833746898263
21
14.8013050240697
31
0.000000000000000
  0
LINE
  5
F107CF
330
F107D0
100
AcDbEntity
8
Geo
100
AcDbLine
10
-64.7833746898263
20
5.60959187950700
30
0.000000000000000
11
-64.6833746898263
21
5.59232269599916
31
0.000000000000000
  0
LINE
  5
F107D1
330
F107D2
100
AcDbEntity
8
Geo
100
AcDbLine
10
-64.6833746898263
20
14.8013050240697
30
0.000000000000000
11
-64.5833746898263
21
14.7982544547833
31
0.000000000000000
  0
LINE
  5
F107D3
330
F107D4
100
AcDbEntity
8
Geo
100
AcDbLine
10
-64.6833746898263
20
5.59232269599916
30
0.000000000000000
11
-64.5833746898263
21
5.57506019427618
31
0.000000000000000
  0
LINE
  5
F107D5
330
F107D6
100
AcDbEntity
8
Geo
100
AcDbLine
10
-64.5833746898263
20
14.7982544547833
30
0.000000000000000
11
-64.4833746898263
21
14.7951658448775
31
0.000000000000000
  0
LINE
  5
F107D7
330
F107D8
100
AcDbEntity
8
Geo
100
AcDbLine
10
-64.5833746898263
20
5.57506019427618
30
0.000000000000000
11
-64.4833746898263
21
5.55780445819925
31
0.000000000000000
  0
LINE
  5
F107D9
330
F107DA
100
AcDbEntity
8
Geo
100
AcDbLine
10
-64.4833746898263
20
14.7951658448775
30
0.000000000000000
11
-64.3833746898263
21
14.7920392093567
31
0.000000000000000
  0
LINE
  5
F107DB
330
F107DC
100
AcDbEntity
8
Geo
100
AcDbLine
10
-64.4833746898263
20
5.55780445819925
30
0.000000000000000
11
-64.3833746898263
21
5.54055557159673
31
0.000000000000000
  0
LINE
  5
F107DD
330
F107DE
100
AcDbEntity
8
Geo
100
AcDbLine
10
-64.3833746898263
20
14.7920392093567
30
0.000000000000000
11
-64.2833746898263
21
14.7888745634100
31
0.000000000000000
  0
LINE
  5
F107DF
330
F107E0
100
AcDbEntity
8
Geo
100
AcDbLine
10
-64.3833746898263
20
5.54055557159673
30
0.000000000000000
11
-64.2833746898263
21
5.52331361826367
31
0.000000000000000
  0
LINE
  5
F107E1
330
F107E2
100
AcDbEntity
8
Geo
100
AcDbLine
10
-64.2833746898263
20
14.7888745634100
30
0.000000000000000
11
-64.1833746898263
21
14.7856719224114
31
0.000000000000000
  0
LINE
  5
F107E3
330
F107E4
100
AcDbEntity
8
Geo
100
AcDbLine
10
-64.2833746898263
20
5.52331361826367
30
0.000000000000000
11
-64.1833746898263
21
5.50607868196147
31
0.000000000000000
  0
LINE
  5
F107E5
330
F107E6
100
AcDbEntity
8
Geo
100
AcDbLine
10
-64.1833746898263
20
14.7856719224114
30
0.000000000000000
11
-64.0833746898263
21
14.7824313019193
31
0.000000000000000
  0
LINE
  5
F107E7
330
F107E8
100
AcDbEntity
8
Geo
100
AcDbLine
10
-64.1833746898263
20
5.50607868196147
30
0.000000000000000
11
-64.0833746898263
21
5.48885084641742
31
0.000000000000000
  0
LINE
  5
F107E9
330
F107EA
100
AcDbEntity
8
Geo
100
AcDbLine
10
-64.0833746898263
20
14.7824313019193
30
0.000000000000000
11
-63.9833746898263
21
14.7791527176765
31
0.000000000000000
  0
LINE
  5
F107EB
330
F107EC
100
AcDbEntity
8
Geo
100
AcDbLine
10
-64.0833746898263
20
5.48885084641742
30
0.000000000000000
11
-63.9833746898263
21
5.47163019532432
31
0.000000000000000
  0
LINE
  5
F107ED
330
F107EE
100
AcDbEntity
8
Geo
100
AcDbLine
10
-63.9833746898263
20
14.7791527176765
30
0.000000000000000
11
-63.8833746898263
21
14.7758361856105
31
0.000000000000000
  0
LINE
  5
F107EF
330
F107F0
100
AcDbEntity
8
Geo
100
AcDbLine
10
-63.9833746898263
20
5.47163019532432
30
0.000000000000000
11
-63.8833746898263
21
5.45441681234009
31
0.000000000000000
  0
LINE
  5
F107F1
330
F107F2
100
AcDbEntity
8
Geo
100
AcDbLine
10
-63.8833746898263
20
14.7758361856105
30
0.000000000000000
11
-63.7833746898263
21
14.7724817218330
31
0.000000000000000
  0
LINE
  5
F107F3
330
F107F4
100
AcDbEntity
8
Geo
100
AcDbLine
10
-63.8833746898263
20
5.45441681234009
30
0.000000000000000
11
-63.7833746898263
21
5.43721078108730
31
0.000000000000000
  0
LINE
  5
F107F5
330
F107F6
100
AcDbEntity
8
Geo
100
AcDbLine
10
-63.7833746898263
20
14.7724817218330
30
0.000000000000000
11
-63.6833746898263
21
14.7690893426398
31
0.000000000000000
  0
LINE
  5
F107F7
330
F107F8
100
AcDbEntity
8
Geo
100
AcDbLine
10
-63.7833746898263
20
5.43721078108730
30
0.000000000000000
11
-63.6833746898263
21
5.42001218515283
31
0.000000000000000
  0
LINE
  5
F107F9
330
F107FA
100
AcDbEntity
8
Geo
100
AcDbLine
10
-63.6833746898263
20
14.7690893426398
30
0.000000000000000
11
-63.5833746898263
21
14.7656590645113
31
0.000000000000000
  0
LINE
  5
F107FB
330
F107FC
100
AcDbEntity
8
Geo
100
AcDbLine
10
-63.6833746898263
20
5.42001218515283
30
0.000000000000000
11
-63.5833746898263
21
5.40282110808745
31
0.000000000000000
  0
LINE
  5
F107FD
330
F107FE
100
AcDbEntity
8
Geo
100
AcDbLine
10
-63.5833746898263
20
14.7656590645113
30
0.000000000000000
11
-63.4833746898263
21
14.7621909041117
31
0.000000000000000
  0
LINE
  5
F107FF
330
F10800
100
AcDbEntity
8
Geo
100
AcDbLine
10
-63.5833746898263
20
5.40282110808745
30
0.000000000000000
11
-63.4833746898263
21
5.38563763340538
31
0.000000000000000
  0
LINE
  5
F10801
330
F10802
100
AcDbEntity
8
Geo
100
AcDbLine
10
-63.4833746898263
20
14.7621909041117
30
0.000000000000000
11
-63.3833746898263
21
14.7586848782893
31
0.000000000000000
  0
LINE
  5
F10803
330
F10804
100
AcDbEntity
8
Geo
100
AcDbLine
10
-63.4833746898263
20
5.38563763340538
30
0.000000000000000
11
-63.3833746898263
21
5.36846184458391
31
0.000000000000000
  0
LINE
  5
F10805
330
F10806
100
AcDbEntity
8
Geo
100
AcDbLine
10
-63.3833746898263
20
14.7586848782893
30
0.000000000000000
11
-63.2833746898263
21
14.7551410040764
31
0.000000000000000
  0
LINE
  5
F10807
330
F10808
100
AcDbEntity
8
Geo
100
AcDbLine
10
-63.3833746898263
20
5.36846184458391
30
0.000000000000000
11
-63.2833746898263
21
5.35129382506301
31
0.000000000000000
  0
LINE
  5
F10809
330
F1080A
100
AcDbEntity
8
Geo
100
AcDbLine
10
-63.2833746898263
20
14.7551410040764
30
0.000000000000000
11
-63.1833746898263
21
14.7515592986891
31
0.000000000000000
  0
LINE
  5
F1080B
330
F1080C
100
AcDbEntity
8
Geo
100
AcDbLine
10
-63.2833746898263
20
5.35129382506301
30
0.000000000000000
11
-63.1833746898263
21
5.33413365824490
31
0.000000000000000
  0
LINE
  5
F1080D
330
F1080E
100
AcDbEntity
8
Geo
100
AcDbLine
10
-63.1833746898263
20
14.7515592986891
30
0.000000000000000
11
-63.0833746898263
21
14.7479397795273
31
0.000000000000000
  0
LINE
  5
F1080F
330
F10810
100
AcDbEntity
8
Geo
100
AcDbLine
10
-63.1833746898263
20
5.33413365824490
30
0.000000000000000
11
-63.0833746898263
21
5.31698142749363
31
0.000000000000000
  0
LINE
  5
F10811
330
F10812
100
AcDbEntity
8
Geo
100
AcDbLine
10
-63.0833746898263
20
14.7479397795273
30
0.000000000000000
11
-62.9833746898263
21
14.7442824641747
31
0.000000000000000
  0
LINE
  5
F10813
330
F10814
100
AcDbEntity
8
Geo
100
AcDbLine
10
-63.0833746898263
20
5.31698142749363
30
0.000000000000000
11
-62.9833746898263
21
5.29983721613473
31
0.000000000000000
  0
LINE
  5
F10815
330
F10816
100
AcDbEntity
8
Geo
100
AcDbLine
10
-62.9833746898263
20
14.7442824641747
30
0.000000000000000
11
-62.8833746898263
21
14.7405873703985
31
0.000000000000000
  0
LINE
  5
F10817
330
F10818
100
AcDbEntity
8
Geo
100
AcDbLine
10
-62.9833746898263
20
5.29983721613473
30
0.000000000000000
11
-62.8833746898263
21
5.28270110745476
31
0.000000000000000
  0
LINE
  5
F10819
330
F1081A
100
AcDbEntity
8
Geo
100
AcDbLine
10
-62.8833746898263
20
14.7405873703985
30
0.000000000000000
11
-62.7833746898263
21
14.7368545161495
31
0.000000000000000
  0
LINE
  5
F1081B
330
F1081C
100
AcDbEntity
8
Geo
100
AcDbLine
10
-62.8833746898263
20
5.28270110745476
30
0.000000000000000
11
-62.7833746898263
21
5.26557318470090
31
0.000000000000000
  0
LINE
  5
F1081D
330
F1081E
100
AcDbEntity
8
Geo
100
AcDbLine
10
-62.7833746898263
20
14.7368545161495
30
0.000000000000000
11
-62.6833746898263
21
14.7330839195618
31
0.000000000000000
  0
LINE
  5
F1081F
330
F10820
100
AcDbEntity
8
Geo
100
AcDbLine
10
-62.7833746898263
20
5.26557318470090
30
0.000000000000000
11
-62.6833746898263
21
5.24845353108058
31
0.000000000000000
  0
LINE
  5
F10821
330
F10822
100
AcDbEntity
8
Geo
100
AcDbLine
10
-62.6833746898263
20
14.7330839195618
30
0.000000000000000
11
-62.5833746898263
21
14.7292755989530
31
0.000000000000000
  0
LINE
  5
F10823
330
F10824
100
AcDbEntity
8
Geo
100
AcDbLine
10
-62.6833746898263
20
5.24845353108058
30
0.000000000000000
11
-62.5833746898263
21
5.23134222976105
31
0.000000000000000
  0
LINE
  5
F10825
330
F10826
100
AcDbEntity
8
Geo
100
AcDbLine
10
-62.5833746898263
20
14.7292755989530
30
0.000000000000000
11
-62.4833746898263
21
14.7254295728239
31
0.000000000000000
  0
LINE
  5
F10827
330
F10828
100
AcDbEntity
8
Geo
100
AcDbLine
10
-62.5833746898263
20
5.23134222976105
30
0.000000000000000
11
-62.4833746898263
21
5.21423936386900
31
0.000000000000000
  0
LINE
  5
F10829
330
F1082A
100
AcDbEntity
8
Geo
100
AcDbLine
10
-62.4833746898263
20
14.7254295728239
30
0.000000000000000
11
-62.3833746898263
21
14.7215458598586
31
0.000000000000000
  0
LINE
  5
F1082B
330
F1082C
100
AcDbEntity
8
Geo
100
AcDbLine
10
-62.4833746898263
20
5.21423936386900
30
0.000000000000000
11
-62.3833746898263
21
5.19714501649012
31
0.000000000000000
  0
LINE
  5
F1082D
330
F1082E
100
AcDbEntity
8
Geo
100
AcDbLine
10
-62.3833746898263
20
14.7215458598586
30
0.000000000000000
11
-62.2833746898263
21
14.7176244789240
31
0.000000000000000
  0
LINE
  5
F1082F
330
F10830
100
AcDbEntity
8
Geo
100
AcDbLine
10
-62.3833746898263
20
5.19714501649012
30
0.000000000000000
11
-62.2833746898263
21
5.18005927066874
31
0.000000000000000
  0
LINE
  5
F10831
330
F10832
100
AcDbEntity
8
Geo
100
AcDbLine
10
-62.2833746898263
20
14.7176244789240
30
0.000000000000000
11
-62.1833746898263
21
14.7136654490703
31
0.000000000000000
  0
LINE
  5
F10833
330
F10834
100
AcDbEntity
8
Geo
100
AcDbLine
10
-62.2833746898263
20
5.18005927066874
30
0.000000000000000
11
-62.1833746898263
21
5.16298220940738
31
0.000000000000000
  0
LINE
  5
F10835
330
F10836
100
AcDbEntity
8
Geo
100
AcDbLine
10
-62.1833746898263
20
14.7136654490703
30
0.000000000000000
11
-62.0833746898263
21
14.7096687895304
31
0.000000000000000
  0
LINE
  5
F10837
330
F10838
100
AcDbEntity
8
Geo
100
AcDbLine
10
-62.1833746898263
20
5.16298220940738
30
0.000000000000000
11
-62.0833746898263
21
5.14591391566638
31
0.000000000000000
  0
LINE
  5
F10839
330
F1083A
100
AcDbEntity
8
Geo
100
AcDbLine
10
-62.0833746898263
20
14.7096687895304
30
0.000000000000000
11
-61.9833746898263
21
14.7056345197201
31
0.000000000000000
  0
LINE
  5
F1083B
330
F1083C
100
AcDbEntity
8
Geo
100
AcDbLine
10
-62.0833746898263
20
5.14591391566638
30
0.000000000000000
11
-61.9833746898263
21
5.12885447236349
31
0.000000000000000
  0
LINE
  5
F1083D
330
F1083E
100
AcDbEntity
8
Geo
100
AcDbLine
10
-61.9833746898263
20
14.7056345197201
30
0.000000000000000
11
-61.8833746898263
21
14.7015626592378
31
0.000000000000000
  0
LINE
  5
F1083F
330
F10840
100
AcDbEntity
8
Geo
100
AcDbLine
10
-61.9833746898263
20
5.12885447236349
30
0.000000000000000
11
-61.8833746898263
21
5.11180396237347
31
0.000000000000000
  0
LINE
  5
F10841
330
F10842
100
AcDbEntity
8
Geo
100
AcDbLine
10
-61.8833746898263
20
14.7015626592378
30
0.000000000000000
11
-61.7833746898263
21
14.6974532278647
31
0.000000000000000
  0
LINE
  5
F10843
330
F10844
100
AcDbEntity
8
Geo
100
AcDbLine
10
-61.8833746898263
20
5.11180396237347
30
0.000000000000000
11
-61.7833746898263
21
5.09476246852767
31
0.000000000000000
  0
LINE
  5
F10845
330
F10846
100
AcDbEntity
8
Geo
100
AcDbLine
10
-61.7833746898263
20
14.6974532278647
30
0.000000000000000
11
-61.6833746898263
21
14.6933062455643
31
0.000000000000000
  0
LINE
  5
F10847
330
F10848
100
AcDbEntity
8
Geo
100
AcDbLine
10
-61.7833746898263
20
5.09476246852767
30
0.000000000000000
11
-61.6833746898263
21
5.07773007361364
31
0.000000000000000
  0
LINE
  5
F10849
330
F1084A
100
AcDbEntity
8
Geo
100
AcDbLine
10
-61.6833746898263
20
14.6933062455643
30
0.000000000000000
11
-61.5833746898263
21
14.6891217324827
31
0.000000000000000
  0
LINE
  5
F1084B
330
F1084C
100
AcDbEntity
8
Geo
100
AcDbLine
10
-61.6833746898263
20
5.07773007361364
30
0.000000000000000
11
-61.5833746898263
21
5.06070686037474
31
0.000000000000000
  0
LINE
  5
F1084D
330
F1084E
100
AcDbEntity
8
Geo
100
AcDbLine
10
-61.5833746898263
20
14.6891217324827
30
0.000000000000000
11
-61.4833746898263
21
14.6848997089483
31
0.000000000000000
  0
LINE
  5
F1084F
330
F10850
100
AcDbEntity
8
Geo
100
AcDbLine
10
-61.5833746898263
20
5.06070686037474
30
0.000000000000000
11
-61.4833746898263
21
5.04369291150972
31
0.000000000000000
  0
LINE
  5
F10851
330
F10852
100
AcDbEntity
8
Geo
100
AcDbLine
10
-61.4833746898263
20
14.6848997089483
30
0.000000000000000
11
-61.3833746898263
21
14.6806401954717
31
0.000000000000000
  0
LINE
  5
F10853
330
F10854
100
AcDbEntity
8
Geo
100
AcDbLine
10
-61.4833746898263
20
5.04369291150972
30
0.000000000000000
11
-61.3833746898263
21
5.02668830967230
31
0.000000000000000
  0
LINE
  5
F10855
330
F10856
100
AcDbEntity
8
Geo
100
AcDbLine
10
-61.3833746898263
20
14.6806401954717
30
0.000000000000000
11
-61.2833746898263
21
14.6763432127454
31
0.000000000000000
  0
LINE
  5
F10857
330
F10858
100
AcDbEntity
8
Geo
100
AcDbLine
10
-61.3833746898263
20
5.02668830967230
30
0.000000000000000
11
-61.2833746898263
21
5.00969313747084
31
0.000000000000000
  0
LINE
  5
F10859
330
F1085A
100
AcDbEntity
8
Geo
100
AcDbLine
10
-61.2833746898263
20
14.6763432127454
30
0.000000000000000
11
-61.1833746898263
21
14.6720087816444
31
0.000000000000000
  0
LINE
  5
F1085B
330
F1085C
100
AcDbEntity
8
Geo
100
AcDbLine
10
-61.2833746898263
20
5.00969313747084
30
0.000000000000000
11
-61.1833746898263
21
4.99270747746784
31
0.000000000000000
  0
LINE
  5
F1085D
330
F1085E
100
AcDbEntity
8
Geo
100
AcDbLine
10
-61.1833746898263
20
14.6720087816444
30
0.000000000000000
11
-61.0833746898263
21
14.6676369232252
31
0.000000000000000
  0
LINE
  5
F1085F
330
F10860
100
AcDbEntity
8
Geo
100
AcDbLine
10
-61.1833746898263
20
4.99270747746784
30
0.000000000000000
11
-61.0833746898263
21
4.97573141217964
31
0.000000000000000
  0
LINE
  5
F10861
330
F10862
100
AcDbEntity
8
Geo
100
AcDbLine
10
-61.0833746898263
20
14.6676369232252
30
0.000000000000000
11
-60.9833746898263
21
14.6632276587263
31
0.000000000000000
  0
LINE
  5
F10863
330
F10864
100
AcDbEntity
8
Geo
100
AcDbLine
10
-61.0833746898263
20
4.97573141217964
30
0.000000000000000
11
-60.9833746898263
21
4.95876502407592
31
0.000000000000000
  0
LINE
  5
F10865
330
F10866
100
AcDbEntity
8
Geo
100
AcDbLine
10
-60.9833746898263
20
14.6632276587263
30
0.000000000000000
11
-60.8833746898263
21
14.6587810095680
31
0.000000000000000
  0
LINE
  5
F10867
330
F10868
100
AcDbEntity
8
Geo
100
AcDbLine
10
-60.9833746898263
20
4.95876502407592
30
0.000000000000000
11
-60.8833746898263
21
4.94180839557938
31
0.000000000000000
  0
LINE
  5
F10869
330
F1086A
100
AcDbEntity
8
Geo
100
AcDbLine
10
-60.8833746898263
20
14.6587810095680
30
0.000000000000000
11
-60.7833746898263
21
14.6542969973520
31
0.000000000000000
  0
LINE
  5
F1086B
330
F1086C
100
AcDbEntity
8
Geo
100
AcDbLine
10
-60.8833746898263
20
4.94180839557938
30
0.000000000000000
11
-60.7833746898263
21
4.92486160906530
31
0.000000000000000
  0
LINE
  5
F1086D
330
F1086E
100
AcDbEntity
8
Geo
100
AcDbLine
10
-60.7833746898263
20
14.6542969973520
30
0.000000000000000
11
-60.6833746898263
21
14.6497756438617
31
0.000000000000000
  0
LINE
  5
F1086F
330
F10870
100
AcDbEntity
8
Geo
100
AcDbLine
10
-60.7833746898263
20
4.92486160906530
30
0.000000000000000
11
-60.6833746898263
21
4.90792474686115
31
0.000000000000000
  0
LINE
  5
F10871
330
F10872
100
AcDbEntity
8
Geo
100
AcDbLine
10
-60.6833746898263
20
14.6497756438617
30
0.000000000000000
11
-60.5833746898263
21
14.6452169710618
31
0.000000000000000
  0
LINE
  5
F10873
330
F10874
100
AcDbEntity
8
Geo
100
AcDbLine
10
-60.6833746898263
20
4.90792474686115
30
0.000000000000000
11
-60.5833746898263
21
4.89099789124617
31
0.000000000000000
  0
LINE
  5
F10875
330
F10876
100
AcDbEntity
8
Geo
100
AcDbLine
10
-60.5833746898263
20
14.6452169710618
30
0.000000000000000
11
-60.4833746898263
21
14.6406210010983
31
0.000000000000000
  0
LINE
  5
F10877
330
F10878
100
AcDbEntity
8
Geo
100
AcDbLine
10
-60.5833746898263
20
4.89099789124617
30
0.000000000000000
11
-60.4833746898263
21
4.87408112445102
31
0.000000000000000
  0
LINE
  5
F10879
330
F1087A
100
AcDbEntity
8
Geo
100
AcDbLine
10
-60.4833746898263
20
14.6406210010983
30
0.000000000000000
11
-60.3833746898263
21
14.6359877562985
31
0.000000000000000
  0
LINE
  5
F1087B
330
F1087C
100
AcDbEntity
8
Geo
100
AcDbLine
10
-60.4833746898263
20
4.87408112445102
30
0.000000000000000
11
-60.3833746898263
21
4.85717452865732
31
0.000000000000000
  0
LINE
  5
F1087D
330
F1087E
100
AcDbEntity
8
Geo
100
AcDbLine
10
-60.3833746898263
20
14.6359877562985
30
0.000000000000000
11
-60.2833746898263
21
14.6313172591705
31
0.000000000000000
  0
LINE
  5
F1087F
330
F10880
100
AcDbEntity
8
Geo
100
AcDbLine
10
-60.3833746898263
20
4.85717452865732
30
0.000000000000000
11
-60.2833746898263
21
4.84027818599729
31
0.000000000000000
  0
LINE
  5
F10881
330
F10882
100
AcDbEntity
8
Geo
100
AcDbLine
10
-60.2833746898263
20
14.6313172591705
30
0.000000000000000
11
-60.1833746898263
21
14.6266095324039
31
0.000000000000000
  0
LINE
  5
F10883
330
F10884
100
AcDbEntity
8
Geo
100
AcDbLine
10
-60.2833746898263
20
4.84027818599729
30
0.000000000000000
11
-60.1833746898263
21
4.82339217855334
31
0.000000000000000
  0
LINE
  5
F10885
330
F10886
100
AcDbEntity
8
Geo
100
AcDbLine
10
-60.1833746898263
20
14.6266095324039
30
0.000000000000000
11
-60.0833746898263
21
14.6218645988685
31
0.000000000000000
  0
LINE
  5
F10887
330
F10888
100
AcDbEntity
8
Geo
100
AcDbLine
10
-60.1833746898263
20
4.82339217855334
30
0.000000000000000
11
-60.0833746898263
21
4.80651658835768
31
0.000000000000000
  0
LINE
  5
F10889
330
F1088A
100
AcDbEntity
8
Geo
100
AcDbLine
10
-60.0833746898263
20
14.6218645988685
30
0.000000000000000
11
-59.9833746898263
21
14.6170824816154
31
0.000000000000000
  0
LINE
  5
F1088B
330
F1088C
100
AcDbEntity
8
Geo
100
AcDbLine
10
-60.0833746898263
20
4.80651658835768
30
0.000000000000000
11
-59.9833746898263
21
4.78965149739189
31
0.000000000000000
  0
LINE
  5
F1088D
330
F1088E
100
AcDbEntity
8
Geo
100
AcDbLine
10
-59.9833746898263
20
14.6170824816154
30
0.000000000000000
11
-59.8833746898263
21
14.6122632038760
31
0.000000000000000
  0
LINE
  5
F1088F
330
F10890
100
AcDbEntity
8
Geo
100
AcDbLine
10
-59.9833746898263
20
4.78965149739189
30
0.000000000000000
11
-59.8833746898263
21
4.77279698758658
31
0.000000000000000
  0
LINE
  5
F10891
330
F10892
100
AcDbEntity
8
Geo
100
AcDbLine
10
-59.8833746898263
20
14.6122632038760
30
0.000000000000000
11
-59.7833746898263
21
14.6074067890623
31
0.000000000000000
  0
LINE
  5
F10893
330
F10894
100
AcDbEntity
8
Geo
100
AcDbLine
10
-59.8833746898263
20
4.77279698758658
30
0.000000000000000
11
-59.7833746898263
21
4.75595314082092
31
0.000000000000000
  0
LINE
  5
F10895
330
F10896
100
AcDbEntity
8
Geo
100
AcDbLine
10
-59.7833746898263
20
14.6074067890623
30
0.000000000000000
11
-59.6833746898263
21
14.6025132607670
31
0.000000000000000
  0
LINE
  5
F10897
330
F10898
100
AcDbEntity
8
Geo
100
AcDbLine
10
-59.7833746898263
20
4.75595314082092
30
0.000000000000000
11
-59.6833746898263
21
4.73912003892230
31
0.000000000000000
  0
LINE
  5
F10899
330
F1089A
100
AcDbEntity
8
Geo
100
AcDbLine
10
-59.6833746898263
20
14.6025132607670
30
0.000000000000000
11
-59.5833746898263
21
14.5975826427626
31
0.000000000000000
  0
LINE
  5
F1089B
330
F1089C
100
AcDbEntity
8
Geo
100
AcDbLine
10
-59.6833746898263
20
4.73912003892230
30
0.000000000000000
11
-59.5833746898263
21
4.72229776366590
31
0.000000000000000
  0
LINE
  5
F1089D
330
F1089E
100
AcDbEntity
8
Geo
100
AcDbLine
10
-59.5833746898263
20
14.5975826427626
30
0.000000000000000
11
-59.4833746898263
21
14.5926149590022
31
0.000000000000000
  0
LINE
  5
F1089F
330
F108A0
100
AcDbEntity
8
Geo
100
AcDbLine
10
-59.5833746898263
20
4.72229776366590
30
0.000000000000000
11
-59.4833746898263
21
4.70548639677433
31
0.000000000000000
  0
LINE
  5
F108A1
330
F108A2
100
AcDbEntity
8
Geo
100
AcDbLine
10
-59.4833746898263
20
14.5926149590022
30
0.000000000000000
11
-59.3833746898263
21
14.5876102336186
31
0.000000000000000
  0
LINE
  5
F108A3
330
F108A4
100
AcDbEntity
8
Geo
100
AcDbLine
10
-59.4833746898263
20
4.70548639677433
30
0.000000000000000
11
-59.3833746898263
21
4.68868601991717
31
0.000000000000000
  0
LINE
  5
F108A5
330
F108A6
100
AcDbEntity
8
Geo
100
AcDbLine
10
-59.3833746898263
20
14.5876102336186
30
0.000000000000000
11
-59.2833746898263
21
14.5825684909250
31
0.000000000000000
  0
LINE
  5
F108A7
330
F108A8
100
AcDbEntity
8
Geo
100
AcDbLine
10
-59.3833746898263
20
4.68868601991717
30
0.000000000000000
11
-59.2833746898263
21
4.67189671471064
31
0.000000000000000
  0
LINE
  5
F108A9
330
F108AA
100
AcDbEntity
8
Geo
100
AcDbLine
10
-59.2833746898263
20
14.5825684909250
30
0.000000000000000
11
-59.1833746898263
21
14.5774897554140
31
0.000000000000000
  0
LINE
  5
F108AB
330
F108AC
100
AcDbEntity
8
Geo
100
AcDbLine
10
-59.2833746898263
20
4.67189671471064
30
0.000000000000000
11
-59.1833746898263
21
4.65511856271715
31
0.000000000000000
  0
LINE
  5
F108AD
330
F108AE
100
AcDbEntity
8
Geo
100
AcDbLine
10
-59.1833746898263
20
14.5774897554140
30
0.000000000000000
11
-59.0833746898263
21
14.5723740517582
31
0.000000000000000
  0
LINE
  5
F108AF
330
F108B0
100
AcDbEntity
8
Geo
100
AcDbLine
10
-59.1833746898263
20
4.65511856271715
30
0.000000000000000
11
-59.0833746898263
21
4.63835164544496
31
0.000000000000000
  0
LINE
  5
F108B1
330
F108B2
100
AcDbEntity
8
Geo
100
AcDbLine
10
-59.0833746898263
20
14.5723740517582
30
0.000000000000000
11
-58.9833746898263
21
14.5672214048096
31
0.000000000000000
  0
LINE
  5
F108B3
330
F108B4
100
AcDbEntity
8
Geo
100
AcDbLine
10
-59.0833746898263
20
4.63835164544496
30
0.000000000000000
11
-58.9833746898263
21
4.62159604434771
31
0.000000000000000
  0
LINE
  5
F108B5
330
F108B6
100
AcDbEntity
8
Geo
100
AcDbLine
10
-58.9833746898263
20
14.5672214048096
30
0.000000000000000
11
-58.8833746898263
21
14.5620318395998
31
0.000000000000000
  0
LINE
  5
F108B7
330
F108B8
100
AcDbEntity
8
Geo
100
AcDbLine
10
-58.9833746898263
20
4.62159604434771
30
0.000000000000000
11
-58.8833746898263
21
4.60485184082410
31
0.000000000000000
  0
LINE
  5
F108B9
330
F108BA
100
AcDbEntity
8
Geo
100
AcDbLine
10
-58.8833746898263
20
14.5620318395998
30
0.000000000000000
11
-58.7833746898263
21
14.5568053813397
31
0.000000000000000
  0
LINE
  5
F108BB
330
F108BC
100
AcDbEntity
8
Geo
100
AcDbLine
10
-58.8833746898263
20
4.60485184082410
30
0.000000000000000
11
-58.7833746898263
21
4.58811911621744
31
0.000000000000000
  0
LINE
  5
F108BD
330
F108BE
100
AcDbEntity
8
Geo
100
AcDbLine
10
-58.7833746898263
20
14.5568053813397
30
0.000000000000000
11
-58.6833746898263
21
14.5515420554194
31
0.000000000000000
  0
LINE
  5
F108BF
330
F108C0
100
AcDbEntity
8
Geo
100
AcDbLine
10
-58.7833746898263
20
4.58811911621744
30
0.000000000000000
11
-58.6833746898263
21
4.57139795181530
31
0.000000000000000
  0
LINE
  5
F108C1
330
F108C2
100
AcDbEntity
8
Geo
100
AcDbLine
10
-58.6833746898263
20
14.5515420554194
30
0.000000000000000
11
-58.5833746898263
21
14.5462418874081
31
0.000000000000000
  0
LINE
  5
F108C3
330
F108C4
100
AcDbEntity
8
Geo
100
AcDbLine
10
-58.6833746898263
20
4.57139795181530
30
0.000000000000000
11
-58.5833746898263
21
4.55468842884905
31
0.000000000000000
  0
LINE
  5
F108C5
330
F108C6
100
AcDbEntity
8
Geo
100
AcDbLine
10
-58.5833746898263
20
14.5462418874081
30
0.000000000000000
11
-58.4833746898263
21
14.5409049030541
31
0.000000000000000
  0
LINE
  5
F108C7
330
F108C8
100
AcDbEntity
8
Geo
100
AcDbLine
10
-58.5833746898263
20
4.55468842884905
30
0.000000000000000
11
-58.4833746898263
21
4.53799062849356
31
0.000000000000000
  0
LINE
  5
F108C9
330
F108CA
100
AcDbEntity
8
Geo
100
AcDbLine
10
-58.4833746898263
20
14.5409049030541
30
0.000000000000000
11
-58.3833746898263
21
14.5355311282845
31
0.000000000000000
  0
LINE
  5
F108CB
330
F108CC
100
AcDbEntity
8
Geo
100
AcDbLine
10
-58.4833746898263
20
4.53799062849356
30
0.000000000000000
11
-58.3833746898263
21
4.52130463186670
31
0.000000000000000
  0
LINE
  5
F108CD
330
F108CE
100
AcDbEntity
8
Geo
100
AcDbLine
10
-58.3833746898263
20
14.5355311282845
30
0.000000000000000
11
-58.2833746898263
21
14.5301205892049
31
0.000000000000000
  0
LINE
  5
F108CF
330
F108D0
100
AcDbEntity
8
Geo
100
AcDbLine
10
-58.3833746898263
20
4.52130463186670
30
0.000000000000000
11
-58.2833746898263
21
4.50463052002903
31
0.000000000000000
  0
LINE
  5
F108D1
330
F108D2
100
AcDbEntity
8
Geo
100
AcDbLine
10
-58.2833746898263
20
14.5301205892049
30
0.000000000000000
11
-58.1833746898263
21
14.5246733120998
31
0.000000000000000
  0
LINE
  5
F108D3
330
F108D4
100
AcDbEntity
8
Geo
100
AcDbLine
10
-58.2833746898263
20
4.50463052002903
30
0.000000000000000
11
-58.1833746898263
21
4.48796837398336
31
0.000000000000000
  0
LINE
  5
F108D5
330
F108D6
100
AcDbEntity
8
Geo
100
AcDbLine
10
-58.1833746898263
20
14.5246733120998
30
0.000000000000000
11
-58.0833746898263
21
14.5191893234321
31
0.000000000000000
  0
LINE
  5
F108D7
330
F108D8
100
AcDbEntity
8
Geo
100
AcDbLine
10
-58.1833746898263
20
4.48796837398336
30
0.000000000000000
11
-58.0833746898263
21
4.47131827467437
31
0.000000000000000
  0
LINE
  5
F108D9
330
F108DA
100
AcDbEntity
8
Geo
100
AcDbLine
10
-58.0833746898263
20
14.5191893234321
30
0.000000000000000
11
-57.9833746898263
21
14.5136686498429
31
0.000000000000000
  0
LINE
  5
F108DB
330
F108DC
100
AcDbEntity
8
Geo
100
AcDbLine
10
-58.0833746898263
20
4.47131827467437
30
0.000000000000000
11
-57.9833746898263
21
4.45468030298822
31
0.000000000000000
  0
LINE
  5
F108DD
330
F108DE
100
AcDbEntity
8
Geo
100
AcDbLine
10
-57.9833746898263
20
14.5136686498429
30
0.000000000000000
11
-57.8833746898263
21
14.5081113181517
31
0.000000000000000
  0
LINE
  5
F108DF
330
F108E0
100
AcDbEntity
8
Geo
100
AcDbLine
10
-57.9833746898263
20
4.45468030298822
30
0.000000000000000
11
-57.8833746898263
21
4.43805453975217
31
0.000000000000000
  0
LINE
  5
F108E1
330
F108E2
100
AcDbEntity
8
Geo
100
AcDbLine
10
-57.8833746898263
20
14.5081113181517
30
0.000000000000000
11
-57.7833746898263
21
14.5025173553561
31
0.000000000000000
  0
LINE
  5
F108E3
330
F108E4
100
AcDbEntity
8
Geo
100
AcDbLine
10
-57.8833746898263
20
4.43805453975217
30
0.000000000000000
11
-57.7833746898263
21
4.42144106573414
31
0.000000000000000
  0
LINE
  5
F108E5
330
F108E6
100
AcDbEntity
8
Geo
100
AcDbLine
10
-57.7833746898263
20
14.5025173553561
30
0.000000000000000
11
-57.6833746898263
21
14.4968867886314
31
0.000000000000000
  0
LINE
  5
F108E7
330
F108E8
100
AcDbEntity
8
Geo
100
AcDbLine
10
-57.7833746898263
20
4.42144106573414
30
0.000000000000000
11
-57.6833746898263
21
4.40483996164236
31
0.000000000000000
  0
LINE
  5
F108E9
330
F108EA
100
AcDbEntity
8
Geo
100
AcDbLine
10
-57.6833746898263
20
14.4968867886314
30
0.000000000000000
11
-57.5833746898263
21
14.4912196453310
31
0.000000000000000
  0
LINE
  5
F108EB
330
F108EC
100
AcDbEntity
8
Geo
100
AcDbLine
10
-57.6833746898263
20
4.40483996164236
30
0.000000000000000
11
-57.5833746898263
21
4.38825130812499
31
0.000000000000000
  0
LINE
  5
F108ED
330
F108EE
100
AcDbEntity
8
Geo
100
AcDbLine
10
-57.5833746898263
20
14.4912196453310
30
0.000000000000000
11
-57.4833746898263
21
14.4855159529858
31
0.000000000000000
  0
LINE
  5
F108EF
330
F108F0
100
AcDbEntity
8
Geo
100
AcDbLine
10
-57.5833746898263
20
4.38825130812499
30
0.000000000000000
11
-57.4833746898263
21
4.37167518576968
31
0.000000000000000
  0
LINE
  5
F108F1
330
F108F2
100
AcDbEntity
8
Geo
100
AcDbLine
10
-57.4833746898263
20
14.4855159529858
30
0.000000000000000
11
-57.3833746898263
21
14.4797757393044
31
0.000000000000000
  0
LINE
  5
F108F3
330
F108F4
100
AcDbEntity
8
Geo
100
AcDbLine
10
-57.4833746898263
20
4.37167518576968
30
0.000000000000000
11
-57.3833746898263
21
4.35511167510320
31
0.000000000000000
  0
LINE
  5
F108F5
330
F108F6
100
AcDbEntity
8
Geo
100
AcDbLine
10
-57.3833746898263
20
14.4797757393044
30
0.000000000000000
11
-57.2833746898263
21
14.4739990321727
31
0.000000000000000
  0
LINE
  5
F108F7
330
F108F8
100
AcDbEntity
8
Geo
100
AcDbLine
10
-57.3833746898263
20
4.35511167510320
30
0.000000000000000
11
-57.2833746898263
21
4.33856085659107
31
0.000000000000000
  0
LINE
  5
F108F9
330
F108FA
100
AcDbEntity
8
Geo
100
AcDbLine
10
-57.2833746898263
20
14.4739990321727
30
0.000000000000000
11
-57.1833746898263
21
14.4681858596539
31
0.000000000000000
  0
LINE
  5
F108FB
330
F108FC
100
AcDbEntity
8
Geo
100
AcDbLine
10
-57.2833746898263
20
4.33856085659107
30
0.000000000000000
11
-57.1833746898263
21
4.32202281063715
31
0.000000000000000
  0
LINE
  5
F108FD
330
F108FE
100
AcDbEntity
8
Geo
100
AcDbLine
10
-57.1833746898263
20
14.4681858596539
30
0.000000000000000
11
-57.0833746898263
21
14.4623362499885
31
0.000000000000000
  0
LINE
  5
F108FF
330
F10900
100
AcDbEntity
8
Geo
100
AcDbLine
10
-57.1833746898263
20
4.32202281063715
30
0.000000000000000
11
-57.0833746898263
21
4.30549761758324
31
0.000000000000000
  0
LINE
  5
F10901
330
F10902
100
AcDbEntity
8
Geo
100
AcDbLine
10
-57.0833746898263
20
14.4623362499885
30
0.000000000000000
11
-56.9833746898263
21
14.4564502315938
31
0.000000000000000
  0
LINE
  5
F10903
330
F10904
100
AcDbEntity
8
Geo
100
AcDbLine
10
-57.0833746898263
20
4.30549761758324
30
0.000000000000000
11
-56.9833746898263
21
4.28898535770871
31
0.000000000000000
  0
LINE
  5
F10905
330
F10906
100
AcDbEntity
8
Geo
100
AcDbLine
10
-56.9833746898263
20
14.4564502315938
30
0.000000000000000
11
-56.8833746898263
21
14.4505278330641
31
0.000000000000000
  0
LINE
  5
F10907
330
F10908
100
AcDbEntity
8
Geo
100
AcDbLine
10
-56.9833746898263
20
4.28898535770871
30
0.000000000000000
11
-56.8833746898263
21
4.27248611123009
31
0.000000000000000
  0
LINE
  5
F10909
330
F1090A
100
AcDbEntity
8
Geo
100
AcDbLine
10
-56.8833746898263
20
14.4505278330641
30
0.000000000000000
11
-56.7833746898263
21
14.4445690831704
31
0.000000000000000
  0
LINE
  5
F1090B
330
F1090C
100
AcDbEntity
8
Geo
100
AcDbLine
10
-56.8833746898263
20
4.27248611123009
30
0.000000000000000
11
-56.7833746898263
21
4.25599995830070
31
0.000000000000000
  0
LINE
  5
F1090D
330
F1090E
100
AcDbEntity
8
Geo
100
AcDbLine
10
-56.7833746898263
20
14.4445690831704
30
0.000000000000000
11
-56.6833746898263
21
14.4385740108603
31
0.000000000000000
  0
LINE
  5
F1090F
330
F10910
100
AcDbEntity
8
Geo
100
AcDbLine
10
-56.7833746898263
20
4.25599995830070
30
0.000000000000000
11
-56.6833746898263
21
4.23952697901026
31
0.000000000000000
  0
LINE
  5
F10911
330
F10912
100
AcDbEntity
8
Geo
100
AcDbLine
10
-56.6833746898263
20
14.4385740108603
30
0.000000000000000
11
-56.5833746898263
21
14.4325426452578
31
0.000000000000000
  0
LINE
  5
F10913
330
F10914
100
AcDbEntity
8
Geo
100
AcDbLine
10
-56.6833746898263
20
4.23952697901026
30
0.000000000000000
11
-56.5833746898263
21
4.22306725338446
31
0.000000000000000
  0
LINE
  5
F10915
330
F10916
100
AcDbEntity
8
Geo
100
AcDbLine
10
-56.5833746898263
20
14.4325426452578
30
0.000000000000000
11
-56.4833746898263
21
14.4264750156634
31
0.000000000000000
  0
LINE
  5
F10917
330
F10918
100
AcDbEntity
8
Geo
100
AcDbLine
10
-56.5833746898263
20
4.22306725338446
30
0.000000000000000
11
-56.4833746898263
21
4.20662086138464
31
0.000000000000000
  0
LINE
  5
F10919
330
F1091A
100
AcDbEntity
8
Geo
100
AcDbLine
10
-56.4833746898263
20
14.4264750156634
30
0.000000000000000
11
-56.3833746898263
21
14.4203711515535
31
0.000000000000000
  0
LINE
  5
F1091B
330
F1091C
100
AcDbEntity
8
Geo
100
AcDbLine
10
-56.4833746898263
20
4.20662086138464
30
0.000000000000000
11
-56.3833746898263
21
4.19018788290735
31
0.000000000000000
  0
LINE
  5
F1091D
330
F1091E
100
AcDbEntity
8
Geo
100
AcDbLine
10
-56.3833746898263
20
14.4203711515535
30
0.000000000000000
11
-56.2833746898263
21
14.4142310825808
31
0.000000000000000
  0
LINE
  5
F1091F
330
F10920
100
AcDbEntity
8
Geo
100
AcDbLine
10
-56.3833746898263
20
4.19018788290735
30
0.000000000000000
11
-56.2833746898263
21
4.17376839778397
31
0.000000000000000
  0
LINE
  5
F10921
330
F10922
100
AcDbEntity
8
Geo
100
AcDbLine
10
-56.2833746898263
20
14.4142310825808
30
0.000000000000000
11
-56.1833746898263
21
14.4080548385736
31
0.000000000000000
  0
LINE
  5
F10923
330
F10924
100
AcDbEntity
8
Geo
100
AcDbLine
10
-56.2833746898263
20
4.17376839778397
30
0.000000000000000
11
-56.1833746898263
21
4.15736248578035
31
0.000000000000000
  0
LINE
  5
F10925
330
F10926
100
AcDbEntity
8
Geo
100
AcDbLine
10
-56.1833746898263
20
14.4080548385736
30
0.000000000000000
11
-56.0833746898263
21
14.4018424495361
31
0.000000000000000
  0
LINE
  5
F10927
330
F10928
100
AcDbEntity
8
Geo
100
AcDbLine
10
-56.1833746898263
20
4.15736248578035
30
0.000000000000000
11
-56.0833746898263
21
4.14097022659637
31
0.000000000000000
  0
LINE
  5
F10929
330
F1092A
100
AcDbEntity
8
Geo
100
AcDbLine
10
-56.0833746898263
20
14.4018424495361
30
0.000000000000000
11
-55.9833746898263
21
14.3955939456482
31
0.000000000000000
  0
LINE
  5
F1092B
330
F1092C
100
AcDbEntity
8
Geo
100
AcDbLine
10
-56.0833746898263
20
4.14097022659637
30
0.000000000000000
11
-55.9833746898263
21
4.12459169986563
31
0.000000000000000
  0
LINE
  5
F1092D
330
F1092E
100
AcDbEntity
8
Geo
100
AcDbLine
10
-55.9833746898263
20
14.3955939456482
30
0.000000000000000
11
-55.8833746898263
21
14.3893093572651
31
0.000000000000000
  0
LINE
  5
F1092F
330
F10930
100
AcDbEntity
8
Geo
100
AcDbLine
10
-55.9833746898263
20
4.12459169986563
30
0.000000000000000
11
-55.8833746898263
21
4.10822698515497
31
0.000000000000000
  0
LINE
  5
F10931
330
F10932
100
AcDbEntity
8
Geo
100
AcDbLine
10
-55.8833746898263
20
14.3893093572651
30
0.000000000000000
11
-55.7833746898263
21
14.3829887149172
31
0.000000000000000
  0
LINE
  5
F10933
330
F10934
100
AcDbEntity
8
Geo
100
AcDbLine
10
-55.8833746898263
20
4.10822698515497
30
0.000000000000000
11
-55.7833746898263
21
4.09187616196415
31
0.000000000000000
  0
LINE
  5
F10935
330
F10936
100
AcDbEntity
8
Geo
100
AcDbLine
10
-55.7833746898263
20
14.3829887149172
30
0.000000000000000
11
-55.6833746898263
21
14.3766320493103
31
0.000000000000000
  0
LINE
  5
F10937
330
F10938
100
AcDbEntity
8
Geo
100
AcDbLine
10
-55.7833746898263
20
4.09187616196415
30
0.000000000000000
11
-55.6833746898263
21
4.07553930972546
31
0.000000000000000
  0
LINE
  5
F10939
330
F1093A
100
AcDbEntity
8
Geo
100
AcDbLine
10
-55.6833746898263
20
14.3766320493103
30
0.000000000000000
11
-55.5833746898263
21
14.3702393913250
31
0.000000000000000
  0
LINE
  5
F1093B
330
F1093C
100
AcDbEntity
8
Geo
100
AcDbLine
10
-55.6833746898263
20
4.07553930972546
30
0.000000000000000
11
-55.5833746898263
21
4.05921650780331
31
0.000000000000000
  0
LINE
  5
F1093D
330
F1093E
100
AcDbEntity
8
Geo
100
AcDbLine
10
-55.5833746898263
20
14.3702393913250
30
0.000000000000000
11
-55.4833746898263
21
14.3638107720169
31
0.000000000000000
  0
LINE
  5
F1093F
330
F10940
100
AcDbEntity
8
Geo
100
AcDbLine
10
-55.5833746898263
20
4.05921650780331
30
0.000000000000000
11
-55.4833746898263
21
4.04290783549384
31
0.000000000000000
  0
LINE
  5
F10941
330
F10942
100
AcDbEntity
8
Geo
100
AcDbLine
10
-55.4833746898263
20
14.3638107720169
30
0.000000000000000
11
-55.3833746898263
21
14.3573462226161
31
0.000000000000000
  0
LINE
  5
F10943
330
F10944
100
AcDbEntity
8
Geo
100
AcDbLine
10
-55.4833746898263
20
4.04290783549384
30
0.000000000000000
11
-55.3833746898263
21
4.02661337202455
31
0.000000000000000
  0
LINE
  5
F10945
330
F10946
100
AcDbEntity
8
Geo
100
AcDbLine
10
-55.3833746898263
20
14.3573462226161
30
0.000000000000000
11
-55.2833746898263
21
14.3508457745274
31
0.000000000000000
  0
LINE
  5
F10947
330
F10948
100
AcDbEntity
8
Geo
100
AcDbLine
10
-55.3833746898263
20
4.02661337202455
30
0.000000000000000
11
-55.2833746898263
21
4.01033319655394
31
0.000000000000000
  0
LINE
  5
F10949
330
F1094A
100
AcDbEntity
8
Geo
100
AcDbLine
10
-55.2833746898263
20
14.3508457745274
30
0.000000000000000
11
-55.1833746898263
21
14.3443094593301
31
0.000000000000000
  0
LINE
  5
F1094B
330
F1094C
100
AcDbEntity
8
Geo
100
AcDbLine
10
-55.2833746898263
20
4.01033319655394
30
0.000000000000000
11
-55.1833746898263
21
3.99406738817108
31
0.000000000000000
  0
LINE
  5
F1094D
330
F1094E
100
AcDbEntity
8
Geo
100
AcDbLine
10
-55.1833746898263
20
14.3443094593301
30
0.000000000000000
11
-55.0833746898263
21
14.3377373087775
31
0.000000000000000
  0
LINE
  5
F1094F
330
F10950
100
AcDbEntity
8
Geo
100
AcDbLine
10
-55.1833746898263
20
3.99406738817108
30
0.000000000000000
11
-55.0833746898263
21
3.97781602589524
31
0.000000000000000
  0
LINE
  5
F10951
330
F10952
100
AcDbEntity
8
Geo
100
AcDbLine
10
-55.0833746898263
20
14.3377373087775
30
0.000000000000000
11
-54.9833746898263
21
14.3311293547971
31
0.000000000000000
  0
LINE
  5
F10953
330
F10954
100
AcDbEntity
8
Geo
100
AcDbLine
10
-55.0833746898263
20
3.97781602589524
30
0.000000000000000
11
-54.9833746898263
21
3.96157918867551
31
0.000000000000000
  0
LINE
  5
F10955
330
F10956
100
AcDbEntity
8
Geo
100
AcDbLine
10
-54.9833746898263
20
14.3311293547971
30
0.000000000000000
11
-54.8833746898263
21
14.3244856294904
31
0.000000000000000
  0
LINE
  5
F10957
330
F10958
100
AcDbEntity
8
Geo
100
AcDbLine
10
-54.9833746898263
20
3.96157918867551
30
0.000000000000000
11
-54.8833746898263
21
3.94535695539042
31
0.000000000000000
  0
LINE
  5
F10959
330
F1095A
100
AcDbEntity
8
Geo
100
AcDbLine
10
-54.8833746898263
20
14.3244856294904
30
0.000000000000000
11
-54.7833746898263
21
14.3178061651325
31
0.000000000000000
  0
LINE
  5
F1095B
330
F1095C
100
AcDbEntity
8
Geo
100
AcDbLine
10
-54.8833746898263
20
3.94535695539042
30
0.000000000000000
11
-54.7833746898263
21
3.92914940484758
31
0.000000000000000
  0
LINE
  5
F1095D
330
F1095E
100
AcDbEntity
8
Geo
100
AcDbLine
10
-54.7833746898263
20
14.3178061651325
30
0.000000000000000
11
-54.6833746898263
21
14.3110909941723
31
0.000000000000000
  0
LINE
  5
F1095F
330
F10960
100
AcDbEntity
8
Geo
100
AcDbLine
10
-54.7833746898263
20
3.92914940484758
30
0.000000000000000
11
-54.6833746898263
21
3.91295661578324
31
0.000000000000000
  0
LINE
  5
F10961
330
F10962
100
AcDbEntity
8
Geo
100
AcDbLine
10
-54.6833746898263
20
14.3110909941723
30
0.000000000000000
11
-54.5833746898263
21
14.3043401492321
31
0.000000000000000
  0
LINE
  5
F10963
330
F10964
100
AcDbEntity
8
Geo
100
AcDbLine
10
-54.6833746898263
20
3.91295661578324
30
0.000000000000000
11
-54.5833746898263
21
3.89677866686194
31
0.000000000000000
  0
LINE
  5
F10965
330
F10966
100
AcDbEntity
8
Geo
100
AcDbLine
10
-54.5833746898263
20
14.3043401492321
30
0.000000000000000
11
-54.4833746898263
21
14.2975536631075
31
0.000000000000000
  0
LINE
  5
F10967
330
F10968
100
AcDbEntity
8
Geo
100
AcDbLine
10
-54.5833746898263
20
3.89677866686194
30
0.000000000000000
11
-54.4833746898263
21
3.88061563667614
31
0.000000000000000
  0
LINE
  5
F10969
330
F1096A
100
AcDbEntity
8
Geo
100
AcDbLine
10
-54.4833746898263
20
14.2975536631075
30
0.000000000000000
11
-54.3833746898263
21
14.2907315687672
31
0.000000000000000
  0
LINE
  5
F1096B
330
F1096C
100
AcDbEntity
8
Geo
100
AcDbLine
10
-54.4833746898263
20
3.88061563667614
30
0.000000000000000
11
-54.3833746898263
21
3.86446760374581
31
0.000000000000000
  0
LINE
  5
F1096D
330
F1096E
100
AcDbEntity
8
Geo
100
AcDbLine
10
-54.3833746898263
20
14.2907315687672
30
0.000000000000000
11
-54.2833746898263
21
14.2838738993529
31
0.000000000000000
  0
LINE
  5
F1096F
330
F10970
100
AcDbEntity
8
Geo
100
AcDbLine
10
-54.3833746898263
20
3.86446760374581
30
0.000000000000000
11
-54.2833746898263
21
3.84833464651809
31
0.000000000000000
  0
LINE
  5
F10971
330
F10972
100
AcDbEntity
8
Geo
100
AcDbLine
10
-54.2833746898263
20
14.2838738993529
30
0.000000000000000
11
-54.1833746898263
21
14.2769806881792
31
0.000000000000000
  0
LINE
  5
F10973
330
F10974
100
AcDbEntity
8
Geo
100
AcDbLine
10
-54.2833746898263
20
3.84833464651809
30
0.000000000000000
11
-54.1833746898263
21
3.83221684336685
31
0.000000000000000
  0
LINE
  5
F10975
330
F10976
100
AcDbEntity
8
Geo
100
AcDbLine
10
-54.1833746898263
20
14.2769806881792
30
0.000000000000000
11
-54.0833746898263
21
14.2700519687333
31
0.000000000000000
  0
LINE
  5
F10977
330
F10978
100
AcDbEntity
8
Geo
100
AcDbLine
10
-54.1833746898263
20
3.83221684336685
30
0.000000000000000
11
-54.0833746898263
21
3.81611427259237
31
0.000000000000000
  0
LINE
  5
F10979
330
F1097A
100
AcDbEntity
8
Geo
100
AcDbLine
10
-54.0833746898263
20
14.2700519687333
30
0.000000000000000
11
-53.9833746898263
21
14.2630877746750
31
0.000000000000000
  0
LINE
  5
F1097B
330
F1097C
100
AcDbEntity
8
Geo
100
AcDbLine
10
-54.0833746898263
20
3.81611427259237
30
0.000000000000000
11
-53.9833746898263
21
3.80002701242090
31
0.000000000000000
  0
LINE
  5
F1097D
330
F1097E
100
AcDbEntity
8
Geo
100
AcDbLine
10
-53.9833746898263
20
14.2630877746750
30
0.000000000000000
11
-53.8833746898263
21
14.2560881398362
31
0.000000000000000
  0
LINE
  5
F1097F
330
F10980
100
AcDbEntity
8
Geo
100
AcDbLine
10
-53.9833746898263
20
3.80002701242090
30
0.000000000000000
11
-53.8833746898263
21
3.78395514100435
31
0.000000000000000
  0
LINE
  5
F10981
330
F10982
100
AcDbEntity
8
Geo
100
AcDbLine
10
-53.8833746898263
20
14.2560881398362
30
0.000000000000000
11
-53.7833746898263
21
14.2490530982212
31
0.000000000000000
  0
LINE
  5
F10983
330
F10984
100
AcDbEntity
8
Geo
100
AcDbLine
10
-53.8833746898263
20
3.78395514100435
30
0.000000000000000
11
-53.7833746898263
21
3.76789873641983
31
0.000000000000000
  0
LINE
  5
F10985
330
F10986
100
AcDbEntity
8
Geo
100
AcDbLine
10
-53.7833746898263
20
14.2490530982212
30
0.000000000000000
11
-53.6833746898263
21
14.2419826840061
31
0.000000000000000
  0
LINE
  5
F10987
330
F10988
100
AcDbEntity
8
Geo
100
AcDbLine
10
-53.7833746898263
20
3.76789873641983
30
0.000000000000000
11
-53.6833746898263
21
3.75185787666934
31
0.000000000000000
  0
LINE
  5
F10989
330
F1098A
100
AcDbEntity
8
Geo
100
AcDbLine
10
-53.6833746898263
20
14.2419826840061
30
0.000000000000000
11
-53.5833746898263
21
14.2348769315391
31
0.000000000000000
  0
LINE
  5
F1098B
330
F1098C
100
AcDbEntity
8
Geo
100
AcDbLine
10
-53.6833746898263
20
3.75185787666934
30
0.000000000000000
11
-53.5833746898263
21
3.73583263967936
31
0.000000000000000
  0
LINE
  5
F1098D
330
F1098E
100
AcDbEntity
8
Geo
100
AcDbLine
10
-53.5833746898263
20
14.2348769315391
30
0.000000000000000
11
-53.4833746898263
21
14.2277358753400
31
0.000000000000000
  0
LINE
  5
F1098F
330
F10990
100
AcDbEntity
8
Geo
100
AcDbLine
10
-53.5833746898263
20
3.73583263967936
30
0.000000000000000
11
-53.4833746898263
21
3.71982310330047
31
0.000000000000000
  0
LINE
  5
F10991
330
F10992
100
AcDbEntity
8
Geo
100
AcDbLine
10
-53.4833746898263
20
14.2277358753400
30
0.000000000000000
11
-53.3833746898263
21
14.2205595500998
31
0.000000000000000
  0
LINE
  5
F10993
330
F10994
100
AcDbEntity
8
Geo
100
AcDbLine
10
-53.4833746898263
20
3.71982310330047
30
0.000000000000000
11
-53.3833746898263
21
3.70382934530696
31
0.000000000000000
  0
LINE
  5
F10995
330
F10996
100
AcDbEntity
8
Geo
100
AcDbLine
10
-53.3833746898263
20
14.2205595500998
30
0.000000000000000
11
-53.2833746898263
21
14.2133479906813
31
0.000000000000000
  0
LINE
  5
F10997
330
F10998
100
AcDbEntity
8
Geo
100
AcDbLine
10
-53.3833746898263
20
3.70382934530696
30
0.000000000000000
11
-53.2833746898263
21
3.68785144339651
31
0.000000000000000
  0
LINE
  5
F10999
330
F1099A
100
AcDbEntity
8
Geo
100
AcDbLine
10
-53.2833746898263
20
14.2133479906813
30
0.000000000000000
11
-53.1833746898263
21
14.2061012321182
31
0.000000000000000
  0
LINE
  5
F1099B
330
F1099C
100
AcDbEntity
8
Geo
100
AcDbLine
10
-53.2833746898263
20
3.68785144339651
30
0.000000000000000
11
-53.1833746898263
21
3.67188947518973
31
0.000000000000000
  0
LINE
  5
F1099D
330
F1099E
100
AcDbEntity
8
Geo
100
AcDbLine
10
-53.1833746898263
20
14.2061012321182
30
0.000000000000000
11
-53.0833746898263
21
14.1988193096151
31
0.000000000000000
  0
LINE
  5
F1099F
330
F109A0
100
AcDbEntity
8
Geo
100
AcDbLine
10
-53.1833746898263
20
3.67188947518973
30
0.000000000000000
11
-53.0833746898263
21
3.65594351822985
31
0.000000000000000
  0
LINE
  5
F109A1
330
F109A2
100
AcDbEntity
8
Geo
100
AcDbLine
10
-53.0833746898263
20
14.1988193096151
30
0.000000000000000
11
-52.9833746898263
21
14.1915022585477
31
0.000000000000000
  0
LINE
  5
F109A3
330
F109A4
100
AcDbEntity
8
Geo
100
AcDbLine
10
-53.0833746898263
20
3.65594351822985
30
0.000000000000000
11
-52.9833746898263
21
3.64001364998230
31
0.000000000000000
  0
LINE
  5
F109A5
330
F109A6
100
AcDbEntity
8
Geo
100
AcDbLine
10
-52.9833746898263
20
14.1915022585477
30
0.000000000000000
11
-52.8833746898263
21
14.1841501144623
31
0.000000000000000
  0
LINE
  5
F109A7
330
F109A8
100
AcDbEntity
8
Geo
100
AcDbLine
10
-52.9833746898263
20
3.64001364998230
30
0.000000000000000
11
-52.8833746898263
21
3.62409994783436
31
0.000000000000000
  0
LINE
  5
F109A9
330
F109AA
100
AcDbEntity
8
Geo
100
AcDbLine
10
-52.8833746898263
20
14.1841501144623
30
0.000000000000000
11
-52.7833746898263
21
14.1767629130754
31
0.000000000000000
  0
LINE
  5
F109AB
330
F109AC
100
AcDbEntity
8
Geo
100
AcDbLine
10
-52.8833746898263
20
3.62409994783436
30
0.000000000000000
11
-52.7833746898263
21
3.60820248909477
31
0.000000000000000
  0
LINE
  5
F109AD
330
F109AE
100
AcDbEntity
8
Geo
100
AcDbLine
10
-52.7833746898263
20
14.1767629130754
30
0.000000000000000
11
-52.6833746898263
21
14.1693406902741
31
0.000000000000000
  0
LINE
  5
F109AF
330
F109B0
100
AcDbEntity
8
Geo
100
AcDbLine
10
-52.7833746898263
20
3.60820248909477
30
0.000000000000000
11
-52.6833746898263
21
3.59232135099338
31
0.000000000000000
  0
LINE
  5
F109B1
330
F109B2
100
AcDbEntity
8
Geo
100
AcDbLine
10
-52.6833746898263
20
14.1693406902741
30
0.000000000000000
11
-52.5833746898263
21
14.1618834821157
31
0.000000000000000
  0
LINE
  5
F109B3
330
F109B4
100
AcDbEntity
8
Geo
100
AcDbLine
10
-52.6833746898263
20
3.59232135099338
30
0.000000000000000
11
-52.5833746898263
21
3.57645661068072
31
0.000000000000000
  0
LINE
  5
F109B5
330
F109B6
100
AcDbEntity
8
Geo
100
AcDbLine
10
-52.5833746898263
20
14.1618834821157
30
0.000000000000000
11
-52.4833746898263
21
14.1543913248271
31
0.000000000000000
  0
LINE
  5
F109B7
330
F109B8
100
AcDbEntity
8
Geo
100
AcDbLine
10
-52.5833746898263
20
3.57645661068072
30
0.000000000000000
11
-52.4833746898263
21
3.56060834522768
31
0.000000000000000
  0
LINE
  5
F109B9
330
F109BA
100
AcDbEntity
8
Geo
100
AcDbLine
10
-52.4833746898263
20
14.1543913248271
30
0.000000000000000
11
-52.3833746898263
21
14.1468642548052
31
0.000000000000000
  0
LINE
  5
F109BB
330
F109BC
100
AcDbEntity
8
Geo
100
AcDbLine
10
-52.4833746898263
20
3.56060834522768
30
0.000000000000000
11
-52.3833746898263
21
3.54477663162513
31
0.000000000000000
  0
LINE
  5
F109BD
330
F109BE
100
AcDbEntity
8
Geo
100
AcDbLine
10
-52.3833746898263
20
14.1468642548052
30
0.000000000000000
11
-52.2833746898263
21
14.1393023086167
31
0.000000000000000
  0
LINE
  5
F109BF
330
F109C0
100
AcDbEntity
8
Geo
100
AcDbLine
10
-52.3833746898263
20
3.54477663162513
30
0.000000000000000
11
-52.2833746898263
21
3.52896154678349
31
0.000000000000000
  0
LINE
  5
F109C1
330
F109C2
100
AcDbEntity
8
Geo
100
AcDbLine
10
-52.2833746898263
20
14.1393023086167
30
0.000000000000000
11
-52.1833746898263
21
14.1317055229973
31
0.000000000000000
  0
LINE
  5
F109C3
330
F109C4
100
AcDbEntity
8
Geo
100
AcDbLine
10
-52.2833746898263
20
3.52896154678349
30
0.000000000000000
11
-52.1833746898263
21
3.51316316753244
31
0.000000000000000
  0
LINE
  5
F109C5
330
F109C6
100
AcDbEntity
8
Geo
100
AcDbLine
10
-52.1833746898263
20
14.1317055229973
30
0.000000000000000
11
-52.0833746898263
21
14.1240739348523
31
0.000000000000000
  0
LINE
  5
F109C7
330
F109C8
100
AcDbEntity
8
Geo
100
AcDbLine
10
-52.1833746898263
20
3.51316316753244
30
0.000000000000000
11
-52.0833746898263
21
3.49738157062047
31
0.000000000000000
  0
LINE
  5
F109C9
330
F109CA
100
AcDbEntity
8
Geo
100
AcDbLine
10
-52.0833746898263
20
14.1240739348523
30
0.000000000000000
11
-51.9833746898263
21
14.1164075812559
31
0.000000000000000
  0
LINE
  5
F109CB
330
F109CC
100
AcDbEntity
8
Geo
100
AcDbLine
10
-52.0833746898263
20
3.49738157062047
30
0.000000000000000
11
-51.9833746898263
21
3.48161683271457
31
0.000000000000000
  0
LINE
  5
F109CD
330
F109CE
100
AcDbEntity
8
Geo
100
AcDbLine
10
-51.9833746898263
20
14.1164075812559
30
0.000000000000000
11
-51.8833746898263
21
14.1087064994512
31
0.000000000000000
  0
LINE
  5
F109CF
330
F109D0
100
AcDbEntity
8
Geo
100
AcDbLine
10
-51.9833746898263
20
3.48161683271457
30
0.000000000000000
11
-51.8833746898263
21
3.46586903039981
31
0.000000000000000
  0
LINE
  5
F109D1
330
F109D2
100
AcDbEntity
8
Geo
100
AcDbLine
10
-51.8833746898263
20
14.1087064994512
30
0.000000000000000
11
-51.7833746898263
21
14.1009707268501
31
0.000000000000000
  0
LINE
  5
F109D3
330
F109D4
100
AcDbEntity
8
Geo
100
AcDbLine
10
-51.8833746898263
20
3.46586903039981
30
0.000000000000000
11
-51.7833746898263
21
3.45013824017899
31
0.000000000000000
  0
LINE
  5
F109D5
330
F109D6
100
AcDbEntity
8
Geo
100
AcDbLine
10
-51.7833746898263
20
14.1009707268501
30
0.000000000000000
11
-51.6833746898263
21
14.0932003010330
31
0.000000000000000
  0
LINE
  5
F109D7
330
F109D8
100
AcDbEntity
8
Geo
100
AcDbLine
10
-51.7833746898263
20
3.45013824017899
30
0.000000000000000
11
-51.6833746898263
21
3.43442453847228
31
0.000000000000000
  0
LINE
  5
F109D9
330
F109DA
100
AcDbEntity
8
Geo
100
AcDbLine
10
-51.6833746898263
20
14.0932003010330
30
0.000000000000000
11
-51.5833746898263
21
14.0853952597486
31
0.000000000000000
  0
LINE
  5
F109DB
330
F109DC
100
AcDbEntity
8
Geo
100
AcDbLine
10
-51.6833746898263
20
3.43442453847228
30
0.000000000000000
11
-51.5833746898263
21
3.41872800161681
31
0.000000000000000
  0
LINE
  5
F109DD
330
F109DE
100
AcDbEntity
8
Geo
100
AcDbLine
10
-51.5833746898263
20
14.0853952597486
30
0.000000000000000
11
-51.4833746898263
21
14.0775556409137
31
0.000000000000000
  0
LINE
  5
F109DF
330
F109E0
100
AcDbEntity
8
Geo
100
AcDbLine
10
-51.5833746898263
20
3.41872800161681
30
0.000000000000000
11
-51.4833746898263
21
3.40304870586633
31
0.000000000000000
  0
LINE
  5
F109E1
330
F109E2
100
AcDbEntity
8
Geo
100
AcDbLine
10
-51.4833746898263
20
14.0775556409137
30
0.000000000000000
11
-51.3833746898263
21
14.0696814826132
31
0.000000000000000
  0
LINE
  5
F109E3
330
F109E4
100
AcDbEntity
8
Geo
100
AcDbLine
10
-51.4833746898263
20
3.40304870586633
30
0.000000000000000
11
-51.3833746898263
21
3.38738672739086
31
0.000000000000000
  0
LINE
  5
F109E5
330
F109E6
100
AcDbEntity
8
Geo
100
AcDbLine
10
-51.3833746898263
20
14.0696814826132
30
0.000000000000000
11
-51.2833746898263
21
14.0617728230999
31
0.000000000000000
  0
LINE
  5
F109E7
330
F109E8
100
AcDbEntity
8
Geo
100
AcDbLine
10
-51.3833746898263
20
3.38738672739086
30
0.000000000000000
11
-51.2833746898263
21
3.37174214227625
31
0.000000000000000
  0
LINE
  5
F109E9
330
F109EA
100
AcDbEntity
8
Geo
100
AcDbLine
10
-51.2833746898263
20
14.0617728230999
30
0.000000000000000
11
-51.1833746898263
21
14.0538297007938
31
0.000000000000000
  0
LINE
  5
F109EB
330
F109EC
100
AcDbEntity
8
Geo
100
AcDbLine
10
-51.2833746898263
20
3.37174214227625
30
0.000000000000000
11
-51.1833746898263
21
3.35611502652388
31
0.000000000000000
  0
LINE
  5
F109ED
330
F109EE
100
AcDbEntity
8
Geo
100
AcDbLine
10
-51.1833746898263
20
14.0538297007938
30
0.000000000000000
11
-51.0833746898263
21
14.0458521542827
31
0.000000000000000
  0
LINE
  5
F109EF
330
F109F0
100
AcDbEntity
8
Geo
100
AcDbLine
10
-51.1833746898263
20
3.35611502652388
30
0.000000000000000
11
-51.0833746898263
21
3.34050545605026
31
0.000000000000000
  0
LINE
  5
F109F1
330
F109F2
100
AcDbEntity
8
Geo
100
AcDbLine
10
-51.0833746898263
20
14.0458521542827
30
0.000000000000000
11
-50.9833746898263
21
14.0378402223216
31
0.000000000000000
  0
LINE
  5
F109F3
330
F109F4
100
AcDbEntity
8
Geo
100
AcDbLine
10
-51.0833746898263
20
3.34050545605026
30
0.000000000000000
11
-50.9833746898263
21
3.32491350668666
31
0.000000000000000
  0
LINE
  5
F109F5
330
F109F6
100
AcDbEntity
8
Geo
100
AcDbLine
10
-70.8833746898263
20
6.96774193548387
30
0.000000000000000
11
-70.8833746898263
21
6.96774193548387
31
0.000000000000000
  0
LINE
  5
F109F7
330
F109F8
100
AcDbEntity
8
Geo
100
AcDbLine
10
-70.8833746898263
20
6.96774193548387
30
0.000000000000000
11
-70.8833746898263
21
6.96774193548387
31
0.000000000000000
  0
LINE
  5
F109F9
330
F109FA
100
AcDbEntity
8
Geo
100
AcDbLine
10
79.1166253101737
20
14.4677419354839
30
0.000000000000000
11
79.1166253101737
21
6.96774193548387
31
0.000000000000000
  0
LINE
  5
F109FB
330
F109FC
100
AcDbEntity
8
Geo
100
AcDbLine
10
-70.8833746898263
20
6.96774193548387
30
0.000000000000000
11
-70.8833746898263
21
2.46774193548387
31
0.000000000000000
  0
ARC
  5
F109FD
330
F109FE
100
AcDbEntity
8
Geo
100
AcDbCircle
10
-67.3833746898263
20
2.46774193548387
30
0.000000000000000
 40
3.50000000000000
100
AcDbArc
 50
180.000000000000
 51
270.000000000000
  0
LINE
  5
F109FF
330
F10A00
100
AcDbEntity
8
Geo
100
AcDbLine
10
-67.3833746898263
20
-1.03225806451613
30
0.000000000000000
11
-50.8833746898263
21
-1.03225806451613
31
0.000000000000000
  0
LINE
  5
F10A01
330
F10A02
100
AcDbEntity
8
Geo
100
AcDbLine
10
-50.8833746898263
20
-1.03225806451613
30
0.000000000000000
11
-50.8833746898263
21
-0.732258064516128
31
0.000000000000000
  0
LINE
  5
F10A03
330
F10A04
100
AcDbEntity
8
Geo
100
AcDbLine
10
-50.8833746898263
20
-0.732258064516128
30
0.000000000000000
11
29.1166253101737
21
-0.732258064516128
31
0.000000000000000
  0
LINE
  5
F10A05
330
F10A06
100
AcDbEntity
8
Geo
100
AcDbLine
10
29.1166253101737
20
-0.732258064516128
30
0.000000000000000
11
29.1166253101737
21
-1.03225806451613
31
0.000000000000000
  0
LINE
  5
F10A07
330
F10A08
100
AcDbEntity
8
Geo
100
AcDbLine
10
29.1166253101737
20
-1.03225806451613
30
0.000000000000000
11
78.6166253101737
21
-1.03225806451613
31
0.000000000000000
  0
LINE
  5
F10A09
330
F10A0A
100
AcDbEntity
8
Geo
100
AcDbLine
10
78.6166253101737
20
-1.03225806451613
30
0.000000000000000
11
79.1166253101737
21
-0.532258064516128
31
0.000000000000000
  0
LINE
  5
F10A0B
330
F10A0C
100
AcDbEntity
8
Geo
100
AcDbLine
10
-67.3833746898263
20
14.9677419354839
30
0.000000000000000
11
-67.3833746898263
21
-1.03225806451613
31
0.000000000000000
  0
LINE
  5
F10A0D
330
F10A0E
100
AcDbEntity
8
Geo
100
AcDbLine
10
-67.3833746898263
20
14.9677419354839
30
0.000000000000000
11
-67.3833746898263
21
-1.03225806451613
31
0.000000000000000
  0
LINE
  5
F10A0F
330
F10A10
100
AcDbEntity
8
Geo
100
AcDbLine
10
-50.8833746898263
20
14.9677419354839
30
0.000000000000000
11
-50.8833746898263
21
-1.03225806451613
31
0.000000000000000
  0
LINE
  5
F10A11
330
F10A12
100
AcDbEntity
8
Geo
100
AcDbLine
10
-50.8833746898263
20
14.6677419354839
30
0.000000000000000
11
-50.8833746898263
21
-0.732258064516128
31
0.000000000000000
  0
LINE
  5
F10A13
330
F10A14
100
AcDbEntity
8
Geo
100
AcDbLine
10
29.1166253101737
20
14.6677419354839
30
0.000000000000000
11
29.1166253101737
21
-0.732258064516128
31
0.000000000000000
  0
LINE
  5
F10A15
330
F10A16
100
AcDbEntity
8
Geo
100
AcDbLine
10
29.1166253101737
20
14.6677419354839
30
0.000000000000000
11
29.1166253101737
21
-0.732258064516128
31
0.000000000000000
  0
LINE
  5
F10A17
330
F10A18
100
AcDbEntity
8
Geo
100
AcDbLine
10
78.6166253101737
20
14.9677419354839
30
0.000000000000000
11
78.6166253101737
21
-1.03225806451613
31
0.000000000000000
  0
LINE
  5
F10A19
330
F10A1A
100
AcDbEntity
8
Geo
100
AcDbLine
10
79.1166253101737
20
14.4677419354839
30
0.000000000000000
11
79.1166253101737
21
-0.532258064516128
31
0.000000000000000
  0
LWPOLYLINE
  5
F10A1B
330
F10A1C
100
AcDbEntity
8
Rahmen
100
AcDbPolyline
90
   4
70
   1
43
   0.0
 10
-170.977667493797
 20
108.000000000000
 10
-170.977667493797
 20
108.000000000000
 10
-170.977667493797
 20
108.000000000000
 10
-170.977667493797
 20
108.000000000000
  0
TEXT
  5
F10A1D
330
F10A1E
 100
AcDbEntity
8
Text
100
AcDbText
10
-170.977667493797
20
108.500000000000
30
0.000000000000000
40
1.00000000000000
1
 -       
100
AcDbText
  0
LWPOLYLINE
  5
F10A1F
330
F10A20
100
AcDbEntity
8
Rahmen
100
AcDbPolyline
90
   4
70
   1
43
   0.0
 10
-125.687344913151
 20
102.908188585608
 10
134.263027295285
 20
102.908188585608
 10
134.263027295285
 20
-103.176178660050
 10
-125.687344913151
 20
-103.176178660050
  0
TEXT
  5
F10A21
330
F10A22
 100
AcDbEntity
8
Text
100
AcDbText
10
-124.615384615385
20
-102.676178660050
30
0.000000000000000
40
1.00000000000000
1
ISBESketcher
100
AcDbText
  0
LWPOLYLINE
  5
F10A23
330
F10A24
100
AcDbEntity
8
Rahmen
100
AcDbPolyline
90
   4
70
   1
43
   0.0
 10
94.3325062034740
 20
-100.228287841191
 10
134.263027295285
 20
-100.228287841191
 10
134.263027295285
 20
-103.176178660050
 10
94.3325062034740
 20
-103.176178660050
  0
TEXT
  5
F10A25
330
F10A26
 100
AcDbEntity
8
Text
100
AcDbText
10
95.4044665012407
20
-101.228287841191
30
0.000000000000000
40
0.750000000000000
1
Created by:
100
AcDbText
  0
TEXT
  5
F10A27
330
F10A28
 100
AcDbEntity
8
Text
100
AcDbText
10
118.987593052109
20
-101.228287841191
30
0.000000000000000
40
0.750000000000000
1
nsarkol
100
AcDbText
  0
LWPOLYLINE
  5
F10A29
330
F10A2A
100
AcDbEntity
8
Rahmen
100
AcDbPolyline
90
   4
70
   1
43
   0.0
 10
54.4019851116625
 20
-100.228287841191
 10
94.3325062034740
 20
-100.228287841191
 10
94.3325062034740
 20
-103.176178660050
 10
54.4019851116625
 20
-103.176178660050
  0
TEXT
  5
F10A2B
330
F10A2C
 100
AcDbEntity
8
Text
100
AcDbText
10
55.4739454094293
20
-101.228287841191
30
0.000000000000000
40
0.750000000000000
1
Created for:
100
AcDbText
  0
TEXT
  5
F10A2D
330
F10A2E
 100
AcDbEntity
8
Text
100
AcDbText
10
82.2729528535980
20
-102.568238213400
30
0.000000000000000
40
0.750000000000000
1

100
AcDbText
  0
LWPOLYLINE
  5
F10A2F
330
F10A30
100
AcDbEntity
8
Rahmen
100
AcDbPolyline
90
   4
70
   1
43
   0.0
 10
121.131513647643
 20
-97.0124069478908
 10
134.263027295285
 20
-97.0124069478908
 10
134.263027295285
 20
-100.228287841191
 10
121.131513647643
 20
-100.228287841191
  0
TEXT
  5
F10A31
330
F10A32
 100
AcDbEntity
8
Text
100
AcDbText
10
121.935483870968
20
-98.0124069478908
30
0.000000000000000
40
0.750000000000000
1
Pages
100
AcDbText
  0
TEXT
  5
F10A33
330
F10A34
 100
AcDbEntity
8
Text
100
AcDbText
10
132.119106699752
20
-99.3523573200993
30
0.000000000000000
40
0.750000000000000
1

100
AcDbText
  0
LWPOLYLINE
  5
F10A35
330
F10A36
100
AcDbEntity
8
Rahmen
100
AcDbPolyline
90
   4
70
   1
43
   0.0
 10
121.131513647643
 20
-94.0645161290323
 10
134.263027295285
 20
-94.0645161290323
 10
134.263027295285
 20
-97.0124069478908
 10
121.131513647643
 20
-97.0124069478908
  0
TEXT
  5
F10A37
330
F10A38
 100
AcDbEntity
8
Text
100
AcDbText
10
121.935483870968
20
-95.0645161290323
30
0.000000000000000
40
0.750000000000000
1
Page
100
AcDbText
  0
TEXT
  5
F10A39
330
F10A3A
 100
AcDbEntity
8
Text
100
AcDbText
10
132.119106699752
20
-96.4044665012407
30
0.000000000000000
40
0.750000000000000
1

100
AcDbText
  0
LWPOLYLINE
  5
F10A3B
330
F10A3C
100
AcDbEntity
8
Rahmen
100
AcDbPolyline
90
   4
70
   1
43
   0.0
 10
54.4019851116625
 20
-94.0645161290323
 10
121.131513647643
 20
-94.0645161290323
 10
121.131513647643
 20
-100.228287841191
 10
54.4019851116625
 20
-100.228287841191
  0
TEXT
  5
F10A3D
330
F10A3E
 100
AcDbEntity
8
Text
100
AcDbText
10
55.4739454094293
20
-95.0645161290323
30
0.000000000000000
40
0.750000000000000
1
Date:
100
AcDbText
  0
TEXT
  5
F10A3F
330
F10A40
 100
AcDbEntity
8
Text
100
AcDbText
10
82.8089330024814
20
-98.0124069478908
30
0.000000000000000
40
0.750000000000000
1
05.07.2016
100
AcDbText
  0
LWPOLYLINE
  5
F10A41
330
F10A42
100
AcDbEntity
8
Rahmen
100
AcDbPolyline
90
   4
70
   1
43
   0.0
 10
54.4019851116625
 20
-88.1687344913151
 10
134.263027295285
 20
-88.1687344913151
 10
134.263027295285
 20
-94.0645161290323
 10
54.4019851116625
 20
-94.0645161290323
  0
TEXT
  5
F10A43
330
F10A44
 100
AcDbEntity
8
Text
100
AcDbText
10
-170.977667493797
20
106.000000000000
30
0.000000000000000
40
1.50000000000000
1

100
AcDbText
  0
TEXT
  5
F10A45
330
F10A46
 100
AcDbEntity
8
Text
100
AcDbText
10
71.8213399503722
20
-91.7700578990902
30
0.000000000000000
40
2.50000000000000
1
VHTF41601501603350
100
AcDbText
  0
LWPOLYLINE
  5
F10A47
330
F10A48
100
AcDbEntity
8
Rahmen
100
AcDbPolyline
90
   4
70
   1
43
   0.0
 10
94.3325062034740
 20
-82.0049627791563
 10
134.263027295285
 20
-82.0049627791563
 10
134.263027295285
 20
-88.1687344913151
 10
94.3325062034740
 20
-88.1687344913151
  0
TEXT
  5
F10A49
330
F10A4A
 100
AcDbEntity
8
Text
100
AcDbText
10
95.4044665012407
20
-83.0049627791563
30
0.000000000000000
40
0.750000000000000
1
Work piece material:
100
AcDbText
  0
TEXT
  5
F10A4B
330
F10A4C
 100
AcDbEntity
8
Text
100
AcDbText
10
114.163771712159
20
-87.5607940446650
30
0.000000000000000
40
0.750000000000000
1

100
AcDbText
  0
LWPOLYLINE
  5
F10A4D
330
F10A4E
100
AcDbEntity
8
Rahmen
100
AcDbPolyline
90
   4
70
   1
43
   0.0
 10
54.4019851116625
 20
-82.0049627791563
 10
94.3325062034740
 20
-82.0049627791563
 10
94.3325062034740
 20
-88.1687344913151
 10
54.4019851116625
 20
-88.1687344913151
  0
TEXT
  5
F10A4F
330
F10A50
 100
AcDbEntity
8
Text
100
AcDbText
10
55.4739454094293
20
-83.0049627791563
30
0.000000000000000
40
0.750000000000000
1
Tool material:
100
AcDbText
  0
TEXT
  5
F10A51
330
F10A52
 100
AcDbEntity
8
Text
100
AcDbText
10
74.2332506203474
20
-87.5607940446650
30
0.000000000000000
40
0.750000000000000
1

100
AcDbText
  0
LWPOLYLINE
  5
F10A53
330
F10A54
100
AcDbEntity
8
Rahmen
100
AcDbPolyline
90
   4
70
   1
43
   0.0
 10
94.3325062034740
 20
-79.0570719602978
 10
134.263027295285
 20
-79.0570719602978
 10
134.263027295285
 20
-82.0049627791563
 10
94.3325062034740
 20
-82.0049627791563
  0
TEXT
  5
F10A55
330
F10A56
 100
AcDbEntity
8
Text
100
AcDbText
10
-170.977667493797
20
106.000000000000
30
0.000000000000000
40
1.50000000000000
1

100
AcDbText
  0
TEXT
  5
F10A57
330
F10A58
 100
AcDbEntity
8
Text
100
AcDbText
10
114.163771712159
20
-81.3970223325062
30
0.000000000000000
40
0.750000000000000
1

100
AcDbText
  0
LWPOLYLINE
  5
F10A59
330
F10A5A
100
AcDbEntity
8
Rahmen
100
AcDbPolyline
90
   4
70
   1
43
   0.0
 10
54.4019851116625
 20
-79.0570719602978
 10
94.3325062034740
 20
-79.0570719602978
 10
94.3325062034740
 20
-82.0049627791563
 10
54.4019851116625
 20
-82.0049627791563
  0
TEXT
  5
F10A5B
330
F10A5C
 100
AcDbEntity
8
Text
100
AcDbText
10
55.4739454094293
20
-80.0570719602978
30
0.000000000000000
40
0.750000000000000
1
Scale:
100
AcDbText
  0
TEXT
  5
F10A5D
330
F10A5E
 100
AcDbEntity
8
Text
100
AcDbText
10
80.3970223325062
20
-80.0570719602978
30
0.000000000000000
40
0.750000000000000
1
1 : 1
100
AcDbText
0
VIEWPORT
5
294
102
{ACAD_XDICTIONARY
360
58A
102
}
330
25D
100
AcDbEntity
67
1
8
0
60
1
100
AcDbViewport
10
0.0
20
0.0
30
0.0
40
10.0
41
10.0
68
-1
69
1
12
0.0
22
0.0
13
0.0
23
0.0
14
1.0
24
1.0
15
0.0
25
0.0
16
0.0
26
0.0
36
1.0
17
0.0
27
0.0
37
0.0
42
0.0
43
0.0
44
0.0
45
10.0
50
0.0
51
0.0000000000007958
72
100
90
32800
1

281
0
71
0
74
0
110
0.0
120
0.0
130
0.0
111
1.0
121
0.0
131
0.0
112
0.0
122
1.0
132
0.0
79
0
146
0.0
1001
VD_INVISIBLE_NOT_FOR_READ
1000
VD_INVISIBLE_NOT_FOR_READ
0
VIEWPORT
5
295
102
{ACAD_XDICTIONARY
360
58C
102
}
330
25D
100
AcDbEntity
67
1
8
0
60
1
100
AcDbViewport
10
0.0
20
0.0
30
0.0
40
10.0
41
10.0
68
0
69
2
12
0.0
22
0.0
13
0.0
23
0.0
14
1.0
24
1.0
15
0.0
25
0.0
16
0.0
26
0.0
36
1.0
17
0.0
27
0.0
37
0.0
42
0.0
43
0.0
44
0.0
45
10.0
50
0.0
51
0.0000000000007958
72
100
90
163872
1

281
0
71
0
74
0
110
0.0
120
0.0
130
0.0
111
1.0
121
0.0
131
0.0
112
0.0
122
1.0
132
0.0
79
0
146
0.0
1001
VD_INVISIBLE_NOT_FOR_READ
1000
VD_INVISIBLE_NOT_FOR_READ
0
ENDSEC
0
SECTION
2
OBJECTS
0
DICTIONARY
5
13
330
0
100
AcDbDictionary
281
1
3
ACAD_COLOR
350
FA7
3
ACAD_GROUP
350
14
3
ACAD_LAYOUT
350
FCF
3
ACAD_MATERIAL
350
F7A
3
ACAD_MLEADERSTYLE
350
FCD
3
ACAD_MLINESTYLE
350
16
3
ACAD_PLOTSETTINGS
350
17
3
ACAD_PLOTSTYLENAME
350
18
3
ACAD_SCALELIST
350
FAB
3
ACAD_TABLESTYLE
350
FA8
3
ACAD_VISUALSTYLE
350
F93
3
ACDB_RECOMPOSE_DATA
350
107E
3
AcDbVariableDictionary
350
FF0
3
DWGPROPS
350
107F
0
DICTIONARY
5
F10014
330
F10013
100
AcDbDictionary
280
1
281
1
3
ACAD_MTEXT_2008_RT
360
F10015
0
DICTIONARY
5
F10019
330
F10018
100
AcDbDictionary
280
1
281
1
3
ACAD_MTEXT_2008_RT
360
F1001A
0
DICTIONARY
5
F10023
330
F10022
100
AcDbDictionary
280
1
281
1
3
ACAD_MTEXT_2008_RT
360
F10024
0
DICTIONARY
5
F10028
330
F10027
100
AcDbDictionary
280
1
281
1
3
ACAD_MTEXT_2008_RT
360
F10029
0
DICTIONARY
5
F1000A
330
F10009
100
AcDbDictionary
280
1
281
1
3
ACAD_MTEXT_2008_RT
360
F1000B
0
DICTIONARY
5
F10005
330
F10004
100
AcDbDictionary
280
1
281
1
3
ACAD_MTEXT_2008_RT
360
F10006
0
DICTIONARY
5
F1000F
330
F1000E
100
AcDbDictionary
280
1
281
1
3
ACAD_MTEXT_2008_RT
360
F10010
0
DICTIONARY
5
F1001E
330
F1001D
100
AcDbDictionary
280
1
281
1
3
ACAD_MTEXT_2008_RT
360
F1001F
0
DICTIONARY
5
FA7
102
{ACAD_REACTORS
330
13
102
}
330
13
100
AcDbDictionary
281
1
0
DICTIONARY
5
14
330
13
100
AcDbDictionary
281
1
0
DICTIONARY
5
FCF
102
{ACAD_REACTORS
330
13
102
}
330
13
100
AcDbDictionary
281
1
3
Layout1
350
FD1
3
Model
350
FD0
0
DICTIONARY
5
F7A
102
{ACAD_REACTORS
330
13
102
}
330
13
100
AcDbDictionary
281
1
3
ByBlock
350
F83
3
ByLayer
350
F7B
3
Global
350
F8B
0
DICTIONARY
5
FCD
102
{ACAD_REACTORS
330
13
102
}
330
13
100
AcDbDictionary
281
1
3
Standard
350
FCE
0
DICTIONARY
5
16
330
13
100
AcDbDictionary
281
1
3
Standard
350
FAA
0
DICTIONARY
5
17
102
{ACAD_REACTORS
330
13
102
}
330
13
100
AcDbDictionary
281
1
0
ACDBDICTIONARYWDFLT
5
18
102
{ACAD_REACTORS
330
13
102
}
330
13
100
AcDbDictionary
281
1
3
Normal
350
19
100
AcDbDictionaryWithDefault
340
19
0
DICTIONARY
5
FAB
102
{ACAD_REACTORS
330
13
102
}
330
13
100
AcDbDictionary
281
1
3
A0
350
FAC
3
A1
350
FAD
3
A2
350
FAE
3
A3
350
FAF
3
A4
350
FB0
3
A5
350
FB1
3
A6
350
FB2
3
A7
350
FB3
3
A8
350
FB4
3
A9
350
FB5
3
B0
350
FB6
3
B1
350
FB7
3
B2
350
FB8
3
B3
350
FB9
3
B4
350
FBA
3
B5
350
FBB
3
B6
350
FBC
3
B7
350
FBD
3
B8
350
FBE
3
B9
350
FBF
3
C0
350
FC0
3
C1
350
FC1
3
C2
350
FC2
3
C3
350
FC3
3
C4
350
FC4
3
C5
350
FC5
3
C6
350
FC6
3
C7
350
FC7
3
C8
350
FC8
3
C9
350
FC9
3
D0
350
FCA
3
D1
350
FCB
3
D2
350
FCC
0
DICTIONARY
5
FA8
102
{ACAD_REACTORS
330
13
102
}
330
13
100
AcDbDictionary
281
1
3
Standard
350
FA9
0
DICTIONARY
5
F93
102
{ACAD_REACTORS
330
13
102
}
330
13
100
AcDbDictionary
281
1
3
2dWireframe
350
F99
3
3D Hidden
350
F9B
3
3dWireframe
350
F9A
3
Basic
350
F98
3
Brighten
350
F9F
3
ColorChange
350
FA3
3
Conceptual
350
F9C
3
Dim
350
F9E
3
EdgeColorOff
350
FA6
3
Facepattern
350
FA2
3
Flat
350
F94
3
FlatWithEdges
350
F95
3
Gouraud
350
F96
3
GouraudWithEdges
350
F97
3
JitterOff
350
FA4
3
Linepattern
350
FA1
3
OverhangOff
350
FA5
3
Realistic
350
F9D
3
Thicken
350
FA0
0
XRECORD
5
107E
102
{ACAD_REACTORS
330
13
102
}
330
13
100
AcDbXrecord
280
1
90
1
330
FA9
330
F10013
330
F10018
330
F10022
330
F10027
330
F10009
330
F10004
330
F1000E
330
F1001D
0
DICTIONARY
5
FF0
102
{ACAD_REACTORS
330
13
102
}
330
13
100
AcDbDictionary
281
1
3
CANNOSCALE
350
FF3
3
CMLEADERSTYLE
350
FF2
3
CTABLESTYLE
350
FF1
3
DIMASSOC
350
FF6
3
INDEXCTL
350
FF5
3
SORTENTS
350
FF4
3
XCLIPFRAME
350
1078
0
XRECORD
5
107F
102
{ACAD_REACTORS
330
13
102
}
330
13
100
AcDbXrecord
280
1
1
DWGPROPS COOKIE
2

3

4

6

7

8

9

300
=
301
=
302
=
303
=
304
=
305
=
306
=
307
=
308
=
309
=
40
0.0
41
0.0
42
0.0
1

90
0
0
XRECORD
5
F10015
102
{ACAD_REACTORS
330
F10014
102
}
330
F10014
100
AcDbXrecord
280
1
40
48458.0
1
\A1;100
0
XRECORD
5
F1001A
102
{ACAD_REACTORS
330
F10019
102
}
330
F10019
100
AcDbXrecord
280
1
40
48458.0
1
\A1;50
0
XRECORD
5
F10024
102
{ACAD_REACTORS
330
F10023
102
}
330
F10023
100
AcDbXrecord
280
1
40
48458.0
1
\A1;20
0
XRECORD
5
F10029
102
{ACAD_REACTORS
330
F10028
102
}
330
F10028
100
AcDbXrecord
280
1
40
48458.0
1
\A1;150
0
XRECORD
5
F1000B
102
{ACAD_REACTORS
330
F1000A
102
}
330
F1000A
100
AcDbXrecord
280
1
40
48458.0
1
\A1;R3.5
0
XRECORD
5
F10006
102
{ACAD_REACTORS
330
F10005
102
}
330
F10005
100
AcDbXrecord
280
1
40
48458.0
1
\A1;16
0
XRECORD
5
F10010
102
{ACAD_REACTORS
330
F1000F
102
}
330
F1000F
100
AcDbXrecord
280
1
40
48458.0
1
\A1;15.4
0
LAYOUT
5
FD1
102
{ACAD_XDICTIONARY
360
10A9
102
}
102
{ACAD_REACTORS
330
FCF
102
}
330
FCF
100
AcDbPlotSettings
1

2
Microsoft XPS Document Writer
4

6

40
0.0
41
0.0
42
0.0
43
0.0
44
0.0
45
0.0
46
0.0
47
0.0
48
0.0
49
0.0
140
0.0
141
0.0
142
1.0
143
1.0
70
688
72
0
73
0
74
5
7

75
16
147
1.0
148
0.0
149
0.0
100
AcDbLayout
1
Layout1
70
1
71
1
10
0.0
20
0.0
11
12.0
21
9.0
12
0.0
22
0.0
32
0.0
14
1.000000000000000E+20
24
1.000000000000000E+20
34
1.000000000000000E+20
15
-1.000000000000000E+20
25
-1.000000000000000E+20
35
-1.000000000000000E+20
146
0.0
13
0.0
23
0.0
33
0.0
16
1.0
26
0.0
36
0.0
17
0.0
27
1.0
37
0.0
76
0
330
25D
0
LAYOUT
5
FD0
102
{ACAD_XDICTIONARY
360
10A7
102
}
102
{ACAD_REACTORS
330
FCF
102
}
330
FCF
100
AcDbPlotSettings
1

2
Microsoft XPS Document Writer
4

6

40
0.0
41
0.0
42
0.0
43
0.0
44
0.0
45
0.0
46
0.0
47
0.0
48
0.0
49
0.0
140
0.0
141
0.0
142
1.0
143
1.0
70
1712
72
0
73
0
74
0
7

75
0
147
1.0
148
0.0
149
0.0
100
AcDbLayout
1
Model
70
1
71
0
10
0.0
20
0.0
11
12.0
21
9.0
12
0.0
22
0.0
32
0.0
14
0.0
24
0.0
34
0.0
15
0.0
25
0.0
35
0.0
146
0.0
13
0.0
23
0.0
33
0.0
16
1.0
26
0.0
36
0.0
17
0.0
27
1.0
37
0.0
76
0
330
261
331
26B
0
MATERIAL
5
F83
102
{ACAD_XDICTIONARY
360
F84
102
}
102
{ACAD_REACTORS
330
F7A
102
}
330
F7A
100
AcDbMaterial
1
ByBlock
72
0
43
0.0208333333333333
43
0.0
43
0.0
43
0.0
43
0.0
43
0.0208333333333333
43
0.0
43
0.0
43
0.0
43
0.0
43
1.0
43
0.0
43
0.0
43
0.0
43
0.0
43
1.0
77
0
47
0.0208333333333333
47
0.0
47
0.0
47
0.0
47
0.0
47
0.0208333333333333
47
0.0
47
0.0
47
0.0
47
0.0
47
1.0
47
0.0
47
0.0
47
0.0
47
0.0
47
1.0
171
0
49
0.0208333333333333
49
0.0
49
0.0
49
0.0
49
0.0
49
0.0208333333333333
49
0.0
49
0.0
49
0.0
49
0.0
49
1.0
49
0.0
49
0.0
49
0.0
49
0.0
49
1.0
175
0
142
0.0208333333333333
142
0.0
142
0.0
142
0.0
142
0.0
142
0.0208333333333333
142
0.0
142
0.0
142
0.0
142
0.0
142
1.0
142
0.0
142
0.0
142
0.0
142
0.0
142
1.0
179
0
144
0.0208333333333333
144
0.0
144
0.0
144
0.0
144
0.0
144
0.0208333333333333
144
0.0
144
0.0
144
0.0
144
0.0
144
1.0
144
0.0
144
0.0
144
0.0
144
0.0
144
1.0
147
0.0208333333333333
147
0.0
147
0.0
147
0.0
147
0.0
147
0.0208333333333333
147
0.0
147
0.0
147
0.0
147
0.0
147
1.0
147
0.0
147
0.0
147
0.0
147
0.0
147
1.0
0
MATERIAL
5
F7B
102
{ACAD_XDICTIONARY
360
F7C
102
}
102
{ACAD_REACTORS
330
F7A
102
}
330
F7A
100
AcDbMaterial
1
ByLayer
72
0
43
0.0208333333333333
43
0.0
43
0.0
43
0.0
43
0.0
43
0.0208333333333333
43
0.0
43
0.0
43
0.0
43
0.0
43
1.0
43
0.0
43
0.0
43
0.0
43
0.0
43
1.0
77
0
47
0.0208333333333333
47
0.0
47
0.0
47
0.0
47
0.0
47
0.0208333333333333
47
0.0
47
0.0
47
0.0
47
0.0
47
1.0
47
0.0
47
0.0
47
0.0
47
0.0
47
1.0
171
0
49
0.0208333333333333
49
0.0
49
0.0
49
0.0
49
0.0
49
0.0208333333333333
49
0.0
49
0.0
49
0.0
49
0.0
49
1.0
49
0.0
49
0.0
49
0.0
49
0.0
49
1.0
175
0
142
0.0208333333333333
142
0.0
142
0.0
142
0.0
142
0.0
142
0.0208333333333333
142
0.0
142
0.0
142
0.0
142
0.0
142
1.0
142
0.0
142
0.0
142
0.0
142
0.0
142
1.0
179
0
144
0.0208333333333333
144
0.0
144
0.0
144
0.0
144
0.0
144
0.0208333333333333
144
0.0
144
0.0
144
0.0
144
0.0
144
1.0
144
0.0
144
0.0
144
0.0
144
0.0
144
1.0
147
0.0208333333333333
147
0.0
147
0.0
147
0.0
147
0.0
147
0.0208333333333333
147
0.0
147
0.0
147
0.0
147
0.0
147
1.0
147
0.0
147
0.0
147
0.0
147
0.0
147
1.0
0
MATERIAL
5
F8B
102
{ACAD_XDICTIONARY
360
F8C
102
}
102
{ACAD_REACTORS
330
F7A
102
}
330
F7A
100
AcDbMaterial
1
Global
72
0
43
0.0208333333333333
43
0.0
43
0.0
43
0.0
43
0.0
43
0.0208333333333333
43
0.0
43
0.0
43
0.0
43
0.0
43
1.0
43
0.0
43
0.0
43
0.0
43
0.0
43
1.0
77
0
47
0.0208333333333333
47
0.0
47
0.0
47
0.0
47
0.0
47
0.0208333333333333
47
0.0
47
0.0
47
0.0
47
0.0
47
1.0
47
0.0
47
0.0
47
0.0
47
0.0
47
1.0
171
0
49
0.0208333333333333
49
0.0
49
0.0
49
0.0
49
0.0
49
0.0208333333333333
49
0.0
49
0.0
49
0.0
49
0.0
49
1.0
49
0.0
49
0.0
49
0.0
49
0.0
49
1.0
175
0
142
0.0208333333333333
142
0.0
142
0.0
142
0.0
142
0.0
142
0.0208333333333333
142
0.0
142
0.0
142
0.0
142
0.0
142
1.0
142
0.0
142
0.0
142
0.0
142
0.0
142
1.0
179
0
144
0.0208333333333333
144
0.0
144
0.0
144
0.0
144
0.0
144
0.0208333333333333
144
0.0
144
0.0
144
0.0
144
0.0
144
1.0
144
0.0
144
0.0
144
0.0
144
0.0
144
1.0
147
0.0208333333333333
147
0.0
147
0.0
147
0.0
147
0.0
147
0.0208333333333333
147
0.0
147
0.0
147
0.0
147
0.0
147
1.0
147
0.0
147
0.0
147
0.0
147
0.0
147
1.0
0
MLEADERSTYLE
5
FCE
102
{ACAD_REACTORS
330
FCD
102
}
330
FCD
100
AcDbMLeaderStyle
170
2
171
1
172
0
90
2
40
0.0
41
0.0
173
1
91
-1056964608
340
256
92
-2
290
1
42
0.09
291
1
43
0.36
3
Standard
44
0.18
300

342
253
174
1
178
6
175
1
176
0
93
-1056964608
45
0.18
292
0
297
0
46
0.18
94
-1056964608
47
1.0
49
1.0
140
1.0
293
1
141
0.0
294
1
177
0
142
1.0
295
0
296
0
143
0.125
1001
ACAD_MLEADERVER
1070
2
0
MLINESTYLE
5
FAA
102
{ACAD_REACTORS
330
16
102
}
330
16
100
AcDbMlineStyle
2
STANDARD
70
0
3

62
256
51
90.0
52
90.0
71
2
49
0.5
62
256
6
BYLAYER
49
-0.5
62
256
6
BYLAYER
0
ACDBPLACEHOLDER
5
19
102
{ACAD_REACTORS
330
18
102
}
330
18
0
SCALE
5
FAC
102
{ACAD_REACTORS
330
FAB
102
}
330
FAB
100
AcDbScale
70
0
300
1:1
140
1.0
141
1.0
290
1
0
SCALE
5
FAD
102
{ACAD_REACTORS
330
FAB
102
}
330
FAB
100
AcDbScale
70
0
300
1:2
140
1.0
141
2.0
290
0
0
SCALE
5
FAE
102
{ACAD_REACTORS
330
FAB
102
}
330
FAB
100
AcDbScale
70
0
300
1:4
140
1.0
141
4.0
290
0
0
SCALE
5
FAF
102
{ACAD_REACTORS
330
FAB
102
}
330
FAB
100
AcDbScale
70
0
300
1:5
140
1.0
141
5.0
290
0
0
SCALE
5
FB0
102
{ACAD_REACTORS
330
FAB
102
}
330
FAB
100
AcDbScale
70
0
300
1:8
140
1.0
141
8.0
290
0
0
SCALE
5
FB1
102
{ACAD_REACTORS
330
FAB
102
}
330
FAB
100
AcDbScale
70
0
300
1:10
140
1.0
141
10.0
290
0
0
SCALE
5
FB2
102
{ACAD_REACTORS
330
FAB
102
}
330
FAB
100
AcDbScale
70
0
300
1:16
140
1.0
141
16.0
290
0
0
SCALE
5
FB3
102
{ACAD_REACTORS
330
FAB
102
}
330
FAB
100
AcDbScale
70
0
300
1:20
140
1.0
141
20.0
290
0
0
SCALE
5
FB4
102
{ACAD_REACTORS
330
FAB
102
}
330
FAB
100
AcDbScale
70
0
300
1:30
140
1.0
141
30.0
290
0
0
SCALE
5
FB5
102
{ACAD_REACTORS
330
FAB
102
}
330
FAB
100
AcDbScale
70
0
300
1:40
140
1.0
141
40.0
290
0
0
SCALE
5
FB6
102
{ACAD_REACTORS
330
FAB
102
}
330
FAB
100
AcDbScale
70
0
300
1:50
140
1.0
141
50.0
290
0
0
SCALE
5
FB7
102
{ACAD_REACTORS
330
FAB
102
}
330
FAB
100
AcDbScale
70
0
300
1:100
140
1.0
141
100.0
290
0
0
SCALE
5
FB8
102
{ACAD_REACTORS
330
FAB
102
}
330
FAB
100
AcDbScale
70
0
300
2:1
140
2.0
141
1.0
290
0
0
SCALE
5
FB9
102
{ACAD_REACTORS
330
FAB
102
}
330
FAB
100
AcDbScale
70
0
300
4:1
140
4.0
141
1.0
290
0
0
SCALE
5
FBA
102
{ACAD_REACTORS
330
FAB
102
}
330
FAB
100
AcDbScale
70
0
300
8:1
140
8.0
141
1.0
290
0
0
SCALE
5
FBB
102
{ACAD_REACTORS
330
FAB
102
}
330
FAB
100
AcDbScale
70
0
300
10:1
140
10.0
141
1.0
290
0
0
SCALE
5
FBC
102
{ACAD_REACTORS
330
FAB
102
}
330
FAB
100
AcDbScale
70
0
300
100:1
140
100.0
141
1.0
290
0
0
SCALE
5
FBD
102
{ACAD_REACTORS
330
FAB
102
}
330
FAB
100
AcDbScale
70
0
300
1/128" = 1'-0"
140
0.0078125
141
12.0
290
0
0
SCALE
5
FBE
102
{ACAD_REACTORS
330
FAB
102
}
330
FAB
100
AcDbScale
70
0
300
1/64" = 1'-0"
140
0.015625
141
12.0
290
0
0
SCALE
5
FBF
102
{ACAD_REACTORS
330
FAB
102
}
330
FAB
100
AcDbScale
70
0
300
1/32" = 1'-0"
140
0.03125
141
12.0
290
0
0
SCALE
5
FC0
102
{ACAD_REACTORS
330
FAB
102
}
330
FAB
100
AcDbScale
70
0
300
1/16" = 1'-0"
140
0.0625
141
12.0
290
0
0
SCALE
5
FC1
102
{ACAD_REACTORS
330
FAB
102
}
330
FAB
100
AcDbScale
70
0
300
3/32" = 1'-0"
140
0.09375
141
12.0
290
0
0
SCALE
5
FC2
102
{ACAD_REACTORS
330
FAB
102
}
330
FAB
100
AcDbScale
70
0
300
1/8" = 1'-0"
140
0.125
141
12.0
290
0
0
SCALE
5
FC3
102
{ACAD_REACTORS
330
FAB
102
}
330
FAB
100
AcDbScale
70
0
300
3/16" = 1'-0"
140
0.1875
141
12.0
290
0
0
SCALE
5
FC4
102
{ACAD_REACTORS
330
FAB
102
}
330
FAB
100
AcDbScale
70
0
300
1/4" = 1'-0"
140
0.25
141
12.0
290
0
0
SCALE
5
FC5
102
{ACAD_REACTORS
330
FAB
102
}
330
FAB
100
AcDbScale
70
0
300
3/8" = 1'-0"
140
0.375
141
12.0
290
0
0
SCALE
5
FC6
102
{ACAD_REACTORS
330
FAB
102
}
330
FAB
100
AcDbScale
70
0
300
1/2" = 1'-0"
140
0.5
141
12.0
290
0
0
SCALE
5
FC7
102
{ACAD_REACTORS
330
FAB
102
}
330
FAB
100
AcDbScale
70
0
300
3/4" = 1'-0"
140
0.75
141
12.0
290
0
0
SCALE
5
FC8
102
{ACAD_REACTORS
330
FAB
102
}
330
FAB
100
AcDbScale
70
0
300
1" = 1'-0"
140
1.0
141
12.0
290
0
0
SCALE
5
FC9
102
{ACAD_REACTORS
330
FAB
102
}
330
FAB
100
AcDbScale
70
0
300
1-1/2" = 1'-0"
140
1.5
141
12.0
290
0
0
SCALE
5
FCA
102
{ACAD_REACTORS
330
FAB
102
}
330
FAB
100
AcDbScale
70
0
300
3" = 1'-0"
140
3.0
141
12.0
290
0
0
SCALE
5
FCB
102
{ACAD_REACTORS
330
FAB
102
}
330
FAB
100
AcDbScale
70
0
300
6" = 1'-0"
140
6.0
141
12.0
290
0
0
SCALE
5
FCC
102
{ACAD_REACTORS
330
FAB
102
}
330
FAB
100
AcDbScale
70
0
300
1'-0" = 1'-0"
140
12.0
141
12.0
290
0
0
TABLESTYLE
5
FA9
102
{ACAD_XDICTIONARY
360
FF8
102
}
102
{ACAD_REACTORS
330
FA8
102
}
330
FA8
100
AcDbTableStyle
3
Standard
70
0
71
0
40
0.06
41
0.06
280
0
281
0
7
Standard
140
0.18
170
2
62
0
63
7
283
0
274
-2
284
1
64
0
275
-2
285
1
65
0
276
-2
286
1
66
0
277
-2
287
1
67
0
278
-2
288
1
68
0
279
-2
289
1
69
0
7
Standard
140
0.25
170
5
62
0
63
7
283
0
274
-2
284
1
64
0
275
-2
285
1
65
0
276
-2
286
1
66
0
277
-2
287
1
67
0
278
-2
288
1
68
0
279
-2
289
1
69
0
7
Standard
140
0.18
170
5
62
0
63
7
283
0
274
-2
284
1
64
0
275
-2
285
1
65
0
276
-2
286
1
66
0
277
-2
287
1
67
0
278
-2
288
1
68
0
279
-2
289
1
69
0
0
VISUALSTYLE
5
F99
102
{ACAD_XDICTIONARY
360
108A
102
}
102
{ACAD_REACTORS
330
F93
102
}
330
F93
100
AcDbVisualStyle
2

70
4
71
0
72
2
73
0
90
0
40
-0.6
41
-30.0
62
5
63
7
74
1
91
4
64
7
65
257
75
1
175
1
42
1.0
92
0
66
257
43
1.0
76
1
77
6
78
2
67
7
79
5
170
0
171
0
290
0
174
0
93
1
44
0.0
173
0
291
0
45
0.0
1001
ACAD
1000
AcDbSavedByObjectVersion
1070
0
0
VISUALSTYLE
5
F9B
102
{ACAD_XDICTIONARY
360
108E
102
}
102
{ACAD_REACTORS
330
F93
102
}
330
F93
100
AcDbVisualStyle
2

70
6
71
1
72
2
73
2
90
0
40
-0.6
41
-30.0
62
5
63
7
74
2
91
2
64
7
65
257
75
2
175
1
42
179.0
92
0
66
257
43
1.0
76
1
77
6
78
2
67
7
79
3
170
0
171
0
290
0
174
0
93
1
44
0.0
173
0
291
0
45
0.0
1001
ACAD
1000
AcDbSavedByObjectVersion
1070
0
0
VISUALSTYLE
5
F9A
102
{ACAD_XDICTIONARY
360
108C
102
}
102
{ACAD_REACTORS
330
F93
102
}
330
F93
100
AcDbVisualStyle
2

70
5
71
0
72
2
73
0
90
0
40
-0.6
41
-30.0
62
5
63
7
74
1
91
4
64
7
65
257
75
1
175
1
42
1.0
92
0
66
257
43
1.0
76
1
77
6
78
2
67
7
79
5
170
0
171
0
290
0
174
0
93
1
44
0.0
173
0
291
0
45
0.0
1001
ACAD
1000
AcDbSavedByObjectVersion
1070
0
0
VISUALSTYLE
5
F98
102
{ACAD_XDICTIONARY
360
1088
102
}
102
{ACAD_REACTORS
330
F93
102
}
330
F93
100
AcDbVisualStyle
2

70
7
71
1
72
0
73
1
90
0
40
-0.6
41
-30.0
62
5
63
7
74
0
91
4
64
7
65
257
75
1
175
1
42
1.0
92
8
66
7
43
1.0
76
1
77
6
78
2
67
7
79
5
170
0
171
0
290
0
174
0
93
1
44
0.0
173
0
291
1
45
0.0
1001
ACAD
1000
AcDbSavedByObjectVersion
1070
0
0
VISUALSTYLE
5
F9F
102
{ACAD_XDICTIONARY
360
1096
102
}
102
{ACAD_REACTORS
330
F93
102
}
330
F93
100
AcDbVisualStyle
2

70
12
71
2
72
2
73
0
90
0
40
-0.6
41
-30.0
62
5
63
7
74
1
91
4
64
7
65
257
75
1
175
1
42
1.0
92
8
66
7
43
1.0
76
1
77
6
78
2
67
7
79
5
170
0
171
0
290
0
174
0
93
1
44
50.0
173
0
291
1
45
0.0
1001
ACAD
1000
AcDbSavedByObjectVersion
1070
0
0
VISUALSTYLE
5
FA3
102
{ACAD_XDICTIONARY
360
109E
102
}
102
{ACAD_REACTORS
330
F93
102
}
330
F93
100
AcDbVisualStyle
2

70
16
71
2
72
2
73
3
90
0
40
-0.6
41
-30.0
62
5
63
8
74
1
91
4
64
7
65
257
75
1
175
1
42
1.0
92
8
66
8
43
1.0
76
1
77
6
78
2
67
7
79
5
170
0
171
0
290
0
174
0
93
1
44
0.0
173
0
291
1
45
0.0
1001
ACAD
1000
AcDbSavedByObjectVersion
1070
0
0
VISUALSTYLE
5
F9C
102
{ACAD_XDICTIONARY
360
1090
102
}
102
{ACAD_REACTORS
330
F93
102
}
330
F93
100
AcDbVisualStyle
2

70
9
71
3
72
2
73
0
90
0
40
-0.6
41
-30.0
62
5
63
7
74
2
91
2
64
7
65
257
75
1
175
1
42
179.0
92
8
66
7
43
1.0
76
1
77
6
78
2
67
7
79
3
170
0
171
0
290
0
174
0
93
1
44
0.0
173
0
291
0
45
0.0
1001
ACAD
1000
AcDbSavedByObjectVersion
1070
0
0
VISUALSTYLE
5
F9E
102
{ACAD_XDICTIONARY
360
1094
102
}
102
{ACAD_REACTORS
330
F93
102
}
330
F93
100
AcDbVisualStyle
2

70
11
71
2
72
2
73
0
90
0
40
-0.6
41
-30.0
62
5
63
7
74
1
91
4
64
7
65
257
75
1
175
1
42
1.0
92
8
66
7
43
1.0
76
1
77
6
78
2
67
7
79
5
170
0
171
0
290
0
174
0
93
1
44
-50.0
173
0
291
1
45
0.0
1001
ACAD
1000
AcDbSavedByObjectVersion
1070
0
0
VISUALSTYLE
5
FA6
102
{ACAD_XDICTIONARY
360
10A4
102
}
102
{ACAD_REACTORS
330
F93
102
}
330
F93
100
AcDbVisualStyle
2

70
22
71
2
72
2
73
0
90
0
40
-0.6
41
-30.0
62
5
63
7
74
1
91
4
64
7
65
257
75
1
175
1
42
1.0
92
8
66
7
43
1.0
76
1
77
6
78
2
67
7
79
5
170
0
171
0
290
0
174
0
93
1
44
0.0
173
0
291
1
45
0.0
1001
ACAD
1000
AcDbSavedByObjectVersion
1070
0
0
VISUALSTYLE
5
FA2
102
{ACAD_XDICTIONARY
360
109C
102
}
102
{ACAD_REACTORS
330
F93
102
}
330
F93
100
AcDbVisualStyle
2

70
15
71
2
72
2
73
0
90
0
40
-0.6
41
-30.0
62
5
63
7
74
1
91
4
64
7
65
257
75
1
175
1
42
1.0
92
8
66
7
43
1.0
76
1
77
6
78
2
67
7
79
5
170
0
171
0
290
0
174
0
93
1
44
0.0
173
0
291
1
45
0.0
1001
ACAD
1000
AcDbSavedByObjectVersion
1070
0
0
VISUALSTYLE
5
F94
102
{ACAD_XDICTIONARY
360
1080
102
}
102
{ACAD_REACTORS
330
F93
102
}
330
F93
100
AcDbVisualStyle
2

70
0
71
2
72
1
73
1
90
2
40
-0.6
41
30.0
62
5
63
7
74
0
91
4
64
7
65
257
75
1
175
1
42
1.0
92
8
66
7
43
1.0
76
1
77
6
78
2
67
7
79
5
170
0
171
0
290
0
174
0
93
13
44
0.0
173
0
291
1
45
0.0
1001
ACAD
1000
AcDbSavedByObjectVersion
1070
0
0
VISUALSTYLE
5
F95
102
{ACAD_XDICTIONARY
360
1082
102
}
102
{ACAD_REACTORS
330
F93
102
}
330
F93
100
AcDbVisualStyle
2

70
1
71
2
72
1
73
1
90
2
40
-0.6
41
30.0
62
5
63
7
74
1
91
4
64
7
65
257
75
1
175
1
42
1.0
92
0
66
257
43
1.0
76
1
77
6
78
2
67
7
79
5
170
0
171
0
290
0
174
0
93
13
44
0.0
173
0
291
1
45
0.0
1001
ACAD
1000
AcDbSavedByObjectVersion
1070
0
0
VISUALSTYLE
5
F96
102
{ACAD_XDICTIONARY
360
1084
102
}
102
{ACAD_REACTORS
330
F93
102
}
330
F93
100
AcDbVisualStyle
2

70
2
71
2
72
2
73
1
90
2
40
-0.6
41
30.0
62
5
63
7
74
0
91
4
64
7
65
257
75
1
175
1
42
1.0
92
0
66
7
43
1.0
76
1
77
6
78
2
67
7
79
5
170
0
171
0
290
0
174
0
93
13
44
0.0
173
0
291
1
45
0.0
1001
ACAD
1000
AcDbSavedByObjectVersion
1070
0
0
VISUALSTYLE
5
F97
102
{ACAD_XDICTIONARY
360
1086
102
}
102
{ACAD_REACTORS
330
F93
102
}
330
F93
100
AcDbVisualStyle
2

70
3
71
2
72
2
73
1
90
2
40
-0.6
41
30.0
62
5
63
7
74
1
91
4
64
7
65
257
75
1
175
1
42
1.0
92
0
66
257
43
1.0
76
1
77
6
78
2
67
7
79
5
170
0
171
0
290
0
174
0
93
13
44
0.0
173
0
291
1
45
0.0
1001
ACAD
1000
AcDbSavedByObjectVersion
1070
0
0
VISUALSTYLE
5
FA4
102
{ACAD_XDICTIONARY
360
10A0
102
}
102
{ACAD_REACTORS
330
F93
102
}
330
F93
100
AcDbVisualStyle
2

70
20
71
2
72
2
73
0
90
0
40
-0.6
41
-30.0
62
5
63
7
74
1
91
4
64
7
65
257
75
1
175
1
42
1.0
92
10
66
7
43
1.0
76
1
77
6
78
2
67
7
79
5
170
0
171
0
290
0
174
0
93
1
44
0.0
173
0
291
1
45
0.0
1001
ACAD
1000
AcDbSavedByObjectVersion
1070
0
0
VISUALSTYLE
5
FA1
102
{ACAD_XDICTIONARY
360
109A
102
}
102
{ACAD_REACTORS
330
F93
102
}
330
F93
100
AcDbVisualStyle
2

70
14
71
2
72
2
73
0
90
0
40
-0.6
41
-30.0
62
5
63
7
74
1
91
4
64
7
65
257
75
7
175
7
42
1.0
92
8
66
7
43
1.0
76
1
77
6
78
2
67
7
79
5
170
0
171
0
290
0
174
0
93
1
44
0.0
173
0
291
1
45
0.0
1001
ACAD
1000
AcDbSavedByObjectVersion
1070
0
0
VISUALSTYLE
5
FA5
102
{ACAD_XDICTIONARY
360
10A2
102
}
102
{ACAD_REACTORS
330
F93
102
}
330
F93
100
AcDbVisualStyle
2

70
21
71
2
72
2
73
0
90
0
40
-0.6
41
-30.0
62
5
63
7
74
1
91
4
64
7
65
257
75
1
175
1
42
1.0
92
9
66
7
43
1.0
76
1
77
6
78
2
67
7
79
5
170
0
171
0
290
0
174
0
93
1
44
0.0
173
0
291
1
45
0.0
1001
ACAD
1000
AcDbSavedByObjectVersion
1070
0
0
VISUALSTYLE
5
F9D
102
{ACAD_XDICTIONARY
360
1092
102
}
102
{ACAD_REACTORS
330
F93
102
}
330
F93
100
AcDbVisualStyle
2

70
8
71
2
72
2
73
0
90
0
40
-0.6
41
-30.0
62
5
63
7
74
1
91
0
64
7
65
257
75
1
175
1
42
1.0
92
8
66
8
43
1.0
76
1
77
6
78
2
67
7
79
5
170
0
171
0
290
0
174
0
93
13
44
0.0
173
0
291
0
45
0.0
1001
ACAD
1000
AcDbSavedByObjectVersion
1070
0
0
VISUALSTYLE
5
FA0
102
{ACAD_XDICTIONARY
360
1098
102
}
102
{ACAD_REACTORS
330
F93
102
}
330
F93
100
AcDbVisualStyle
2

70
13
71
2
72
2
73
0
90
0
40
-0.6
41
-30.0
62
5
63
7
74
1
91
4
64
7
65
257
75
1
175
1
42
1.0
92
12
66
7
43
1.0
76
1
77
6
78
2
67
7
79
5
170
0
171
0
290
0
174
0
93
1
44
0.0
173
0
291
1
45
0.0
1001
ACAD
1000
AcDbSavedByObjectVersion
1070
0
0
DICTIONARYVAR
5
FF3
102
{ACAD_REACTORS
330
FF0
102
}
330
FF0
100
DictionaryVariables
280
0
1
1:1
0
DICTIONARYVAR
5
FF2
102
{ACAD_REACTORS
330
FF0
102
}
330
FF0
100
DictionaryVariables
280
0
1
STANDARD
0
DICTIONARYVAR
5
FF1
102
{ACAD_REACTORS
330
FF0
102
}
330
FF0
100
DictionaryVariables
280
0
1
STANDARD
0
DICTIONARYVAR
5
FF6
102
{ACAD_REACTORS
330
FF0
102
}
330
FF0
100
DictionaryVariables
280
0
1
1
0
DICTIONARYVAR
5
FF5
102
{ACAD_REACTORS
330
FF0
102
}
330
FF0
100
DictionaryVariables
280
0
1
0
0
DICTIONARYVAR
5
FF4
102
{ACAD_REACTORS
330
FF0
102
}
330
FF0
100
DictionaryVariables
280
0
1
127
0
DICTIONARYVAR
5
1078
102
{ACAD_REACTORS
330
FF0
102
}
330
FF0
100
DictionaryVariables
280
0
1
2
0
DICTIONARY
5
10A9
330
FD1
100
AcDbDictionary
280
1
281
1
3
ACAD_XREC_ROUNDTRIP
360
10AA
0
DICTIONARY
5
10A7
330
FD0
100
AcDbDictionary
280
1
281
1
3
ACAD_XREC_ROUNDTRIP
360
10A8
0
DICTIONARY
5
F84
330
F83
100
AcDbDictionary
280
1
281
1
3
ACAD_XREC_ROUNDTRIP
360
FFF
3
BUMPTILE
360
F86
3
DIFFUSETILE
360
F85
3
OPACITYTILE
360
F89
3
REFLECTIONTILE
360
F88
3
REFRACTIONTILE
360
F8A
3
SPECULARTILE
360
F87
0
DICTIONARY
5
F7C
330
F7B
100
AcDbDictionary
280
1
281
1
3
ACAD_XREC_ROUNDTRIP
360
FFE
3
BUMPTILE
360
F7E
3
DIFFUSETILE
360
F7D
3
OPACITYTILE
360
F81
3
REFLECTIONTILE
360
F80
3
REFRACTIONTILE
360
F82
3
SPECULARTILE
360
F7F
0
DICTIONARY
5
F8C
330
F8B
100
AcDbDictionary
280
1
281
1
3
ACAD_XREC_ROUNDTRIP
360
1000
3
BUMPTILE
360
F8E
3
DIFFUSETILE
360
F8D
3
OPACITYTILE
360
F91
3
REFLECTIONTILE
360
F90
3
REFRACTIONTILE
360
F92
3
SPECULARTILE
360
F8F
0
DICTIONARY
5
FF8
330
FA9
100
AcDbDictionary
280
1
281
1
3
ACAD_ROUNDTRIP_2008_TABLESTYLE_CELLSTYLEMAP
360
1079
3
ACAD_XREC_ROUNDTRIP
360
10A6
0
DICTIONARY
5
108A
330
F99
100
AcDbDictionary
280
1
281
1
3
ACAD_XREC_ROUNDTRIP
360
108B
0
DICTIONARY
5
108E
330
F9B
100
AcDbDictionary
280
1
281
1
3
ACAD_XREC_ROUNDTRIP
360
108F
0
DICTIONARY
5
108C
330
F9A
100
AcDbDictionary
280
1
281
1
3
ACAD_XREC_ROUNDTRIP
360
108D
0
DICTIONARY
5
1088
330
F98
100
AcDbDictionary
280
1
281
1
3
ACAD_XREC_ROUNDTRIP
360
1089
0
DICTIONARY
5
1096
330
F9F
100
AcDbDictionary
280
1
281
1
3
ACAD_XREC_ROUNDTRIP
360
1097
0
DICTIONARY
5
109E
330
FA3
100
AcDbDictionary
280
1
281
1
3
ACAD_XREC_ROUNDTRIP
360
109F
0
DICTIONARY
5
1090
330
F9C
100
AcDbDictionary
280
1
281
1
3
ACAD_XREC_ROUNDTRIP
360
1091
0
DICTIONARY
5
1094
330
F9E
100
AcDbDictionary
280
1
281
1
3
ACAD_XREC_ROUNDTRIP
360
1095
0
DICTIONARY
5
10A4
330
FA6
100
AcDbDictionary
280
1
281
1
3
ACAD_XREC_ROUNDTRIP
360
10A5
0
DICTIONARY
5
109C
330
FA2
100
AcDbDictionary
280
1
281
1
3
ACAD_XREC_ROUNDTRIP
360
109D
0
DICTIONARY
5
1080
330
F94
100
AcDbDictionary
280
1
281
1
3
ACAD_XREC_ROUNDTRIP
360
1081
0
DICTIONARY
5
1082
330
F95
100
AcDbDictionary
280
1
281
1
3
ACAD_XREC_ROUNDTRIP
360
1083
0
DICTIONARY
5
1084
330
F96
100
AcDbDictionary
280
1
281
1
3
ACAD_XREC_ROUNDTRIP
360
1085
0
DICTIONARY
5
1086
330
F97
100
AcDbDictionary
280
1
281
1
3
ACAD_XREC_ROUNDTRIP
360
1087
0
DICTIONARY
5
10A0
330
FA4
100
AcDbDictionary
280
1
281
1
3
ACAD_XREC_ROUNDTRIP
360
10A1
0
DICTIONARY
5
109A
330
FA1
100
AcDbDictionary
280
1
281
1
3
ACAD_XREC_ROUNDTRIP
360
109B
0
DICTIONARY
5
10A2
330
FA5
100
AcDbDictionary
280
1
281
1
3
ACAD_XREC_ROUNDTRIP
360
10A3
0
DICTIONARY
5
1092
330
F9D
100
AcDbDictionary
280
1
281
1
3
ACAD_XREC_ROUNDTRIP
360
1093
0
DICTIONARY
5
1098
330
FA0
100
AcDbDictionary
280
1
281
1
3
ACAD_XREC_ROUNDTRIP
360
1099
0
XRECORD
5
10AA
102
{ACAD_REACTORS
330
10A9
102
}
330
10A9
100
AcDbXrecord
280
1
102
SHADEPLOT
70
0
102
SHADEPLOTRESLEVEL
70
2
102
SHADEPLOTCUSTOMDPI
70
300
0
XRECORD
5
10A8
102
{ACAD_REACTORS
330
10A7
102
}
330
10A7
100
AcDbXrecord
280
1
102
SHADEPLOT
70
0
102
SHADEPLOTRESLEVEL
70
2
102
SHADEPLOTCUSTOMDPI
70
300
0
XRECORD
5
FFF
102
{ACAD_REACTORS
330
F84
102
}
330
F84
100
AcDbXrecord
280
1
102
MATERIAL
148
0.0
149
0.0
149
0.0
93
0
94
127
282
0
72
0
77
0
171
0
175
0
179
0
273
0
0
XRECORD
5
F86
102
{ACAD_REACTORS
330
F84
102
}
330
F84
100
AcDbXrecord
280
1
270
1
271
1
0
XRECORD
5
F85
102
{ACAD_REACTORS
330
F84
102
}
330
F84
100
AcDbXrecord
280
1
270
1
271
1
0
XRECORD
5
F89
102
{ACAD_REACTORS
330
F84
102
}
330
F84
100
AcDbXrecord
280
1
270
1
271
1
0
XRECORD
5
F88
102
{ACAD_REACTORS
330
F84
102
}
330
F84
100
AcDbXrecord
280
1
270
1
271
1
0
XRECORD
5
F8A
102
{ACAD_REACTORS
330
F84
102
}
330
F84
100
AcDbXrecord
280
1
270
1
271
1
0
XRECORD
5
F87
102
{ACAD_REACTORS
330
F84
102
}
330
F84
100
AcDbXrecord
280
1
270
1
271
1
0
XRECORD
5
FFE
102
{ACAD_REACTORS
330
F7C
102
}
330
F7C
100
AcDbXrecord
280
1
102
MATERIAL
148
0.0
149
0.0
149
0.0
93
0
94
127
282
0
72
0
77
0
171
0
175
0
179
0
273
0
0
XRECORD
5
F7E
102
{ACAD_REACTORS
330
F7C
102
}
330
F7C
100
AcDbXrecord
280
1
270
1
271
1
0
XRECORD
5
F7D
102
{ACAD_REACTORS
330
F7C
102
}
330
F7C
100
AcDbXrecord
280
1
270
1
271
1
0
XRECORD
5
F81
102
{ACAD_REACTORS
330
F7C
102
}
330
F7C
100
AcDbXrecord
280
1
270
1
271
1
0
XRECORD
5
F80
102
{ACAD_REACTORS
330
F7C
102
}
330
F7C
100
AcDbXrecord
280
1
270
1
271
1
0
XRECORD
5
F82
102
{ACAD_REACTORS
330
F7C
102
}
330
F7C
100
AcDbXrecord
280
1
270
1
271
1
0
XRECORD
5
F7F
102
{ACAD_REACTORS
330
F7C
102
}
330
F7C
100
AcDbXrecord
280
1
270
1
271
1
0
XRECORD
5
1000
102
{ACAD_REACTORS
330
F8C
102
}
330
F8C
100
AcDbXrecord
280
1
102
MATERIAL
148
0.0
149
0.0
149
0.0
93
0
94
127
282
0
72
0
77
0
171
0
175
0
179
0
273
0
0
XRECORD
5
F8E
102
{ACAD_REACTORS
330
F8C
102
}
330
F8C
100
AcDbXrecord
280
1
270
1
271
1
0
XRECORD
5
F8D
102
{ACAD_REACTORS
330
F8C
102
}
330
F8C
100
AcDbXrecord
280
1
270
1
271
1
0
XRECORD
5
F91
102
{ACAD_REACTORS
330
F8C
102
}
330
F8C
100
AcDbXrecord
280
1
270
1
271
1
0
XRECORD
5
F90
102
{ACAD_REACTORS
330
F8C
102
}
330
F8C
100
AcDbXrecord
280
1
270
1
271
1
0
XRECORD
5
F92
102
{ACAD_REACTORS
330
F8C
102
}
330
F8C
100
AcDbXrecord
280
1
270
1
271
1
0
XRECORD
5
F8F
102
{ACAD_REACTORS
330
F8C
102
}
330
F8C
100
AcDbXrecord
280
1
270
1
271
1
0
CELLSTYLEMAP
5
1079
102
{ACAD_REACTORS
330
FF8
102
}
330
FF8
100
AcDbCellStyleMap
90
3
300
CELLSTYLE
1
TABLEFORMAT_BEGIN
90
5
170
1
91
0
92
32768
62
257
93
1
300
CONTENTFORMAT
1
CONTENTFORMAT_BEGIN
90
0
91
0
92
512
93
0
300

40
0.0
140
1.0
94
5
62
0
340
253
144
0.25
309
CONTENTFORMAT_END
171
1
301
MARGIN
1
CELLMARGIN_BEGIN
40
0.06
40
0.06
40
0.06
40
0.06
40
0.18
40
0.18
309
CELLMARGIN_END
94
6
95
1
302
GRIDFORMAT
1
GRIDFORMAT_BEGIN
90
0
91
1
62
0
92
-2
340
0
93
0
40
0.045
309
GRIDFORMAT_END
95
2
302
GRIDFORMAT
1
GRIDFORMAT_BEGIN
90
0
91
1
62
0
92
-2
340
0
93
0
40
0.045
309
GRIDFORMAT_END
95
4
302
GRIDFORMAT
1
GRIDFORMAT_BEGIN
90
0
91
1
62
0
92
-2
340
0
93
0
40
0.045
309
GRIDFORMAT_END
95
8
302
GRIDFORMAT
1
GRIDFORMAT_BEGIN
90
0
91
1
62
0
92
-2
340
0
93
0
40
0.045
309
GRIDFORMAT_END
95
16
302
GRIDFORMAT
1
GRIDFORMAT_BEGIN
90
0
91
1
62
0
92
-2
340
0
93
0
40
0.045
309
GRIDFORMAT_END
95
32
302
GRIDFORMAT
1
GRIDFORMAT_BEGIN
90
0
91
1
62
0
92
-2
340
0
93
0
40
0.045
309
GRIDFORMAT_END
309
TABLEFORMAT_END
1
CELLSTYLE_BEGIN
90
1
91
1
300
_TITLE
309
CELLSTYLE_END
300
CELLSTYLE
1
TABLEFORMAT_BEGIN
90
5
170
1
91
0
92
0
62
257
93
1
300
CONTENTFORMAT
1
CONTENTFORMAT_BEGIN
90
0
91
0
92
512
93
0
300

40
0.0
140
1.0
94
5
62
0
340
253
144
0.18
309
CONTENTFORMAT_END
171
1
301
MARGIN
1
CELLMARGIN_BEGIN
40
0.06
40
0.06
40
0.06
40
0.06
40
0.18
40
0.18
309
CELLMARGIN_END
94
6
95
1
302
GRIDFORMAT
1
GRIDFORMAT_BEGIN
90
0
91
1
62
0
92
-2
340
0
93
0
40
0.045
309
GRIDFORMAT_END
95
2
302
GRIDFORMAT
1
GRIDFORMAT_BEGIN
90
0
91
1
62
0
92
-2
340
0
93
0
40
0.045
309
GRIDFORMAT_END
95
4
302
GRIDFORMAT
1
GRIDFORMAT_BEGIN
90
0
91
1
62
0
92
-2
340
0
93
0
40
0.045
309
GRIDFORMAT_END
95
8
302
GRIDFORMAT
1
GRIDFORMAT_BEGIN
90
0
91
1
62
0
92
-2
340
0
93
0
40
0.045
309
GRIDFORMAT_END
95
16
302
GRIDFORMAT
1
GRIDFORMAT_BEGIN
90
0
91
1
62
0
92
-2
340
0
93
0
40
0.045
309
GRIDFORMAT_END
95
32
302
GRIDFORMAT
1
GRIDFORMAT_BEGIN
90
0
91
1
62
0
92
-2
340
0
93
0
40
0.045
309
GRIDFORMAT_END
309
TABLEFORMAT_END
1
CELLSTYLE_BEGIN
90
2
91
1
300
_HEADER
309
CELLSTYLE_END
300
CELLSTYLE
1
TABLEFORMAT_BEGIN
90
5
170
1
91
0
92
0
62
257
93
1
300
CONTENTFORMAT
1
CONTENTFORMAT_BEGIN
90
0
91
0
92
512
93
0
300

40
0.0
140
1.0
94
2
62
0
340
253
144
0.18
309
CONTENTFORMAT_END
171
1
301
MARGIN
1
CELLMARGIN_BEGIN
40
0.06
40
0.06
40
0.06
40
0.06
40
0.18
40
0.18
309
CELLMARGIN_END
94
6
95
1
302
GRIDFORMAT
1
GRIDFORMAT_BEGIN
90
0
91
1
62
0
92
-2
340
0
93
0
40
0.045
309
GRIDFORMAT_END
95
2
302
GRIDFORMAT
1
GRIDFORMAT_BEGIN
90
0
91
1
62
0
92
-2
340
0
93
0
40
0.045
309
GRIDFORMAT_END
95
4
302
GRIDFORMAT
1
GRIDFORMAT_BEGIN
90
0
91
1
62
0
92
-2
340
0
93
0
40
0.045
309
GRIDFORMAT_END
95
8
302
GRIDFORMAT
1
GRIDFORMAT_BEGIN
90
0
91
1
62
0
92
-2
340
0
93
0
40
0.045
309
GRIDFORMAT_END
95
16
302
GRIDFORMAT
1
GRIDFORMAT_BEGIN
90
0
91
1
62
0
92
-2
340
0
93
0
40
0.045
309
GRIDFORMAT_END
95
32
302
GRIDFORMAT
1
GRIDFORMAT_BEGIN
90
0
91
1
62
0
92
-2
340
0
93
0
40
0.045
309
GRIDFORMAT_END
309
TABLEFORMAT_END
1
CELLSTYLE_BEGIN
90
3
91
2
300
_DATA
309
CELLSTYLE_END
0
XRECORD
5
10A6
102
{ACAD_REACTORS
330
FF8
102
}
330
FF8
100
AcDbXrecord
280
1
102
ACAD_ROUNDTRIP_PRE2007_TABLESTYLE
90
512
91
0
1

92
512
93
0
2

94
512
95
0
3

0
XRECORD
5
108B
102
{ACAD_REACTORS
330
108A
102
}
330
108A
100
AcDbXrecord
280
1
102
RTVSPropertyOp0
70
1
102
RTVSPropertyOp1
70
1
102
RTVSPropertyOp2
70
1
102
RTVSPropertyOp3
70
1
102
RTVSPropertyOp4
70
1
102
RTVSPropertyOp5
70
1
102
RTVSPropertyOp6
70
1
102
RTVSPropertyOp7
70
1
102
RTVSPropertyOp8
70
1
102
RTVSPropertyOp9
70
1
102
RTVSPropertyOp10
70
1
102
RTVSPropertyOp11
70
1
102
RTVSPropertyOp12
70
1
102
RTVSPropertyOp13
70
1
102
RTVSPropertyOp14
70
1
102
RTVSPropertyOp15
70
1
102
RTVSPropertyOp16
70
1
102
RTVSPropertyOp17
70
1
102
RTVSPropertyOp18
70
1
102
RTVSPropertyOp19
70
1
102
RTVSPropertyOp20
70
1
102
RTVSPropertyOp21
70
1
102
RTVSPropertyOp22
70
1
102
RTVSPropertyOp23
70
1
102
RTVSPropertyOp24
70
1
102
RTVSPropertyOp25
70
1
102
RTVSPropertyOp26
70
1
102
RTVSPropertyOp27
70
1
0
XRECORD
5
108F
102
{ACAD_REACTORS
330
108E
102
}
330
108E
100
AcDbXrecord
280
1
102
RTVSPropertyOp0
70
1
102
RTVSPropertyOp1
70
1
102
RTVSPropertyOp2
70
1
102
RTVSPropertyOp3
70
1
102
RTVSPropertyOp4
70
1
102
RTVSPropertyOp5
70
1
102
RTVSPropertyOp6
70
1
102
RTVSPropertyOp7
70
1
102
RTVSPropertyOp8
70
1
102
RTVSPropertyOp9
70
1
102
RTVSPropertyOp10
70
1
102
RTVSPropertyOp11
70
1
102
RTVSPropertyOp12
70
1
102
RTVSPropertyOp13
70
1
102
RTVSPropertyOp14
70
1
102
RTVSPropertyOp15
70
1
102
RTVSPropertyOp16
70
1
102
RTVSPropertyOp17
70
1
102
RTVSPropertyOp18
70
1
102
RTVSPropertyOp19
70
1
102
RTVSPropertyOp20
70
1
102
RTVSPropertyOp21
70
1
102
RTVSPropertyOp22
70
1
102
RTVSPropertyOp23
70
1
102
RTVSPropertyOp24
70
1
102
RTVSPropertyOp25
70
1
102
RTVSPropertyOp26
70
1
102
RTVSPropertyOp27
70
1
0
XRECORD
5
108D
102
{ACAD_REACTORS
330
108C
102
}
330
108C
100
AcDbXrecord
280
1
102
RTVSPropertyOp0
70
1
102
RTVSPropertyOp1
70
1
102
RTVSPropertyOp2
70
1
102
RTVSPropertyOp3
70
1
102
RTVSPropertyOp4
70
1
102
RTVSPropertyOp5
70
1
102
RTVSPropertyOp6
70
1
102
RTVSPropertyOp7
70
1
102
RTVSPropertyOp8
70
1
102
RTVSPropertyOp9
70
1
102
RTVSPropertyOp10
70
1
102
RTVSPropertyOp11
70
1
102
RTVSPropertyOp12
70
1
102
RTVSPropertyOp13
70
1
102
RTVSPropertyOp14
70
1
102
RTVSPropertyOp15
70
1
102
RTVSPropertyOp16
70
1
102
RTVSPropertyOp17
70
1
102
RTVSPropertyOp18
70
1
102
RTVSPropertyOp19
70
1
102
RTVSPropertyOp20
70
1
102
RTVSPropertyOp21
70
1
102
RTVSPropertyOp22
70
1
102
RTVSPropertyOp23
70
1
102
RTVSPropertyOp24
70
1
102
RTVSPropertyOp25
70
1
102
RTVSPropertyOp26
70
1
102
RTVSPropertyOp27
70
1
0
XRECORD
5
1089
102
{ACAD_REACTORS
330
1088
102
}
330
1088
100
AcDbXrecord
280
1
102
RTVSPropertyOp0
70
1
102
RTVSPropertyOp1
70
1
102
RTVSPropertyOp2
70
1
102
RTVSPropertyOp3
70
1
102
RTVSPropertyOp4
70
1
102
RTVSPropertyOp5
70
1
102
RTVSPropertyOp6
70
1
102
RTVSPropertyOp7
70
1
102
RTVSPropertyOp8
70
1
102
RTVSPropertyOp9
70
1
102
RTVSPropertyOp10
70
1
102
RTVSPropertyOp11
70
1
102
RTVSPropertyOp12
70
1
102
RTVSPropertyOp13
70
1
102
RTVSPropertyOp14
70
1
102
RTVSPropertyOp15
70
1
102
RTVSPropertyOp16
70
1
102
RTVSPropertyOp17
70
1
102
RTVSPropertyOp18
70
1
102
RTVSPropertyOp19
70
1
102
RTVSPropertyOp20
70
1
102
RTVSPropertyOp21
70
1
102
RTVSPropertyOp22
70
1
102
RTVSPropertyOp23
70
1
102
RTVSPropertyOp24
70
1
102
RTVSPropertyOp25
70
1
102
RTVSPropertyOp26
70
1
102
RTVSPropertyOp27
70
1
0
XRECORD
5
1097
102
{ACAD_REACTORS
330
1096
102
}
330
1096
100
AcDbXrecord
280
1
102
RTVSPropertyOp0
70
1
102
RTVSPropertyOp1
70
1
102
RTVSPropertyOp2
70
1
102
RTVSPropertyOp3
70
1
102
RTVSPropertyOp4
70
1
102
RTVSPropertyOp5
70
1
102
RTVSPropertyOp6
70
1
102
RTVSPropertyOp7
70
1
102
RTVSPropertyOp8
70
1
102
RTVSPropertyOp9
70
1
102
RTVSPropertyOp10
70
1
102
RTVSPropertyOp11
70
1
102
RTVSPropertyOp12
70
1
102
RTVSPropertyOp13
70
1
102
RTVSPropertyOp14
70
1
102
RTVSPropertyOp15
70
1
102
RTVSPropertyOp16
70
1
102
RTVSPropertyOp17
70
1
102
RTVSPropertyOp18
70
1
102
RTVSPropertyOp19
70
1
102
RTVSPropertyOp20
70
1
102
RTVSPropertyOp21
70
1
102
RTVSPropertyOp22
70
1
102
RTVSPropertyOp23
70
1
102
RTVSPropertyOp24
70
1
102
RTVSPropertyOp25
70
1
102
RTVSPropertyOp26
70
1
102
RTVSPropertyOp27
70
1
0
XRECORD
5
109F
102
{ACAD_REACTORS
330
109E
102
}
330
109E
100
AcDbXrecord
280
1
102
RTVSPropertyOp0
70
1
102
RTVSPropertyOp1
70
1
102
RTVSPropertyOp2
70
1
102
RTVSPropertyOp3
70
1
102
RTVSPropertyOp4
70
1
102
RTVSPropertyOp5
70
1
102
RTVSPropertyOp6
70
1
102
RTVSPropertyOp7
70
1
102
RTVSPropertyOp8
70
1
102
RTVSPropertyOp9
70
1
102
RTVSPropertyOp10
70
1
102
RTVSPropertyOp11
70
1
102
RTVSPropertyOp12
70
1
102
RTVSPropertyOp13
70
1
102
RTVSPropertyOp14
70
1
102
RTVSPropertyOp15
70
1
102
RTVSPropertyOp16
70
1
102
RTVSPropertyOp17
70
1
102
RTVSPropertyOp18
70
1
102
RTVSPropertyOp19
70
1
102
RTVSPropertyOp20
70
1
102
RTVSPropertyOp21
70
1
102
RTVSPropertyOp22
70
1
102
RTVSPropertyOp23
70
1
102
RTVSPropertyOp24
70
1
102
RTVSPropertyOp25
70
1
102
RTVSPropertyOp26
70
1
102
RTVSPropertyOp27
70
1
0
XRECORD
5
1091
102
{ACAD_REACTORS
330
1090
102
}
330
1090
100
AcDbXrecord
280
1
102
RTVSPropertyOp0
70
1
102
RTVSPropertyOp1
70
1
102
RTVSPropertyOp2
70
1
102
RTVSPropertyOp3
70
1
102
RTVSPropertyOp4
70
1
102
RTVSPropertyOp5
70
1
102
RTVSPropertyOp6
70
1
102
RTVSPropertyOp7
70
1
102
RTVSPropertyOp8
70
1
102
RTVSPropertyOp9
70
1
102
RTVSPropertyOp10
70
1
102
RTVSPropertyOp11
70
1
102
RTVSPropertyOp12
70
1
102
RTVSPropertyOp13
70
1
102
RTVSPropertyOp14
70
1
102
RTVSPropertyOp15
70
1
102
RTVSPropertyOp16
70
1
102
RTVSPropertyOp17
70
1
102
RTVSPropertyOp18
70
1
102
RTVSPropertyOp19
70
1
102
RTVSPropertyOp20
70
1
102
RTVSPropertyOp21
70
1
102
RTVSPropertyOp22
70
1
102
RTVSPropertyOp23
70
1
102
RTVSPropertyOp24
70
1
102
RTVSPropertyOp25
70
1
102
RTVSPropertyOp26
70
1
102
RTVSPropertyOp27
70
1
0
XRECORD
5
1095
102
{ACAD_REACTORS
330
1094
102
}
330
1094
100
AcDbXrecord
280
1
102
RTVSPropertyOp0
70
1
102
RTVSPropertyOp1
70
1
102
RTVSPropertyOp2
70
1
102
RTVSPropertyOp3
70
1
102
RTVSPropertyOp4
70
1
102
RTVSPropertyOp5
70
1
102
RTVSPropertyOp6
70
1
102
RTVSPropertyOp7
70
1
102
RTVSPropertyOp8
70
1
102
RTVSPropertyOp9
70
1
102
RTVSPropertyOp10
70
1
102
RTVSPropertyOp11
70
1
102
RTVSPropertyOp12
70
1
102
RTVSPropertyOp13
70
1
102
RTVSPropertyOp14
70
1
102
RTVSPropertyOp15
70
1
102
RTVSPropertyOp16
70
1
102
RTVSPropertyOp17
70
1
102
RTVSPropertyOp18
70
1
102
RTVSPropertyOp19
70
1
102
RTVSPropertyOp20
70
1
102
RTVSPropertyOp21
70
1
102
RTVSPropertyOp22
70
1
102
RTVSPropertyOp23
70
1
102
RTVSPropertyOp24
70
1
102
RTVSPropertyOp25
70
1
102
RTVSPropertyOp26
70
1
102
RTVSPropertyOp27
70
1
0
XRECORD
5
10A5
102
{ACAD_REACTORS
330
10A4
102
}
330
10A4
100
AcDbXrecord
280
1
102
RTVSPropertyOp0
70
0
102
RTVSPropertyOp1
70
0
102
RTVSPropertyOp2
70
0
102
RTVSPropertyOp3
70
0
102
RTVSPropertyOp4
70
0
102
RTVSPropertyOp5
70
0
102
RTVSPropertyOp6
70
0
102
RTVSPropertyOp7
70
0
102
RTVSPropertyOp8
70
0
102
RTVSPropertyOp9
70
0
102
RTVSPropertyOp10
70
0
102
RTVSPropertyOp11
70
0
102
RTVSPropertyOp12
70
0
102
RTVSPropertyOp13
70
0
102
RTVSPropertyOp14
70
2
102
RTVSPropertyOp15
70
0
102
RTVSPropertyOp16
70
0
102
RTVSPropertyOp17
70
0
102
RTVSPropertyOp18
70
0
102
RTVSPropertyOp19
70
0
102
RTVSPropertyOp20
70
0
102
RTVSPropertyOp21
70
0
102
RTVSPropertyOp22
70
0
102
RTVSPropertyOp23
70
0
102
RTVSPropertyOp24
70
0
102
RTVSPropertyOp25
70
0
102
RTVSPropertyOp26
70
0
102
RTVSPropertyOp27
70
0
0
XRECORD
5
109D
102
{ACAD_REACTORS
330
109C
102
}
330
109C
100
AcDbXrecord
280
1
102
RTVSPropertyOp0
70
1
102
RTVSPropertyOp1
70
1
102
RTVSPropertyOp2
70
1
102
RTVSPropertyOp3
70
1
102
RTVSPropertyOp4
70
1
102
RTVSPropertyOp5
70
1
102
RTVSPropertyOp6
70
1
102
RTVSPropertyOp7
70
1
102
RTVSPropertyOp8
70
1
102
RTVSPropertyOp9
70
1
102
RTVSPropertyOp10
70
1
102
RTVSPropertyOp11
70
1
102
RTVSPropertyOp12
70
1
102
RTVSPropertyOp13
70
1
102
RTVSPropertyOp14
70
1
102
RTVSPropertyOp15
70
1
102
RTVSPropertyOp16
70
1
102
RTVSPropertyOp17
70
1
102
RTVSPropertyOp18
70
1
102
RTVSPropertyOp19
70
1
102
RTVSPropertyOp20
70
1
102
RTVSPropertyOp21
70
1
102
RTVSPropertyOp22
70
1
102
RTVSPropertyOp23
70
1
102
RTVSPropertyOp24
70
1
102
RTVSPropertyOp25
70
1
102
RTVSPropertyOp26
70
1
102
RTVSPropertyOp27
70
1
0
XRECORD
5
1081
102
{ACAD_REACTORS
330
1080
102
}
330
1080
100
AcDbXrecord
280
1
102
RTVSPropertyOp0
70
1
102
RTVSPropertyOp1
70
1
102
RTVSPropertyOp2
70
1
102
RTVSPropertyOp3
70
1
102
RTVSPropertyOp4
70
1
102
RTVSPropertyOp5
70
1
102
RTVSPropertyOp6
70
1
102
RTVSPropertyOp7
70
1
102
RTVSPropertyOp8
70
1
102
RTVSPropertyOp9
70
1
102
RTVSPropertyOp10
70
1
102
RTVSPropertyOp11
70
1
102
RTVSPropertyOp12
70
1
102
RTVSPropertyOp13
70
1
102
RTVSPropertyOp14
70
1
102
RTVSPropertyOp15
70
1
102
RTVSPropertyOp16
70
1
102
RTVSPropertyOp17
70
1
102
RTVSPropertyOp18
70
1
102
RTVSPropertyOp19
70
1
102
RTVSPropertyOp20
70
1
102
RTVSPropertyOp21
70
1
102
RTVSPropertyOp22
70
1
102
RTVSPropertyOp23
70
1
102
RTVSPropertyOp24
70
1
102
RTVSPropertyOp25
70
1
102
RTVSPropertyOp26
70
1
102
RTVSPropertyOp27
70
1
0
XRECORD
5
1083
102
{ACAD_REACTORS
330
1082
102
}
330
1082
100
AcDbXrecord
280
1
102
RTVSPropertyOp0
70
1
102
RTVSPropertyOp1
70
1
102
RTVSPropertyOp2
70
1
102
RTVSPropertyOp3
70
1
102
RTVSPropertyOp4
70
1
102
RTVSPropertyOp5
70
1
102
RTVSPropertyOp6
70
1
102
RTVSPropertyOp7
70
1
102
RTVSPropertyOp8
70
1
102
RTVSPropertyOp9
70
1
102
RTVSPropertyOp10
70
1
102
RTVSPropertyOp11
70
1
102
RTVSPropertyOp12
70
1
102
RTVSPropertyOp13
70
1
102
RTVSPropertyOp14
70
1
102
RTVSPropertyOp15
70
1
102
RTVSPropertyOp16
70
1
102
RTVSPropertyOp17
70
1
102
RTVSPropertyOp18
70
1
102
RTVSPropertyOp19
70
1
102
RTVSPropertyOp20
70
1
102
RTVSPropertyOp21
70
1
102
RTVSPropertyOp22
70
1
102
RTVSPropertyOp23
70
1
102
RTVSPropertyOp24
70
1
102
RTVSPropertyOp25
70
1
102
RTVSPropertyOp26
70
1
102
RTVSPropertyOp27
70
1
0
XRECORD
5
1085
102
{ACAD_REACTORS
330
1084
102
}
330
1084
100
AcDbXrecord
280
1
102
RTVSPropertyOp0
70
1
102
RTVSPropertyOp1
70
1
102
RTVSPropertyOp2
70
1
102
RTVSPropertyOp3
70
1
102
RTVSPropertyOp4
70
1
102
RTVSPropertyOp5
70
1
102
RTVSPropertyOp6
70
1
102
RTVSPropertyOp7
70
1
102
RTVSPropertyOp8
70
1
102
RTVSPropertyOp9
70
1
102
RTVSPropertyOp10
70
1
102
RTVSPropertyOp11
70
1
102
RTVSPropertyOp12
70
1
102
RTVSPropertyOp13
70
1
102
RTVSPropertyOp14
70
1
102
RTVSPropertyOp15
70
1
102
RTVSPropertyOp16
70
1
102
RTVSPropertyOp17
70
1
102
RTVSPropertyOp18
70
1
102
RTVSPropertyOp19
70
1
102
RTVSPropertyOp20
70
1
102
RTVSPropertyOp21
70
1
102
RTVSPropertyOp22
70
1
102
RTVSPropertyOp23
70
1
102
RTVSPropertyOp24
70
1
102
RTVSPropertyOp25
70
1
102
RTVSPropertyOp26
70
1
102
RTVSPropertyOp27
70
1
0
XRECORD
5
1087
102
{ACAD_REACTORS
330
1086
102
}
330
1086
100
AcDbXrecord
280
1
102
RTVSPropertyOp0
70
1
102
RTVSPropertyOp1
70
1
102
RTVSPropertyOp2
70
1
102
RTVSPropertyOp3
70
1
102
RTVSPropertyOp4
70
1
102
RTVSPropertyOp5
70
1
102
RTVSPropertyOp6
70
1
102
RTVSPropertyOp7
70
1
102
RTVSPropertyOp8
70
1
102
RTVSPropertyOp9
70
1
102
RTVSPropertyOp10
70
1
102
RTVSPropertyOp11
70
1
102
RTVSPropertyOp12
70
1
102
RTVSPropertyOp13
70
1
102
RTVSPropertyOp14
70
1
102
RTVSPropertyOp15
70
1
102
RTVSPropertyOp16
70
1
102
RTVSPropertyOp17
70
1
102
RTVSPropertyOp18
70
1
102
RTVSPropertyOp19
70
1
102
RTVSPropertyOp20
70
1
102
RTVSPropertyOp21
70
1
102
RTVSPropertyOp22
70
1
102
RTVSPropertyOp23
70
1
102
RTVSPropertyOp24
70
1
102
RTVSPropertyOp25
70
1
102
RTVSPropertyOp26
70
1
102
RTVSPropertyOp27
70
1
0
XRECORD
5
10A1
102
{ACAD_REACTORS
330
10A0
102
}
330
10A0
100
AcDbXrecord
280
1
102
RTVSPropertyOp0
70
0
102
RTVSPropertyOp1
70
0
102
RTVSPropertyOp2
70
0
102
RTVSPropertyOp3
70
0
102
RTVSPropertyOp4
70
0
102
RTVSPropertyOp5
70
0
102
RTVSPropertyOp6
70
0
102
RTVSPropertyOp7
70
0
102
RTVSPropertyOp8
70
0
102
RTVSPropertyOp9
70
0
102
RTVSPropertyOp10
70
0
102
RTVSPropertyOp11
70
0
102
RTVSPropertyOp12
70
0
102
RTVSPropertyOp13
70
0
102
RTVSPropertyOp14
70
2
102
RTVSPropertyOp15
70
0
102
RTVSPropertyOp16
70
0
102
RTVSPropertyOp17
70
0
102
RTVSPropertyOp18
70
0
102
RTVSPropertyOp19
70
0
102
RTVSPropertyOp20
70
0
102
RTVSPropertyOp21
70
0
102
RTVSPropertyOp22
70
0
102
RTVSPropertyOp23
70
0
102
RTVSPropertyOp24
70
0
102
RTVSPropertyOp25
70
0
102
RTVSPropertyOp26
70
0
102
RTVSPropertyOp27
70
0
0
XRECORD
5
109B
102
{ACAD_REACTORS
330
109A
102
}
330
109A
100
AcDbXrecord
280
1
102
RTVSPropertyOp0
70
1
102
RTVSPropertyOp1
70
1
102
RTVSPropertyOp2
70
1
102
RTVSPropertyOp3
70
1
102
RTVSPropertyOp4
70
1
102
RTVSPropertyOp5
70
1
102
RTVSPropertyOp6
70
1
102
RTVSPropertyOp7
70
1
102
RTVSPropertyOp8
70
1
102
RTVSPropertyOp9
70
1
102
RTVSPropertyOp10
70
1
102
RTVSPropertyOp11
70
1
102
RTVSPropertyOp12
70
1
102
RTVSPropertyOp13
70
1
102
RTVSPropertyOp14
70
1
102
RTVSPropertyOp15
70
1
102
RTVSPropertyOp16
70
1
102
RTVSPropertyOp17
70
1
102
RTVSPropertyOp18
70
1
102
RTVSPropertyOp19
70
1
102
RTVSPropertyOp20
70
1
102
RTVSPropertyOp21
70
1
102
RTVSPropertyOp22
70
1
102
RTVSPropertyOp23
70
1
102
RTVSPropertyOp24
70
1
102
RTVSPropertyOp25
70
1
102
RTVSPropertyOp26
70
1
102
RTVSPropertyOp27
70
1
0
XRECORD
5
10A3
102
{ACAD_REACTORS
330
10A2
102
}
330
10A2
100
AcDbXrecord
280
1
102
RTVSPropertyOp0
70
0
102
RTVSPropertyOp1
70
0
102
RTVSPropertyOp2
70
0
102
RTVSPropertyOp3
70
0
102
RTVSPropertyOp4
70
0
102
RTVSPropertyOp5
70
0
102
RTVSPropertyOp6
70
0
102
RTVSPropertyOp7
70
0
102
RTVSPropertyOp8
70
0
102
RTVSPropertyOp9
70
0
102
RTVSPropertyOp10
70
0
102
RTVSPropertyOp11
70
0
102
RTVSPropertyOp12
70
0
102
RTVSPropertyOp13
70
0
102
RTVSPropertyOp14
70
2
102
RTVSPropertyOp15
70
0
102
RTVSPropertyOp16
70
0
102
RTVSPropertyOp17
70
0
102
RTVSPropertyOp18
70
0
102
RTVSPropertyOp19
70
0
102
RTVSPropertyOp20
70
0
102
RTVSPropertyOp21
70
0
102
RTVSPropertyOp22
70
0
102
RTVSPropertyOp23
70
0
102
RTVSPropertyOp24
70
0
102
RTVSPropertyOp25
70
0
102
RTVSPropertyOp26
70
0
102
RTVSPropertyOp27
70
0
0
XRECORD
5
1093
102
{ACAD_REACTORS
330
1092
102
}
330
1092
100
AcDbXrecord
280
1
102
RTVSPropertyOp0
70
1
102
RTVSPropertyOp1
70
1
102
RTVSPropertyOp2
70
1
102
RTVSPropertyOp3
70
1
102
RTVSPropertyOp4
70
1
102
RTVSPropertyOp5
70
1
102
RTVSPropertyOp6
70
1
102
RTVSPropertyOp7
70
1
102
RTVSPropertyOp8
70
1
102
RTVSPropertyOp9
70
1
102
RTVSPropertyOp10
70
1
102
RTVSPropertyOp11
70
1
102
RTVSPropertyOp12
70
1
102
RTVSPropertyOp13
70
1
102
RTVSPropertyOp14
70
1
102
RTVSPropertyOp15
70
1
102
RTVSPropertyOp16
70
1
102
RTVSPropertyOp17
70
1
102
RTVSPropertyOp18
70
1
102
RTVSPropertyOp19
70
1
102
RTVSPropertyOp20
70
1
102
RTVSPropertyOp21
70
1
102
RTVSPropertyOp22
70
1
102
RTVSPropertyOp23
70
1
102
RTVSPropertyOp24
70
1
102
RTVSPropertyOp25
70
1
102
RTVSPropertyOp26
70
1
102
RTVSPropertyOp27
70
1
0
XRECORD
5
1099
102
{ACAD_REACTORS
330
1098
102
}
330
1098
100
AcDbXrecord
280
1
102
RTVSPropertyOp0
70
1
102
RTVSPropertyOp1
70
1
102
RTVSPropertyOp2
70
1
102
RTVSPropertyOp3
70
1
102
RTVSPropertyOp4
70
1
102
RTVSPropertyOp5
70
1
102
RTVSPropertyOp6
70
1
102
RTVSPropertyOp7
70
1
102
RTVSPropertyOp8
70
1
102
RTVSPropertyOp9
70
1
102
RTVSPropertyOp10
70
1
102
RTVSPropertyOp11
70
1
102
RTVSPropertyOp12
70
1
102
RTVSPropertyOp13
70
1
102
RTVSPropertyOp14
70
1
102
RTVSPropertyOp15
70
1
102
RTVSPropertyOp16
70
1
102
RTVSPropertyOp17
70
1
102
RTVSPropertyOp18
70
1
102
RTVSPropertyOp19
70
1
102
RTVSPropertyOp20
70
1
102
RTVSPropertyOp21
70
1
102
RTVSPropertyOp22
70
1
102
RTVSPropertyOp23
70
1
102
RTVSPropertyOp24
70
1
102
RTVSPropertyOp25
70
1
102
RTVSPropertyOp26
70
1
102
RTVSPropertyOp27
70
1
0
ENDSEC
0
EOF
