0
SECTION
2
HEADER
9
$ACADVER
1
AC1015
9
$ACADMAINTVER
70
20
9
$DWGCODEPAGE
3
ANSI_1252
9
$INSBASE
10
0.0
20
0.0
30
0.0
9
$EXTMIN
10
-150.000000000000
20
-105.000000000000
30
0.0
9
$EXTMAX
10
150.000000000000
20
105.000000000000
30
0.0
9
$LIMMIN
10
0.0
20
0.0
9
$LIMMAX
10
12.0
20
9.0
9
$ORTHOMODE
70
0
9
$REGENMODE
70
1
9
$FILLMODE
70
1
9
$QTEXTMODE
70
0
9
$MIRRTEXT
70
1
9
$LTSCALE
40
1.0
9
$ATTMODE
70
1
9
$TEXTSIZE
40
0.2
9
$TRACEWID
40
0.05
9
$TEXTSTYLE
7
Standard
9
$CLAYER
8
0
9
$CELTYPE
6
ByLayer
9
$CECOLOR
62
256
9
$CELTSCALE
40
1.0
9
$DISPSILH
70
0
9
$DIMSCALE
40
1.0
9
$DIMASZ
40
2.5
9
$DIMEXO
40
0.625
9
$DIMDLI
40
0.38
9
$DIMRND
40
0.0
9
$DIMDLE
40
0.0
9
$DIMEXE
40
1.25
9
$DIMTP
40
0.0
9
$DIMTM
40
0.000000001
9
$DIMTXT
40
2.5
9
$DIMCEN
40
0.09
9
$DIMTSZ
40
0.0
9
$DIMTOL
70
1
9
$DIMLIM
70
0
9
$DIMTIH
70
0
9
$DIMTOH
70
0
9
$DIMSE1
70
0
9
$DIMSE2
70
0
9
$DIMTAD
70
1
9
$DIMZIN
70
0
9
$DIMBLK
1
VDDIM_DEFAULT
9
$DIMASO
70
1
9
$DIMSHO
70
1
9
$DIMPOST
1

9
$DIMAPOST
1

9
$DIMALT
70
0
9
$DIMALTD
70
2
9
$DIMALTF
40
25.4
9
$DIMLFAC
40
1.00000000000000
9
$DIMTOFL
70
0
9
$DIMTVP
40
0.0
9
$DIMTIX
70
0
9
$DIMSOXD
70
0
9
$DIMSAH
70
0
9
$DIMBLK1
1

9
$DIMBLK2
1

9
$DIMSTYLE
2
BEM-ISBE
9
$DIMCLRD
70
0
9
$DIMCLRE
70
0
9
$DIMCLRT
70
0
9
$DIMTFAC
40
0.5
9
$DIMGAP
40
0.625
9
$DIMJUST
70
0
9
$DIMSD1
70
0
9
$DIMSD2
70
0
9
$DIMTOLJ
70
1
9
$DIMTZIN
70
0
9
$DIMALTZ
70
0
9
$DIMALTTZ
70
0
9
$DIMUPT
70
0
9
$DIMDEC
70
3
9
$DIMTDEC
70
3
9
$DIMALTU
70
2
9
$DIMALTTD
70
2
9
$DIMTXSTY
7
Standard
9
$DIMAUNIT
70
0
9
$DIMADEC
70
3
9
$DIMALTRND
40
0.0
9
$DIMAZIN
70
0
9
$DIMDSEP
70
46
9
$DIMATFIT
70
3
9
$DIMFRAC
70
0
9
$DIMLDRBLK
1

9
$DIMLUNIT
70
2
9
$DIMLWD
70
-2
9
$DIMLWE
70
-2
9
$DIMTMOVE
70
0
9
$LUNITS
70
2
9
$LUPREC
70
4
9
$SKETCHINC
40
0.1
9
$FILLETRAD
40
0.5
9
$AUNITS
70
0
9
$AUPREC
70
0
9
$MENU
1
.
9
$ELEVATION
40
0.0
9
$PELEVATION
40
0.0
9
$THICKNESS
40
0.0
9
$LIMCHECK
70
0
9
$CHAMFERA
40
0.5
9
$CHAMFERB
40
0.5
9
$CHAMFERC
40
1.0
9
$CHAMFERD
40
0.0
9
$SKPOLY
70
0
9
$TDCREATE
40
0.0
9
$TDUCREATE
40
0.0
9
$TDUPDATE
40
0.0
9
$TDUUPDATE
40
0.0
9
$TDINDWG
40
0.0
9
$TDUSRTIMER
40
0.0
9
$USRTIMER
70
1
9
$ANGBASE
50
0.0
9
$ANGDIR
70
0
9
$PDMODE
70
0
9
$PDSIZE
40
0.0
9
$PLINEWID
40
0.0
9
$SPLFRAME
70
0
9
$SPLINETYPE
70
6
9
$SPLINESEGS
70
8
9
$HANDSEED
5
10AB
9
$SURFTAB1
70
6
9
$SURFTAB2
70
6
9
$SURFTYPE
70
6
9
$SURFU
70
6
9
$SURFV
70
6
9
$UCSBASE
2

9
$UCSNAME
2

9
$UCSORG
10
0.0
20
0.0
30
0.0
9
$UCSXDIR
10
1.0
20
0.0
30
0.0
9
$UCSYDIR
10
0.0
20
1.0
30
0.0
9
$UCSORTHOREF
2

9
$UCSORTHOVIEW
70
0
9
$UCSORGTOP
10
0.0
20
0.0
30
0.0
9
$UCSORGBOTTOM
10
0.0
20
0.0
30
0.0
9
$UCSORGLEFT
10
0.0
20
0.0
30
0.0
9
$UCSORGRIGHT
10
0.0
20
0.0
30
0.0
9
$UCSORGFRONT
10
0.0
20
0.0
30
0.0
9
$UCSORGBACK
10
0.0
20
0.0
30
0.0
9
$PUCSBASE
2

9
$PUCSNAME
2

9
$PUCSORG
10
0.0
20
0.0
30
0.0
9
$PUCSXDIR
10
1.0
20
0.0
30
0.0
9
$PUCSYDIR
10
0.0
20
1.0
30
0.0
9
$PUCSORTHOREF
2

9
$PUCSORTHOVIEW
70
0
9
$PUCSORGTOP
10
0.0
20
0.0
30
0.0
9
$PUCSORGBOTTOM
10
0.0
20
0.0
30
0.0
9
$PUCSORGLEFT
10
0.0
20
0.0
30
0.0
9
$PUCSORGRIGHT
10
0.0
20
0.0
30
0.0
9
$PUCSORGFRONT
10
0.0
20
0.0
30
0.0
9
$PUCSORGBACK
10
0.0
20
0.0
30
0.0
9
$USERI1
70
0
9
$USERI2
70
0
9
$USERI3
70
0
9
$USERI4
70
0
9
$USERI5
70
0
9
$USERR1
40
0.0
9
$USERR2
40
0.0
9
$USERR3
40
0.0
9
$USERR4
40
0.0
9
$USERR5
40
0.0
9
$WORLDVIEW
70
1
9
$SHADEDGE
70
3
9
$SHADEDIF
70
70
9
$TILEMODE
70
1
9
$MAXACTVP
70
64
9
$PINSBASE
10
0.0
20
0.0
30
0.0
9
$PLIMCHECK
70
0
9
$PEXTMIN
10
1.000000000000000E+20
20
1.000000000000000E+20
30
1.000000000000000E+20
9
$PEXTMAX
10
-1.000000000000000E+20
20
-1.000000000000000E+20
30
-1.000000000000000E+20
9
$PLIMMIN
10
0.0
20
0.0
9
$PLIMMAX
10
12.0
20
9.0
9
$UNITMODE
70
0
9
$VISRETAIN
70
1
9
$PLINEGEN
70
0
9
$PSLTSCALE
70
1
9
$TREEDEPTH
70
3020
9
$CMLSTYLE
2
Standard
9
$CMLJUST
70
0
9
$CMLSCALE
40
1.0
9
$PROXYGRAPHICS
70
1
9
$MEASUREMENT
70
0
9
$CELWEIGHT
370
-1
9
$ENDCAPS
280
0
9
$JOINSTYLE
280
0
9
$LWDISPLAY
290
0
9
$INSUNITS
70
4
9
$HYPERLINKBASE
1

9
$STYLESHEET
1

9
$XEDIT
290
1
9
$CEPSNTYPE
380
0
9
$PSTYLEMODE
290
0
9
$FINGERPRINTGUID
2
{FAEB1C30-E019-11D5-929B-00C0DF256EC4}
9
$VERSIONGUID
2
{04C5C4E4-4947-4D90-8812-D401569E61F7}
9
$EXTNAMES
290
1
9
$PSVPSCALE
40
0.0
9
$OLESTARTUP
290
0
0
ENDSEC
0
SECTION
2
TABLES
0
TABLE
2
VPORT
5
24A
330
0
100
AcDbSymbolTable
70
1
0
VPORT
5
26B
330
24A
100
AcDbSymbolTableRecord
100
AcDbViewportTableRecord
2
*Active
70
0
10
0.0
20
0.0
11
1.0
21
1.0
12
0.000000000000000
22
0.000000000000000
13
0.0
23
0.0
14
10.0
24
10.0
15
10.0
25
10.0
16
0.0
26
0.0
36
1.0
17
0.0
27
0.0
37
0.0
40
210.000000000000
41
1.42857142857143
42
1.0
43
0.0
44
0.0
50
0.0
51
0.0000000000007958
71
0
72
100
73
1
74
3
75
0
76
0
77
0
78
1
281
0
65
1
110
0.0
120
0.0
130
0.0
111
1.0
121
0.0
131
0.0
112
0.0
122
1.0
132
0.0
79
0
146
0.0
0
ENDTAB
0
TABLE
2
LTYPE
5
247
330
0
100
AcDbSymbolTable
70
25
0
LTYPE
5
256
330
247
100
AcDbSymbolTableRecord
100
AcDbLinetypeTableRecord
2
ByBlock
70
0
3

72
65
73
0
40
0.0
0
LTYPE
5
257
330
247
100
AcDbSymbolTableRecord
100
AcDbLinetypeTableRecord
2
ByLayer
70
0
3

72
65
73
0
40
0.0
0
LTYPE
5
258
330
247
100
AcDbSymbolTableRecord
100
AcDbLinetypeTableRecord
2
Continuous
70
0
3
Solid line
72
65
73
0
40
0.0
0
LTYPE
5
273
330
247
100
AcDbSymbolTableRecord
100
AcDbLinetypeTableRecord
2
CENTER
70
0
3
Center ____ _ ____ _ ____ _ ____ _ ____ _ ____
72
65
73
4
40
2.0
49
1.25
74
0
49
-0.25
74
0
49
0.25
74
0
49
-0.25
74
0
0
LTYPE
5
274
330
247
100
AcDbSymbolTableRecord
100
AcDbLinetypeTableRecord
2
DASHDOT
70
0
3
Dashdot __ . __ . __ . __ . __ . __ . __ . __
72
65
73
4
40
1.0
49
0.5
74
0
49
-0.25
74
0
49
0.0
74
0
49
-0.25
74
0
0
LTYPE
5
275
330
247
100
AcDbSymbolTableRecord
100
AcDbLinetypeTableRecord
2
DASHED
70
0
3
Dashed __ __ __ __ __ __ __ __ __ __ __ __ __ _
72
65
73
2
40
0.75
49
0.5
74
0
49
-0.25
74
0
0
LTYPE
5
276
330
247
100
AcDbSymbolTableRecord
100
AcDbLinetypeTableRecord
2
HIDDEN
70
0
3
Hidden __ __ __ __ __ __ __ __ __ __ __ __ __ __
72
65
73
2
40
0.375
49
0.25
74
0
49
-0.125
74
0
0
LTYPE
5
277
330
247
100
AcDbSymbolTableRecord
100
AcDbLinetypeTableRecord
2
HIDDEN2
70
0
3
Hidden2 _ _ _ _ _ _ _ _ _ _ _ _ _ _ _ _ _
72
65
73
2
40
0.1875
49
0.125
74
0
49
-0.0625
74
0
0
LTYPE
5
278
330
247
100
AcDbSymbolTableRecord
100
AcDbLinetypeTableRecord
2
BORDER
70
0
3
Border __ __ . __ __ . __ __ . __ __ . __ __ .
72
65
73
6
40
1.75
49
0.5
74
0
49
-0.25
74
0
49
0.5
74
0
49
-0.25
74
0
49
0.0
74
0
49
-0.25
74
0
0
LTYPE
5
279
330
247
100
AcDbSymbolTableRecord
100
AcDbLinetypeTableRecord
2
BORDER2
70
0
3
Border2 __.__.__.__.__.__.__.__.__.__.__.
72
65
73
6
40
0.875
49
0.25
74
0
49
-0.125
74
0
49
0.25
74
0
49
-0.125
74
0
49
0.0
74
0
49
-0.125
74
0
0
LTYPE
5
27A
330
247
100
AcDbSymbolTableRecord
100
AcDbLinetypeTableRecord
2
BORDERX2
70
0
3
Borderx2  ____  ____  .  ____  ____  .  ___
72
65
73
6
40
3.5
49
1.0
74
0
49
-0.5
74
0
49
1.0
74
0
49
-0.5
74
0
49
0.0
74
0
49
-0.5
74
0
0
LTYPE
5
27B
330
247
100
AcDbSymbolTableRecord
100
AcDbLinetypeTableRecord
2
CENTER2
70
0
3
Center2  ___ _ ___ _ ___ _ ___ _ ___ _ ___
72
65
73
4
40
1.125
49
0.75
74
0
49
-0.125
74
0
49
0.125
74
0
49
-0.125
74
0
0
LTYPE
5
27C
330
247
100
AcDbSymbolTableRecord
100
AcDbLinetypeTableRecord
2
CENTERX2
70
0
3
Centerx2  ________  __  ________  __  _____
72
65
73
4
40
4.0
49
2.5
74
0
49
-0.5
74
0
49
0.5
74
0
49
-0.5
74
0
0
LTYPE
5
27D
330
247
100
AcDbSymbolTableRecord
100
AcDbLinetypeTableRecord
2
DASHDOT2
70
0
3
Dashdot2  _._._._._._._._._._._._._._._.
72
65
73
4
40
0.5
49
0.25
74
0
49
-0.125
74
0
49
0.0
74
0
49
-0.125
74
0
0
LTYPE
5
27E
330
247
100
AcDbSymbolTableRecord
100
AcDbLinetypeTableRecord
2
DASHDOTX2
70
0
3
Dashdotx2 ____  .  ____  .  ____  .  ___
72
65
73
4
40
2.0
49
1.0
74
0
49
-0.5
74
0
49
0.0
74
0
49
-0.5
74
0
0
LTYPE
5
27F
330
247
100
AcDbSymbolTableRecord
100
AcDbLinetypeTableRecord
2
DASHED2
70
0
3
Dashed2 _ _ _ _ _ _ _ _ _ _ _ _ _ _ _ _ _
72
65
73
2
40
0.375
49
0.25
74
0
49
-0.125
74
0
0
LTYPE
5
280
330
247
100
AcDbSymbolTableRecord
100
AcDbLinetypeTableRecord
2
DASHEDX2
70
0
3
Dashedx2 ____  ____  ____  ____  ____  ___
72
65
73
2
40
1.5
49
1.0
74
0
49
-0.5
74
0
0
LTYPE
5
281
330
247
100
AcDbSymbolTableRecord
100
AcDbLinetypeTableRecord
2
DIVIDE
70
0
3
Divide ____ . . ____ . . ____ . . ____ . . ____
72
65
73
6
40
1.25
49
0.5
74
0
49
-0.25
74
0
49
0.0
74
0
49
-0.25
74
0
49
0.0
74
0
49
-0.25
74
0
0
LTYPE
5
282
330
247
100
AcDbSymbolTableRecord
100
AcDbLinetypeTableRecord
2
DIVIDE2
70
0
3
Divide2 __..__..__..__..__..__..__..__.._
72
65
73
6
40
0.625
49
0.25
74
0
49
-0.125
74
0
49
0.0
74
0
49
-0.125
74
0
49
0.0
74
0
49
-0.125
74
0
0
LTYPE
5
283
330
247
100
AcDbSymbolTableRecord
100
AcDbLinetypeTableRecord
2
DIVIDEX2
70
0
3
Dividex2 ________  .  .  ________  .  .  _
72
65
73
6
40
2.5
49
1.0
74
0
49
-0.5
74
0
49
0.0
74
0
49
-0.5
74
0
49
0.0
74
0
49
-0.5
74
0
0
LTYPE
5
284
330
247
100
AcDbSymbolTableRecord
100
AcDbLinetypeTableRecord
2
DOT
70
0
3
Dot . . . . . . . . . . . . . . . . . . . . . . . .
72
65
73
2
40
0.25
49
0.0
74
0
49
-0.25
74
0
0
LTYPE
5
285
330
247
100
AcDbSymbolTableRecord
100
AcDbLinetypeTableRecord
2
DOT2
70
0
3
Dot2 ........................................
72
65
73
2
40
0.125
49
0.0
74
0
49
-0.125
74
0
0
LTYPE
5
286
330
247
100
AcDbSymbolTableRecord
100
AcDbLinetypeTableRecord
2
DOTX2
70
0
3
Dotx2 .  .  .  .  .  .  .  .  .  .  .  .  .  .
72
65
73
2
40
0.5
49
0.0
74
0
49
-0.5
74
0
0
LTYPE
5
287
330
247
100
AcDbSymbolTableRecord
100
AcDbLinetypeTableRecord
2
HIDDENX2
70
0
3
Hiddenx2 ____ ____ ____ ____ ____ ____ ____
72
65
73
2
40
0.75
49
0.5
74
0
49
-0.25
74
0
0
LTYPE
5
288
330
247
100
AcDbSymbolTableRecord
100
AcDbLinetypeTableRecord
2
PHANTOM
70
0
3
Phantom ______  __  __  ______  __  __  ______
72
65
73
6
40
2.5
49
1.25
74
0
49
-0.25
74
0
49
0.25
74
0
49
-0.25
74
0
49
0.25
74
0
49
-0.25
74
0
0
LTYPE
5
289
330
247
100
AcDbSymbolTableRecord
100
AcDbLinetypeTableRecord
2
PHANTOM2
70
0
3
Phantom2 ___ _ _ ___ _ _ ___ _ _ ___ _ _
72
65
73
6
40
1.25
49
0.625
74
0
49
-0.125
74
0
49
0.125
74
0
49
-0.125
74
0
49
0.125
74
0
49
-0.125
74
0
0
LTYPE
5
28A
330
247
100
AcDbSymbolTableRecord
100
AcDbLinetypeTableRecord
2
PHANTOMX2
70
0
3
Phantomx2 ____________    ____    ____   _
72
65
73
6
40
5.0
49
2.5
74
0
49
-0.5
74
0
49
0.5
74
0
49
-0.5
74
0
49
0.5
74
0
49
-0.5
74
0
0
ENDTAB
0
TABLE
2
LAYER
5
244
330
0
100
AcDbSymbolTable
70
6
0
LAYER
5
252
330
244
100
AcDbSymbolTableRecord
100
AcDbLayerTableRecord
2
0
70
0
62
7
6
Continuous
370
0
390
251
0
LAYER
5
23F
330
244
100
AcDbSymbolTableRecord
100
AcDbLayerTableRecord
2
Bemassung
70
0
 62
   7
6
Continuous
370
0
390
251
0
LAYER
5
240
330
244
100
AcDbSymbolTableRecord
100
AcDbLayerTableRecord
2
Rahmen
70
0
 62
   7
6
Continuous
370
0
390
251
0
LAYER
5
241
330
244
100
AcDbSymbolTableRecord
100
AcDbLayerTableRecord
2
Geo
70
0
 62
   7
6
Continuous
370
0
390
251
0
LAYER
5
33A
330
244
100
AcDbSymbolTableRecord
100
AcDbLayerTableRecord
2
Defpoints
70
0
62
7
6
Continuous
290
0
370
-3
390
251
0
LAYER
5
57E
330
244
100
AcDbSymbolTableRecord
100
AcDbLayerTableRecord
2
Text
70
0
 62
   7
6
Continuous
370
0
390
251
1001
AcAecLayerStandard
1000

1000

0
ENDTAB
0
TABLE
2
STYLE
5
245
330
0
100
AcDbSymbolTable
70
2
0
STYLE
5
253
330
245
100
AcDbSymbolTableRecord
100
AcDbTextStyleTableRecord
2
Standard
70
0
40
0.0
41
1.0
50
0.0
71
0
42
0.2
3
Arial
4

1001
ACAD
1000
Arial
1071
0
0
STYLE
5
132
330
245
100
AcDbSymbolTableRecord
100
AcDbTextStyleTableRecord
2
Beschriftung
70
0
40
0.0
41
1.0
50
0.0
71
0
42
0.2
3
Arial
4

1001
ACAD
1000
Arial
1071
0
1001
AcadAnnotative
1000
AnnotativeData
1070
1
1070
1
0
ENDTAB
0
TABLE
2
VIEW
5
248
330
0
100
AcDbSymbolTable
70
0
0
ENDTAB
0
TABLE
2
UCS
5
249
330
0
100
AcDbSymbolTable
70
0
0
ENDTAB
0
TABLE
2
APPID
5
24B
330
0
100
AcDbSymbolTable
70
13
0
APPID
5
254
330
24B
100
AcDbSymbolTableRecord
100
AcDbRegAppTableRecord
2
ACAD
70
0
0
APPID
5
26C
330
24B
100
AcDbSymbolTableRecord
100
AcDbRegAppTableRecord
2
VD_INVISIBLE_NOT_FOR_READ
70
0
0
APPID
5
26D
330
24B
100
AcDbSymbolTableRecord
100
AcDbRegAppTableRecord
2
VD_TEMPHATCH
70
0
0
APPID
5
26E
330
24B
100
AcDbSymbolTableRecord
100
AcDbRegAppTableRecord
2
VDEXTRAPARAM
70
0
0
APPID
5
26F
330
24B
100
AcDbSymbolTableRecord
100
AcDbRegAppTableRecord
2
PE_URL
70
0
0
APPID
5
270
330
24B
100
AcDbSymbolTableRecord
100
AcDbRegAppTableRecord
2
VD_UNKNOWN
70
0
0
APPID
5
28F
330
24B
100
AcDbSymbolTableRecord
100
AcDbRegAppTableRecord
2
AcadAnnotative
70
0
0
APPID
5
290
330
24B
100
AcDbSymbolTableRecord
100
AcDbRegAppTableRecord
2
ACAD_DSTYLE_DIMJAG
70
0
0
APPID
5
291
330
24B
100
AcDbSymbolTableRecord
100
AcDbRegAppTableRecord
2
ACAD_DSTYLE_DIMTALN
70
0
0
APPID
5
293
330
24B
100
AcDbSymbolTableRecord
100
AcDbRegAppTableRecord
2
ACAD_PSEXT
70
0
0
APPID
5
42A
330
24B
100
AcDbSymbolTableRecord
100
AcDbRegAppTableRecord
2
ACAD_MLEADERVER
70
0
0
APPID
5
532
330
24B
100
AcDbSymbolTableRecord
100
AcDbRegAppTableRecord
2
ACAD_EXEMPT_FROM_CAD_STANDARDS
70
0
0
APPID
5
57F
330
24B
100
AcDbSymbolTableRecord
100
AcDbRegAppTableRecord
2
AcAecLayerStandard
70
0
0
ENDTAB
0
TABLE
2
DIMSTYLE
5
24C
330
0
100
AcDbSymbolTable
70
3
100
AcDbDimStyleTable
71
2
340
27
340
269
0
DIMSTYLE
105
269
330
24C
100
AcDbSymbolTableRecord
100
AcDbDimStyleTableRecord
2
Standard
70
0
172
1
174
1
288
1
340
253
342
23C
0
DIMSTYLE
105
137
330
24C
100
AcDbSymbolTableRecord
100
AcDbDimStyleTableRecord
2
Beschriftung
70
0
41
2.5
42
0.625
44
1.25
73
0
74
0
77
1
140
2.5
147
0.625
172
1
174
1
271
2
288
1
340
253
342
23C
1001
AcadAnnotative
1000
AnnotativeData
1070
1
1070
1
1001
ACAD_DSTYLE_DIMJAG
1070
388
1040
1.5
1001
ACAD_DSTYLE_DIMTALN
1070
392
1070
0
0
DIMSTYLE
105
27
102
{ACAD_REACTORS
330
F1000D
330
F10017
330
F10021
330
F10026
330
F10012
330
F10008
330
F10003
330
F1001C
102
}
330
24C
100
AcDbSymbolTableRecord
100
AcDbDimStyleTableRecord
2
BEM-ISBE
70
0
41
2.5
42
0.625
44
1.25
48
0.000000001
71
1
73
0
74
0
77
1
140
2.5
144
1.00000000000000
146
0.5
147
0.625
171
 3
172
 1
179
 3
271
 3
272
 3
274
 3
340
253
342
23C
1001
ACAD_DSTYLE_DIMJAG
1070
388
1040
1.5
1001
ACAD_DSTYLE_DIMTALN
1070
392
1070
1
0
ENDTAB
0
TABLE
2
BLOCK_RECORD
5
243
330
0
100
AcDbSymbolTable
70
5
0
BLOCK_RECORD
5
261
330
243
100
AcDbSymbolTableRecord
100
AcDbBlockTableRecord
2
*Model_Space
340
FD0
0
BLOCK_RECORD
5
25D
330
243
100
AcDbSymbolTableRecord
100
AcDbBlockTableRecord
2
*Paper_Space
340
FD1
0
BLOCK_RECORD
5
265
330
243
100
AcDbSymbolTableRecord
100
AcDbBlockTableRecord
2
*Paper_Space0
340
0
0
BLOCK_RECORD
5
23C
330
243
100
AcDbSymbolTableRecord
100
AcDbBlockTableRecord
2
VDDIM_DEFAULT
340
0
102
{BLKREFS
102
}
0
BLOCK_RECORD
5
23E
330
243
100
AcDbSymbolTableRecord
100
AcDbBlockTableRecord
2
VDDIM_NONE
340
0
0
BLOCK_RECORD
5
F1000C
330
243
100
AcDbSymbolTableRecord
100
AcDbBlockTableRecord
2
*D5
340
0
0
BLOCK_RECORD
5
F10016
330
243
100
AcDbSymbolTableRecord
100
AcDbBlockTableRecord
2
*D7
340
0
0
BLOCK_RECORD
5
F10020
330
243
100
AcDbSymbolTableRecord
100
AcDbBlockTableRecord
2
*D9
340
0
0
BLOCK_RECORD
5
F10025
330
243
100
AcDbSymbolTableRecord
100
AcDbBlockTableRecord
2
*D10
340
0
0
BLOCK_RECORD
5
F10011
330
243
100
AcDbSymbolTableRecord
100
AcDbBlockTableRecord
2
*D6
340
0
0
BLOCK_RECORD
5
F10007
330
243
100
AcDbSymbolTableRecord
100
AcDbBlockTableRecord
2
*D4
340
0
0
BLOCK_RECORD
5
F10002
330
243
100
AcDbSymbolTableRecord
100
AcDbBlockTableRecord
2
*D3
340
0
0
BLOCK_RECORD
5
F1001B
330
243
100
AcDbSymbolTableRecord
100
AcDbBlockTableRecord
2
*D8
340
0
0
ENDTAB
0
ENDSEC
0
SECTION
2
BLOCKS
0
BLOCK
5
262
330
261
100
AcDbEntity
8
0
100
AcDbBlockBegin
2
*Model_Space
70
0
10
0.0
20
0.0
30
0.0
3
*Model_Space
1

0
ENDBLK
5
263
330
261
100
AcDbEntity
8
0
100
AcDbBlockEnd
0
BLOCK
5
25E
330
25D
100
AcDbEntity
67
1
8
0
100
AcDbBlockBegin
2
*Paper_Space
70
0
10
0.0
20
0.0
30
0.0
3
*Paper_Space
1

0
ENDBLK
5
25F
330
25D
100
AcDbEntity
67
1
8
0
100
AcDbBlockEnd
0
BLOCK
5
266
330
265
100
AcDbEntity
8
0
100
AcDbBlockBegin
2
*Paper_Space0
70
0
10
0.0
20
0.0
30
0.0
3
*Paper_Space0
1

0
VIEWPORT
5
296
102
{ACAD_XDICTIONARY
360
58E
102
}
330
265
100
AcDbEntity
8
0
60
1
100
AcDbViewport
10
0.0
20
0.0
30
0.0
40
10.0
41
10.0
69
0
12
0.0
22
0.0
13
0.0
23
0.0
14
1.0
24
1.0
15
0.0
25
0.0
16
0.0
26
0.0
36
1.0
17
0.0
27
0.0
37
0.0
42
0.0
43
0.0
44
0.0
45
10.0
50
0.0
51
0.0000000000007958
72
100
90
163872
1

281
0
71
0
74
0
110
0.0
120
0.0
130
0.0
111
1.0
121
0.0
131
0.0
112
0.0
122
1.0
132
0.0
79
0
146
0.0
1001
VD_INVISIBLE_NOT_FOR_READ
1000
VD_INVISIBLE_NOT_FOR_READ
0
VIEWPORT
5
297
102
{ACAD_XDICTIONARY
360
590
102
}
330
265
100
AcDbEntity
8
0
60
1
100
AcDbViewport
10
0.0
20
0.0
30
0.0
40
10.0
41
10.0
69
0
12
0.0
22
0.0
13
0.0
23
0.0
14
1.0
24
1.0
15
0.0
25
0.0
16
0.0
26
0.0
36
1.0
17
0.0
27
0.0
37
0.0
42
0.0
43
0.0
44
0.0
45
10.0
50
0.0
51
0.0000000000007958
72
100
90
163872
1

281
0
71
0
74
0
110
0.0
120
0.0
130
0.0
111
1.0
121
0.0
131
0.0
112
0.0
122
1.0
132
0.0
79
0
146
0.0
1001
VD_INVISIBLE_NOT_FOR_READ
1000
VD_INVISIBLE_NOT_FOR_READ
0
ENDBLK
5
267
330
265
100
AcDbEntity
8
0
100
AcDbBlockEnd
0
BLOCK
5
28B
330
23C
100
AcDbEntity
8
0
100
AcDbBlockBegin
2
VDDIM_DEFAULT
70
0
10
0.0
20
0.0
30
0.0
3
VDDIM_DEFAULT
1

0
LWPOLYLINE
5
23D
330
23C
100
AcDbEntity
8
0
6
Continuous
62
0
100
AcDbPolyline
90
4
70
0
43
0.0
10
0.0
20
0.0
10
-1.0
20
-0.1665
10
-1.0
20
0.1665
10
0.0
20
0.0
1001
VDEXTRAPARAM
1071
1
1071
0
1071
0
1040
1.0
1000

1000

1040
0.0
1040
0.0
0
HATCH
5
292
330
23C
100
AcDbEntity
8
0
6
Continuous
62
0
100
AcDbHatch
10
0.0
20
0.0
30
0.0
210
0.0
220
0.0
230
1.0
2
SOLID
70
1
71
0
91
1
92
2
72
0
73
1
93
3
10
0.0
20
0.0
10
-1.0
20
-0.1665
10
-1.0
20
0.1665
97
0
75
0
76
1
98
1
10
0.0
20
0.0
1001
VDEXTRAPARAM
1071
1
1071
0
1071
0
1040
1.0
1000

1000

1040
0.0
1040
0.0
1001
VD_TEMPHATCH
1000
VD_TEMPHATCH
0
ENDBLK
5
28C
330
23C
100
AcDbEntity
8
0
100
AcDbBlockEnd
0
BLOCK
5
28D
330
23E
100
AcDbEntity
8
0
100
AcDbBlockBegin
2
VDDIM_NONE
70
0
10
0.0
20
0.0
30
0.0
3
VDDIM_NONE
1

0
ENDBLK
5
28E
330
23E
100
AcDbEntity
8
0
100
AcDbBlockEnd
  0
BLOCK
  5
F1002A
330
F1000C
100
AcDbEntity
  8
0
100
AcDbBlockBegin
  2
*D5
 70
     1
 10
0.0
 20
0.0
 30
0.0
  3
*D5
  1

  0
LINE
  5
F1002B
330
F1000C
100
AcDbEntity
  8
Bemassung
 62
     0
370
    -2
100
AcDbLine
10
-100.106728538283
20
-8.12064965197216
30
0.000000000000000
11
-100.106728538283
21
31.8793503480278
31
0.000000000000000
  0
LINE
  5
F1002C
330
F1000C
100
AcDbEntity
  8
Bemassung
 62
     0
370
    -2
100
AcDbLine
10
-84.1067285382830
20
3.87935034802784
30
0.000000000000000
11
-84.1067285382830
21
16.8793503480278
31
0.000000000000000
  0
LINE
  5
F1002D
330
F1000C
100
AcDbEntity
  8
Bemassung
 62
     0
370
    -2
100
AcDbLine
10
-100.106728538283
20
14.8793503480278
30
0.000000000000000
11
-65.9025522041763
21
14.8793503480278
31
0.000000000000000
  0
INSERT
  5
F1002E
330
F1000C
100
AcDbEntity
  8
Bemassung
 62
     0
370
    -2
100
AcDbBlockReference
  2
VDDIM_DEFAULT
10
-100.106728538283
20
14.8793503480278
30
0.000000000000000
 41
2.50000000000000
 42
2.50000000000000
 43
2.50000000000000
 50
180.000000000000
  0
INSERT
  5
F1002F
330
F1000C
100
AcDbEntity
  8
Bemassung
 62
     0
370
    -2
100
AcDbBlockReference
  2
VDDIM_DEFAULT
10
-84.1067285382830
20
14.8793503480278
30
0.000000000000000
 41
2.50000000000000
 42
2.50000000000000
 43
2.50000000000000
  0
MTEXT
  5
F10030
330
F1000C
100
AcDbEntity
  8
Bemassung
 62
     0
100
AcDbMText
10
-92.1067285382830
20
15.5460170146945
30
0.000000000000000
 40
2.50000000000000
 41
0.0
 71
     8
 72
     1
  1
16
 11
1.00000000000000
 21
0.000000000000000
 31
0.0
 73
     1
 44
1.0
1001
ACAD
1000
MTEXTBEGIN
1070
73
1070
1
1070
44
1040
1.0
1070
74
1070
0
1000
MTEXTEND
  0
POINT
  5
F10031
330
F1000C
100
AcDbEntity
  8
Bemassung
 62
     0
100
AcDbPoint
10
-100.106728538283
20
-8.12064965197216
30
0.000000000000000
  0
POINT
  5
F10032
330
F1000C
100
AcDbEntity
  8
Bemassung
 62
     0
100
AcDbPoint
10
-84.1067285382830
20
3.87935034802784
30
0.000000000000000
  0
ENDBLK
  5
F10033
330
F1000C
100
AcDbEntity
  8
0
100
AcDbBlockEnd
  0
BLOCK
  5
F10034
330
F10016
100
AcDbEntity
  8
0
100
AcDbBlockBegin
  2
*D7
 70
     1
 10
0.0
 20
0.0
 30
0.0
  3
*D7
  1

  0
LINE
  5
F10035
330
F10016
100
AcDbEntity
  8
Bemassung
 62
     0
370
    -2
100
AcDbLine
10
-80.3746777307142
20
4.87935034802784
30
0.000000000000000
11
-80.3746777307142
21
21.8793503480278
31
0.000000000000000
  0
LINE
  5
F10036
330
F10016
100
AcDbEntity
  8
Bemassung
 62
     0
370
    -2
100
AcDbLine
10
-50.1067285382831
20
4.57935034802784
30
0.000000000000000
11
-50.1067285382831
21
31.8793503480278
31
0.000000000000000
  0
LINE
  5
F10037
330
F10016
100
AcDbEntity
  8
Bemassung
 62
     0
370
    -2
100
AcDbLine
10
-80.3746777307142
20
19.8793503480278
30
0.000000000000000
11
45.6055684454757
21
19.8793503480278
31
0.000000000000000
  0
INSERT
  5
F10038
330
F10016
100
AcDbEntity
  8
Bemassung
 62
     0
370
    -2
100
AcDbBlockReference
  2
VDDIM_DEFAULT
10
-80.3746777307142
20
19.8793503480278
30
0.000000000000000
 41
2.50000000000000
 42
2.50000000000000
 43
2.50000000000000
 50
180.000000000000
  0
INSERT
  5
F10039
330
F10016
100
AcDbEntity
  8
Bemassung
 62
     0
370
    -2
100
AcDbBlockReference
  2
VDDIM_DEFAULT
10
-50.1067285382831
20
19.8793503480278
30
0.000000000000000
 41
2.50000000000000
 42
2.50000000000000
 43
2.50000000000000
  0
MTEXT
  5
F1003A
330
F10016
100
AcDbEntity
  8
Bemassung
 62
     0
100
AcDbMText
10
-65.2407031344986
20
20.5460170146945
30
0.000000000000000
 40
2.50000000000000
 41
0.0
 71
     8
 72
     1
  1
30.268
 11
1.00000000000000
 21
0.000000000000000
 31
0.0
 73
     1
 44
1.0
1001
ACAD
1000
MTEXTBEGIN
1070
73
1070
1
1070
44
1040
1.0
1070
74
1070
0
1000
MTEXTEND
  0
POINT
  5
F1003B
330
F10016
100
AcDbEntity
  8
Bemassung
 62
     0
100
AcDbPoint
10
-80.3746777307142
20
4.87935034802784
30
0.000000000000000
  0
POINT
  5
F1003C
330
F10016
100
AcDbEntity
  8
Bemassung
 62
     0
100
AcDbPoint
10
-50.1067285382831
20
4.57935034802784
30
0.000000000000000
  0
ENDBLK
  5
F1003D
330
F10016
100
AcDbEntity
  8
0
100
AcDbBlockEnd
  0
BLOCK
  5
F1003E
330
F10020
100
AcDbEntity
  8
0
100
AcDbBlockBegin
  2
*D9
 70
     1
 10
0.0
 20
0.0
 30
0.0
  3
*D9
  1

  0
LINE
  5
F1003F
330
F10020
100
AcDbEntity
  8
Bemassung
 62
     0
370
    -2
100
AcDbLine
10
-85.1067285382830
20
-0.120649651972158
30
0.000000000000000
11
-85.1067285382830
21
-8.12064965197216
31
0.000000000000000
  0
LINE
  5
F10040
330
F10020
100
AcDbEntity
  8
Bemassung
 62
     0
370
    -2
100
AcDbLine
10
-100.106728538283
20
-8.12064965197216
30
0.000000000000000
11
-100.106728538283
21
31.8793503480278
31
0.000000000000000
  0
LINE
  5
F10041
330
F10020
100
AcDbEntity
  8
Bemassung
 62
     0
370
    -2
100
AcDbLine
10
-67.9071925754060
20
-6.12064965197216
30
0.000000000000000
11
-100.106728538283
21
-6.12064965197216
31
0.000000000000000
  0
INSERT
  5
F10042
330
F10020
100
AcDbEntity
  8
Bemassung
 62
     0
370
    -2
100
AcDbBlockReference
  2
VDDIM_DEFAULT
10
-85.1067285382830
20
-6.12064965197216
30
0.000000000000000
 41
2.50000000000000
 42
2.50000000000000
 43
2.50000000000000
  0
INSERT
  5
F10043
330
F10020
100
AcDbEntity
  8
Bemassung
 62
     0
370
    -2
100
AcDbBlockReference
  2
VDDIM_DEFAULT
10
-100.106728538283
20
-6.12064965197216
30
0.000000000000000
 41
2.50000000000000
 42
2.50000000000000
 43
2.50000000000000
 50
180.000000000000
  0
MTEXT
  5
F10044
330
F10020
100
AcDbEntity
  8
Bemassung
 62
     0
100
AcDbMText
10
-92.6067285382830
20
-5.45398298530549
30
0.000000000000000
 40
2.50000000000000
 41
0.0
 71
     8
 72
     1
  1
15
 11
1.00000000000000
 21
0.000000000000000
 31
0.0
 73
     1
 44
1.0
1001
ACAD
1000
MTEXTBEGIN
1070
73
1070
1
1070
44
1040
1.0
1070
74
1070
0
1000
MTEXTEND
  0
POINT
  5
F10045
330
F10020
100
AcDbEntity
  8
Bemassung
 62
     0
100
AcDbPoint
10
-85.1067285382830
20
-0.120649651972158
30
0.000000000000000
  0
POINT
  5
F10046
330
F10020
100
AcDbEntity
  8
Bemassung
 62
     0
100
AcDbPoint
10
-100.106728538283
20
-8.12064965197216
30
0.000000000000000
  0
ENDBLK
  5
F10047
330
F10020
100
AcDbEntity
  8
0
100
AcDbBlockEnd
  0
BLOCK
  5
F10048
330
F10025
100
AcDbEntity
  8
0
100
AcDbBlockBegin
  2
*D10
 70
     1
 10
0.0
 20
0.0
 30
0.0
  3
*D10
  1

  0
LINE
  5
F10049
330
F10025
100
AcDbEntity
  8
Bemassung
 62
     0
370
    -2
100
AcDbLine
10
-50.1067285382831
20
4.57935034802784
30
0.000000000000000
11
-50.1067285382831
21
31.8793503480278
31
0.000000000000000
  0
LINE
  5
F1004A
330
F10025
100
AcDbEntity
  8
Bemassung
 62
     0
370
    -2
100
AcDbLine
10
-100.106728538283
20
-8.12064965197216
30
0.000000000000000
11
-100.106728538283
21
31.8793503480278
31
0.000000000000000
  0
LINE
  5
F1004B
330
F10025
100
AcDbEntity
  8
Bemassung
 62
     0
370
    -2
100
AcDbLine
10
2.75638051044089
20
29.8793503480278
30
0.000000000000000
11
-100.106728538283
21
29.8793503480278
31
0.000000000000000
  0
INSERT
  5
F1004C
330
F10025
100
AcDbEntity
  8
Bemassung
 62
     0
370
    -2
100
AcDbBlockReference
  2
VDDIM_DEFAULT
10
-50.1067285382831
20
29.8793503480278
30
0.000000000000000
 41
2.50000000000000
 42
2.50000000000000
 43
2.50000000000000
  0
INSERT
  5
F1004D
330
F10025
100
AcDbEntity
  8
Bemassung
 62
     0
370
    -2
100
AcDbBlockReference
  2
VDDIM_DEFAULT
10
-100.106728538283
20
29.8793503480278
30
0.000000000000000
 41
2.50000000000000
 42
2.50000000000000
 43
2.50000000000000
 50
180.000000000000
  0
MTEXT
  5
F1004E
330
F10025
100
AcDbEntity
  8
Bemassung
 62
     0
100
AcDbMText
10
-74.9234338747100
20
30.5460170146945
30
0.000000000000000
 40
2.50000000000000
 41
0.0
 71
     8
 72
     1
  1
50
 11
1.00000000000000
 21
0.000000000000000
 31
0.0
 73
     1
 44
1.0
1001
ACAD
1000
MTEXTBEGIN
1070
73
1070
1
1070
44
1040
1.0
1070
74
1070
0
1000
MTEXTEND
  0
POINT
  5
F1004F
330
F10025
100
AcDbEntity
  8
Bemassung
 62
     0
100
AcDbPoint
10
-50.1067285382831
20
4.57935034802784
30
0.000000000000000
  0
POINT
  5
F10050
330
F10025
100
AcDbEntity
  8
Bemassung
 62
     0
100
AcDbPoint
10
-100.106728538283
20
-8.12064965197216
30
0.000000000000000
  0
ENDBLK
  5
F10051
330
F10025
100
AcDbEntity
  8
0
100
AcDbBlockEnd
  0
BLOCK
  5
F10052
330
F10011
100
AcDbEntity
  8
0
100
AcDbBlockBegin
  2
*D6
 70
     1
 10
0.0
 20
0.0
 30
0.0
  3
*D6
  1

 0
ARC
  5
F10053
330
F10011
100
AcDbEntity
  8
Bemassung
 62
     0
370
   -2
100
AcDbCircle
10
-80.3746777307142
20
4.87935034802784
30
0.000000000000000
 40
40.5238000919950
100
AcDbArc
 50
0.000000000000000
 51
15.0000000000000
  0
LINE
  5
F10054
330
F10011
100
AcDbEntity
  8
Bemassung
 62
     0
370
    -2
100
AcDbLine
10
-80.3746777307142
20
4.87935034802784
30
0.000000000000000
11
-37.8508776387192
21
4.87935034802784
31
0.000000000000000
  0
LINE
  5
F10055
330
F10011
100
AcDbEntity
  8
Bemassung
 62
     0
370
    -2
100
AcDbLine
10
-80.3746777307142
20
4.87935034802784
30
0.000000000000000
11
-39.2998409899027
21
15.8853196819685
31
0.000000000000000
  0
INSERT
  5
F10056
330
F10011
100
AcDbEntity
  8
Bemassung
 62
     0
370
    -2
100
AcDbBlockReference
  2
VDDIM_DEFAULT
10
-39.8508776387192
20
4.87935034802784
30
0.000000000000000
 41
2.50000000000000
 42
2.50000000000000
 43
2.50000000000000
 50
271.767630048296
  0
INSERT
  5
F10057
330
F10011
100
AcDbEntity
  8
Bemassung
 62
     0
370
    -2
100
AcDbBlockReference
  2
VDDIM_DEFAULT
10
-41.2316926424809
20
15.3676815917634
30
0.000000000000000
 41
2.50000000000000
 42
2.50000000000000
 43
2.50000000000000
 50
103.232369951704
  0
MTEXT
  5
F10058
330
F10011
100
AcDbEntity
  8
Bemassung
 62
     0
100
AcDbMText
10
-40.0644980121059
20
9.03480278422271
30
0.000000000000000
 40
2.50000000000000
 41
0.0
 71
     8
 72
     1
  1
15°
 11
0.105006313285611
 21
-0.994471555234319
 31
0.0
 73
     1
 44
1.0
1001
ACAD
1000
MTEXTBEGIN
1070
73
1070
1
1070
44
1040
1.0
1070
74
1070
0
1000
MTEXTEND
  0
POINT
  5
F10059
330
F10011
100
AcDbEntity
  8
Bemassung
 62
     0
100
AcDbPoint
10
-80.3746777307142
20
4.87935034802784
30
0.000000000000000
  0
POINT
  5
F1005A
330
F10011
100
AcDbEntity
  8
Bemassung
 62
     0
100
AcDbPoint
10
-39.8508776387192
20
4.87935034802784
30
0.000000000000000
  0
POINT
  5
F1005B
330
F10011
100
AcDbEntity
  8
Bemassung
 62
     0
100
AcDbPoint
10
-41.2316926424809
20
15.3676815917634
30
0.000000000000000
  0
POINT
  5
F1005C
330
F10011
100
AcDbEntity
  8
Bemassung
 62
     0
100
AcDbPoint
10
-40.1975643661662
20
10.1687676683225
30
0.000000000000000
  0
ENDBLK
  5
F1005D
330
F10011
100
AcDbEntity
  8
0
100
AcDbBlockEnd
  0
BLOCK
  5
F1005E
330
F10007
100
AcDbEntity
  8
0
100
AcDbBlockBegin
  2
*D4
 70
     1
 10
0.0
 20
0.0
 30
0.0
  3
*D4
  1

  0
LINE
  5
F1005F
330
F10007
100
AcDbEntity
  8
Bemassung
 62
     0
370
    -2
100
AcDbLine
10
-99.9634144153147
20
3.72974324910625
30
0.000000000000000
11
-117.272817771501
21
20.7337584021133
31
0.000000000000000
  0
INSERT
  5
F10060
330
F10007
100
AcDbEntity
  8
Bemassung
 62
     0
370
    -2
100
AcDbBlockReference
  2
VDDIM_DEFAULT
10
-99.9634144153147
20
3.72974324910625
30
0.000000000000000
 41
2.50000000000000
 42
2.50000000000000
 43
2.50000000000000
 50
315.509916934830
  0
MTEXT
  5
F10061
330
F10007
100
AcDbEntity
  8
Bemassung
 62
     0
100
AcDbMText
10
-111.687482139573
20
15.2469643303822
30
0.000000000000000
 40
2.50000000000000
 41
0.0
 71
     8
 72
     1
  1
R0.5
 11
0.713371754063361
 21
-0.700785802156810
 31
0.0
 73
     1
 44
1.0
1001
ACAD
1000
MTEXTBEGIN
1070
73
1070
1
1070
44
1040
1.0
1070
74
1070
0
1000
MTEXTEND
  0
POINT
  5
F10062
330
F10007
100
AcDbEntity
  8
Bemassung
 62
     0
100
AcDbPoint
10
-99.9634144153147
20
3.72974324910625
30
0.000000000000000
  0
POINT
  5
F10063
330
F10007
100
AcDbEntity
  8
Bemassung
 62
     0
100
AcDbPoint
10
-99.6067285382830
20
3.37935034802784
30
0.000000000000000
  0
ENDBLK
  5
F10064
330
F10007
100
AcDbEntity
  8
0
100
AcDbBlockEnd
  0
BLOCK
  5
F10065
330
F10002
100
AcDbEntity
  8
0
100
AcDbBlockBegin
  2
*D3
 70
     1
 10
0.0
 20
0.0
 30
0.0
  3
*D3
  1

  0
LINE
  5
F10066
330
F10002
100
AcDbEntity
  8
Bemassung
 62
     0
370
    -2
100
AcDbLine
10
-99.6067285382830
20
-0.120649651972158
30
0.000000000000000
11
-112.106728538283
21
-0.120649651972158
31
0.000000000000000
  0
LINE
  5
F10067
330
F10002
100
AcDbEntity
  8
Bemassung
 62
     0
370
    -2
100
AcDbLine
10
-99.6067285382830
20
3.87935034802784
30
0.000000000000000
11
-112.106728538283
21
3.87935034802784
31
0.000000000000000
  0
LINE
  5
F10068
330
F10002
100
AcDbEntity
  8
Bemassung
 62
     0
370
    -2
100
AcDbLine
10
-110.106728538283
20
-1.00232018561483
30
0.000000000000000
11
-110.106728538283
21
4.51044083526683
31
0.000000000000000
  0
INSERT
  5
F10069
330
F10002
100
AcDbEntity
  8
Bemassung
 62
     0
370
    -2
100
AcDbBlockReference
  2
VDDIM_DEFAULT
10
-110.106728538283
20
-0.120649651972158
30
0.000000000000000
 41
2.50000000000000
 42
2.50000000000000
 43
2.50000000000000
 50
270.000000000000
  0
INSERT
  5
F1006A
330
F10002
100
AcDbEntity
  8
Bemassung
 62
     0
370
    -2
100
AcDbBlockReference
  2
VDDIM_DEFAULT
10
-110.106728538283
20
3.87935034802784
30
0.000000000000000
 41
2.50000000000000
 42
2.50000000000000
 43
2.50000000000000
 50
90.0000000000000
  0
MTEXT
  5
F1006B
330
F10002
100
AcDbEntity
  8
Bemassung
 62
     0
100
AcDbMText
10
-109.440061871616
20
1.87935034802784
30
0.000000000000000
 40
2.50000000000000
 41
0.0
 71
     8
 72
     1
  1
4
 11
6.12323399573677e-017
 21
1.00000000000000
 31
0.0
 73
     1
 44
1.0
1001
ACAD
1000
MTEXTBEGIN
1070
73
1070
1
1070
44
1040
1.0
1070
74
1070
0
1000
MTEXTEND
  0
POINT
  5
F1006C
330
F10002
100
AcDbEntity
  8
Bemassung
 62
     0
100
AcDbPoint
10
-99.6067285382830
20
-0.120649651972158
30
0.000000000000000
  0
POINT
  5
F1006D
330
F10002
100
AcDbEntity
  8
Bemassung
 62
     0
100
AcDbPoint
10
-99.6067285382830
20
3.87935034802784
30
0.000000000000000
  0
ENDBLK
  5
F1006E
330
F10002
100
AcDbEntity
  8
0
100
AcDbBlockEnd
  0
BLOCK
  5
F1006F
330
F1001B
100
AcDbEntity
  8
0
100
AcDbBlockBegin
  2
*D8
 70
     1
 10
0.0
 20
0.0
 30
0.0
  3
*D8
  1

  0
LINE
  5
F10070
330
F1001B
100
AcDbEntity
  8
Bemassung
 62
     0
370
    -2
100
AcDbLine
10
-50.4067285382830
20
-1.12064965197216
30
0.000000000000000
11
-38.1067285382831
21
-1.12064965197216
31
0.000000000000000
  0
LINE
  5
F10071
330
F1001B
100
AcDbEntity
  8
Bemassung
 62
     0
370
    -2
100
AcDbLine
10
-50.4067285382830
20
4.87935034802784
30
0.000000000000000
11
-38.1067285382831
21
4.87935034802784
31
0.000000000000000
  0
LINE
  5
F10072
330
F1001B
100
AcDbEntity
  8
Bemassung
 62
     0
370
    -2
100
AcDbLine
10
-40.1067285382831
20
-2.50580046403714
30
0.000000000000000
11
-40.1067285382831
21
6.01392111368911
31
0.000000000000000
  0
INSERT
  5
F10073
330
F1001B
100
AcDbEntity
  8
Bemassung
 62
     0
370
    -2
100
AcDbBlockReference
  2
VDDIM_DEFAULT
10
-40.1067285382831
20
-1.12064965197216
30
0.000000000000000
 41
2.50000000000000
 42
2.50000000000000
 43
2.50000000000000
 50
270.000000000000
  0
INSERT
  5
F10074
330
F1001B
100
AcDbEntity
  8
Bemassung
 62
     0
370
    -2
100
AcDbBlockReference
  2
VDDIM_DEFAULT
10
-40.1067285382831
20
4.87935034802784
30
0.000000000000000
 41
2.50000000000000
 42
2.50000000000000
 43
2.50000000000000
 50
90.0000000000000
  0
MTEXT
  5
F10075
330
F1001B
100
AcDbEntity
  8
Bemassung
 62
     0
100
AcDbMText
10
-39.4400618716164
20
1.87935034802784
30
0.000000000000000
 40
2.50000000000000
 41
0.0
 71
     8
 72
     1
  1
6h5
 11
6.12323399573677e-017
 21
1.00000000000000
 31
0.0
 73
     1
 44
1.0
  0
POINT
  5
F10076
330
F1001B
100
AcDbEntity
  8
Bemassung
 62
     0
100
AcDbPoint
10
-50.4067285382830
20
-1.12064965197216
30
0.000000000000000
  0
POINT
  5
F10077
330
F1001B
100
AcDbEntity
  8
Bemassung
 62
     0
100
AcDbPoint
10
-50.4067285382830
20
4.87935034802784
30
0.000000000000000
  0
ENDBLK
  5
F10078
330
F1001B
100
AcDbEntity
  8
0
100
AcDbBlockEnd
0
ENDSEC
0
SECTION
2
ENTITIES
  0
DIMENSION
  5
F1000D
330
261
100
AcDbEntity
  8
Bemassung
100
AcDbDimension
  2
*D5
10
-84.1067285382830
20
14.8793503480278
30
0.000000000000000
11
-92.1067285382830
21
15.5460170146945
31
0.000000000000000
 70
32
 1
16
 71
     8
  3
BEM-ISBE
100
AcDbAlignedDimension
13
-100.106728538283
23
-8.12064965197216
33
0.000000000000000
14
-84.1067285382830
24
3.87935034802784
34
0.000000000000000
100
AcDbRotatedDimension
1001
ACAD
1000
DSTYLE
1002
{
1070
284
1070
8
1070
78
1070
8
1070
144
1040
1.00000000000000
1070
147
1040
0.625
1070
 72
1070
 0
1070
 71
1070
 0
1002
}
  0
DIMENSION
  5
F10017
330
261
100
AcDbEntity
  8
Bemassung
100
AcDbDimension
  2
*D7
10
-50.1067285382831
20
19.8793503480278
30
0.000000000000000
11
-65.2407031344986
21
20.5460170146945
31
0.000000000000000
 70
32
 1
30.268
 71
     8
  3
BEM-ISBE
100
AcDbAlignedDimension
13
-80.3746777307142
23
4.87935034802784
33
0.000000000000000
14
-50.1067285382831
24
4.57935034802784
34
0.000000000000000
100
AcDbRotatedDimension
1001
ACAD
1000
DSTYLE
1002
{
1070
284
1070
8
1070
78
1070
8
1070
144
1040
1.00000000000000
1070
147
1040
0.625
1070
 72
1070
 0
1070
 71
1070
 0
1002
}
  0
DIMENSION
  5
F10021
330
261
100
AcDbEntity
  8
Bemassung
100
AcDbDimension
  2
*D9
10
-100.106728538283
20
-6.12064965197216
30
0.000000000000000
11
-92.6067285382830
21
-5.45398298530549
31
0.000000000000000
 70
32
 1
15
 71
     8
  3
BEM-ISBE
100
AcDbAlignedDimension
13
-85.1067285382830
23
-0.120649651972158
33
0.000000000000000
14
-100.106728538283
24
-8.12064965197216
34
0.000000000000000
100
AcDbRotatedDimension
1001
ACAD
1000
DSTYLE
1002
{
1070
284
1070
8
1070
78
1070
8
1070
144
1040
1.00000000000000
1070
147
1040
0.625
1070
 72
1070
 0
1070
 71
1070
 0
1002
}
  0
DIMENSION
  5
F10026
330
261
100
AcDbEntity
  8
Bemassung
100
AcDbDimension
  2
*D10
10
-100.106728538283
20
29.8793503480278
30
0.000000000000000
11
-74.9234338747100
21
30.5460170146945
31
0.000000000000000
 70
32
 1
50
 71
     8
  3
BEM-ISBE
100
AcDbAlignedDimension
13
-50.1067285382831
23
4.57935034802784
33
0.000000000000000
14
-100.106728538283
24
-8.12064965197216
34
0.000000000000000
100
AcDbRotatedDimension
1001
ACAD
1000
DSTYLE
1002
{
1070
284
1070
8
1070
78
1070
8
1070
144
1040
1.00000000000000
1070
147
1040
0.625
1070
 72
1070
 0
1070
 71
1070
 0
1002
}
  0
DIMENSION
  5
F10012
330
261
100
AcDbEntity
  8
Bemassung
100
AcDbDimension
  2
*D6
10
-80.3746777307142
20
4.87935034802784
30
0.000000000000000
11
-40.0644980121059
21
9.03480278422271
31
0.000000000000000
 70
34
 1
15°
 71
     8
  3
BEM-ISBE
100
AcDb2LineAngularDimension
13
-80.3746777307142
23
4.87935034802784
33
0.000000000000000
14
-41.2316926424809
24
15.3676815917634
34
0.000000000000000
15
-39.8508776387192
25
4.87935034802784
35
0.000000000000000
16
-40.1975643661662
26
10.1687676683225
36
0.000000000000000
1001
ACAD
1000
DSTYLE
1002
{
1070
284
1070
8
1070
79
1070
2
1070
147
1040
0.625
1070
 72
1070
 0
1070
 71
1070
 0
1002
}
  0
DIMENSION
  5
F10008
330
261
100
AcDbEntity
  8
Bemassung
100
AcDbDimension
  2
*D4
10
-99.6067285382830
20
3.37935034802784
30
0.000000000000000
11
-111.687482139573
21
15.2469643303822
31
0.000000000000000
 70
164
 1
R0.5
 71
     8
  3
BEM-ISBE
100
AcDbRadialDimension
15
-99.9634144153147
25
3.72974324910625
35
0.000000000000000
40
0.0
1001
ACAD
1000
DSTYLE
1002
{
1070
284
1070
8
1070
78
1070
8
1070
144
1040
1.00000000000000
1070
147
1040
0.625
1070
 72
1070
 0
1070
 71
1070
 0
1002
}
  0
DIMENSION
  5
F10003
330
261
100
AcDbEntity
  8
Bemassung
100
AcDbDimension
  2
*D3
10
-110.106728538283
20
3.87935034802784
30
0.000000000000000
11
-109.440061871616
21
1.87935034802784
31
0.000000000000000
 70
32
 1
4
 71
     8
  3
BEM-ISBE
100
AcDbAlignedDimension
13
-99.6067285382830
23
-0.120649651972158
33
0.000000000000000
14
-99.6067285382830
24
3.87935034802784
34
0.000000000000000
50
90.0000000000000
100
AcDbRotatedDimension
1001
ACAD
1000
DSTYLE
1002
{
1070
284
1070
8
1070
78
1070
8
1070
144
1040
1.00000000000000
1070
147
1040
0.625
1070
 72
1070
 0
1070
 71
1070
 0
1002
}
  0
DIMENSION
  5
F1001C
330
261
100
AcDbEntity
  8
Bemassung
100
AcDbDimension
  2
*D8
10
-40.1067285382831
20
4.87935034802784
30
0.000000000000000
11
-39.4400618716164
21
1.87935034802784
31
0.000000000000000
 70
32
 1
6h5
 71
     8
  3
BEM-ISBE
100
AcDbAlignedDimension
13
-50.4067285382830
23
-1.12064965197216
33
0.000000000000000
14
-50.4067285382830
24
4.87935034802784
34
0.000000000000000
50
90.0000000000000
100
AcDbRotatedDimension
1001
ACAD
1000
DSTYLE
1002
{
1070
284
1070
8
1070
78
1070
8
1070
144
1040
1.00000000000000
1070
147
1040
0.625
1070
 72
1070
 0
1070
 71
1070
 0
1002
}
  0
LINE
  5
F10079
330
F1007A
100
AcDbEntity
8
Geo
100
AcDbLine
10
-100.054652156195
20
1.87935034802784
30
0.000000000000000
11
-100.106423951793
21
3.36190059967659
31
0.000000000000000
  0
ARC
  5
F1007B
330
F1007C
100
AcDbEntity
8
Geo
100
AcDbCircle
10
-99.6067285382830
20
3.37935034802784
30
0.000000000000000
 40
0.500000000000000
100
AcDbArc
 50
90.0000000000000
 51
182.000000000000
  0
LINE
  5
F1007D
330
F1007E
100
AcDbEntity
8
Geo
100
AcDbLine
10
-99.6067285382830
20
3.87935034802784
30
0.000000000000000
11
-85.1067285382830
21
3.87935034802784
31
0.000000000000000
  0
LINE
  5
F1007F
330
F10080
100
AcDbEntity
8
Geo
100
AcDbLine
10
-85.1067285382830
20
3.87935034802784
30
0.000000000000000
11
-84.1067285382830
21
3.87935034802784
31
0.000000000000000
  0
LINE
  5
F10081
330
F10082
100
AcDbEntity
8
Geo
100
AcDbLine
10
-84.1067285382830
20
3.87935034802784
30
0.000000000000000
11
-80.3746777307142
21
4.87935034802784
31
0.000000000000000
  0
LINE
  5
F10083
330
F10084
100
AcDbEntity
8
Geo
100
AcDbLine
10
-80.3746777307142
20
4.87935034802784
30
0.000000000000000
11
-50.4067285382830
21
4.87935034802784
31
0.000000000000000
  0
LINE
  5
F10085
330
F10086
100
AcDbEntity
8
Geo
100
AcDbLine
10
-50.4067285382830
20
4.87935034802784
30
0.000000000000000
11
-50.1067285382831
21
4.57935034802784
31
0.000000000000000
  0
LINE
  5
F10087
330
F10088
100
AcDbEntity
8
Geo
100
AcDbLine
10
-96.9067285382830
20
3.87872755410161
30
0.000000000000000
11
-96.8067285382830
21
3.87916719436794
31
0.000000000000000
  0
LINE
  5
F10089
330
F1008A
100
AcDbEntity
8
Geo
100
AcDbLine
10
-96.8067285382830
20
3.87916719436794
30
0.000000000000000
11
-96.7067285382830
21
3.87664450875640
31
0.000000000000000
  0
LINE
  5
F1008B
330
F1008C
100
AcDbEntity
8
Geo
100
AcDbLine
10
-96.7067285382830
20
3.87664450875640
30
0.000000000000000
11
-96.6067285382830
21
3.87116323411763
31
0.000000000000000
  0
LINE
  5
F1008D
330
F1008E
100
AcDbEntity
8
Geo
100
AcDbLine
10
-96.6067285382830
20
3.87116323411763
30
0.000000000000000
11
-96.5067285382830
21
3.86273148985603
31
0.000000000000000
  0
LINE
  5
F1008F
330
F10090
100
AcDbEntity
8
Geo
100
AcDbLine
10
-96.5067285382830
20
3.86273148985603
30
0.000000000000000
11
-96.4067285382830
21
3.85136176590251
31
0.000000000000000
  0
LINE
  5
F10091
330
F10092
100
AcDbEntity
8
Geo
100
AcDbLine
10
-96.4067285382830
20
3.85136176590251
30
0.000000000000000
11
-96.3067285382830
21
3.83707090421313
31
0.000000000000000
  0
LINE
  5
F10093
330
F10094
100
AcDbEntity
8
Geo
100
AcDbLine
10
-96.3067285382830
20
3.83707090421313
30
0.000000000000000
11
-96.2067285382830
21
3.81988007382121
31
0.000000000000000
  0
LINE
  5
F10095
330
F10096
100
AcDbEntity
8
Geo
100
AcDbLine
10
-96.2067285382830
20
3.81988007382121
30
0.000000000000000
11
-96.1067285382830
21
3.79981473947957
31
0.000000000000000
  0
LINE
  5
F10097
330
F10098
100
AcDbEntity
8
Geo
100
AcDbLine
10
-96.1067285382830
20
3.79981473947957
30
0.000000000000000
11
-96.0067285382830
21
3.77690462393973
31
0.000000000000000
  0
LINE
  5
F10099
330
F1009A
100
AcDbEntity
8
Geo
100
AcDbLine
10
-96.0067285382830
20
3.77690462393973
30
0.000000000000000
11
-95.9067285382830
21
3.75118366392356
31
0.000000000000000
  0
LINE
  5
F1009B
330
F1009C
100
AcDbEntity
8
Geo
100
AcDbLine
10
-95.9067285382830
20
3.75118366392356
30
0.000000000000000
11
-95.8067285382830
21
3.72268995985291
31
0.000000000000000
  0
LINE
  5
F1009D
330
F1009E
100
AcDbEntity
8
Geo
100
AcDbLine
10
-95.8067285382830
20
3.72268995985291
30
0.000000000000000
11
-95.7067285382830
21
3.69146571941149
31
0.000000000000000
  0
LINE
  5
F1009F
330
F100A0
100
AcDbEntity
8
Geo
100
AcDbLine
10
-95.7067285382830
20
3.69146571941149
30
0.000000000000000
11
-95.6067285382830
21
3.65755719502269
31
0.000000000000000
  0
LINE
  5
F100A1
330
F100A2
100
AcDbEntity
8
Geo
100
AcDbLine
10
-95.6067285382830
20
3.65755719502269
30
0.000000000000000
11
-95.5067285382830
21
3.62101461533592
31
0.000000000000000
  0
LINE
  5
F100A3
330
F100A4
100
AcDbEntity
8
Geo
100
AcDbLine
10
-95.5067285382830
20
3.62101461533592
30
0.000000000000000
11
-95.4067285382830
21
3.58189211082300
31
0.000000000000000
  0
LINE
  5
F100A5
330
F100A6
100
AcDbEntity
8
Geo
100
AcDbLine
10
-95.4067285382830
20
3.58189211082300
30
0.000000000000000
11
-95.3067285382830
21
3.54024763359478
31
0.000000000000000
  0
LINE
  5
F100A7
330
F100A8
100
AcDbEntity
8
Geo
100
AcDbLine
10
-95.3067285382830
20
3.54024763359478
30
0.000000000000000
11
-95.2067285382830
21
3.49614287155672
31
0.000000000000000
  0
LINE
  5
F100A9
330
F100AA
100
AcDbEntity
8
Geo
100
AcDbLine
10
-95.2067285382830
20
3.49614287155672
30
0.000000000000000
11
-95.1067285382830
21
3.44964315703070
31
0.000000000000000
  0
LINE
  5
F100AB
330
F100AC
100
AcDbEntity
8
Geo
100
AcDbLine
10
-95.1067285382830
20
3.44964315703070
30
0.000000000000000
11
-95.0067285382830
21
3.40081736997835
31
0.000000000000000
  0
LINE
  5
F100AD
330
F100AE
100
AcDbEntity
8
Geo
100
AcDbLine
10
-95.0067285382830
20
3.40081736997835
30
0.000000000000000
11
-94.9067285382830
21
3.34973783596928
31
0.000000000000000
  0
LINE
  5
F100AF
330
F100B0
100
AcDbEntity
8
Geo
100
AcDbLine
10
-94.9067285382830
20
3.34973783596928
30
0.000000000000000
11
-94.8067285382830
21
3.29648021904527
31
0.000000000000000
  0
LINE
  5
F100B1
330
F100B2
100
AcDbEntity
8
Geo
100
AcDbLine
10
-94.8067285382830
20
3.29648021904527
30
0.000000000000000
11
-94.7067285382830
21
3.24112340963926
31
0.000000000000000
  0
LINE
  5
F100B3
330
F100B4
100
AcDbEntity
8
Geo
100
AcDbLine
10
-94.7067285382830
20
3.24112340963926
30
0.000000000000000
11
-94.6067285382830
21
3.18374940771504
31
0.000000000000000
  0
LINE
  5
F100B5
330
F100B6
100
AcDbEntity
8
Geo
100
AcDbLine
10
-94.6067285382830
20
3.18374940771504
30
0.000000000000000
11
-94.5067285382830
21
3.12444320130088
31
0.000000000000000
  0
LINE
  5
F100B7
330
F100B8
100
AcDbEntity
8
Geo
100
AcDbLine
10
-94.5067285382830
20
3.12444320130088
30
0.000000000000000
11
-94.4067285382830
21
3.06329264059679
31
0.000000000000000
  0
LINE
  5
F100B9
330
F100BA
100
AcDbEntity
8
Geo
100
AcDbLine
10
-94.4067285382830
20
3.06329264059679
30
0.000000000000000
11
-94.3067285382830
21
3.00038830784223
31
0.000000000000000
  0
LINE
  5
F100BB
330
F100BC
100
AcDbEntity
8
Geo
100
AcDbLine
10
-94.3067285382830
20
3.00038830784223
30
0.000000000000000
11
-94.2067285382830
21
2.93582338313671
31
0.000000000000000
  0
LINE
  5
F100BD
330
F100BE
100
AcDbEntity
8
Geo
100
AcDbLine
10
-94.2067285382830
20
2.93582338313671
30
0.000000000000000
11
-94.1067285382830
21
2.86969350641225
31
0.000000000000000
  0
LINE
  5
F100BF
330
F100C0
100
AcDbEntity
8
Geo
100
AcDbLine
10
-94.1067285382830
20
2.86969350641225
30
0.000000000000000
11
-94.0067285382830
21
2.80209663576211
31
0.000000000000000
  0
LINE
  5
F100C1
330
F100C2
100
AcDbEntity
8
Geo
100
AcDbLine
10
-94.0067285382830
20
2.80209663576211
30
0.000000000000000
11
-93.9067285382830
21
2.73313290233557
31
0.000000000000000
  0
LINE
  5
F100C3
330
F100C4
100
AcDbEntity
8
Geo
100
AcDbLine
10
-93.9067285382830
20
2.73313290233557
30
0.000000000000000
11
-93.8067285382830
21
2.66290446201384
31
0.000000000000000
  0
LINE
  5
F100C5
330
F100C6
100
AcDbEntity
8
Geo
100
AcDbLine
10
-93.8067285382830
20
2.66290446201384
30
0.000000000000000
11
-93.7067285382830
21
2.59151534408665
31
0.000000000000000
  0
LINE
  5
F100C7
330
F100C8
100
AcDbEntity
8
Geo
100
AcDbLine
10
-93.7067285382830
20
2.59151534408665
30
0.000000000000000
11
-93.6067285382831
21
2.51907129715383
31
0.000000000000000
  0
LINE
  5
F100C9
330
F100CA
100
AcDbEntity
8
Geo
100
AcDbLine
10
-93.6067285382831
20
2.51907129715383
30
0.000000000000000
11
-93.5067285382830
21
2.44567963248008
31
0.000000000000000
  0
LINE
  5
F100CB
330
F100CC
100
AcDbEntity
8
Geo
100
AcDbLine
10
-93.5067285382830
20
2.44567963248008
30
0.000000000000000
11
-93.4067285382830
21
2.37144906503491
31
0.000000000000000
  0
LINE
  5
F100CD
330
F100CE
100
AcDbEntity
8
Geo
100
AcDbLine
10
-93.4067285382830
20
2.37144906503491
30
0.000000000000000
11
-93.3067285382830
21
2.29648955245332
31
0.000000000000000
  0
LINE
  5
F100CF
330
F100D0
100
AcDbEntity
8
Geo
100
AcDbLine
10
-93.3067285382830
20
2.29648955245332
30
0.000000000000000
11
-93.2067285382830
21
2.22091213215573
31
0.000000000000000
  0
LINE
  5
F100D1
330
F100D2
100
AcDbEntity
8
Geo
100
AcDbLine
10
-93.2067285382830
20
2.22091213215573
30
0.000000000000000
11
-93.1067285382831
21
2.14482875686838
31
0.000000000000000
  0
LINE
  5
F100D3
330
F100D4
100
AcDbEntity
8
Geo
100
AcDbLine
10
-93.1067285382831
20
2.14482875686838
30
0.000000000000000
11
-93.0067285382830
21
2.06835212878792
31
0.000000000000000
  0
LINE
  5
F100D5
330
F100D6
100
AcDbEntity
8
Geo
100
AcDbLine
10
-93.0067285382830
20
2.06835212878792
30
0.000000000000000
11
-92.9067285382830
21
1.99159553263582
31
0.000000000000000
  0
LINE
  5
F100D7
330
F100D8
100
AcDbEntity
8
Geo
100
AcDbLine
10
-92.9067285382830
20
1.99159553263582
30
0.000000000000000
11
-92.8067285382830
21
1.91467266784986
31
0.000000000000000
  0
LINE
  5
F100D9
330
F100DA
100
AcDbEntity
8
Geo
100
AcDbLine
10
-92.8067285382830
20
1.91467266784986
30
0.000000000000000
11
-92.7067285382830
21
1.83769748016128
31
0.000000000000000
  0
LINE
  5
F100DB
330
F100DC
100
AcDbEntity
8
Geo
100
AcDbLine
10
-92.7067285382830
20
1.83769748016128
30
0.000000000000000
11
-92.6067285382831
21
1.76078399280722
31
0.000000000000000
  0
LINE
  5
F100DD
330
F100DE
100
AcDbEntity
8
Geo
100
AcDbLine
10
-92.6067285382831
20
1.76078399280722
30
0.000000000000000
11
-92.5067285382830
21
1.68404613762814
31
0.000000000000000
  0
LINE
  5
F100DF
330
F100E0
100
AcDbEntity
8
Geo
100
AcDbLine
10
-92.5067285382830
20
1.68404613762814
30
0.000000000000000
11
-92.4067285382830
21
1.60759758630086
31
0.000000000000000
  0
LINE
  5
F100E1
330
F100E2
100
AcDbEntity
8
Geo
100
AcDbLine
10
-92.4067285382830
20
1.60759758630086
30
0.000000000000000
11
-92.3067285382831
21
1.53155158195678
31
0.000000000000000
  0
LINE
  5
F100E3
330
F100E4
100
AcDbEntity
8
Geo
100
AcDbLine
10
-92.3067285382831
20
1.53155158195678
30
0.000000000000000
11
-92.2067285382830
21
1.45602077143503
31
0.000000000000000
  0
LINE
  5
F100E5
330
F100E6
100
AcDbEntity
8
Geo
100
AcDbLine
10
-92.2067285382830
20
1.45602077143503
30
0.000000000000000
11
-92.1067285382831
21
1.38111703841886
31
0.000000000000000
  0
LINE
  5
F100E7
330
F100E8
100
AcDbEntity
8
Geo
100
AcDbLine
10
-92.1067285382831
20
1.38111703841886
30
0.000000000000000
11
-92.0067285382831
21
1.30695133770248
31
0.000000000000000
  0
LINE
  5
F100E9
330
F100EA
100
AcDbEntity
8
Geo
100
AcDbLine
10
-92.0067285382831
20
1.30695133770248
30
0.000000000000000
11
-91.9067285382830
21
1.23363353083390
31
0.000000000000000
  0
LINE
  5
F100EB
330
F100EC
100
AcDbEntity
8
Geo
100
AcDbLine
10
-91.9067285382830
20
1.23363353083390
30
0.000000000000000
11
-91.8067285382831
21
1.16127222337719
31
0.000000000000000
  0
LINE
  5
F100ED
330
F100EE
100
AcDbEntity
8
Geo
100
AcDbLine
10
-91.8067285382831
20
1.16127222337719
30
0.000000000000000
11
-91.7067285382830
21
1.08997460403515
31
0.000000000000000
  0
LINE
  5
F100EF
330
F100F0
100
AcDbEntity
8
Geo
100
AcDbLine
10
-91.7067285382830
20
1.08997460403515
30
0.000000000000000
11
-91.6067285382831
21
1.01984628587091
31
0.000000000000000
  0
LINE
  5
F100F1
330
F100F2
100
AcDbEntity
8
Geo
100
AcDbLine
10
-91.6067285382831
20
1.01984628587091
30
0.000000000000000
11
-91.5067285382831
21
0.950991149863383
31
0.000000000000000
  0
LINE
  5
F100F3
330
F100F4
100
AcDbEntity
8
Geo
100
AcDbLine
10
-91.5067285382831
20
0.950991149863383
30
0.000000000000000
11
-91.4067285382830
21
0.883511191028563
31
0.000000000000000
  0
LINE
  5
F100F5
330
F100F6
100
AcDbEntity
8
Geo
100
AcDbLine
10
-91.4067285382830
20
0.883511191028563
30
0.000000000000000
11
-91.3067285382831
21
0.817506367334433
31
0.000000000000000
  0
LINE
  5
F100F7
330
F100F8
100
AcDbEntity
8
Geo
100
AcDbLine
10
-91.3067285382831
20
0.817506367334433
30
0.000000000000000
11
-91.2067285382830
21
0.753074451633365
31
0.000000000000000
  0
LINE
  5
F100F9
330
F100FA
100
AcDbEntity
8
Geo
100
AcDbLine
10
-91.2067285382830
20
0.753074451633365
30
0.000000000000000
11
-91.1067285382831
21
0.690310886831340
31
0.000000000000000
  0
LINE
  5
F100FB
330
F100FC
100
AcDbEntity
8
Geo
100
AcDbLine
10
-91.1067285382831
20
0.690310886831340
30
0.000000000000000
11
-91.0067285382831
21
0.629308644508501
31
0.000000000000000
  0
LINE
  5
F100FD
330
F100FE
100
AcDbEntity
8
Geo
100
AcDbLine
10
-91.0067285382831
20
0.629308644508501
30
0.000000000000000
11
-90.9067285382830
21
0.570158087200481
31
0.000000000000000
  0
LINE
  5
F100FF
330
F10100
100
AcDbEntity
8
Geo
100
AcDbLine
10
-90.9067285382830
20
0.570158087200481
30
0.000000000000000
11
-90.8067285382831
21
0.512946834544514
31
0.000000000000000
  0
LINE
  5
F10101
330
F10102
100
AcDbEntity
8
Geo
100
AcDbLine
10
-90.8067285382831
20
0.512946834544514
30
0.000000000000000
11
-90.7067285382831
21
0.457759633488579
31
0.000000000000000
  0
LINE
  5
F10103
330
F10104
100
AcDbEntity
8
Geo
100
AcDbLine
10
-90.7067285382831
20
0.457759633488579
30
0.000000000000000
11
-90.6067285382831
21
0.404678232755872
31
0.000000000000000
  0
LINE
  5
F10105
330
F10106
100
AcDbEntity
8
Geo
100
AcDbLine
10
-90.6067285382831
20
0.404678232755872
30
0.000000000000000
11
-90.5067285382831
21
0.353781261750538
31
0.000000000000000
  0
LINE
  5
F10107
330
F10108
100
AcDbEntity
8
Geo
100
AcDbLine
10
-90.5067285382831
20
0.353781261750538
30
0.000000000000000
11
-90.4067285382831
21
0.305144114084041
31
0.000000000000000
  0
LINE
  5
F10109
330
F1010A
100
AcDbEntity
8
Geo
100
AcDbLine
10
-90.4067285382831
20
0.305144114084041
30
0.000000000000000
11
-90.3067285382831
21
0.258838835894718
31
0.000000000000000
  0
LINE
  5
F1010B
330
F1010C
100
AcDbEntity
8
Geo
100
AcDbLine
10
-90.3067285382831
20
0.258838835894718
30
0.000000000000000
11
-90.2067285382831
21
0.214934019125933
31
0.000000000000000
  0
LINE
  5
F1010D
330
F1010E
100
AcDbEntity
8
Geo
100
AcDbLine
10
-90.2067285382831
20
0.214934019125933
30
0.000000000000000
11
-90.1067285382830
21
0.173494699920921
31
0.000000000000000
  0
LINE
  5
F1010F
330
F10110
100
AcDbEntity
8
Geo
100
AcDbLine
10
-90.1067285382830
20
0.173494699920921
30
0.000000000000000
11
-90.0067285382830
21
0.130081348533610
31
0.000000000000000
  0
LINE
  5
F10111
330
F10112
100
AcDbEntity
8
Geo
100
AcDbLine
10
-90.0067285382830
20
0.130081348533610
30
0.000000000000000
11
-89.9067285382830
21
0.0906667263006917
31
0.000000000000000
  0
LINE
  5
F10113
330
F10114
100
AcDbEntity
8
Geo
100
AcDbLine
10
-89.9067285382830
20
0.0906667263006917
30
0.000000000000000
11
-89.8067285382830
21
0.0551337250509809
31
0.000000000000000
  0
LINE
  5
F10115
330
F10116
100
AcDbEntity
8
Geo
100
AcDbLine
10
-89.8067285382830
20
0.0551337250509809
30
0.000000000000000
11
-89.7067285382830
21
0.0233556214861965
31
0.000000000000000
  0
LINE
  5
F10117
330
F10118
100
AcDbEntity
8
Geo
100
AcDbLine
10
-89.7067285382830
20
0.0233556214861965
30
0.000000000000000
11
-89.6067285382830
21
-0.00480257986993848
31
0.000000000000000
  0
LINE
  5
F10119
330
F1011A
100
AcDbEntity
8
Geo
100
AcDbLine
10
-89.6067285382830
20
-0.00480257986993848
30
0.000000000000000
11
-89.5067285382830
21
-0.0294828695251732
31
0.000000000000000
  0
LINE
  5
F1011B
330
F1011C
100
AcDbEntity
8
Geo
100
AcDbLine
10
-89.5067285382830
20
-0.0294828695251732
30
0.000000000000000
11
-89.4067285382830
21
-0.0508330243774922
31
0.000000000000000
  0
LINE
  5
F1011D
330
F1011E
100
AcDbEntity
8
Geo
100
AcDbLine
10
-89.4067285382830
20
-0.0508330243774922
30
0.000000000000000
11
-89.3067285382830
21
-0.0690054694563134
31
0.000000000000000
  0
LINE
  5
F1011F
330
F10120
100
AcDbEntity
8
Geo
100
AcDbLine
10
-89.3067285382830
20
-0.0690054694563134
30
0.000000000000000
11
-89.2067285382830
21
-0.0841562111699175
31
0.000000000000000
  0
LINE
  5
F10121
330
F10122
100
AcDbEntity
8
Geo
100
AcDbLine
10
-89.2067285382830
20
-0.0841562111699175
30
0.000000000000000
11
-89.1067285382830
21
-0.0964438425006569
31
0.000000000000000
  0
LINE
  5
F10123
330
F10124
100
AcDbEntity
8
Geo
100
AcDbLine
10
-89.1067285382830
20
-0.0964438425006569
30
0.000000000000000
11
-89.0067285382830
21
-0.106028619976676
31
0.000000000000000
  0
LINE
  5
F10125
330
F10126
100
AcDbEntity
8
Geo
100
AcDbLine
10
-89.0067285382830
20
-0.106028619976676
30
0.000000000000000
11
-88.9067285382830
21
-0.113071611703273
31
0.000000000000000
  0
LINE
  5
F10127
330
F10128
100
AcDbEntity
8
Geo
100
AcDbLine
10
-88.9067285382830
20
-0.113071611703273
30
0.000000000000000
11
-88.8067285382830
21
-0.117733915255978
31
0.000000000000000
  0
LINE
  5
F10129
330
F1012A
100
AcDbEntity
8
Geo
100
AcDbLine
10
-88.8067285382830
20
-0.117733915255978
30
0.000000000000000
11
-88.7067285382830
21
-0.120175943817972
31
0.000000000000000
  0
LINE
  5
F1012B
330
F1012C
100
AcDbEntity
8
Geo
100
AcDbLine
10
-88.7067285382830
20
-0.120175943817972
30
0.000000000000000
11
-88.6067285382830
21
-0.120649651972158
31
0.000000000000000
  0
LINE
  5
F1012D
330
F1012E
100
AcDbEntity
8
Geo
100
AcDbLine
10
-100.106728538283
20
3.37935034802784
30
0.000000000000000
11
-100.006728538283
21
3.67801717929543
31
0.000000000000000
  0
LINE
  5
F1012F
330
F10130
100
AcDbEntity
8
Geo
100
AcDbLine
10
-100.006728538283
20
3.67801717929543
30
0.000000000000000
11
-99.9067285382830
21
3.77372349791314
31
0.000000000000000
  0
LINE
  5
F10131
330
F10132
100
AcDbEntity
8
Geo
100
AcDbLine
10
-99.9067285382830
20
3.77372349791314
30
0.000000000000000
11
-99.8067285382830
21
3.82456736622634
31
0.000000000000000
  0
LINE
  5
F10133
330
F10134
100
AcDbEntity
8
Geo
100
AcDbLine
10
-99.8067285382830
20
3.82456736622634
30
0.000000000000000
11
-99.7067285382830
21
3.84571086973604
31
0.000000000000000
  0
LINE
  5
F10135
330
F10136
100
AcDbEntity
8
Geo
100
AcDbLine
10
-99.7067285382830
20
3.84571086973604
30
0.000000000000000
11
-99.6067285382830
21
3.84242748180108
31
0.000000000000000
  0
LINE
  5
F10137
330
F10138
100
AcDbEntity
8
Geo
100
AcDbLine
10
-99.6067285382830
20
3.84242748180108
30
0.000000000000000
11
-99.5067285382830
21
3.82625363073346
31
0.000000000000000
  0
LINE
  5
F10139
330
F1013A
100
AcDbEntity
8
Geo
100
AcDbLine
10
-99.5067285382830
20
3.82625363073346
30
0.000000000000000
11
-99.4067285382830
21
3.80719583457526
31
0.000000000000000
  0
LINE
  5
F1013B
330
F1013C
100
AcDbEntity
8
Geo
100
AcDbLine
10
-99.4067285382830
20
3.80719583457526
30
0.000000000000000
11
-99.3067285382830
21
3.78528232361309
31
0.000000000000000
  0
LINE
  5
F1013D
330
F1013E
100
AcDbEntity
8
Geo
100
AcDbLine
10
-99.3067285382830
20
3.78528232361309
30
0.000000000000000
11
-99.2067285382830
21
3.76054555829985
31
0.000000000000000
  0
LINE
  5
F1013F
330
F10140
100
AcDbEntity
8
Geo
100
AcDbLine
10
-99.2067285382830
20
3.76054555829985
30
0.000000000000000
11
-99.1067285382830
21
3.73302218117119
31
0.000000000000000
  0
LINE
  5
F10141
330
F10142
100
AcDbEntity
8
Geo
100
AcDbLine
10
-99.1067285382830
20
3.73302218117119
30
0.000000000000000
11
-99.0067285382830
21
3.70275296256686
31
0.000000000000000
  0
LINE
  5
F10143
330
F10144
100
AcDbEntity
8
Geo
100
AcDbLine
10
-99.0067285382830
20
3.70275296256686
30
0.000000000000000
11
-98.9067285382830
21
3.66978274023777
31
0.000000000000000
  0
LINE
  5
F10145
330
F10146
100
AcDbEntity
8
Geo
100
AcDbLine
10
-98.9067285382830
20
3.66978274023777
30
0.000000000000000
11
-98.8067285382830
21
3.63416035292780
31
0.000000000000000
  0
LINE
  5
F10147
330
F10148
100
AcDbEntity
8
Geo
100
AcDbLine
10
-98.8067285382830
20
3.63416035292780
30
0.000000000000000
11
-98.7067285382830
21
3.59593856802910
31
0.000000000000000
  0
LINE
  5
F10149
330
F1014A
100
AcDbEntity
8
Geo
100
AcDbLine
10
-98.7067285382830
20
3.59593856802910
30
0.000000000000000
11
-98.6067285382830
21
3.55517400341783
31
0.000000000000000
  0
LINE
  5
F1014B
330
F1014C
100
AcDbEntity
8
Geo
100
AcDbLine
10
-98.6067285382830
20
3.55517400341783
30
0.000000000000000
11
-98.5067285382830
21
3.51192704358611
31
0.000000000000000
  0
LINE
  5
F1014D
330
F1014E
100
AcDbEntity
8
Geo
100
AcDbLine
10
-98.5067285382830
20
3.51192704358611
30
0.000000000000000
11
-98.4067285382830
21
3.46626175019464
31
0.000000000000000
  0
LINE
  5
F1014F
330
F10150
100
AcDbEntity
8
Geo
100
AcDbLine
10
-98.4067285382830
20
3.46626175019464
30
0.000000000000000
11
-98.3067285382830
21
3.41824576717820
31
0.000000000000000
  0
LINE
  5
F10151
330
F10152
100
AcDbEntity
8
Geo
100
AcDbLine
10
-98.3067285382830
20
3.41824576717820
30
0.000000000000000
11
-98.2067285382830
21
3.36795022054481
31
0.000000000000000
  0
LINE
  5
F10153
330
F10154
100
AcDbEntity
8
Geo
100
AcDbLine
10
-98.2067285382830
20
3.36795022054481
30
0.000000000000000
11
-98.1067285382830
21
3.31544961301686
31
0.000000000000000
  0
LINE
  5
F10155
330
F10156
100
AcDbEntity
8
Geo
100
AcDbLine
10
-98.1067285382830
20
3.31544961301686
30
0.000000000000000
11
-98.0067285382830
21
3.26082171367033
31
0.000000000000000
  0
LINE
  5
F10157
330
F10158
100
AcDbEntity
8
Geo
100
AcDbLine
10
-98.0067285382830
20
3.26082171367033
30
0.000000000000000
11
-97.9067285382830
21
3.20414744273558
31
0.000000000000000
  0
LINE
  5
F10159
330
F1015A
100
AcDbEntity
8
Geo
100
AcDbLine
10
-97.9067285382830
20
3.20414744273558
30
0.000000000000000
11
-97.8067285382830
21
3.14551075173034
31
0.000000000000000
  0
LINE
  5
F1015B
330
F1015C
100
AcDbEntity
8
Geo
100
AcDbLine
10
-97.8067285382830
20
3.14551075173034
30
0.000000000000000
11
-97.7067285382830
21
3.08499849910240
31
0.000000000000000
  0
LINE
  5
F1015D
330
F1015E
100
AcDbEntity
8
Geo
100
AcDbLine
10
-97.7067285382830
20
3.08499849910240
30
0.000000000000000
11
-97.6067285382830
21
3.02270032156634
31
0.000000000000000
  0
LINE
  5
F1015F
330
F10160
100
AcDbEntity
8
Geo
100
AcDbLine
10
-97.6067285382830
20
3.02270032156634
30
0.000000000000000
11
-97.5067285382830
21
2.95870850132482
31
0.000000000000000
  0
LINE
  5
F10161
330
F10162
100
AcDbEntity
8
Geo
100
AcDbLine
10
-97.5067285382830
20
2.95870850132482
30
0.000000000000000
11
-97.4067285382830
21
2.89311782937103
31
0.000000000000000
  0
LINE
  5
F10163
330
F10164
100
AcDbEntity
8
Geo
100
AcDbLine
10
-97.4067285382830
20
2.89311782937103
30
0.000000000000000
11
-97.3067285382830
21
2.82602546507495
31
0.000000000000000
  0
LINE
  5
F10165
330
F10166
100
AcDbEntity
8
Geo
100
AcDbLine
10
-97.3067285382830
20
2.82602546507495
30
0.000000000000000
11
-97.2067285382830
21
2.75753079226131
31
0.000000000000000
  0
LINE
  5
F10167
330
F10168
100
AcDbEntity
8
Geo
100
AcDbLine
10
-97.2067285382830
20
2.75753079226131
30
0.000000000000000
11
-97.1067285382830
21
2.68773527199250
31
0.000000000000000
  0
LINE
  5
F10169
330
F1016A
100
AcDbEntity
8
Geo
100
AcDbLine
10
-97.1067285382830
20
2.68773527199250
30
0.000000000000000
11
-97.0067285382830
21
2.61674229227437
31
0.000000000000000
  0
LINE
  5
F1016B
330
F1016C
100
AcDbEntity
8
Geo
100
AcDbLine
10
-97.0067285382830
20
2.61674229227437
30
0.000000000000000
11
-96.9067285382830
21
2.54465701490780
31
0.000000000000000
  0
LINE
  5
F1016D
330
F1016E
100
AcDbEntity
8
Geo
100
AcDbLine
10
-96.9067285382830
20
2.54465701490780
30
0.000000000000000
11
-96.8067285382830
21
2.47158621971262
31
0.000000000000000
  0
LINE
  5
F1016F
330
F10170
100
AcDbEntity
8
Geo
100
AcDbLine
10
-96.8067285382830
20
2.47158621971262
30
0.000000000000000
11
-96.7067285382830
21
2.39763814635484
31
0.000000000000000
  0
LINE
  5
F10171
330
F10172
100
AcDbEntity
8
Geo
100
AcDbLine
10
-96.7067285382830
20
2.39763814635484
30
0.000000000000000
11
-96.6067285382830
21
2.32292233401137
31
0.000000000000000
  0
LINE
  5
F10173
330
F10174
100
AcDbEntity
8
Geo
100
AcDbLine
10
-96.6067285382830
20
2.32292233401137
30
0.000000000000000
11
-96.5067285382830
21
2.24754945910981
31
0.000000000000000
  0
LINE
  5
F10175
330
F10176
100
AcDbEntity
8
Geo
100
AcDbLine
10
-96.5067285382830
20
2.24754945910981
30
0.000000000000000
11
-96.4067285382830
21
2.17163117138358
31
0.000000000000000
  0
LINE
  5
F10177
330
F10178
100
AcDbEntity
8
Geo
100
AcDbLine
10
-96.4067285382830
20
2.17163117138358
30
0.000000000000000
11
-96.3067285382830
21
2.09527992848538
31
0.000000000000000
  0
LINE
  5
F10179
330
F1017A
100
AcDbEntity
8
Geo
100
AcDbLine
10
-96.3067285382830
20
2.09527992848538
30
0.000000000000000
11
-96.2067285382830
21
2.01860882940377
31
0.000000000000000
  0
LINE
  5
F1017B
330
F1017C
100
AcDbEntity
8
Geo
100
AcDbLine
10
-96.2067285382830
20
2.01860882940377
30
0.000000000000000
11
-96.1067285382830
21
1.94173144692983
31
0.000000000000000
  0
LINE
  5
F1017D
330
F1017E
100
AcDbEntity
8
Geo
100
AcDbLine
10
-96.1067285382830
20
1.94173144692983
30
0.000000000000000
11
-96.0067285382830
21
1.86476165942195
31
0.000000000000000
  0
LINE
  5
F1017F
330
F10180
100
AcDbEntity
8
Geo
100
AcDbLine
10
-96.0067285382830
20
1.86476165942195
30
0.000000000000000
11
-95.9067285382830
21
1.78781348211796
31
0.000000000000000
  0
LINE
  5
F10181
330
F10182
100
AcDbEntity
8
Geo
100
AcDbLine
10
-95.9067285382830
20
1.78781348211796
30
0.000000000000000
11
-95.8067285382830
21
1.71100089824451
31
0.000000000000000
  0
LINE
  5
F10183
330
F10184
100
AcDbEntity
8
Geo
100
AcDbLine
10
-95.8067285382830
20
1.71100089824451
30
0.000000000000000
11
-95.7067285382830
21
1.63443769017392
31
0.000000000000000
  0
LINE
  5
F10185
330
F10186
100
AcDbEntity
8
Geo
100
AcDbLine
10
-95.7067285382830
20
1.63443769017392
30
0.000000000000000
11
-95.6067285382830
21
1.55823727087846
31
0.000000000000000
  0
LINE
  5
F10187
330
F10188
100
AcDbEntity
8
Geo
100
AcDbLine
10
-95.6067285382830
20
1.55823727087846
30
0.000000000000000
11
-95.5067285382830
21
1.48251251593192
31
0.000000000000000
  0
LINE
  5
F10189
330
F1018A
100
AcDbEntity
8
Geo
100
AcDbLine
10
-95.5067285382830
20
1.48251251593192
30
0.000000000000000
11
-95.4067285382830
21
1.40737559630714
31
0.000000000000000
  0
LINE
  5
F1018B
330
F1018C
100
AcDbEntity
8
Geo
100
AcDbLine
10
-95.4067285382830
20
1.40737559630714
30
0.000000000000000
11
-95.3067285382830
21
1.33293781221734
31
0.000000000000000
  0
LINE
  5
F1018D
330
F1018E
100
AcDbEntity
8
Geo
100
AcDbLine
10
-95.3067285382830
20
1.33293781221734
30
0.000000000000000
11
-95.2067285382830
21
1.25930942824725
31
0.000000000000000
  0
LINE
  5
F1018F
330
F10190
100
AcDbEntity
8
Geo
100
AcDbLine
10
-95.2067285382830
20
1.25930942824725
30
0.000000000000000
11
-95.1067285382830
21
1.18659951001834
31
0.000000000000000
  0
LINE
  5
F10191
330
F10192
100
AcDbEntity
8
Geo
100
AcDbLine
10
-95.1067285382830
20
1.18659951001834
30
0.000000000000000
11
-95.0067285382830
21
1.11491576263008
31
0.000000000000000
  0
LINE
  5
F10193
330
F10194
100
AcDbEntity
8
Geo
100
AcDbLine
10
-95.0067285382830
20
1.11491576263008
30
0.000000000000000
11
-94.9067285382830
21
1.04436437111651
31
0.000000000000000
  0
LINE
  5
F10195
330
F10196
100
AcDbEntity
8
Geo
100
AcDbLine
10
-94.9067285382830
20
1.04436437111651
30
0.000000000000000
11
-94.8067285382830
21
0.975049843154523
31
0.000000000000000
  0
LINE
  5
F10197
330
F10198
100
AcDbEntity
8
Geo
100
AcDbLine
10
-94.8067285382830
20
0.975049843154523
30
0.000000000000000
11
-94.7067285382830
21
0.907074854256753
31
0.000000000000000
  0
LINE
  5
F10199
330
F1019A
100
AcDbEntity
8
Geo
100
AcDbLine
10
-94.7067285382830
20
0.907074854256753
30
0.000000000000000
11
-94.6067285382830
21
0.840540095678519
31
0.000000000000000
  0
LINE
  5
F1019B
330
F1019C
100
AcDbEntity
8
Geo
100
AcDbLine
10
-94.6067285382830
20
0.840540095678519
30
0.000000000000000
11
-94.5067285382830
21
0.775544125263994
31
0.000000000000000
  0
LINE
  5
F1019D
330
F1019E
100
AcDbEntity
8
Geo
100
AcDbLine
10
-94.5067285382830
20
0.775544125263994
30
0.000000000000000
11
-94.4067285382830
21
0.712183221452609
31
0.000000000000000
  0
LINE
  5
F1019F
330
F101A0
100
AcDbEntity
8
Geo
100
AcDbLine
10
-94.4067285382830
20
0.712183221452609
30
0.000000000000000
11
-94.3067285382830
21
0.650551240661941
31
0.000000000000000
  0
LINE
  5
F101A1
330
F101A2
100
AcDbEntity
8
Geo
100
AcDbLine
10
-94.3067285382830
20
0.650551240661941
30
0.000000000000000
11
-94.2067285382830
21
0.590739478258331
31
0.000000000000000
  0
LINE
  5
F101A3
330
F101A4
100
AcDbEntity
8
Geo
100
AcDbLine
10
-94.2067285382830
20
0.590739478258331
30
0.000000000000000
11
-94.1067285382830
21
0.532836533321185
31
0.000000000000000
  0
LINE
  5
F101A5
330
F101A6
100
AcDbEntity
8
Geo
100
AcDbLine
10
-94.1067285382830
20
0.532836533321185
30
0.000000000000000
11
-94.0067285382830
21
0.476928177401287
31
0.000000000000000
  0
LINE
  5
F101A7
330
F101A8
100
AcDbEntity
8
Geo
100
AcDbLine
10
-94.0067285382830
20
0.476928177401287
30
0.000000000000000
11
-93.9067285382830
21
0.423097227467517
31
0.000000000000000
  0
LINE
  5
F101A9
330
F101AA
100
AcDbEntity
8
Geo
100
AcDbLine
10
-93.9067285382830
20
0.423097227467517
30
0.000000000000000
11
-93.8067285382830
21
0.371423423230196
31
0.000000000000000
  0
LINE
  5
F101AB
330
F101AC
100
AcDbEntity
8
Geo
100
AcDbLine
10
-93.8067285382830
20
0.371423423230196
30
0.000000000000000
11
-93.7067285382830
21
0.321983309022760
31
0.000000000000000
  0
LINE
  5
F101AD
330
F101AE
100
AcDbEntity
8
Geo
100
AcDbLine
10
-93.7067285382830
20
0.321983309022760
30
0.000000000000000
11
-93.6067285382831
21
0.274850120416753
31
0.000000000000000
  0
LINE
  5
F101AF
330
F101B0
100
AcDbEntity
8
Geo
100
AcDbLine
10
-93.6067285382831
20
0.274850120416753
30
0.000000000000000
11
-93.5067285382830
21
0.230093675738071
31
0.000000000000000
  0
LINE
  5
F101B1
330
F101B2
100
AcDbEntity
8
Geo
100
AcDbLine
10
-93.5067285382830
20
0.230093675738071
30
0.000000000000000
11
-93.4067285382830
21
0.187780272645180
31
0.000000000000000
  0
LINE
  5
F101B3
330
F101B4
100
AcDbEntity
8
Geo
100
AcDbLine
10
-93.4067285382830
20
0.187780272645180
30
0.000000000000000
11
-93.3067285382830
21
0.147972589922488
31
0.000000000000000
  0
LINE
  5
F101B5
330
F101B6
100
AcDbEntity
8
Geo
100
AcDbLine
10
-93.3067285382830
20
0.147972589922488
30
0.000000000000000
11
-93.2067285382830
21
0.110729594634345
31
0.000000000000000
  0
LINE
  5
F101B7
330
F101B8
100
AcDbEntity
8
Geo
100
AcDbLine
10
-93.2067285382830
20
0.110729594634345
30
0.000000000000000
11
-93.1067285382831
21
0.0761064547772152
31
0.000000000000000
  0
LINE
  5
F101B9
330
F101BA
100
AcDbEntity
8
Geo
100
AcDbLine
10
-93.1067285382831
20
0.0761064547772152
30
0.000000000000000
11
-93.0067285382830
21
0.0441544575594059
31
0.000000000000000
  0
LINE
  5
F101BB
330
F101BC
100
AcDbEntity
8
Geo
100
AcDbLine
10
-93.0067285382830
20
0.0441544575594059
30
0.000000000000000
11
-92.9067285382830
21
0.0149209334293932
31
0.000000000000000
  0
LINE
  5
F101BD
330
F101BE
100
AcDbEntity
8
Geo
100
AcDbLine
10
-92.9067285382830
20
0.0149209334293932
30
0.000000000000000
11
-92.8067285382830
21
-0.0115508140347025
31
0.000000000000000
  0
LINE
  5
F101BF
330
F101C0
100
AcDbEntity
8
Geo
100
AcDbLine
10
-92.8067285382830
20
-0.0115508140347025
30
0.000000000000000
11
-92.7067285382830
21
-0.0352215722706464
31
0.000000000000000
  0
LINE
  5
F101C1
330
F101C2
100
AcDbEntity
8
Geo
100
AcDbLine
10
-92.7067285382830
20
-0.0352215722706464
30
0.000000000000000
11
-92.6067285382831
21
-0.0560562778176021
31
0.000000000000000
  0
LINE
  5
F101C3
330
F101C4
100
AcDbEntity
8
Geo
100
AcDbLine
10
-92.6067285382831
20
-0.0560562778176021
30
0.000000000000000
11
-92.5067285382830
21
-0.0740240682555877
31
0.000000000000000
  0
LINE
  5
F101C5
330
F101C6
100
AcDbEntity
8
Geo
100
AcDbLine
10
-92.5067285382830
20
-0.0740240682555877
30
0.000000000000000
11
-92.4067285382830
21
-0.0890983279219340
31
0.000000000000000
  0
LINE
  5
F101C7
330
F101C8
100
AcDbEntity
8
Geo
100
AcDbLine
10
-92.4067285382830
20
-0.0890983279219340
30
0.000000000000000
11
-92.3067285382831
21
-0.101256727337028
31
0.000000000000000
  0
LINE
  5
F101C9
330
F101CA
100
AcDbEntity
8
Geo
100
AcDbLine
10
-92.3067285382831
20
-0.101256727337028
30
0.000000000000000
11
-92.2067285382830
21
-0.110481256280940
31
0.000000000000000
  0
LINE
  5
F101CB
330
F101CC
100
AcDbEntity
8
Geo
100
AcDbLine
10
-92.2067285382830
20
-0.110481256280940
30
0.000000000000000
11
-92.1067285382831
21
-0.116758250471938
31
0.000000000000000
  0
LINE
  5
F101CD
330
F101CE
100
AcDbEntity
8
Geo
100
AcDbLine
10
-92.1067285382831
20
-0.116758250471938
30
0.000000000000000
11
-92.0067285382831
21
-0.120078411807367
31
0.000000000000000
  0
LINE
  5
F101CF
330
F101D0
100
AcDbEntity
8
Geo
100
AcDbLine
10
-100.106728538283
20
3.30593512247057
30
0.000000000000000
11
-100.006728538283
21
3.56858011902407
31
0.000000000000000
  0
LINE
  5
F101D1
330
F101D2
100
AcDbEntity
8
Geo
100
AcDbLine
10
-100.006728538283
20
3.56858011902407
30
0.000000000000000
11
-99.9067285382830
21
3.63585343806290
31
0.000000000000000
  0
LINE
  5
F101D3
330
F101D4
100
AcDbEntity
8
Geo
100
AcDbLine
10
-99.9067285382830
20
3.63585343806290
30
0.000000000000000
11
-99.8067285382830
21
3.65964188716163
31
0.000000000000000
  0
LINE
  5
F101D5
330
F101D6
100
AcDbEntity
8
Geo
100
AcDbLine
10
-99.8067285382830
20
3.65964188716163
30
0.000000000000000
11
-99.7067285382830
21
3.65517196590084
31
0.000000000000000
  0
LINE
  5
F101D7
330
F101D8
100
AcDbEntity
8
Geo
100
AcDbLine
10
-99.7067285382830
20
3.65517196590084
30
0.000000000000000
11
-99.6067285382830
21
3.62813979489800
31
0.000000000000000
  0
LINE
  5
F101D9
330
F101DA
100
AcDbEntity
8
Geo
100
AcDbLine
10
-99.6067285382830
20
3.62813979489800
30
0.000000000000000
11
-99.5067285382830
21
3.58950188758676
31
0.000000000000000
  0
LINE
  5
F101DB
330
F101DC
100
AcDbEntity
8
Geo
100
AcDbLine
10
-99.5067285382830
20
3.58950188758676
30
0.000000000000000
11
-99.4067285382830
21
3.54833073520861
31
0.000000000000000
  0
LINE
  5
F101DD
330
F101DE
100
AcDbEntity
8
Geo
100
AcDbLine
10
-99.4067285382830
20
3.54833073520861
30
0.000000000000000
11
-99.3067285382830
21
3.50468732453357
31
0.000000000000000
  0
LINE
  5
F101DF
330
F101E0
100
AcDbEntity
8
Geo
100
AcDbLine
10
-99.3067285382830
20
3.50468732453357
30
0.000000000000000
11
-99.2067285382830
21
3.45863630448442
31
0.000000000000000
  0
LINE
  5
F101E1
330
F101E2
100
AcDbEntity
8
Geo
100
AcDbLine
10
-99.2067285382830
20
3.45863630448442
30
0.000000000000000
11
-99.1067285382830
21
3.41024589037229
31
0.000000000000000
  0
LINE
  5
F101E3
330
F101E4
100
AcDbEntity
8
Geo
100
AcDbLine
10
-99.1067285382830
20
3.41024589037229
30
0.000000000000000
11
-99.0067285382830
21
3.35958776284946
31
0.000000000000000
  0
LINE
  5
F101E5
330
F101E6
100
AcDbEntity
8
Geo
100
AcDbLine
10
-99.0067285382830
20
3.35958776284946
30
0.000000000000000
11
-98.9067285382830
21
3.30673696172887
31
0.000000000000000
  0
LINE
  5
F101E7
330
F101E8
100
AcDbEntity
8
Geo
100
AcDbLine
10
-98.9067285382830
20
3.30673696172887
30
0.000000000000000
11
-98.8067285382830
21
3.25177177482778
31
0.000000000000000
  0
LINE
  5
F101E9
330
F101EA
100
AcDbEntity
8
Geo
100
AcDbLine
10
-98.8067285382830
20
3.25177177482778
30
0.000000000000000
11
-98.7067285382830
21
3.19477362200014
31
0.000000000000000
  0
LINE
  5
F101EB
330
F101EC
100
AcDbEntity
8
Geo
100
AcDbLine
10
-98.7067285382830
20
3.19477362200014
30
0.000000000000000
11
-98.6067285382830
21
3.13582693452945
31
0.000000000000000
  0
LINE
  5
F101ED
330
F101EE
100
AcDbEntity
8
Geo
100
AcDbLine
10
-98.6067285382830
20
3.13582693452945
30
0.000000000000000
11
-98.5067285382830
21
3.07501903006085
31
0.000000000000000
  0
LINE
  5
F101EF
330
F101F0
100
AcDbEntity
8
Geo
100
AcDbLine
10
-98.5067285382830
20
3.07501903006085
30
0.000000000000000
11
-98.4067285382830
21
3.01243998325757
31
0.000000000000000
  0
LINE
  5
F101F1
330
F101F2
100
AcDbEntity
8
Geo
100
AcDbLine
10
-98.4067285382830
20
3.01243998325757
30
0.000000000000000
11
-98.3067285382830
21
2.94818249237351
31
0.000000000000000
  0
LINE
  5
F101F3
330
F101F4
100
AcDbEntity
8
Geo
100
AcDbLine
10
-98.3067285382830
20
2.94818249237351
30
0.000000000000000
11
-98.2067285382830
21
2.88234174193941
31
0.000000000000000
  0
LINE
  5
F101F5
330
F101F6
100
AcDbEntity
8
Geo
100
AcDbLine
10
-98.2067285382830
20
2.88234174193941
30
0.000000000000000
11
-98.1067285382830
21
2.81501526176615
31
0.000000000000000
  0
LINE
  5
F101F7
330
F101F8
100
AcDbEntity
8
Geo
100
AcDbLine
10
-98.1067285382830
20
2.81501526176615
30
0.000000000000000
11
-98.0067285382830
21
2.74630278247400
31
0.000000000000000
  0
LINE
  5
F101F9
330
F101FA
100
AcDbEntity
8
Geo
100
AcDbLine
10
-98.0067285382830
20
2.74630278247400
30
0.000000000000000
11
-97.9067285382830
21
2.67630608776175
31
0.000000000000000
  0
LINE
  5
F101FB
330
F101FC
100
AcDbEntity
8
Geo
100
AcDbLine
10
-97.9067285382830
20
2.67630608776175
30
0.000000000000000
11
-97.8067285382830
21
2.60512886363470
31
0.000000000000000
  0
LINE
  5
F101FD
330
F101FE
100
AcDbEntity
8
Geo
100
AcDbLine
10
-97.8067285382830
20
2.60512886363470
30
0.000000000000000
11
-97.7067285382830
21
2.53287654481468
31
0.000000000000000
  0
LINE
  5
F101FF
330
F10200
100
AcDbEntity
8
Geo
100
AcDbLine
10
-97.7067285382830
20
2.53287654481468
30
0.000000000000000
11
-97.6067285382830
21
2.45965615855982
31
0.000000000000000
  0
LINE
  5
F10201
330
F10202
100
AcDbEntity
8
Geo
100
AcDbLine
10
-97.6067285382830
20
2.45965615855982
30
0.000000000000000
11
-97.5067285382830
21
2.38557616612514
31
0.000000000000000
  0
LINE
  5
F10203
330
F10204
100
AcDbEntity
8
Geo
100
AcDbLine
10
-97.5067285382830
20
2.38557616612514
30
0.000000000000000
11
-97.4067285382830
21
2.31074630209909
31
0.000000000000000
  0
LINE
  5
F10205
330
F10206
100
AcDbEntity
8
Geo
100
AcDbLine
10
-97.4067285382830
20
2.31074630209909
30
0.000000000000000
11
-97.3067285382830
21
2.23527741185388
31
0.000000000000000
  0
LINE
  5
F10207
330
F10208
100
AcDbEntity
8
Geo
100
AcDbLine
10
-97.3067285382830
20
2.23527741185388
30
0.000000000000000
11
-97.2067285382830
21
2.15928128735032
31
0.000000000000000
  0
LINE
  5
F10209
330
F1020A
100
AcDbEntity
8
Geo
100
AcDbLine
10
-97.2067285382830
20
2.15928128735032
30
0.000000000000000
11
-97.1067285382830
21
2.08287050154060
31
0.000000000000000
  0
LINE
  5
F1020B
330
F1020C
100
AcDbEntity
8
Geo
100
AcDbLine
10
-97.1067285382830
20
2.08287050154060
30
0.000000000000000
11
-97.0067285382830
21
2.00615824161413
31
0.000000000000000
  0
LINE
  5
F1020D
330
F1020E
100
AcDbEntity
8
Geo
100
AcDbLine
10
-97.0067285382830
20
2.00615824161413
30
0.000000000000000
11
-96.9067285382830
21
1.92925814133349
31
0.000000000000000
  0
LINE
  5
F1020F
330
F10210
100
AcDbEntity
8
Geo
100
AcDbLine
10
-96.9067285382830
20
1.92925814133349
30
0.000000000000000
11
-96.8067285382830
21
1.85228411270892
31
0.000000000000000
  0
LINE
  5
F10211
330
F10212
100
AcDbEntity
8
Geo
100
AcDbLine
10
-96.8067285382830
20
1.85228411270892
30
0.000000000000000
11
-96.7067285382830
21
1.77535017726061
31
0.000000000000000
  0
LINE
  5
F10213
330
F10214
100
AcDbEntity
8
Geo
100
AcDbLine
10
-96.7067285382830
20
1.77535017726061
30
0.000000000000000
11
-96.6067285382830
21
1.69857029711878
31
0.000000000000000
  0
LINE
  5
F10215
330
F10216
100
AcDbEntity
8
Geo
100
AcDbLine
10
-96.6067285382830
20
1.69857029711878
30
0.000000000000000
11
-96.5067285382830
21
1.62205820621174
31
0.000000000000000
  0
LINE
  5
F10217
330
F10218
100
AcDbEntity
8
Geo
100
AcDbLine
10
-96.5067285382830
20
1.62205820621174
30
0.000000000000000
11
-96.4067285382830
21
1.54592724179199
31
0.000000000000000
  0
LINE
  5
F10219
330
F1021A
100
AcDbEntity
8
Geo
100
AcDbLine
10
-96.4067285382830
20
1.54592724179199
30
0.000000000000000
11
-96.3067285382830
21
1.47029017654991
31
0.000000000000000
  0
LINE
  5
F1021B
330
F1021C
100
AcDbEntity
8
Geo
100
AcDbLine
10
-96.3067285382830
20
1.47029017654991
30
0.000000000000000
11
-96.2067285382830
21
1.39525905156370
31
0.000000000000000
  0
LINE
  5
F1021D
330
F1021E
100
AcDbEntity
8
Geo
100
AcDbLine
10
-96.2067285382830
20
1.39525905156370
30
0.000000000000000
11
-96.1067285382830
21
1.32094501033314
31
0.000000000000000
  0
LINE
  5
F1021F
330
F10220
100
AcDbEntity
8
Geo
100
AcDbLine
10
-96.1067285382830
20
1.32094501033314
30
0.000000000000000
11
-96.0067285382830
21
1.24745813414282
31
0.000000000000000
  0
LINE
  5
F10221
330
F10222
100
AcDbEntity
8
Geo
100
AcDbLine
10
-96.0067285382830
20
1.24745813414282
30
0.000000000000000
11
-95.9067285382830
21
1.17490727899895
31
0.000000000000000
  0
LINE
  5
F10223
330
F10224
100
AcDbEntity
8
Geo
100
AcDbLine
10
-95.9067285382830
20
1.17490727899895
30
0.000000000000000
11
-95.8067285382830
21
1.10339991438108
31
0.000000000000000
  0
LINE
  5
F10225
330
F10226
100
AcDbEntity
8
Geo
100
AcDbLine
10
-95.8067285382830
20
1.10339991438108
30
0.000000000000000
11
-95.7067285382830
21
1.03304196404768
31
0.000000000000000
  0
LINE
  5
F10227
330
F10228
100
AcDbEntity
8
Geo
100
AcDbLine
10
-95.7067285382830
20
1.03304196404768
30
0.000000000000000
11
-95.6067285382830
21
0.963937649131512
31
0.000000000000000
  0
LINE
  5
F10229
330
F1022A
100
AcDbEntity
8
Geo
100
AcDbLine
10
-95.6067285382830
20
0.963937649131512
30
0.000000000000000
11
-95.5067285382830
21
0.896189333756914
31
0.000000000000000
  0
LINE
  5
F1022B
330
F1022C
100
AcDbEntity
8
Geo
100
AcDbLine
10
-95.5067285382830
20
0.896189333756914
30
0.000000000000000
11
-95.4067285382830
21
0.829897373408039
31
0.000000000000000
  0
LINE
  5
F1022D
330
F1022E
100
AcDbEntity
8
Geo
100
AcDbLine
10
-95.4067285382830
20
0.829897373408039
30
0.000000000000000
11
-95.3067285382830
21
0.765159966272381
31
0.000000000000000
  0
LINE
  5
F1022F
330
F10230
100
AcDbEntity
8
Geo
100
AcDbLine
10
-95.3067285382830
20
0.765159966272381
30
0.000000000000000
11
-95.2067285382830
21
0.702073007779953
31
0.000000000000000
  0
LINE
  5
F10231
330
F10232
100
AcDbEntity
8
Geo
100
AcDbLine
10
-95.2067285382830
20
0.702073007779953
30
0.000000000000000
11
-95.1067285382830
21
0.640729948553515
31
0.000000000000000
  0
LINE
  5
F10233
330
F10234
100
AcDbEntity
8
Geo
100
AcDbLine
10
-95.1067285382830
20
0.640729948553515
30
0.000000000000000
11
-95.0067285382830
21
0.581221655980303
31
0.000000000000000
  0
LINE
  5
F10235
330
F10236
100
AcDbEntity
8
Geo
100
AcDbLine
10
-95.0067285382830
20
0.581221655980303
30
0.000000000000000
11
-94.9067285382830
21
0.523636279610290
31
0.000000000000000
  0
LINE
  5
F10237
330
F10238
100
AcDbEntity
8
Geo
100
AcDbLine
10
-94.9067285382830
20
0.523636279610290
30
0.000000000000000
11
-94.8067285382830
21
0.468059120580388
31
0.000000000000000
  0
LINE
  5
F10239
330
F1023A
100
AcDbEntity
8
Geo
100
AcDbLine
10
-94.8067285382830
20
0.468059120580388
30
0.000000000000000
11
-94.7067285382830
21
0.414572505257993
31
0.000000000000000
  0
LINE
  5
F1023B
330
F1023C
100
AcDbEntity
8
Geo
100
AcDbLine
10
-94.7067285382830
20
0.414572505257993
30
0.000000000000000
11
-94.6067285382830
21
0.363255663291049
31
0.000000000000000
  0
LINE
  5
F1023D
330
F1023E
100
AcDbEntity
8
Geo
100
AcDbLine
10
-94.6067285382830
20
0.363255663291049
30
0.000000000000000
11
-94.5067285382830
21
0.314184610245284
31
0.000000000000000
  0
LINE
  5
F1023F
330
F10240
100
AcDbEntity
8
Geo
100
AcDbLine
10
-94.5067285382830
20
0.314184610245284
30
0.000000000000000
11
-94.4067285382830
21
0.267432035002461
31
0.000000000000000
  0
LINE
  5
F10241
330
F10242
100
AcDbEntity
8
Geo
100
AcDbLine
10
-94.4067285382830
20
0.267432035002461
30
0.000000000000000
11
-94.3067285382830
21
0.223067192086442
31
0.000000000000000
  0
LINE
  5
F10243
330
F10244
100
AcDbEntity
8
Geo
100
AcDbLine
10
-94.3067285382830
20
0.223067192086442
30
0.000000000000000
11
-94.2067285382830
21
0.181155799076551
31
0.000000000000000
  0
LINE
  5
F10245
330
F10246
100
AcDbEntity
8
Geo
100
AcDbLine
10
-94.2067285382830
20
0.181155799076551
30
0.000000000000000
11
-94.1067285382830
21
0.141759939260225
31
0.000000000000000
  0
LINE
  5
F10247
330
F10248
100
AcDbEntity
8
Geo
100
AcDbLine
10
-94.1067285382830
20
0.141759939260225
30
0.000000000000000
11
-94.0067285382830
21
0.104937969669123
31
0.000000000000000
  0
LINE
  5
F10249
330
F1024A
100
AcDbEntity
8
Geo
100
AcDbLine
10
-94.0067285382830
20
0.104937969669123
30
0.000000000000000
11
-93.9067285382830
21
0.0707444346349393
31
0.000000000000000
  0
LINE
  5
F1024B
330
F1024C
100
AcDbEntity
8
Geo
100
AcDbLine
10
-93.9067285382830
20
0.0707444346349393
30
0.000000000000000
11
-93.8067285382830
21
0.0392299849929605
31
0.000000000000000
  0
LINE
  5
F1024D
330
F1024E
100
AcDbEntity
8
Geo
100
AcDbLine
10
-93.8067285382830
20
0.0392299849929605
30
0.000000000000000
11
-93.7067285382830
21
0.0104413030530555
31
0.000000000000000
  0
LINE
  5
F1024F
330
F10250
100
AcDbEntity
8
Geo
100
AcDbLine
10
-93.7067285382830
20
0.0104413030530555
30
0.000000000000000
11
-93.6067285382831
21
-0.0155789665507655
31
0.000000000000000
  0
LINE
  5
F10251
330
F10252
100
AcDbEntity
8
Geo
100
AcDbLine
10
-93.6067285382831
20
-0.0155789665507655
30
0.000000000000000
11
-93.5067285382830
21
-0.0387922800297862
31
0.000000000000000
  0
LINE
  5
F10253
330
F10254
100
AcDbEntity
8
Geo
100
AcDbLine
10
-93.5067285382830
20
-0.0387922800297862
30
0.000000000000000
11
-93.4067285382830
21
-0.0591642515354445
31
0.000000000000000
  0
LINE
  5
F10255
330
F10256
100
AcDbEntity
8
Geo
100
AcDbLine
10
-93.4067285382830
20
-0.0591642515354445
30
0.000000000000000
11
-93.3067285382830
21
-0.0766647040950414
31
0.000000000000000
  0
LINE
  5
F10257
330
F10258
100
AcDbEntity
8
Geo
100
AcDbLine
10
-93.3067285382830
20
-0.0766647040950414
30
0.000000000000000
11
-93.2067285382830
21
-0.0912677143128489
31
0.000000000000000
  0
LINE
  5
F10259
330
F1025A
100
AcDbEntity
8
Geo
100
AcDbLine
10
-93.2067285382830
20
-0.0912677143128489
30
0.000000000000000
11
-93.1067285382831
21
-0.102951650770399
31
0.000000000000000
  0
LINE
  5
F1025B
330
F1025C
100
AcDbEntity
8
Geo
100
AcDbLine
10
-93.1067285382831
20
-0.102951650770399
30
0.000000000000000
11
-93.0067285382830
21
-0.111699206069072
31
0.000000000000000
  0
LINE
  5
F1025D
330
F1025E
100
AcDbEntity
8
Geo
100
AcDbLine
10
-93.0067285382830
20
-0.111699206069072
30
0.000000000000000
11
-92.9067285382830
21
-0.117497422467526
31
0.000000000000000
  0
LINE
  5
F1025F
330
F10260
100
AcDbEntity
8
Geo
100
AcDbLine
10
-92.9067285382830
20
-0.117497422467526
30
0.000000000000000
11
-92.8067285382830
21
-0.120337711075976
31
0.000000000000000
  0
LINE
  5
F10261
330
F10262
100
AcDbEntity
8
Geo
100
AcDbLine
10
-100.106728538283
20
1.87935034802784
30
0.000000000000000
11
-100.006728538283
21
1.81008542113261
31
0.000000000000000
  0
LINE
  5
F10263
330
F10264
100
AcDbEntity
8
Geo
100
AcDbLine
10
-100.006728538283
20
1.81008542113261
30
0.000000000000000
11
-99.9067285382830
21
1.73323269340093
31
0.000000000000000
  0
LINE
  5
F10265
330
F10266
100
AcDbEntity
8
Geo
100
AcDbLine
10
-99.9067285382830
20
1.73323269340093
30
0.000000000000000
11
-99.8067285382830
21
1.65373239528985
31
0.000000000000000
  0
LINE
  5
F10267
330
F10268
100
AcDbEntity
8
Geo
100
AcDbLine
10
-99.8067285382830
20
1.65373239528985
30
0.000000000000000
11
-99.7067285382830
21
1.57419441356586
31
0.000000000000000
  0
LINE
  5
F10269
330
F1026A
100
AcDbEntity
8
Geo
100
AcDbLine
10
-99.7067285382830
20
1.57419441356586
30
0.000000000000000
11
-99.6067285382830
21
1.49682169961487
31
0.000000000000000
  0
LINE
  5
F1026B
330
F1026C
100
AcDbEntity
8
Geo
100
AcDbLine
10
-99.6067285382830
20
1.49682169961487
30
0.000000000000000
11
-99.5067285382830
21
1.42156480021087
31
0.000000000000000
  0
LINE
  5
F1026D
330
F1026E
100
AcDbEntity
8
Geo
100
AcDbLine
10
-99.5067285382830
20
1.42156480021087
30
0.000000000000000
11
-99.4067285382830
21
1.34698601789410
31
0.000000000000000
  0
LINE
  5
F1026F
330
F10270
100
AcDbEntity
8
Geo
100
AcDbLine
10
-99.4067285382830
20
1.34698601789410
30
0.000000000000000
11
-99.3067285382830
21
1.27319582610976
31
0.000000000000000
  0
LINE
  5
F10271
330
F10272
100
AcDbEntity
8
Geo
100
AcDbLine
10
-99.3067285382830
20
1.27319582610976
30
0.000000000000000
11
-99.2067285382830
21
1.20030353016500
31
0.000000000000000
  0
LINE
  5
F10273
330
F10274
100
AcDbEntity
8
Geo
100
AcDbLine
10
-99.2067285382830
20
1.20030353016500
30
0.000000000000000
11
-99.1067285382830
21
1.12841710531515
31
0.000000000000000
  0
LINE
  5
F10275
330
F10276
100
AcDbEntity
8
Geo
100
AcDbLine
10
-99.1067285382830
20
1.12841710531515
30
0.000000000000000
11
-99.0067285382830
21
1.05764303682009
31
0.000000000000000
  0
LINE
  5
F10277
330
F10278
100
AcDbEntity
8
Geo
100
AcDbLine
10
-99.0067285382830
20
1.05764303682009
30
0.000000000000000
11
-98.9067285382830
21
0.988086162207804
31
0.000000000000000
  0
LINE
  5
F10279
330
F1027A
100
AcDbEntity
8
Geo
100
AcDbLine
10
-98.9067285382830
20
0.988086162207804
30
0.000000000000000
11
-98.8067285382830
21
0.919849515978681
31
0.000000000000000
  0
LINE
  5
F1027B
330
F1027C
100
AcDbEntity
8
Geo
100
AcDbLine
10
-98.8067285382830
20
0.919849515978681
30
0.000000000000000
11
-98.7067285382830
21
0.853034176980680
31
0.000000000000000
  0
LINE
  5
F1027D
330
F1027E
100
AcDbEntity
8
Geo
100
AcDbLine
10
-98.7067285382830
20
0.853034176980680
30
0.000000000000000
11
-98.6067285382830
21
0.787739118681350
31
0.000000000000000
  0
LINE
  5
F1027F
330
F10280
100
AcDbEntity
8
Geo
100
AcDbLine
10
-98.6067285382830
20
0.787739118681350
30
0.000000000000000
11
-98.5067285382830
21
0.724061062558588
31
0.000000000000000
  0
LINE
  5
F10281
330
F10282
100
AcDbEntity
8
Geo
100
AcDbLine
10
-98.5067285382830
20
0.724061062558588
30
0.000000000000000
11
-98.4067285382830
21
0.662094334827242
31
0.000000000000000
  0
LINE
  5
F10283
330
F10284
100
AcDbEntity
8
Geo
100
AcDbLine
10
-98.4067285382830
20
0.662094334827242
30
0.000000000000000
11
-98.3067285382830
21
0.601930726713823
31
0.000000000000000
  0
LINE
  5
F10285
330
F10286
100
AcDbEntity
8
Geo
100
AcDbLine
10
-98.3067285382830
20
0.601930726713823
30
0.000000000000000
11
-98.2067285382830
21
0.543659358486295
31
0.000000000000000
  0
LINE
  5
F10287
330
F10288
100
AcDbEntity
8
Geo
100
AcDbLine
10
-98.2067285382830
20
0.543659358486295
30
0.000000000000000
11
-98.1067285382830
21
0.487366547440340
31
0.000000000000000
  0
LINE
  5
F10289
330
F1028A
100
AcDbEntity
8
Geo
100
AcDbLine
10
-98.1067285382830
20
0.487366547440340
30
0.000000000000000
11
-98.0067285382830
21
0.433135680037678
31
0.000000000000000
  0
LINE
  5
F1028B
330
F1028C
100
AcDbEntity
8
Geo
100
AcDbLine
10
-98.0067285382830
20
0.433135680037678
30
0.000000000000000
11
-97.9067285382830
21
0.381047088385809
31
0.000000000000000
  0
LINE
  5
F1028D
330
F1028E
100
AcDbEntity
8
Geo
100
AcDbLine
10
-97.9067285382830
20
0.381047088385809
30
0.000000000000000
11
-97.8067285382830
21
0.331177931242186
31
0.000000000000000
  0
LINE
  5
F1028F
330
F10290
100
AcDbEntity
8
Geo
100
AcDbLine
10
-97.8067285382830
20
0.331177931242186
30
0.000000000000000
11
-97.7067285382830
21
0.283602079719046
31
0.000000000000000
  0
LINE
  5
F10291
330
F10292
100
AcDbEntity
8
Geo
100
AcDbLine
10
-97.7067285382830
20
0.283602079719046
30
0.000000000000000
11
-97.6067285382830
21
0.238390007858244
31
0.000000000000000
  0
LINE
  5
F10293
330
F10294
100
AcDbEntity
8
Geo
100
AcDbLine
10
-97.6067285382830
20
0.238390007858244
30
0.000000000000000
11
-97.5067285382830
21
0.195608688238151
31
0.000000000000000
  0
LINE
  5
F10295
330
F10296
100
AcDbEntity
8
Geo
100
AcDbLine
10
-97.5067285382830
20
0.195608688238151
30
0.000000000000000
11
-97.4067285382830
21
0.155321492767262
31
0.000000000000000
  0
LINE
  5
F10297
330
F10298
100
AcDbEntity
8
Geo
100
AcDbLine
10
-97.4067285382830
20
0.155321492767262
30
0.000000000000000
11
-97.3067285382830
21
0.117588098811488
31
0.000000000000000
  0
LINE
  5
F10299
330
F1029A
100
AcDbEntity
8
Geo
100
AcDbLine
10
-97.3067285382830
20
0.117588098811488
30
0.000000000000000
11
-97.2067285382830
21
0.0824644007941515
31
0.000000000000000
  0
LINE
  5
F1029B
330
F1029C
100
AcDbEntity
8
Geo
100
AcDbLine
10
-97.2067285382830
20
0.0824644007941515
30
0.000000000000000
11
-97.1067285382830
21
0.0500024273996549
31
0.000000000000000
  0
LINE
  5
F1029D
330
F1029E
100
AcDbEntity
8
Geo
100
AcDbLine
10
-97.1067285382830
20
0.0500024273996549
30
0.000000000000000
11
-97.0067285382830
21
0.0202502645034666
31
0.000000000000000
  0
LINE
  5
F1029F
330
F102A0
100
AcDbEntity
8
Geo
100
AcDbLine
10
-97.0067285382830
20
0.0202502645034666
30
0.000000000000000
11
-96.9067285382830
21
-0.00674801605741848
31
0.000000000000000
  0
LINE
  5
F102A1
330
F102A2
100
AcDbEntity
8
Geo
100
AcDbLine
10
-96.9067285382830
20
-0.00674801605741848
30
0.000000000000000
11
-96.8067285382830
21
-0.0309524217680310
31
0.000000000000000
  0
LINE
  5
F102A3
330
F102A4
100
AcDbEntity
8
Geo
100
AcDbLine
10
-96.8067285382830
20
-0.0309524217680310
30
0.000000000000000
11
-96.7067285382830
21
-0.0523270986762825
31
0.000000000000000
  0
LINE
  5
F102A5
330
F102A6
100
AcDbEntity
8
Geo
100
AcDbLine
10
-96.7067285382830
20
-0.0523270986762825
30
0.000000000000000
11
-96.6067285382830
21
-0.0708403845033734
31
0.000000000000000
  0
LINE
  5
F102A7
330
F102A8
100
AcDbEntity
8
Geo
100
AcDbLine
10
-96.6067285382830
20
-0.0708403845033734
30
0.000000000000000
11
-96.5067285382830
21
-0.0864648555450824
31
0.000000000000000
  0
LINE
  5
F102A9
330
F102AA
100
AcDbEntity
8
Geo
100
AcDbLine
10
-96.5067285382830
20
-0.0864648555450824
30
0.000000000000000
11
-96.4067285382830
21
-0.0991773672944620
31
0.000000000000000
  0
LINE
  5
F102AB
330
F102AC
100
AcDbEntity
8
Geo
100
AcDbLine
10
-96.4067285382830
20
-0.0991773672944620
30
0.000000000000000
11
-96.3067285382830
21
-0.108959088725763
31
0.000000000000000
  0
LINE
  5
F102AD
330
F102AE
100
AcDbEntity
8
Geo
100
AcDbLine
10
-96.3067285382830
20
-0.108959088725763
30
0.000000000000000
11
-96.2067285382830
21
-0.115795530188805
31
0.000000000000000
  0
LINE
  5
F102AF
330
F102B0
100
AcDbEntity
8
Geo
100
AcDbLine
10
-96.2067285382830
20
-0.115795530188805
30
0.000000000000000
11
-96.1067285382830
21
-0.119676564872478
31
0.000000000000000
  0
LINE
  5
F102B1
330
F102B2
100
AcDbEntity
8
Geo
100
AcDbLine
10
-100.106728538283
20
1.41582485646543
30
0.000000000000000
11
-100.006728538283
21
1.25765686987321
31
0.000000000000000
  0
LINE
  5
F102B3
330
F102B4
100
AcDbEntity
8
Geo
100
AcDbLine
10
-100.006728538283
20
1.25765686987321
30
0.000000000000000
11
-99.9067285382830
21
1.15499070344701
31
0.000000000000000
  0
LINE
  5
F102B5
330
F102B6
100
AcDbEntity
8
Geo
100
AcDbLine
10
-99.9067285382830
20
1.15499070344701
30
0.000000000000000
11
-99.8067285382830
21
1.06366980751252
31
0.000000000000000
  0
LINE
  5
F102B7
330
F102B8
100
AcDbEntity
8
Geo
100
AcDbLine
10
-99.8067285382830
20
1.06366980751252
30
0.000000000000000
11
-99.7067285382830
21
0.981490989795830
31
0.000000000000000
  0
LINE
  5
F102B9
330
F102BA
100
AcDbEntity
8
Geo
100
AcDbLine
10
-99.7067285382830
20
0.981490989795830
30
0.000000000000000
11
-99.6067285382830
21
0.908919788680322
31
0.000000000000000
  0
LINE
  5
F102BB
330
F102BC
100
AcDbEntity
8
Geo
100
AcDbLine
10
-99.6067285382830
20
0.908919788680322
30
0.000000000000000
11
-99.5067285382830
21
0.842344218950370
31
0.000000000000000
  0
LINE
  5
F102BD
330
F102BE
100
AcDbEntity
8
Geo
100
AcDbLine
10
-99.5067285382830
20
0.842344218950370
30
0.000000000000000
11
-99.4067285382830
21
0.777304764938865
31
0.000000000000000
  0
LINE
  5
F102BF
330
F102C0
100
AcDbEntity
8
Geo
100
AcDbLine
10
-99.4067285382830
20
0.777304764938865
30
0.000000000000000
11
-99.3067285382830
21
0.713897769497430
31
0.000000000000000
  0
LINE
  5
F102C1
330
F102C2
100
AcDbEntity
8
Geo
100
AcDbLine
10
-99.3067285382830
20
0.713897769497430
30
0.000000000000000
11
-99.2067285382830
21
0.652217157319106
31
0.000000000000000
  0
LINE
  5
F102C3
330
F102C4
100
AcDbEntity
8
Geo
100
AcDbLine
10
-99.2067285382830
20
0.652217157319106
30
0.000000000000000
11
-99.1067285382830
21
0.592354295807844
31
0.000000000000000
  0
LINE
  5
F102C5
330
F102C6
100
AcDbEntity
8
Geo
100
AcDbLine
10
-99.1067285382830
20
0.592354295807844
30
0.000000000000000
11
-99.0067285382830
21
0.534397859736084
31
0.000000000000000
  0
LINE
  5
F102C7
330
F102C8
100
AcDbEntity
8
Geo
100
AcDbLine
10
-99.0067285382830
20
0.534397859736084
30
0.000000000000000
11
-98.9067285382830
21
0.478433699890952
31
0.000000000000000
  0
LINE
  5
F102C9
330
F102CA
100
AcDbEntity
8
Geo
100
AcDbLine
10
-98.9067285382830
20
0.478433699890952
30
0.000000000000000
11
-98.8067285382830
21
0.424544715903605
31
0.000000000000000
  0
LINE
  5
F102CB
330
F102CC
100
AcDbEntity
8
Geo
100
AcDbLine
10
-98.8067285382830
20
0.424544715903605
30
0.000000000000000
11
-98.7067285382830
21
0.372810733450126
31
0.000000000000000
  0
LINE
  5
F102CD
330
F102CE
100
AcDbEntity
8
Geo
100
AcDbLine
10
-98.7067285382830
20
0.372810733450126
30
0.000000000000000
11
-98.6067285382830
21
0.323308386005856
31
0.000000000000000
  0
LINE
  5
F102CF
330
F102D0
100
AcDbEntity
8
Geo
100
AcDbLine
10
-98.6067285382830
20
0.323308386005856
30
0.000000000000000
11
-98.5067285382830
21
0.276111001328345
31
0.000000000000000
  0
LINE
  5
F102D1
330
F102D2
100
AcDbEntity
8
Geo
100
AcDbLine
10
-98.5067285382830
20
0.276111001328345
30
0.000000000000000
11
-98.4067285382830
21
0.231288492837043
31
0.000000000000000
  0
LINE
  5
F102D3
330
F102D4
100
AcDbEntity
8
Geo
100
AcDbLine
10
-98.4067285382830
20
0.231288492837043
30
0.000000000000000
11
-98.3067285382830
21
0.188907256050646
31
0.000000000000000
  0
LINE
  5
F102D5
330
F102D6
100
AcDbEntity
8
Geo
100
AcDbLine
10
-98.3067285382830
20
0.188907256050646
30
0.000000000000000
11
-98.2067285382830
21
0.149030070235516
31
0.000000000000000
  0
LINE
  5
F102D7
330
F102D8
100
AcDbEntity
8
Geo
100
AcDbLine
10
-98.2067285382830
20
0.149030070235516
30
0.000000000000000
11
-98.1067285382830
21
0.111716005410836
31
0.000000000000000
  0
LINE
  5
F102D9
330
F102DA
100
AcDbEntity
8
Geo
100
AcDbLine
10
-98.1067285382830
20
0.111716005410836
30
0.000000000000000
11
-98.0067285382830
21
0.0770203348482768
31
0.000000000000000
  0
LINE
  5
F102DB
330
F102DC
100
AcDbEntity
8
Geo
100
AcDbLine
10
-98.0067285382830
20
0.0770203348482768
30
0.000000000000000
11
-97.9067285382830
21
0.0449944531957751
31
0.000000000000000
  0
LINE
  5
F102DD
330
F102DE
100
AcDbEntity
8
Geo
100
AcDbLine
10
-97.9067285382830
20
0.0449944531957751
30
0.000000000000000
11
-97.8067285382830
21
0.0156858003467171
31
0.000000000000000
  0
LINE
  5
F102DF
330
F102E0
100
AcDbEntity
8
Geo
100
AcDbLine
10
-97.8067285382830
20
0.0156858003467171
30
0.000000000000000
11
-97.7067285382830
21
-0.0108622088327111
31
0.000000000000000
  0
LINE
  5
F102E1
330
F102E2
100
AcDbEntity
8
Geo
100
AcDbLine
10
-97.7067285382830
20
-0.0108622088327111
30
0.000000000000000
11
-97.6067285382830
21
-0.0346102488139033
31
0.000000000000000
  0
LINE
  5
F102E3
330
F102E4
100
AcDbEntity
8
Geo
100
AcDbLine
10
-97.6067285382830
20
-0.0346102488139033
30
0.000000000000000
11
-97.5067285382830
21
-0.0555231416586830
31
0.000000000000000
  0
LINE
  5
F102E5
330
F102E6
100
AcDbEntity
8
Geo
100
AcDbLine
10
-97.5067285382830
20
-0.0555231416586830
30
0.000000000000000
11
-97.4067285382830
21
-0.0735699091283339
31
0.000000000000000
  0
LINE
  5
F102E7
330
F102E8
100
AcDbEntity
8
Geo
100
AcDbLine
10
-97.4067285382830
20
-0.0735699091283339
30
0.000000000000000
11
-97.3067285382830
21
-0.0887238185716206
31
0.000000000000000
  0
LINE
  5
F102E9
330
F102EA
100
AcDbEntity
8
Geo
100
AcDbLine
10
-97.3067285382830
20
-0.0887238185716206
30
0.000000000000000
11
-97.2067285382830
21
-0.100962422523828
31
0.000000000000000
  0
LINE
  5
F102EB
330
F102EC
100
AcDbEntity
8
Geo
100
AcDbLine
10
-97.2067285382830
20
-0.100962422523828
30
0.000000000000000
11
-97.1067285382830
21
-0.110267591958159
31
0.000000000000000
  0
LINE
  5
F102ED
330
F102EE
100
AcDbEntity
8
Geo
100
AcDbLine
10
-97.1067285382830
20
-0.110267591958159
30
0.000000000000000
11
-97.0067285382830
21
-0.116625543140237
31
0.000000000000000
  0
LINE
  5
F102EF
330
F102F0
100
AcDbEntity
8
Geo
100
AcDbLine
10
-97.0067285382830
20
-0.116625543140237
30
0.000000000000000
11
-96.9067285382830
21
-0.120026858045929
31
0.000000000000000
  0
LINE
  5
F102F1
330
F102F2
100
AcDbEntity
8
Geo
100
AcDbLine
10
-88.7067285382830
20
3.87935034802784
30
0.000000000000000
11
-88.6067285382830
21
3.87925747463901
31
0.000000000000000
  0
LINE
  5
F102F3
330
F102F4
100
AcDbEntity
8
Geo
100
AcDbLine
10
-88.6067285382830
20
3.87925747463901
30
0.000000000000000
11
-88.5067285382830
21
3.87773428119697
31
0.000000000000000
  0
LINE
  5
F102F5
330
F102F6
100
AcDbEntity
8
Geo
100
AcDbLine
10
-88.5067285382830
20
3.87773428119697
30
0.000000000000000
11
-88.4067285382830
21
3.87446178735752
31
0.000000000000000
  0
LINE
  5
F102F7
330
F102F8
100
AcDbEntity
8
Geo
100
AcDbLine
10
-88.4067285382830
20
3.87446178735752
30
0.000000000000000
11
-88.3067285382830
21
3.86959181967114
31
0.000000000000000
  0
LINE
  5
F102F9
330
F102FA
100
AcDbEntity
8
Geo
100
AcDbLine
10
-88.3067285382830
20
3.86959181967114
30
0.000000000000000
11
-88.2067285382830
21
3.86327289573227
31
0.000000000000000
  0
LINE
  5
F102FB
330
F102FC
100
AcDbEntity
8
Geo
100
AcDbLine
10
-88.2067285382830
20
3.86327289573227
30
0.000000000000000
11
-88.1067285382831
21
3.85564986923283
31
0.000000000000000
  0
LINE
  5
F102FD
330
F102FE
100
AcDbEntity
8
Geo
100
AcDbLine
10
-88.1067285382831
20
3.85564986923283
30
0.000000000000000
11
-88.0067285382830
21
3.84686362464570
31
0.000000000000000
  0
LINE
  5
F102FF
330
F10300
100
AcDbEntity
8
Geo
100
AcDbLine
10
-88.0067285382830
20
3.84686362464570
30
0.000000000000000
11
-87.9067285382830
21
3.83705081836463
31
0.000000000000000
  0
LINE
  5
F10301
330
F10302
100
AcDbEntity
8
Geo
100
AcDbLine
10
-87.9067285382830
20
3.83705081836463
30
0.000000000000000
11
-87.8067285382830
21
3.82634366310362
31
0.000000000000000
  0
LINE
  5
F10303
330
F10304
100
AcDbEntity
8
Geo
100
AcDbLine
10
-87.8067285382830
20
3.82634366310362
30
0.000000000000000
11
-87.7067285382830
21
3.81486975236113
31
0.000000000000000
  0
LINE
  5
F10305
330
F10306
100
AcDbEntity
8
Geo
100
AcDbLine
10
-87.7067285382830
20
3.81486975236113
30
0.000000000000000
11
-87.6067285382831
21
3.80275192178117
31
0.000000000000000
  0
LINE
  5
F10307
330
F10308
100
AcDbEntity
8
Geo
100
AcDbLine
10
-87.6067285382831
20
3.80275192178117
30
0.000000000000000
11
-87.5067285382830
21
3.79010814428909
31
0.000000000000000
  0
LINE
  5
F10309
330
F1030A
100
AcDbEntity
8
Geo
100
AcDbLine
10
-87.5067285382830
20
3.79010814428909
30
0.000000000000000
11
-87.4067285382830
21
3.77705145594443
31
0.000000000000000
  0
LINE
  5
F1030B
330
F1030C
100
AcDbEntity
8
Geo
100
AcDbLine
10
-87.4067285382830
20
3.77705145594443
30
0.000000000000000
11
-87.3067285382830
21
3.76368990953164
31
0.000000000000000
  0
LINE
  5
F1030D
330
F1030E
100
AcDbEntity
8
Geo
100
AcDbLine
10
-87.3067285382830
20
3.76368990953164
30
0.000000000000000
11
-87.2067285382830
21
3.75012655300148
31
0.000000000000000
  0
LINE
  5
F1030F
330
F10310
100
AcDbEntity
8
Geo
100
AcDbLine
10
-87.2067285382830
20
3.75012655300148
30
0.000000000000000
11
-87.1067285382831
21
3.73645942997730
31
0.000000000000000
  0
LINE
  5
F10311
330
F10312
100
AcDbEntity
8
Geo
100
AcDbLine
10
-87.1067285382831
20
3.73645942997730
30
0.000000000000000
11
-87.0067285382830
21
3.72278159965089
31
0.000000000000000
  0
LINE
  5
F10313
330
F10314
100
AcDbEntity
8
Geo
100
AcDbLine
10
-87.0067285382830
20
3.72278159965089
30
0.000000000000000
11
-86.9067285382830
21
3.70918117350916
31
0.000000000000000
  0
LINE
  5
F10315
330
F10316
100
AcDbEntity
8
Geo
100
AcDbLine
10
-86.9067285382830
20
3.70918117350916
30
0.000000000000000
11
-86.8067285382831
21
3.69574136645440
31
0.000000000000000
  0
LINE
  5
F10317
330
F10318
100
AcDbEntity
8
Geo
100
AcDbLine
10
-86.8067285382831
20
3.69574136645440
30
0.000000000000000
11
-86.7067285382830
21
3.68254056000581
31
0.000000000000000
  0
LINE
  5
F10319
330
F1031A
100
AcDbEntity
8
Geo
100
AcDbLine
10
-86.7067285382830
20
3.68254056000581
30
0.000000000000000
11
-86.6067285382831
21
3.66965237539680
31
0.000000000000000
  0
LINE
  5
F1031B
330
F1031C
100
AcDbEntity
8
Geo
100
AcDbLine
10
-86.6067285382831
20
3.66965237539680
30
0.000000000000000
11
-86.5067285382831
21
3.65714575451058
31
0.000000000000000
  0
LINE
  5
F1031D
330
F1031E
100
AcDbEntity
8
Geo
100
AcDbLine
10
-86.5067285382831
20
3.65714575451058
30
0.000000000000000
11
-86.4067285382830
21
3.64508504672420
31
0.000000000000000
  0
LINE
  5
F1031F
330
F10320
100
AcDbEntity
8
Geo
100
AcDbLine
10
-86.4067285382830
20
3.64508504672420
30
0.000000000000000
11
-86.3067285382831
21
3.63353009985826
31
0.000000000000000
  0
LINE
  5
F10321
330
F10322
100
AcDbEntity
8
Geo
100
AcDbLine
10
-86.3067285382831
20
3.63353009985826
30
0.000000000000000
11
-86.2067285382830
21
3.62253635355477
31
0.000000000000000
  0
LINE
  5
F10323
330
F10324
100
AcDbEntity
8
Geo
100
AcDbLine
10
-86.2067285382830
20
3.62253635355477
30
0.000000000000000
11
-86.1067285382831
21
3.61215493352878
31
0.000000000000000
  0
LINE
  5
F10325
330
F10326
100
AcDbEntity
8
Geo
100
AcDbLine
10
-86.1067285382831
20
3.61215493352878
30
0.000000000000000
11
-86.0067285382831
21
3.60243274526019
31
0.000000000000000
  0
LINE
  5
F10327
330
F10328
100
AcDbEntity
8
Geo
100
AcDbLine
10
-86.0067285382831
20
3.60243274526019
30
0.000000000000000
11
-85.9067285382830
21
3.59341256580967
31
0.000000000000000
  0
LINE
  5
F10329
330
F1032A
100
AcDbEntity
8
Geo
100
AcDbLine
10
-85.9067285382830
20
3.59341256580967
30
0.000000000000000
11
-85.8067285382831
21
3.58513313255734
31
0.000000000000000
  0
LINE
  5
F1032B
330
F1032C
100
AcDbEntity
8
Geo
100
AcDbLine
10
-85.8067285382831
20
3.58513313255734
30
0.000000000000000
11
-85.7067285382830
21
3.57762922777404
31
0.000000000000000
  0
LINE
  5
F1032D
330
F1032E
100
AcDbEntity
8
Geo
100
AcDbLine
10
-85.7067285382830
20
3.57762922777404
30
0.000000000000000
11
-85.6067285382831
21
3.57093175804320
31
0.000000000000000
  0
LINE
  5
F1032F
330
F10330
100
AcDbEntity
8
Geo
100
AcDbLine
10
-85.6067285382831
20
3.57093175804320
30
0.000000000000000
11
-85.5067285382831
21
3.56506782765598
31
0.000000000000000
  0
LINE
  5
F10331
330
F10332
100
AcDbEntity
8
Geo
100
AcDbLine
10
-85.5067285382831
20
3.56506782765598
30
0.000000000000000
11
-85.4067285382830
21
3.56006080520392
31
0.000000000000000
  0
LINE
  5
F10333
330
F10334
100
AcDbEntity
8
Geo
100
AcDbLine
10
-85.4067285382830
20
3.56006080520392
30
0.000000000000000
11
-85.3067285382831
21
3.55593038269195
31
0.000000000000000
  0
LINE
  5
F10335
330
F10336
100
AcDbEntity
8
Geo
100
AcDbLine
10
-85.3067285382831
20
3.55593038269195
30
0.000000000000000
11
-85.2067285382831
21
3.55269262659066
31
0.000000000000000
  0
LINE
  5
F10337
330
F10338
100
AcDbEntity
8
Geo
100
AcDbLine
10
-85.2067285382831
20
3.55269262659066
30
0.000000000000000
11
-85.1067285382830
21
3.55036002033963
31
0.000000000000000
  0
LINE
  5
F10339
330
F1033A
100
AcDbEntity
8
Geo
100
AcDbLine
10
-92.0067285382831
20
3.87877910786305
30
0.000000000000000
11
-91.9067285382830
21
3.87913751819260
31
0.000000000000000
  0
LINE
  5
F1033B
330
F1033C
100
AcDbEntity
8
Geo
100
AcDbLine
10
-91.9067285382830
20
3.87913751819260
30
0.000000000000000
11
-91.8067285382831
21
3.87653364660356
31
0.000000000000000
  0
LINE
  5
F1033D
330
F1033E
100
AcDbEntity
8
Geo
100
AcDbLine
10
-91.8067285382831
20
3.87653364660356
30
0.000000000000000
11
-91.7067285382830
21
3.87097135020724
31
0.000000000000000
  0
LINE
  5
F1033F
330
F10340
100
AcDbEntity
8
Geo
100
AcDbLine
10
-91.7067285382830
20
3.87097135020724
30
0.000000000000000
11
-91.6067285382831
21
3.86245886842546
31
0.000000000000000
  0
LINE
  5
F10341
330
F10342
100
AcDbEntity
8
Geo
100
AcDbLine
10
-91.6067285382831
20
3.86245886842546
30
0.000000000000000
11
-91.5067285382831
21
3.85100881078549
31
0.000000000000000
  0
LINE
  5
F10343
330
F10344
100
AcDbEntity
8
Geo
100
AcDbLine
10
-91.5067285382831
20
3.85100881078549
30
0.000000000000000
11
-91.4067285382830
21
3.83663813824160
31
0.000000000000000
  0
LINE
  5
F10345
330
F10346
100
AcDbEntity
8
Geo
100
AcDbLine
10
-91.4067285382830
20
3.83663813824160
30
0.000000000000000
11
-91.3067285382831
21
3.81936813805077
31
0.000000000000000
  0
LINE
  5
F10347
330
F10348
100
AcDbEntity
8
Geo
100
AcDbLine
10
-91.3067285382831
20
3.81936813805077
30
0.000000000000000
11
-91.2067285382830
21
3.79922439223997
31
0.000000000000000
  0
LINE
  5
F10349
330
F1034A
100
AcDbEntity
8
Geo
100
AcDbLine
10
-91.2067285382830
20
3.79922439223997
30
0.000000000000000
11
-91.1067285382831
21
3.77623673971150
31
0.000000000000000
  0
LINE
  5
F1034B
330
F1034C
100
AcDbEntity
8
Geo
100
AcDbLine
10
-91.1067285382831
20
3.77623673971150
30
0.000000000000000
11
-91.0067285382831
21
3.75043923204267
31
0.000000000000000
  0
LINE
  5
F1034D
330
F1034E
100
AcDbEntity
8
Geo
100
AcDbLine
10
-91.0067285382831
20
3.75043923204267
30
0.000000000000000
11
-90.9067285382830
21
3.72187008304526
31
0.000000000000000
  0
LINE
  5
F1034F
330
F10350
100
AcDbEntity
8
Geo
100
AcDbLine
10
-90.9067285382830
20
3.72187008304526
30
0.000000000000000
11
-90.8067285382831
21
3.69057161215943
31
0.000000000000000
  0
LINE
  5
F10351
330
F10352
100
AcDbEntity
8
Geo
100
AcDbLine
10
-90.8067285382831
20
3.69057161215943
30
0.000000000000000
11
-90.7067285382831
21
3.65659018176603
31
0.000000000000000
  0
LINE
  5
F10353
330
F10354
100
AcDbEntity
8
Geo
100
AcDbLine
10
-90.7067285382831
20
3.65659018176603
30
0.000000000000000
11
-90.6067285382831
21
3.61997612851004
31
0.000000000000000
  0
LINE
  5
F10355
330
F10356
100
AcDbEntity
8
Geo
100
AcDbLine
10
-90.6067285382831
20
3.61997612851004
30
0.000000000000000
11
-90.5067285382831
21
3.58078368873699
31
0.000000000000000
  0
LINE
  5
F10357
330
F10358
100
AcDbEntity
8
Geo
100
AcDbLine
10
-90.5067285382831
20
3.58078368873699
30
0.000000000000000
11
-90.4067285382831
21
3.53907091815269
31
0.000000000000000
  0
LINE
  5
F10359
330
F1035A
100
AcDbEntity
8
Geo
100
AcDbLine
10
-90.4067285382831
20
3.53907091815269
30
0.000000000000000
11
-90.3067285382831
21
3.49489960582549
31
0.000000000000000
  0
LINE
  5
F1035B
330
F1035C
100
AcDbEntity
8
Geo
100
AcDbLine
10
-90.3067285382831
20
3.49489960582549
30
0.000000000000000
11
-90.2067285382831
21
3.44833518265810
31
0.000000000000000
  0
LINE
  5
F1035D
330
F1035E
100
AcDbEntity
8
Geo
100
AcDbLine
10
-90.2067285382831
20
3.44833518265810
30
0.000000000000000
11
-90.1067285382830
21
3.39944662446497
31
0.000000000000000
  0
LINE
  5
F1035F
330
F10360
100
AcDbEntity
8
Geo
100
AcDbLine
10
-90.1067285382830
20
3.39944662446497
30
0.000000000000000
11
-90.0067285382830
21
3.40565530948037
31
0.000000000000000
  0
LINE
  5
F10361
330
F10362
100
AcDbEntity
8
Geo
100
AcDbLine
10
-90.0067285382830
20
3.40565530948037
30
0.000000000000000
11
-89.9067285382830
21
3.41170952403401
31
0.000000000000000
  0
LINE
  5
F10363
330
F10364
100
AcDbEntity
8
Geo
100
AcDbLine
10
-89.9067285382830
20
3.41170952403401
30
0.000000000000000
11
-89.8067285382830
21
3.41761113747360
31
0.000000000000000
  0
LINE
  5
F10365
330
F10366
100
AcDbEntity
8
Geo
100
AcDbLine
10
-89.8067285382830
20
3.41761113747360
30
0.000000000000000
11
-89.7067285382830
21
3.42336199566210
31
0.000000000000000
  0
LINE
  5
F10367
330
F10368
100
AcDbEntity
8
Geo
100
AcDbLine
10
-89.7067285382830
20
3.42336199566210
30
0.000000000000000
11
-89.6067285382830
21
3.42896392007625
31
0.000000000000000
  0
LINE
  5
F10369
330
F1036A
100
AcDbEntity
8
Geo
100
AcDbLine
10
-89.6067285382830
20
3.42896392007625
30
0.000000000000000
11
-89.5067285382830
21
3.43441870693223
31
0.000000000000000
  0
LINE
  5
F1036B
330
F1036C
100
AcDbEntity
8
Geo
100
AcDbLine
10
-89.5067285382830
20
3.43441870693223
30
0.000000000000000
11
-89.4067285382830
21
3.43972812633783
31
0.000000000000000
  0
LINE
  5
F1036D
330
F1036E
100
AcDbEntity
8
Geo
100
AcDbLine
10
-89.4067285382830
20
3.43972812633783
30
0.000000000000000
11
-89.3067285382830
21
3.44489392147072
31
0.000000000000000
  0
LINE
  5
F1036F
330
F10370
100
AcDbEntity
8
Geo
100
AcDbLine
10
-89.3067285382830
20
3.44489392147072
30
0.000000000000000
11
-89.2067285382830
21
3.44991780778235
31
0.000000000000000
  0
LINE
  5
F10371
330
F10372
100
AcDbEntity
8
Geo
100
AcDbLine
10
-89.2067285382830
20
3.44991780778235
30
0.000000000000000
11
-89.1067285382830
21
3.45480147222697
31
0.000000000000000
  0
LINE
  5
F10373
330
F10374
100
AcDbEntity
8
Geo
100
AcDbLine
10
-89.1067285382830
20
3.45480147222697
30
0.000000000000000
11
-89.0067285382830
21
3.45954657251537
31
0.000000000000000
  0
LINE
  5
F10375
330
F10376
100
AcDbEntity
8
Geo
100
AcDbLine
10
-89.0067285382830
20
3.45954657251537
30
0.000000000000000
11
-88.9067285382830
21
3.46415473639284
31
0.000000000000000
  0
LINE
  5
F10377
330
F10378
100
AcDbEntity
8
Geo
100
AcDbLine
10
-88.9067285382830
20
3.46415473639284
30
0.000000000000000
11
-88.8067285382830
21
3.46862756094093
31
0.000000000000000
  0
LINE
  5
F10379
330
F1037A
100
AcDbEntity
8
Geo
100
AcDbLine
10
-88.8067285382830
20
3.46862756094093
30
0.000000000000000
11
-88.7067285382830
21
3.47296661190250
31
0.000000000000000
  0
LINE
  5
F1037B
330
F1037C
100
AcDbEntity
8
Geo
100
AcDbLine
10
-88.7067285382830
20
3.47296661190250
30
0.000000000000000
11
-88.6067285382830
21
3.47717342302973
31
0.000000000000000
  0
LINE
  5
F1037D
330
F1037E
100
AcDbEntity
8
Geo
100
AcDbLine
10
-88.6067285382830
20
3.47717342302973
30
0.000000000000000
11
-88.5067285382830
21
3.48124949545453
31
0.000000000000000
  0
LINE
  5
F1037F
330
F10380
100
AcDbEntity
8
Geo
100
AcDbLine
10
-88.5067285382830
20
3.48124949545453
30
0.000000000000000
11
-88.4067285382830
21
3.48519629708103
31
0.000000000000000
  0
LINE
  5
F10381
330
F10382
100
AcDbEntity
8
Geo
100
AcDbLine
10
-88.4067285382830
20
3.48519629708103
30
0.000000000000000
11
-88.3067285382830
21
3.48901526199964
31
0.000000000000000
  0
LINE
  5
F10383
330
F10384
100
AcDbEntity
8
Geo
100
AcDbLine
10
-88.3067285382830
20
3.48901526199964
30
0.000000000000000
11
-88.2067285382830
21
3.49270778992232
31
0.000000000000000
  0
LINE
  5
F10385
330
F10386
100
AcDbEntity
8
Geo
100
AcDbLine
10
-88.2067285382830
20
3.49270778992232
30
0.000000000000000
11
-88.1067285382831
21
3.49627524563868
31
0.000000000000000
  0
LINE
  5
F10387
330
F10388
100
AcDbEntity
8
Geo
100
AcDbLine
10
-88.1067285382831
20
3.49627524563868
30
0.000000000000000
11
-88.0067285382830
21
3.49971895849240
31
0.000000000000000
  0
LINE
  5
F10389
330
F1038A
100
AcDbEntity
8
Geo
100
AcDbLine
10
-88.0067285382830
20
3.49971895849240
30
0.000000000000000
11
-87.9067285382830
21
3.50304022187770
31
0.000000000000000
  0
LINE
  5
F1038B
330
F1038C
100
AcDbEntity
8
Geo
100
AcDbLine
10
-87.9067285382830
20
3.50304022187770
30
0.000000000000000
11
-87.8067285382830
21
3.50624029275544
31
0.000000000000000
  0
LINE
  5
F1038D
330
F1038E
100
AcDbEntity
8
Geo
100
AcDbLine
10
-87.8067285382830
20
3.50624029275544
30
0.000000000000000
11
-87.7067285382830
21
3.50932039118841
31
0.000000000000000
  0
LINE
  5
F1038F
330
F10390
100
AcDbEntity
8
Geo
100
AcDbLine
10
-87.7067285382830
20
3.50932039118841
30
0.000000000000000
11
-87.6067285382831
21
3.51228169989560
31
0.000000000000000
  0
LINE
  5
F10391
330
F10392
100
AcDbEntity
8
Geo
100
AcDbLine
10
-87.6067285382831
20
3.51228169989560
30
0.000000000000000
11
-87.5067285382830
21
3.51512536382489
31
0.000000000000000
  0
LINE
  5
F10393
330
F10394
100
AcDbEntity
8
Geo
100
AcDbLine
10
-87.5067285382830
20
3.51512536382489
30
0.000000000000000
11
-87.4067285382830
21
3.51785248974402
31
0.000000000000000
  0
LINE
  5
F10395
330
F10396
100
AcDbEntity
8
Geo
100
AcDbLine
10
-87.4067285382830
20
3.51785248974402
30
0.000000000000000
11
-87.3067285382830
21
3.52046414584937
31
0.000000000000000
  0
LINE
  5
F10397
330
F10398
100
AcDbEntity
8
Geo
100
AcDbLine
10
-87.3067285382830
20
3.52046414584937
30
0.000000000000000
11
-87.2067285382830
21
3.52296136139227
31
0.000000000000000
  0
LINE
  5
F10399
330
F1039A
100
AcDbEntity
8
Geo
100
AcDbLine
10
-87.2067285382830
20
3.52296136139227
30
0.000000000000000
11
-87.1067285382831
21
3.52534512632255
31
0.000000000000000
  0
LINE
  5
F1039B
330
F1039C
100
AcDbEntity
8
Geo
100
AcDbLine
10
-87.1067285382831
20
3.52534512632255
30
0.000000000000000
11
-87.0067285382830
21
3.52761639094896
31
0.000000000000000
  0
LINE
  5
F1039D
330
F1039E
100
AcDbEntity
8
Geo
100
AcDbLine
10
-87.0067285382830
20
3.52761639094896
30
0.000000000000000
11
-86.9067285382830
21
3.52977606561627
31
0.000000000000000
  0
LINE
  5
F1039F
330
F103A0
100
AcDbEntity
8
Geo
100
AcDbLine
10
-86.9067285382830
20
3.52977606561627
30
0.000000000000000
11
-86.8067285382831
21
3.53182502039867
31
0.000000000000000
  0
LINE
  5
F103A1
330
F103A2
100
AcDbEntity
8
Geo
100
AcDbLine
10
-86.8067285382831
20
3.53182502039867
30
0.000000000000000
11
-86.7067285382830
21
3.53376408480925
31
0.000000000000000
  0
LINE
  5
F103A3
330
F103A4
100
AcDbEntity
8
Geo
100
AcDbLine
10
-86.7067285382830
20
3.53376408480925
30
0.000000000000000
11
-86.6067285382831
21
3.53559404752529
31
0.000000000000000
  0
LINE
  5
F103A5
330
F103A6
100
AcDbEntity
8
Geo
100
AcDbLine
10
-86.6067285382831
20
3.53559404752529
30
0.000000000000000
11
-86.5067285382831
21
3.53731565612914
31
0.000000000000000
  0
LINE
  5
F103A7
330
F103A8
100
AcDbEntity
8
Geo
100
AcDbLine
10
-86.5067285382831
20
3.53731565612914
30
0.000000000000000
11
-86.4067285382830
21
3.53892961686441
31
0.000000000000000
  0
LINE
  5
F103A9
330
F103AA
100
AcDbEntity
8
Geo
100
AcDbLine
10
-86.4067285382830
20
3.53892961686441
30
0.000000000000000
11
-86.3067285382831
21
3.54043659440725
31
0.000000000000000
  0
LINE
  5
F103AB
330
F103AC
100
AcDbEntity
8
Geo
100
AcDbLine
10
-86.3067285382831
20
3.54043659440725
30
0.000000000000000
11
-86.2067285382830
21
3.54183721165258
31
0.000000000000000
  0
LINE
  5
F103AD
330
F103AE
100
AcDbEntity
8
Geo
100
AcDbLine
10
-86.2067285382830
20
3.54183721165258
30
0.000000000000000
11
-86.1067285382831
21
3.54313204951498
31
0.000000000000000
  0
LINE
  5
F103AF
330
F103B0
100
AcDbEntity
8
Geo
100
AcDbLine
10
-86.1067285382831
20
3.54313204951498
30
0.000000000000000
11
-86.0067285382831
21
3.54432164674412
31
0.000000000000000
  0
LINE
  5
F103B1
330
F103B2
100
AcDbEntity
8
Geo
100
AcDbLine
10
-86.0067285382831
20
3.54432164674412
30
0.000000000000000
11
-85.9067285382830
21
3.54540649975446
31
0.000000000000000
  0
LINE
  5
F103B3
330
F103B4
100
AcDbEntity
8
Geo
100
AcDbLine
10
-85.9067285382830
20
3.54540649975446
30
0.000000000000000
11
-85.8067285382831
21
3.54638706246924
31
0.000000000000000
  0
LINE
  5
F103B5
330
F103B6
100
AcDbEntity
8
Geo
100
AcDbLine
10
-85.8067285382831
20
3.54638706246924
30
0.000000000000000
11
-85.7067285382830
21
3.54726374617838
31
0.000000000000000
  0
LINE
  5
F103B7
330
F103B8
100
AcDbEntity
8
Geo
100
AcDbLine
10
-85.7067285382830
20
3.54726374617838
30
0.000000000000000
11
-85.6067285382831
21
3.54803691941039
31
0.000000000000000
  0
LINE
  5
F103B9
330
F103BA
100
AcDbEntity
8
Geo
100
AcDbLine
10
-85.6067285382831
20
3.54803691941039
30
0.000000000000000
11
-85.5067285382831
21
3.54870690781791
31
0.000000000000000
  0
LINE
  5
F103BB
330
F103BC
100
AcDbEntity
8
Geo
100
AcDbLine
10
-85.5067285382831
20
3.54870690781791
30
0.000000000000000
11
-85.4067285382830
21
3.54927399407702
31
0.000000000000000
  0
LINE
  5
F103BD
330
F103BE
100
AcDbEntity
8
Geo
100
AcDbLine
10
-85.4067285382830
20
3.54927399407702
30
0.000000000000000
11
-85.3067285382831
21
3.54973841780004
31
0.000000000000000
  0
LINE
  5
F103BF
330
F103C0
100
AcDbEntity
8
Geo
100
AcDbLine
10
-85.3067285382831
20
3.54973841780004
30
0.000000000000000
11
-85.2067285382831
21
3.55010037546187
31
0.000000000000000
  0
LINE
  5
F103C1
330
F103C2
100
AcDbEntity
8
Geo
100
AcDbLine
10
-85.2067285382831
20
3.55010037546187
30
0.000000000000000
11
-85.1067285382830
21
3.55036002033963
31
0.000000000000000
  0
LINE
  5
F103C3
330
F103C4
100
AcDbEntity
8
Geo
100
AcDbLine
10
-92.8067285382830
20
3.87903840713166
30
0.000000000000000
11
-92.7067285382830
21
3.87891656063459
31
0.000000000000000
  0
LINE
  5
F103C5
330
F103C6
100
AcDbEntity
8
Geo
100
AcDbLine
10
-92.7067285382830
20
3.87891656063459
30
0.000000000000000
11
-92.6067285382831
21
3.87583275952304
31
0.000000000000000
  0
LINE
  5
F103C7
330
F103C8
100
AcDbEntity
8
Geo
100
AcDbLine
10
-92.6067285382831
20
3.87583275952304
30
0.000000000000000
11
-92.5067285382830
21
3.86979157182727
31
0.000000000000000
  0
LINE
  5
F103C9
330
F103CA
100
AcDbEntity
8
Geo
100
AcDbLine
10
-92.5067285382830
20
3.86979157182727
30
0.000000000000000
11
-92.4067285382830
21
3.86080194635008
31
0.000000000000000
  0
LINE
  5
F103CB
330
F103CC
100
AcDbEntity
8
Geo
100
AcDbLine
10
-92.4067285382830
20
3.86080194635008
30
0.000000000000000
11
-92.3067285382831
21
3.84887719941105
31
0.000000000000000
  0
LINE
  5
F103CD
330
F103CE
100
AcDbEntity
8
Geo
100
AcDbLine
10
-92.3067285382831
20
3.84887719941105
30
0.000000000000000
11
-92.2067285382830
21
3.83403499512101
31
0.000000000000000
  0
LINE
  5
F103CF
330
F103D0
100
AcDbEntity
8
Geo
100
AcDbLine
10
-92.2067285382830
20
3.83403499512101
30
0.000000000000000
11
-92.1067285382831
21
3.81629731921628
31
0.000000000000000
  0
LINE
  5
F103D1
330
F103D2
100
AcDbEntity
8
Geo
100
AcDbLine
10
-92.1067285382831
20
3.81629731921628
30
0.000000000000000
11
-92.0067285382831
21
3.79569044649120
31
0.000000000000000
  0
LINE
  5
F103D3
330
F103D4
100
AcDbEntity
8
Geo
100
AcDbLine
10
-92.0067285382831
20
3.79569044649120
30
0.000000000000000
11
-91.9067285382830
21
3.77224490187730
31
0.000000000000000
  0
LINE
  5
F103D5
330
F103D6
100
AcDbEntity
8
Geo
100
AcDbLine
10
-91.9067285382830
20
3.77224490187730
30
0.000000000000000
11
-91.8067285382831
21
3.74599541522680
31
0.000000000000000
  0
LINE
  5
F103D7
330
F103D8
100
AcDbEntity
8
Geo
100
AcDbLine
10
-91.8067285382831
20
3.74599541522680
30
0.000000000000000
11
-91.7067285382830
21
3.71698086986731
31
0.000000000000000
  0
LINE
  5
F103D9
330
F103DA
100
AcDbEntity
8
Geo
100
AcDbLine
10
-91.7067285382830
20
3.71698086986731
30
0.000000000000000
11
-91.6067285382831
21
3.68524424500400
31
0.000000000000000
  0
LINE
  5
F103DB
330
F103DC
100
AcDbEntity
8
Geo
100
AcDbLine
10
-91.6067285382831
20
3.68524424500400
30
0.000000000000000
11
-91.5067285382831
21
3.65083255205458
31
0.000000000000000
  0
LINE
  5
F103DD
330
F103DE
100
AcDbEntity
8
Geo
100
AcDbLine
10
-91.5067285382831
20
3.65083255205458
30
0.000000000000000
11
-91.4067285382830
21
3.61379676501136
31
0.000000000000000
  0
LINE
  5
F103DF
330
F103E0
100
AcDbEntity
8
Geo
100
AcDbLine
10
-91.4067285382830
20
3.61379676501136
30
0.000000000000000
11
-91.3067285382831
21
3.57419174493352
31
0.000000000000000
  0
LINE
  5
F103E1
330
F103E2
100
AcDbEntity
8
Geo
100
AcDbLine
10
-91.3067285382831
20
3.57419174493352
30
0.000000000000000
11
-91.2067285382830
21
3.53207615868151
31
0.000000000000000
  0
LINE
  5
F103E3
330
F103E4
100
AcDbEntity
8
Geo
100
AcDbLine
10
-91.2067285382830
20
3.53207615868151
30
0.000000000000000
11
-91.1067285382831
21
3.48751239201394
31
0.000000000000000
  0
LINE
  5
F103E5
330
F103E6
100
AcDbEntity
8
Geo
100
AcDbLine
10
-91.1067285382831
20
3.48751239201394
30
0.000000000000000
11
-91.0067285382831
21
3.44056645717560
31
0.000000000000000
  0
LINE
  5
F103E7
330
F103E8
100
AcDbEntity
8
Geo
100
AcDbLine
10
-91.0067285382831
20
3.44056645717560
30
0.000000000000000
11
-90.9067285382830
21
3.39130789511365
31
0.000000000000000
  0
LINE
  5
F103E9
330
F103EA
100
AcDbEntity
8
Geo
100
AcDbLine
10
-90.9067285382830
20
3.39130789511365
30
0.000000000000000
11
-90.8067285382831
21
3.33980967246670
31
0.000000000000000
  0
LINE
  5
F103EB
330
F103EC
100
AcDbEntity
8
Geo
100
AcDbLine
10
-90.8067285382831
20
3.33980967246670
30
0.000000000000000
11
-90.7067285382831
21
3.28614807347943
31
0.000000000000000
  0
LINE
  5
F103ED
330
F103EE
100
AcDbEntity
8
Geo
100
AcDbLine
10
-90.7067285382831
20
3.28614807347943
30
0.000000000000000
11
-90.6067285382831
21
3.23040258700282
31
0.000000000000000
  0
LINE
  5
F103EF
330
F103F0
100
AcDbEntity
8
Geo
100
AcDbLine
10
-90.6067285382831
20
3.23040258700282
30
0.000000000000000
11
-90.5067285382831
21
3.17265578874749
31
0.000000000000000
  0
LINE
  5
F103F1
330
F103F2
100
AcDbEntity
8
Geo
100
AcDbLine
10
-90.5067285382831
20
3.17265578874749
30
0.000000000000000
11
-90.4067285382831
21
3.11299321896435
31
0.000000000000000
  0
LINE
  5
F103F3
330
F103F4
100
AcDbEntity
8
Geo
100
AcDbLine
10
-90.4067285382831
20
3.11299321896435
30
0.000000000000000
11
-90.3067285382831
21
3.05150325573401
31
0.000000000000000
  0
LINE
  5
F103F5
330
F103F6
100
AcDbEntity
8
Geo
100
AcDbLine
10
-90.3067285382831
20
3.05150325573401
30
0.000000000000000
11
-90.2067285382831
21
2.98827698405238
31
0.000000000000000
  0
LINE
  5
F103F7
330
F103F8
100
AcDbEntity
8
Geo
100
AcDbLine
10
-90.2067285382831
20
2.98827698405238
30
0.000000000000000
11
-90.1067285382830
21
2.92340806090664
31
0.000000000000000
  0
LINE
  5
F103F9
330
F103FA
100
AcDbEntity
8
Geo
100
AcDbLine
10
-90.1067285382830
20
2.92340806090664
30
0.000000000000000
11
-90.0067285382830
21
2.84891621345858
31
0.000000000000000
  0
LINE
  5
F103FB
330
F103FC
100
AcDbEntity
8
Geo
100
AcDbLine
10
-90.0067285382830
20
2.84891621345858
30
0.000000000000000
11
-89.9067285382830
21
2.77411897810214
31
0.000000000000000
  0
LINE
  5
F103FD
330
F103FE
100
AcDbEntity
8
Geo
100
AcDbLine
10
-89.9067285382830
20
2.77411897810214
30
0.000000000000000
11
-89.8067285382830
21
2.69924894691364
31
0.000000000000000
  0
LINE
  5
F103FF
330
F10400
100
AcDbEntity
8
Geo
100
AcDbLine
10
-89.8067285382830
20
2.69924894691364
30
0.000000000000000
11
-89.7067285382830
21
2.62452386812206
31
0.000000000000000
  0
LINE
  5
F10401
330
F10402
100
AcDbEntity
8
Geo
100
AcDbLine
10
-89.7067285382830
20
2.62452386812206
30
0.000000000000000
11
-89.6067285382830
21
2.55014669886334
31
0.000000000000000
  0
LINE
  5
F10403
330
F10404
100
AcDbEntity
8
Geo
100
AcDbLine
10
-89.6067285382830
20
2.55014669886334
30
0.000000000000000
11
-89.5067285382830
21
2.47630574633345
31
0.000000000000000
  0
LINE
  5
F10405
330
F10406
100
AcDbEntity
8
Geo
100
AcDbLine
10
-89.5067285382830
20
2.47630574633345
30
0.000000000000000
11
-89.4067285382830
21
2.40317488820324
31
0.000000000000000
  0
LINE
  5
F10407
330
F10408
100
AcDbEntity
8
Geo
100
AcDbLine
10
-89.4067285382830
20
2.40317488820324
30
0.000000000000000
11
-89.3067285382830
21
2.33091386346687
31
0.000000000000000
  0
LINE
  5
F10409
330
F1040A
100
AcDbEntity
8
Geo
100
AcDbLine
10
-89.3067285382830
20
2.33091386346687
30
0.000000000000000
11
-89.2067285382830
21
2.25966862524756
31
0.000000000000000
  0
LINE
  5
F1040B
330
F1040C
100
AcDbEntity
8
Geo
100
AcDbLine
10
-89.2067285382830
20
2.25966862524756
30
0.000000000000000
11
-89.1067285382830
21
2.18957174747320
31
0.000000000000000
  0
LINE
  5
F1040D
330
F1040E
100
AcDbEntity
8
Geo
100
AcDbLine
10
-89.1067285382830
20
2.18957174747320
30
0.000000000000000
11
-89.0067285382830
21
2.12074287774928
31
0.000000000000000
  0
LINE
  5
F1040F
330
F10410
100
AcDbEntity
8
Geo
100
AcDbLine
10
-89.0067285382830
20
2.12074287774928
30
0.000000000000000
11
-88.9067285382830
21
2.05328922919368
31
0.000000000000000
  0
LINE
  5
F10411
330
F10412
100
AcDbEntity
8
Geo
100
AcDbLine
10
-88.9067285382830
20
2.05328922919368
30
0.000000000000000
11
-88.8067285382830
21
1.98730610444742
31
0.000000000000000
  0
LINE
  5
F10413
330
F10414
100
AcDbEntity
8
Geo
100
AcDbLine
10
-88.8067285382830
20
1.98730610444742
30
0.000000000000000
11
-88.7067285382830
21
1.92287744553421
31
0.000000000000000
  0
LINE
  5
F10415
330
F10416
100
AcDbEntity
8
Geo
100
AcDbLine
10
-88.7067285382830
20
1.92287744553421
30
0.000000000000000
11
-88.6067285382830
21
1.86007640370255
31
0.000000000000000
  0
LINE
  5
F10417
330
F10418
100
AcDbEntity
8
Geo
100
AcDbLine
10
-88.6067285382830
20
1.86007640370255
30
0.000000000000000
11
-88.5067285382830
21
1.79896592384333
31
0.000000000000000
  0
LINE
  5
F10419
330
F1041A
100
AcDbEntity
8
Geo
100
AcDbLine
10
-88.5067285382830
20
1.79896592384333
30
0.000000000000000
11
-88.4067285382830
21
1.73959933852932
31
0.000000000000000
  0
LINE
  5
F1041B
330
F1041C
100
AcDbEntity
8
Geo
100
AcDbLine
10
-88.4067285382830
20
1.73959933852932
30
0.000000000000000
11
-88.3067285382830
21
1.68202096716650
31
0.000000000000000
  0
LINE
  5
F1041D
330
F1041E
100
AcDbEntity
8
Geo
100
AcDbLine
10
-88.3067285382830
20
1.68202096716650
30
0.000000000000000
11
-88.2067285382830
21
1.62626671617867
31
0.000000000000000
  0
LINE
  5
F1041F
330
F10420
100
AcDbEntity
8
Geo
100
AcDbLine
10
-88.2067285382830
20
1.62626671617867
30
0.000000000000000
11
-88.1067285382831
21
1.57236467656267
31
0.000000000000000
  0
LINE
  5
F10421
330
F10422
100
AcDbEntity
8
Geo
100
AcDbLine
10
-88.1067285382831
20
1.57236467656267
30
0.000000000000000
11
-88.0067285382830
21
1.52033571555100
31
0.000000000000000
  0
LINE
  5
F10423
330
F10424
100
AcDbEntity
8
Geo
100
AcDbLine
10
-88.0067285382830
20
1.52033571555100
30
0.000000000000000
11
-87.9067285382830
21
1.47019405949848
31
0.000000000000000
  0
LINE
  5
F10425
330
F10426
100
AcDbEntity
8
Geo
100
AcDbLine
10
-87.9067285382830
20
1.47019405949848
30
0.000000000000000
11
-87.8067285382830
21
1.42194786546980
31
0.000000000000000
  0
LINE
  5
F10427
330
F10428
100
AcDbEntity
8
Geo
100
AcDbLine
10
-87.8067285382830
20
1.42194786546980
30
0.000000000000000
11
-87.7067285382830
21
1.37559977934397
31
0.000000000000000
  0
LINE
  5
F10429
330
F1042A
100
AcDbEntity
8
Geo
100
AcDbLine
10
-87.7067285382830
20
1.37559977934397
30
0.000000000000000
11
-87.6067285382831
21
1.33114747856871
31
0.000000000000000
  0
LINE
  5
F1042B
330
F1042C
100
AcDbEntity
8
Geo
100
AcDbLine
10
-87.6067285382831
20
1.33114747856871
30
0.000000000000000
11
-87.5067285382830
21
1.28858419799312
31
0.000000000000000
  0
LINE
  5
F1042D
330
F1042E
100
AcDbEntity
8
Geo
100
AcDbLine
10
-87.5067285382830
20
1.28858419799312
30
0.000000000000000
11
-87.4067285382830
21
1.24789923747995
31
0.000000000000000
  0
LINE
  5
F1042F
330
F10430
100
AcDbEntity
8
Geo
100
AcDbLine
10
-87.4067285382830
20
1.24789923747995
30
0.000000000000000
11
-87.3067285382830
21
1.20907845024926
31
0.000000000000000
  0
LINE
  5
F10431
330
F10432
100
AcDbEntity
8
Geo
100
AcDbLine
10
-87.3067285382830
20
1.20907845024926
30
0.000000000000000
11
-87.2067285382830
21
1.17210471113466
31
0.000000000000000
  0
LINE
  5
F10433
330
F10434
100
AcDbEntity
8
Geo
100
AcDbLine
10
-87.2067285382830
20
1.17210471113466
30
0.000000000000000
11
-87.1067285382831
21
1.13695836414006
31
0.000000000000000
  0
LINE
  5
F10435
330
F10436
100
AcDbEntity
8
Geo
100
AcDbLine
10
-87.1067285382831
20
1.13695836414006
30
0.000000000000000
11
-87.0067285382830
21
1.10361764887208
31
0.000000000000000
  0
LINE
  5
F10437
330
F10438
100
AcDbEntity
8
Geo
100
AcDbLine
10
-87.0067285382830
20
1.10361764887208
30
0.000000000000000
11
-86.9067285382830
21
1.07205910558905
31
0.000000000000000
  0
LINE
  5
F10439
330
F1043A
100
AcDbEntity
8
Geo
100
AcDbLine
10
-86.9067285382830
20
1.07205910558905
30
0.000000000000000
11
-86.8067285382831
21
1.04225795875451
31
0.000000000000000
  0
LINE
  5
F1043B
330
F1043C
100
AcDbEntity
8
Geo
100
AcDbLine
10
-86.8067285382831
20
1.04225795875451
30
0.000000000000000
11
-86.7067285382830
21
1.01418847911148
31
0.000000000000000
  0
LINE
  5
F1043D
330
F1043E
100
AcDbEntity
8
Geo
100
AcDbLine
10
-86.7067285382830
20
1.01418847911148
30
0.000000000000000
11
-86.6067285382831
21
0.987824324403970
31
0.000000000000000
  0
LINE
  5
F1043F
330
F10440
100
AcDbEntity
8
Geo
100
AcDbLine
10
-86.6067285382831
20
0.987824324403970
30
0.000000000000000
11
-86.5067285382831
21
0.963138858966023
31
0.000000000000000
  0
LINE
  5
F10441
330
F10442
100
AcDbEntity
8
Geo
100
AcDbLine
10
-86.5067285382831
20
0.963138858966023
30
0.000000000000000
11
-86.4067285382830
21
0.940105452476263
31
0.000000000000000
  0
LINE
  5
F10443
330
F10444
100
AcDbEntity
8
Geo
100
AcDbLine
10
-86.4067285382830
20
0.940105452476263
30
0.000000000000000
11
-86.3067285382831
21
0.918697758238909
31
0.000000000000000
  0
LINE
  5
F10445
330
F10446
100
AcDbEntity
8
Geo
100
AcDbLine
10
-86.3067285382831
20
0.918697758238909
30
0.000000000000000
11
-86.2067285382830
21
0.898889971401078
31
0.000000000000000
  0
LINE
  5
F10447
330
F10448
100
AcDbEntity
8
Geo
100
AcDbLine
10
-86.2067285382830
20
0.898889971401078
30
0.000000000000000
11
-86.1067285382831
21
0.880657067552325
31
0.000000000000000
  0
LINE
  5
F10449
330
F1044A
100
AcDbEntity
8
Geo
100
AcDbLine
10
-86.1067285382831
20
0.880657067552325
30
0.000000000000000
11
-86.0067285382831
21
0.863975022176338
31
0.000000000000000
  0
LINE
  5
F1044B
330
F1044C
100
AcDbEntity
8
Geo
100
AcDbLine
10
-86.0067285382831
20
0.863975022176338
30
0.000000000000000
11
-85.9067285382830
21
0.848821011437738
31
0.000000000000000
  0
LINE
  5
F1044D
330
F1044E
100
AcDbEntity
8
Geo
100
AcDbLine
10
-85.9067285382830
20
0.848821011437738
30
0.000000000000000
11
-85.8067285382831
21
0.835173594789777
31
0.000000000000000
  0
LINE
  5
F1044F
330
F10450
100
AcDbEntity
8
Geo
100
AcDbLine
10
-85.8067285382831
20
0.835173594789777
30
0.000000000000000
11
-85.7067285382830
21
0.823012879882357
31
0.000000000000000
  0
LINE
  5
F10451
330
F10452
100
AcDbEntity
8
Geo
100
AcDbLine
10
-85.7067285382830
20
0.823012879882357
30
0.000000000000000
11
-85.6067285382831
21
0.812320670235106
31
0.000000000000000
  0
LINE
  5
F10453
330
F10454
100
AcDbEntity
8
Geo
100
AcDbLine
10
-85.6067285382831
20
0.812320670235106
30
0.000000000000000
11
-85.5067285382831
21
0.803080596117960
31
0.000000000000000
  0
LINE
  5
F10455
330
F10456
100
AcDbEntity
8
Geo
100
AcDbLine
10
-85.5067285382831
20
0.803080596117960
30
0.000000000000000
11
-85.4067285382830
21
0.795278229052819
31
0.000000000000000
  0
LINE
  5
F10457
330
F10458
100
AcDbEntity
8
Geo
100
AcDbLine
10
-85.4067285382830
20
0.795278229052819
30
0.000000000000000
11
-85.3067285382831
21
0.788901180314968
31
0.000000000000000
  0
LINE
  5
F10459
330
F1045A
100
AcDbEntity
8
Geo
100
AcDbLine
10
-85.3067285382831
20
0.788901180314968
30
0.000000000000000
11
-85.2067285382831
21
0.783939183772965
31
0.000000000000000
  0
LINE
  5
F1045B
330
F1045C
100
AcDbEntity
8
Geo
100
AcDbLine
10
-85.2067285382831
20
0.783939183772965
30
0.000000000000000
11
-85.1067285382830
21
0.780384163361331
31
0.000000000000000
  0
LINE
  5
F1045D
330
F1045E
100
AcDbEntity
8
Geo
100
AcDbLine
10
-96.1067285382830
20
3.87837726092816
30
0.000000000000000
11
-96.0067285382830
21
3.87929713986125
31
0.000000000000000
  0
LINE
  5
F1045F
330
F10460
100
AcDbEntity
8
Geo
100
AcDbLine
10
-96.0067285382830
20
3.87929713986125
30
0.000000000000000
11
-95.9067285382830
21
3.87725450042840
31
0.000000000000000
  0
LINE
  5
F10461
330
F10462
100
AcDbEntity
8
Geo
100
AcDbLine
10
-95.9067285382830
20
3.87725450042840
30
0.000000000000000
11
-95.8067285382830
21
3.87225236838851
31
0.000000000000000
  0
LINE
  5
F10463
330
F10464
100
AcDbEntity
8
Geo
100
AcDbLine
10
-95.8067285382830
20
3.87225236838851
30
0.000000000000000
11
-95.7067285382830
21
3.86429815339274
31
0.000000000000000
  0
LINE
  5
F10465
330
F10466
100
AcDbEntity
8
Geo
100
AcDbLine
10
-95.7067285382830
20
3.86429815339274
30
0.000000000000000
11
-95.6067285382830
21
3.85340363800855
31
0.000000000000000
  0
LINE
  5
F10467
330
F10468
100
AcDbEntity
8
Geo
100
AcDbLine
10
-95.6067285382830
20
3.85340363800855
30
0.000000000000000
11
-95.5067285382830
21
3.83958496026624
31
0.000000000000000
  0
LINE
  5
F10469
330
F1046A
100
AcDbEntity
8
Geo
100
AcDbLine
10
-95.5067285382830
20
3.83958496026624
30
0.000000000000000
11
-95.4067285382830
21
3.82286258975368
31
0.000000000000000
  0
LINE
  5
F1046B
330
F1046C
100
AcDbEntity
8
Geo
100
AcDbLine
10
-95.4067285382830
20
3.82286258975368
30
0.000000000000000
11
-95.3067285382830
21
3.80326129729476
31
0.000000000000000
  0
LINE
  5
F1046D
330
F1046E
100
AcDbEntity
8
Geo
100
AcDbLine
10
-95.3067285382830
20
3.80326129729476
30
0.000000000000000
11
-95.2067285382830
21
3.78081011825640
31
0.000000000000000
  0
LINE
  5
F1046F
330
F10470
100
AcDbEntity
8
Geo
100
AcDbLine
10
-95.2067285382830
20
3.78081011825640
30
0.000000000000000
11
-95.1067285382830
21
3.75554230953848
31
0.000000000000000
  0
LINE
  5
F10471
330
F10472
100
AcDbEntity
8
Geo
100
AcDbLine
10
-95.1067285382830
20
3.75554230953848
30
0.000000000000000
11
-95.0067285382830
21
3.72749530031047
31
0.000000000000000
  0
LINE
  5
F10473
330
F10474
100
AcDbEntity
8
Geo
100
AcDbLine
10
-95.0067285382830
20
3.72749530031047
30
0.000000000000000
11
-94.9067285382830
21
3.69671063656763
31
0.000000000000000
  0
LINE
  5
F10475
330
F10476
100
AcDbEntity
8
Geo
100
AcDbLine
10
-94.9067285382830
20
3.69671063656763
30
0.000000000000000
11
-94.8067285382830
21
3.66323391958902
31
0.000000000000000
  0
LINE
  5
F10477
330
F10478
100
AcDbEntity
8
Geo
100
AcDbLine
10
-94.8067285382830
20
3.66323391958902
30
0.000000000000000
11
-94.7067285382830
21
3.62711473838834
31
0.000000000000000
  0
LINE
  5
F10479
330
F1047A
100
AcDbEntity
8
Geo
100
AcDbLine
10
-94.7067285382830
20
3.62711473838834
30
0.000000000000000
11
-94.6067285382830
21
3.58840659625782
31
0.000000000000000
  0
LINE
  5
F1047B
330
F1047C
100
AcDbEntity
8
Geo
100
AcDbLine
10
-94.6067285382830
20
3.58840659625782
30
0.000000000000000
11
-94.5067285382830
21
3.54716683151390
31
0.000000000000000
  0
LINE
  5
F1047D
330
F1047E
100
AcDbEntity
8
Geo
100
AcDbLine
10
-94.5067285382830
20
3.54716683151390
30
0.000000000000000
11
-94.4067285382830
21
3.50345653256200
31
0.000000000000000
  0
LINE
  5
F1047F
330
F10480
100
AcDbEntity
8
Geo
100
AcDbLine
10
-94.4067285382830
20
3.50345653256200
30
0.000000000000000
11
-94.3067285382830
21
3.45734044740640
31
0.000000000000000
  0
LINE
  5
F10481
330
F10482
100
AcDbEntity
8
Geo
100
AcDbLine
10
-94.3067285382830
20
3.45734044740640
30
0.000000000000000
11
-94.2067285382830
21
3.40888688773909
31
0.000000000000000
  0
LINE
  5
F10483
330
F10484
100
AcDbEntity
8
Geo
100
AcDbLine
10
-94.2067285382830
20
3.40888688773909
30
0.000000000000000
11
-94.1067285382830
21
3.35816762774976
31
0.000000000000000
  0
LINE
  5
F10485
330
F10486
100
AcDbEntity
8
Geo
100
AcDbLine
10
-94.1067285382830
20
3.35816762774976
30
0.000000000000000
11
-94.0067285382830
21
3.30525779780679
31
0.000000000000000
  0
LINE
  5
F10487
330
F10488
100
AcDbEntity
8
Geo
100
AcDbLine
10
-94.0067285382830
20
3.30525779780679
30
0.000000000000000
11
-93.9067285382830
21
3.25023577316676
31
0.000000000000000
  0
LINE
  5
F10489
330
F1048A
100
AcDbEntity
8
Geo
100
AcDbLine
10
-93.9067285382830
20
3.25023577316676
30
0.000000000000000
11
-93.8067285382830
21
3.19318305787728
31
0.000000000000000
  0
LINE
  5
F1048B
330
F1048C
100
AcDbEntity
8
Geo
100
AcDbLine
10
-93.8067285382830
20
3.19318305787728
30
0.000000000000000
11
-93.7067285382830
21
3.13418416404514
31
0.000000000000000
  0
LINE
  5
F1048D
330
F1048E
100
AcDbEntity
8
Geo
100
AcDbLine
10
-93.7067285382830
20
3.13418416404514
30
0.000000000000000
11
-93.6067285382831
21
3.07332648664869
31
0.000000000000000
  0
LINE
  5
F1048F
330
F10490
100
AcDbEntity
8
Geo
100
AcDbLine
10
-93.6067285382831
20
3.07332648664869
30
0.000000000000000
11
-93.5067285382830
21
3.01070017407974
31
0.000000000000000
  0
LINE
  5
F10491
330
F10492
100
AcDbEntity
8
Geo
100
AcDbLine
10
-93.5067285382830
20
3.01070017407974
30
0.000000000000000
11
-93.4067285382830
21
2.94639799460690
31
0.000000000000000
  0
LINE
  5
F10493
330
F10494
100
AcDbEntity
8
Geo
100
AcDbLine
10
-93.4067285382830
20
2.94639799460690
30
0.000000000000000
11
-93.3067285382830
21
2.88051519895804
31
0.000000000000000
  0
LINE
  5
F10495
330
F10496
100
AcDbEntity
8
Geo
100
AcDbLine
10
-93.3067285382830
20
2.88051519895804
30
0.000000000000000
11
-93.2067285382830
21
2.81314937922557
31
0.000000000000000
  0
LINE
  5
F10497
330
F10498
100
AcDbEntity
8
Geo
100
AcDbLine
10
-93.2067285382830
20
2.81314937922557
30
0.000000000000000
11
-93.1067285382831
21
2.74440032430339
31
0.000000000000000
  0
LINE
  5
F10499
330
F1049A
100
AcDbEntity
8
Geo
100
AcDbLine
10
-93.1067285382831
20
2.74440032430339
30
0.000000000000000
11
-93.0067285382830
21
2.67436987206971
31
0.000000000000000
  0
LINE
  5
F1049B
330
F1049C
100
AcDbEntity
8
Geo
100
AcDbLine
10
-93.0067285382830
20
2.67436987206971
30
0.000000000000000
11
-92.9067285382830
21
2.60316175853481
31
0.000000000000000
  0
LINE
  5
F1049D
330
F1049E
100
AcDbEntity
8
Geo
100
AcDbLine
10
-92.9067285382830
20
2.60316175853481
30
0.000000000000000
11
-92.8067285382830
21
2.53088146417696
31
0.000000000000000
  0
LINE
  5
F1049F
330
F104A0
100
AcDbEntity
8
Geo
100
AcDbLine
10
-92.8067285382830
20
2.53088146417696
30
0.000000000000000
11
-92.7067285382830
21
2.45763605769441
31
0.000000000000000
  0
LINE
  5
F104A1
330
F104A2
100
AcDbEntity
8
Geo
100
AcDbLine
10
-92.7067285382830
20
2.45763605769441
30
0.000000000000000
11
-92.6067285382831
21
2.38353403740460
31
0.000000000000000
  0
LINE
  5
F104A3
330
F104A4
100
AcDbEntity
8
Geo
100
AcDbLine
10
-92.6067285382831
20
2.38353403740460
30
0.000000000000000
11
-92.5067285382830
21
2.30868517052582
31
0.000000000000000
  0
LINE
  5
F104A5
330
F104A6
100
AcDbEntity
8
Geo
100
AcDbLine
10
-92.5067285382830
20
2.30868517052582
30
0.000000000000000
11
-92.4067285382830
21
2.23320033057917
31
0.000000000000000
  0
LINE
  5
F104A7
330
F104A8
100
AcDbEntity
8
Geo
100
AcDbLine
10
-92.4067285382830
20
2.23320033057917
30
0.000000000000000
11
-92.3067285382831
21
2.15719133315174
31
0.000000000000000
  0
LINE
  5
F104A9
330
F104AA
100
AcDbEntity
8
Geo
100
AcDbLine
10
-92.3067285382831
20
2.15719133315174
30
0.000000000000000
11
-92.2067285382830
21
2.08077077026437
31
0.000000000000000
  0
LINE
  5
F104AB
330
F104AC
100
AcDbEntity
8
Geo
100
AcDbLine
10
-92.2067285382830
20
2.08077077026437
30
0.000000000000000
11
-92.1067285382831
21
2.00405184358923
31
0.000000000000000
  0
LINE
  5
F104AD
330
F104AE
100
AcDbEntity
8
Geo
100
AcDbLine
10
-92.1067285382831
20
2.00405184358923
30
0.000000000000000
11
-92.0067285382831
21
1.92714819676434
31
0.000000000000000
  0
LINE
  5
F104AF
330
F104B0
100
AcDbEntity
8
Geo
100
AcDbLine
10
-92.0067285382831
20
1.92714819676434
30
0.000000000000000
11
-91.9067285382830
21
1.85017374705344
31
0.000000000000000
  0
LINE
  5
F104B1
330
F104B2
100
AcDbEntity
8
Geo
100
AcDbLine
10
-91.9067285382830
20
1.85017374705344
30
0.000000000000000
11
-91.8067285382831
21
1.77324251660048
31
0.000000000000000
  0
LINE
  5
F104B3
330
F104B4
100
AcDbEntity
8
Geo
100
AcDbLine
10
-91.8067285382831
20
1.77324251660048
30
0.000000000000000
11
-91.7067285382830
21
1.69646846352876
31
0.000000000000000
  0
LINE
  5
F104B5
330
F104B6
100
AcDbEntity
8
Geo
100
AcDbLine
10
-91.7067285382830
20
1.69646846352876
30
0.000000000000000
11
-91.6067285382831
21
1.61996531313497
31
0.000000000000000
  0
LINE
  5
F104B7
330
F104B8
100
AcDbEntity
8
Geo
100
AcDbLine
10
-91.6067285382831
20
1.61996531313497
30
0.000000000000000
11
-91.5067285382831
21
1.54384638942804
31
0.000000000000000
  0
LINE
  5
F104B9
330
F104BA
100
AcDbEntity
8
Geo
100
AcDbLine
10
-91.5067285382831
20
1.54384638942804
30
0.000000000000000
11
-91.4067285382830
21
1.46822444726245
31
0.000000000000000
  0
LINE
  5
F104BB
330
F104BC
100
AcDbEntity
8
Geo
100
AcDbLine
10
-91.4067285382830
20
1.46822444726245
30
0.000000000000000
11
-91.3067285382831
21
1.39321150531462
31
0.000000000000000
  0
LINE
  5
F104BD
330
F104BE
100
AcDbEntity
8
Geo
100
AcDbLine
10
-91.3067285382831
20
1.39321150531462
30
0.000000000000000
11
-91.2067285382830
21
1.31891868014980
31
0.000000000000000
  0
LINE
  5
F104BF
330
F104C0
100
AcDbEntity
8
Geo
100
AcDbLine
10
-91.2067285382830
20
1.31891868014980
30
0.000000000000000
11
-91.1067285382831
21
1.24545602162529
31
0.000000000000000
  0
LINE
  5
F104C1
330
F104C2
100
AcDbEntity
8
Geo
100
AcDbLine
10
-91.1067285382831
20
1.24545602162529
30
0.000000000000000
11
-91.0067285382831
21
1.17293234987367
31
0.000000000000000
  0
LINE
  5
F104C3
330
F104C4
100
AcDbEntity
8
Geo
100
AcDbLine
10
-91.0067285382831
20
1.17293234987367
30
0.000000000000000
11
-90.9067285382830
21
1.10145509410777
31
0.000000000000000
  0
LINE
  5
F104C5
330
F104C6
100
AcDbEntity
8
Geo
100
AcDbLine
10
-90.9067285382830
20
1.10145509410777
30
0.000000000000000
11
-90.8067285382831
21
1.03113013348589
31
0.000000000000000
  0
LINE
  5
F104C7
330
F104C8
100
AcDbEntity
8
Geo
100
AcDbLine
10
-90.8067285382831
20
1.03113013348589
30
0.000000000000000
11
-90.7067285382831
21
0.962061640273154
31
0.000000000000000
  0
LINE
  5
F104C9
330
F104CA
100
AcDbEntity
8
Geo
100
AcDbLine
10
-90.7067285382831
20
0.962061640273154
30
0.000000000000000
11
-90.6067285382831
21
0.894351925531269
31
0.000000000000000
  0
LINE
  5
F104CB
330
F104CC
100
AcDbEntity
8
Geo
100
AcDbLine
10
-90.6067285382831
20
0.894351925531269
30
0.000000000000000
11
-90.5067285382831
21
0.828101287565321
31
0.000000000000000
  0
LINE
  5
F104CD
330
F104CE
100
AcDbEntity
8
Geo
100
AcDbLine
10
-90.5067285382831
20
0.828101287565321
30
0.000000000000000
11
-90.4067285382831
21
0.763407863352018
31
0.000000000000000
  0
LINE
  5
F104CF
330
F104D0
100
AcDbEntity
8
Geo
100
AcDbLine
10
-90.4067285382831
20
0.763407863352018
30
0.000000000000000
11
-90.3067285382831
21
0.700367483169535
31
0.000000000000000
  0
LINE
  5
F104D1
330
F104D2
100
AcDbEntity
8
Geo
100
AcDbLine
10
-90.3067285382831
20
0.700367483169535
30
0.000000000000000
11
-90.2067285382831
21
0.639073528644247
31
0.000000000000000
  0
LINE
  5
F104D3
330
F104D4
100
AcDbEntity
8
Geo
100
AcDbLine
10
-90.2067285382831
20
0.639073528644247
30
0.000000000000000
11
-90.1067285382830
21
0.579616794424651
31
0.000000000000000
  0
LINE
  5
F104D5
330
F104D6
100
AcDbEntity
8
Geo
100
AcDbLine
10
-90.1067285382830
20
0.579616794424651
30
0.000000000000000
11
-90.0067285382830
21
0.586913438679690
31
0.000000000000000
  0
LINE
  5
F104D7
330
F104D8
100
AcDbEntity
8
Geo
100
AcDbLine
10
-90.0067285382830
20
0.586913438679690
30
0.000000000000000
11
-89.9067285382830
21
0.594097316243936
31
0.000000000000000
  0
LINE
  5
F104D9
330
F104DA
100
AcDbEntity
8
Geo
100
AcDbLine
10
-89.9067285382830
20
0.594097316243936
30
0.000000000000000
11
-89.8067285382830
21
0.601166580467904
31
0.000000000000000
  0
LINE
  5
F104DB
330
F104DC
100
AcDbEntity
8
Geo
100
AcDbLine
10
-89.8067285382830
20
0.601166580467904
30
0.000000000000000
11
-89.7067285382830
21
0.608119435891991
31
0.000000000000000
  0
LINE
  5
F104DD
330
F104DE
100
AcDbEntity
8
Geo
100
AcDbLine
10
-89.7067285382830
20
0.608119435891991
30
0.000000000000000
11
-89.6067285382830
21
0.614954137450091
31
0.000000000000000
  0
LINE
  5
F104DF
330
F104E0
100
AcDbEntity
8
Geo
100
AcDbLine
10
-89.6067285382830
20
0.614954137450091
30
0.000000000000000
11
-89.5067285382830
21
0.621668989680496
31
0.000000000000000
  0
LINE
  5
F104E1
330
F104E2
100
AcDbEntity
8
Geo
100
AcDbLine
10
-89.5067285382830
20
0.621668989680496
30
0.000000000000000
11
-89.4067285382830
21
0.628262345944693
31
0.000000000000000
  0
LINE
  5
F104E3
330
F104E4
100
AcDbEntity
8
Geo
100
AcDbLine
10
-89.4067285382830
20
0.628262345944693
30
0.000000000000000
11
-89.3067285382830
21
0.634732607654630
31
0.000000000000000
  0
LINE
  5
F104E5
330
F104E6
100
AcDbEntity
8
Geo
100
AcDbLine
10
-89.3067285382830
20
0.634732607654630
30
0.000000000000000
11
-89.2067285382830
21
0.641078223509047
31
0.000000000000000
  0
LINE
  5
F104E7
330
F104E8
100
AcDbEntity
8
Geo
100
AcDbLine
10
-89.2067285382830
20
0.641078223509047
30
0.000000000000000
11
-89.1067285382830
21
0.647297688739399
31
0.000000000000000
  0
LINE
  5
F104E9
330
F104EA
100
AcDbEntity
8
Geo
100
AcDbLine
10
-89.1067285382830
20
0.647297688739399
30
0.000000000000000
11
-89.0067285382830
21
0.653389544365922
31
0.000000000000000
  0
LINE
  5
F104EB
330
F104EC
100
AcDbEntity
8
Geo
100
AcDbLine
10
-89.0067285382830
20
0.653389544365922
30
0.000000000000000
11
-88.9067285382830
21
0.659352376464344
31
0.000000000000000
  0
LINE
  5
F104ED
330
F104EE
100
AcDbEntity
8
Geo
100
AcDbLine
10
-88.9067285382830
20
0.659352376464344
30
0.000000000000000
11
-88.8067285382830
21
0.665184815443747
31
0.000000000000000
  0
LINE
  5
F104EF
330
F104F0
100
AcDbEntity
8
Geo
100
AcDbLine
10
-88.8067285382830
20
0.665184815443747
30
0.000000000000000
11
-88.7067285382830
21
0.670885535336060
31
0.000000000000000
  0
LINE
  5
F104F1
330
F104F2
100
AcDbEntity
8
Geo
100
AcDbLine
10
-88.7067285382830
20
0.670885535336060
30
0.000000000000000
11
-88.6067285382830
21
0.676453253097639
31
0.000000000000000
  0
LINE
  5
F104F3
330
F104F4
100
AcDbEntity
8
Geo
100
AcDbLine
10
-88.6067285382830
20
0.676453253097639
30
0.000000000000000
11
-88.5067285382830
21
0.681886727923392
31
0.000000000000000
  0
LINE
  5
F104F5
330
F104F6
100
AcDbEntity
8
Geo
100
AcDbLine
10
-88.5067285382830
20
0.681886727923392
30
0.000000000000000
11
-88.4067285382830
21
0.687184760573871
31
0.000000000000000
  0
LINE
  5
F104F7
330
F104F8
100
AcDbEntity
8
Geo
100
AcDbLine
10
-88.4067285382830
20
0.687184760573871
30
0.000000000000000
11
-88.3067285382830
21
0.692346192715745
31
0.000000000000000
  0
LINE
  5
F104F9
330
F104FA
100
AcDbEntity
8
Geo
100
AcDbLine
10
-88.3067285382830
20
0.692346192715745
30
0.000000000000000
11
-88.2067285382830
21
0.697369906276070
31
0.000000000000000
  0
LINE
  5
F104FB
330
F104FC
100
AcDbEntity
8
Geo
100
AcDbLine
10
-88.2067285382830
20
0.697369906276070
30
0.000000000000000
11
-88.1067285382831
21
0.702254822810713
31
0.000000000000000
  0
LINE
  5
F104FD
330
F104FE
100
AcDbEntity
8
Geo
100
AcDbLine
10
-88.1067285382831
20
0.702254822810713
30
0.000000000000000
11
-88.0067285382830
21
0.706999902887323
31
0.000000000000000
  0
LINE
  5
F104FF
330
F10500
100
AcDbEntity
8
Geo
100
AcDbLine
10
-88.0067285382830
20
0.706999902887323
30
0.000000000000000
11
-87.9067285382830
21
0.711604145483195
31
0.000000000000000
  0
LINE
  5
F10501
330
F10502
100
AcDbEntity
8
Geo
100
AcDbLine
10
-87.9067285382830
20
0.711604145483195
30
0.000000000000000
11
-87.8067285382830
21
0.716066587398365
31
0.000000000000000
  0
LINE
  5
F10503
330
F10504
100
AcDbEntity
8
Geo
100
AcDbLine
10
-87.8067285382830
20
0.716066587398365
30
0.000000000000000
11
-87.7067285382830
21
0.720386302684266
31
0.000000000000000
  0
LINE
  5
F10505
330
F10506
100
AcDbEntity
8
Geo
100
AcDbLine
10
-87.7067285382830
20
0.720386302684266
30
0.000000000000000
11
-87.6067285382831
21
0.724562402088262
31
0.000000000000000
  0
LINE
  5
F10507
330
F10508
100
AcDbEntity
8
Geo
100
AcDbLine
10
-87.6067285382831
20
0.724562402088262
30
0.000000000000000
11
-87.5067285382830
21
0.728594032514351
31
0.000000000000000
  0
LINE
  5
F10509
330
F1050A
100
AcDbEntity
8
Geo
100
AcDbLine
10
-87.5067285382830
20
0.728594032514351
30
0.000000000000000
11
-87.4067285382830
21
0.732480376500333
31
0.000000000000000
  0
LINE
  5
F1050B
330
F1050C
100
AcDbEntity
8
Geo
100
AcDbLine
10
-87.4067285382830
20
0.732480376500333
30
0.000000000000000
11
-87.3067285382830
21
0.736220651711711
31
0.000000000000000
  0
LINE
  5
F1050D
330
F1050E
100
AcDbEntity
8
Geo
100
AcDbLine
10
-87.3067285382830
20
0.736220651711711
30
0.000000000000000
11
-87.2067285382830
21
0.739814110452590
31
0.000000000000000
  0
LINE
  5
F1050F
330
F10510
100
AcDbEntity
8
Geo
100
AcDbLine
10
-87.2067285382830
20
0.739814110452590
30
0.000000000000000
11
-87.1067285382831
21
0.743260039193825
31
0.000000000000000
  0
LINE
  5
F10511
330
F10512
100
AcDbEntity
8
Geo
100
AcDbLine
10
-87.1067285382831
20
0.743260039193825
30
0.000000000000000
11
-87.0067285382830
21
0.746557758118649
31
0.000000000000000
  0
LINE
  5
F10513
330
F10514
100
AcDbEntity
8
Geo
100
AcDbLine
10
-87.0067285382830
20
0.746557758118649
30
0.000000000000000
11
-86.9067285382830
21
0.749706620686015
31
0.000000000000000
  0
LINE
  5
F10515
330
F10516
100
AcDbEntity
8
Geo
100
AcDbLine
10
-86.9067285382830
20
0.749706620686015
30
0.000000000000000
11
-86.8067285382831
21
0.752706013211864
31
0.000000000000000
  0
LINE
  5
F10517
330
F10518
100
AcDbEntity
8
Geo
100
AcDbLine
10
-86.8067285382831
20
0.752706013211864
30
0.000000000000000
11
-86.7067285382830
21
0.755555354468520
31
0.000000000000000
  0
LINE
  5
F10519
330
F1051A
100
AcDbEntity
8
Geo
100
AcDbLine
10
-86.7067285382830
20
0.755555354468520
30
0.000000000000000
11
-86.6067285382831
21
0.758254095302404
31
0.000000000000000
  0
LINE
  5
F1051B
330
F1051C
100
AcDbEntity
8
Geo
100
AcDbLine
10
-86.6067285382831
20
0.758254095302404
30
0.000000000000000
11
-86.5067285382831
21
0.760801718270257
31
0.000000000000000
  0
LINE
  5
F1051D
330
F1051E
100
AcDbEntity
8
Geo
100
AcDbLine
10
-86.5067285382831
20
0.760801718270257
30
0.000000000000000
11
-86.4067285382830
21
0.763197737294031
31
0.000000000000000
  0
LINE
  5
F1051F
330
F10520
100
AcDbEntity
8
Geo
100
AcDbLine
10
-86.4067285382830
20
0.763197737294031
30
0.000000000000000
11
-86.3067285382831
21
0.765441697334620
31
0.000000000000000
  0
LINE
  5
F10521
330
F10522
100
AcDbEntity
8
Geo
100
AcDbLine
10
-86.3067285382831
20
0.765441697334620
30
0.000000000000000
11
-86.2067285382830
21
0.767533174084570
31
0.000000000000000
  0
LINE
  5
F10523
330
F10524
100
AcDbEntity
8
Geo
100
AcDbLine
10
-86.2067285382830
20
0.767533174084570
30
0.000000000000000
11
-86.1067285382831
21
0.769471773679924
31
0.000000000000000
  0
LINE
  5
F10525
330
F10526
100
AcDbEntity
8
Geo
100
AcDbLine
10
-86.1067285382831
20
0.769471773679924
30
0.000000000000000
11
-86.0067285382831
21
0.771257132431314
31
0.000000000000000
  0
LINE
  5
F10527
330
F10528
100
AcDbEntity
8
Geo
100
AcDbLine
10
-86.0067285382831
20
0.771257132431314
30
0.000000000000000
11
-85.9067285382830
21
0.772888916574439
31
0.000000000000000
  0
LINE
  5
F10529
330
F1052A
100
AcDbEntity
8
Geo
100
AcDbLine
10
-85.9067285382830
20
0.772888916574439
30
0.000000000000000
11
-85.8067285382831
21
0.774366822040030
31
0.000000000000000
  0
LINE
  5
F1052B
330
F1052C
100
AcDbEntity
8
Geo
100
AcDbLine
10
-85.8067285382831
20
0.774366822040030
30
0.000000000000000
11
-85.7067285382830
21
0.775690574243402
31
0.000000000000000
  0
LINE
  5
F1052D
330
F1052E
100
AcDbEntity
8
Geo
100
AcDbLine
10
-85.7067285382830
20
0.775690574243402
30
0.000000000000000
11
-85.6067285382831
21
0.776859927893701
31
0.000000000000000
  0
LINE
  5
F1052F
330
F10530
100
AcDbEntity
8
Geo
100
AcDbLine
10
-85.6067285382831
20
0.776859927893701
30
0.000000000000000
11
-85.5067285382831
21
0.777874666822906
31
0.000000000000000
  0
LINE
  5
F10531
330
F10532
100
AcDbEntity
8
Geo
100
AcDbLine
10
-85.5067285382831
20
0.777874666822906
30
0.000000000000000
11
-85.4067285382830
21
0.778734603834689
31
0.000000000000000
  0
LINE
  5
F10533
330
F10534
100
AcDbEntity
8
Geo
100
AcDbLine
10
-85.4067285382830
20
0.778734603834689
30
0.000000000000000
11
-85.3067285382831
21
0.779439580573170
31
0.000000000000000
  0
LINE
  5
F10535
330
F10536
100
AcDbEntity
8
Geo
100
AcDbLine
10
-85.3067285382831
20
0.779439580573170
30
0.000000000000000
11
-85.2067285382831
21
0.779989467411645
31
0.000000000000000
  0
LINE
  5
F10537
330
F10538
100
AcDbEntity
8
Geo
100
AcDbLine
10
-85.2067285382831
20
0.779989467411645
30
0.000000000000000
11
-85.1067285382830
21
0.780384163361331
31
0.000000000000000
  0
LINE
  5
F10539
330
F1053A
100
AcDbEntity
8
Geo
100
AcDbLine
10
-100.106728538283
20
3.34462071249446
30
0.000000000000000
11
-100.006728538283
21
3.63573408435123
31
0.000000000000000
  0
LINE
  5
F1053B
330
F1053C
100
AcDbEntity
8
Geo
100
AcDbLine
10
-100.106728538283
20
1.68238879742540
30
0.000000000000000
11
-100.006728538283
21
1.61460616422298
31
0.000000000000000
  0
LINE
  5
F1053D
330
F1053E
100
AcDbEntity
8
Geo
100
AcDbLine
10
-100.006728538283
20
3.63573408435123
30
0.000000000000000
11
-99.9067285382830
21
3.72394957744711
31
0.000000000000000
  0
LINE
  5
F1053F
330
F10540
100
AcDbEntity
8
Geo
100
AcDbLine
10
-100.006728538283
20
1.61460616422298
30
0.000000000000000
11
-99.9067285382830
21
1.53952529333206
31
0.000000000000000
  0
LINE
  5
F10541
330
F10542
100
AcDbEntity
8
Geo
100
AcDbLine
10
-99.9067285382830
20
3.72394957744711
30
0.000000000000000
11
-99.8067285382830
21
3.76737635027677
31
0.000000000000000
  0
LINE
  5
F10543
330
F10544
100
AcDbEntity
8
Geo
100
AcDbLine
10
-99.9067285382830
20
1.53952529333206
30
0.000000000000000
11
-99.8067285382830
21
1.46208379056063
31
0.000000000000000
  0
LINE
  5
F10545
330
F10546
100
AcDbEntity
8
Geo
100
AcDbLine
10
-99.8067285382830
20
3.76737635027677
30
0.000000000000000
11
-99.7067285382830
21
3.78118747527430
31
0.000000000000000
  0
LINE
  5
F10547
330
F10548
100
AcDbEntity
8
Geo
100
AcDbLine
10
-99.8067285382830
20
1.46208379056063
30
0.000000000000000
11
-99.7067285382830
21
1.38488849298456
31
0.000000000000000
  0
LINE
  5
F10549
330
F1054A
100
AcDbEntity
8
Geo
100
AcDbLine
10
-99.7067285382830
20
3.78118747527430
30
0.000000000000000
11
-99.6067285382830
21
3.77066728724051
31
0.000000000000000
  0
LINE
  5
F1054B
330
F1054C
100
AcDbEntity
8
Geo
100
AcDbLine
10
-99.7067285382830
20
1.38488849298456
30
0.000000000000000
11
-99.6067285382830
21
1.31013888177501
31
0.000000000000000
  0
LINE
  5
F1054D
330
F1054E
100
AcDbEntity
8
Geo
100
AcDbLine
10
-99.6067285382830
20
3.77066728724051
30
0.000000000000000
11
-99.5067285382830
21
3.74736293434920
31
0.000000000000000
  0
LINE
  5
F1054F
330
F10550
100
AcDbEntity
8
Geo
100
AcDbLine
10
-99.6067285382830
20
1.31013888177501
30
0.000000000000000
11
-99.5067285382830
21
1.23778161810760
31
0.000000000000000
  0
LINE
  5
F10551
330
F10552
100
AcDbEntity
8
Geo
100
AcDbLine
10
-99.5067285382830
20
3.74736293434920
30
0.000000000000000
11
-99.4067285382830
21
3.72129149704474
31
0.000000000000000
  0
LINE
  5
F10553
330
F10554
100
AcDbEntity
8
Geo
100
AcDbLine
10
-99.5067285382830
20
1.23778161810760
30
0.000000000000000
11
-99.4067285382830
21
1.16637470929621
31
0.000000000000000
  0
LINE
  5
F10555
330
F10556
100
AcDbEntity
8
Geo
100
AcDbLine
10
-99.4067285382830
20
3.72129149704474
30
0.000000000000000
11
-99.3067285382830
21
3.69249159491050
31
0.000000000000000
  0
LINE
  5
F10557
330
F10558
100
AcDbEntity
8
Geo
100
AcDbLine
10
-99.4067285382830
20
1.16637470929621
30
0.000000000000000
11
-99.3067285382830
21
1.09602393029430
31
0.000000000000000
  0
LINE
  5
F10559
330
F1055A
100
AcDbEntity
8
Geo
100
AcDbLine
10
-99.3067285382830
20
3.69249159491050
30
0.000000000000000
11
-99.2067285382830
21
3.66100588920095
31
0.000000000000000
  0
LINE
  5
F1055B
330
F1055C
100
AcDbEntity
8
Geo
100
AcDbLine
10
-99.3067285382830
20
1.09602393029430
30
0.000000000000000
11
-99.2067285382830
21
1.02683349161171
31
0.000000000000000
  0
LINE
  5
F1055D
330
F1055E
100
AcDbEntity
8
Geo
100
AcDbLine
10
-99.2067285382830
20
3.66100588920095
30
0.000000000000000
11
-99.1067285382830
21
3.62688101964760
31
0.000000000000000
  0
LINE
  5
F1055F
330
F10560
100
AcDbEntity
8
Geo
100
AcDbLine
10
-99.2067285382830
20
1.02683349161171
30
0.000000000000000
11
-99.1067285382830
21
0.958905884947819
31
0.000000000000000
  0
LINE
  5
F10561
330
F10562
100
AcDbEntity
8
Geo
100
AcDbLine
10
-99.1067285382830
20
3.62688101964760
30
0.000000000000000
11
-99.0067285382830
21
3.59016753537166
31
0.000000000000000
  0
LINE
  5
F10563
330
F10564
100
AcDbEntity
8
Geo
100
AcDbLine
10
-99.1067285382830
20
0.958905884947819
30
0.000000000000000
11
-99.0067285382830
21
0.892341731370699
31
0.000000000000000
  0
LINE
  5
F10565
330
F10566
100
AcDbEntity
8
Geo
100
AcDbLine
10
-99.0067285382830
20
3.59016753537166
30
0.000000000000000
11
-98.9067285382830
21
3.55091982000569
31
0.000000000000000
  0
LINE
  5
F10567
330
F10568
100
AcDbEntity
8
Geo
100
AcDbLine
10
-99.0067285382830
20
0.892341731370699
30
0.000000000000000
11
-98.9067285382830
21
0.827239632267296
31
0.000000000000000
  0
LINE
  5
F10569
330
F1056A
100
AcDbEntity
8
Geo
100
AcDbLine
10
-98.9067285382830
20
3.55091982000569
30
0.000000000000000
11
-98.8067285382830
21
3.50919601113517
31
0.000000000000000
  0
LINE
  5
F1056B
330
F1056C
100
AcDbEntity
8
Geo
100
AcDbLine
10
-98.9067285382830
20
0.827239632267296
30
0.000000000000000
11
-98.8067285382830
21
0.763696023285319
31
0.000000000000000
  0
LINE
  5
F1056D
330
F1056E
100
AcDbEntity
8
Geo
100
AcDbLine
10
-98.8067285382830
20
3.50919601113517
30
0.000000000000000
11
-98.7067285382830
21
3.46505791417943
31
0.000000000000000
  0
LINE
  5
F1056F
330
F10570
100
AcDbEntity
8
Geo
100
AcDbLine
10
-98.8067285382830
20
0.763696023285319
30
0.000000000000000
11
-98.7067285382830
21
0.701805031483257
31
0.000000000000000
  0
LINE
  5
F10571
330
F10572
100
AcDbEntity
8
Geo
100
AcDbLine
10
-98.7067285382830
20
3.46505791417943
30
0.000000000000000
11
-98.6067285382830
21
3.41857091083931
31
0.000000000000000
  0
LINE
  5
F10573
330
F10574
100
AcDbEntity
8
Geo
100
AcDbLine
10
-98.7067285382830
20
0.701805031483257
30
0.000000000000000
11
-98.6067285382830
21
0.641658335900096
31
0.000000000000000
  0
LINE
  5
F10575
330
F10576
100
AcDbEntity
8
Geo
100
AcDbLine
10
-98.6067285382830
20
3.41857091083931
30
0.000000000000000
11
-98.5067285382830
21
3.36980386224739
31
0.000000000000000
  0
LINE
  5
F10577
330
F10578
100
AcDbEntity
8
Geo
100
AcDbLine
10
-98.6067285382830
20
0.641658335900096
30
0.000000000000000
11
-98.5067285382830
21
0.583345031751292
31
0.000000000000000
  0
LINE
  5
F10579
330
F1057A
100
AcDbEntity
8
Geo
100
AcDbLine
10
-98.5067285382830
20
3.36980386224739
30
0.000000000000000
11
-98.4067285382830
21
3.31882900696406
31
0.000000000000000
  0
LINE
  5
F1057B
330
F1057C
100
AcDbEntity
8
Geo
100
AcDbLine
10
-98.5067285382830
20
0.583345031751292
30
0.000000000000000
11
-98.4067285382830
21
0.526951498452148
31
0.000000000000000
  0
LINE
  5
F1057D
330
F1057E
100
AcDbEntity
8
Geo
100
AcDbLine
10
-98.4067285382830
20
3.31882900696406
30
0.000000000000000
11
-98.3067285382830
21
3.26572185397066
31
0.000000000000000
  0
LINE
  5
F1057F
330
F10580
100
AcDbEntity
8
Geo
100
AcDbLine
10
-98.4067285382830
20
0.526951498452148
30
0.000000000000000
11
-98.3067285382830
21
0.472561271664115
31
0.000000000000000
  0
LINE
  5
F10581
330
F10582
100
AcDbEntity
8
Geo
100
AcDbLine
10
-98.3067285382830
20
3.26572185397066
30
0.000000000000000
11
-98.2067285382830
21
3.21056107081813
31
0.000000000000000
  0
LINE
  5
F10583
330
F10584
100
AcDbEntity
8
Geo
100
AcDbLine
10
-98.3067285382830
20
0.472561271664115
30
0.000000000000000
11
-98.2067285382830
21
0.420254919553529
31
0.000000000000000
  0
LINE
  5
F10585
330
F10586
100
AcDbEntity
8
Geo
100
AcDbLine
10
-98.2067285382830
20
3.21056107081813
30
0.000000000000000
11
-98.1067285382830
21
3.15342836709684
31
0.000000000000000
  0
LINE
  5
F10587
330
F10588
100
AcDbEntity
8
Geo
100
AcDbLine
10
-98.2067285382830
20
0.420254919553529
30
0.000000000000000
11
-98.1067285382830
21
0.370109923446100
31
0.000000000000000
  0
LINE
  5
F10589
330
F1058A
100
AcDbEntity
8
Geo
100
AcDbLine
10
-98.1067285382830
20
3.15342836709684
30
0.000000000000000
11
-98.0067285382830
21
3.09440837340037
31
0.000000000000000
  0
LINE
  5
F1058B
330
F1058C
100
AcDbEntity
8
Geo
100
AcDbLine
10
-98.1067285382830
20
0.370109923446100
30
0.000000000000000
11
-98.0067285382830
21
0.322200563053938
31
0.000000000000000
  0
LINE
  5
F1058D
330
F1058E
100
AcDbEntity
8
Geo
100
AcDbLine
10
-98.0067285382830
20
3.09440837340037
30
0.000000000000000
11
-97.9067285382830
21
3.03358851596225
31
0.000000000000000
  0
LINE
  5
F1058F
330
F10590
100
AcDbEntity
8
Geo
100
AcDbLine
10
-98.0067285382830
20
0.322200563053938
30
0.000000000000000
11
-97.9067285382830
21
0.276597806445112
31
0.000000000000000
  0
LINE
  5
F10591
330
F10592
100
AcDbEntity
8
Geo
100
AcDbLine
10
-97.9067285382830
20
3.03358851596225
30
0.000000000000000
11
-97.8067285382830
21
2.97105888715163
31
0.000000000000000
  0
LINE
  5
F10593
330
F10594
100
AcDbEntity
8
Geo
100
AcDbLine
10
-97.9067285382830
20
0.276597806445112
30
0.000000000000000
11
-97.8067285382830
21
0.233369204918761
31
0.000000000000000
  0
LINE
  5
F10595
330
F10596
100
AcDbEntity
8
Geo
100
AcDbLine
10
-97.8067285382830
20
2.97105888715163
30
0.000000000000000
11
-97.7067285382830
21
2.90691211201961
31
0.000000000000000
  0
LINE
  5
F10597
330
F10598
100
AcDbEntity
8
Geo
100
AcDbLine
10
-97.8067285382830
20
0.233369204918761
30
0.000000000000000
11
-97.7067285382830
21
0.192578792941439
31
0.000000000000000
  0
LINE
  5
F10599
330
F1059A
100
AcDbEntity
8
Geo
100
AcDbLine
10
-97.7067285382830
20
2.90691211201961
30
0.000000000000000
11
-97.6067285382830
21
2.84124321109384
31
0.000000000000000
  0
LINE
  5
F1059B
330
F1059C
100
AcDbEntity
8
Geo
100
AcDbLine
10
-97.7067285382830
20
0.192578792941439
30
0.000000000000000
11
-97.6067285382830
21
0.154286993292959
31
0.000000000000000
  0
LINE
  5
F1059D
330
F1059E
100
AcDbEntity
8
Geo
100
AcDbLine
10
-97.6067285382830
20
2.84124321109384
30
0.000000000000000
11
-97.5067285382830
21
2.77414945962477
31
0.000000000000000
  0
LINE
  5
F1059F
330
F105A0
100
AcDbEntity
8
Geo
100
AcDbLine
10
-97.6067285382830
20
0.154286993292959
30
0.000000000000000
11
-97.5067285382830
21
0.118550527562208
31
0.000000000000000
  0
LINE
  5
F105A1
330
F105A2
100
AcDbEntity
8
Geo
100
AcDbLine
10
-97.5067285382830
20
2.77414945962477
30
0.000000000000000
11
-97.4067285382830
21
2.70573024349197
31
0.000000000000000
  0
LINE
  5
F105A3
330
F105A4
100
AcDbEntity
8
Geo
100
AcDbLine
10
-97.5067285382830
20
0.118550527562208
30
0.000000000000000
11
-97.4067285382830
21
0.0854223321255403
31
0.000000000000000
  0
LINE
  5
F105A5
330
F105A6
100
AcDbEntity
8
Geo
100
AcDbLine
10
-97.4067285382830
20
2.70573024349197
30
0.000000000000000
11
-97.3067285382830
21
2.63608691198391
31
0.000000000000000
  0
LINE
  5
F105A7
330
F105A8
100
AcDbEntity
8
Geo
100
AcDbLine
10
-97.4067285382830
20
0.0854223321255403
30
0.000000000000000
11
-97.3067285382830
21
0.0549514797321977
31
0.000000000000000
  0
LINE
  5
F105A9
330
F105AA
100
AcDbEntity
8
Geo
100
AcDbLine
10
-97.3067285382830
20
2.63608691198391
30
0.000000000000000
11
-97.2067285382830
21
2.56532262766948
31
0.000000000000000
  0
LINE
  5
F105AB
330
F105AC
100
AcDbEntity
8
Geo
100
AcDbLine
10
-97.3067285382830
20
0.0549514797321977
30
0.000000000000000
11
-97.2067285382830
21
0.0271831068129140
31
0.000000000000000
  0
LINE
  5
F105AD
330
F105AE
100
AcDbEntity
8
Geo
100
AcDbLine
10
-97.2067285382830
20
2.56532262766948
30
0.000000000000000
11
-97.1067285382830
21
2.49354221358337
31
0.000000000000000
  0
LINE
  5
F105AF
330
F105B0
100
AcDbEntity
8
Geo
100
AcDbLine
10
-97.2067285382830
20
0.0271831068129140
30
0.000000000000000
11
-97.1067285382830
21
0.00215834661938530
31
0.000000000000000
  0
LINE
  5
F105B1
330
F105B2
100
AcDbEntity
8
Geo
100
AcDbLine
10
-97.1067285382830
20
2.49354221358337
30
0.000000000000000
11
-97.0067285382830
21
2.42085199795185
31
0.000000000000000
  0
LINE
  5
F105B3
330
F105B4
100
AcDbEntity
8
Geo
100
AcDbLine
10
-97.1067285382830
20
0.00215834661938530
30
0.000000000000000
11
-97.0067285382830
21
-0.0200857317063605
31
0.000000000000000
  0
LINE
  5
F105B5
330
F105B6
100
AcDbEntity
8
Geo
100
AcDbLine
10
-97.0067285382830
20
2.42085199795185
30
0.000000000000000
11
-96.9067285382830
21
2.34735965668898
31
0.000000000000000
  0
LINE
  5
F105B7
330
F105B8
100
AcDbEntity
8
Geo
100
AcDbLine
10
-97.0067285382830
20
-0.0200857317063605
30
0.000000000000000
11
-96.9067285382830
21
-0.0395161780424282
31
0.000000000000000
  0
LINE
  5
F105B9
330
F105BA
100
AcDbEntity
8
Geo
100
AcDbLine
10
-96.9067285382830
20
2.34735965668898
30
0.000000000000000
11
-96.8067285382830
21
2.27317405389634
31
0.000000000000000
  0
LINE
  5
F105BB
330
F105BC
100
AcDbEntity
8
Geo
100
AcDbLine
10
-96.9067285382830
20
-0.0395161780424282
30
0.000000000000000
11
-96.8067285382830
21
-0.0561042100960270
31
0.000000000000000
  0
LINE
  5
F105BD
330
F105BE
100
AcDbEntity
8
Geo
100
AcDbLine
10
-96.8067285382830
20
2.27317405389634
30
0.000000000000000
11
-96.7067285382830
21
2.19840508060288
31
0.000000000000000
  0
LINE
  5
F105BF
330
F105C0
100
AcDbEntity
8
Geo
100
AcDbLine
10
-96.8067285382830
20
-0.0561042100960270
30
0.000000000000000
11
-96.7067285382830
21
-0.0698252560386388
31
0.000000000000000
  0
LINE
  5
F105C1
330
F105C2
100
AcDbEntity
8
Geo
100
AcDbLine
10
-96.7067285382830
20
2.19840508060288
30
0.000000000000000
11
-96.6067285382830
21
2.12316349198342
31
0.000000000000000
  0
LINE
  5
F105C3
330
F105C4
100
AcDbEntity
8
Geo
100
AcDbLine
10
-96.7067285382830
20
-0.0698252560386388
30
0.000000000000000
11
-96.6067285382830
21
-0.0806589909042343
31
0.000000000000000
  0
LINE
  5
F105C5
330
F105C6
100
AcDbEntity
8
Geo
100
AcDbLine
10
-96.6067285382830
20
2.12316349198342
30
0.000000000000000
11
-96.5067285382830
21
2.04756074329722
31
0.000000000000000
  0
LINE
  5
F105C7
330
F105C8
100
AcDbEntity
8
Geo
100
AcDbLine
10
-96.6067285382830
20
-0.0806589909042343
30
0.000000000000000
11
-96.5067285382830
21
-0.0885893666966153
31
0.000000000000000
  0
LINE
  5
F105C9
330
F105CA
100
AcDbEntity
8
Geo
100
AcDbLine
10
-96.5067285382830
20
2.04756074329722
30
0.000000000000000
11
-96.4067285382830
21
1.97170882478942
31
0.000000000000000
  0
LINE
  5
F105CB
330
F105CC
100
AcDbEntity
8
Geo
100
AcDbLine
10
-96.5067285382830
20
-0.0885893666966153
30
0.000000000000000
11
-96.4067285382830
21
-0.0936046361612906
31
0.000000000000000
  0
LINE
  5
F105CD
330
F105CE
100
AcDbEntity
8
Geo
100
AcDbLine
10
-96.4067285382830
20
1.97170882478942
30
0.000000000000000
11
-96.3067285382830
21
1.89572009580007
31
0.000000000000000
  0
LINE
  5
F105CF
330
F105D0
100
AcDbEntity
8
Geo
100
AcDbLine
10
-96.4067285382830
20
-0.0936046361612906
30
0.000000000000000
11
-96.3067285382830
21
-0.0956973701866648
31
0.000000000000000
  0
LINE
  5
F105D1
330
F105D2
100
AcDbEntity
8
Geo
100
AcDbLine
10
-96.3067285382830
20
1.89572009580007
30
0.000000000000000
11
-96.2067285382830
21
1.81970711832640
31
0.000000000000000
  0
LINE
  5
F105D3
330
F105D4
100
AcDbEntity
8
Geo
100
AcDbLine
10
-96.2067285382830
20
1.81970711832640
30
0.000000000000000
11
-96.1067285382830
21
1.74378249028488
31
0.000000000000000
  0
LINE
  5
F105D5
330
F105D6
100
AcDbEntity
8
Geo
100
AcDbLine
10
-96.2067285382830
20
3.85356516486446
30
0.000000000000000
11
-96.1067285382830
21
3.84980786185894
31
0.000000000000000
  0
LINE
  5
F105D7
330
F105D8
100
AcDbEntity
8
Geo
100
AcDbLine
10
-96.1067285382830
20
1.74378249028488
30
0.000000000000000
11
-96.0067285382830
21
1.66805867872010
31
0.000000000000000
  0
LINE
  5
F105D9
330
F105DA
100
AcDbEntity
8
Geo
100
AcDbLine
10
-96.1067285382830
20
3.84980786185894
30
0.000000000000000
11
-96.0067285382830
21
3.84313172291345
31
0.000000000000000
  0
LINE
  5
F105DB
330
F105DC
100
AcDbEntity
8
Geo
100
AcDbLine
10
-96.0067285382830
20
1.66805867872010
30
0.000000000000000
11
-95.9067285382830
21
1.59264785320748
31
0.000000000000000
  0
LINE
  5
F105DD
330
F105DE
100
AcDbEntity
8
Geo
100
AcDbLine
10
-96.0067285382830
20
3.84313172291345
30
0.000000000000000
11
-95.9067285382830
21
3.83354663738320
31
0.000000000000000
  0
LINE
  5
F105DF
330
F105E0
100
AcDbEntity
8
Geo
100
AcDbLine
10
-95.9067285382830
20
1.59264785320748
30
0.000000000000000
11
-95.8067285382830
21
1.51766171969663
31
0.000000000000000
  0
LINE
  5
F105E1
330
F105E2
100
AcDbEntity
8
Geo
100
AcDbLine
10
-95.9067285382830
20
3.83354663738320
30
0.000000000000000
11
-95.8067285382830
21
3.82106680364188
31
0.000000000000000
  0
LINE
  5
F105E3
330
F105E4
100
AcDbEntity
8
Geo
100
AcDbLine
10
-95.8067285382830
20
1.51766171969663
30
0.000000000000000
11
-95.7067285382830
21
1.44321135504151
31
0.000000000000000
  0
LINE
  5
F105E5
330
F105E6
100
AcDbEntity
8
Geo
100
AcDbLine
10
-95.8067285382830
20
3.82106680364188
30
0.000000000000000
11
-95.7067285382830
21
3.80571070804964
31
0.000000000000000
  0
LINE
  5
F105E7
330
F105E8
100
AcDbEntity
8
Geo
100
AcDbLine
10
-95.7067285382830
20
1.44321135504151
30
0.000000000000000
11
-95.6067285382830
21
1.36940704246243
31
0.000000000000000
  0
LINE
  5
F105E9
330
F105EA
100
AcDbEntity
8
Geo
100
AcDbLine
10
-95.7067285382830
20
3.80571070804964
30
0.000000000000000
11
-95.6067285382830
21
3.78750109756926
31
0.000000000000000
  0
LINE
  5
F105EB
330
F105EC
100
AcDbEntity
8
Geo
100
AcDbLine
10
-95.6067285382830
20
1.36940704246243
30
0.000000000000000
11
-95.5067285382830
21
1.29635810818367
31
0.000000000000000
  0
LINE
  5
F105ED
330
F105EE
100
AcDbEntity
8
Geo
100
AcDbLine
10
-95.6067285382830
20
3.78750109756926
30
0.000000000000000
11
-95.5067285382830
21
3.76646494607109
31
0.000000000000000
  0
LINE
  5
F105EF
330
F105F0
100
AcDbEntity
8
Geo
100
AcDbLine
10
-95.5067285382830
20
1.29635810818367
30
0.000000000000000
11
-95.4067285382830
21
1.22417275948867
31
0.000000000000000
  0
LINE
  5
F105F1
330
F105F2
100
AcDbEntity
8
Geo
100
AcDbLine
10
-95.5067285382830
20
3.76646494607109
30
0.000000000000000
11
-95.4067285382830
21
3.74263341437671
31
0.000000000000000
  0
LINE
  5
F105F3
330
F105F4
100
AcDbEntity
8
Geo
100
AcDbLine
10
-95.4067285382830
20
1.22417275948867
30
0.000000000000000
11
-95.3067285382830
21
1.15295792443281
31
0.000000000000000
  0
LINE
  5
F105F5
330
F105F6
100
AcDbEntity
8
Geo
100
AcDbLine
10
-95.4067285382830
20
3.74263341437671
30
0.000000000000000
11
-95.3067285382830
21
3.71604180410047
31
0.000000000000000
  0
LINE
  5
F105F7
330
F105F8
100
AcDbEntity
8
Geo
100
AcDbLine
10
-95.3067285382830
20
1.15295792443281
30
0.000000000000000
11
-95.2067285382830
21
1.08281909345094
31
0.000000000000000
  0
LINE
  5
F105F9
330
F105FA
100
AcDbEntity
8
Geo
100
AcDbLine
10
-95.3067285382830
20
3.71604180410047
30
0.000000000000000
11
-95.2067285382830
21
3.68672950535721
31
0.000000000000000
  0
LINE
  5
F105FB
330
F105FC
100
AcDbEntity
8
Geo
100
AcDbLine
10
-95.2067285382830
20
1.08281909345094
30
0.000000000000000
11
-95.1067285382830
21
1.01386016309461
31
0.000000000000000
  0
LINE
  5
F105FD
330
F105FE
100
AcDbEntity
8
Geo
100
AcDbLine
10
-95.2067285382830
20
3.68672950535721
30
0.000000000000000
11
-95.1067285382830
21
3.65473993841377
31
0.000000000000000
  0
LINE
  5
F105FF
330
F10600
100
AcDbEntity
8
Geo
100
AcDbLine
10
-95.1067285382830
20
1.01386016309461
30
0.000000000000000
11
-95.0067285382830
21
0.946183282130238
31
0.000000000000000
  0
LINE
  5
F10601
330
F10602
100
AcDbEntity
8
Geo
100
AcDbLine
10
-95.1067285382830
20
3.65473993841377
30
0.000000000000000
11
-95.0067285382830
21
3.62012048937061
31
0.000000000000000
  0
LINE
  5
F10603
330
F10604
100
AcDbEntity
8
Geo
100
AcDbLine
10
-95.0067285382830
20
0.946183282130238
30
0.000000000000000
11
-94.9067285382830
21
0.879888700226274
31
0.000000000000000
  0
LINE
  5
F10605
330
F10606
100
AcDbEntity
8
Geo
100
AcDbLine
10
-95.0067285382830
20
3.62012048937061
30
0.000000000000000
11
-94.9067285382830
21
3.58292243996884
31
0.000000000000000
  0
LINE
  5
F10607
330
F10608
100
AcDbEntity
8
Geo
100
AcDbLine
10
-94.9067285382830
20
0.879888700226274
30
0.000000000000000
11
-94.8067285382830
21
0.815074619453521
31
0.000000000000000
  0
LINE
  5
F10609
330
F1060A
100
AcDbEntity
8
Geo
100
AcDbLine
10
-94.9067285382830
20
3.58292243996884
30
0.000000000000000
11
-94.8067285382830
21
3.54320089162665
31
0.000000000000000
  0
LINE
  5
F1060B
330
F1060C
100
AcDbEntity
8
Geo
100
AcDbLine
10
-94.8067285382830
20
0.815074619453521
30
0.000000000000000
11
-94.7067285382830
21
0.751837048818543
31
0.000000000000000
  0
LINE
  5
F1060D
330
F1060E
100
AcDbEntity
8
Geo
100
AcDbLine
10
-94.8067285382830
20
3.54320089162665
30
0.000000000000000
11
-94.7067285382830
21
3.50101468381766
31
0.000000000000000
  0
LINE
  5
F1060F
330
F10610
100
AcDbEntity
8
Geo
100
AcDbLine
10
-94.7067285382830
20
0.751837048818543
30
0.000000000000000
11
-94.6067285382830
21
0.690269662045654
31
0.000000000000000
  0
LINE
  5
F10611
330
F10612
100
AcDbEntity
8
Geo
100
AcDbLine
10
-94.7067285382830
20
3.50101468381766
30
0.000000000000000
11
-94.6067285382830
21
3.45642630691206
31
0.000000000000000
  0
LINE
  5
F10613
330
F10614
100
AcDbEntity
8
Geo
100
AcDbLine
10
-94.6067285382830
20
0.690269662045654
30
0.000000000000000
11
-94.5067285382830
21
0.630463658818167
31
0.000000000000000
  0
LINE
  5
F10615
330
F10616
100
AcDbEntity
8
Geo
100
AcDbLine
10
-94.6067285382830
20
3.45642630691206
30
0.000000000000000
11
-94.5067285382830
21
3.40950180960978
31
0.000000000000000
  0
LINE
  5
F10617
330
F10618
100
AcDbEntity
8
Geo
100
AcDbLine
10
-94.5067285382830
20
0.630463658818167
30
0.000000000000000
11
-94.4067285382830
21
0.572507629684431
31
0.000000000000000
  0
LINE
  5
F10619
330
F1061A
100
AcDbEntity
8
Geo
100
AcDbLine
10
-94.5067285382830
20
3.40950180960978
30
0.000000000000000
11
-94.4067285382830
21
3.36031070110258
31
0.000000000000000
  0
LINE
  5
F1061B
330
F1061C
100
AcDbEntity
8
Geo
100
AcDbLine
10
-94.4067285382830
20
0.572507629684431
30
0.000000000000000
11
-94.3067285382830
21
0.516487424828774
31
0.000000000000000
  0
LINE
  5
F1061D
330
F1061E
100
AcDbEntity
8
Geo
100
AcDbLine
10
-94.4067285382830
20
3.36031070110258
30
0.000000000000000
11
-94.3067285382830
21
3.30892584811021
31
0.000000000000000
  0
LINE
  5
F1061F
330
F10620
100
AcDbEntity
8
Geo
100
AcDbLine
10
-94.3067285382830
20
0.516487424828774
30
0.000000000000000
11
-94.2067285382830
21
0.462486026901748
31
0.000000000000000
  0
LINE
  5
F10621
330
F10622
100
AcDbEntity
8
Geo
100
AcDbLine
10
-94.3067285382830
20
3.30892584811021
30
0.000000000000000
11
-94.2067285382830
21
3.25542336694303
31
0.000000000000000
  0
LINE
  5
F10623
330
F10624
100
AcDbEntity
8
Geo
100
AcDbLine
10
-94.2067285382830
20
0.462486026901748
30
0.000000000000000
11
-94.1067285382830
21
0.410583428098044
31
0.000000000000000
  0
LINE
  5
F10625
330
F10626
100
AcDbEntity
8
Geo
100
AcDbLine
10
-94.2067285382830
20
3.25542336694303
30
0.000000000000000
11
-94.1067285382830
21
3.19988251075103
31
0.000000000000000
  0
LINE
  5
F10627
330
F10628
100
AcDbEntity
8
Geo
100
AcDbLine
10
-94.1067285382830
20
0.410583428098044
30
0.000000000000000
11
-94.0067285382830
21
0.360856511664170
31
0.000000000000000
  0
LINE
  5
F10629
330
F1062A
100
AcDbEntity
8
Geo
100
AcDbLine
10
-94.1067285382830
20
3.19988251075103
30
0.000000000000000
11
-94.0067285382830
21
3.14238555212628
31
0.000000000000000
  0
LINE
  5
F1062B
330
F1062C
100
AcDbEntity
8
Geo
100
AcDbLine
10
-94.0067285382830
20
0.360856511664170
30
0.000000000000000
11
-93.9067285382830
21
0.313378938011401
31
0.000000000000000
  0
LINE
  5
F1062D
330
F1062E
100
AcDbEntity
8
Geo
100
AcDbLine
10
-94.0067285382830
20
3.14238555212628
30
0.000000000000000
11
-93.9067285382830
21
3.08301766123261
31
0.000000000000000
  0
LINE
  5
F1062F
330
F10630
100
AcDbEntity
8
Geo
100
AcDbLine
10
-93.9067285382830
20
0.313378938011401
30
0.000000000000000
11
-93.8067285382830
21
0.268221035602721
31
0.000000000000000
  0
LINE
  5
F10631
330
F10632
100
AcDbEntity
8
Geo
100
AcDbLine
10
-93.9067285382830
20
3.08301766123261
30
0.000000000000000
11
-93.8067285382830
21
3.02186677964316
31
0.000000000000000
  0
LINE
  5
F10633
330
F10634
100
AcDbEntity
8
Geo
100
AcDbLine
10
-93.8067285382830
20
0.268221035602721
30
0.000000000000000
11
-93.7067285382830
21
0.225449696775365
31
0.000000000000000
  0
LINE
  5
F10635
330
F10636
100
AcDbEntity
8
Geo
100
AcDbLine
10
-93.8067285382830
20
3.02186677964316
30
0.000000000000000
11
-93.7067285382830
21
2.95902349007273
31
0.000000000000000
  0
LINE
  5
F10637
330
F10638
100
AcDbEntity
8
Geo
100
AcDbLine
10
-93.7067285382830
20
0.225449696775365
30
0.000000000000000
11
-93.6067285382831
21
0.185128278653297
31
0.000000000000000
  0
LINE
  5
F10639
330
F1063A
100
AcDbEntity
8
Geo
100
AcDbLine
10
-93.7067285382830
20
2.95902349007273
30
0.000000000000000
11
-93.6067285382831
21
2.89458088219764
31
0.000000000000000
  0
LINE
  5
F1063B
330
F1063C
100
AcDbEntity
8
Geo
100
AcDbLine
10
-93.6067285382831
20
0.185128278653297
30
0.000000000000000
11
-93.5067285382830
21
0.147316509296393
31
0.000000000000000
  0
LINE
  5
F1063D
330
F1063E
100
AcDbEntity
8
Geo
100
AcDbLine
10
-93.6067285382831
20
2.89458088219764
30
0.000000000000000
11
-93.5067285382830
21
2.82863441476217
31
0.000000000000000
  0
LINE
  5
F1063F
330
F10640
100
AcDbEntity
8
Geo
100
AcDbLine
10
-93.5067285382830
20
0.147316509296393
30
0.000000000000000
11
-93.4067285382830
21
0.112070399225344
31
0.000000000000000
  0
LINE
  5
F10641
330
F10642
100
AcDbEntity
8
Geo
100
AcDbLine
10
-93.5067285382830
20
2.82863441476217
30
0.000000000000000
11
-93.4067285382830
21
2.76128177417564
31
0.000000000000000
  0
LINE
  5
F10643
330
F10644
100
AcDbEntity
8
Geo
100
AcDbLine
10
-93.4067285382830
20
0.112070399225344
30
0.000000000000000
11
-93.3067285382830
21
0.0794421584533567
31
0.000000000000000
  0
LINE
  5
F10645
330
F10646
100
AcDbEntity
8
Geo
100
AcDbLine
10
-93.4067285382830
20
2.76128177417564
30
0.000000000000000
11
-93.3067285382830
21
2.69262272980971
31
0.000000000000000
  0
LINE
  5
F10647
330
F10648
100
AcDbEntity
8
Geo
100
AcDbLine
10
-93.3067285382830
20
0.0794421584533567
30
0.000000000000000
11
-93.2067285382830
21
0.0494801191475329
31
0.000000000000000
  0
LINE
  5
F10649
330
F1064A
100
AcDbEntity
8
Geo
100
AcDbLine
10
-93.3067285382830
20
2.69262272980971
30
0.000000000000000
11
-93.2067285382830
21
2.62275898621009
31
0.000000000000000
  0
LINE
  5
F1064B
330
F1064C
100
AcDbEntity
8
Geo
100
AcDbLine
10
-93.2067285382830
20
0.0494801191475329
30
0.000000000000000
11
-93.1067285382831
21
0.0222286640344960
31
0.000000000000000
  0
LINE
  5
F1064D
330
F1064E
100
AcDbEntity
8
Geo
100
AcDbLine
10
-93.2067285382830
20
2.62275898621009
30
0.000000000000000
11
-93.1067285382831
21
2.55179403244177
31
0.000000000000000
  0
LINE
  5
F1064F
330
F10650
100
AcDbEntity
8
Geo
100
AcDbLine
10
-93.1067285382831
20
0.0222286640344960
30
0.000000000000000
11
-93.0067285382830
21
-0.00227183934367670
31
0.000000000000000
  0
LINE
  5
F10651
330
F10652
100
AcDbEntity
8
Geo
100
AcDbLine
10
-93.1067285382831
20
2.55179403244177
30
0.000000000000000
11
-93.0067285382830
21
2.47983298879082
31
0.000000000000000
  0
LINE
  5
F10653
330
F10654
100
AcDbEntity
8
Geo
100
AcDbLine
10
-93.0067285382830
20
-0.00227183934367670
30
0.000000000000000
11
-92.9067285382830
21
-0.0239850984258392
31
0.000000000000000
  0
LINE
  5
F10655
330
F10656
100
AcDbEntity
8
Geo
100
AcDbLine
10
-93.0067285382830
20
2.47983298879082
30
0.000000000000000
11
-92.9067285382830
21
2.40698245104985
31
0.000000000000000
  0
LINE
  5
F10657
330
F10658
100
AcDbEntity
8
Geo
100
AcDbLine
10
-92.9067285382830
20
-0.0239850984258392
30
0.000000000000000
11
-92.8067285382830
21
-0.0428789493918935
31
0.000000000000000
  0
LINE
  5
F10659
330
F1065A
100
AcDbEntity
8
Geo
100
AcDbLine
10
-92.9067285382830
20
2.40698245104985
30
0.000000000000000
11
-92.8067285382830
21
2.33335033261781
31
0.000000000000000
  0
LINE
  5
F1065B
330
F1065C
100
AcDbEntity
8
Geo
100
AcDbLine
10
-92.8067285382830
20
-0.0428789493918935
30
0.000000000000000
11
-92.7067285382830
21
-0.0589254048070151
31
0.000000000000000
  0
LINE
  5
F1065D
330
F1065E
100
AcDbEntity
8
Geo
100
AcDbLine
10
-92.8067285382830
20
2.33335033261781
30
0.000000000000000
11
-92.7067285382830
21
2.25904570464802
31
0.000000000000000
  0
LINE
  5
F1065F
330
F10660
100
AcDbEntity
8
Geo
100
AcDbLine
10
-92.7067285382830
20
-0.0589254048070151
30
0.000000000000000
11
-92.6067285382831
21
-0.0721006950793983
31
0.000000000000000
  0
LINE
  5
F10661
330
F10662
100
AcDbEntity
8
Geo
100
AcDbLine
10
-92.7067285382830
20
2.25904570464802
30
0.000000000000000
11
-92.6067285382831
21
2.18417863448125
31
0.000000000000000
  0
LINE
  5
F10663
330
F10664
100
AcDbEntity
8
Geo
100
AcDbLine
10
-92.6067285382831
20
-0.0721006950793983
30
0.000000000000000
11
-92.5067285382830
21
-0.0823853036701185
31
0.000000000000000
  0
LINE
  5
F10665
330
F10666
100
AcDbEntity
8
Geo
100
AcDbLine
10
-92.6067285382831
20
2.18417863448125
30
0.000000000000000
11
-92.5067285382830
21
2.10886002260309
31
0.000000000000000
  0
LINE
  5
F10667
330
F10668
100
AcDbEntity
8
Geo
100
AcDbLine
10
-92.5067285382830
20
-0.0823853036701185
30
0.000000000000000
11
-92.4067285382830
21
-0.0897639960029559
31
0.000000000000000
  0
LINE
  5
F10669
330
F1066A
100
AcDbEntity
8
Geo
100
AcDbLine
10
-92.5067285382830
20
2.10886002260309
30
0.000000000000000
11
-92.4067285382830
21
2.03320143836722
31
0.000000000000000
  0
LINE
  5
F1066B
330
F1066C
100
AcDbEntity
8
Geo
100
AcDbLine
10
-92.4067285382830
20
-0.0897639960029559
30
0.000000000000000
11
-92.3067285382831
21
-0.0942258420313502
31
0.000000000000000
  0
LINE
  5
F1066D
330
F1066E
100
AcDbEntity
8
Geo
100
AcDbLine
10
-92.4067285382830
20
2.03320143836722
30
0.000000000000000
11
-92.3067285382831
21
1.95731495472793
31
0.000000000000000
  0
LINE
  5
F1066F
330
F10670
100
AcDbEntity
8
Geo
100
AcDbLine
10
-92.3067285382831
20
-0.0942258420313502
30
0.000000000000000
11
-92.2067285382830
21
-0.0957642324290637
31
0.000000000000000
  0
LINE
  5
F10671
330
F10672
100
AcDbEntity
8
Geo
100
AcDbLine
10
-92.3067285382831
20
1.95731495472793
30
0.000000000000000
11
-92.2067285382830
21
1.88131298222654
31
0.000000000000000
  0
LINE
  5
F10673
330
F10674
100
AcDbEntity
8
Geo
100
AcDbLine
10
-92.2067285382830
20
1.88131298222654
30
0.000000000000000
11
-92.1067285382831
21
1.80530810247788
31
0.000000000000000
  0
LINE
  5
F10675
330
F10676
100
AcDbEntity
8
Geo
100
AcDbLine
10
-92.1067285382831
20
3.85307758443625
30
0.000000000000000
11
-92.0067285382831
21
3.84876656101233
31
0.000000000000000
  0
LINE
  5
F10677
330
F10678
100
AcDbEntity
8
Geo
100
AcDbLine
10
-92.1067285382831
20
1.80530810247788
30
0.000000000000000
11
-92.0067285382831
21
1.72941290140326
31
0.000000000000000
  0
LINE
  5
F10679
330
F1067A
100
AcDbEntity
8
Geo
100
AcDbLine
10
-92.0067285382831
20
3.84876656101233
30
0.000000000000000
11
-91.9067285382830
21
3.84153824412591
31
0.000000000000000
  0
LINE
  5
F1067B
330
F1067C
100
AcDbEntity
8
Geo
100
AcDbLine
10
-92.0067285382831
20
1.72941290140326
30
0.000000000000000
11
-91.9067285382830
21
1.65373980245716
31
0.000000000000000
  0
LINE
  5
F1067D
330
F1067E
100
AcDbEntity
8
Geo
100
AcDbLine
10
-91.9067285382830
20
3.84153824412591
30
0.000000000000000
11
-91.8067285382831
21
3.83140334107261
31
0.000000000000000
  0
LINE
  5
F1067F
330
F10680
100
AcDbEntity
8
Geo
100
AcDbLine
10
-91.9067285382830
20
1.65373980245716
30
0.000000000000000
11
-91.8067285382831
21
1.57840090009445
31
0.000000000000000
  0
LINE
  5
F10681
330
F10682
100
AcDbEntity
8
Geo
100
AcDbLine
10
-91.8067285382831
20
3.83140334107261
30
0.000000000000000
11
-91.7067285382830
21
3.81837686467006
31
0.000000000000000
  0
LINE
  5
F10683
330
F10684
100
AcDbEntity
8
Geo
100
AcDbLine
10
-91.8067285382831
20
1.57840090009445
30
0.000000000000000
11
-91.7067285382830
21
1.50350779372509
31
0.000000000000000
  0
LINE
  5
F10685
330
F10686
100
AcDbEntity
8
Geo
100
AcDbLine
10
-91.7067285382830
20
3.81837686467006
30
0.000000000000000
11
-91.6067285382831
21
3.80247811101939
31
0.000000000000000
  0
LINE
  5
F10687
330
F10688
100
AcDbEntity
8
Geo
100
AcDbLine
10
-91.7067285382830
20
1.50350779372509
30
0.000000000000000
11
-91.6067285382831
21
1.42917142240208
31
0.000000000000000
  0
LINE
  5
F10689
330
F1068A
100
AcDbEntity
8
Geo
100
AcDbLine
10
-91.6067285382831
20
3.80247811101939
30
0.000000000000000
11
-91.5067285382831
21
3.78373063092201
31
0.000000000000000
  0
LINE
  5
F1068B
330
F1068C
100
AcDbEntity
8
Geo
100
AcDbLine
10
-91.6067285382831
20
1.42917142240208
30
0.000000000000000
11
-91.5067285382831
21
1.35550190048754
31
0.000000000000000
  0
LINE
  5
F1068D
330
F1068E
100
AcDbEntity
8
Geo
100
AcDbLine
10
-91.5067285382831
20
3.78373063092201
30
0.000000000000000
11
-91.4067285382830
21
3.76216219499377
31
0.000000000000000
  0
LINE
  5
F1068F
330
F10690
100
AcDbEntity
8
Geo
100
AcDbLine
10
-91.5067285382831
20
1.35550190048754
30
0.000000000000000
11
-91.4067285382830
21
1.28260835454054
31
0.000000000000000
  0
LINE
  5
F10691
330
F10692
100
AcDbEntity
8
Geo
100
AcDbLine
10
-91.4067285382830
20
3.76216219499377
30
0.000000000000000
11
-91.3067285382831
21
3.73780475252845
31
0.000000000000000
  0
LINE
  5
F10693
330
F10694
100
AcDbEntity
8
Geo
100
AcDbLine
10
-91.4067285382830
20
1.28260835454054
30
0.000000000000000
11
-91.3067285382831
21
1.21059876166803
31
0.000000000000000
  0
LINE
  5
F10695
330
F10696
100
AcDbEntity
8
Geo
100
AcDbLine
10
-91.3067285382831
20
3.73780475252845
30
0.000000000000000
11
-91.2067285382830
21
3.71069438417124
31
0.000000000000000
  0
LINE
  5
F10697
330
F10698
100
AcDbEntity
8
Geo
100
AcDbLine
10
-91.3067285382831
20
1.21059876166803
30
0.000000000000000
11
-91.2067285382830
21
1.13957978957849
31
0.000000000000000
  0
LINE
  5
F10699
330
F1069A
100
AcDbEntity
8
Geo
100
AcDbLine
10
-91.2067285382830
20
3.71069438417124
30
0.000000000000000
11
-91.1067285382831
21
3.68087124847263
31
0.000000000000000
  0
LINE
  5
F1069B
330
F1069C
100
AcDbEntity
8
Geo
100
AcDbLine
10
-91.2067285382830
20
1.13957978957849
30
0.000000000000000
11
-91.1067285382831
21
1.06965663857527
31
0.000000000000000
  0
LINE
  5
F1069D
330
F1069E
100
AcDbEntity
8
Geo
100
AcDbLine
10
-91.1067285382831
20
3.68087124847263
30
0.000000000000000
11
-91.0067285382831
21
3.64837952240151
31
0.000000000000000
  0
LINE
  5
F1069F
330
F106A0
100
AcDbEntity
8
Geo
100
AcDbLine
10
-91.1067285382831
20
1.06965663857527
30
0.000000000000000
11
-91.0067285382831
21
1.00093288572345
31
0.000000000000000
  0
LINE
  5
F106A1
330
F106A2
100
AcDbEntity
8
Geo
100
AcDbLine
10
-91.0067285382831
20
3.64837952240151
30
0.000000000000000
11
-90.9067285382830
21
3.61326733590595
31
0.000000000000000
  0
LINE
  5
F106A3
330
F106A4
100
AcDbEntity
8
Geo
100
AcDbLine
10
-91.0067285382831
20
1.00093288572345
30
0.000000000000000
11
-90.9067285382830
21
0.933510331421356
31
0.000000000000000
  0
LINE
  5
F106A5
330
F106A6
100
AcDbEntity
8
Geo
100
AcDbLine
10
-90.9067285382830
20
3.61326733590595
30
0.000000000000000
11
-90.8067285382831
21
3.57558670061837
31
0.000000000000000
  0
LINE
  5
F106A7
330
F106A8
100
AcDbEntity
8
Geo
100
AcDbLine
10
-90.9067285382830
20
0.933510331421356
30
0.000000000000000
11
-90.8067285382831
21
0.867488848603705
31
0.000000000000000
  0
LINE
  5
F106A9
330
F106AA
100
AcDbEntity
8
Geo
100
AcDbLine
10
-90.8067285382831
20
3.57558670061837
30
0.000000000000000
11
-90.7067285382831
21
3.53539343281072
31
0.000000000000000
  0
LINE
  5
F106AB
330
F106AC
100
AcDbEntity
8
Geo
100
AcDbLine
10
-90.8067285382831
20
0.867488848603705
30
0.000000000000000
11
-90.7067285382831
21
0.802966234800010
31
0.000000000000000
  0
LINE
  5
F106AD
330
F106AE
100
AcDbEntity
8
Geo
100
AcDbLine
10
-90.7067285382831
20
3.53539343281072
30
0.000000000000000
11
-90.6067285382831
21
3.49274707071402
31
0.000000000000000
  0
LINE
  5
F106AF
330
F106B0
100
AcDbEntity
8
Geo
100
AcDbLine
10
-90.7067285382831
20
0.802966234800010
30
0.000000000000000
11
-90.6067285382831
21
0.740038067267222
31
0.000000000000000
  0
LINE
  5
F106B1
330
F106B2
100
AcDbEntity
8
Geo
100
AcDbLine
10
-90.6067285382831
20
3.49274707071402
30
0.000000000000000
11
-90.5067285382831
21
3.44771078632437
31
0.000000000000000
  0
LINE
  5
F106B3
330
F106B4
100
AcDbEntity
8
Geo
100
AcDbLine
10
-90.6067285382831
20
0.740038067267222
30
0.000000000000000
11
-90.5067285382831
21
0.678797561411277
31
0.000000000000000
  0
LINE
  5
F106B5
330
F106B6
100
AcDbEntity
8
Geo
100
AcDbLine
10
-90.5067285382831
20
3.44771078632437
30
0.000000000000000
11
-90.4067285382831
21
3.40035129182640
31
0.000000000000000
  0
LINE
  5
F106B7
330
F106B8
100
AcDbEntity
8
Geo
100
AcDbLine
10
-90.5067285382831
20
0.678797561411277
30
0.000000000000000
11
-90.4067285382831
21
0.619335432707245
31
0.000000000000000
  0
LINE
  5
F106B9
330
F106BA
100
AcDbEntity
8
Geo
100
AcDbLine
10
-90.4067285382831
20
3.40035129182640
30
0.000000000000000
11
-90.3067285382831
21
3.35073874077261
31
0.000000000000000
  0
LINE
  5
F106BB
330
F106BC
100
AcDbEntity
8
Geo
100
AcDbLine
10
-90.4067285382831
20
0.619335432707245
30
0.000000000000000
11
-90.3067285382831
21
0.561739762322630
31
0.000000000000000
  0
LINE
  5
F106BD
330
F106BE
100
AcDbEntity
8
Geo
100
AcDbLine
10
-90.3067285382831
20
3.35073874077261
30
0.000000000000000
11
-90.2067285382831
21
3.29894662416501
31
0.000000000000000
  0
LINE
  5
F106BF
330
F106C0
100
AcDbEntity
8
Geo
100
AcDbLine
10
-90.3067285382831
20
0.561739762322630
30
0.000000000000000
11
-90.2067285382831
21
0.506095866642851
31
0.000000000000000
  0
LINE
  5
F106C1
330
F106C2
100
AcDbEntity
8
Geo
100
AcDbLine
10
-90.2067285382831
20
3.29894662416501
30
0.000000000000000
11
-90.1067285382831
21
3.24505166159297
31
0.000000000000000
  0
LINE
  5
F106C3
330
F106C4
100
AcDbEntity
8
Geo
100
AcDbLine
10
-90.2067285382831
20
0.506095866642851
30
0.000000000000000
11
-90.1067285382831
21
0.452486170892209
31
0.000000000000000
  0
LINE
  5
F106C5
330
F106C6
100
AcDbEntity
8
Geo
100
AcDbLine
10
-100.106728538283
20
1.87935034802784
30
0.000000000000000
11
-100.106728538283
21
1.87935034802784
31
0.000000000000000
  0
LINE
  5
F106C7
330
F106C8
100
AcDbEntity
8
Geo
100
AcDbLine
10
-100.106728538283
20
1.87935034802784
30
0.000000000000000
11
-100.106728538283
21
1.87935034802784
31
0.000000000000000
  0
LINE
  5
F106C9
330
F106CA
100
AcDbEntity
8
Geo
100
AcDbLine
10
-101.106728538283
20
1.87935034802784
30
0.000000000000000
11
-100.806728538283
21
1.87935034802784
31
0.000000000000000
  0
LINE
  5
F106CB
330
F106CC
100
AcDbEntity
8
Geo
100
AcDbLine
10
-100.679228538283
20
1.87935034802784
30
0.000000000000000
11
-100.594228538283
21
1.87935034802784
31
0.000000000000000
  0
LINE
  5
F106CD
330
F106CE
100
AcDbEntity
8
Geo
100
AcDbLine
10
-100.381728538283
20
1.87935034802784
30
0.000000000000000
11
-99.9567285382830
21
1.87935034802784
31
0.000000000000000
  0
LINE
  5
F106CF
330
F106D0
100
AcDbEntity
8
Geo
100
AcDbLine
10
-99.8292285382830
20
1.87935034802784
30
0.000000000000000
11
-99.7442285382830
21
1.87935034802784
31
0.000000000000000
  0
LINE
  5
F106D1
330
F106D2
100
AcDbEntity
8
Geo
100
AcDbLine
10
-99.5317285382830
20
1.87935034802784
30
0.000000000000000
11
-99.1067285382830
21
1.87935034802784
31
0.000000000000000
  0
LINE
  5
F106D3
330
F106D4
100
AcDbEntity
8
Geo
100
AcDbLine
10
-50.1067285382831
20
4.57935034802784
30
0.000000000000000
11
-50.1067285382831
21
1.87935034802784
31
0.000000000000000
  0
LINE
  5
F106D5
330
F106D6
100
AcDbEntity
8
Geo
100
AcDbLine
10
-100.054652156195
20
1.87935034802784
30
0.000000000000000
11
-100.106423951793
21
0.396800096379092
31
0.000000000000000
  0
ARC
  5
F106D7
330
F106D8
100
AcDbEntity
8
Geo
100
AcDbCircle
10
-99.6067285382830
20
0.379350348027842
30
0.000000000000000
 40
0.500000000000000
100
AcDbArc
 50
178.000000000000
 51
270.000000000000
  0
LINE
  5
F106D9
330
F106DA
100
AcDbEntity
8
Geo
100
AcDbLine
10
-99.6067285382830
20
-0.120649651972158
30
0.000000000000000
11
-85.1067285382830
21
-0.120649651972158
31
0.000000000000000
  0
LINE
  5
F106DB
330
F106DC
100
AcDbEntity
8
Geo
100
AcDbLine
10
-85.1067285382830
20
-0.120649651972158
30
0.000000000000000
11
-84.1067285382830
21
-0.120649651972158
31
0.000000000000000
  0
LINE
  5
F106DD
330
F106DE
100
AcDbEntity
8
Geo
100
AcDbLine
10
-84.1067285382830
20
-0.120649651972158
30
0.000000000000000
11
-80.3746777307142
21
-1.12064965197216
31
0.000000000000000
  0
LINE
  5
F106DF
330
F106E0
100
AcDbEntity
8
Geo
100
AcDbLine
10
-80.3746777307142
20
-1.12064965197216
30
0.000000000000000
11
-50.4067285382830
21
-1.12064965197216
31
0.000000000000000
  0
LINE
  5
F106E1
330
F106E2
100
AcDbEntity
8
Geo
100
AcDbLine
10
-50.4067285382830
20
-1.12064965197216
30
0.000000000000000
11
-50.1067285382831
21
-0.820649651972158
31
0.000000000000000
  0
LINE
  5
F106E3
330
F106E4
100
AcDbEntity
8
Geo
100
AcDbLine
10
-99.6067285382830
20
3.87935034802784
30
0.000000000000000
11
-99.6067285382830
21
-0.120649651972158
31
0.000000000000000
  0
LINE
  5
F106E5
330
F106E6
100
AcDbEntity
8
Geo
100
AcDbLine
10
-99.6067285382830
20
3.87935034802784
30
0.000000000000000
11
-99.6067285382830
21
-0.120649651972158
31
0.000000000000000
  0
LINE
  5
F106E7
330
F106E8
100
AcDbEntity
8
Geo
100
AcDbLine
10
-85.1067285382830
20
3.87935034802784
30
0.000000000000000
11
-85.1067285382830
21
-0.120649651972158
31
0.000000000000000
  0
LINE
  5
F106E9
330
F106EA
100
AcDbEntity
8
Geo
100
AcDbLine
10
-85.1067285382830
20
3.87935034802784
30
0.000000000000000
11
-85.1067285382830
21
-0.120649651972158
31
0.000000000000000
  0
LINE
  5
F106EB
330
F106EC
100
AcDbEntity
8
Geo
100
AcDbLine
10
-84.1067285382830
20
3.87935034802784
30
0.000000000000000
11
-84.1067285382830
21
-0.120649651972158
31
0.000000000000000
  0
LINE
  5
F106ED
330
F106EE
100
AcDbEntity
8
Geo
100
AcDbLine
10
-80.3746777307142
20
4.87935034802784
30
0.000000000000000
11
-80.3746777307142
21
-1.12064965197216
31
0.000000000000000
  0
LINE
  5
F106EF
330
F106F0
100
AcDbEntity
8
Geo
100
AcDbLine
10
-80.3746777307142
20
4.87935034802784
30
0.000000000000000
11
-80.3746777307142
21
-1.12064965197216
31
0.000000000000000
  0
LINE
  5
F106F1
330
F106F2
100
AcDbEntity
8
Geo
100
AcDbLine
10
-50.4067285382830
20
4.87935034802784
30
0.000000000000000
11
-50.4067285382830
21
-1.12064965197216
31
0.000000000000000
  0
LINE
  5
F106F3
330
F106F4
100
AcDbEntity
8
Geo
100
AcDbLine
10
-50.1067285382831
20
4.57935034802784
30
0.000000000000000
11
-50.1067285382831
21
-0.820649651972158
31
0.000000000000000
  0
LWPOLYLINE
  5
F106F5
330
F106F6
100
AcDbEntity
8
Rahmen
100
AcDbPolyline
90
   4
70
   1
43
   0.0
 10
-125.540603248260
 20
102.988399071926
 10
134.310904872390
 20
102.988399071926
 10
134.310904872390
 20
-103.238979118329
 10
-125.540603248260
 20
-103.238979118329
  0
TEXT
  5
F106F7
330
F106F8
 100
AcDbEntity
8
Text
100
AcDbText
10
-124.538283062645
20
-102.738979118329
30
0.000000000000000
40
1.00000000000000
1
ISBESketcher
100
AcDbText
  0
LWPOLYLINE
  5
F106F9
330
F106FA
100
AcDbEntity
8
Rahmen
100
AcDbPolyline
90
   4
70
   1
43
   0.0
 10
94.4686774941996
 20
-100.232018561485
 10
134.310904872390
 20
-100.232018561485
 10
134.310904872390
 20
-103.238979118329
 10
94.4686774941996
 20
-103.238979118329
  0
TEXT
  5
F106FB
330
F106FC
 100
AcDbEntity
8
Text
100
AcDbText
10
95.5000000000000
20
-102.001740139211
30
0.000000000000000
40
0.750000000000000
1
Created by:
100
AcDbText
  0
TEXT
  5
F106FD
330
F106FE
 100
AcDbEntity
8
Text
100
AcDbText
10
120.119489559165
20
-102.001740139211
30
0.000000000000000
40
0.750000000000000
1
nsarkol
100
AcDbText
  0
LWPOLYLINE
  5
F106FF
330
F10700
100
AcDbEntity
8
Rahmen
100
AcDbPolyline
90
   4
70
   1
43
   0.0
 10
54.3758700696056
 20
-100.232018561485
 10
94.4686774941996
 20
-100.232018561485
 10
94.4686774941996
 20
-103.238979118329
 10
54.3758700696056
 20
-103.238979118329
  0
TEXT
  5
F10701
330
F10702
 100
AcDbEntity
8
Text
100
AcDbText
10
55.5000000000000
20
-102.001740139211
30
0.000000000000000
40
0.750000000000000
1
Created for:
100
AcDbText
  0
TEXT
  5
F10703
330
F10704
 100
AcDbEntity
8
Text
100
AcDbText
10
0.000000000000000
20
0.250000000000000
30
0.000000000000000
40
0.750000000000000
1

100
AcDbText
  0
LWPOLYLINE
  5
F10705
330
F10706
100
AcDbEntity
8
Rahmen
100
AcDbPolyline
90
   4
70
   1
43
   0.0
 10
121.030162412993
 20
-97.2250580046404
 10
134.310904872390
 20
-97.2250580046404
 10
134.310904872390
 20
-100.232018561485
 10
121.030162412993
 20
-100.232018561485
  0
TEXT
  5
F10707
330
F10708
 100
AcDbEntity
8
Text
100
AcDbText
10
122.166666666667
20
-99.0017401392111
30
0.000000000000000
40
0.750000000000000
1
Pages
100
AcDbText
  0
TEXT
  5
F10709
330
F1070A
 100
AcDbEntity
8
Text
100
AcDbText
10
0.000000000000000
20
0.250000000000000
30
0.000000000000000
40
0.750000000000000
1

100
AcDbText
  0
LWPOLYLINE
  5
F1070B
330
F1070C
100
AcDbEntity
8
Rahmen
100
AcDbPolyline
90
   4
70
   1
43
   0.0
 10
121.030162412993
 20
-94.2180974477958
 10
134.310904872390
 20
-94.2180974477958
 10
134.310904872390
 20
-97.2250580046404
 10
121.030162412993
 20
-97.2250580046404
  0
TEXT
  5
F1070D
330
F1070E
 100
AcDbEntity
8
Text
100
AcDbText
10
122.166666666667
20
-96.0017401392111
30
0.000000000000000
40
0.750000000000000
1
Page
100
AcDbText
  0
TEXT
  5
F1070F
330
F10710
 100
AcDbEntity
8
Text
100
AcDbText
10
0.000000000000000
20
0.250000000000000
30
0.000000000000000
40
0.750000000000000
1

100
AcDbText
  0
LWPOLYLINE
  5
F10711
330
F10712
100
AcDbEntity
8
Rahmen
100
AcDbPolyline
90
   4
70
   1
43
   0.0
 10
54.3758700696056
 20
-94.2180974477958
 10
121.030162412993
 20
-94.2180974477958
 10
121.030162412993
 20
-100.232018561485
 10
54.3758700696056
 20
-100.232018561485
  0
TEXT
  5
F10713
330
F10714
 100
AcDbEntity
8
Text
100
AcDbText
10
55.5000000000000
20
-96.0017401392111
30
0.000000000000000
40
0.750000000000000
1
Date:
100
AcDbText
  0
TEXT
  5
F10715
330
F10716
 100
AcDbEntity
8
Text
100
AcDbText
10
84.4505027068832
20
-99.0017401392111
30
0.000000000000000
40
0.750000000000000
1
30.09.2016
100
AcDbText
  0
LWPOLYLINE
  5
F10717
330
F10718
100
AcDbEntity
8
Rahmen
100
AcDbPolyline
90
   4
70
   1
43
   0.0
 10
54.3758700696056
 20
-88.2041763341067
 10
134.310904872390
 20
-88.2041763341067
 10
134.310904872390
 20
-94.2180974477958
 10
54.3758700696056
 20
-94.2180974477958
  0
TEXT
  5
F10719
330
F1071A
 100
AcDbEntity
8
Text
100
AcDbText
10
0.000000000000000
20
0.500000000000000
30
0.000000000000000
40
1.50000000000000
1

100
AcDbText
  0
TEXT
  5
F1071B
330
F1071C
 100
AcDbEntity
8
Text
100
AcDbText
10
76.5835266821346
20
-92.5471771075019
30
0.000000000000000
40
2.50000000000000
1
STR2 4.0x50 R=0.5
100
AcDbText
  0
LWPOLYLINE
  5
F1071D
330
F1071E
100
AcDbEntity
8
Rahmen
100
AcDbPolyline
90
   4
70
   1
43
   0.0
 10
94.4686774941996
 20
-82.1902552204176
 10
134.310904872390
 20
-82.1902552204176
 10
134.310904872390
 20
-88.2041763341067
 10
94.4686774941996
 20
-88.2041763341067
  0
TEXT
  5
F1071F
330
F10720
 100
AcDbEntity
8
Text
100
AcDbText
10
95.5000000000000
20
-84.0017401392111
30
0.000000000000000
40
0.750000000000000
1
Work piece material:
100
AcDbText
  0
TEXT
  5
F10721
330
F10722
 100
AcDbEntity
8
Text
100
AcDbText
10
0.000000000000000
20
0.250000000000000
30
0.000000000000000
40
0.750000000000000
1

100
AcDbText
  0
LWPOLYLINE
  5
F10723
330
F10724
100
AcDbEntity
8
Rahmen
100
AcDbPolyline
90
   4
70
   1
43
   0.0
 10
54.3758700696056
 20
-82.1902552204176
 10
94.4686774941996
 20
-82.1902552204176
 10
94.4686774941996
 20
-88.2041763341067
 10
54.3758700696056
 20
-88.2041763341067
  0
TEXT
  5
F10725
330
F10726
 100
AcDbEntity
8
Text
100
AcDbText
10
55.5000000000000
20
-84.0017401392111
30
0.000000000000000
40
0.750000000000000
1
Tool material:
100
AcDbText
  0
TEXT
  5
F10727
330
F10728
 100
AcDbEntity
8
Text
100
AcDbText
10
0.000000000000000
20
0.250000000000000
30
0.000000000000000
40
0.750000000000000
1

100
AcDbText
  0
LWPOLYLINE
  5
F10729
330
F1072A
100
AcDbEntity
8
Rahmen
100
AcDbPolyline
90
   4
70
   1
43
   0.0
 10
94.4686774941996
 20
-79.1832946635731
 10
134.310904872390
 20
-79.1832946635731
 10
134.310904872390
 20
-82.1902552204176
 10
94.4686774941996
 20
-82.1902552204176
  0
TEXT
  5
F1072B
330
F1072C
 100
AcDbEntity
8
Text
100
AcDbText
10
0.000000000000000
20
0.500000000000000
30
0.000000000000000
40
1.50000000000000
1

100
AcDbText
  0
TEXT
  5
F1072D
330
F1072E
 100
AcDbEntity
8
Text
100
AcDbText
10
0.000000000000000
20
0.250000000000000
30
0.000000000000000
40
0.750000000000000
1

100
AcDbText
  0
LWPOLYLINE
  5
F1072F
330
F10730
100
AcDbEntity
8
Rahmen
100
AcDbPolyline
90
   4
70
   1
43
   0.0
 10
54.3758700696056
 20
-79.1832946635731
 10
94.4686774941996
 20
-79.1832946635731
 10
94.4686774941996
 20
-82.1902552204176
 10
54.3758700696056
 20
-82.1902552204176
  0
TEXT
  5
F10731
330
F10732
 100
AcDbEntity
8
Text
100
AcDbText
10
55.5000000000000
20
-81.0017401392111
30
0.000000000000000
40
0.750000000000000
1
Scale:
100
AcDbText
  0
TEXT
  5
F10733
330
F10734
 100
AcDbEntity
8
Text
100
AcDbText
10
81.2470997679814
20
-81.0017401392111
30
0.000000000000000
40
0.750000000000000
1
4 : 1
100
AcDbText
0
VIEWPORT
5
294
102
{ACAD_XDICTIONARY
360
58A
102
}
330
25D
100
AcDbEntity
67
1
8
0
60
1
100
AcDbViewport
10
0.0
20
0.0
30
0.0
40
10.0
41
10.0
68
-1
69
1
12
0.0
22
0.0
13
0.0
23
0.0
14
1.0
24
1.0
15
0.0
25
0.0
16
0.0
26
0.0
36
1.0
17
0.0
27
0.0
37
0.0
42
0.0
43
0.0
44
0.0
45
10.0
50
0.0
51
0.0000000000007958
72
100
90
32800
1

281
0
71
0
74
0
110
0.0
120
0.0
130
0.0
111
1.0
121
0.0
131
0.0
112
0.0
122
1.0
132
0.0
79
0
146
0.0
1001
VD_INVISIBLE_NOT_FOR_READ
1000
VD_INVISIBLE_NOT_FOR_READ
0
VIEWPORT
5
295
102
{ACAD_XDICTIONARY
360
58C
102
}
330
25D
100
AcDbEntity
67
1
8
0
60
1
100
AcDbViewport
10
0.0
20
0.0
30
0.0
40
10.0
41
10.0
68
0
69
2
12
0.0
22
0.0
13
0.0
23
0.0
14
1.0
24
1.0
15
0.0
25
0.0
16
0.0
26
0.0
36
1.0
17
0.0
27
0.0
37
0.0
42
0.0
43
0.0
44
0.0
45
10.0
50
0.0
51
0.0000000000007958
72
100
90
163872
1

281
0
71
0
74
0
110
0.0
120
0.0
130
0.0
111
1.0
121
0.0
131
0.0
112
0.0
122
1.0
132
0.0
79
0
146
0.0
1001
VD_INVISIBLE_NOT_FOR_READ
1000
VD_INVISIBLE_NOT_FOR_READ
0
ENDSEC
0
SECTION
2
OBJECTS
0
DICTIONARY
5
13
330
0
100
AcDbDictionary
281
1
3
ACAD_COLOR
350
FA7
3
ACAD_GROUP
350
14
3
ACAD_LAYOUT
350
FCF
3
ACAD_MATERIAL
350
F7A
3
ACAD_MLEADERSTYLE
350
FCD
3
ACAD_MLINESTYLE
350
16
3
ACAD_PLOTSETTINGS
350
17
3
ACAD_PLOTSTYLENAME
350
18
3
ACAD_SCALELIST
350
FAB
3
ACAD_TABLESTYLE
350
FA8
3
ACAD_VISUALSTYLE
350
F93
3
ACDB_RECOMPOSE_DATA
350
107E
3
AcDbVariableDictionary
350
FF0
3
DWGPROPS
350
107F
0
DICTIONARY
5
F1000F
330
F1000E
100
AcDbDictionary
280
1
281
1
3
ACAD_MTEXT_2008_RT
360
F10010
0
DICTIONARY
5
F10019
330
F10018
100
AcDbDictionary
280
1
281
1
3
ACAD_MTEXT_2008_RT
360
F1001A
0
DICTIONARY
5
F10023
330
F10022
100
AcDbDictionary
280
1
281
1
3
ACAD_MTEXT_2008_RT
360
F10024
0
DICTIONARY
5
F10028
330
F10027
100
AcDbDictionary
280
1
281
1
3
ACAD_MTEXT_2008_RT
360
F10029
0
DICTIONARY
5
F10014
330
F10013
100
AcDbDictionary
280
1
281
1
3
ACAD_MTEXT_2008_RT
360
F10015
0
DICTIONARY
5
F1000A
330
F10009
100
AcDbDictionary
280
1
281
1
3
ACAD_MTEXT_2008_RT
360
F1000B
0
DICTIONARY
5
F10005
330
F10004
100
AcDbDictionary
280
1
281
1
3
ACAD_MTEXT_2008_RT
360
F10006
0
DICTIONARY
5
F1001E
330
F1001D
100
AcDbDictionary
280
1
281
1
3
ACAD_MTEXT_2008_RT
360
F1001F
0
DICTIONARY
5
FA7
102
{ACAD_REACTORS
330
13
102
}
330
13
100
AcDbDictionary
281
1
0
DICTIONARY
5
14
330
13
100
AcDbDictionary
281
1
0
DICTIONARY
5
FCF
102
{ACAD_REACTORS
330
13
102
}
330
13
100
AcDbDictionary
281
1
3
Layout1
350
FD1
3
Model
350
FD0
0
DICTIONARY
5
F7A
102
{ACAD_REACTORS
330
13
102
}
330
13
100
AcDbDictionary
281
1
3
ByBlock
350
F83
3
ByLayer
350
F7B
3
Global
350
F8B
0
DICTIONARY
5
FCD
102
{ACAD_REACTORS
330
13
102
}
330
13
100
AcDbDictionary
281
1
3
Standard
350
FCE
0
DICTIONARY
5
16
330
13
100
AcDbDictionary
281
1
3
Standard
350
FAA
0
DICTIONARY
5
17
102
{ACAD_REACTORS
330
13
102
}
330
13
100
AcDbDictionary
281
1
0
ACDBDICTIONARYWDFLT
5
18
102
{ACAD_REACTORS
330
13
102
}
330
13
100
AcDbDictionary
281
1
3
Normal
350
19
100
AcDbDictionaryWithDefault
340
19
0
DICTIONARY
5
FAB
102
{ACAD_REACTORS
330
13
102
}
330
13
100
AcDbDictionary
281
1
3
A0
350
FAC
3
A1
350
FAD
3
A2
350
FAE
3
A3
350
FAF
3
A4
350
FB0
3
A5
350
FB1
3
A6
350
FB2
3
A7
350
FB3
3
A8
350
FB4
3
A9
350
FB5
3
B0
350
FB6
3
B1
350
FB7
3
B2
350
FB8
3
B3
350
FB9
3
B4
350
FBA
3
B5
350
FBB
3
B6
350
FBC
3
B7
350
FBD
3
B8
350
FBE
3
B9
350
FBF
3
C0
350
FC0
3
C1
350
FC1
3
C2
350
FC2
3
C3
350
FC3
3
C4
350
FC4
3
C5
350
FC5
3
C6
350
FC6
3
C7
350
FC7
3
C8
350
FC8
3
C9
350
FC9
3
D0
350
FCA
3
D1
350
FCB
3
D2
350
FCC
0
DICTIONARY
5
FA8
102
{ACAD_REACTORS
330
13
102
}
330
13
100
AcDbDictionary
281
1
3
Standard
350
FA9
0
DICTIONARY
5
F93
102
{ACAD_REACTORS
330
13
102
}
330
13
100
AcDbDictionary
281
1
3
2dWireframe
350
F99
3
3D Hidden
350
F9B
3
3dWireframe
350
F9A
3
Basic
350
F98
3
Brighten
350
F9F
3
ColorChange
350
FA3
3
Conceptual
350
F9C
3
Dim
350
F9E
3
EdgeColorOff
350
FA6
3
Facepattern
350
FA2
3
Flat
350
F94
3
FlatWithEdges
350
F95
3
Gouraud
350
F96
3
GouraudWithEdges
350
F97
3
JitterOff
350
FA4
3
Linepattern
350
FA1
3
OverhangOff
350
FA5
3
Realistic
350
F9D
3
Thicken
350
FA0
0
XRECORD
5
107E
102
{ACAD_REACTORS
330
13
102
}
330
13
100
AcDbXrecord
280
1
90
1
330
FA9
330
F1000E
330
F10018
330
F10022
330
F10027
330
F10013
330
F10009
330
F10004
330
F1001D
0
XRECORD
5
F10010
102
{ACAD_REACTORS
330
F1000F
102
}
330
F1000F
100
AcDbXrecord
280
1
40
48458.0
1
16
0
XRECORD
5
F1001A
102
{ACAD_REACTORS
330
F10019
102
}
330
F10019
100
AcDbXrecord
280
1
40
48458.0
1
30.268
0
XRECORD
5
F10024
102
{ACAD_REACTORS
330
F10023
102
}
330
F10023
100
AcDbXrecord
280
1
40
48458.0
1
15
0
XRECORD
5
F10029
102
{ACAD_REACTORS
330
F10028
102
}
330
F10028
100
AcDbXrecord
280
1
40
48458.0
1
50
0
XRECORD
5
F10015
102
{ACAD_REACTORS
330
F10014
102
}
330
F10014
100
AcDbXrecord
280
1
40
48458.0
1
15°
0
XRECORD
5
F1000B
102
{ACAD_REACTORS
330
F1000A
102
}
330
F1000A
100
AcDbXrecord
280
1
40
48458.0
1
R0.5
0
XRECORD
5
F10006
102
{ACAD_REACTORS
330
F10005
102
}
330
F10005
100
AcDbXrecord
280
1
40
48458.0
1
4
0
LAYOUT
5
FD1
102
{ACAD_XDICTIONARY
360
10A9
102
}
102
{ACAD_REACTORS
330
FCF
102
}
330
FCF
100
AcDbPlotSettings
1

2
Microsoft XPS Document Writer
4

6

40
0.0
41
0.0
42
0.0
43
0.0
44
0.0
45
0.0
46
0.0
47
0.0
48
0.0
49
0.0
140
0.0
141
0.0
142
1.0
143
1.0
70
688
72
0
73
0
74
5
7

75
16
147
1.0
148
0.0
149
0.0
100
AcDbLayout
1
Layout1
70
1
71
1
10
0.0
20
0.0
11
12.0
21
9.0
12
0.0
22
0.0
32
0.0
14
1.000000000000000E+20
24
1.000000000000000E+20
34
1.000000000000000E+20
15
-1.000000000000000E+20
25
-1.000000000000000E+20
35
-1.000000000000000E+20
146
0.0
13
0.0
23
0.0
33
0.0
16
1.0
26
0.0
36
0.0
17
0.0
27
1.0
37
0.0
76
0
330
25D
0
LAYOUT
5
FD0
102
{ACAD_XDICTIONARY
360
10A7
102
}
102
{ACAD_REACTORS
330
FCF
102
}
330
FCF
100
AcDbPlotSettings
1

2
Microsoft XPS Document Writer
4

6

40
0.0
41
0.0
42
0.0
43
0.0
44
0.0
45
0.0
46
0.0
47
0.0
48
0.0
49
0.0
140
0.0
141
0.0
142
1.0
143
1.0
70
1712
72
0
73
0
74
0
7

75
0
147
1.0
148
0.0
149
0.0
100
AcDbLayout
1
Model
70
1
71
0
10
0.0
20
0.0
11
12.0
21
9.0
12
0.0
22
0.0
32
0.0
14
0.0
24
0.0
34
0.0
15
0.0
25
0.0
35
0.0
146
0.0
13
0.0
23
0.0
33
0.0
16
1.0
26
0.0
36
0.0
17
0.0
27
1.0
37
0.0
76
0
330
261
331
26B
0
MATERIAL
5
F83
102
{ACAD_XDICTIONARY
360
F84
102
}
102
{ACAD_REACTORS
330
F7A
102
}
330
F7A
100
AcDbMaterial
1
ByBlock
72
0
43
0.0208333333333333
43
0.0
43
0.0
43
0.0
43
0.0
43
0.0208333333333333
43
0.0
43
0.0
43
0.0
43
0.0
43
1.0
43
0.0
43
0.0
43
0.0
43
0.0
43
1.0
77
0
47
0.0208333333333333
47
0.0
47
0.0
47
0.0
47
0.0
47
0.0208333333333333
47
0.0
47
0.0
47
0.0
47
0.0
47
1.0
47
0.0
47
0.0
47
0.0
47
0.0
47
1.0
171
0
49
0.0208333333333333
49
0.0
49
0.0
49
0.0
49
0.0
49
0.0208333333333333
49
0.0
49
0.0
49
0.0
49
0.0
49
1.0
49
0.0
49
0.0
49
0.0
49
0.0
49
1.0
175
0
142
0.0208333333333333
142
0.0
142
0.0
142
0.0
142
0.0
142
0.0208333333333333
142
0.0
142
0.0
142
0.0
142
0.0
142
1.0
142
0.0
142
0.0
142
0.0
142
0.0
142
1.0
179
0
144
0.0208333333333333
144
0.0
144
0.0
144
0.0
144
0.0
144
0.0208333333333333
144
0.0
144
0.0
144
0.0
144
0.0
144
1.0
144
0.0
144
0.0
144
0.0
144
0.0
144
1.0
147
0.0208333333333333
147
0.0
147
0.0
147
0.0
147
0.0
147
0.0208333333333333
147
0.0
147
0.0
147
0.0
147
0.0
147
1.0
147
0.0
147
0.0
147
0.0
147
0.0
147
1.0
0
MATERIAL
5
F7B
102
{ACAD_XDICTIONARY
360
F7C
102
}
102
{ACAD_REACTORS
330
F7A
102
}
330
F7A
100
AcDbMaterial
1
ByLayer
72
0
43
0.0208333333333333
43
0.0
43
0.0
43
0.0
43
0.0
43
0.0208333333333333
43
0.0
43
0.0
43
0.0
43
0.0
43
1.0
43
0.0
43
0.0
43
0.0
43
0.0
43
1.0
77
0
47
0.0208333333333333
47
0.0
47
0.0
47
0.0
47
0.0
47
0.0208333333333333
47
0.0
47
0.0
47
0.0
47
0.0
47
1.0
47
0.0
47
0.0
47
0.0
47
0.0
47
1.0
171
0
49
0.0208333333333333
49
0.0
49
0.0
49
0.0
49
0.0
49
0.0208333333333333
49
0.0
49
0.0
49
0.0
49
0.0
49
1.0
49
0.0
49
0.0
49
0.0
49
0.0
49
1.0
175
0
142
0.0208333333333333
142
0.0
142
0.0
142
0.0
142
0.0
142
0.0208333333333333
142
0.0
142
0.0
142
0.0
142
0.0
142
1.0
142
0.0
142
0.0
142
0.0
142
0.0
142
1.0
179
0
144
0.0208333333333333
144
0.0
144
0.0
144
0.0
144
0.0
144
0.0208333333333333
144
0.0
144
0.0
144
0.0
144
0.0
144
1.0
144
0.0
144
0.0
144
0.0
144
0.0
144
1.0
147
0.0208333333333333
147
0.0
147
0.0
147
0.0
147
0.0
147
0.0208333333333333
147
0.0
147
0.0
147
0.0
147
0.0
147
1.0
147
0.0
147
0.0
147
0.0
147
0.0
147
1.0
0
MATERIAL
5
F8B
102
{ACAD_XDICTIONARY
360
F8C
102
}
102
{ACAD_REACTORS
330
F7A
102
}
330
F7A
100
AcDbMaterial
1
Global
72
0
43
0.0208333333333333
43
0.0
43
0.0
43
0.0
43
0.0
43
0.0208333333333333
43
0.0
43
0.0
43
0.0
43
0.0
43
1.0
43
0.0
43
0.0
43
0.0
43
0.0
43
1.0
77
0
47
0.0208333333333333
47
0.0
47
0.0
47
0.0
47
0.0
47
0.0208333333333333
47
0.0
47
0.0
47
0.0
47
0.0
47
1.0
47
0.0
47
0.0
47
0.0
47
0.0
47
1.0
171
0
49
0.0208333333333333
49
0.0
49
0.0
49
0.0
49
0.0
49
0.0208333333333333
49
0.0
49
0.0
49
0.0
49
0.0
49
1.0
49
0.0
49
0.0
49
0.0
49
0.0
49
1.0
175
0
142
0.0208333333333333
142
0.0
142
0.0
142
0.0
142
0.0
142
0.0208333333333333
142
0.0
142
0.0
142
0.0
142
0.0
142
1.0
142
0.0
142
0.0
142
0.0
142
0.0
142
1.0
179
0
144
0.0208333333333333
144
0.0
144
0.0
144
0.0
144
0.0
144
0.0208333333333333
144
0.0
144
0.0
144
0.0
144
0.0
144
1.0
144
0.0
144
0.0
144
0.0
144
0.0
144
1.0
147
0.0208333333333333
147
0.0
147
0.0
147
0.0
147
0.0
147
0.0208333333333333
147
0.0
147
0.0
147
0.0
147
0.0
147
1.0
147
0.0
147
0.0
147
0.0
147
0.0
147
1.0
0
MLEADERSTYLE
5
FCE
102
{ACAD_REACTORS
330
FCD
102
}
330
FCD
100
AcDbMLeaderStyle
170
2
171
1
172
0
90
2
40
0.0
41
0.0
173
1
91
-1056964608
340
256
92
-2
290
1
42
0.09
291
1
43
0.36
3
Standard
44
0.18
300

342
253
174
1
178
6
175
1
176
0
93
-1056964608
45
0.18
292
0
297
0
46
0.18
94
-1056964608
47
1.0
49
1.0
140
1.0
293
1
141
0.0
294
1
177
0
142
1.0
295
0
296
0
143
0.125
1001
ACAD_MLEADERVER
1070
2
0
MLINESTYLE
5
FAA
102
{ACAD_REACTORS
330
16
102
}
330
16
100
AcDbMlineStyle
2
STANDARD
70
0
3

62
256
51
90.0
52
90.0
71
2
49
0.5
62
256
6
BYLAYER
49
-0.5
62
256
6
BYLAYER
0
ACDBPLACEHOLDER
5
19
102
{ACAD_REACTORS
330
18
102
}
330
18
0
SCALE
5
FAC
102
{ACAD_REACTORS
330
FAB
102
}
330
FAB
100
AcDbScale
70
0
300
1:1
140
1.0
141
1.0
290
1
0
SCALE
5
FAD
102
{ACAD_REACTORS
330
FAB
102
}
330
FAB
100
AcDbScale
70
0
300
1:2
140
1.0
141
2.0
290
0
0
SCALE
5
FAE
102
{ACAD_REACTORS
330
FAB
102
}
330
FAB
100
AcDbScale
70
0
300
1:4
140
1.0
141
4.0
290
0
0
SCALE
5
FAF
102
{ACAD_REACTORS
330
FAB
102
}
330
FAB
100
AcDbScale
70
0
300
1:5
140
1.0
141
5.0
290
0
0
SCALE
5
FB0
102
{ACAD_REACTORS
330
FAB
102
}
330
FAB
100
AcDbScale
70
0
300
1:8
140
1.0
141
8.0
290
0
0
SCALE
5
FB1
102
{ACAD_REACTORS
330
FAB
102
}
330
FAB
100
AcDbScale
70
0
300
1:10
140
1.0
141
10.0
290
0
0
SCALE
5
FB2
102
{ACAD_REACTORS
330
FAB
102
}
330
FAB
100
AcDbScale
70
0
300
1:16
140
1.0
141
16.0
290
0
0
SCALE
5
FB3
102
{ACAD_REACTORS
330
FAB
102
}
330
FAB
100
AcDbScale
70
0
300
1:20
140
1.0
141
20.0
290
0
0
SCALE
5
FB4
102
{ACAD_REACTORS
330
FAB
102
}
330
FAB
100
AcDbScale
70
0
300
1:30
140
1.0
141
30.0
290
0
0
SCALE
5
FB5
102
{ACAD_REACTORS
330
FAB
102
}
330
FAB
100
AcDbScale
70
0
300
1:40
140
1.0
141
40.0
290
0
0
SCALE
5
FB6
102
{ACAD_REACTORS
330
FAB
102
}
330
FAB
100
AcDbScale
70
0
300
1:50
140
1.0
141
50.0
290
0
0
SCALE
5
FB7
102
{ACAD_REACTORS
330
FAB
102
}
330
FAB
100
AcDbScale
70
0
300
1:100
140
1.0
141
100.0
290
0
0
SCALE
5
FB8
102
{ACAD_REACTORS
330
FAB
102
}
330
FAB
100
AcDbScale
70
0
300
2:1
140
2.0
141
1.0
290
0
0
SCALE
5
FB9
102
{ACAD_REACTORS
330
FAB
102
}
330
FAB
100
AcDbScale
70
0
300
4:1
140
4.0
141
1.0
290
0
0
SCALE
5
FBA
102
{ACAD_REACTORS
330
FAB
102
}
330
FAB
100
AcDbScale
70
0
300
8:1
140
8.0
141
1.0
290
0
0
SCALE
5
FBB
102
{ACAD_REACTORS
330
FAB
102
}
330
FAB
100
AcDbScale
70
0
300
10:1
140
10.0
141
1.0
290
0
0
SCALE
5
FBC
102
{ACAD_REACTORS
330
FAB
102
}
330
FAB
100
AcDbScale
70
0
300
100:1
140
100.0
141
1.0
290
0
0
SCALE
5
FBD
102
{ACAD_REACTORS
330
FAB
102
}
330
FAB
100
AcDbScale
70
0
300
1/128" = 1'-0"
140
0.0078125
141
12.0
290
0
0
SCALE
5
FBE
102
{ACAD_REACTORS
330
FAB
102
}
330
FAB
100
AcDbScale
70
0
300
1/64" = 1'-0"
140
0.015625
141
12.0
290
0
0
SCALE
5
FBF
102
{ACAD_REACTORS
330
FAB
102
}
330
FAB
100
AcDbScale
70
0
300
1/32" = 1'-0"
140
0.03125
141
12.0
290
0
0
SCALE
5
FC0
102
{ACAD_REACTORS
330
FAB
102
}
330
FAB
100
AcDbScale
70
0
300
1/16" = 1'-0"
140
0.0625
141
12.0
290
0
0
SCALE
5
FC1
102
{ACAD_REACTORS
330
FAB
102
}
330
FAB
100
AcDbScale
70
0
300
3/32" = 1'-0"
140
0.09375
141
12.0
290
0
0
SCALE
5
FC2
102
{ACAD_REACTORS
330
FAB
102
}
330
FAB
100
AcDbScale
70
0
300
1/8" = 1'-0"
140
0.125
141
12.0
290
0
0
SCALE
5
FC3
102
{ACAD_REACTORS
330
FAB
102
}
330
FAB
100
AcDbScale
70
0
300
3/16" = 1'-0"
140
0.1875
141
12.0
290
0
0
SCALE
5
FC4
102
{ACAD_REACTORS
330
FAB
102
}
330
FAB
100
AcDbScale
70
0
300
1/4" = 1'-0"
140
0.25
141
12.0
290
0
0
SCALE
5
FC5
102
{ACAD_REACTORS
330
FAB
102
}
330
FAB
100
AcDbScale
70
0
300
3/8" = 1'-0"
140
0.375
141
12.0
290
0
0
SCALE
5
FC6
102
{ACAD_REACTORS
330
FAB
102
}
330
FAB
100
AcDbScale
70
0
300
1/2" = 1'-0"
140
0.5
141
12.0
290
0
0
SCALE
5
FC7
102
{ACAD_REACTORS
330
FAB
102
}
330
FAB
100
AcDbScale
70
0
300
3/4" = 1'-0"
140
0.75
141
12.0
290
0
0
SCALE
5
FC8
102
{ACAD_REACTORS
330
FAB
102
}
330
FAB
100
AcDbScale
70
0
300
1" = 1'-0"
140
1.0
141
12.0
290
0
0
SCALE
5
FC9
102
{ACAD_REACTORS
330
FAB
102
}
330
FAB
100
AcDbScale
70
0
300
1-1/2" = 1'-0"
140
1.5
141
12.0
290
0
0
SCALE
5
FCA
102
{ACAD_REACTORS
330
FAB
102
}
330
FAB
100
AcDbScale
70
0
300
3" = 1'-0"
140
3.0
141
12.0
290
0
0
SCALE
5
FCB
102
{ACAD_REACTORS
330
FAB
102
}
330
FAB
100
AcDbScale
70
0
300
6" = 1'-0"
140
6.0
141
12.0
290
0
0
SCALE
5
FCC
102
{ACAD_REACTORS
330
FAB
102
}
330
FAB
100
AcDbScale
70
0
300
1'-0" = 1'-0"
140
12.0
141
12.0
290
0
0
TABLESTYLE
5
FA9
102
{ACAD_XDICTIONARY
360
FF8
102
}
102
{ACAD_REACTORS
330
FA8
102
}
330
FA8
100
AcDbTableStyle
3
Standard
70
0
71
0
40
0.06
41
0.06
280
0
281
0
7
Standard
140
0.18
170
2
62
0
63
7
283
0
274
-2
284
1
64
0
275
-2
285
1
65
0
276
-2
286
1
66
0
277
-2
287
1
67
0
278
-2
288
1
68
0
279
-2
289
1
69
0
7
Standard
140
0.25
170
5
62
0
63
7
283
0
274
-2
284
1
64
0
275
-2
285
1
65
0
276
-2
286
1
66
0
277
-2
287
1
67
0
278
-2
288
1
68
0
279
-2
289
1
69
0
7
Standard
140
0.18
170
5
62
0
63
7
283
0
274
-2
284
1
64
0
275
-2
285
1
65
0
276
-2
286
1
66
0
277
-2
287
1
67
0
278
-2
288
1
68
0
279
-2
289
1
69
0
0
VISUALSTYLE
5
F99
102
{ACAD_XDICTIONARY
360
108A
102
}
102
{ACAD_REACTORS
330
F93
102
}
330
F93
100
AcDbVisualStyle
2

70
4
71
0
72
2
73
0
90
0
40
-0.6
41
-30.0
62
5
63
7
74
1
91
4
64
7
65
257
75
1
175
1
42
1.0
92
0
66
257
43
1.0
76
1
77
6
78
2
67
7
79
5
170
0
171
0
290
0
174
0
93
1
44
0.0
173
0
291
0
45
0.0
1001
ACAD
1000
AcDbSavedByObjectVersion
1070
0
0
VISUALSTYLE
5
F9B
102
{ACAD_XDICTIONARY
360
108E
102
}
102
{ACAD_REACTORS
330
F93
102
}
330
F93
100
AcDbVisualStyle
2

70
6
71
1
72
2
73
2
90
0
40
-0.6
41
-30.0
62
5
63
7
74
2
91
2
64
7
65
257
75
2
175
1
42
179.0
92
0
66
257
43
1.0
76
1
77
6
78
2
67
7
79
3
170
0
171
0
290
0
174
0
93
1
44
0.0
173
0
291
0
45
0.0
1001
ACAD
1000
AcDbSavedByObjectVersion
1070
0
0
VISUALSTYLE
5
F9A
102
{ACAD_XDICTIONARY
360
108C
102
}
102
{ACAD_REACTORS
330
F93
102
}
330
F93
100
AcDbVisualStyle
2

70
5
71
0
72
2
73
0
90
0
40
-0.6
41
-30.0
62
5
63
7
74
1
91
4
64
7
65
257
75
1
175
1
42
1.0
92
0
66
257
43
1.0
76
1
77
6
78
2
67
7
79
5
170
0
171
0
290
0
174
0
93
1
44
0.0
173
0
291
0
45
0.0
1001
ACAD
1000
AcDbSavedByObjectVersion
1070
0
0
VISUALSTYLE
5
F98
102
{ACAD_XDICTIONARY
360
1088
102
}
102
{ACAD_REACTORS
330
F93
102
}
330
F93
100
AcDbVisualStyle
2

70
7
71
1
72
0
73
1
90
0
40
-0.6
41
-30.0
62
5
63
7
74
0
91
4
64
7
65
257
75
1
175
1
42
1.0
92
8
66
7
43
1.0
76
1
77
6
78
2
67
7
79
5
170
0
171
0
290
0
174
0
93
1
44
0.0
173
0
291
1
45
0.0
1001
ACAD
1000
AcDbSavedByObjectVersion
1070
0
0
VISUALSTYLE
5
F9F
102
{ACAD_XDICTIONARY
360
1096
102
}
102
{ACAD_REACTORS
330
F93
102
}
330
F93
100
AcDbVisualStyle
2

70
12
71
2
72
2
73
0
90
0
40
-0.6
41
-30.0
62
5
63
7
74
1
91
4
64
7
65
257
75
1
175
1
42
1.0
92
8
66
7
43
1.0
76
1
77
6
78
2
67
7
79
5
170
0
171
0
290
0
174
0
93
1
44
50.0
173
0
291
1
45
0.0
1001
ACAD
1000
AcDbSavedByObjectVersion
1070
0
0
VISUALSTYLE
5
FA3
102
{ACAD_XDICTIONARY
360
109E
102
}
102
{ACAD_REACTORS
330
F93
102
}
330
F93
100
AcDbVisualStyle
2

70
16
71
2
72
2
73
3
90
0
40
-0.6
41
-30.0
62
5
63
8
74
1
91
4
64
7
65
257
75
1
175
1
42
1.0
92
8
66
8
43
1.0
76
1
77
6
78
2
67
7
79
5
170
0
171
0
290
0
174
0
93
1
44
0.0
173
0
291
1
45
0.0
1001
ACAD
1000
AcDbSavedByObjectVersion
1070
0
0
VISUALSTYLE
5
F9C
102
{ACAD_XDICTIONARY
360
1090
102
}
102
{ACAD_REACTORS
330
F93
102
}
330
F93
100
AcDbVisualStyle
2

70
9
71
3
72
2
73
0
90
0
40
-0.6
41
-30.0
62
5
63
7
74
2
91
2
64
7
65
257
75
1
175
1
42
179.0
92
8
66
7
43
1.0
76
1
77
6
78
2
67
7
79
3
170
0
171
0
290
0
174
0
93
1
44
0.0
173
0
291
0
45
0.0
1001
ACAD
1000
AcDbSavedByObjectVersion
1070
0
0
VISUALSTYLE
5
F9E
102
{ACAD_XDICTIONARY
360
1094
102
}
102
{ACAD_REACTORS
330
F93
102
}
330
F93
100
AcDbVisualStyle
2

70
11
71
2
72
2
73
0
90
0
40
-0.6
41
-30.0
62
5
63
7
74
1
91
4
64
7
65
257
75
1
175
1
42
1.0
92
8
66
7
43
1.0
76
1
77
6
78
2
67
7
79
5
170
0
171
0
290
0
174
0
93
1
44
-50.0
173
0
291
1
45
0.0
1001
ACAD
1000
AcDbSavedByObjectVersion
1070
0
0
VISUALSTYLE
5
FA6
102
{ACAD_XDICTIONARY
360
10A4
102
}
102
{ACAD_REACTORS
330
F93
102
}
330
F93
100
AcDbVisualStyle
2

70
22
71
2
72
2
73
0
90
0
40
-0.6
41
-30.0
62
5
63
7
74
1
91
4
64
7
65
257
75
1
175
1
42
1.0
92
8
66
7
43
1.0
76
1
77
6
78
2
67
7
79
5
170
0
171
0
290
0
174
0
93
1
44
0.0
173
0
291
1
45
0.0
1001
ACAD
1000
AcDbSavedByObjectVersion
1070
0
0
VISUALSTYLE
5
FA2
102
{ACAD_XDICTIONARY
360
109C
102
}
102
{ACAD_REACTORS
330
F93
102
}
330
F93
100
AcDbVisualStyle
2

70
15
71
2
72
2
73
0
90
0
40
-0.6
41
-30.0
62
5
63
7
74
1
91
4
64
7
65
257
75
1
175
1
42
1.0
92
8
66
7
43
1.0
76
1
77
6
78
2
67
7
79
5
170
0
171
0
290
0
174
0
93
1
44
0.0
173
0
291
1
45
0.0
1001
ACAD
1000
AcDbSavedByObjectVersion
1070
0
0
VISUALSTYLE
5
F94
102
{ACAD_XDICTIONARY
360
1080
102
}
102
{ACAD_REACTORS
330
F93
102
}
330
F93
100
AcDbVisualStyle
2

70
0
71
2
72
1
73
1
90
2
40
-0.6
41
30.0
62
5
63
7
74
0
91
4
64
7
65
257
75
1
175
1
42
1.0
92
8
66
7
43
1.0
76
1
77
6
78
2
67
7
79
5
170
0
171
0
290
0
174
0
93
13
44
0.0
173
0
291
1
45
0.0
1001
ACAD
1000
AcDbSavedByObjectVersion
1070
0
0
VISUALSTYLE
5
F95
102
{ACAD_XDICTIONARY
360
1082
102
}
102
{ACAD_REACTORS
330
F93
102
}
330
F93
100
AcDbVisualStyle
2

70
1
71
2
72
1
73
1
90
2
40
-0.6
41
30.0
62
5
63
7
74
1
91
4
64
7
65
257
75
1
175
1
42
1.0
92
0
66
257
43
1.0
76
1
77
6
78
2
67
7
79
5
170
0
171
0
290
0
174
0
93
13
44
0.0
173
0
291
1
45
0.0
1001
ACAD
1000
AcDbSavedByObjectVersion
1070
0
0
VISUALSTYLE
5
F96
102
{ACAD_XDICTIONARY
360
1084
102
}
102
{ACAD_REACTORS
330
F93
102
}
330
F93
100
AcDbVisualStyle
2

70
2
71
2
72
2
73
1
90
2
40
-0.6
41
30.0
62
5
63
7
74
0
91
4
64
7
65
257
75
1
175
1
42
1.0
92
0
66
7
43
1.0
76
1
77
6
78
2
67
7
79
5
170
0
171
0
290
0
174
0
93
13
44
0.0
173
0
291
1
45
0.0
1001
ACAD
1000
AcDbSavedByObjectVersion
1070
0
0
VISUALSTYLE
5
F97
102
{ACAD_XDICTIONARY
360
1086
102
}
102
{ACAD_REACTORS
330
F93
102
}
330
F93
100
AcDbVisualStyle
2

70
3
71
2
72
2
73
1
90
2
40
-0.6
41
30.0
62
5
63
7
74
1
91
4
64
7
65
257
75
1
175
1
42
1.0
92
0
66
257
43
1.0
76
1
77
6
78
2
67
7
79
5
170
0
171
0
290
0
174
0
93
13
44
0.0
173
0
291
1
45
0.0
1001
ACAD
1000
AcDbSavedByObjectVersion
1070
0
0
VISUALSTYLE
5
FA4
102
{ACAD_XDICTIONARY
360
10A0
102
}
102
{ACAD_REACTORS
330
F93
102
}
330
F93
100
AcDbVisualStyle
2

70
20
71
2
72
2
73
0
90
0
40
-0.6
41
-30.0
62
5
63
7
74
1
91
4
64
7
65
257
75
1
175
1
42
1.0
92
10
66
7
43
1.0
76
1
77
6
78
2
67
7
79
5
170
0
171
0
290
0
174
0
93
1
44
0.0
173
0
291
1
45
0.0
1001
ACAD
1000
AcDbSavedByObjectVersion
1070
0
0
VISUALSTYLE
5
FA1
102
{ACAD_XDICTIONARY
360
109A
102
}
102
{ACAD_REACTORS
330
F93
102
}
330
F93
100
AcDbVisualStyle
2

70
14
71
2
72
2
73
0
90
0
40
-0.6
41
-30.0
62
5
63
7
74
1
91
4
64
7
65
257
75
7
175
7
42
1.0
92
8
66
7
43
1.0
76
1
77
6
78
2
67
7
79
5
170
0
171
0
290
0
174
0
93
1
44
0.0
173
0
291
1
45
0.0
1001
ACAD
1000
AcDbSavedByObjectVersion
1070
0
0
VISUALSTYLE
5
FA5
102
{ACAD_XDICTIONARY
360
10A2
102
}
102
{ACAD_REACTORS
330
F93
102
}
330
F93
100
AcDbVisualStyle
2

70
21
71
2
72
2
73
0
90
0
40
-0.6
41
-30.0
62
5
63
7
74
1
91
4
64
7
65
257
75
1
175
1
42
1.0
92
9
66
7
43
1.0
76
1
77
6
78
2
67
7
79
5
170
0
171
0
290
0
174
0
93
1
44
0.0
173
0
291
1
45
0.0
1001
ACAD
1000
AcDbSavedByObjectVersion
1070
0
0
VISUALSTYLE
5
F9D
102
{ACAD_XDICTIONARY
360
1092
102
}
102
{ACAD_REACTORS
330
F93
102
}
330
F93
100
AcDbVisualStyle
2

70
8
71
2
72
2
73
0
90
0
40
-0.6
41
-30.0
62
5
63
7
74
1
91
0
64
7
65
257
75
1
175
1
42
1.0
92
8
66
8
43
1.0
76
1
77
6
78
2
67
7
79
5
170
0
171
0
290
0
174
0
93
13
44
0.0
173
0
291
0
45
0.0
1001
ACAD
1000
AcDbSavedByObjectVersion
1070
0
0
VISUALSTYLE
5
FA0
102
{ACAD_XDICTIONARY
360
1098
102
}
102
{ACAD_REACTORS
330
F93
102
}
330
F93
100
AcDbVisualStyle
2

70
13
71
2
72
2
73
0
90
0
40
-0.6
41
-30.0
62
5
63
7
74
1
91
4
64
7
65
257
75
1
175
1
42
1.0
92
12
66
7
43
1.0
76
1
77
6
78
2
67
7
79
5
170
0
171
0
290
0
174
0
93
1
44
0.0
173
0
291
1
45
0.0
1001
ACAD
1000
AcDbSavedByObjectVersion
1070
0
0
DICTIONARYVAR
5
FF3
102
{ACAD_REACTORS
330
FF0
102
}
330
FF0
100
DictionaryVariables
280
0
1
1:1
0
DICTIONARYVAR
5
FF2
102
{ACAD_REACTORS
330
FF0
102
}
330
FF0
100
DictionaryVariables
280
0
1
STANDARD
0
DICTIONARYVAR
5
FF1
102
{ACAD_REACTORS
330
FF0
102
}
330
FF0
100
DictionaryVariables
280
0
1
STANDARD
0
DICTIONARYVAR
5
FF6
102
{ACAD_REACTORS
330
FF0
102
}
330
FF0
100
DictionaryVariables
280
0
1
1
0
DICTIONARYVAR
5
FF5
102
{ACAD_REACTORS
330
FF0
102
}
330
FF0
100
DictionaryVariables
280
0
1
0
0
DICTIONARYVAR
5
FF4
102
{ACAD_REACTORS
330
FF0
102
}
330
FF0
100
DictionaryVariables
280
0
1
127
0
DICTIONARYVAR
5
1078
102
{ACAD_REACTORS
330
FF0
102
}
330
FF0
100
DictionaryVariables
280
0
1
2
0
DICTIONARY
5
10A9
330
FD1
100
AcDbDictionary
280
1
281
1
3
ACAD_XREC_ROUNDTRIP
360
10AA
0
DICTIONARY
5
10A7
330
FD0
100
AcDbDictionary
280
1
281
1
3
ACAD_XREC_ROUNDTRIP
360
10A8
0
DICTIONARY
5
F84
330
F83
100
AcDbDictionary
280
1
281
1
3
ACAD_XREC_ROUNDTRIP
360
FFF
3
BUMPTILE
360
F86
3
DIFFUSETILE
360
F85
3
OPACITYTILE
360
F89
3
REFLECTIONTILE
360
F88
3
REFRACTIONTILE
360
F8A
3
SPECULARTILE
360
F87
0
DICTIONARY
5
F7C
330
F7B
100
AcDbDictionary
280
1
281
1
3
ACAD_XREC_ROUNDTRIP
360
FFE
3
BUMPTILE
360
F7E
3
DIFFUSETILE
360
F7D
3
OPACITYTILE
360
F81
3
REFLECTIONTILE
360
F80
3
REFRACTIONTILE
360
F82
3
SPECULARTILE
360
F7F
0
DICTIONARY
5
F8C
330
F8B
100
AcDbDictionary
280
1
281
1
3
ACAD_XREC_ROUNDTRIP
360
1000
3
BUMPTILE
360
F8E
3
DIFFUSETILE
360
F8D
3
OPACITYTILE
360
F91
3
REFLECTIONTILE
360
F90
3
REFRACTIONTILE
360
F92
3
SPECULARTILE
360
F8F
0
DICTIONARY
5
FF8
330
FA9
100
AcDbDictionary
280
1
281
1
3
ACAD_ROUNDTRIP_2008_TABLESTYLE_CELLSTYLEMAP
360
1079
3
ACAD_XREC_ROUNDTRIP
360
10A6
0
DICTIONARY
5
108A
330
F99
100
AcDbDictionary
280
1
281
1
3
ACAD_XREC_ROUNDTRIP
360
108B
0
DICTIONARY
5
108E
330
F9B
100
AcDbDictionary
280
1
281
1
3
ACAD_XREC_ROUNDTRIP
360
108F
0
DICTIONARY
5
108C
330
F9A
100
AcDbDictionary
280
1
281
1
3
ACAD_XREC_ROUNDTRIP
360
108D
0
DICTIONARY
5
1088
330
F98
100
AcDbDictionary
280
1
281
1
3
ACAD_XREC_ROUNDTRIP
360
1089
0
DICTIONARY
5
1096
330
F9F
100
AcDbDictionary
280
1
281
1
3
ACAD_XREC_ROUNDTRIP
360
1097
0
DICTIONARY
5
109E
330
FA3
100
AcDbDictionary
280
1
281
1
3
ACAD_XREC_ROUNDTRIP
360
109F
0
DICTIONARY
5
1090
330
F9C
100
AcDbDictionary
280
1
281
1
3
ACAD_XREC_ROUNDTRIP
360
1091
0
DICTIONARY
5
1094
330
F9E
100
AcDbDictionary
280
1
281
1
3
ACAD_XREC_ROUNDTRIP
360
1095
0
DICTIONARY
5
10A4
330
FA6
100
AcDbDictionary
280
1
281
1
3
ACAD_XREC_ROUNDTRIP
360
10A5
0
DICTIONARY
5
109C
330
FA2
100
AcDbDictionary
280
1
281
1
3
ACAD_XREC_ROUNDTRIP
360
109D
0
DICTIONARY
5
1080
330
F94
100
AcDbDictionary
280
1
281
1
3
ACAD_XREC_ROUNDTRIP
360
1081
0
DICTIONARY
5
1082
330
F95
100
AcDbDictionary
280
1
281
1
3
ACAD_XREC_ROUNDTRIP
360
1083
0
DICTIONARY
5
1084
330
F96
100
AcDbDictionary
280
1
281
1
3
ACAD_XREC_ROUNDTRIP
360
1085
0
DICTIONARY
5
1086
330
F97
100
AcDbDictionary
280
1
281
1
3
ACAD_XREC_ROUNDTRIP
360
1087
0
DICTIONARY
5
10A0
330
FA4
100
AcDbDictionary
280
1
281
1
3
ACAD_XREC_ROUNDTRIP
360
10A1
0
DICTIONARY
5
109A
330
FA1
100
AcDbDictionary
280
1
281
1
3
ACAD_XREC_ROUNDTRIP
360
109B
0
DICTIONARY
5
10A2
330
FA5
100
AcDbDictionary
280
1
281
1
3
ACAD_XREC_ROUNDTRIP
360
10A3
0
DICTIONARY
5
1092
330
F9D
100
AcDbDictionary
280
1
281
1
3
ACAD_XREC_ROUNDTRIP
360
1093
0
DICTIONARY
5
1098
330
FA0
100
AcDbDictionary
280
1
281
1
3
ACAD_XREC_ROUNDTRIP
360
1099
0
XRECORD
5
10AA
102
{ACAD_REACTORS
330
10A9
102
}
330
10A9
100
AcDbXrecord
280
1
102
SHADEPLOT
70
0
102
SHADEPLOTRESLEVEL
70
2
102
SHADEPLOTCUSTOMDPI
70
300
0
XRECORD
5
10A8
102
{ACAD_REACTORS
330
10A7
102
}
330
10A7
100
AcDbXrecord
280
1
102
SHADEPLOT
70
0
102
SHADEPLOTRESLEVEL
70
2
102
SHADEPLOTCUSTOMDPI
70
300
0
XRECORD
5
FFF
102
{ACAD_REACTORS
330
F84
102
}
330
F84
100
AcDbXrecord
280
1
102
MATERIAL
148
0.0
149
0.0
149
0.0
93
0
94
127
282
0
72
0
77
0
171
0
175
0
179
0
273
0
0
XRECORD
5
F86
102
{ACAD_REACTORS
330
F84
102
}
330
F84
100
AcDbXrecord
280
1
270
1
271
1
0
XRECORD
5
F85
102
{ACAD_REACTORS
330
F84
102
}
330
F84
100
AcDbXrecord
280
1
270
1
271
1
0
XRECORD
5
F89
102
{ACAD_REACTORS
330
F84
102
}
330
F84
100
AcDbXrecord
280
1
270
1
271
1
0
XRECORD
5
F88
102
{ACAD_REACTORS
330
F84
102
}
330
F84
100
AcDbXrecord
280
1
270
1
271
1
0
XRECORD
5
F8A
102
{ACAD_REACTORS
330
F84
102
}
330
F84
100
AcDbXrecord
280
1
270
1
271
1
0
XRECORD
5
F87
102
{ACAD_REACTORS
330
F84
102
}
330
F84
100
AcDbXrecord
280
1
270
1
271
1
0
XRECORD
5
FFE
102
{ACAD_REACTORS
330
F7C
102
}
330
F7C
100
AcDbXrecord
280
1
102
MATERIAL
148
0.0
149
0.0
149
0.0
93
0
94
127
282
0
72
0
77
0
171
0
175
0
179
0
273
0
0
XRECORD
5
F7E
102
{ACAD_REACTORS
330
F7C
102
}
330
F7C
100
AcDbXrecord
280
1
270
1
271
1
0
XRECORD
5
F7D
102
{ACAD_REACTORS
330
F7C
102
}
330
F7C
100
AcDbXrecord
280
1
270
1
271
1
0
XRECORD
5
F81
102
{ACAD_REACTORS
330
F7C
102
}
330
F7C
100
AcDbXrecord
280
1
270
1
271
1
0
XRECORD
5
F80
102
{ACAD_REACTORS
330
F7C
102
}
330
F7C
100
AcDbXrecord
280
1
270
1
271
1
0
XRECORD
5
F82
102
{ACAD_REACTORS
330
F7C
102
}
330
F7C
100
AcDbXrecord
280
1
270
1
271
1
0
XRECORD
5
F7F
102
{ACAD_REACTORS
330
F7C
102
}
330
F7C
100
AcDbXrecord
280
1
270
1
271
1
0
XRECORD
5
1000
102
{ACAD_REACTORS
330
F8C
102
}
330
F8C
100
AcDbXrecord
280
1
102
MATERIAL
148
0.0
149
0.0
149
0.0
93
0
94
127
282
0
72
0
77
0
171
0
175
0
179
0
273
0
0
XRECORD
5
F8E
102
{ACAD_REACTORS
330
F8C
102
}
330
F8C
100
AcDbXrecord
280
1
270
1
271
1
0
XRECORD
5
F8D
102
{ACAD_REACTORS
330
F8C
102
}
330
F8C
100
AcDbXrecord
280
1
270
1
271
1
0
XRECORD
5
F91
102
{ACAD_REACTORS
330
F8C
102
}
330
F8C
100
AcDbXrecord
280
1
270
1
271
1
0
XRECORD
5
F90
102
{ACAD_REACTORS
330
F8C
102
}
330
F8C
100
AcDbXrecord
280
1
270
1
271
1
0
XRECORD
5
F92
102
{ACAD_REACTORS
330
F8C
102
}
330
F8C
100
AcDbXrecord
280
1
270
1
271
1
0
XRECORD
5
F8F
102
{ACAD_REACTORS
330
F8C
102
}
330
F8C
100
AcDbXrecord
280
1
270
1
271
1
0
CELLSTYLEMAP
5
1079
102
{ACAD_REACTORS
330
FF8
102
}
330
FF8
100
AcDbCellStyleMap
90
3
300
CELLSTYLE
1
TABLEFORMAT_BEGIN
90
5
170
1
91
0
92
32768
62
257
93
1
300
CONTENTFORMAT
1
CONTENTFORMAT_BEGIN
90
0
91
0
92
512
93
0
300

40
0.0
140
1.0
94
5
62
0
340
253
144
0.25
309
CONTENTFORMAT_END
171
1
301
MARGIN
1
CELLMARGIN_BEGIN
40
0.06
40
0.06
40
0.06
40
0.06
40
0.18
40
0.18
309
CELLMARGIN_END
94
6
95
1
302
GRIDFORMAT
1
GRIDFORMAT_BEGIN
90
0
91
1
62
0
92
-2
340
0
93
0
40
0.045
309
GRIDFORMAT_END
95
2
302
GRIDFORMAT
1
GRIDFORMAT_BEGIN
90
0
91
1
62
0
92
-2
340
0
93
0
40
0.045
309
GRIDFORMAT_END
95
4
302
GRIDFORMAT
1
GRIDFORMAT_BEGIN
90
0
91
1
62
0
92
-2
340
0
93
0
40
0.045
309
GRIDFORMAT_END
95
8
302
GRIDFORMAT
1
GRIDFORMAT_BEGIN
90
0
91
1
62
0
92
-2
340
0
93
0
40
0.045
309
GRIDFORMAT_END
95
16
302
GRIDFORMAT
1
GRIDFORMAT_BEGIN
90
0
91
1
62
0
92
-2
340
0
93
0
40
0.045
309
GRIDFORMAT_END
95
32
302
GRIDFORMAT
1
GRIDFORMAT_BEGIN
90
0
91
1
62
0
92
-2
340
0
93
0
40
0.045
309
GRIDFORMAT_END
309
TABLEFORMAT_END
1
CELLSTYLE_BEGIN
90
1
91
1
300
_TITLE
309
CELLSTYLE_END
300
CELLSTYLE
1
TABLEFORMAT_BEGIN
90
5
170
1
91
0
92
0
62
257
93
1
300
CONTENTFORMAT
1
CONTENTFORMAT_BEGIN
90
0
91
0
92
512
93
0
300

40
0.0
140
1.0
94
5
62
0
340
253
144
0.18
309
CONTENTFORMAT_END
171
1
301
MARGIN
1
CELLMARGIN_BEGIN
40
0.06
40
0.06
40
0.06
40
0.06
40
0.18
40
0.18
309
CELLMARGIN_END
94
6
95
1
302
GRIDFORMAT
1
GRIDFORMAT_BEGIN
90
0
91
1
62
0
92
-2
340
0
93
0
40
0.045
309
GRIDFORMAT_END
95
2
302
GRIDFORMAT
1
GRIDFORMAT_BEGIN
90
0
91
1
62
0
92
-2
340
0
93
0
40
0.045
309
GRIDFORMAT_END
95
4
302
GRIDFORMAT
1
GRIDFORMAT_BEGIN
90
0
91
1
62
0
92
-2
340
0
93
0
40
0.045
309
GRIDFORMAT_END
95
8
302
GRIDFORMAT
1
GRIDFORMAT_BEGIN
90
0
91
1
62
0
92
-2
340
0
93
0
40
0.045
309
GRIDFORMAT_END
95
16
302
GRIDFORMAT
1
GRIDFORMAT_BEGIN
90
0
91
1
62
0
92
-2
340
0
93
0
40
0.045
309
GRIDFORMAT_END
95
32
302
GRIDFORMAT
1
GRIDFORMAT_BEGIN
90
0
91
1
62
0
92
-2
340
0
93
0
40
0.045
309
GRIDFORMAT_END
309
TABLEFORMAT_END
1
CELLSTYLE_BEGIN
90
2
91
1
300
_HEADER
309
CELLSTYLE_END
300
CELLSTYLE
1
TABLEFORMAT_BEGIN
90
5
170
1
91
0
92
0
62
257
93
1
300
CONTENTFORMAT
1
CONTENTFORMAT_BEGIN
90
0
91
0
92
512
93
0
300

40
0.0
140
1.0
94
2
62
0
340
253
144
0.18
309
CONTENTFORMAT_END
171
1
301
MARGIN
1
CELLMARGIN_BEGIN
40
0.06
40
0.06
40
0.06
40
0.06
40
0.18
40
0.18
309
CELLMARGIN_END
94
6
95
1
302
GRIDFORMAT
1
GRIDFORMAT_BEGIN
90
0
91
1
62
0
92
-2
340
0
93
0
40
0.045
309
GRIDFORMAT_END
95
2
302
GRIDFORMAT
1
GRIDFORMAT_BEGIN
90
0
91
1
62
0
92
-2
340
0
93
0
40
0.045
309
GRIDFORMAT_END
95
4
302
GRIDFORMAT
1
GRIDFORMAT_BEGIN
90
0
91
1
62
0
92
-2
340
0
93
0
40
0.045
309
GRIDFORMAT_END
95
8
302
GRIDFORMAT
1
GRIDFORMAT_BEGIN
90
0
91
1
62
0
92
-2
340
0
93
0
40
0.045
309
GRIDFORMAT_END
95
16
302
GRIDFORMAT
1
GRIDFORMAT_BEGIN
90
0
91
1
62
0
92
-2
340
0
93
0
40
0.045
309
GRIDFORMAT_END
95
32
302
GRIDFORMAT
1
GRIDFORMAT_BEGIN
90
0
91
1
62
0
92
-2
340
0
93
0
40
0.045
309
GRIDFORMAT_END
309
TABLEFORMAT_END
1
CELLSTYLE_BEGIN
90
3
91
2
300
_DATA
309
CELLSTYLE_END
0
XRECORD
5
10A6
102
{ACAD_REACTORS
330
FF8
102
}
330
FF8
100
AcDbXrecord
280
1
102
ACAD_ROUNDTRIP_PRE2007_TABLESTYLE
90
512
91
0
1

92
512
93
0
2

94
512
95
0
3

0
XRECORD
5
108B
102
{ACAD_REACTORS
330
108A
102
}
330
108A
100
AcDbXrecord
280
1
102
RTVSPropertyOp0
70
1
102
RTVSPropertyOp1
70
1
102
RTVSPropertyOp2
70
1
102
RTVSPropertyOp3
70
1
102
RTVSPropertyOp4
70
1
102
RTVSPropertyOp5
70
1
102
RTVSPropertyOp6
70
1
102
RTVSPropertyOp7
70
1
102
RTVSPropertyOp8
70
1
102
RTVSPropertyOp9
70
1
102
RTVSPropertyOp10
70
1
102
RTVSPropertyOp11
70
1
102
RTVSPropertyOp12
70
1
102
RTVSPropertyOp13
70
1
102
RTVSPropertyOp14
70
1
102
RTVSPropertyOp15
70
1
102
RTVSPropertyOp16
70
1
102
RTVSPropertyOp17
70
1
102
RTVSPropertyOp18
70
1
102
RTVSPropertyOp19
70
1
102
RTVSPropertyOp20
70
1
102
RTVSPropertyOp21
70
1
102
RTVSPropertyOp22
70
1
102
RTVSPropertyOp23
70
1
102
RTVSPropertyOp24
70
1
102
RTVSPropertyOp25
70
1
102
RTVSPropertyOp26
70
1
102
RTVSPropertyOp27
70
1
0
XRECORD
5
108F
102
{ACAD_REACTORS
330
108E
102
}
330
108E
100
AcDbXrecord
280
1
102
RTVSPropertyOp0
70
1
102
RTVSPropertyOp1
70
1
102
RTVSPropertyOp2
70
1
102
RTVSPropertyOp3
70
1
102
RTVSPropertyOp4
70
1
102
RTVSPropertyOp5
70
1
102
RTVSPropertyOp6
70
1
102
RTVSPropertyOp7
70
1
102
RTVSPropertyOp8
70
1
102
RTVSPropertyOp9
70
1
102
RTVSPropertyOp10
70
1
102
RTVSPropertyOp11
70
1
102
RTVSPropertyOp12
70
1
102
RTVSPropertyOp13
70
1
102
RTVSPropertyOp14
70
1
102
RTVSPropertyOp15
70
1
102
RTVSPropertyOp16
70
1
102
RTVSPropertyOp17
70
1
102
RTVSPropertyOp18
70
1
102
RTVSPropertyOp19
70
1
102
RTVSPropertyOp20
70
1
102
RTVSPropertyOp21
70
1
102
RTVSPropertyOp22
70
1
102
RTVSPropertyOp23
70
1
102
RTVSPropertyOp24
70
1
102
RTVSPropertyOp25
70
1
102
RTVSPropertyOp26
70
1
102
RTVSPropertyOp27
70
1
0
XRECORD
5
108D
102
{ACAD_REACTORS
330
108C
102
}
330
108C
100
AcDbXrecord
280
1
102
RTVSPropertyOp0
70
1
102
RTVSPropertyOp1
70
1
102
RTVSPropertyOp2
70
1
102
RTVSPropertyOp3
70
1
102
RTVSPropertyOp4
70
1
102
RTVSPropertyOp5
70
1
102
RTVSPropertyOp6
70
1
102
RTVSPropertyOp7
70
1
102
RTVSPropertyOp8
70
1
102
RTVSPropertyOp9
70
1
102
RTVSPropertyOp10
70
1
102
RTVSPropertyOp11
70
1
102
RTVSPropertyOp12
70
1
102
RTVSPropertyOp13
70
1
102
RTVSPropertyOp14
70
1
102
RTVSPropertyOp15
70
1
102
RTVSPropertyOp16
70
1
102
RTVSPropertyOp17
70
1
102
RTVSPropertyOp18
70
1
102
RTVSPropertyOp19
70
1
102
RTVSPropertyOp20
70
1
102
RTVSPropertyOp21
70
1
102
RTVSPropertyOp22
70
1
102
RTVSPropertyOp23
70
1
102
RTVSPropertyOp24
70
1
102
RTVSPropertyOp25
70
1
102
RTVSPropertyOp26
70
1
102
RTVSPropertyOp27
70
1
0
XRECORD
5
1089
102
{ACAD_REACTORS
330
1088
102
}
330
1088
100
AcDbXrecord
280
1
102
RTVSPropertyOp0
70
1
102
RTVSPropertyOp1
70
1
102
RTVSPropertyOp2
70
1
102
RTVSPropertyOp3
70
1
102
RTVSPropertyOp4
70
1
102
RTVSPropertyOp5
70
1
102
RTVSPropertyOp6
70
1
102
RTVSPropertyOp7
70
1
102
RTVSPropertyOp8
70
1
102
RTVSPropertyOp9
70
1
102
RTVSPropertyOp10
70
1
102
RTVSPropertyOp11
70
1
102
RTVSPropertyOp12
70
1
102
RTVSPropertyOp13
70
1
102
RTVSPropertyOp14
70
1
102
RTVSPropertyOp15
70
1
102
RTVSPropertyOp16
70
1
102
RTVSPropertyOp17
70
1
102
RTVSPropertyOp18
70
1
102
RTVSPropertyOp19
70
1
102
RTVSPropertyOp20
70
1
102
RTVSPropertyOp21
70
1
102
RTVSPropertyOp22
70
1
102
RTVSPropertyOp23
70
1
102
RTVSPropertyOp24
70
1
102
RTVSPropertyOp25
70
1
102
RTVSPropertyOp26
70
1
102
RTVSPropertyOp27
70
1
0
XRECORD
5
1097
102
{ACAD_REACTORS
330
1096
102
}
330
1096
100
AcDbXrecord
280
1
102
RTVSPropertyOp0
70
1
102
RTVSPropertyOp1
70
1
102
RTVSPropertyOp2
70
1
102
RTVSPropertyOp3
70
1
102
RTVSPropertyOp4
70
1
102
RTVSPropertyOp5
70
1
102
RTVSPropertyOp6
70
1
102
RTVSPropertyOp7
70
1
102
RTVSPropertyOp8
70
1
102
RTVSPropertyOp9
70
1
102
RTVSPropertyOp10
70
1
102
RTVSPropertyOp11
70
1
102
RTVSPropertyOp12
70
1
102
RTVSPropertyOp13
70
1
102
RTVSPropertyOp14
70
1
102
RTVSPropertyOp15
70
1
102
RTVSPropertyOp16
70
1
102
RTVSPropertyOp17
70
1
102
RTVSPropertyOp18
70
1
102
RTVSPropertyOp19
70
1
102
RTVSPropertyOp20
70
1
102
RTVSPropertyOp21
70
1
102
RTVSPropertyOp22
70
1
102
RTVSPropertyOp23
70
1
102
RTVSPropertyOp24
70
1
102
RTVSPropertyOp25
70
1
102
RTVSPropertyOp26
70
1
102
RTVSPropertyOp27
70
1
0
XRECORD
5
109F
102
{ACAD_REACTORS
330
109E
102
}
330
109E
100
AcDbXrecord
280
1
102
RTVSPropertyOp0
70
1
102
RTVSPropertyOp1
70
1
102
RTVSPropertyOp2
70
1
102
RTVSPropertyOp3
70
1
102
RTVSPropertyOp4
70
1
102
RTVSPropertyOp5
70
1
102
RTVSPropertyOp6
70
1
102
RTVSPropertyOp7
70
1
102
RTVSPropertyOp8
70
1
102
RTVSPropertyOp9
70
1
102
RTVSPropertyOp10
70
1
102
RTVSPropertyOp11
70
1
102
RTVSPropertyOp12
70
1
102
RTVSPropertyOp13
70
1
102
RTVSPropertyOp14
70
1
102
RTVSPropertyOp15
70
1
102
RTVSPropertyOp16
70
1
102
RTVSPropertyOp17
70
1
102
RTVSPropertyOp18
70
1
102
RTVSPropertyOp19
70
1
102
RTVSPropertyOp20
70
1
102
RTVSPropertyOp21
70
1
102
RTVSPropertyOp22
70
1
102
RTVSPropertyOp23
70
1
102
RTVSPropertyOp24
70
1
102
RTVSPropertyOp25
70
1
102
RTVSPropertyOp26
70
1
102
RTVSPropertyOp27
70
1
0
XRECORD
5
1091
102
{ACAD_REACTORS
330
1090
102
}
330
1090
100
AcDbXrecord
280
1
102
RTVSPropertyOp0
70
1
102
RTVSPropertyOp1
70
1
102
RTVSPropertyOp2
70
1
102
RTVSPropertyOp3
70
1
102
RTVSPropertyOp4
70
1
102
RTVSPropertyOp5
70
1
102
RTVSPropertyOp6
70
1
102
RTVSPropertyOp7
70
1
102
RTVSPropertyOp8
70
1
102
RTVSPropertyOp9
70
1
102
RTVSPropertyOp10
70
1
102
RTVSPropertyOp11
70
1
102
RTVSPropertyOp12
70
1
102
RTVSPropertyOp13
70
1
102
RTVSPropertyOp14
70
1
102
RTVSPropertyOp15
70
1
102
RTVSPropertyOp16
70
1
102
RTVSPropertyOp17
70
1
102
RTVSPropertyOp18
70
1
102
RTVSPropertyOp19
70
1
102
RTVSPropertyOp20
70
1
102
RTVSPropertyOp21
70
1
102
RTVSPropertyOp22
70
1
102
RTVSPropertyOp23
70
1
102
RTVSPropertyOp24
70
1
102
RTVSPropertyOp25
70
1
102
RTVSPropertyOp26
70
1
102
RTVSPropertyOp27
70
1
0
XRECORD
5
1095
102
{ACAD_REACTORS
330
1094
102
}
330
1094
100
AcDbXrecord
280
1
102
RTVSPropertyOp0
70
1
102
RTVSPropertyOp1
70
1
102
RTVSPropertyOp2
70
1
102
RTVSPropertyOp3
70
1
102
RTVSPropertyOp4
70
1
102
RTVSPropertyOp5
70
1
102
RTVSPropertyOp6
70
1
102
RTVSPropertyOp7
70
1
102
RTVSPropertyOp8
70
1
102
RTVSPropertyOp9
70
1
102
RTVSPropertyOp10
70
1
102
RTVSPropertyOp11
70
1
102
RTVSPropertyOp12
70
1
102
RTVSPropertyOp13
70
1
102
RTVSPropertyOp14
70
1
102
RTVSPropertyOp15
70
1
102
RTVSPropertyOp16
70
1
102
RTVSPropertyOp17
70
1
102
RTVSPropertyOp18
70
1
102
RTVSPropertyOp19
70
1
102
RTVSPropertyOp20
70
1
102
RTVSPropertyOp21
70
1
102
RTVSPropertyOp22
70
1
102
RTVSPropertyOp23
70
1
102
RTVSPropertyOp24
70
1
102
RTVSPropertyOp25
70
1
102
RTVSPropertyOp26
70
1
102
RTVSPropertyOp27
70
1
0
XRECORD
5
10A5
102
{ACAD_REACTORS
330
10A4
102
}
330
10A4
100
AcDbXrecord
280
1
102
RTVSPropertyOp0
70
0
102
RTVSPropertyOp1
70
0
102
RTVSPropertyOp2
70
0
102
RTVSPropertyOp3
70
0
102
RTVSPropertyOp4
70
0
102
RTVSPropertyOp5
70
0
102
RTVSPropertyOp6
70
0
102
RTVSPropertyOp7
70
0
102
RTVSPropertyOp8
70
0
102
RTVSPropertyOp9
70
0
102
RTVSPropertyOp10
70
0
102
RTVSPropertyOp11
70
0
102
RTVSPropertyOp12
70
0
102
RTVSPropertyOp13
70
0
102
RTVSPropertyOp14
70
2
102
RTVSPropertyOp15
70
0
102
RTVSPropertyOp16
70
0
102
RTVSPropertyOp17
70
0
102
RTVSPropertyOp18
70
0
102
RTVSPropertyOp19
70
0
102
RTVSPropertyOp20
70
0
102
RTVSPropertyOp21
70
0
102
RTVSPropertyOp22
70
0
102
RTVSPropertyOp23
70
0
102
RTVSPropertyOp24
70
0
102
RTVSPropertyOp25
70
0
102
RTVSPropertyOp26
70
0
102
RTVSPropertyOp27
70
0
0
XRECORD
5
109D
102
{ACAD_REACTORS
330
109C
102
}
330
109C
100
AcDbXrecord
280
1
102
RTVSPropertyOp0
70
1
102
RTVSPropertyOp1
70
1
102
RTVSPropertyOp2
70
1
102
RTVSPropertyOp3
70
1
102
RTVSPropertyOp4
70
1
102
RTVSPropertyOp5
70
1
102
RTVSPropertyOp6
70
1
102
RTVSPropertyOp7
70
1
102
RTVSPropertyOp8
70
1
102
RTVSPropertyOp9
70
1
102
RTVSPropertyOp10
70
1
102
RTVSPropertyOp11
70
1
102
RTVSPropertyOp12
70
1
102
RTVSPropertyOp13
70
1
102
RTVSPropertyOp14
70
1
102
RTVSPropertyOp15
70
1
102
RTVSPropertyOp16
70
1
102
RTVSPropertyOp17
70
1
102
RTVSPropertyOp18
70
1
102
RTVSPropertyOp19
70
1
102
RTVSPropertyOp20
70
1
102
RTVSPropertyOp21
70
1
102
RTVSPropertyOp22
70
1
102
RTVSPropertyOp23
70
1
102
RTVSPropertyOp24
70
1
102
RTVSPropertyOp25
70
1
102
RTVSPropertyOp26
70
1
102
RTVSPropertyOp27
70
1
0
XRECORD
5
1081
102
{ACAD_REACTORS
330
1080
102
}
330
1080
100
AcDbXrecord
280
1
102
RTVSPropertyOp0
70
1
102
RTVSPropertyOp1
70
1
102
RTVSPropertyOp2
70
1
102
RTVSPropertyOp3
70
1
102
RTVSPropertyOp4
70
1
102
RTVSPropertyOp5
70
1
102
RTVSPropertyOp6
70
1
102
RTVSPropertyOp7
70
1
102
RTVSPropertyOp8
70
1
102
RTVSPropertyOp9
70
1
102
RTVSPropertyOp10
70
1
102
RTVSPropertyOp11
70
1
102
RTVSPropertyOp12
70
1
102
RTVSPropertyOp13
70
1
102
RTVSPropertyOp14
70
1
102
RTVSPropertyOp15
70
1
102
RTVSPropertyOp16
70
1
102
RTVSPropertyOp17
70
1
102
RTVSPropertyOp18
70
1
102
RTVSPropertyOp19
70
1
102
RTVSPropertyOp20
70
1
102
RTVSPropertyOp21
70
1
102
RTVSPropertyOp22
70
1
102
RTVSPropertyOp23
70
1
102
RTVSPropertyOp24
70
1
102
RTVSPropertyOp25
70
1
102
RTVSPropertyOp26
70
1
102
RTVSPropertyOp27
70
1
0
XRECORD
5
1083
102
{ACAD_REACTORS
330
1082
102
}
330
1082
100
AcDbXrecord
280
1
102
RTVSPropertyOp0
70
1
102
RTVSPropertyOp1
70
1
102
RTVSPropertyOp2
70
1
102
RTVSPropertyOp3
70
1
102
RTVSPropertyOp4
70
1
102
RTVSPropertyOp5
70
1
102
RTVSPropertyOp6
70
1
102
RTVSPropertyOp7
70
1
102
RTVSPropertyOp8
70
1
102
RTVSPropertyOp9
70
1
102
RTVSPropertyOp10
70
1
102
RTVSPropertyOp11
70
1
102
RTVSPropertyOp12
70
1
102
RTVSPropertyOp13
70
1
102
RTVSPropertyOp14
70
1
102
RTVSPropertyOp15
70
1
102
RTVSPropertyOp16
70
1
102
RTVSPropertyOp17
70
1
102
RTVSPropertyOp18
70
1
102
RTVSPropertyOp19
70
1
102
RTVSPropertyOp20
70
1
102
RTVSPropertyOp21
70
1
102
RTVSPropertyOp22
70
1
102
RTVSPropertyOp23
70
1
102
RTVSPropertyOp24
70
1
102
RTVSPropertyOp25
70
1
102
RTVSPropertyOp26
70
1
102
RTVSPropertyOp27
70
1
0
XRECORD
5
1085
102
{ACAD_REACTORS
330
1084
102
}
330
1084
100
AcDbXrecord
280
1
102
RTVSPropertyOp0
70
1
102
RTVSPropertyOp1
70
1
102
RTVSPropertyOp2
70
1
102
RTVSPropertyOp3
70
1
102
RTVSPropertyOp4
70
1
102
RTVSPropertyOp5
70
1
102
RTVSPropertyOp6
70
1
102
RTVSPropertyOp7
70
1
102
RTVSPropertyOp8
70
1
102
RTVSPropertyOp9
70
1
102
RTVSPropertyOp10
70
1
102
RTVSPropertyOp11
70
1
102
RTVSPropertyOp12
70
1
102
RTVSPropertyOp13
70
1
102
RTVSPropertyOp14
70
1
102
RTVSPropertyOp15
70
1
102
RTVSPropertyOp16
70
1
102
RTVSPropertyOp17
70
1
102
RTVSPropertyOp18
70
1
102
RTVSPropertyOp19
70
1
102
RTVSPropertyOp20
70
1
102
RTVSPropertyOp21
70
1
102
RTVSPropertyOp22
70
1
102
RTVSPropertyOp23
70
1
102
RTVSPropertyOp24
70
1
102
RTVSPropertyOp25
70
1
102
RTVSPropertyOp26
70
1
102
RTVSPropertyOp27
70
1
0
XRECORD
5
1087
102
{ACAD_REACTORS
330
1086
102
}
330
1086
100
AcDbXrecord
280
1
102
RTVSPropertyOp0
70
1
102
RTVSPropertyOp1
70
1
102
RTVSPropertyOp2
70
1
102
RTVSPropertyOp3
70
1
102
RTVSPropertyOp4
70
1
102
RTVSPropertyOp5
70
1
102
RTVSPropertyOp6
70
1
102
RTVSPropertyOp7
70
1
102
RTVSPropertyOp8
70
1
102
RTVSPropertyOp9
70
1
102
RTVSPropertyOp10
70
1
102
RTVSPropertyOp11
70
1
102
RTVSPropertyOp12
70
1
102
RTVSPropertyOp13
70
1
102
RTVSPropertyOp14
70
1
102
RTVSPropertyOp15
70
1
102
RTVSPropertyOp16
70
1
102
RTVSPropertyOp17
70
1
102
RTVSPropertyOp18
70
1
102
RTVSPropertyOp19
70
1
102
RTVSPropertyOp20
70
1
102
RTVSPropertyOp21
70
1
102
RTVSPropertyOp22
70
1
102
RTVSPropertyOp23
70
1
102
RTVSPropertyOp24
70
1
102
RTVSPropertyOp25
70
1
102
RTVSPropertyOp26
70
1
102
RTVSPropertyOp27
70
1
0
XRECORD
5
10A1
102
{ACAD_REACTORS
330
10A0
102
}
330
10A0
100
AcDbXrecord
280
1
102
RTVSPropertyOp0
70
0
102
RTVSPropertyOp1
70
0
102
RTVSPropertyOp2
70
0
102
RTVSPropertyOp3
70
0
102
RTVSPropertyOp4
70
0
102
RTVSPropertyOp5
70
0
102
RTVSPropertyOp6
70
0
102
RTVSPropertyOp7
70
0
102
RTVSPropertyOp8
70
0
102
RTVSPropertyOp9
70
0
102
RTVSPropertyOp10
70
0
102
RTVSPropertyOp11
70
0
102
RTVSPropertyOp12
70
0
102
RTVSPropertyOp13
70
0
102
RTVSPropertyOp14
70
2
102
RTVSPropertyOp15
70
0
102
RTVSPropertyOp16
70
0
102
RTVSPropertyOp17
70
0
102
RTVSPropertyOp18
70
0
102
RTVSPropertyOp19
70
0
102
RTVSPropertyOp20
70
0
102
RTVSPropertyOp21
70
0
102
RTVSPropertyOp22
70
0
102
RTVSPropertyOp23
70
0
102
RTVSPropertyOp24
70
0
102
RTVSPropertyOp25
70
0
102
RTVSPropertyOp26
70
0
102
RTVSPropertyOp27
70
0
0
XRECORD
5
109B
102
{ACAD_REACTORS
330
109A
102
}
330
109A
100
AcDbXrecord
280
1
102
RTVSPropertyOp0
70
1
102
RTVSPropertyOp1
70
1
102
RTVSPropertyOp2
70
1
102
RTVSPropertyOp3
70
1
102
RTVSPropertyOp4
70
1
102
RTVSPropertyOp5
70
1
102
RTVSPropertyOp6
70
1
102
RTVSPropertyOp7
70
1
102
RTVSPropertyOp8
70
1
102
RTVSPropertyOp9
70
1
102
RTVSPropertyOp10
70
1
102
RTVSPropertyOp11
70
1
102
RTVSPropertyOp12
70
1
102
RTVSPropertyOp13
70
1
102
RTVSPropertyOp14
70
1
102
RTVSPropertyOp15
70
1
102
RTVSPropertyOp16
70
1
102
RTVSPropertyOp17
70
1
102
RTVSPropertyOp18
70
1
102
RTVSPropertyOp19
70
1
102
RTVSPropertyOp20
70
1
102
RTVSPropertyOp21
70
1
102
RTVSPropertyOp22
70
1
102
RTVSPropertyOp23
70
1
102
RTVSPropertyOp24
70
1
102
RTVSPropertyOp25
70
1
102
RTVSPropertyOp26
70
1
102
RTVSPropertyOp27
70
1
0
XRECORD
5
10A3
102
{ACAD_REACTORS
330
10A2
102
}
330
10A2
100
AcDbXrecord
280
1
102
RTVSPropertyOp0
70
0
102
RTVSPropertyOp1
70
0
102
RTVSPropertyOp2
70
0
102
RTVSPropertyOp3
70
0
102
RTVSPropertyOp4
70
0
102
RTVSPropertyOp5
70
0
102
RTVSPropertyOp6
70
0
102
RTVSPropertyOp7
70
0
102
RTVSPropertyOp8
70
0
102
RTVSPropertyOp9
70
0
102
RTVSPropertyOp10
70
0
102
RTVSPropertyOp11
70
0
102
RTVSPropertyOp12
70
0
102
RTVSPropertyOp13
70
0
102
RTVSPropertyOp14
70
2
102
RTVSPropertyOp15
70
0
102
RTVSPropertyOp16
70
0
102
RTVSPropertyOp17
70
0
102
RTVSPropertyOp18
70
0
102
RTVSPropertyOp19
70
0
102
RTVSPropertyOp20
70
0
102
RTVSPropertyOp21
70
0
102
RTVSPropertyOp22
70
0
102
RTVSPropertyOp23
70
0
102
RTVSPropertyOp24
70
0
102
RTVSPropertyOp25
70
0
102
RTVSPropertyOp26
70
0
102
RTVSPropertyOp27
70
0
0
XRECORD
5
1093
102
{ACAD_REACTORS
330
1092
102
}
330
1092
100
AcDbXrecord
280
1
102
RTVSPropertyOp0
70
1
102
RTVSPropertyOp1
70
1
102
RTVSPropertyOp2
70
1
102
RTVSPropertyOp3
70
1
102
RTVSPropertyOp4
70
1
102
RTVSPropertyOp5
70
1
102
RTVSPropertyOp6
70
1
102
RTVSPropertyOp7
70
1
102
RTVSPropertyOp8
70
1
102
RTVSPropertyOp9
70
1
102
RTVSPropertyOp10
70
1
102
RTVSPropertyOp11
70
1
102
RTVSPropertyOp12
70
1
102
RTVSPropertyOp13
70
1
102
RTVSPropertyOp14
70
1
102
RTVSPropertyOp15
70
1
102
RTVSPropertyOp16
70
1
102
RTVSPropertyOp17
70
1
102
RTVSPropertyOp18
70
1
102
RTVSPropertyOp19
70
1
102
RTVSPropertyOp20
70
1
102
RTVSPropertyOp21
70
1
102
RTVSPropertyOp22
70
1
102
RTVSPropertyOp23
70
1
102
RTVSPropertyOp24
70
1
102
RTVSPropertyOp25
70
1
102
RTVSPropertyOp26
70
1
102
RTVSPropertyOp27
70
1
0
XRECORD
5
1099
102
{ACAD_REACTORS
330
1098
102
}
330
1098
100
AcDbXrecord
280
1
102
RTVSPropertyOp0
70
1
102
RTVSPropertyOp1
70
1
102
RTVSPropertyOp2
70
1
102
RTVSPropertyOp3
70
1
102
RTVSPropertyOp4
70
1
102
RTVSPropertyOp5
70
1
102
RTVSPropertyOp6
70
1
102
RTVSPropertyOp7
70
1
102
RTVSPropertyOp8
70
1
102
RTVSPropertyOp9
70
1
102
RTVSPropertyOp10
70
1
102
RTVSPropertyOp11
70
1
102
RTVSPropertyOp12
70
1
102
RTVSPropertyOp13
70
1
102
RTVSPropertyOp14
70
1
102
RTVSPropertyOp15
70
1
102
RTVSPropertyOp16
70
1
102
RTVSPropertyOp17
70
1
102
RTVSPropertyOp18
70
1
102
RTVSPropertyOp19
70
1
102
RTVSPropertyOp20
70
1
102
RTVSPropertyOp21
70
1
102
RTVSPropertyOp22
70
1
102
RTVSPropertyOp23
70
1
102
RTVSPropertyOp24
70
1
102
RTVSPropertyOp25
70
1
102
RTVSPropertyOp26
70
1
102
RTVSPropertyOp27
70
1
0
ENDSEC
0
EOF
