0
SECTION
2
HEADER
9
$ACADVER
1
AC1015
9
$ACADMAINTVER
70
20
9
$DWGCODEPAGE
3
ANSI_1252
9
$INSBASE
10
0.0
20
0.0
30
0.0
9
$EXTMIN
10
-150.000000000000
20
-105.000000000000
30
0.0
9
$EXTMAX
10
150.000000000000
20
105.000000000000
30
0.0
9
$LIMMIN
10
0.0
20
0.0
9
$LIMMAX
10
12.0
20
9.0
9
$ORTHOMODE
70
0
9
$REGENMODE
70
1
9
$FILLMODE
70
1
9
$QTEXTMODE
70
0
9
$MIRRTEXT
70
1
9
$LTSCALE
40
1.0
9
$ATTMODE
70
1
9
$TEXTSIZE
40
0.2
9
$TRACEWID
40
0.05
9
$TEXTSTYLE
7
Standard
9
$CLAYER
8
0
9
$CELTYPE
6
ByLayer
9
$CECOLOR
62
256
9
$CELTSCALE
40
1.0
9
$DISPSILH
70
0
9
$DIMSCALE
40
1.0
9
$DIMASZ
40
2.5
9
$DIMEXO
40
0.625
9
$DIMDLI
40
0.38
9
$DIMRND
40
0.0
9
$DIMDLE
40
0.0
9
$DIMEXE
40
1.25
9
$DIMTP
40
0.0
9
$DIMTM
40
0.000000001
9
$DIMTXT
40
2.5
9
$DIMCEN
40
0.09
9
$DIMTSZ
40
0.0
9
$DIMTOL
70
1
9
$DIMLIM
70
0
9
$DIMTIH
70
0
9
$DIMTOH
70
0
9
$DIMSE1
70
0
9
$DIMSE2
70
0
9
$DIMTAD
70
1
9
$DIMZIN
70
0
9
$DIMBLK
1
VDDIM_DEFAULT
9
$DIMASO
70
1
9
$DIMSHO
70
1
9
$DIMPOST
1

9
$DIMAPOST
1

9
$DIMALT
70
0
9
$DIMALTD
70
2
9
$DIMALTF
40
25.4
9
$DIMLFAC
40
1.00000000000000
9
$DIMTOFL
70
0
9
$DIMTVP
40
0.0
9
$DIMTIX
70
0
9
$DIMSOXD
70
0
9
$DIMSAH
70
0
9
$DIMBLK1
1

9
$DIMBLK2
1

9
$DIMSTYLE
2
BEM-ISBE
9
$DIMCLRD
70
0
9
$DIMCLRE
70
0
9
$DIMCLRT
70
0
9
$DIMTFAC
40
0.5
9
$DIMGAP
40
0.625
9
$DIMJUST
70
0
9
$DIMSD1
70
0
9
$DIMSD2
70
0
9
$DIMTOLJ
70
1
9
$DIMTZIN
70
0
9
$DIMALTZ
70
0
9
$DIMALTTZ
70
0
9
$DIMUPT
70
0
9
$DIMDEC
70
3
9
$DIMTDEC
70
3
9
$DIMALTU
70
2
9
$DIMALTTD
70
2
9
$DIMTXSTY
7
Standard
9
$DIMAUNIT
70
0
9
$DIMADEC
70
3
9
$DIMALTRND
40
0.0
9
$DIMAZIN
70
0
9
$DIMDSEP
70
46
9
$DIMATFIT
70
3
9
$DIMFRAC
70
0
9
$DIMLDRBLK
1

9
$DIMLUNIT
70
2
9
$DIMLWD
70
-2
9
$DIMLWE
70
-2
9
$DIMTMOVE
70
0
9
$LUNITS
70
2
9
$LUPREC
70
4
9
$SKETCHINC
40
0.1
9
$FILLETRAD
40
0.5
9
$AUNITS
70
0
9
$AUPREC
70
0
9
$MENU
1
.
9
$ELEVATION
40
0.0
9
$PELEVATION
40
0.0
9
$THICKNESS
40
0.0
9
$LIMCHECK
70
0
9
$CHAMFERA
40
0.5
9
$CHAMFERB
40
0.5
9
$CHAMFERC
40
1.0
9
$CHAMFERD
40
0.0
9
$SKPOLY
70
0
9
$TDCREATE
40
0.0
9
$TDUCREATE
40
0.0
9
$TDUPDATE
40
0.0
9
$TDUUPDATE
40
0.0
9
$TDINDWG
40
0.0
9
$TDUSRTIMER
40
0.0
9
$USRTIMER
70
1
9
$ANGBASE
50
0.0
9
$ANGDIR
70
0
9
$PDMODE
70
0
9
$PDSIZE
40
0.0
9
$PLINEWID
40
0.0
9
$SPLFRAME
70
0
9
$SPLINETYPE
70
6
9
$SPLINESEGS
70
8
9
$HANDSEED
5
10AB
9
$SURFTAB1
70
6
9
$SURFTAB2
70
6
9
$SURFTYPE
70
6
9
$SURFU
70
6
9
$SURFV
70
6
9
$UCSBASE
2

9
$UCSNAME
2

9
$UCSORG
10
0.0
20
0.0
30
0.0
9
$UCSXDIR
10
1.0
20
0.0
30
0.0
9
$UCSYDIR
10
0.0
20
1.0
30
0.0
9
$UCSORTHOREF
2

9
$UCSORTHOVIEW
70
0
9
$UCSORGTOP
10
0.0
20
0.0
30
0.0
9
$UCSORGBOTTOM
10
0.0
20
0.0
30
0.0
9
$UCSORGLEFT
10
0.0
20
0.0
30
0.0
9
$UCSORGRIGHT
10
0.0
20
0.0
30
0.0
9
$UCSORGFRONT
10
0.0
20
0.0
30
0.0
9
$UCSORGBACK
10
0.0
20
0.0
30
0.0
9
$PUCSBASE
2

9
$PUCSNAME
2

9
$PUCSORG
10
0.0
20
0.0
30
0.0
9
$PUCSXDIR
10
1.0
20
0.0
30
0.0
9
$PUCSYDIR
10
0.0
20
1.0
30
0.0
9
$PUCSORTHOREF
2

9
$PUCSORTHOVIEW
70
0
9
$PUCSORGTOP
10
0.0
20
0.0
30
0.0
9
$PUCSORGBOTTOM
10
0.0
20
0.0
30
0.0
9
$PUCSORGLEFT
10
0.0
20
0.0
30
0.0
9
$PUCSORGRIGHT
10
0.0
20
0.0
30
0.0
9
$PUCSORGFRONT
10
0.0
20
0.0
30
0.0
9
$PUCSORGBACK
10
0.0
20
0.0
30
0.0
9
$USERI1
70
0
9
$USERI2
70
0
9
$USERI3
70
0
9
$USERI4
70
0
9
$USERI5
70
0
9
$USERR1
40
0.0
9
$USERR2
40
0.0
9
$USERR3
40
0.0
9
$USERR4
40
0.0
9
$USERR5
40
0.0
9
$WORLDVIEW
70
1
9
$SHADEDGE
70
3
9
$SHADEDIF
70
70
9
$TILEMODE
70
1
9
$MAXACTVP
70
64
9
$PINSBASE
10
0.0
20
0.0
30
0.0
9
$PLIMCHECK
70
0
9
$PEXTMIN
10
1.000000000000000E+20
20
1.000000000000000E+20
30
1.000000000000000E+20
9
$PEXTMAX
10
-1.000000000000000E+20
20
-1.000000000000000E+20
30
-1.000000000000000E+20
9
$PLIMMIN
10
0.0
20
0.0
9
$PLIMMAX
10
12.0
20
9.0
9
$UNITMODE
70
0
9
$VISRETAIN
70
1
9
$PLINEGEN
70
0
9
$PSLTSCALE
70
1
9
$TREEDEPTH
70
3020
9
$CMLSTYLE
2
Standard
9
$CMLJUST
70
0
9
$CMLSCALE
40
1.0
9
$PROXYGRAPHICS
70
1
9
$MEASUREMENT
70
0
9
$CELWEIGHT
370
-1
9
$ENDCAPS
280
0
9
$JOINSTYLE
280
0
9
$LWDISPLAY
290
0
9
$INSUNITS
70
4
9
$HYPERLINKBASE
1

9
$STYLESHEET
1

9
$XEDIT
290
1
9
$CEPSNTYPE
380
0
9
$PSTYLEMODE
290
0
9
$FINGERPRINTGUID
2
{FAEB1C30-E019-11D5-929B-00C0DF256EC4}
9
$VERSIONGUID
2
{04C5C4E4-4947-4D90-8812-D401569E61F7}
9
$EXTNAMES
290
1
9
$PSVPSCALE
40
0.0
9
$OLESTARTUP
290
0
0
ENDSEC
0
SECTION
2
CLASSES
0
CLASS
1
ACDBDICTIONARYWDFLT
2
AcDbDictionaryWithDefault
3
ObjectDBX Classes
90
0
280
0
281
0
0
CLASS
1
ACDBPLACEHOLDER
2
AcDbPlaceHolder
3
ObjectDBX Classes
90
0
280
0
281
0
0
CLASS
1
LAYOUT
2
AcDbLayout
3
ObjectDBX Classes
90
0
280
0
281
0
0
CLASS
1
MATERIAL
2
AcDbMaterial
3
ObjectDBX Classes
90
1153
280
0
281
0
0
CLASS
1
VISUALSTYLE
2
AcDbVisualStyle
3
ObjectDBX Classes
90
4095
280
0
281
0
0
CLASS
1
TABLESTYLE
2
AcDbTableStyle
3
ObjectDBX Classes
90
4095
280
0
281
0
0
CLASS
1
SCALE
2
AcDbScale
3
ObjectDBX Classes
90
1153
280
0
281
0
0
CLASS
1
MLEADERSTYLE
2
AcDbMLeaderStyle
3
ACDB_MLEADERSTYLE_CLASS
90
4095
280
0
281
0
0
CLASS
1
DICTIONARYVAR
2
AcDbDictionaryVar
3
ObjectDBX Classes
90
0
280
0
281
0
0
CLASS
1
CELLSTYLEMAP
2
AcDbCellStyleMap
3
ObjectDBX Classes
90
1152
280
0
281
0
0
ENDSEC
0
SECTION
2
TABLES
0
TABLE
2
VPORT
5
24A
330
0
100
AcDbSymbolTable
70
1
0
VPORT
5
26B
330
24A
100
AcDbSymbolTableRecord
100
AcDbViewportTableRecord
2
*Active
70
0
10
0.0
20
0.0
11
1.0
21
1.0
12
0.000000000000000
22
0.000000000000000
13
0.0
23
0.0
14
10.0
24
10.0
15
10.0
25
10.0
16
0.0
26
0.0
36
1.0
17
0.0
27
0.0
37
0.0
40
210.000000000000
41
1.42857142857143
42
1.0
43
0.0
44
0.0
50
0.0
51
0.0000000000007958
71
0
72
100
73
1
74
3
75
0
76
0
77
0
78
1
281
0
65
1
110
0.0
120
0.0
130
0.0
111
1.0
121
0.0
131
0.0
112
0.0
122
1.0
132
0.0
79
0
146
0.0
0
ENDTAB
0
TABLE
2
LTYPE
5
247
330
0
100
AcDbSymbolTable
70
25
0
LTYPE
5
256
330
247
100
AcDbSymbolTableRecord
100
AcDbLinetypeTableRecord
2
ByBlock
70
0
3

72
65
73
0
40
0.0
0
LTYPE
5
257
330
247
100
AcDbSymbolTableRecord
100
AcDbLinetypeTableRecord
2
ByLayer
70
0
3

72
65
73
0
40
0.0
0
LTYPE
5
258
330
247
100
AcDbSymbolTableRecord
100
AcDbLinetypeTableRecord
2
Continuous
70
0
3
Solid line
72
65
73
0
40
0.0
0
LTYPE
5
273
330
247
100
AcDbSymbolTableRecord
100
AcDbLinetypeTableRecord
2
CENTER
70
0
3
Center ____ _ ____ _ ____ _ ____ _ ____ _ ____
72
65
73
4
40
2.0
49
1.25
74
0
49
-0.25
74
0
49
0.25
74
0
49
-0.25
74
0
0
LTYPE
5
274
330
247
100
AcDbSymbolTableRecord
100
AcDbLinetypeTableRecord
2
DASHDOT
70
0
3
Dashdot __ . __ . __ . __ . __ . __ . __ . __
72
65
73
4
40
1.0
49
0.5
74
0
49
-0.25
74
0
49
0.0
74
0
49
-0.25
74
0
0
LTYPE
5
275
330
247
100
AcDbSymbolTableRecord
100
AcDbLinetypeTableRecord
2
DASHED
70
0
3
Dashed __ __ __ __ __ __ __ __ __ __ __ __ __ _
72
65
73
2
40
0.75
49
0.5
74
0
49
-0.25
74
0
0
LTYPE
5
276
330
247
100
AcDbSymbolTableRecord
100
AcDbLinetypeTableRecord
2
HIDDEN
70
0
3
Hidden __ __ __ __ __ __ __ __ __ __ __ __ __ __
72
65
73
2
40
0.375
49
0.25
74
0
49
-0.125
74
0
0
LTYPE
5
277
330
247
100
AcDbSymbolTableRecord
100
AcDbLinetypeTableRecord
2
HIDDEN2
70
0
3
Hidden2 _ _ _ _ _ _ _ _ _ _ _ _ _ _ _ _ _
72
65
73
2
40
0.1875
49
0.125
74
0
49
-0.0625
74
0
0
LTYPE
5
278
330
247
100
AcDbSymbolTableRecord
100
AcDbLinetypeTableRecord
2
BORDER
70
0
3
Border __ __ . __ __ . __ __ . __ __ . __ __ .
72
65
73
6
40
1.75
49
0.5
74
0
49
-0.25
74
0
49
0.5
74
0
49
-0.25
74
0
49
0.0
74
0
49
-0.25
74
0
0
LTYPE
5
279
330
247
100
AcDbSymbolTableRecord
100
AcDbLinetypeTableRecord
2
BORDER2
70
0
3
Border2 __.__.__.__.__.__.__.__.__.__.__.
72
65
73
6
40
0.875
49
0.25
74
0
49
-0.125
74
0
49
0.25
74
0
49
-0.125
74
0
49
0.0
74
0
49
-0.125
74
0
0
LTYPE
5
27A
330
247
100
AcDbSymbolTableRecord
100
AcDbLinetypeTableRecord
2
BORDERX2
70
0
3
Borderx2  ____  ____  .  ____  ____  .  ___
72
65
73
6
40
3.5
49
1.0
74
0
49
-0.5
74
0
49
1.0
74
0
49
-0.5
74
0
49
0.0
74
0
49
-0.5
74
0
0
LTYPE
5
27B
330
247
100
AcDbSymbolTableRecord
100
AcDbLinetypeTableRecord
2
CENTER2
70
0
3
Center2  ___ _ ___ _ ___ _ ___ _ ___ _ ___
72
65
73
4
40
1.125
49
0.75
74
0
49
-0.125
74
0
49
0.125
74
0
49
-0.125
74
0
0
LTYPE
5
27C
330
247
100
AcDbSymbolTableRecord
100
AcDbLinetypeTableRecord
2
CENTERX2
70
0
3
Centerx2  ________  __  ________  __  _____
72
65
73
4
40
4.0
49
2.5
74
0
49
-0.5
74
0
49
0.5
74
0
49
-0.5
74
0
0
LTYPE
5
27D
330
247
100
AcDbSymbolTableRecord
100
AcDbLinetypeTableRecord
2
DASHDOT2
70
0
3
Dashdot2  _._._._._._._._._._._._._._._.
72
65
73
4
40
0.5
49
0.25
74
0
49
-0.125
74
0
49
0.0
74
0
49
-0.125
74
0
0
LTYPE
5
27E
330
247
100
AcDbSymbolTableRecord
100
AcDbLinetypeTableRecord
2
DASHDOTX2
70
0
3
Dashdotx2 ____  .  ____  .  ____  .  ___
72
65
73
4
40
2.0
49
1.0
74
0
49
-0.5
74
0
49
0.0
74
0
49
-0.5
74
0
0
LTYPE
5
27F
330
247
100
AcDbSymbolTableRecord
100
AcDbLinetypeTableRecord
2
DASHED2
70
0
3
Dashed2 _ _ _ _ _ _ _ _ _ _ _ _ _ _ _ _ _
72
65
73
2
40
0.375
49
0.25
74
0
49
-0.125
74
0
0
LTYPE
5
280
330
247
100
AcDbSymbolTableRecord
100
AcDbLinetypeTableRecord
2
DASHEDX2
70
0
3
Dashedx2 ____  ____  ____  ____  ____  ___
72
65
73
2
40
1.5
49
1.0
74
0
49
-0.5
74
0
0
LTYPE
5
281
330
247
100
AcDbSymbolTableRecord
100
AcDbLinetypeTableRecord
2
DIVIDE
70
0
3
Divide ____ . . ____ . . ____ . . ____ . . ____
72
65
73
6
40
1.25
49
0.5
74
0
49
-0.25
74
0
49
0.0
74
0
49
-0.25
74
0
49
0.0
74
0
49
-0.25
74
0
0
LTYPE
5
282
330
247
100
AcDbSymbolTableRecord
100
AcDbLinetypeTableRecord
2
DIVIDE2
70
0
3
Divide2 __..__..__..__..__..__..__..__.._
72
65
73
6
40
0.625
49
0.25
74
0
49
-0.125
74
0
49
0.0
74
0
49
-0.125
74
0
49
0.0
74
0
49
-0.125
74
0
0
LTYPE
5
283
330
247
100
AcDbSymbolTableRecord
100
AcDbLinetypeTableRecord
2
DIVIDEX2
70
0
3
Dividex2 ________  .  .  ________  .  .  _
72
65
73
6
40
2.5
49
1.0
74
0
49
-0.5
74
0
49
0.0
74
0
49
-0.5
74
0
49
0.0
74
0
49
-0.5
74
0
0
LTYPE
5
284
330
247
100
AcDbSymbolTableRecord
100
AcDbLinetypeTableRecord
2
DOT
70
0
3
Dot . . . . . . . . . . . . . . . . . . . . . . . .
72
65
73
2
40
0.25
49
0.0
74
0
49
-0.25
74
0
0
LTYPE
5
285
330
247
100
AcDbSymbolTableRecord
100
AcDbLinetypeTableRecord
2
DOT2
70
0
3
Dot2 ........................................
72
65
73
2
40
0.125
49
0.0
74
0
49
-0.125
74
0
0
LTYPE
5
286
330
247
100
AcDbSymbolTableRecord
100
AcDbLinetypeTableRecord
2
DOTX2
70
0
3
Dotx2 .  .  .  .  .  .  .  .  .  .  .  .  .  .
72
65
73
2
40
0.5
49
0.0
74
0
49
-0.5
74
0
0
LTYPE
5
287
330
247
100
AcDbSymbolTableRecord
100
AcDbLinetypeTableRecord
2
HIDDENX2
70
0
3
Hiddenx2 ____ ____ ____ ____ ____ ____ ____
72
65
73
2
40
0.75
49
0.5
74
0
49
-0.25
74
0
0
LTYPE
5
288
330
247
100
AcDbSymbolTableRecord
100
AcDbLinetypeTableRecord
2
PHANTOM
70
0
3
Phantom ______  __  __  ______  __  __  ______
72
65
73
6
40
2.5
49
1.25
74
0
49
-0.25
74
0
49
0.25
74
0
49
-0.25
74
0
49
0.25
74
0
49
-0.25
74
0
0
LTYPE
5
289
330
247
100
AcDbSymbolTableRecord
100
AcDbLinetypeTableRecord
2
PHANTOM2
70
0
3
Phantom2 ___ _ _ ___ _ _ ___ _ _ ___ _ _
72
65
73
6
40
1.25
49
0.625
74
0
49
-0.125
74
0
49
0.125
74
0
49
-0.125
74
0
49
0.125
74
0
49
-0.125
74
0
0
LTYPE
5
28A
330
247
100
AcDbSymbolTableRecord
100
AcDbLinetypeTableRecord
2
PHANTOMX2
70
0
3
Phantomx2 ____________    ____    ____   _
72
65
73
6
40
5.0
49
2.5
74
0
49
-0.5
74
0
49
0.5
74
0
49
-0.5
74
0
49
0.5
74
0
49
-0.5
74
0
0
ENDTAB
0
TABLE
2
LAYER
5
244
330
0
100
AcDbSymbolTable
70
6
0
LAYER
5
252
330
244
100
AcDbSymbolTableRecord
100
AcDbLayerTableRecord
2
0
70
0
62
7
6
Continuous
370
0
390
251
0
LAYER
5
23F
330
244
100
AcDbSymbolTableRecord
100
AcDbLayerTableRecord
2
Bemassung
70
0
 62
   7
6
Continuous
370
0
390
251
0
LAYER
5
240
330
244
100
AcDbSymbolTableRecord
100
AcDbLayerTableRecord
2
Rahmen
70
0
 62
   7
6
Continuous
370
0
390
251
0
LAYER
5
241
330
244
100
AcDbSymbolTableRecord
100
AcDbLayerTableRecord
2
Geo
70
0
 62
   7
6
Continuous
370
0
390
251
0
LAYER
5
33A
330
244
100
AcDbSymbolTableRecord
100
AcDbLayerTableRecord
2
Defpoints
70
0
62
7
6
Continuous
290
0
370
-3
390
251
0
LAYER
5
57E
330
244
100
AcDbSymbolTableRecord
100
AcDbLayerTableRecord
2
Text
70
0
 62
   7
6
Continuous
370
0
390
251
1001
AcAecLayerStandard
1000

1000

0
ENDTAB
0
TABLE
2
STYLE
5
245
330
0
100
AcDbSymbolTable
70
2
0
STYLE
5
253
330
245
100
AcDbSymbolTableRecord
100
AcDbTextStyleTableRecord
2
Standard
70
0
40
0.0
41
1.0
50
0.0
71
0
42
0.2
3
Arial
4

1001
ACAD
1000
Arial
1071
0
0
STYLE
5
132
330
245
100
AcDbSymbolTableRecord
100
AcDbTextStyleTableRecord
2
Beschriftung
70
0
40
0.0
41
1.0
50
0.0
71
0
42
0.2
3
Arial
4

1001
ACAD
1000
Arial
1071
0
1001
AcadAnnotative
1000
AnnotativeData
1070
1
1070
1
0
ENDTAB
0
TABLE
2
VIEW
5
248
330
0
100
AcDbSymbolTable
70
0
0
ENDTAB
0
TABLE
2
UCS
5
249
330
0
100
AcDbSymbolTable
70
0
0
ENDTAB
0
TABLE
2
APPID
5
24B
330
0
100
AcDbSymbolTable
70
13
0
APPID
5
254
330
24B
100
AcDbSymbolTableRecord
100
AcDbRegAppTableRecord
2
ACAD
70
0
0
APPID
5
26C
330
24B
100
AcDbSymbolTableRecord
100
AcDbRegAppTableRecord
2
VD_INVISIBLE_NOT_FOR_READ
70
0
0
APPID
5
26D
330
24B
100
AcDbSymbolTableRecord
100
AcDbRegAppTableRecord
2
VD_TEMPHATCH
70
0
0
APPID
5
26E
330
24B
100
AcDbSymbolTableRecord
100
AcDbRegAppTableRecord
2
VDEXTRAPARAM
70
0
0
APPID
5
26F
330
24B
100
AcDbSymbolTableRecord
100
AcDbRegAppTableRecord
2
PE_URL
70
0
0
APPID
5
270
330
24B
100
AcDbSymbolTableRecord
100
AcDbRegAppTableRecord
2
VD_UNKNOWN
70
0
0
APPID
5
28F
330
24B
100
AcDbSymbolTableRecord
100
AcDbRegAppTableRecord
2
AcadAnnotative
70
0
0
APPID
5
290
330
24B
100
AcDbSymbolTableRecord
100
AcDbRegAppTableRecord
2
ACAD_DSTYLE_DIMJAG
70
0
0
APPID
5
291
330
24B
100
AcDbSymbolTableRecord
100
AcDbRegAppTableRecord
2
ACAD_DSTYLE_DIMTALN
70
0
0
APPID
5
293
330
24B
100
AcDbSymbolTableRecord
100
AcDbRegAppTableRecord
2
ACAD_PSEXT
70
0
0
APPID
5
42A
330
24B
100
AcDbSymbolTableRecord
100
AcDbRegAppTableRecord
2
ACAD_MLEADERVER
70
0
0
APPID
5
532
330
24B
100
AcDbSymbolTableRecord
100
AcDbRegAppTableRecord
2
ACAD_EXEMPT_FROM_CAD_STANDARDS
70
0
0
APPID
5
57F
330
24B
100
AcDbSymbolTableRecord
100
AcDbRegAppTableRecord
2
AcAecLayerStandard
70
0
0
ENDTAB
0
TABLE
2
DIMSTYLE
5
24C
330
0
100
AcDbSymbolTable
70
3
100
AcDbDimStyleTable
71
2
340
27
340
269
0
DIMSTYLE
105
269
330
24C
100
AcDbSymbolTableRecord
100
AcDbDimStyleTableRecord
2
Standard
70
0
172
1
174
1
288
1
340
253
342
23C
0
DIMSTYLE
105
137
330
24C
100
AcDbSymbolTableRecord
100
AcDbDimStyleTableRecord
2
Beschriftung
70
0
41
2.5
42
0.625
44
1.25
73
0
74
0
77
1
140
2.5
147
0.625
172
1
174
1
271
2
288
1
340
253
342
23C
1001
AcadAnnotative
1000
AnnotativeData
1070
1
1070
1
1001
ACAD_DSTYLE_DIMJAG
1070
388
1040
1.5
1001
ACAD_DSTYLE_DIMTALN
1070
392
1070
0
0
DIMSTYLE
105
27
102
{ACAD_REACTORS
330
F1000D
330
F10017
330
F1001C
330
F10008
330
F10003
330
F10012
102
}
330
24C
100
AcDbSymbolTableRecord
100
AcDbDimStyleTableRecord
2
BEM-ISBE
70
0
41
2.5
42
0.625
44
1.25
48
0.000000001
71
1
73
0
74
0
77
1
140
2.5
144
1.00000000000000
146
0.5
147
0.625
171
 3
172
 1
179
 3
271
 3
272
 3
274
 3
340
253
342
23C
1001
ACAD_DSTYLE_DIMJAG
1070
388
1040
1.5
1001
ACAD_DSTYLE_DIMTALN
1070
392
1070
1
0
ENDTAB
0
TABLE
2
BLOCK_RECORD
5
243
330
0
100
AcDbSymbolTable
70
5
0
BLOCK_RECORD
5
261
330
243
100
AcDbSymbolTableRecord
100
AcDbBlockTableRecord
2
*Model_Space
340
FD0
0
BLOCK_RECORD
5
25D
330
243
100
AcDbSymbolTableRecord
100
AcDbBlockTableRecord
2
*Paper_Space
340
FD1
0
BLOCK_RECORD
5
265
330
243
100
AcDbSymbolTableRecord
100
AcDbBlockTableRecord
2
*Paper_Space0
340
0
0
BLOCK_RECORD
5
23C
330
243
100
AcDbSymbolTableRecord
100
AcDbBlockTableRecord
2
VDDIM_DEFAULT
340
0
102
{BLKREFS
102
}
0
BLOCK_RECORD
5
23E
330
243
100
AcDbSymbolTableRecord
100
AcDbBlockTableRecord
2
VDDIM_NONE
340
0
0
BLOCK_RECORD
5
F1000C
330
243
100
AcDbSymbolTableRecord
100
AcDbBlockTableRecord
2
*D5
340
0
0
BLOCK_RECORD
5
F10016
330
243
100
AcDbSymbolTableRecord
100
AcDbBlockTableRecord
2
*D7
340
0
0
BLOCK_RECORD
5
F1001B
330
243
100
AcDbSymbolTableRecord
100
AcDbBlockTableRecord
2
*D8
340
0
0
BLOCK_RECORD
5
F10007
330
243
100
AcDbSymbolTableRecord
100
AcDbBlockTableRecord
2
*D4
340
0
0
BLOCK_RECORD
5
F10002
330
243
100
AcDbSymbolTableRecord
100
AcDbBlockTableRecord
2
*D3
340
0
0
BLOCK_RECORD
5
F10011
330
243
100
AcDbSymbolTableRecord
100
AcDbBlockTableRecord
2
*D6
340
0
0
ENDTAB
0
ENDSEC
0
SECTION
2
BLOCKS
0
BLOCK
5
262
330
261
100
AcDbEntity
8
0
100
AcDbBlockBegin
2
*Model_Space
70
0
10
0.0
20
0.0
30
0.0
3
*Model_Space
1

0
ENDBLK
5
263
330
261
100
AcDbEntity
8
0
100
AcDbBlockEnd
0
BLOCK
5
25E
330
25D
100
AcDbEntity
67
1
8
0
100
AcDbBlockBegin
2
*Paper_Space
70
0
10
0.0
20
0.0
30
0.0
3
*Paper_Space
1

0
ENDBLK
5
25F
330
25D
100
AcDbEntity
67
1
8
0
100
AcDbBlockEnd
0
BLOCK
5
266
330
265
100
AcDbEntity
8
0
100
AcDbBlockBegin
2
*Paper_Space0
70
0
10
0.0
20
0.0
30
0.0
3
*Paper_Space0
1

0
VIEWPORT
5
296
102
{ACAD_XDICTIONARY
360
58E
102
}
330
265
100
AcDbEntity
8
0
60
1
100
AcDbViewport
10
0.0
20
0.0
30
0.0
40
10.0
41
10.0
69
0
12
0.0
22
0.0
13
0.0
23
0.0
14
1.0
24
1.0
15
0.0
25
0.0
16
0.0
26
0.0
36
1.0
17
0.0
27
0.0
37
0.0
42
0.0
43
0.0
44
0.0
45
10.0
50
0.0
51
0.0000000000007958
72
100
90
163872
1

281
0
71
0
74
0
110
0.0
120
0.0
130
0.0
111
1.0
121
0.0
131
0.0
112
0.0
122
1.0
132
0.0
79
0
146
0.0
1001
VD_INVISIBLE_NOT_FOR_READ
1000
VD_INVISIBLE_NOT_FOR_READ
0
VIEWPORT
5
297
102
{ACAD_XDICTIONARY
360
590
102
}
330
265
100
AcDbEntity
8
0
60
1
100
AcDbViewport
10
0.0
20
0.0
30
0.0
40
10.0
41
10.0
69
0
12
0.0
22
0.0
13
0.0
23
0.0
14
1.0
24
1.0
15
0.0
25
0.0
16
0.0
26
0.0
36
1.0
17
0.0
27
0.0
37
0.0
42
0.0
43
0.0
44
0.0
45
10.0
50
0.0
51
0.0000000000007958
72
100
90
163872
1

281
0
71
0
74
0
110
0.0
120
0.0
130
0.0
111
1.0
121
0.0
131
0.0
112
0.0
122
1.0
132
0.0
79
0
146
0.0
1001
VD_INVISIBLE_NOT_FOR_READ
1000
VD_INVISIBLE_NOT_FOR_READ
0
ENDBLK
5
267
330
265
100
AcDbEntity
8
0
100
AcDbBlockEnd
0
BLOCK
5
28B
330
23C
100
AcDbEntity
8
0
100
AcDbBlockBegin
2
VDDIM_DEFAULT
70
0
10
0.0
20
0.0
30
0.0
3
VDDIM_DEFAULT
1

0
LWPOLYLINE
5
23D
330
23C
100
AcDbEntity
8
0
6
Continuous
62
0
100
AcDbPolyline
90
4
70
0
43
0.0
10
0.0
20
0.0
10
-1.0
20
-0.1665
10
-1.0
20
0.1665
10
0.0
20
0.0
1001
VDEXTRAPARAM
1071
1
1071
0
1071
0
1040
1.0
1000

1000

1040
0.0
1040
0.0
0
HATCH
5
292
330
23C
100
AcDbEntity
8
0
6
Continuous
62
0
100
AcDbHatch
10
0.0
20
0.0
30
0.0
210
0.0
220
0.0
230
1.0
2
SOLID
70
1
71
0
91
1
92
2
72
0
73
1
93
3
10
0.0
20
0.0
10
-1.0
20
-0.1665
10
-1.0
20
0.1665
97
0
75
0
76
1
98
1
10
0.0
20
0.0
1001
VDEXTRAPARAM
1071
1
1071
0
1071
0
1040
1.0
1000

1000

1040
0.0
1040
0.0
1001
VD_TEMPHATCH
1000
VD_TEMPHATCH
0
ENDBLK
5
28C
330
23C
100
AcDbEntity
8
0
100
AcDbBlockEnd
0
BLOCK
5
28D
330
23E
100
AcDbEntity
8
0
100
AcDbBlockBegin
2
VDDIM_NONE
70
0
10
0.0
20
0.0
30
0.0
3
VDDIM_NONE
1

0
ENDBLK
5
28E
330
23E
100
AcDbEntity
8
0
100
AcDbBlockEnd
  0
BLOCK
  5
F10020
330
F1000C
100
AcDbEntity
  8
0
100
AcDbBlockBegin
  2
*D5
 70
     1
 10
0.0
 20
0.0
 30
0.0
  3
*D5
  1

  0
LINE
  5
F10021
330
F1000C
100
AcDbEntity
  8
Bemassung
 62
     0
370
    -2
100
AcDbLine
10
-26.7382133995037
20
11.9039665012407
30
0.000000000000000
11
-26.7382133995037
21
23.9044665012407
31
0.000000000000000
  0
LINE
  5
F10022
330
F1000C
100
AcDbEntity
  8
Bemassung
 62
     0
370
    -2
100
AcDbLine
10
79.2617866004963
20
11.3044665012407
30
0.000000000000000
11
79.2617866004963
21
28.9044665012407
31
0.000000000000000
  0
LINE
  5
F10023
330
F1000C
100
AcDbEntity
  8
Bemassung
 62
     0
370
    -2
100
AcDbLine
10
-26.7382133995037
20
21.9044665012407
30
0.000000000000000
11
79.2617866004963
21
21.9044665012407
31
0.000000000000000
  0
INSERT
  5
F10024
330
F1000C
100
AcDbEntity
  8
Bemassung
 62
     0
370
    -2
100
AcDbBlockReference
  2
VDDIM_DEFAULT
10
-26.7382133995037
20
21.9044665012407
30
0.000000000000000
 41
2.50000000000000
 42
2.50000000000000
 43
2.50000000000000
 50
180.000000000000
  0
INSERT
  5
F10025
330
F1000C
100
AcDbEntity
  8
Bemassung
 62
     0
370
    -2
100
AcDbBlockReference
  2
VDDIM_DEFAULT
10
79.2617866004963
20
21.9044665012407
30
0.000000000000000
 41
2.50000000000000
 42
2.50000000000000
 43
2.50000000000000
  0
MTEXT
  5
F10026
102
{ACAD_XDICTIONARY
360
F1000F
102
}
330
F1000C
100
AcDbEntity
  8
Bemassung
 62
     0
100
AcDbMText
10
26.2617866004963
20
22.5711331679074
30
0.000000000000000
 40
2.50000000000000
 41
0.0
 71
     8
 72
     1
  1
\A1;106
 11
1.00000000000000
 21
0.000000000000000
 31
0.0
 73
     1
 44
1.0
1001
ACAD
1000
MTEXTBEGIN
1070
73
1070
1
1070
44
1040
1.0
1070
74
1070
0
1000
MTEXTEND
  0
POINT
  5
F10027
330
F1000C
100
AcDbEntity
  8
Bemassung
 62
     0
100
AcDbPoint
10
-26.7382133995037
20
11.9039665012407
30
0.000000000000000
  0
POINT
  5
F10028
330
F1000C
100
AcDbEntity
  8
Bemassung
 62
     0
100
AcDbPoint
10
79.2617866004963
20
11.3044665012407
30
0.000000000000000
  0
ENDBLK
  5
F10029
330
F1000C
100
AcDbEntity
  8
0
100
AcDbBlockEnd
  0
BLOCK
  5
F1002A
330
F10016
100
AcDbEntity
  8
0
100
AcDbBlockBegin
  2
*D7
 70
     1
 10
0.0
 20
0.0
 30
0.0
  3
*D7
  1

  0
LINE
  5
F1002B
330
F10016
100
AcDbEntity
  8
Bemassung
 62
     0
370
    -2
100
AcDbLine
10
-28.7382133995037
20
1.90496650124070
30
0.000000000000000
11
-28.7382133995037
21
-10.0955334987593
31
0.000000000000000
  0
LINE
  5
F1002C
330
F10016
100
AcDbEntity
  8
Bemassung
 62
     0
370
    -2
100
AcDbLine
10
-70.7382133995037
20
-10.0955334987593
30
0.000000000000000
11
-70.7382133995037
21
28.9044665012407
31
0.000000000000000
  0
LINE
  5
F1002D
330
F10016
100
AcDbEntity
  8
Bemassung
 62
     0
370
    -2
100
AcDbLine
10
-28.7382133995037
20
-8.09553349875929
30
0.000000000000000
11
-70.7382133995037
21
-8.09553349875929
31
0.000000000000000
  0
INSERT
  5
F1002E
330
F10016
100
AcDbEntity
  8
Bemassung
 62
     0
370
    -2
100
AcDbBlockReference
  2
VDDIM_DEFAULT
10
-28.7382133995037
20
-8.09553349875929
30
0.000000000000000
 41
2.50000000000000
 42
2.50000000000000
 43
2.50000000000000
  0
INSERT
  5
F1002F
330
F10016
100
AcDbEntity
  8
Bemassung
 62
     0
370
    -2
100
AcDbBlockReference
  2
VDDIM_DEFAULT
10
-70.7382133995037
20
-8.09553349875929
30
0.000000000000000
 41
2.50000000000000
 42
2.50000000000000
 43
2.50000000000000
 50
180.000000000000
  0
MTEXT
  5
F10030
102
{ACAD_XDICTIONARY
360
F10019
102
}
330
F10016
100
AcDbEntity
  8
Bemassung
 62
     0
100
AcDbMText
10
-49.7382133995037
20
-7.42886683209263
30
0.000000000000000
 40
2.50000000000000
 41
0.0
 71
     8
 72
     1
  1
\A1;42
 11
1.00000000000000
 21
0.000000000000000
 31
0.0
 73
     1
 44
1.0
1001
ACAD
1000
MTEXTBEGIN
1070
73
1070
1
1070
44
1040
1.0
1070
74
1070
0
1000
MTEXTEND
  0
POINT
  5
F10031
330
F10016
100
AcDbEntity
  8
Bemassung
 62
     0
100
AcDbPoint
10
-28.7382133995037
20
1.90496650124070
30
0.000000000000000
  0
POINT
  5
F10032
330
F10016
100
AcDbEntity
  8
Bemassung
 62
     0
100
AcDbPoint
10
-70.7382133995037
20
-10.0955334987593
30
0.000000000000000
  0
ENDBLK
  5
F10033
330
F10016
100
AcDbEntity
  8
0
100
AcDbBlockEnd
  0
BLOCK
  5
F10034
330
F1001B
100
AcDbEntity
  8
0
100
AcDbBlockBegin
  2
*D8
 70
     1
 10
0.0
 20
0.0
 30
0.0
  3
*D8
  1

  0
LINE
  5
F10035
330
F1001B
100
AcDbEntity
  8
Bemassung
 62
     0
370
    -2
100
AcDbLine
10
79.2617866004963
20
11.3044665012407
30
0.000000000000000
11
79.2617866004963
21
28.9044665012407
31
0.000000000000000
  0
LINE
  5
F10036
330
F1001B
100
AcDbEntity
  8
Bemassung
 62
     0
370
    -2
100
AcDbLine
10
-70.7382133995037
20
-10.0955334987593
30
0.000000000000000
11
-70.7382133995037
21
28.9044665012407
31
0.000000000000000
  0
LINE
  5
F10037
330
F1001B
100
AcDbEntity
  8
Bemassung
 62
     0
370
    -2
100
AcDbLine
10
79.2617866004963
20
26.9044665012407
30
0.000000000000000
11
-70.7382133995037
21
26.9044665012407
31
0.000000000000000
  0
INSERT
  5
F10038
330
F1001B
100
AcDbEntity
  8
Bemassung
 62
     0
370
    -2
100
AcDbBlockReference
  2
VDDIM_DEFAULT
10
79.2617866004963
20
26.9044665012407
30
0.000000000000000
 41
2.50000000000000
 42
2.50000000000000
 43
2.50000000000000
  0
INSERT
  5
F10039
330
F1001B
100
AcDbEntity
  8
Bemassung
 62
     0
370
    -2
100
AcDbBlockReference
  2
VDDIM_DEFAULT
10
-70.7382133995037
20
26.9044665012407
30
0.000000000000000
 41
2.50000000000000
 42
2.50000000000000
 43
2.50000000000000
 50
180.000000000000
  0
MTEXT
  5
F1003A
102
{ACAD_XDICTIONARY
360
F1001E
102
}
330
F1001B
100
AcDbEntity
  8
Bemassung
 62
     0
100
AcDbMText
10
4.26178660049627
20
27.5711331679074
30
0.000000000000000
 40
2.50000000000000
 41
0.0
 71
     8
 72
     1
  1
\A1;150
 11
1.00000000000000
 21
0.000000000000000
 31
0.0
 73
     1
 44
1.0
1001
ACAD
1000
MTEXTBEGIN
1070
73
1070
1
1070
44
1040
1.0
1070
74
1070
0
1000
MTEXTEND
  0
POINT
  5
F1003B
330
F1001B
100
AcDbEntity
  8
Bemassung
 62
     0
100
AcDbPoint
10
79.2617866004963
20
11.3044665012407
30
0.000000000000000
  0
POINT
  5
F1003C
330
F1001B
100
AcDbEntity
  8
Bemassung
 62
     0
100
AcDbPoint
10
-70.7382133995037
20
-10.0955334987593
30
0.000000000000000
  0
ENDBLK
  5
F1003D
330
F1001B
100
AcDbEntity
  8
0
100
AcDbBlockEnd
  0
BLOCK
  5
F1003E
330
F10007
100
AcDbEntity
  8
0
100
AcDbBlockBegin
  2
*D4
 70
     1
 10
0.0
 20
0.0
 30
0.0
  3
*D4
  1

  0
LINE
  5
F1003F
330
F10007
100
AcDbEntity
  8
Bemassung
 62
     0
370
    -2
100
AcDbLine
10
-70.4898267007594
20
11.8365437473799
30
0.000000000000000
11
-84.6249499724854
21
23.5483602722743
31
0.000000000000000
  0
INSERT
  5
F10040
330
F10007
100
AcDbEntity
  8
Bemassung
 62
     0
370
    -2
100
AcDbBlockReference
  2
VDDIM_DEFAULT
10
-70.4898267007594
20
11.8365437473799
30
0.000000000000000
 41
2.50000000000000
 42
2.50000000000000
 43
2.50000000000000
 50
320.356168149846
  0
MTEXT
  5
F10041
102
{ACAD_XDICTIONARY
360
F1000A
102
}
330
F10007
100
AcDbEntity
  8
Bemassung
 62
     0
100
AcDbMText
10
-81.9615275377874
20
21.3415514398486
30
0.000000000000000
 40
2.50000000000000
 41
0.0
 71
     8
 72
     1
  1
\A1;R0.5
 11
0.770025381563913
 21
-0.638013253582831
 31
0.0
 73
     1
 44
1.0
1001
ACAD
1000
MTEXTBEGIN
1070
73
1070
1
1070
44
1040
1.0
1070
74
1070
0
1000
MTEXTEND
  0
POINT
  5
F10042
330
F10007
100
AcDbEntity
  8
Bemassung
 62
     0
100
AcDbPoint
10
-70.4898267007594
20
11.8365437473799
30
0.000000000000000
  0
POINT
  5
F10043
330
F10007
100
AcDbEntity
  8
Bemassung
 62
     0
100
AcDbPoint
10
-70.2382133995037
20
11.4044665012407
30
0.000000000000000
  0
ENDBLK
  5
F10044
330
F10007
100
AcDbEntity
  8
0
100
AcDbBlockEnd
  0
BLOCK
  5
F10045
330
F10002
100
AcDbEntity
  8
0
100
AcDbBlockBegin
  2
*D3
 70
     1
 10
0.0
 20
0.0
 30
0.0
  3
*D3
  1

  0
LINE
  5
F10046
330
F10002
100
AcDbEntity
  8
Bemassung
 62
     0
370
    -2
100
AcDbLine
10
-70.2382133995037
20
1.90446650124071
30
0.000000000000000
11
-82.7382133995037
21
1.90446650124071
31
0.000000000000000
  0
LINE
  5
F10047
330
F10002
100
AcDbEntity
  8
Bemassung
 62
     0
370
    -2
100
AcDbLine
10
-70.2382133995037
20
11.9044665012407
30
0.000000000000000
11
-82.7382133995037
21
11.9044665012407
31
0.000000000000000
  0
LINE
  5
F10048
330
F10002
100
AcDbEntity
  8
Bemassung
 62
     0
370
    -2
100
AcDbLine
10
-80.7382133995037
20
1.90446650124071
30
0.000000000000000
11
-80.7382133995037
21
11.9044665012407
31
0.000000000000000
  0
INSERT
  5
F10049
330
F10002
100
AcDbEntity
  8
Bemassung
 62
     0
370
    -2
100
AcDbBlockReference
  2
VDDIM_DEFAULT
10
-80.7382133995037
20
1.90446650124071
30
0.000000000000000
 41
2.50000000000000
 42
2.50000000000000
 43
2.50000000000000
 50
90.0000000000000
  0
INSERT
  5
F1004A
330
F10002
100
AcDbEntity
  8
Bemassung
 62
     0
370
    -2
100
AcDbBlockReference
  2
VDDIM_DEFAULT
10
-80.7382133995037
20
11.9044665012407
30
0.000000000000000
 41
2.50000000000000
 42
2.50000000000000
 43
2.50000000000000
 50
270.000000000000
  0
MTEXT
  5
F1004B
102
{ACAD_XDICTIONARY
360
F10005
102
}
330
F10002
100
AcDbEntity
  8
Bemassung
 62
     0
100
AcDbMText
10
-81.4048800661704
20
6.90446650124071
30
0.000000000000000
 40
2.50000000000000
 41
0.0
 71
     8
 72
     1
  1
\A1;10
 11
6.12323399573677e-017
 21
1.00000000000000
 31
0.0
 73
     1
 44
1.0
1001
ACAD
1000
MTEXTBEGIN
1070
73
1070
1
1070
44
1040
1.0
1070
74
1070
0
1000
MTEXTEND
  0
POINT
  5
F1004C
330
F10002
100
AcDbEntity
  8
Bemassung
 62
     0
100
AcDbPoint
10
-70.2382133995037
20
1.90446650124071
30
0.000000000000000
  0
POINT
  5
F1004D
330
F10002
100
AcDbEntity
  8
Bemassung
 62
     0
100
AcDbPoint
10
-70.2382133995037
20
11.9044665012407
30
0.000000000000000
  0
ENDBLK
  5
F1004E
330
F10002
100
AcDbEntity
  8
0
100
AcDbBlockEnd
  0
BLOCK
  5
F1004F
330
F10011
100
AcDbEntity
  8
0
100
AcDbBlockBegin
  2
*D6
 70
     1
 10
0.0
 20
0.0
 30
0.0
  3
*D6
  1

  0
LINE
  5
F10050
330
F10011
100
AcDbEntity
  8
Bemassung
 62
     0
370
    -2
100
AcDbLine
10
78.6617866004963
20
1.90446650124071
30
0.000000000000000
11
91.2617866004963
21
1.90446650124071
31
0.000000000000000
  0
LINE
  5
F10051
330
F10011
100
AcDbEntity
  8
Bemassung
 62
     0
370
    -2
100
AcDbLine
10
78.6617866004963
20
11.9044665012407
30
0.000000000000000
11
91.2617866004963
21
11.9044665012407
31
0.000000000000000
  0
LINE
  5
F10052
330
F10011
100
AcDbEntity
  8
Bemassung
 62
     0
370
    -2
100
AcDbLine
10
89.2617866004963
20
0.781637717121598
30
0.000000000000000
11
89.2617866004963
21
11.9044665012407
31
0.000000000000000
  0
INSERT
  5
F10053
330
F10011
100
AcDbEntity
  8
Bemassung
 62
     0
370
    -2
100
AcDbBlockReference
  2
VDDIM_DEFAULT
10
89.2617866004963
20
1.90446650124071
30
0.000000000000000
 41
2.50000000000000
 42
2.50000000000000
 43
2.50000000000000
 50
90.0000000000000
  0
INSERT
  5
F10054
330
F10011
100
AcDbEntity
  8
Bemassung
 62
     0
370
    -2
100
AcDbBlockReference
  2
VDDIM_DEFAULT
10
89.2617866004963
20
11.9044665012407
30
0.000000000000000
 41
2.50000000000000
 42
2.50000000000000
 43
2.50000000000000
 50
270.000000000000
  0
MTEXT
  5
F10055
330
F10011
100
AcDbEntity
  8
Bemassung
 62
     0
100
AcDbMText
10
88.5951199338296
20
4.99255583126552
30
0.000000000000000
 40
2.50000000000000
 41
0.0
 71
     8
 72
     1
  1
\A1;10 h5
 11
6.12323399573677e-017
 21
1.00000000000000
 31
0.0
 73
     1
 44
1.0
  0
POINT
  5
F10056
330
F10011
100
AcDbEntity
  8
Bemassung
 62
     0
100
AcDbPoint
10
78.6617866004963
20
1.90446650124071
30
0.000000000000000
  0
POINT
  5
F10057
330
F10011
100
AcDbEntity
  8
Bemassung
 62
     0
100
AcDbPoint
10
78.6617866004963
20
11.9044665012407
30
0.000000000000000
  0
ENDBLK
  5
F10058
330
F10011
100
AcDbEntity
  8
0
100
AcDbBlockEnd
0
ENDSEC
0
SECTION
2
ENTITIES
  0
DIMENSION
  5
F1000D
330
261
100
AcDbEntity
  8
Bemassung
100
AcDbDimension
  2
*D5
10
79.2617866004963
20
21.9044665012407
30
0.000000000000000
11
26.2617866004963
21
22.5711331679074
31
0.000000000000000
 70
32
 1
<>
 71
     8
  3
BEM-ISBE
100
AcDbAlignedDimension
13
-26.7382133995037
23
11.9039665012407
33
0.000000000000000
14
79.2617866004963
24
11.3044665012407
34
0.000000000000000
100
AcDbRotatedDimension
1001
ACAD
1000
DSTYLE
1002
{
1070
284
1070
8
1070
78
1070
8
1070
144
1040
1.00000000000000
1070
147
1040
0.625
1070
 72
1070
 0
1070
 71
1070
 0
1002
}
  0
DIMENSION
  5
F10017
330
261
100
AcDbEntity
  8
Bemassung
100
AcDbDimension
  2
*D7
10
-70.7382133995037
20
-8.09553349875929
30
0.000000000000000
11
-49.7382133995037
21
-7.42886683209263
31
0.000000000000000
 70
32
 1
<>
 71
     8
  3
BEM-ISBE
100
AcDbAlignedDimension
13
-28.7382133995037
23
1.90496650124070
33
0.000000000000000
14
-70.7382133995037
24
-10.0955334987593
34
0.000000000000000
100
AcDbRotatedDimension
1001
ACAD
1000
DSTYLE
1002
{
1070
284
1070
8
1070
78
1070
8
1070
144
1040
1.00000000000000
1070
147
1040
0.625
1070
 72
1070
 0
1070
 71
1070
 0
1002
}
  0
DIMENSION
  5
F1001C
330
261
100
AcDbEntity
  8
Bemassung
100
AcDbDimension
  2
*D8
10
-70.7382133995037
20
26.9044665012407
30
0.000000000000000
11
4.26178660049627
21
27.5711331679074
31
0.000000000000000
 70
32
 1
<>
 71
     8
  3
BEM-ISBE
100
AcDbAlignedDimension
13
79.2617866004963
23
11.3044665012407
33
0.000000000000000
14
-70.7382133995037
24
-10.0955334987593
34
0.000000000000000
100
AcDbRotatedDimension
1001
ACAD
1000
DSTYLE
1002
{
1070
284
1070
8
1070
78
1070
8
1070
144
1040
1.00000000000000
1070
147
1040
0.625
1070
 72
1070
 0
1070
 71
1070
 0
1002
}
  0
DIMENSION
  5
F10008
330
261
100
AcDbEntity
  8
Bemassung
100
AcDbDimension
  2
*D4
10
-70.2382133995037
20
11.4044665012407
30
0.000000000000000
11
-81.9615275377874
21
21.3415514398486
31
0.000000000000000
 70
164
 1
<>
 71
     8
  3
BEM-ISBE
100
AcDbRadialDimension
15
-70.4898267007594
25
11.8365437473799
35
0.000000000000000
40
0.0
1001
ACAD
1000
DSTYLE
1002
{
1070
284
1070
8
1070
78
1070
8
1070
144
1040
1.00000000000000
1070
147
1040
0.625
1070
 72
1070
 0
1070
 71
1070
 0
1002
}
  0
DIMENSION
  5
F10003
330
261
100
AcDbEntity
  8
Bemassung
100
AcDbDimension
  2
*D3
10
-80.7382133995037
20
11.9044665012407
30
0.000000000000000
11
-81.4048800661704
21
6.90446650124071
31
0.000000000000000
 70
32
 1
Ø<>
 71
     8
  3
BEM-ISBE
100
AcDbAlignedDimension
13
-70.2382133995037
23
1.90446650124071
33
0.000000000000000
14
-70.2382133995037
24
11.9044665012407
34
0.000000000000000
50
90.0000000000000
100
AcDbRotatedDimension
1001
ACAD
1000
DSTYLE
1002
{
1070
284
1070
8
1070
78
1070
8
1070
144
1040
1.00000000000000
1070
147
1040
0.625
1070
 72
1070
 0
1070
 71
1070
 0
1002
}
  0
DIMENSION
  5
F10012
330
261
100
AcDbEntity
  8
Bemassung
100
AcDbDimension
  2
*D6
10
89.2617866004963
20
11.9044665012407
30
0.000000000000000
11
88.5951199338296
21
4.99255583126552
31
0.000000000000000
 70
32
 1
Ø<> h5
 71
     8
  3
BEM-ISBE
100
AcDbAlignedDimension
13
78.6617866004963
23
1.90446650124071
33
0.000000000000000
14
78.6617866004963
24
11.9044665012407
34
0.000000000000000
50
90.0000000000000
100
AcDbRotatedDimension
1001
ACAD
1000
DSTYLE
1002
{
1070
284
1070
8
1070
78
1070
8
1070
144
1040
1.00000000000000
1070
147
1040
0.625
1070
 72
1070
 0
1070
 71
1070
 0
1002
}
  0
LINE
  5
F10059
330
F1005A
100
AcDbEntity
8
Geo
100
AcDbLine
10
-70.7382133995037
20
6.90446650124071
30
0.000000000000000
11
-70.7382133995037
21
11.4044665012407
31
0.000000000000000
  0
ARC
  5
F1005B
330
F1005C
100
AcDbEntity
8
Geo
100
AcDbCircle
10
-70.2382133995037
20
11.4044665012407
30
0.000000000000000
 40
0.500000000000000
100
AcDbArc
 50
90.0000000000000
 51
180.000000000000
  0
LINE
  5
F1005D
330
F1005E
100
AcDbEntity
8
Geo
100
AcDbLine
10
-70.2382133995037
20
11.9044665012407
30
0.000000000000000
11
-28.7382133995037
21
11.9044665012407
31
0.000000000000000
  0
LINE
  5
F1005F
330
F10060
100
AcDbEntity
8
Geo
100
AcDbLine
10
-28.7382133995037
20
11.9044665012407
30
0.000000000000000
11
-28.7382133995037
21
11.9039665012407
31
0.000000000000000
  0
LINE
  5
F10061
330
F10062
100
AcDbEntity
8
Geo
100
AcDbLine
10
-28.7382133995037
20
11.9039665012407
30
0.000000000000000
11
-26.7382133995037
21
11.9039665012407
31
0.000000000000000
  0
LINE
  5
F10063
330
F10064
100
AcDbEntity
8
Geo
100
AcDbLine
10
-26.7382133995037
20
11.9039665012407
30
0.000000000000000
11
-26.7382133995037
21
11.9044665012407
31
0.000000000000000
  0
LINE
  5
F10065
330
F10066
100
AcDbEntity
8
Geo
100
AcDbLine
10
-26.7382133995037
20
11.9044665012407
30
0.000000000000000
11
78.6617866004963
21
11.9044665012407
31
0.000000000000000
  0
LINE
  5
F10067
330
F10068
100
AcDbEntity
8
Geo
100
AcDbLine
10
78.6617866004963
20
11.9044665012407
30
0.000000000000000
11
79.2617866004963
21
11.3044665012407
31
0.000000000000000
  0
LINE
  5
F10069
330
F1006A
100
AcDbEntity
8
Geo
100
AcDbLine
10
-46.6382133995037
20
11.9042313505520
30
0.000000000000000
11
-46.5382133995037
21
11.9044579588654
31
0.000000000000000
  0
LINE
  5
F1006B
330
F1006C
100
AcDbEntity
8
Geo
100
AcDbLine
10
-46.5382133995037
20
11.9044579588654
30
0.000000000000000
11
-46.4382133995037
21
11.9040179090585
31
0.000000000000000
  0
LINE
  5
F1006D
330
F1006E
100
AcDbEntity
8
Geo
100
AcDbLine
10
-46.4382133995037
20
11.9040179090585
30
0.000000000000000
11
-46.3382133995037
21
11.9029112598038
31
0.000000000000000
  0
LINE
  5
F1006F
330
F10070
100
AcDbEntity
8
Geo
100
AcDbLine
10
-46.3382133995037
20
11.9029112598038
30
0.000000000000000
11
-46.2382133995037
21
11.9011381586531
31
0.000000000000000
  0
LINE
  5
F10071
330
F10072
100
AcDbEntity
8
Geo
100
AcDbLine
10
-46.2382133995037
20
11.9011381586531
30
0.000000000000000
11
-46.1382133995037
21
11.8986988420172
31
0.000000000000000
  0
LINE
  5
F10073
330
F10074
100
AcDbEntity
8
Geo
100
AcDbLine
10
-46.1382133995037
20
11.8986988420172
30
0.000000000000000
11
-46.0382133995037
21
11.8955936351347
31
0.000000000000000
  0
LINE
  5
F10075
330
F10076
100
AcDbEntity
8
Geo
100
AcDbLine
10
-46.0382133995037
20
11.8955936351347
30
0.000000000000000
11
-45.9382133995037
21
11.8918229520286
31
0.000000000000000
  0
LINE
  5
F10077
330
F10078
100
AcDbEntity
8
Geo
100
AcDbLine
10
-45.9382133995037
20
11.8918229520286
30
0.000000000000000
11
-45.8382133995037
21
11.8873872954510
31
0.000000000000000
  0
LINE
  5
F10079
330
F1007A
100
AcDbEntity
8
Geo
100
AcDbLine
10
-45.8382133995037
20
11.8873872954510
30
0.000000000000000
11
-45.7382133995037
21
11.8822872568162
31
0.000000000000000
  0
LINE
  5
F1007B
330
F1007C
100
AcDbEntity
8
Geo
100
AcDbLine
10
-45.7382133995037
20
11.8822872568162
30
0.000000000000000
11
-45.6382133995036
21
11.8765235161219
31
0.000000000000000
  0
LINE
  5
F1007D
330
F1007E
100
AcDbEntity
8
Geo
100
AcDbLine
10
-45.6382133995036
20
11.8765235161219
30
0.000000000000000
11
-45.5382133995036
21
11.8700968418583
31
0.000000000000000
  0
LINE
  5
F1007F
330
F10080
100
AcDbEntity
8
Geo
100
AcDbLine
10
-45.5382133995036
20
11.8700968418583
30
0.000000000000000
11
-45.4382133995036
21
11.8630080909057
31
0.000000000000000
  0
LINE
  5
F10081
330
F10082
100
AcDbEntity
8
Geo
100
AcDbLine
10
-45.4382133995036
20
11.8630080909057
30
0.000000000000000
11
-45.3382133995036
21
11.8552582084204
31
0.000000000000000
  0
LINE
  5
F10083
330
F10084
100
AcDbEntity
8
Geo
100
AcDbLine
10
-45.3382133995036
20
11.8552582084204
30
0.000000000000000
11
-45.2382133995036
21
11.8468482277086
31
0.000000000000000
  0
LINE
  5
F10085
330
F10086
100
AcDbEntity
8
Geo
100
AcDbLine
10
-45.2382133995036
20
11.8468482277086
30
0.000000000000000
11
-45.1382133995036
21
11.8377792700887
31
0.000000000000000
  0
LINE
  5
F10087
330
F10088
100
AcDbEntity
8
Geo
100
AcDbLine
10
-45.1382133995036
20
11.8377792700887
30
0.000000000000000
11
-45.0382133995036
21
11.8280525447415
31
0.000000000000000
  0
LINE
  5
F10089
330
F1008A
100
AcDbEntity
8
Geo
100
AcDbLine
10
-45.0382133995036
20
11.8280525447415
30
0.000000000000000
11
-44.9382133995036
21
11.8176693485493
31
0.000000000000000
  0
LINE
  5
F1008B
330
F1008C
100
AcDbEntity
8
Geo
100
AcDbLine
10
-44.9382133995036
20
11.8176693485493
30
0.000000000000000
11
-44.8382133995036
21
11.8066310659229
31
0.000000000000000
  0
LINE
  5
F1008D
330
F1008E
100
AcDbEntity
8
Geo
100
AcDbLine
10
-44.8382133995036
20
11.8066310659229
30
0.000000000000000
11
-44.7382133995036
21
11.7949391686171
31
0.000000000000000
  0
LINE
  5
F1008F
330
F10090
100
AcDbEntity
8
Geo
100
AcDbLine
10
-44.7382133995036
20
11.7949391686171
30
0.000000000000000
11
-44.6382133995036
21
11.7825952155340
31
0.000000000000000
  0
LINE
  5
F10091
330
F10092
100
AcDbEntity
8
Geo
100
AcDbLine
10
-44.6382133995036
20
11.7825952155340
30
0.000000000000000
11
-44.5382133995036
21
11.7696008525158
31
0.000000000000000
  0
LINE
  5
F10093
330
F10094
100
AcDbEntity
8
Geo
100
AcDbLine
10
-44.5382133995036
20
11.7696008525158
30
0.000000000000000
11
-44.4382133995036
21
11.7559578121250
31
0.000000000000000
  0
LINE
  5
F10095
330
F10096
100
AcDbEntity
8
Geo
100
AcDbLine
10
-44.4382133995036
20
11.7559578121250
30
0.000000000000000
11
-44.3382133995036
21
11.7416679134135
31
0.000000000000000
  0
LINE
  5
F10097
330
F10098
100
AcDbEntity
8
Geo
100
AcDbLine
10
-44.3382133995036
20
11.7416679134135
30
0.000000000000000
11
-44.2382133995036
21
11.7267330616799
31
0.000000000000000
  0
LINE
  5
F10099
330
F1009A
100
AcDbEntity
8
Geo
100
AcDbLine
10
-44.2382133995036
20
11.7267330616799
30
0.000000000000000
11
-44.1382133995036
21
11.7111552482156
31
0.000000000000000
  0
LINE
  5
F1009B
330
F1009C
100
AcDbEntity
8
Geo
100
AcDbLine
10
-44.1382133995036
20
11.7111552482156
30
0.000000000000000
11
-44.0382133995036
21
11.6949365500394
31
0.000000000000000
  0
LINE
  5
F1009D
330
F1009E
100
AcDbEntity
8
Geo
100
AcDbLine
10
-44.0382133995036
20
11.6949365500394
30
0.000000000000000
11
-43.9382133995036
21
11.6780791296203
31
0.000000000000000
  0
LINE
  5
F1009F
330
F100A0
100
AcDbEntity
8
Geo
100
AcDbLine
10
-43.9382133995036
20
11.6780791296203
30
0.000000000000000
11
-43.8382133995036
21
11.6605852345894
31
0.000000000000000
  0
LINE
  5
F100A1
330
F100A2
100
AcDbEntity
8
Geo
100
AcDbLine
10
-43.8382133995036
20
11.6605852345894
30
0.000000000000000
11
-43.7382133995036
21
11.6424571974401
31
0.000000000000000
  0
LINE
  5
F100A3
330
F100A4
100
AcDbEntity
8
Geo
100
AcDbLine
10
-43.7382133995036
20
11.6424571974401
30
0.000000000000000
11
-43.6382133995036
21
11.6236974352173
31
0.000000000000000
  0
LINE
  5
F100A5
330
F100A6
100
AcDbEntity
8
Geo
100
AcDbLine
10
-43.6382133995036
20
11.6236974352173
30
0.000000000000000
11
-43.5382133995036
21
11.6043084491946
31
0.000000000000000
  0
LINE
  5
F100A7
330
F100A8
100
AcDbEntity
8
Geo
100
AcDbLine
10
-43.5382133995036
20
11.6043084491946
30
0.000000000000000
11
-43.4382133995036
21
11.5842928245416
31
0.000000000000000
  0
LINE
  5
F100A9
330
F100AA
100
AcDbEntity
8
Geo
100
AcDbLine
10
-43.4382133995036
20
11.5842928245416
30
0.000000000000000
11
-43.3382133995036
21
11.5636532299785
31
0.000000000000000
  0
LINE
  5
F100AB
330
F100AC
100
AcDbEntity
8
Geo
100
AcDbLine
10
-43.3382133995036
20
11.5636532299785
30
0.000000000000000
11
-43.2382133995036
21
11.5423924174207
31
0.000000000000000
  0
LINE
  5
F100AD
330
F100AE
100
AcDbEntity
8
Geo
100
AcDbLine
10
-43.2382133995036
20
11.5423924174207
30
0.000000000000000
11
-43.1382133995036
21
11.5205132216118
31
0.000000000000000
  0
LINE
  5
F100AF
330
F100B0
100
AcDbEntity
8
Geo
100
AcDbLine
10
-43.1382133995036
20
11.5205132216118
30
0.000000000000000
11
-43.0382133995036
21
11.4980185597453
31
0.000000000000000
  0
LINE
  5
F100B1
330
F100B2
100
AcDbEntity
8
Geo
100
AcDbLine
10
-43.0382133995036
20
11.4980185597453
30
0.000000000000000
11
-42.9382133995036
21
11.4749114310763
31
0.000000000000000
  0
LINE
  5
F100B3
330
F100B4
100
AcDbEntity
8
Geo
100
AcDbLine
10
-42.9382133995036
20
11.4749114310763
30
0.000000000000000
11
-42.8382133995036
21
11.4511949165209
31
0.000000000000000
  0
LINE
  5
F100B5
330
F100B6
100
AcDbEntity
8
Geo
100
AcDbLine
10
-42.8382133995036
20
11.4511949165209
30
0.000000000000000
11
-42.7382133995036
21
11.4268721782461
31
0.000000000000000
  0
LINE
  5
F100B7
330
F100B8
100
AcDbEntity
8
Geo
100
AcDbLine
10
-42.7382133995036
20
11.4268721782461
30
0.000000000000000
11
-42.6382133995036
21
11.4019464592475
31
0.000000000000000
  0
LINE
  5
F100B9
330
F100BA
100
AcDbEntity
8
Geo
100
AcDbLine
10
-42.6382133995036
20
11.4019464592475
30
0.000000000000000
11
-42.5382133995036
21
11.3764210829174
31
0.000000000000000
  0
LINE
  5
F100BB
330
F100BC
100
AcDbEntity
8
Geo
100
AcDbLine
10
-42.5382133995036
20
11.3764210829174
30
0.000000000000000
11
-42.4382133995036
21
11.3502994526014
31
0.000000000000000
  0
LINE
  5
F100BD
330
F100BE
100
AcDbEntity
8
Geo
100
AcDbLine
10
-42.4382133995036
20
11.3502994526014
30
0.000000000000000
11
-42.3382133995036
21
11.3235850511451
31
0.000000000000000
  0
LINE
  5
F100BF
330
F100C0
100
AcDbEntity
8
Geo
100
AcDbLine
10
-42.3382133995036
20
11.3235850511451
30
0.000000000000000
11
-42.2382133995036
21
11.2962814404289
31
0.000000000000000
  0
LINE
  5
F100C1
330
F100C2
100
AcDbEntity
8
Geo
100
AcDbLine
10
-42.2382133995036
20
11.2962814404289
30
0.000000000000000
11
-42.1382133995036
21
11.2683922608938
31
0.000000000000000
  0
LINE
  5
F100C3
330
F100C4
100
AcDbEntity
8
Geo
100
AcDbLine
10
-42.1382133995036
20
11.2683922608938
30
0.000000000000000
11
-42.0382133995036
21
11.2399212310558
31
0.000000000000000
  0
LINE
  5
F100C5
330
F100C6
100
AcDbEntity
8
Geo
100
AcDbLine
10
-42.0382133995036
20
11.2399212310558
30
0.000000000000000
11
-41.9382133995036
21
11.2108721470101
31
0.000000000000000
  0
LINE
  5
F100C7
330
F100C8
100
AcDbEntity
8
Geo
100
AcDbLine
10
-41.9382133995036
20
11.2108721470101
30
0.000000000000000
11
-41.8382133995036
21
11.1812488819247
31
0.000000000000000
  0
LINE
  5
F100C9
330
F100CA
100
AcDbEntity
8
Geo
100
AcDbLine
10
-41.8382133995036
20
11.1812488819247
30
0.000000000000000
11
-41.7382133995036
21
11.1510553855245
31
0.000000000000000
  0
LINE
  5
F100CB
330
F100CC
100
AcDbEntity
8
Geo
100
AcDbLine
10
-41.7382133995036
20
11.1510553855245
30
0.000000000000000
11
-41.6382133995036
21
11.1202956835643
31
0.000000000000000
  0
LINE
  5
F100CD
330
F100CE
100
AcDbEntity
8
Geo
100
AcDbLine
10
-41.6382133995036
20
11.1202956835643
30
0.000000000000000
11
-41.5382133995036
21
11.0889738772921
31
0.000000000000000
  0
LINE
  5
F100CF
330
F100D0
100
AcDbEntity
8
Geo
100
AcDbLine
10
-41.5382133995036
20
11.0889738772921
30
0.000000000000000
11
-41.4382133995036
21
11.0570941429024
31
0.000000000000000
  0
LINE
  5
F100D1
330
F100D2
100
AcDbEntity
8
Geo
100
AcDbLine
10
-41.4382133995036
20
11.0570941429024
30
0.000000000000000
11
-41.3382133995036
21
11.0246607309791
31
0.000000000000000
  0
LINE
  5
F100D3
330
F100D4
100
AcDbEntity
8
Geo
100
AcDbLine
10
-41.3382133995036
20
11.0246607309791
30
0.000000000000000
11
-41.2382133995036
21
10.9916779659291
31
0.000000000000000
  0
LINE
  5
F100D5
330
F100D6
100
AcDbEntity
8
Geo
100
AcDbLine
10
-41.2382133995036
20
10.9916779659291
30
0.000000000000000
11
-41.1382133995036
21
10.9581502454056
31
0.000000000000000
  0
LINE
  5
F100D7
330
F100D8
100
AcDbEntity
8
Geo
100
AcDbLine
10
-41.1382133995036
20
10.9581502454056
30
0.000000000000000
11
-41.0382133995036
21
10.9240820397217
31
0.000000000000000
  0
LINE
  5
F100D9
330
F100DA
100
AcDbEntity
8
Geo
100
AcDbLine
10
-41.0382133995036
20
10.9240820397217
30
0.000000000000000
11
-40.9382133995036
21
10.8894778912542
31
0.000000000000000
  0
LINE
  5
F100DB
330
F100DC
100
AcDbEntity
8
Geo
100
AcDbLine
10
-40.9382133995036
20
10.8894778912542
30
0.000000000000000
11
-40.8382133995036
21
10.8543424138385
31
0.000000000000000
  0
LINE
  5
F100DD
330
F100DE
100
AcDbEntity
8
Geo
100
AcDbLine
10
-40.8382133995036
20
10.8543424138385
30
0.000000000000000
11
-40.7382133995036
21
10.8186802921527
31
0.000000000000000
  0
LINE
  5
F100DF
330
F100E0
100
AcDbEntity
8
Geo
100
AcDbLine
10
-40.7382133995036
20
10.8186802921527
30
0.000000000000000
11
-40.6382133995036
21
10.7824962810936
31
0.000000000000000
  0
LINE
  5
F100E1
330
F100E2
100
AcDbEntity
8
Geo
100
AcDbLine
10
-40.6382133995036
20
10.7824962810936
30
0.000000000000000
11
-40.5382133995036
21
10.7457952051423
31
0.000000000000000
  0
LINE
  5
F100E3
330
F100E4
100
AcDbEntity
8
Geo
100
AcDbLine
10
-40.5382133995036
20
10.7457952051423
30
0.000000000000000
11
-40.4382133995036
21
10.7085819577214
31
0.000000000000000
  0
LINE
  5
F100E5
330
F100E6
100
AcDbEntity
8
Geo
100
AcDbLine
10
-40.4382133995036
20
10.7085819577214
30
0.000000000000000
11
-40.3382133995036
21
10.6708615005420
31
0.000000000000000
  0
LINE
  5
F100E7
330
F100E8
100
AcDbEntity
8
Geo
100
AcDbLine
10
-40.3382133995036
20
10.6708615005420
30
0.000000000000000
11
-40.2382133995036
21
10.6326388629425
31
0.000000000000000
  0
LINE
  5
F100E9
330
F100EA
100
AcDbEntity
8
Geo
100
AcDbLine
10
-40.2382133995036
20
10.6326388629425
30
0.000000000000000
11
-40.1382133995036
21
10.5939191412180
31
0.000000000000000
  0
LINE
  5
F100EB
330
F100EC
100
AcDbEntity
8
Geo
100
AcDbLine
10
-40.1382133995036
20
10.5939191412180
30
0.000000000000000
11
-40.0382133995036
21
10.5547074979406
31
0.000000000000000
  0
LINE
  5
F100ED
330
F100EE
100
AcDbEntity
8
Geo
100
AcDbLine
10
-40.0382133995036
20
10.5547074979406
30
0.000000000000000
11
-39.9382133995036
21
10.5150091612715
31
0.000000000000000
  0
LINE
  5
F100EF
330
F100F0
100
AcDbEntity
8
Geo
100
AcDbLine
10
-39.9382133995036
20
10.5150091612715
30
0.000000000000000
11
-39.8382133995036
21
10.4748294242632
31
0.000000000000000
  0
LINE
  5
F100F1
330
F100F2
100
AcDbEntity
8
Geo
100
AcDbLine
10
-39.8382133995036
20
10.4748294242632
30
0.000000000000000
11
-39.7382133995036
21
10.4341736441546
31
0.000000000000000
  0
LINE
  5
F100F3
330
F100F4
100
AcDbEntity
8
Geo
100
AcDbLine
10
-39.7382133995036
20
10.4341736441546
30
0.000000000000000
11
-39.6382133995036
21
10.3930472416562
31
0.000000000000000
  0
LINE
  5
F100F5
330
F100F6
100
AcDbEntity
8
Geo
100
AcDbLine
10
-39.6382133995036
20
10.3930472416562
30
0.000000000000000
11
-39.5382133995036
21
10.3514557002272
31
0.000000000000000
  0
LINE
  5
F100F7
330
F100F8
100
AcDbEntity
8
Geo
100
AcDbLine
10
-39.5382133995036
20
10.3514557002272
30
0.000000000000000
11
-39.4382133995036
21
10.3094045653450
31
0.000000000000000
  0
LINE
  5
F100F9
330
F100FA
100
AcDbEntity
8
Geo
100
AcDbLine
10
-39.4382133995036
20
10.3094045653450
30
0.000000000000000
11
-39.3382133995036
21
10.2668994437653
31
0.000000000000000
  0
LINE
  5
F100FB
330
F100FC
100
AcDbEntity
8
Geo
100
AcDbLine
10
-39.3382133995036
20
10.2668994437653
30
0.000000000000000
11
-39.2382133995036
21
10.2239460027746
31
0.000000000000000
  0
LINE
  5
F100FD
330
F100FE
100
AcDbEntity
8
Geo
100
AcDbLine
10
-39.2382133995036
20
10.2239460027746
30
0.000000000000000
11
-39.1382133995036
21
10.1805499694347
31
0.000000000000000
  0
LINE
  5
F100FF
330
F10100
100
AcDbEntity
8
Geo
100
AcDbLine
10
-39.1382133995036
20
10.1805499694347
30
0.000000000000000
11
-39.0382133995036
21
10.1367171298192
31
0.000000000000000
  0
LINE
  5
F10101
330
F10102
100
AcDbEntity
8
Geo
100
AcDbLine
10
-39.0382133995036
20
10.1367171298192
30
0.000000000000000
11
-38.9382133995036
21
10.0924533282417
31
0.000000000000000
  0
LINE
  5
F10103
330
F10104
100
AcDbEntity
8
Geo
100
AcDbLine
10
-38.9382133995036
20
10.0924533282417
30
0.000000000000000
11
-38.8382133995036
21
10.0477644664769
31
0.000000000000000
  0
LINE
  5
F10105
330
F10106
100
AcDbEntity
8
Geo
100
AcDbLine
10
-38.8382133995036
20
10.0477644664769
30
0.000000000000000
11
-38.7382133995036
21
10.0026565029734
31
0.000000000000000
  0
LINE
  5
F10107
330
F10108
100
AcDbEntity
8
Geo
100
AcDbLine
10
-38.7382133995036
20
10.0026565029734
30
0.000000000000000
11
-38.6382133995035
21
9.95713545205960
31
0.000000000000000
  0
LINE
  5
F10109
330
F1010A
100
AcDbEntity
8
Geo
100
AcDbLine
10
-38.6382133995035
20
9.95713545205960
30
0.000000000000000
11
-38.5382133995035
21
9.91120738314145
31
0.000000000000000
  0
LINE
  5
F1010B
330
F1010C
100
AcDbEntity
8
Geo
100
AcDbLine
10
-38.5382133995035
20
9.91120738314145
30
0.000000000000000
11
-38.4382133995035
21
9.86487841989346
31
0.000000000000000
  0
LINE
  5
F1010D
330
F1010E
100
AcDbEntity
8
Geo
100
AcDbLine
10
-38.4382133995035
20
9.86487841989346
30
0.000000000000000
11
-38.3382133995035
21
9.81815473944209
31
0.000000000000000
  0
LINE
  5
F1010F
330
F10110
100
AcDbEntity
8
Geo
100
AcDbLine
10
-38.3382133995035
20
9.81815473944209
30
0.000000000000000
11
-38.2382133995035
21
9.77104257154219
31
0.000000000000000
  0
LINE
  5
F10111
330
F10112
100
AcDbEntity
8
Geo
100
AcDbLine
10
-38.2382133995035
20
9.77104257154219
30
0.000000000000000
11
-38.1382133995035
21
9.72354819774634
31
0.000000000000000
  0
LINE
  5
F10113
330
F10114
100
AcDbEntity
8
Geo
100
AcDbLine
10
-38.1382133995035
20
9.72354819774634
30
0.000000000000000
11
-38.0382133995035
21
9.67567795056735
31
0.000000000000000
  0
LINE
  5
F10115
330
F10116
100
AcDbEntity
8
Geo
100
AcDbLine
10
-38.0382133995035
20
9.67567795056735
30
0.000000000000000
11
-37.9382133995035
21
9.62743821263394
31
0.000000000000000
  0
LINE
  5
F10117
330
F10118
100
AcDbEntity
8
Geo
100
AcDbLine
10
-37.9382133995035
20
9.62743821263394
30
0.000000000000000
11
-37.8382133995035
21
9.57883541583968
31
0.000000000000000
  0
LINE
  5
F10119
330
F1011A
100
AcDbEntity
8
Geo
100
AcDbLine
10
-37.8382133995035
20
9.57883541583968
30
0.000000000000000
11
-37.7382133995035
21
9.52987604048549
31
0.000000000000000
  0
LINE
  5
F1011B
330
F1011C
100
AcDbEntity
8
Geo
100
AcDbLine
10
-37.7382133995035
20
9.52987604048549
30
0.000000000000000
11
-37.6382133995035
21
9.48056661441555
31
0.000000000000000
  0
LINE
  5
F1011D
330
F1011E
100
AcDbEntity
8
Geo
100
AcDbLine
10
-37.6382133995035
20
9.48056661441555
30
0.000000000000000
11
-37.5382133995035
21
9.43091371214694
31
0.000000000000000
  0
LINE
  5
F1011F
330
F10120
100
AcDbEntity
8
Geo
100
AcDbLine
10
-37.5382133995035
20
9.43091371214694
30
0.000000000000000
11
-37.4382133995035
21
9.38092395399308
31
0.000000000000000
  0
LINE
  5
F10121
330
F10122
100
AcDbEntity
8
Geo
100
AcDbLine
10
-37.4382133995035
20
9.38092395399308
30
0.000000000000000
11
-37.3382133995035
21
9.33060400518099
31
0.000000000000000
  0
LINE
  5
F10123
330
F10124
100
AcDbEntity
8
Geo
100
AcDbLine
10
-37.3382133995035
20
9.33060400518099
30
0.000000000000000
11
-37.2382133995035
21
9.27996057496265
31
0.000000000000000
  0
LINE
  5
F10125
330
F10126
100
AcDbEntity
8
Geo
100
AcDbLine
10
-37.2382133995035
20
9.27996057496265
30
0.000000000000000
11
-37.1382133995035
21
9.22900041572037
31
0.000000000000000
  0
LINE
  5
F10127
330
F10128
100
AcDbEntity
8
Geo
100
AcDbLine
10
-37.1382133995035
20
9.22900041572037
30
0.000000000000000
11
-37.0382133995035
21
9.17773032206657
31
0.000000000000000
  0
LINE
  5
F10129
330
F1012A
100
AcDbEntity
8
Geo
100
AcDbLine
10
-37.0382133995035
20
9.17773032206657
30
0.000000000000000
11
-36.9382133995035
21
9.12615712993777
31
0.000000000000000
  0
LINE
  5
F1012B
330
F1012C
100
AcDbEntity
8
Geo
100
AcDbLine
10
-36.9382133995035
20
9.12615712993777
30
0.000000000000000
11
-36.8382133995035
21
9.07428771568320
31
0.000000000000000
  0
LINE
  5
F1012D
330
F1012E
100
AcDbEntity
8
Geo
100
AcDbLine
10
-36.8382133995035
20
9.07428771568320
30
0.000000000000000
11
-36.7382133995035
21
9.02212899514790
31
0.000000000000000
  0
LINE
  5
F1012F
330
F10130
100
AcDbEntity
8
Geo
100
AcDbLine
10
-36.7382133995035
20
9.02212899514790
30
0.000000000000000
11
-36.6382133995035
21
8.96968792275068
31
0.000000000000000
  0
LINE
  5
F10131
330
F10132
100
AcDbEntity
8
Geo
100
AcDbLine
10
-36.6382133995035
20
8.96968792275068
30
0.000000000000000
11
-36.5382133995035
21
8.91697149055683
31
0.000000000000000
  0
LINE
  5
F10133
330
F10134
100
AcDbEntity
8
Geo
100
AcDbLine
10
-36.5382133995035
20
8.91697149055683
30
0.000000000000000
11
-36.4382133995035
21
8.86398672734588
31
0.000000000000000
  0
LINE
  5
F10135
330
F10136
100
AcDbEntity
8
Geo
100
AcDbLine
10
-36.4382133995035
20
8.86398672734588
30
0.000000000000000
11
-36.3382133995035
21
8.81074069767443
31
0.000000000000000
  0
LINE
  5
F10137
330
F10138
100
AcDbEntity
8
Geo
100
AcDbLine
10
-36.3382133995035
20
8.81074069767443
30
0.000000000000000
11
-36.2382133995035
21
8.75724050093422
31
0.000000000000000
  0
LINE
  5
F10139
330
F1013A
100
AcDbEntity
8
Geo
100
AcDbLine
10
-36.2382133995035
20
8.75724050093422
30
0.000000000000000
11
-36.1382133995035
21
8.70349327040555
31
0.000000000000000
  0
LINE
  5
F1013B
330
F1013C
100
AcDbEntity
8
Geo
100
AcDbLine
10
-36.1382133995035
20
8.70349327040555
30
0.000000000000000
11
-36.0382133995035
21
8.64950617230621
31
0.000000000000000
  0
LINE
  5
F1013D
330
F1013E
100
AcDbEntity
8
Geo
100
AcDbLine
10
-36.0382133995035
20
8.64950617230621
30
0.000000000000000
11
-35.9382133995035
21
8.59528640483596
31
0.000000000000000
  0
LINE
  5
F1013F
330
F10140
100
AcDbEntity
8
Geo
100
AcDbLine
10
-35.9382133995035
20
8.59528640483596
30
0.000000000000000
11
-35.8382133995035
21
8.54084119721681
31
0.000000000000000
  0
LINE
  5
F10141
330
F10142
100
AcDbEntity
8
Geo
100
AcDbLine
10
-35.8382133995035
20
8.54084119721681
30
0.000000000000000
11
-35.7382133995035
21
8.48617780872910
31
0.000000000000000
  0
LINE
  5
F10143
330
F10144
100
AcDbEntity
8
Geo
100
AcDbLine
10
-35.7382133995035
20
8.48617780872910
30
0.000000000000000
11
-35.6382133995035
21
8.43130352774366
31
0.000000000000000
  0
LINE
  5
F10145
330
F10146
100
AcDbEntity
8
Geo
100
AcDbLine
10
-35.6382133995035
20
8.43130352774366
30
0.000000000000000
11
-35.5382133995035
21
8.37622567074999
31
0.000000000000000
  0
LINE
  5
F10147
330
F10148
100
AcDbEntity
8
Geo
100
AcDbLine
10
-35.5382133995035
20
8.37622567074999
30
0.000000000000000
11
-35.4382133995035
21
8.32095158138077
31
0.000000000000000
  0
LINE
  5
F10149
330
F1014A
100
AcDbEntity
8
Geo
100
AcDbLine
10
-35.4382133995035
20
8.32095158138077
30
0.000000000000000
11
-35.3382133995035
21
8.26548862943267
31
0.000000000000000
  0
LINE
  5
F1014B
330
F1014C
100
AcDbEntity
8
Geo
100
AcDbLine
10
-35.3382133995035
20
8.26548862943267
30
0.000000000000000
11
-35.2382133995035
21
8.20984420988381
31
0.000000000000000
  0
LINE
  5
F1014D
330
F1014E
100
AcDbEntity
8
Geo
100
AcDbLine
10
-35.2382133995035
20
8.20984420988381
30
0.000000000000000
11
-35.1382133995035
21
8.15402574190767
31
0.000000000000000
  0
LINE
  5
F1014F
330
F10150
100
AcDbEntity
8
Geo
100
AcDbLine
10
-35.1382133995035
20
8.15402574190767
30
0.000000000000000
11
-35.0382133995035
21
8.09804066788398
31
0.000000000000000
  0
LINE
  5
F10151
330
F10152
100
AcDbEntity
8
Geo
100
AcDbLine
10
-35.0382133995035
20
8.09804066788398
30
0.000000000000000
11
-34.9382133995035
21
8.04189645240631
31
0.000000000000000
  0
LINE
  5
F10153
330
F10154
100
AcDbEntity
8
Geo
100
AcDbLine
10
-34.9382133995035
20
8.04189645240631
30
0.000000000000000
11
-34.8382133995035
21
7.98560058128690
31
0.000000000000000
  0
LINE
  5
F10155
330
F10156
100
AcDbEntity
8
Geo
100
AcDbLine
10
-34.8382133995035
20
7.98560058128690
30
0.000000000000000
11
-34.7382133995035
21
7.92916056055848
31
0.000000000000000
  0
LINE
  5
F10157
330
F10158
100
AcDbEntity
8
Geo
100
AcDbLine
10
-34.7382133995035
20
7.92916056055848
30
0.000000000000000
11
-34.6382133995035
21
7.87258391547355
31
0.000000000000000
  0
LINE
  5
F10159
330
F1015A
100
AcDbEntity
8
Geo
100
AcDbLine
10
-34.6382133995035
20
7.87258391547355
30
0.000000000000000
11
-34.5382133995035
21
7.81587818950096
31
0.000000000000000
  0
LINE
  5
F1015B
330
F1015C
100
AcDbEntity
8
Geo
100
AcDbLine
10
-34.5382133995035
20
7.81587818950096
30
0.000000000000000
11
-34.4382133995035
21
7.75905094332017
31
0.000000000000000
  0
LINE
  5
F1015D
330
F1015E
100
AcDbEntity
8
Geo
100
AcDbLine
10
-34.4382133995035
20
7.75905094332017
30
0.000000000000000
11
-34.3382133995035
21
7.70210975381315
31
0.000000000000000
  0
LINE
  5
F1015F
330
F10160
100
AcDbEntity
8
Geo
100
AcDbLine
10
-34.3382133995035
20
7.70210975381315
30
0.000000000000000
11
-34.2382133995035
21
7.64506221305414
31
0.000000000000000
  0
LINE
  5
F10161
330
F10162
100
AcDbEntity
8
Geo
100
AcDbLine
10
-34.2382133995035
20
7.64506221305414
30
0.000000000000000
11
-34.1382133995035
21
7.58791592729740
31
0.000000000000000
  0
LINE
  5
F10163
330
F10164
100
AcDbEntity
8
Geo
100
AcDbLine
10
-34.1382133995035
20
7.58791592729740
30
0.000000000000000
11
-34.0382133995035
21
7.53067851596303
31
0.000000000000000
  0
LINE
  5
F10165
330
F10166
100
AcDbEntity
8
Geo
100
AcDbLine
10
-34.0382133995035
20
7.53067851596303
30
0.000000000000000
11
-33.9382133995035
21
7.47335761062108
31
0.000000000000000
  0
LINE
  5
F10167
330
F10168
100
AcDbEntity
8
Geo
100
AcDbLine
10
-33.9382133995035
20
7.47335761062108
30
0.000000000000000
11
-33.8382133995035
21
7.41596085397400
31
0.000000000000000
  0
LINE
  5
F10169
330
F1016A
100
AcDbEntity
8
Geo
100
AcDbLine
10
-33.8382133995035
20
7.41596085397400
30
0.000000000000000
11
-33.7382133995035
21
7.35849589883767
31
0.000000000000000
  0
LINE
  5
F1016B
330
F1016C
100
AcDbEntity
8
Geo
100
AcDbLine
10
-33.7382133995035
20
7.35849589883767
30
0.000000000000000
11
-33.6382133995035
21
7.30097040712096
31
0.000000000000000
  0
LINE
  5
F1016D
330
F1016E
100
AcDbEntity
8
Geo
100
AcDbLine
10
-33.6382133995035
20
7.30097040712096
30
0.000000000000000
11
-33.5382133995035
21
7.24339204880420
31
0.000000000000000
  0
LINE
  5
F1016F
330
F10170
100
AcDbEntity
8
Geo
100
AcDbLine
10
-33.5382133995035
20
7.24339204880420
30
0.000000000000000
11
-33.4382133995035
21
7.18576850091655
31
0.000000000000000
  0
LINE
  5
F10171
330
F10172
100
AcDbEntity
8
Geo
100
AcDbLine
10
-33.4382133995035
20
7.18576850091655
30
0.000000000000000
11
-33.3382133995035
21
7.12810744651235
31
0.000000000000000
  0
LINE
  5
F10173
330
F10174
100
AcDbEntity
8
Geo
100
AcDbLine
10
-33.3382133995035
20
7.12810744651235
30
0.000000000000000
11
-33.2382133995035
21
7.07041657364676
31
0.000000000000000
  0
LINE
  5
F10175
330
F10176
100
AcDbEntity
8
Geo
100
AcDbLine
10
-33.2382133995035
20
7.07041657364676
30
0.000000000000000
11
-33.1382133995035
21
7.01270357435070
31
0.000000000000000
  0
LINE
  5
F10177
330
F10178
100
AcDbEntity
8
Geo
100
AcDbLine
10
-33.1382133995035
20
7.01270357435070
30
0.000000000000000
11
-33.0382133995035
21
6.95497614360525
31
0.000000000000000
  0
LINE
  5
F10179
330
F1017A
100
AcDbEntity
8
Geo
100
AcDbLine
10
-33.0382133995035
20
6.95497614360525
30
0.000000000000000
11
-32.9382133995035
21
6.89724197831564
31
0.000000000000000
  0
LINE
  5
F1017B
330
F1017C
100
AcDbEntity
8
Geo
100
AcDbLine
10
-32.9382133995035
20
6.89724197831564
30
0.000000000000000
11
-32.8382133995035
21
6.83950877628506
31
0.000000000000000
  0
LINE
  5
F1017D
330
F1017E
100
AcDbEntity
8
Geo
100
AcDbLine
10
-32.8382133995035
20
6.83950877628506
30
0.000000000000000
11
-32.7382133995035
21
6.78178423518823
31
0.000000000000000
  0
LINE
  5
F1017F
330
F10180
100
AcDbEntity
8
Geo
100
AcDbLine
10
-32.7382133995035
20
6.78178423518823
30
0.000000000000000
11
-32.6382133995035
21
6.72407605154513
31
0.000000000000000
  0
LINE
  5
F10181
330
F10182
100
AcDbEntity
8
Geo
100
AcDbLine
10
-32.6382133995035
20
6.72407605154513
30
0.000000000000000
11
-32.5382133995035
21
6.66639191969474
31
0.000000000000000
  0
LINE
  5
F10183
330
F10184
100
AcDbEntity
8
Geo
100
AcDbLine
10
-32.5382133995035
20
6.66639191969474
30
0.000000000000000
11
-32.4382133995035
21
6.60873953076919
31
0.000000000000000
  0
LINE
  5
F10185
330
F10186
100
AcDbEntity
8
Geo
100
AcDbLine
10
-32.4382133995035
20
6.60873953076919
30
0.000000000000000
11
-32.3382133995035
21
6.55112657166827
31
0.000000000000000
  0
LINE
  5
F10187
330
F10188
100
AcDbEntity
8
Geo
100
AcDbLine
10
-32.3382133995035
20
6.55112657166827
30
0.000000000000000
11
-32.2382133995035
21
6.49356072403448
31
0.000000000000000
  0
LINE
  5
F10189
330
F1018A
100
AcDbEntity
8
Geo
100
AcDbLine
10
-32.2382133995035
20
6.49356072403448
30
0.000000000000000
11
-32.1382133995035
21
6.43604966322891
31
0.000000000000000
  0
LINE
  5
F1018B
330
F1018C
100
AcDbEntity
8
Geo
100
AcDbLine
10
-32.1382133995035
20
6.43604966322891
30
0.000000000000000
11
-32.0382133995035
21
6.37860105730779
31
0.000000000000000
  0
LINE
  5
F1018D
330
F1018E
100
AcDbEntity
8
Geo
100
AcDbLine
10
-32.0382133995035
20
6.37860105730779
30
0.000000000000000
11
-31.9382133995035
21
6.32122256600014
31
0.000000000000000
  0
LINE
  5
F1018F
330
F10190
100
AcDbEntity
8
Geo
100
AcDbLine
10
-31.9382133995035
20
6.32122256600014
30
0.000000000000000
11
-31.8382133995035
21
6.26392183968646
31
0.000000000000000
  0
LINE
  5
F10191
330
F10192
100
AcDbEntity
8
Geo
100
AcDbLine
10
-31.8382133995035
20
6.26392183968646
30
0.000000000000000
11
-31.7382133995035
21
6.20670651837870
31
0.000000000000000
  0
LINE
  5
F10193
330
F10194
100
AcDbEntity
8
Geo
100
AcDbLine
10
-31.7382133995035
20
6.20670651837870
30
0.000000000000000
11
-31.6382133995034
21
6.14958423070161
31
0.000000000000000
  0
LINE
  5
F10195
330
F10196
100
AcDbEntity
8
Geo
100
AcDbLine
10
-31.6382133995034
20
6.14958423070161
30
0.000000000000000
11
-31.5382133995034
21
6.09256259287559
31
0.000000000000000
  0
LINE
  5
F10197
330
F10198
100
AcDbEntity
8
Geo
100
AcDbLine
10
-31.5382133995034
20
6.09256259287559
30
0.000000000000000
11
-31.4382133995034
21
6.03564920770120
31
0.000000000000000
  0
LINE
  5
F10199
330
F1019A
100
AcDbEntity
8
Geo
100
AcDbLine
10
-31.4382133995034
20
6.03564920770120
30
0.000000000000000
11
-31.3382133995034
21
5.97885166354549
31
0.000000000000000
  0
LINE
  5
F1019B
330
F1019C
100
AcDbEntity
8
Geo
100
AcDbLine
10
-31.3382133995034
20
5.97885166354549
30
0.000000000000000
11
-31.2382133995034
21
5.92217753333019
31
0.000000000000000
  0
LINE
  5
F1019D
330
F1019E
100
AcDbEntity
8
Geo
100
AcDbLine
10
-31.2382133995034
20
5.92217753333019
30
0.000000000000000
11
-31.1382133995034
21
5.86563437352204
31
0.000000000000000
  0
LINE
  5
F1019F
330
F101A0
100
AcDbEntity
8
Geo
100
AcDbLine
10
-31.1382133995034
20
5.86563437352204
30
0.000000000000000
11
-31.0382133995034
21
5.80922972312526
31
0.000000000000000
  0
LINE
  5
F101A1
330
F101A2
100
AcDbEntity
8
Geo
100
AcDbLine
10
-31.0382133995034
20
5.80922972312526
30
0.000000000000000
11
-30.9382133995034
21
5.75297110267632
31
0.000000000000000
  0
LINE
  5
F101A3
330
F101A4
100
AcDbEntity
8
Geo
100
AcDbLine
10
-30.9382133995034
20
5.75297110267632
30
0.000000000000000
11
-30.8382133995034
21
5.69686601324128
31
0.000000000000000
  0
LINE
  5
F101A5
330
F101A6
100
AcDbEntity
8
Geo
100
AcDbLine
10
-30.8382133995034
20
5.69686601324128
30
0.000000000000000
11
-30.7382133995034
21
5.64092193541561
31
0.000000000000000
  0
LINE
  5
F101A7
330
F101A8
100
AcDbEntity
8
Geo
100
AcDbLine
10
-30.7382133995034
20
5.64092193541561
30
0.000000000000000
11
-30.6382133995034
21
5.58514632832681
31
0.000000000000000
  0
LINE
  5
F101A9
330
F101AA
100
AcDbEntity
8
Geo
100
AcDbLine
10
-30.6382133995034
20
5.58514632832681
30
0.000000000000000
11
-30.5382133995034
21
5.52954662863985
31
0.000000000000000
  0
LINE
  5
F101AB
330
F101AC
100
AcDbEntity
8
Geo
100
AcDbLine
10
-30.5382133995034
20
5.52954662863985
30
0.000000000000000
11
-30.4382133995034
21
5.47413024956567
31
0.000000000000000
  0
LINE
  5
F101AD
330
F101AE
100
AcDbEntity
8
Geo
100
AcDbLine
10
-30.4382133995034
20
5.47413024956567
30
0.000000000000000
11
-30.3382133995034
21
5.41890457987270
31
0.000000000000000
  0
LINE
  5
F101AF
330
F101B0
100
AcDbEntity
8
Geo
100
AcDbLine
10
-30.3382133995034
20
5.41890457987270
30
0.000000000000000
11
-30.2382133995034
21
5.36387698290176
31
0.000000000000000
  0
LINE
  5
F101B1
330
F101B2
100
AcDbEntity
8
Geo
100
AcDbLine
10
-30.2382133995034
20
5.36387698290176
30
0.000000000000000
11
-30.1382133995034
21
5.30905479558425
31
0.000000000000000
  0
LINE
  5
F101B3
330
F101B4
100
AcDbEntity
8
Geo
100
AcDbLine
10
-30.1382133995034
20
5.30905479558425
30
0.000000000000000
11
-30.0382133995034
21
5.25444532746394
31
0.000000000000000
  0
LINE
  5
F101B5
330
F101B6
100
AcDbEntity
8
Geo
100
AcDbLine
10
-30.0382133995034
20
5.25444532746394
30
0.000000000000000
11
-29.9382133995034
21
5.20005585972233
31
0.000000000000000
  0
LINE
  5
F101B7
330
F101B8
100
AcDbEntity
8
Geo
100
AcDbLine
10
-29.9382133995034
20
5.20005585972233
30
0.000000000000000
11
-29.8382133995034
21
5.14589364420788
31
0.000000000000000
  0
LINE
  5
F101B9
330
F101BA
100
AcDbEntity
8
Geo
100
AcDbLine
10
-29.8382133995034
20
5.14589364420788
30
0.000000000000000
11
-29.7382133995034
21
5.09196590246909
31
0.000000000000000
  0
LINE
  5
F101BB
330
F101BC
100
AcDbEntity
8
Geo
100
AcDbLine
10
-29.7382133995034
20
5.09196590246909
30
0.000000000000000
11
-29.6382133995034
21
5.03827982479162
31
0.000000000000000
  0
LINE
  5
F101BD
330
F101BE
100
AcDbEntity
8
Geo
100
AcDbLine
10
-29.6382133995034
20
5.03827982479162
30
0.000000000000000
11
-29.5382133995034
21
4.98484256923964
31
0.000000000000000
  0
LINE
  5
F101BF
330
F101C0
100
AcDbEntity
8
Geo
100
AcDbLine
10
-29.5382133995034
20
4.98484256923964
30
0.000000000000000
11
-29.4382133995034
21
4.93166126070139
31
0.000000000000000
  0
LINE
  5
F101C1
330
F101C2
100
AcDbEntity
8
Geo
100
AcDbLine
10
-29.4382133995034
20
4.93166126070139
30
0.000000000000000
11
-29.3382133995034
21
4.87874298993921
31
0.000000000000000
  0
LINE
  5
F101C3
330
F101C4
100
AcDbEntity
8
Geo
100
AcDbLine
10
-29.3382133995034
20
4.87874298993921
30
0.000000000000000
11
-29.2382133995034
21
4.82609481264415
31
0.000000000000000
  0
LINE
  5
F101C5
330
F101C6
100
AcDbEntity
8
Geo
100
AcDbLine
10
-29.2382133995034
20
4.82609481264415
30
0.000000000000000
11
-29.1382133995034
21
4.77372374849518
31
0.000000000000000
  0
LINE
  5
F101C7
330
F101C8
100
AcDbEntity
8
Geo
100
AcDbLine
10
-29.1382133995034
20
4.77372374849518
30
0.000000000000000
11
-29.0382133995034
21
4.72163678022326
31
0.000000000000000
  0
LINE
  5
F101C9
330
F101CA
100
AcDbEntity
8
Geo
100
AcDbLine
10
-29.0382133995034
20
4.72163678022326
30
0.000000000000000
11
-28.9382133995034
21
4.66984085268035
31
0.000000000000000
  0
LINE
  5
F101CB
330
F101CC
100
AcDbEntity
8
Geo
100
AcDbLine
10
-28.9382133995034
20
4.66984085268035
30
0.000000000000000
11
-28.8382133995034
21
4.61834287191336
31
0.000000000000000
  0
LINE
  5
F101CD
330
F101CE
100
AcDbEntity
8
Geo
100
AcDbLine
10
-28.8382133995034
20
4.61834287191336
30
0.000000000000000
11
-28.7382133995037
21
4.56714970424361
31
0.000000000000000
  0
LINE
  5
F101CF
330
F101D0
100
AcDbEntity
8
Geo
100
AcDbLine
10
-28.7382133995037
20
4.56714970424361
30
0.000000000000000
11
-28.6382133995037
21
4.41913393794144
31
0.000000000000000
  0
LINE
  5
F101D1
330
F101D2
100
AcDbEntity
8
Geo
100
AcDbLine
10
-28.6382133995037
20
4.41913393794144
30
0.000000000000000
11
-28.5382133995037
21
4.23276932031566
31
0.000000000000000
  0
LINE
  5
F101D3
330
F101D4
100
AcDbEntity
8
Geo
100
AcDbLine
10
-28.5382133995037
20
4.23276932031566
30
0.000000000000000
11
-28.4382133995037
21
4.01192024222527
31
0.000000000000000
  0
LINE
  5
F101D5
330
F101D6
100
AcDbEntity
8
Geo
100
AcDbLine
10
-28.4382133995037
20
4.01192024222527
30
0.000000000000000
11
-28.3382133995037
21
3.76152870176117
31
0.000000000000000
  0
LINE
  5
F101D7
330
F101D8
100
AcDbEntity
8
Geo
100
AcDbLine
10
-28.3382133995037
20
3.76152870176117
30
0.000000000000000
11
-28.2382133995037
21
3.48811140723879
31
0.000000000000000
  0
LINE
  5
F101D9
330
F101DA
100
AcDbEntity
8
Geo
100
AcDbLine
10
-28.2382133995037
20
3.48811140723879
30
0.000000000000000
11
-28.1382133995037
21
3.20002907171110
31
0.000000000000000
  0
LINE
  5
F101DB
330
F101DC
100
AcDbEntity
8
Geo
100
AcDbLine
10
-28.1382133995037
20
3.20002907171110
30
0.000000000000000
11
-28.0382133995037
21
2.90773427870574
31
0.000000000000000
  0
LINE
  5
F101DD
330
F101DE
100
AcDbEntity
8
Geo
100
AcDbLine
10
-28.0382133995037
20
2.90773427870574
30
0.000000000000000
11
-27.9382133995037
21
2.62396250028328
31
0.000000000000000
  0
LINE
  5
F101DF
330
F101E0
100
AcDbEntity
8
Geo
100
AcDbLine
10
-27.9382133995037
20
2.62396250028328
30
0.000000000000000
11
-27.8382133995037
21
2.36382234316066
31
0.000000000000000
  0
LINE
  5
F101E1
330
F101E2
100
AcDbEntity
8
Geo
100
AcDbLine
10
-27.8382133995037
20
2.36382234316066
30
0.000000000000000
11
-27.7382133995037
21
2.14473306401982
31
0.000000000000000
  0
LINE
  5
F101E3
330
F101E4
100
AcDbEntity
8
Geo
100
AcDbLine
10
-27.7382133995037
20
2.14473306401982
30
0.000000000000000
11
-27.6382133995037
21
1.98615118681717
31
0.000000000000000
  0
LINE
  5
F101E5
330
F101E6
100
AcDbEntity
8
Geo
100
AcDbLine
10
-27.6382133995037
20
1.98615118681717
30
0.000000000000000
11
-27.5382133995037
21
1.90902551300477
31
0.000000000000000
  0
LINE
  5
F101E7
330
F101E8
100
AcDbEntity
8
Geo
100
AcDbLine
10
-27.5382133995037
20
1.90902551300477
30
0.000000000000000
11
-27.4382133995037
21
1.90496650124070
31
0.000000000000000
  0
LINE
  5
F101E9
330
F101EA
100
AcDbEntity
8
Geo
100
AcDbLine
10
-70.7382133995037
20
11.4044665012407
30
0.000000000000000
11
-70.6382133995037
21
11.7041465047962
31
0.000000000000000
  0
LINE
  5
F101EB
330
F101EC
100
AcDbEntity
8
Geo
100
AcDbLine
10
-70.6382133995037
20
11.7041465047962
30
0.000000000000000
11
-70.5382133995037
21
11.8031598926471
31
0.000000000000000
  0
LINE
  5
F101ED
330
F101EE
100
AcDbEntity
8
Geo
100
AcDbLine
10
-70.5382133995037
20
11.8031598926471
30
0.000000000000000
11
-70.4382133995037
21
11.8597494136781
31
0.000000000000000
  0
LINE
  5
F101EF
330
F101F0
100
AcDbEntity
8
Geo
100
AcDbLine
10
-70.4382133995037
20
11.8597494136781
30
0.000000000000000
11
-70.3382133995037
21
11.8890428381508
31
0.000000000000000
  0
LINE
  5
F101F1
330
F101F2
100
AcDbEntity
8
Geo
100
AcDbLine
10
-70.3382133995037
20
11.8890428381508
30
0.000000000000000
11
-70.2382133995037
21
11.8961354824650
31
0.000000000000000
  0
LINE
  5
F101F3
330
F101F4
100
AcDbEntity
8
Geo
100
AcDbLine
10
-70.2382133995037
20
11.8961354824650
30
0.000000000000000
11
-70.1382133995037
21
11.8924713004728
31
0.000000000000000
  0
LINE
  5
F101F5
330
F101F6
100
AcDbEntity
8
Geo
100
AcDbLine
10
-70.1382133995037
20
11.8924713004728
30
0.000000000000000
11
-70.0382133995037
21
11.8881420585636
31
0.000000000000000
  0
LINE
  5
F101F7
330
F101F8
100
AcDbEntity
8
Geo
100
AcDbLine
10
-70.0382133995037
20
11.8881420585636
30
0.000000000000000
11
-69.9382133995037
21
11.8831483339633
31
0.000000000000000
  0
LINE
  5
F101F9
330
F101FA
100
AcDbEntity
8
Geo
100
AcDbLine
10
-69.9382133995037
20
11.8831483339633
30
0.000000000000000
11
-69.8382133995037
21
11.8774907924944
31
0.000000000000000
  0
LINE
  5
F101FB
330
F101FC
100
AcDbEntity
8
Geo
100
AcDbLine
10
-69.8382133995037
20
11.8774907924944
30
0.000000000000000
11
-69.7382133995037
21
11.8711701884874
31
0.000000000000000
  0
LINE
  5
F101FD
330
F101FE
100
AcDbEntity
8
Geo
100
AcDbLine
10
-69.7382133995037
20
11.8711701884874
30
0.000000000000000
11
-69.6382133995037
21
11.8641873646802
31
0.000000000000000
  0
LINE
  5
F101FF
330
F10200
100
AcDbEntity
8
Geo
100
AcDbLine
10
-69.6382133995037
20
11.8641873646802
30
0.000000000000000
11
-69.5382133995037
21
11.8565432521056
31
0.000000000000000
  0
LINE
  5
F10201
330
F10202
100
AcDbEntity
8
Geo
100
AcDbLine
10
-69.5382133995037
20
11.8565432521056
30
0.000000000000000
11
-69.4382133995037
21
11.8482388699672
31
0.000000000000000
  0
LINE
  5
F10203
330
F10204
100
AcDbEntity
8
Geo
100
AcDbLine
10
-69.4382133995037
20
11.8482388699672
30
0.000000000000000
11
-69.3382133995037
21
11.8392753255037
31
0.000000000000000
  0
LINE
  5
F10205
330
F10206
100
AcDbEntity
8
Geo
100
AcDbLine
10
-69.3382133995037
20
11.8392753255037
30
0.000000000000000
11
-69.2382133995037
21
11.8296538138411
31
0.000000000000000
  0
LINE
  5
F10207
330
F10208
100
AcDbEntity
8
Geo
100
AcDbLine
10
-69.2382133995037
20
11.8296538138411
30
0.000000000000000
11
-69.1382133995037
21
11.8193756178334
31
0.000000000000000
  0
LINE
  5
F10209
330
F1020A
100
AcDbEntity
8
Geo
100
AcDbLine
10
-69.1382133995037
20
11.8193756178334
30
0.000000000000000
11
-69.0382133995037
21
11.8084421078915
31
0.000000000000000
  0
LINE
  5
F1020B
330
F1020C
100
AcDbEntity
8
Geo
100
AcDbLine
10
-69.0382133995037
20
11.8084421078915
30
0.000000000000000
11
-68.9382133995037
21
11.7968547418004
31
0.000000000000000
  0
LINE
  5
F1020D
330
F1020E
100
AcDbEntity
8
Geo
100
AcDbLine
10
-68.9382133995037
20
11.7968547418004
30
0.000000000000000
11
-68.8382133995037
21
11.7846150645252
31
0.000000000000000
  0
LINE
  5
F1020F
330
F10210
100
AcDbEntity
8
Geo
100
AcDbLine
10
-68.8382133995037
20
11.7846150645252
30
0.000000000000000
11
-68.7382133995037
21
11.7717247080048
31
0.000000000000000
  0
LINE
  5
F10211
330
F10212
100
AcDbEntity
8
Geo
100
AcDbLine
10
-68.7382133995037
20
11.7717247080048
30
0.000000000000000
11
-68.6382133995037
21
11.7581853909341
31
0.000000000000000
  0
LINE
  5
F10213
330
F10214
100
AcDbEntity
8
Geo
100
AcDbLine
10
-68.6382133995037
20
11.7581853909341
30
0.000000000000000
11
-68.5382133995037
21
11.7439989185355
31
0.000000000000000
  0
LINE
  5
F10215
330
F10216
100
AcDbEntity
8
Geo
100
AcDbLine
10
-68.5382133995037
20
11.7439989185355
30
0.000000000000000
11
-68.4382133995037
21
11.7291671823176
31
0.000000000000000
  0
LINE
  5
F10217
330
F10218
100
AcDbEntity
8
Geo
100
AcDbLine
10
-68.4382133995037
20
11.7291671823176
30
0.000000000000000
11
-68.3382133995037
21
11.7136921598232
31
0.000000000000000
  0
LINE
  5
F10219
330
F1021A
100
AcDbEntity
8
Geo
100
AcDbLine
10
-68.3382133995037
20
11.7136921598232
30
0.000000000000000
11
-68.2382133995037
21
11.6975759143657
31
0.000000000000000
  0
LINE
  5
F1021B
330
F1021C
100
AcDbEntity
8
Geo
100
AcDbLine
10
-68.2382133995037
20
11.6975759143657
30
0.000000000000000
11
-68.1382133995037
21
11.6808205947540
31
0.000000000000000
  0
LINE
  5
F1021D
330
F1021E
100
AcDbEntity
8
Geo
100
AcDbLine
10
-68.1382133995037
20
11.6808205947540
30
0.000000000000000
11
-68.0382133995037
21
11.6634284350059
31
0.000000000000000
  0
LINE
  5
F1021F
330
F10220
100
AcDbEntity
8
Geo
100
AcDbLine
10
-68.0382133995037
20
11.6634284350059
30
0.000000000000000
11
-67.9382133995037
21
11.6454017540503
31
0.000000000000000
  0
LINE
  5
F10221
330
F10222
100
AcDbEntity
8
Geo
100
AcDbLine
10
-67.9382133995037
20
11.6454017540503
30
0.000000000000000
11
-67.8382133995037
21
11.6267429554178
31
0.000000000000000
  0
LINE
  5
F10223
330
F10224
100
AcDbEntity
8
Geo
100
AcDbLine
10
-67.8382133995037
20
11.6267429554178
30
0.000000000000000
11
-67.7382133995037
21
11.6074545269207
31
0.000000000000000
  0
LINE
  5
F10225
330
F10226
100
AcDbEntity
8
Geo
100
AcDbLine
10
-67.7382133995037
20
11.6074545269207
30
0.000000000000000
11
-67.6382133995037
21
11.5875390403209
31
0.000000000000000
  0
LINE
  5
F10227
330
F10228
100
AcDbEntity
8
Geo
100
AcDbLine
10
-67.6382133995037
20
11.5875390403209
30
0.000000000000000
11
-67.5382133995037
21
11.5669991509871
31
0.000000000000000
  0
LINE
  5
F10229
330
F1022A
100
AcDbEntity
8
Geo
100
AcDbLine
10
-67.5382133995037
20
11.5669991509871
30
0.000000000000000
11
-67.4382133995037
21
11.5458375975407
31
0.000000000000000
  0
LINE
  5
F1022B
330
F1022C
100
AcDbEntity
8
Geo
100
AcDbLine
10
-67.4382133995037
20
11.5458375975407
30
0.000000000000000
11
-67.3382133995037
21
11.5240572014909
31
0.000000000000000
  0
LINE
  5
F1022D
330
F1022E
100
AcDbEntity
8
Geo
100
AcDbLine
10
-67.3382133995037
20
11.5240572014909
30
0.000000000000000
11
-67.2382133995037
21
11.5016608668582
31
0.000000000000000
  0
LINE
  5
F1022F
330
F10230
100
AcDbEntity
8
Geo
100
AcDbLine
10
-67.2382133995037
20
11.5016608668582
30
0.000000000000000
11
-67.1382133995037
21
11.4786515797874
31
0.000000000000000
  0
LINE
  5
F10231
330
F10232
100
AcDbEntity
8
Geo
100
AcDbLine
10
-67.1382133995037
20
11.4786515797874
30
0.000000000000000
11
-67.0382133995037
21
11.4550324081493
31
0.000000000000000
  0
LINE
  5
F10233
330
F10234
100
AcDbEntity
8
Geo
100
AcDbLine
10
-67.0382133995037
20
11.4550324081493
30
0.000000000000000
11
-66.9382133995037
21
11.4308065011319
31
0.000000000000000
  0
LINE
  5
F10235
330
F10236
100
AcDbEntity
8
Geo
100
AcDbLine
10
-66.9382133995037
20
11.4308065011319
30
0.000000000000000
11
-66.8382133995037
21
11.4059770888201
31
0.000000000000000
  0
LINE
  5
F10237
330
F10238
100
AcDbEntity
8
Geo
100
AcDbLine
10
-66.8382133995037
20
11.4059770888201
30
0.000000000000000
11
-66.7382133995037
21
11.3805474817655
31
0.000000000000000
  0
LINE
  5
F10239
330
F1023A
100
AcDbEntity
8
Geo
100
AcDbLine
10
-66.7382133995037
20
11.3805474817655
30
0.000000000000000
11
-66.6382133995037
21
11.3545210705447
31
0.000000000000000
  0
LINE
  5
F1023B
330
F1023C
100
AcDbEntity
8
Geo
100
AcDbLine
10
-66.6382133995037
20
11.3545210705447
30
0.000000000000000
11
-66.5382133995037
21
11.3279013253074
31
0.000000000000000
  0
LINE
  5
F1023D
330
F1023E
100
AcDbEntity
8
Geo
100
AcDbLine
10
-66.5382133995037
20
11.3279013253074
30
0.000000000000000
11
-66.4382133995037
21
11.3006917953133
31
0.000000000000000
  0
LINE
  5
F1023F
330
F10240
100
AcDbEntity
8
Geo
100
AcDbLine
10
-66.4382133995037
20
11.3006917953133
30
0.000000000000000
11
-66.3382133995037
21
11.2728961084596
31
0.000000000000000
  0
LINE
  5
F10241
330
F10242
100
AcDbEntity
8
Geo
100
AcDbLine
10
-66.3382133995037
20
11.2728961084596
30
0.000000000000000
11
-66.2382133995037
21
11.2445179707967
31
0.000000000000000
  0
LINE
  5
F10243
330
F10244
100
AcDbEntity
8
Geo
100
AcDbLine
10
-66.2382133995037
20
11.2445179707967
30
0.000000000000000
11
-66.1382133995037
21
11.2155611660341
31
0.000000000000000
  0
LINE
  5
F10245
330
F10246
100
AcDbEntity
8
Geo
100
AcDbLine
10
-66.1382133995037
20
11.2155611660341
30
0.000000000000000
11
-66.0382133995037
21
11.1860295550364
31
0.000000000000000
  0
LINE
  5
F10247
330
F10248
100
AcDbEntity
8
Geo
100
AcDbLine
10
-66.0382133995037
20
11.1860295550364
30
0.000000000000000
11
-65.9382133995037
21
11.1559270753079
31
0.000000000000000
  0
LINE
  5
F10249
330
F1024A
100
AcDbEntity
8
Geo
100
AcDbLine
10
-65.9382133995037
20
11.1559270753079
30
0.000000000000000
11
-65.8382133995037
21
11.1252577404679
31
0.000000000000000
  0
LINE
  5
F1024B
330
F1024C
100
AcDbEntity
8
Geo
100
AcDbLine
10
-65.8382133995037
20
11.1252577404679
30
0.000000000000000
11
-65.7382133995037
21
11.0940256397157
31
0.000000000000000
  0
LINE
  5
F1024D
330
F1024E
100
AcDbEntity
8
Geo
100
AcDbLine
10
-65.7382133995037
20
11.0940256397157
30
0.000000000000000
11
-65.6382133995037
21
11.0622349372851
31
0.000000000000000
  0
LINE
  5
F1024F
330
F10250
100
AcDbEntity
8
Geo
100
AcDbLine
10
-65.6382133995037
20
11.0622349372851
30
0.000000000000000
11
-65.5382133995037
21
11.0298898718893
31
0.000000000000000
  0
LINE
  5
F10251
330
F10252
100
AcDbEntity
8
Geo
100
AcDbLine
10
-65.5382133995037
20
11.0298898718893
30
0.000000000000000
11
-65.4382133995037
21
10.9969947561557
31
0.000000000000000
  0
LINE
  5
F10253
330
F10254
100
AcDbEntity
8
Geo
100
AcDbLine
10
-65.4382133995037
20
10.9969947561557
30
0.000000000000000
11
-65.3382133995037
21
10.9635539760512
31
0.000000000000000
  0
LINE
  5
F10255
330
F10256
100
AcDbEntity
8
Geo
100
AcDbLine
10
-65.3382133995037
20
10.9635539760512
30
0.000000000000000
11
-65.2382133995037
21
10.9295719902968
31
0.000000000000000
  0
LINE
  5
F10257
330
F10258
100
AcDbEntity
8
Geo
100
AcDbLine
10
-65.2382133995037
20
10.9295719902968
30
0.000000000000000
11
-65.1382133995037
21
10.8950533297737
31
0.000000000000000
  0
LINE
  5
F10259
330
F1025A
100
AcDbEntity
8
Geo
100
AcDbLine
10
-65.1382133995037
20
10.8950533297737
30
0.000000000000000
11
-65.0382133995037
21
10.8600025969187
31
0.000000000000000
  0
LINE
  5
F1025B
330
F1025C
100
AcDbEntity
8
Geo
100
AcDbLine
10
-65.0382133995037
20
10.8600025969187
30
0.000000000000000
11
-64.9382133995037
21
10.8244244651109
31
0.000000000000000
  0
LINE
  5
F1025D
330
F1025E
100
AcDbEntity
8
Geo
100
AcDbLine
10
-64.9382133995037
20
10.8244244651109
30
0.000000000000000
11
-64.8382133995037
21
10.7883236780486
31
0.000000000000000
  0
LINE
  5
F1025F
330
F10260
100
AcDbEntity
8
Geo
100
AcDbLine
10
-64.8382133995037
20
10.7883236780486
30
0.000000000000000
11
-64.7382133995037
21
10.7517050491166
31
0.000000000000000
  0
LINE
  5
F10261
330
F10262
100
AcDbEntity
8
Geo
100
AcDbLine
10
-64.7382133995037
20
10.7517050491166
30
0.000000000000000
11
-64.6382133995037
21
10.7145734607445
31
0.000000000000000
  0
LINE
  5
F10263
330
F10264
100
AcDbEntity
8
Geo
100
AcDbLine
10
-64.6382133995037
20
10.7145734607445
30
0.000000000000000
11
-64.5382133995037
21
10.6769338637556
31
0.000000000000000
  0
LINE
  5
F10265
330
F10266
100
AcDbEntity
8
Geo
100
AcDbLine
10
-64.5382133995037
20
10.6769338637556
30
0.000000000000000
11
-64.4382133995037
21
10.6387912767073
31
0.000000000000000
  0
LINE
  5
F10267
330
F10268
100
AcDbEntity
8
Geo
100
AcDbLine
10
-64.4382133995037
20
10.6387912767073
30
0.000000000000000
11
-64.3382133995037
21
10.6001507852212
31
0.000000000000000
  0
LINE
  5
F10269
330
F1026A
100
AcDbEntity
8
Geo
100
AcDbLine
10
-64.3382133995037
20
10.6001507852212
30
0.000000000000000
11
-64.2382133995037
21
10.5610175413056
31
0.000000000000000
  0
LINE
  5
F1026B
330
F1026C
100
AcDbEntity
8
Geo
100
AcDbLine
10
-64.2382133995037
20
10.5610175413056
30
0.000000000000000
11
-64.1382133995037
21
10.5213967626684
31
0.000000000000000
  0
LINE
  5
F1026D
330
F1026E
100
AcDbEntity
8
Geo
100
AcDbLine
10
-64.1382133995037
20
10.5213967626684
30
0.000000000000000
11
-64.0382133995037
21
10.4812937320215
31
0.000000000000000
  0
LINE
  5
F1026F
330
F10270
100
AcDbEntity
8
Geo
100
AcDbLine
10
-64.0382133995037
20
10.4812937320215
30
0.000000000000000
11
-63.9382133995037
21
10.4407137963760
31
0.000000000000000
  0
LINE
  5
F10271
330
F10272
100
AcDbEntity
8
Geo
100
AcDbLine
10
-63.9382133995037
20
10.4407137963760
30
0.000000000000000
11
-63.8382133995037
21
10.3996623663301
31
0.000000000000000
  0
LINE
  5
F10273
330
F10274
100
AcDbEntity
8
Geo
100
AcDbLine
10
-63.8382133995037
20
10.3996623663301
30
0.000000000000000
11
-63.7382133995037
21
10.3581449153469
31
0.000000000000000
  0
LINE
  5
F10275
330
F10276
100
AcDbEntity
8
Geo
100
AcDbLine
10
-63.7382133995037
20
10.3581449153469
30
0.000000000000000
11
-63.6382133995037
21
10.3161669790250
31
0.000000000000000
  0
LINE
  5
F10277
330
F10278
100
AcDbEntity
8
Geo
100
AcDbLine
10
-63.6382133995037
20
10.3161669790250
30
0.000000000000000
11
-63.5382133995037
21
10.2737341543605
31
0.000000000000000
  0
LINE
  5
F10279
330
F1027A
100
AcDbEntity
8
Geo
100
AcDbLine
10
-63.5382133995037
20
10.2737341543605
30
0.000000000000000
11
-63.4382133995037
21
10.2308520990003
31
0.000000000000000
  0
LINE
  5
F1027B
330
F1027C
100
AcDbEntity
8
Geo
100
AcDbLine
10
-63.4382133995037
20
10.2308520990003
30
0.000000000000000
11
-63.3382133995037
21
10.1875265304884
31
0.000000000000000
  0
LINE
  5
F1027D
330
F1027E
100
AcDbEntity
8
Geo
100
AcDbLine
10
-63.3382133995037
20
10.1875265304884
30
0.000000000000000
11
-63.2382133995037
21
10.1437632255030
31
0.000000000000000
  0
LINE
  5
F1027F
330
F10280
100
AcDbEntity
8
Geo
100
AcDbLine
10
-63.2382133995037
20
10.1437632255030
30
0.000000000000000
11
-63.1382133995037
21
10.0995680190867
31
0.000000000000000
  0
LINE
  5
F10281
330
F10282
100
AcDbEntity
8
Geo
100
AcDbLine
10
-63.1382133995037
20
10.0995680190867
30
0.000000000000000
11
-63.0382133995037
21
10.0549468038681
31
0.000000000000000
  0
LINE
  5
F10283
330
F10284
100
AcDbEntity
8
Geo
100
AcDbLine
10
-63.0382133995037
20
10.0549468038681
30
0.000000000000000
11
-62.9382133995037
21
10.0099055292765
31
0.000000000000000
  0
LINE
  5
F10285
330
F10286
100
AcDbEntity
8
Geo
100
AcDbLine
10
-62.9382133995037
20
10.0099055292765
30
0.000000000000000
11
-62.8382133995037
21
9.96445020074844
31
0.000000000000000
  0
LINE
  5
F10287
330
F10288
100
AcDbEntity
8
Geo
100
AcDbLine
10
-62.8382133995037
20
9.96445020074844
30
0.000000000000000
11
-62.7382133995037
21
9.91858687892710
31
0.000000000000000
  0
LINE
  5
F10289
330
F1028A
100
AcDbEntity
8
Geo
100
AcDbLine
10
-62.7382133995037
20
9.91858687892710
30
0.000000000000000
11
-62.6382133995037
21
9.87232167885408
31
0.000000000000000
  0
LINE
  5
F1028B
330
F1028C
100
AcDbEntity
8
Geo
100
AcDbLine
10
-62.6382133995037
20
9.87232167885408
30
0.000000000000000
11
-62.5382133995037
21
9.82566076915418
31
0.000000000000000
  0
LINE
  5
F1028D
330
F1028E
100
AcDbEntity
8
Geo
100
AcDbLine
10
-62.5382133995037
20
9.82566076915418
30
0.000000000000000
11
-62.4382133995038
21
9.77861037121290
31
0.000000000000000
  0
LINE
  5
F1028F
330
F10290
100
AcDbEntity
8
Geo
100
AcDbLine
10
-62.4382133995038
20
9.77861037121290
30
0.000000000000000
11
-62.3382133995038
21
9.73117675834693
31
0.000000000000000
  0
LINE
  5
F10291
330
F10292
100
AcDbEntity
8
Geo
100
AcDbLine
10
-62.3382133995038
20
9.73117675834693
30
0.000000000000000
11
-62.2382133995037
21
9.68336625496771
31
0.000000000000000
  0
LINE
  5
F10293
330
F10294
100
AcDbEntity
8
Geo
100
AcDbLine
10
-62.2382133995037
20
9.68336625496771
30
0.000000000000000
11
-62.1382133995037
21
9.63518523573820
31
0.000000000000000
  0
LINE
  5
F10295
330
F10296
100
AcDbEntity
8
Geo
100
AcDbLine
10
-62.1382133995037
20
9.63518523573820
30
0.000000000000000
11
-62.0382133995037
21
9.58664012472291
31
0.000000000000000
  0
LINE
  5
F10297
330
F10298
100
AcDbEntity
8
Geo
100
AcDbLine
10
-62.0382133995037
20
9.58664012472291
30
0.000000000000000
11
-61.9382133995038
21
9.53773739453140
31
0.000000000000000
  0
LINE
  5
F10299
330
F1029A
100
AcDbEntity
8
Geo
100
AcDbLine
10
-61.9382133995038
20
9.53773739453140
30
0.000000000000000
11
-61.8382133995038
21
9.48848356545524
31
0.000000000000000
  0
LINE
  5
F1029B
330
F1029C
100
AcDbEntity
8
Geo
100
AcDbLine
10
-61.8382133995038
20
9.48848356545524
30
0.000000000000000
11
-61.7382133995037
21
9.43888520459868
31
0.000000000000000
  0
LINE
  5
F1029D
330
F1029E
100
AcDbEntity
8
Geo
100
AcDbLine
10
-61.7382133995037
20
9.43888520459868
30
0.000000000000000
11
-61.6382133995038
21
9.38894892500301
31
0.000000000000000
  0
LINE
  5
F1029F
330
F102A0
100
AcDbEntity
8
Geo
100
AcDbLine
10
-61.6382133995038
20
9.38894892500301
30
0.000000000000000
11
-61.5382133995038
21
9.33868138476488
31
0.000000000000000
  0
LINE
  5
F102A1
330
F102A2
100
AcDbEntity
8
Geo
100
AcDbLine
10
-61.5382133995038
20
9.33868138476488
30
0.000000000000000
11
-61.4382133995038
21
9.28808928614850
31
0.000000000000000
  0
LINE
  5
F102A3
330
F102A4
100
AcDbEntity
8
Geo
100
AcDbLine
10
-61.4382133995038
20
9.28808928614850
30
0.000000000000000
11
-61.3382133995038
21
9.23717937469208
31
0.000000000000000
  0
LINE
  5
F102A5
330
F102A6
100
AcDbEntity
8
Geo
100
AcDbLine
10
-61.3382133995038
20
9.23717937469208
30
0.000000000000000
11
-61.2382133995037
21
9.18595843830838
31
0.000000000000000
  0
LINE
  5
F102A7
330
F102A8
100
AcDbEntity
8
Geo
100
AcDbLine
10
-61.2382133995037
20
9.18595843830838
30
0.000000000000000
11
-61.1382133995038
21
9.13443330637972
31
0.000000000000000
  0
LINE
  5
F102A9
330
F102AA
100
AcDbEntity
8
Geo
100
AcDbLine
10
-61.1382133995038
20
9.13443330637972
30
0.000000000000000
11
-61.0382133995038
21
9.08261084884735
31
0.000000000000000
  0
LINE
  5
F102AB
330
F102AC
100
AcDbEntity
8
Geo
100
AcDbLine
10
-61.0382133995038
20
9.08261084884735
30
0.000000000000000
11
-60.9382133995038
21
9.03049797529549
31
0.000000000000000
  0
LINE
  5
F102AD
330
F102AE
100
AcDbEntity
8
Geo
100
AcDbLine
10
-60.9382133995038
20
9.03049797529549
30
0.000000000000000
11
-60.8382133995038
21
8.97810163403009
31
0.000000000000000
  0
LINE
  5
F102AF
330
F102B0
100
AcDbEntity
8
Geo
100
AcDbLine
10
-60.8382133995038
20
8.97810163403009
30
0.000000000000000
11
-60.7382133995038
21
8.92542881115235
31
0.000000000000000
  0
LINE
  5
F102B1
330
F102B2
100
AcDbEntity
8
Geo
100
AcDbLine
10
-60.7382133995038
20
8.92542881115235
30
0.000000000000000
11
-60.6382133995038
21
8.87248652962730
31
0.000000000000000
  0
LINE
  5
F102B3
330
F102B4
100
AcDbEntity
8
Geo
100
AcDbLine
10
-60.6382133995038
20
8.87248652962730
30
0.000000000000000
11
-60.5382133995038
21
8.81928184834737
31
0.000000000000000
  0
LINE
  5
F102B5
330
F102B6
100
AcDbEntity
8
Geo
100
AcDbLine
10
-60.5382133995038
20
8.81928184834737
30
0.000000000000000
11
-60.4382133995038
21
8.76582186119124
31
0.000000000000000
  0
LINE
  5
F102B7
330
F102B8
100
AcDbEntity
8
Geo
100
AcDbLine
10
-60.4382133995038
20
8.76582186119124
30
0.000000000000000
11
-60.3382133995038
21
8.71211369607801
31
0.000000000000000
  0
LINE
  5
F102B9
330
F102BA
100
AcDbEntity
8
Geo
100
AcDbLine
10
-60.3382133995038
20
8.71211369607801
30
0.000000000000000
11
-60.2382133995038
21
8.65816451401678
31
0.000000000000000
  0
LINE
  5
F102BB
330
F102BC
100
AcDbEntity
8
Geo
100
AcDbLine
10
-60.2382133995038
20
8.65816451401678
30
0.000000000000000
11
-60.1382133995038
21
8.60398150815190
31
0.000000000000000
  0
LINE
  5
F102BD
330
F102BE
100
AcDbEntity
8
Geo
100
AcDbLine
10
-60.1382133995038
20
8.60398150815190
30
0.000000000000000
11
-60.0382133995038
21
8.54957190280389
31
0.000000000000000
  0
LINE
  5
F102BF
330
F102C0
100
AcDbEntity
8
Geo
100
AcDbLine
10
-60.0382133995038
20
8.54957190280389
30
0.000000000000000
11
-59.9382133995038
21
8.49494295250619
31
0.000000000000000
  0
LINE
  5
F102C1
330
F102C2
100
AcDbEntity
8
Geo
100
AcDbLine
10
-59.9382133995038
20
8.49494295250619
30
0.000000000000000
11
-59.8382133995038
21
8.44010194103791
31
0.000000000000000
  0
LINE
  5
F102C3
330
F102C4
100
AcDbEntity
8
Geo
100
AcDbLine
10
-59.8382133995038
20
8.44010194103791
30
0.000000000000000
11
-59.7382133995038
21
8.38505618045266
31
0.000000000000000
  0
LINE
  5
F102C5
330
F102C6
100
AcDbEntity
8
Geo
100
AcDbLine
10
-59.7382133995038
20
8.38505618045266
30
0.000000000000000
11
-59.6382133995038
21
8.32981301010363
31
0.000000000000000
  0
LINE
  5
F102C7
330
F102C8
100
AcDbEntity
8
Geo
100
AcDbLine
10
-59.6382133995038
20
8.32981301010363
30
0.000000000000000
11
-59.5382133995038
21
8.27437979566504
31
0.000000000000000
  0
LINE
  5
F102C9
330
F102CA
100
AcDbEntity
8
Geo
100
AcDbLine
10
-59.5382133995038
20
8.27437979566504
30
0.000000000000000
11
-59.4382133995038
21
8.21876392815002
31
0.000000000000000
  0
LINE
  5
F102CB
330
F102CC
100
AcDbEntity
8
Geo
100
AcDbLine
10
-59.4382133995038
20
8.21876392815002
30
0.000000000000000
11
-59.3382133995038
21
8.16297282292518
31
0.000000000000000
  0
LINE
  5
F102CD
330
F102CE
100
AcDbEntity
8
Geo
100
AcDbLine
10
-59.3382133995038
20
8.16297282292518
30
0.000000000000000
11
-59.2382133995038
21
8.10701391872189
31
0.000000000000000
  0
LINE
  5
F102CF
330
F102D0
100
AcDbEntity
8
Geo
100
AcDbLine
10
-59.2382133995038
20
8.10701391872189
30
0.000000000000000
11
-59.1382133995038
21
8.05089467664448
31
0.000000000000000
  0
LINE
  5
F102D1
330
F102D2
100
AcDbEntity
8
Geo
100
AcDbLine
10
-59.1382133995038
20
8.05089467664448
30
0.000000000000000
11
-59.0382133995038
21
7.99462257917542
31
0.000000000000000
  0
LINE
  5
F102D3
330
F102D4
100
AcDbEntity
8
Geo
100
AcDbLine
10
-59.0382133995038
20
7.99462257917542
30
0.000000000000000
11
-58.9382133995038
21
7.93820512917767
31
0.000000000000000
  0
LINE
  5
F102D5
330
F102D6
100
AcDbEntity
8
Geo
100
AcDbLine
10
-58.9382133995038
20
7.93820512917767
30
0.000000000000000
11
-58.8382133995038
21
7.88164984889433
31
0.000000000000000
  0
LINE
  5
F102D7
330
F102D8
100
AcDbEntity
8
Geo
100
AcDbLine
10
-58.8382133995038
20
7.88164984889433
30
0.000000000000000
11
-58.7382133995038
21
7.82496427894563
31
0.000000000000000
  0
LINE
  5
F102D9
330
F102DA
100
AcDbEntity
8
Geo
100
AcDbLine
10
-58.7382133995038
20
7.82496427894563
30
0.000000000000000
11
-58.6382133995038
21
7.76815597732361
31
0.000000000000000
  0
LINE
  5
F102DB
330
F102DC
100
AcDbEntity
8
Geo
100
AcDbLine
10
-58.6382133995038
20
7.76815597732361
30
0.000000000000000
11
-58.5382133995038
21
7.71123251838430
31
0.000000000000000
  0
LINE
  5
F102DD
330
F102DE
100
AcDbEntity
8
Geo
100
AcDbLine
10
-58.5382133995038
20
7.71123251838430
30
0.000000000000000
11
-58.4382133995038
21
7.65420149183792
31
0.000000000000000
  0
LINE
  5
F102DF
330
F102E0
100
AcDbEntity
8
Geo
100
AcDbLine
10
-58.4382133995038
20
7.65420149183792
30
0.000000000000000
11
-58.3382133995038
21
7.59707050173683
31
0.000000000000000
  0
LINE
  5
F102E1
330
F102E2
100
AcDbEntity
8
Geo
100
AcDbLine
10
-58.3382133995038
20
7.59707050173683
30
0.000000000000000
11
-58.2382133995038
21
7.53984716546176
31
0.000000000000000
  0
LINE
  5
F102E3
330
F102E4
100
AcDbEntity
8
Geo
100
AcDbLine
10
-58.2382133995038
20
7.53984716546176
30
0.000000000000000
11
-58.1382133995038
21
7.48253911270608
31
0.000000000000000
  0
LINE
  5
F102E5
330
F102E6
100
AcDbEntity
8
Geo
100
AcDbLine
10
-58.1382133995038
20
7.48253911270608
30
0.000000000000000
11
-58.0382133995038
21
7.42515398445862
31
0.000000000000000
  0
LINE
  5
F102E7
330
F102E8
100
AcDbEntity
8
Geo
100
AcDbLine
10
-58.0382133995038
20
7.42515398445862
30
0.000000000000000
11
-57.9382133995038
21
7.36769943198478
31
0.000000000000000
  0
LINE
  5
F102E9
330
F102EA
100
AcDbEntity
8
Geo
100
AcDbLine
10
-57.9382133995038
20
7.36769943198478
30
0.000000000000000
11
-57.8382133995038
21
7.31018311580643
31
0.000000000000000
  0
LINE
  5
F102EB
330
F102EC
100
AcDbEntity
8
Geo
100
AcDbLine
10
-57.8382133995038
20
7.31018311580643
30
0.000000000000000
11
-57.7382133995038
21
7.25261270468054
31
0.000000000000000
  0
LINE
  5
F102ED
330
F102EE
100
AcDbEntity
8
Geo
100
AcDbLine
10
-57.7382133995038
20
7.25261270468054
30
0.000000000000000
11
-57.6382133995038
21
7.19499587457663
31
0.000000000000000
  0
LINE
  5
F102EF
330
F102F0
100
AcDbEntity
8
Geo
100
AcDbLine
10
-57.6382133995038
20
7.19499587457663
30
0.000000000000000
11
-57.5382133995038
21
7.13734030765335
31
0.000000000000000
  0
LINE
  5
F102F1
330
F102F2
100
AcDbEntity
8
Geo
100
AcDbLine
10
-57.5382133995038
20
7.13734030765335
30
0.000000000000000
11
-57.4382133995038
21
7.07965369123421
31
0.000000000000000
  0
LINE
  5
F102F3
330
F102F4
100
AcDbEntity
8
Geo
100
AcDbLine
10
-57.4382133995038
20
7.07965369123421
30
0.000000000000000
11
-57.3382133995038
21
7.02194371678261
31
0.000000000000000
  0
LINE
  5
F102F5
330
F102F6
100
AcDbEntity
8
Geo
100
AcDbLine
10
-57.3382133995038
20
7.02194371678261
30
0.000000000000000
11
-57.2382133995038
21
6.96421807887631
31
0.000000000000000
  0
LINE
  5
F102F7
330
F102F8
100
AcDbEntity
8
Geo
100
AcDbLine
10
-57.2382133995038
20
6.96421807887631
30
0.000000000000000
11
-57.1382133995038
21
6.90648447418151
31
0.000000000000000
  0
LINE
  5
F102F9
330
F102FA
100
AcDbEntity
8
Geo
100
AcDbLine
10
-57.1382133995038
20
6.90648447418151
30
0.000000000000000
11
-57.0382133995038
21
6.84875060042664
31
0.000000000000000
  0
LINE
  5
F102FB
330
F102FC
100
AcDbEntity
8
Geo
100
AcDbLine
10
-57.0382133995038
20
6.84875060042664
30
0.000000000000000
11
-56.9382133995038
21
6.79102415537601
31
0.000000000000000
  0
LINE
  5
F102FD
330
F102FE
100
AcDbEntity
8
Geo
100
AcDbLine
10
-56.9382133995038
20
6.79102415537601
30
0.000000000000000
11
-56.8382133995038
21
6.73331283580343
31
0.000000000000000
  0
LINE
  5
F102FF
330
F10300
100
AcDbEntity
8
Geo
100
AcDbLine
10
-56.8382133995038
20
6.73331283580343
30
0.000000000000000
11
-56.7382133995038
21
6.67562433646601
31
0.000000000000000
  0
LINE
  5
F10301
330
F10302
100
AcDbEntity
8
Geo
100
AcDbLine
10
-56.7382133995038
20
6.67562433646601
30
0.000000000000000
11
-56.6382133995038
21
6.61796634907821
31
0.000000000000000
  0
LINE
  5
F10303
330
F10304
100
AcDbEntity
8
Geo
100
AcDbLine
10
-56.6382133995038
20
6.61796634907821
30
0.000000000000000
11
-56.5382133995038
21
6.56034656128625
31
0.000000000000000
  0
LINE
  5
F10305
330
F10306
100
AcDbEntity
8
Geo
100
AcDbLine
10
-56.5382133995038
20
6.56034656128625
30
0.000000000000000
11
-56.4382133995038
21
6.50277265564315
31
0.000000000000000
  0
LINE
  5
F10307
330
F10308
100
AcDbEntity
8
Geo
100
AcDbLine
10
-56.4382133995038
20
6.50277265564315
30
0.000000000000000
11
-56.3382133995038
21
6.44525230858436
31
0.000000000000000
  0
LINE
  5
F10309
330
F1030A
100
AcDbEntity
8
Geo
100
AcDbLine
10
-56.3382133995038
20
6.44525230858436
30
0.000000000000000
11
-56.2382133995038
21
6.38779318940428
31
0.000000000000000
  0
LINE
  5
F1030B
330
F1030C
100
AcDbEntity
8
Geo
100
AcDbLine
10
-56.2382133995038
20
6.38779318940428
30
0.000000000000000
11
-56.1382133995038
21
6.33040295923367
31
0.000000000000000
  0
LINE
  5
F1030D
330
F1030E
100
AcDbEntity
8
Geo
100
AcDbLine
10
-56.1382133995038
20
6.33040295923367
30
0.000000000000000
11
-56.0382133995038
21
6.27308927001820
31
0.000000000000000
  0
LINE
  5
F1030F
330
F10310
100
AcDbEntity
8
Geo
100
AcDbLine
10
-56.0382133995038
20
6.27308927001820
30
0.000000000000000
11
-55.9382133995038
21
6.21585976349819
31
0.000000000000000
  0
LINE
  5
F10311
330
F10312
100
AcDbEntity
8
Geo
100
AcDbLine
10
-55.9382133995038
20
6.21585976349819
30
0.000000000000000
11
-55.8382133995038
21
6.15872207018973
31
0.000000000000000
  0
LINE
  5
F10313
330
F10314
100
AcDbEntity
8
Geo
100
AcDbLine
10
-55.8382133995038
20
6.15872207018973
30
0.000000000000000
11
-55.7382133995038
21
6.10168380836727
31
0.000000000000000
  0
LINE
  5
F10315
330
F10316
100
AcDbEntity
8
Geo
100
AcDbLine
10
-55.7382133995038
20
6.10168380836727
30
0.000000000000000
11
-55.6382133995038
21
6.04475258304789
31
0.000000000000000
  0
LINE
  5
F10317
330
F10318
100
AcDbEntity
8
Geo
100
AcDbLine
10
-55.6382133995038
20
6.04475258304789
30
0.000000000000000
11
-55.5382133995038
21
5.98793598497730
31
0.000000000000000
  0
LINE
  5
F10319
330
F1031A
100
AcDbEntity
8
Geo
100
AcDbLine
10
-55.5382133995038
20
5.98793598497730
30
0.000000000000000
11
-55.4382133995038
21
5.93124158961772
31
0.000000000000000
  0
LINE
  5
F1031B
330
F1031C
100
AcDbEntity
8
Geo
100
AcDbLine
10
-55.4382133995038
20
5.93124158961772
30
0.000000000000000
11
-55.3382133995038
21
5.87467695613788
31
0.000000000000000
  0
LINE
  5
F1031D
330
F1031E
100
AcDbEntity
8
Geo
100
AcDbLine
10
-55.3382133995038
20
5.87467695613788
30
0.000000000000000
11
-55.2382133995038
21
5.81824962640512
31
0.000000000000000
  0
LINE
  5
F1031F
330
F10320
100
AcDbEntity
8
Geo
100
AcDbLine
10
-55.2382133995038
20
5.81824962640512
30
0.000000000000000
11
-55.1382133995038
21
5.76196712397980
31
0.000000000000000
  0
LINE
  5
F10321
330
F10322
100
AcDbEntity
8
Geo
100
AcDbLine
10
-55.1382133995038
20
5.76196712397980
30
0.000000000000000
11
-55.0382133995038
21
5.70583695311219
31
0.000000000000000
  0
LINE
  5
F10323
330
F10324
100
AcDbEntity
8
Geo
100
AcDbLine
10
-55.0382133995038
20
5.70583695311219
30
0.000000000000000
11
-54.9382133995038
21
5.64986659774193
31
0.000000000000000
  0
LINE
  5
F10325
330
F10326
100
AcDbEntity
8
Geo
100
AcDbLine
10
-54.9382133995038
20
5.64986659774193
30
0.000000000000000
11
-54.8382133995038
21
5.59406352050015
31
0.000000000000000
  0
LINE
  5
F10327
330
F10328
100
AcDbEntity
8
Geo
100
AcDbLine
10
-54.8382133995038
20
5.59406352050015
30
0.000000000000000
11
-54.7382133995038
21
5.53843516171446
31
0.000000000000000
  0
LINE
  5
F10329
330
F1032A
100
AcDbEntity
8
Geo
100
AcDbLine
10
-54.7382133995038
20
5.53843516171446
30
0.000000000000000
11
-54.6382133995038
21
5.48298893841698
31
0.000000000000000
  0
LINE
  5
F1032B
330
F1032C
100
AcDbEntity
8
Geo
100
AcDbLine
10
-54.6382133995038
20
5.48298893841698
30
0.000000000000000
11
-54.5382133995038
21
5.42773224335532
31
0.000000000000000
  0
LINE
  5
F1032D
330
F1032E
100
AcDbEntity
8
Geo
100
AcDbLine
10
-54.5382133995038
20
5.42773224335532
30
0.000000000000000
11
-54.4382133995038
21
5.37267244400696
31
0.000000000000000
  0
LINE
  5
F1032F
330
F10330
100
AcDbEntity
8
Geo
100
AcDbLine
10
-54.4382133995038
20
5.37267244400696
30
0.000000000000000
11
-54.3382133995038
21
5.31781688159692
31
0.000000000000000
  0
LINE
  5
F10331
330
F10332
100
AcDbEntity
8
Geo
100
AcDbLine
10
-54.3382133995038
20
5.31781688159692
30
0.000000000000000
11
-54.2382133995038
21
5.26317287011892
31
0.000000000000000
  0
LINE
  5
F10333
330
F10334
100
AcDbEntity
8
Geo
100
AcDbLine
10
-54.2382133995038
20
5.26317287011892
30
0.000000000000000
11
-54.1382133995038
21
5.20874769536020
31
0.000000000000000
  0
LINE
  5
F10335
330
F10336
100
AcDbEntity
8
Geo
100
AcDbLine
10
-54.1382133995038
20
5.20874769536020
30
0.000000000000000
11
-54.0382133995038
21
5.15454861393010
31
0.000000000000000
  0
LINE
  5
F10337
330
F10338
100
AcDbEntity
8
Geo
100
AcDbLine
10
-54.0382133995038
20
5.15454861393010
30
0.000000000000000
11
-53.9382133995038
21
5.10058285229252
31
0.000000000000000
  0
LINE
  5
F10339
330
F1033A
100
AcDbEntity
8
Geo
100
AcDbLine
10
-53.9382133995038
20
5.10058285229252
30
0.000000000000000
11
-53.8382133995038
21
5.04685760580239
31
0.000000000000000
  0
LINE
  5
F1033B
330
F1033C
100
AcDbEntity
8
Geo
100
AcDbLine
10
-53.8382133995038
20
5.04685760580239
30
0.000000000000000
11
-53.7382133995038
21
4.99338003774631
31
0.000000000000000
  0
LINE
  5
F1033D
330
F1033E
100
AcDbEntity
8
Geo
100
AcDbLine
10
-53.7382133995038
20
4.99338003774631
30
0.000000000000000
11
-53.6382133995038
21
4.94015727838747
31
0.000000000000000
  0
LINE
  5
F1033F
330
F10340
100
AcDbEntity
8
Geo
100
AcDbLine
10
-53.6382133995038
20
4.94015727838747
30
0.000000000000000
11
-53.5382133995038
21
4.88719642401494
31
0.000000000000000
  0
LINE
  5
F10341
330
F10342
100
AcDbEntity
8
Geo
100
AcDbLine
10
-53.5382133995038
20
4.88719642401494
30
0.000000000000000
11
-53.4382133995038
21
4.83450453599751
31
0.000000000000000
  0
LINE
  5
F10343
330
F10344
100
AcDbEntity
8
Geo
100
AcDbLine
10
-53.4382133995038
20
4.83450453599751
30
0.000000000000000
11
-53.3382133995038
21
4.78208863984217
31
0.000000000000000
  0
LINE
  5
F10345
330
F10346
100
AcDbEntity
8
Geo
100
AcDbLine
10
-53.3382133995038
20
4.78208863984217
30
0.000000000000000
11
-53.2382133995038
21
4.72995572425744
31
0.000000000000000
  0
LINE
  5
F10347
330
F10348
100
AcDbEntity
8
Geo
100
AcDbLine
10
-53.2382133995038
20
4.72995572425744
30
0.000000000000000
11
-53.1382133995038
21
4.67811274022150
31
0.000000000000000
  0
LINE
  5
F10349
330
F1034A
100
AcDbEntity
8
Geo
100
AcDbLine
10
-53.1382133995038
20
4.67811274022150
30
0.000000000000000
11
-53.0382133995038
21
4.62656660005540
31
0.000000000000000
  0
LINE
  5
F1034B
330
F1034C
100
AcDbEntity
8
Geo
100
AcDbLine
10
-53.0382133995038
20
4.62656660005540
30
0.000000000000000
11
-52.9382133995038
21
4.57532417650147
31
0.000000000000000
  0
LINE
  5
F1034D
330
F1034E
100
AcDbEntity
8
Geo
100
AcDbLine
10
-52.9382133995038
20
4.57532417650147
30
0.000000000000000
11
-52.8382133995038
21
4.52439230180694
31
0.000000000000000
  0
LINE
  5
F1034F
330
F10350
100
AcDbEntity
8
Geo
100
AcDbLine
10
-52.8382133995038
20
4.52439230180694
30
0.000000000000000
11
-52.7382133995037
21
4.47377776681299
31
0.000000000000000
  0
LINE
  5
F10351
330
F10352
100
AcDbEntity
8
Geo
100
AcDbLine
10
-52.7382133995037
20
4.47377776681299
30
0.000000000000000
11
-52.6382133995037
21
4.42348732004928
31
0.000000000000000
  0
LINE
  5
F10353
330
F10354
100
AcDbEntity
8
Geo
100
AcDbLine
10
-52.6382133995037
20
4.42348732004928
30
0.000000000000000
11
-52.5382133995037
21
4.37352766683423
31
0.000000000000000
  0
LINE
  5
F10355
330
F10356
100
AcDbEntity
8
Geo
100
AcDbLine
10
-52.5382133995037
20
4.37352766683423
30
0.000000000000000
11
-52.4382133995037
21
4.32390546838091
31
0.000000000000000
  0
LINE
  5
F10357
330
F10358
100
AcDbEntity
8
Geo
100
AcDbLine
10
-52.4382133995037
20
4.32390546838091
30
0.000000000000000
11
-52.3382133995037
21
4.27462734090893
31
0.000000000000000
  0
LINE
  5
F10359
330
F1035A
100
AcDbEntity
8
Geo
100
AcDbLine
10
-52.3382133995037
20
4.27462734090893
30
0.000000000000000
11
-52.2382133995037
21
4.22569985476229
31
0.000000000000000
  0
LINE
  5
F1035B
330
F1035C
100
AcDbEntity
8
Geo
100
AcDbLine
10
-52.2382133995037
20
4.22569985476229
30
0.000000000000000
11
-52.1382133995037
21
4.17712953353333
31
0.000000000000000
  0
LINE
  5
F1035D
330
F1035E
100
AcDbEntity
8
Geo
100
AcDbLine
10
-52.1382133995037
20
4.17712953353333
30
0.000000000000000
11
-52.0382133995037
21
4.12892285319290
31
0.000000000000000
  0
LINE
  5
F1035F
330
F10360
100
AcDbEntity
8
Geo
100
AcDbLine
10
-52.0382133995037
20
4.12892285319290
30
0.000000000000000
11
-51.9382133995037
21
4.08108624122699
31
0.000000000000000
  0
LINE
  5
F10361
330
F10362
100
AcDbEntity
8
Geo
100
AcDbLine
10
-51.9382133995037
20
4.08108624122699
30
0.000000000000000
11
-51.8382133995037
21
4.03362607577965
31
0.000000000000000
  0
LINE
  5
F10363
330
F10364
100
AcDbEntity
8
Geo
100
AcDbLine
10
-51.8382133995037
20
4.03362607577965
30
0.000000000000000
11
-51.7382133995037
21
3.98654868480262
31
0.000000000000000
  0
LINE
  5
F10365
330
F10366
100
AcDbEntity
8
Geo
100
AcDbLine
10
-51.7382133995037
20
3.98654868480262
30
0.000000000000000
11
-51.6382133995037
21
3.93986034521163
31
0.000000000000000
  0
LINE
  5
F10367
330
F10368
100
AcDbEntity
8
Geo
100
AcDbLine
10
-51.6382133995037
20
3.93986034521163
30
0.000000000000000
11
-51.5382133995037
21
3.89356728204945
31
0.000000000000000
  0
LINE
  5
F10369
330
F1036A
100
AcDbEntity
8
Geo
100
AcDbLine
10
-51.5382133995037
20
3.89356728204945
30
0.000000000000000
11
-51.4382133995037
21
3.84767566765593
31
0.000000000000000
  0
LINE
  5
F1036B
330
F1036C
100
AcDbEntity
8
Geo
100
AcDbLine
10
-51.4382133995037
20
3.84767566765593
30
0.000000000000000
11
-51.3382133995037
21
3.80219162084499
31
0.000000000000000
  0
LINE
  5
F1036D
330
F1036E
100
AcDbEntity
8
Geo
100
AcDbLine
10
-51.3382133995037
20
3.80219162084499
30
0.000000000000000
11
-51.2382133995037
21
3.75712120608883
31
0.000000000000000
  0
LINE
  5
F1036F
330
F10370
100
AcDbEntity
8
Geo
100
AcDbLine
10
-51.2382133995037
20
3.75712120608883
30
0.000000000000000
11
-51.1382133995037
21
3.71247043270931
31
0.000000000000000
  0
LINE
  5
F10371
330
F10372
100
AcDbEntity
8
Geo
100
AcDbLine
10
-51.1382133995037
20
3.71247043270931
30
0.000000000000000
11
-51.0382133995037
21
3.66824525407673
31
0.000000000000000
  0
LINE
  5
F10373
330
F10374
100
AcDbEntity
8
Geo
100
AcDbLine
10
-51.0382133995037
20
3.66824525407673
30
0.000000000000000
11
-50.9382133995037
21
3.62445156681606
31
0.000000000000000
  0
LINE
  5
F10375
330
F10376
100
AcDbEntity
8
Geo
100
AcDbLine
10
-50.9382133995037
20
3.62445156681606
30
0.000000000000000
11
-50.8382133995037
21
3.58109521002072
31
0.000000000000000
  0
LINE
  5
F10377
330
F10378
100
AcDbEntity
8
Geo
100
AcDbLine
10
-50.8382133995037
20
3.58109521002072
30
0.000000000000000
11
-50.7382133995037
21
3.53818196447405
31
0.000000000000000
  0
LINE
  5
F10379
330
F1037A
100
AcDbEntity
8
Geo
100
AcDbLine
10
-50.7382133995037
20
3.53818196447405
30
0.000000000000000
11
-50.6382133995037
21
3.49571755187855
31
0.000000000000000
  0
LINE
  5
F1037B
330
F1037C
100
AcDbEntity
8
Geo
100
AcDbLine
10
-50.6382133995037
20
3.49571755187855
30
0.000000000000000
11
-50.5382133995037
21
3.45370763409299
31
0.000000000000000
  0
LINE
  5
F1037D
330
F1037E
100
AcDbEntity
8
Geo
100
AcDbLine
10
-50.5382133995037
20
3.45370763409299
30
0.000000000000000
11
-50.4382133995037
21
3.41215781237751
31
0.000000000000000
  0
LINE
  5
F1037F
330
F10380
100
AcDbEntity
8
Geo
100
AcDbLine
10
-50.4382133995037
20
3.41215781237751
30
0.000000000000000
11
-50.3382133995037
21
3.37107362664677
31
0.000000000000000
  0
LINE
  5
F10381
330
F10382
100
AcDbEntity
8
Geo
100
AcDbLine
10
-50.3382133995037
20
3.37107362664677
30
0.000000000000000
11
-50.2382133995037
21
3.33046055473134
31
0.000000000000000
  0
LINE
  5
F10383
330
F10384
100
AcDbEntity
8
Geo
100
AcDbLine
10
-50.2382133995037
20
3.33046055473134
30
0.000000000000000
11
-50.1382133995037
21
3.29032401164732
31
0.000000000000000
  0
LINE
  5
F10385
330
F10386
100
AcDbEntity
8
Geo
100
AcDbLine
10
-50.1382133995037
20
3.29032401164732
30
0.000000000000000
11
-50.0382133995037
21
3.25066934887431
31
0.000000000000000
  0
LINE
  5
F10387
330
F10388
100
AcDbEntity
8
Geo
100
AcDbLine
10
-50.0382133995037
20
3.25066934887431
30
0.000000000000000
11
-49.9382133995037
21
3.21150185364194
31
0.000000000000000
  0
LINE
  5
F10389
330
F1038A
100
AcDbEntity
8
Geo
100
AcDbLine
10
-49.9382133995037
20
3.21150185364194
30
0.000000000000000
11
-49.8382133995037
21
3.17282674822489
31
0.000000000000000
  0
LINE
  5
F1038B
330
F1038C
100
AcDbEntity
8
Geo
100
AcDbLine
10
-49.8382133995037
20
3.17282674822489
30
0.000000000000000
11
-49.7382133995037
21
3.13464918924657
31
0.000000000000000
  0
LINE
  5
F1038D
330
F1038E
100
AcDbEntity
8
Geo
100
AcDbLine
10
-49.7382133995037
20
3.13464918924657
30
0.000000000000000
11
-49.6382133995037
21
3.09697426699163
31
0.000000000000000
  0
LINE
  5
F1038F
330
F10390
100
AcDbEntity
8
Geo
100
AcDbLine
10
-49.6382133995037
20
3.09697426699163
30
0.000000000000000
11
-49.5382133995037
21
3.05980700472722
31
0.000000000000000
  0
LINE
  5
F10391
330
F10392
100
AcDbEntity
8
Geo
100
AcDbLine
10
-49.5382133995037
20
3.05980700472722
30
0.000000000000000
11
-49.4382133995037
21
3.02315235803325
31
0.000000000000000
  0
LINE
  5
F10393
330
F10394
100
AcDbEntity
8
Geo
100
AcDbLine
10
-49.4382133995037
20
3.02315235803325
30
0.000000000000000
11
-49.3382133995037
21
2.98701521414163
31
0.000000000000000
  0
LINE
  5
F10395
330
F10396
100
AcDbEntity
8
Geo
100
AcDbLine
10
-49.3382133995037
20
2.98701521414163
30
0.000000000000000
11
-49.2382133995037
21
2.95140039128469
31
0.000000000000000
  0
LINE
  5
F10397
330
F10398
100
AcDbEntity
8
Geo
100
AcDbLine
10
-49.2382133995037
20
2.95140039128469
30
0.000000000000000
11
-49.1382133995037
21
2.91631263805270
31
0.000000000000000
  0
LINE
  5
F10399
330
F1039A
100
AcDbEntity
8
Geo
100
AcDbLine
10
-49.1382133995037
20
2.91631263805270
30
0.000000000000000
11
-49.0382133995037
21
2.88175663276079
31
0.000000000000000
  0
LINE
  5
F1039B
330
F1039C
100
AcDbEntity
8
Geo
100
AcDbLine
10
-49.0382133995037
20
2.88175663276079
30
0.000000000000000
11
-48.9382133995037
21
2.84773698282514
31
0.000000000000000
  0
LINE
  5
F1039D
330
F1039E
100
AcDbEntity
8
Geo
100
AcDbLine
10
-48.9382133995037
20
2.84773698282514
30
0.000000000000000
11
-48.8382133995037
21
2.81425822414866
31
0.000000000000000
  0
LINE
  5
F1039F
330
F103A0
100
AcDbEntity
8
Geo
100
AcDbLine
10
-48.8382133995037
20
2.81425822414866
30
0.000000000000000
11
-48.7382133995037
21
2.78132482051626
31
0.000000000000000
  0
LINE
  5
F103A1
330
F103A2
100
AcDbEntity
8
Geo
100
AcDbLine
10
-48.7382133995037
20
2.78132482051626
30
0.000000000000000
11
-48.6382133995037
21
2.74894116299962
31
0.000000000000000
  0
LINE
  5
F103A3
330
F103A4
100
AcDbEntity
8
Geo
100
AcDbLine
10
-48.6382133995037
20
2.74894116299962
30
0.000000000000000
11
-48.5382133995037
21
2.71711156937177
31
0.000000000000000
  0
LINE
  5
F103A5
330
F103A6
100
AcDbEntity
8
Geo
100
AcDbLine
10
-48.5382133995037
20
2.71711156937177
30
0.000000000000000
11
-48.4382133995037
21
2.68584028353138
31
0.000000000000000
  0
LINE
  5
F103A7
330
F103A8
100
AcDbEntity
8
Geo
100
AcDbLine
10
-48.4382133995037
20
2.68584028353138
30
0.000000000000000
11
-48.3382133995037
21
2.65513147493689
31
0.000000000000000
  0
LINE
  5
F103A9
330
F103AA
100
AcDbEntity
8
Geo
100
AcDbLine
10
-48.3382133995037
20
2.65513147493689
30
0.000000000000000
11
-48.2382133995037
21
2.62498923805063
31
0.000000000000000
  0
LINE
  5
F103AB
330
F103AC
100
AcDbEntity
8
Geo
100
AcDbLine
10
-48.2382133995037
20
2.62498923805063
30
0.000000000000000
11
-48.1382133995037
21
2.59541759179286
31
0.000000000000000
  0
LINE
  5
F103AD
330
F103AE
100
AcDbEntity
8
Geo
100
AcDbLine
10
-48.1382133995037
20
2.59541759179286
30
0.000000000000000
11
-48.0382133995037
21
2.56642047900593
31
0.000000000000000
  0
LINE
  5
F103AF
330
F103B0
100
AcDbEntity
8
Geo
100
AcDbLine
10
-48.0382133995037
20
2.56642047900593
30
0.000000000000000
11
-47.9382133995037
21
2.53800176592859
31
0.000000000000000
  0
LINE
  5
F103B1
330
F103B2
100
AcDbEntity
8
Geo
100
AcDbLine
10
-47.9382133995037
20
2.53800176592859
30
0.000000000000000
11
-47.8382133995037
21
2.51016524168048
31
0.000000000000000
  0
LINE
  5
F103B3
330
F103B4
100
AcDbEntity
8
Geo
100
AcDbLine
10
-47.8382133995037
20
2.51016524168048
30
0.000000000000000
11
-47.7382133995037
21
2.48291461775694
31
0.000000000000000
  0
LINE
  5
F103B5
330
F103B6
100
AcDbEntity
8
Geo
100
AcDbLine
10
-47.7382133995037
20
2.48291461775694
30
0.000000000000000
11
-47.6382133995037
21
2.45625352753411
31
0.000000000000000
  0
LINE
  5
F103B7
330
F103B8
100
AcDbEntity
8
Geo
100
AcDbLine
10
-47.6382133995037
20
2.45625352753411
30
0.000000000000000
11
-47.5382133995037
21
2.43018552578453
31
0.000000000000000
  0
LINE
  5
F103B9
330
F103BA
100
AcDbEntity
8
Geo
100
AcDbLine
10
-47.5382133995037
20
2.43018552578453
30
0.000000000000000
11
-47.4382133995037
21
2.40471408820313
31
0.000000000000000
  0
LINE
  5
F103BB
330
F103BC
100
AcDbEntity
8
Geo
100
AcDbLine
10
-47.4382133995037
20
2.40471408820313
30
0.000000000000000
11
-47.3382133995037
21
2.37984261094388
31
0.000000000000000
  0
LINE
  5
F103BD
330
F103BE
100
AcDbEntity
8
Geo
100
AcDbLine
10
-47.3382133995037
20
2.37984261094388
30
0.000000000000000
11
-47.2382133995037
21
2.35557441016687
31
0.000000000000000
  0
LINE
  5
F103BF
330
F103C0
100
AcDbEntity
8
Geo
100
AcDbLine
10
-47.2382133995037
20
2.35557441016687
30
0.000000000000000
11
-47.1382133995037
21
2.33191272159628
31
0.000000000000000
  0
LINE
  5
F103C1
330
F103C2
100
AcDbEntity
8
Geo
100
AcDbLine
10
-47.1382133995037
20
2.33191272159628
30
0.000000000000000
11
-47.0382133995037
21
2.30886070008885
31
0.000000000000000
  0
LINE
  5
F103C3
330
F103C4
100
AcDbEntity
8
Geo
100
AcDbLine
10
-47.0382133995037
20
2.30886070008885
30
0.000000000000000
11
-46.9382133995037
21
2.28642141921329
31
0.000000000000000
  0
LINE
  5
F103C5
330
F103C6
100
AcDbEntity
8
Geo
100
AcDbLine
10
-46.9382133995037
20
2.28642141921329
30
0.000000000000000
11
-46.8382133995037
21
2.26459787084049
31
0.000000000000000
  0
LINE
  5
F103C7
330
F103C8
100
AcDbEntity
8
Geo
100
AcDbLine
10
-46.8382133995037
20
2.26459787084049
30
0.000000000000000
11
-46.7382133995037
21
2.24339296474456
31
0.000000000000000
  0
LINE
  5
F103C9
330
F103CA
100
AcDbEntity
8
Geo
100
AcDbLine
10
-46.7382133995037
20
2.24339296474456
30
0.000000000000000
11
-46.6382133995037
21
2.22280952821490
31
0.000000000000000
  0
LINE
  5
F103CB
330
F103CC
100
AcDbEntity
8
Geo
100
AcDbLine
10
-46.6382133995037
20
2.22280952821490
30
0.000000000000000
11
-46.5382133995037
21
2.20285030567922
31
0.000000000000000
  0
LINE
  5
F103CD
330
F103CE
100
AcDbEntity
8
Geo
100
AcDbLine
10
-46.5382133995037
20
2.20285030567922
30
0.000000000000000
11
-46.4382133995037
21
2.18351795833762
31
0.000000000000000
  0
LINE
  5
F103CF
330
F103D0
100
AcDbEntity
8
Geo
100
AcDbLine
10
-46.4382133995037
20
2.18351795833762
30
0.000000000000000
11
-46.3382133995037
21
2.16481506380778
31
0.000000000000000
  0
LINE
  5
F103D1
330
F103D2
100
AcDbEntity
8
Geo
100
AcDbLine
10
-46.3382133995037
20
2.16481506380778
30
0.000000000000000
11
-46.2382133995037
21
2.14674411578125
31
0.000000000000000
  0
LINE
  5
F103D3
330
F103D4
100
AcDbEntity
8
Geo
100
AcDbLine
10
-46.2382133995037
20
2.14674411578125
30
0.000000000000000
11
-46.1382133995037
21
2.12930752369100
31
0.000000000000000
  0
LINE
  5
F103D5
330
F103D6
100
AcDbEntity
8
Geo
100
AcDbLine
10
-46.1382133995037
20
2.12930752369100
30
0.000000000000000
11
-46.0382133995037
21
2.11250761239015
31
0.000000000000000
  0
LINE
  5
F103D7
330
F103D8
100
AcDbEntity
8
Geo
100
AcDbLine
10
-46.0382133995037
20
2.11250761239015
30
0.000000000000000
11
-45.9382133995037
21
2.09634662184198
31
0.000000000000000
  0
LINE
  5
F103D9
330
F103DA
100
AcDbEntity
8
Geo
100
AcDbLine
10
-45.9382133995037
20
2.09634662184198
30
0.000000000000000
11
-45.8382133995037
21
2.08082670682128
31
0.000000000000000
  0
LINE
  5
F103DB
330
F103DC
100
AcDbEntity
8
Geo
100
AcDbLine
10
-45.8382133995037
20
2.08082670682128
30
0.000000000000000
11
-45.7382133995037
21
2.06594993662708
31
0.000000000000000
  0
LINE
  5
F103DD
330
F103DE
100
AcDbEntity
8
Geo
100
AcDbLine
10
-45.7382133995037
20
2.06594993662708
30
0.000000000000000
11
-45.6382133995036
21
2.05171829480668
31
0.000000000000000
  0
LINE
  5
F103DF
330
F103E0
100
AcDbEntity
8
Geo
100
AcDbLine
10
-45.6382133995036
20
2.05171829480668
30
0.000000000000000
11
-45.5382133995036
21
2.03813367889125
31
0.000000000000000
  0
LINE
  5
F103E1
330
F103E2
100
AcDbEntity
8
Geo
100
AcDbLine
10
-45.5382133995036
20
2.03813367889125
30
0.000000000000000
11
-45.4382133995036
21
2.02519790014278
31
0.000000000000000
  0
LINE
  5
F103E3
330
F103E4
100
AcDbEntity
8
Geo
100
AcDbLine
10
-45.4382133995036
20
2.02519790014278
30
0.000000000000000
11
-45.3382133995036
21
2.01291268331261
31
0.000000000000000
  0
LINE
  5
F103E5
330
F103E6
100
AcDbEntity
8
Geo
100
AcDbLine
10
-45.3382133995036
20
2.01291268331261
30
0.000000000000000
11
-45.2382133995036
21
2.00127966641145
31
0.000000000000000
  0
LINE
  5
F103E7
330
F103E8
100
AcDbEntity
8
Geo
100
AcDbLine
10
-45.2382133995036
20
2.00127966641145
30
0.000000000000000
11
-45.1382133995036
21
1.99030040049098
31
0.000000000000000
  0
LINE
  5
F103E9
330
F103EA
100
AcDbEntity
8
Geo
100
AcDbLine
10
-45.1382133995036
20
1.99030040049098
30
0.000000000000000
11
-45.0382133995036
21
1.97997634943707
31
0.000000000000000
  0
LINE
  5
F103EB
330
F103EC
100
AcDbEntity
8
Geo
100
AcDbLine
10
-45.0382133995036
20
1.97997634943707
30
0.000000000000000
11
-44.9382133995036
21
1.97030888977456
31
0.000000000000000
  0
LINE
  5
F103ED
330
F103EE
100
AcDbEntity
8
Geo
100
AcDbLine
10
-44.9382133995036
20
1.97030888977456
30
0.000000000000000
11
-44.8382133995036
21
1.96129931048375
31
0.000000000000000
  0
LINE
  5
F103EF
330
F103F0
100
AcDbEntity
8
Geo
100
AcDbLine
10
-44.8382133995036
20
1.96129931048375
30
0.000000000000000
11
-44.7382133995036
21
1.95294881282852
31
0.000000000000000
  0
LINE
  5
F103F1
330
F103F2
100
AcDbEntity
8
Geo
100
AcDbLine
10
-44.7382133995036
20
1.95294881282852
30
0.000000000000000
11
-44.6382133995036
21
1.94525851019620
31
0.000000000000000
  0
LINE
  5
F103F3
330
F103F4
100
AcDbEntity
8
Geo
100
AcDbLine
10
-44.6382133995036
20
1.94525851019620
30
0.000000000000000
11
-44.5382133995036
21
1.93822942794908
31
0.000000000000000
  0
LINE
  5
F103F5
330
F103F6
100
AcDbEntity
8
Geo
100
AcDbLine
10
-44.5382133995036
20
1.93822942794908
30
0.000000000000000
11
-44.4382133995036
21
1.93186250328771
31
0.000000000000000
  0
LINE
  5
F103F7
330
F103F8
100
AcDbEntity
8
Geo
100
AcDbLine
10
-44.4382133995036
20
1.93186250328771
30
0.000000000000000
11
-44.3382133995036
21
1.92615858512594
31
0.000000000000000
  0
LINE
  5
F103F9
330
F103FA
100
AcDbEntity
8
Geo
100
AcDbLine
10
-44.3382133995036
20
1.92615858512594
30
0.000000000000000
11
-44.2382133995036
21
1.92111843397775
31
0.000000000000000
  0
LINE
  5
F103FB
330
F103FC
100
AcDbEntity
8
Geo
100
AcDbLine
10
-44.2382133995036
20
1.92111843397775
30
0.000000000000000
11
-44.1382133995036
21
1.91674272185583
31
0.000000000000000
  0
LINE
  5
F103FD
330
F103FE
100
AcDbEntity
8
Geo
100
AcDbLine
10
-44.1382133995036
20
1.91674272185583
30
0.000000000000000
11
-44.0382133995036
21
1.91303203218196
31
0.000000000000000
  0
LINE
  5
F103FF
330
F10400
100
AcDbEntity
8
Geo
100
AcDbLine
10
-44.0382133995036
20
1.91303203218196
30
0.000000000000000
11
-43.9382133995036
21
1.90998685970929
31
0.000000000000000
  0
LINE
  5
F10401
330
F10402
100
AcDbEntity
8
Geo
100
AcDbLine
10
-43.9382133995036
20
1.90998685970929
30
0.000000000000000
11
-43.8382133995036
21
1.90760761045629
31
0.000000000000000
  0
LINE
  5
F10403
330
F10404
100
AcDbEntity
8
Geo
100
AcDbLine
10
-43.8382133995036
20
1.90760761045629
30
0.000000000000000
11
-43.7382133995036
21
1.90589460165268
31
0.000000000000000
  0
LINE
  5
F10405
330
F10406
100
AcDbEntity
8
Geo
100
AcDbLine
10
-43.7382133995036
20
1.90589460165268
30
0.000000000000000
11
-43.6382133995036
21
1.90484806169709
31
0.000000000000000
  0
LINE
  5
F10407
330
F10408
100
AcDbEntity
8
Geo
100
AcDbLine
10
-43.6382133995036
20
1.90484806169709
30
0.000000000000000
11
-43.5382133995036
21
1.90446813012662
31
0.000000000000000
  0
LINE
  5
F10409
330
F1040A
100
AcDbEntity
8
Geo
100
AcDbLine
10
-70.7382133995037
20
11.1330832947773
30
0.000000000000000
11
-70.6382133995037
21
11.3957341234778
31
0.000000000000000
  0
LINE
  5
F1040B
330
F1040C
100
AcDbEntity
8
Geo
100
AcDbLine
10
-70.6382133995037
20
11.3957341234778
30
0.000000000000000
11
-70.5382133995037
21
11.4690327501565
31
0.000000000000000
  0
LINE
  5
F1040D
330
F1040E
100
AcDbEntity
8
Geo
100
AcDbLine
10
-70.5382133995037
20
11.4690327501565
30
0.000000000000000
11
-70.4382133995037
21
11.5021759709265
31
0.000000000000000
  0
LINE
  5
F1040F
330
F10410
100
AcDbEntity
8
Geo
100
AcDbLine
10
-70.4382133995037
20
11.5021759709265
30
0.000000000000000
11
-70.3382133995037
21
11.5096375427607
31
0.000000000000000
  0
LINE
  5
F10411
330
F10412
100
AcDbEntity
8
Geo
100
AcDbLine
10
-70.3382133995037
20
11.5096375427607
30
0.000000000000000
11
-70.2382133995037
21
11.4964231397593
31
0.000000000000000
  0
LINE
  5
F10413
330
F10414
100
AcDbEntity
8
Geo
100
AcDbLine
10
-70.2382133995037
20
11.4964231397593
30
0.000000000000000
11
-70.1382133995037
21
11.4732733110904
31
0.000000000000000
  0
LINE
  5
F10415
330
F10416
100
AcDbEntity
8
Geo
100
AcDbLine
10
-70.1382133995037
20
11.4732733110904
30
0.000000000000000
11
-70.0382133995037
21
11.4495143149488
31
0.000000000000000
  0
LINE
  5
F10417
330
F10418
100
AcDbEntity
8
Geo
100
AcDbLine
10
-70.0382133995037
20
11.4495143149488
30
0.000000000000000
11
-69.9382133995037
21
11.4251493191654
31
0.000000000000000
  0
LINE
  5
F10419
330
F1041A
100
AcDbEntity
8
Geo
100
AcDbLine
10
-69.9382133995037
20
11.4251493191654
30
0.000000000000000
11
-69.8382133995037
21
11.4001815723703
31
0.000000000000000
  0
LINE
  5
F1041B
330
F1041C
100
AcDbEntity
8
Geo
100
AcDbLine
10
-69.8382133995037
20
11.4001815723703
30
0.000000000000000
11
-69.7382133995037
21
11.3746144035592
31
0.000000000000000
  0
LINE
  5
F1041D
330
F1041E
100
AcDbEntity
8
Geo
100
AcDbLine
10
-69.7382133995037
20
11.3746144035592
30
0.000000000000000
11
-69.6382133995037
21
11.3484512216503
31
0.000000000000000
  0
LINE
  5
F1041F
330
F10420
100
AcDbEntity
8
Geo
100
AcDbLine
10
-69.6382133995037
20
11.3484512216503
30
0.000000000000000
11
-69.5382133995037
21
11.3216955150290
31
0.000000000000000
  0
LINE
  5
F10421
330
F10422
100
AcDbEntity
8
Geo
100
AcDbLine
10
-69.5382133995037
20
11.3216955150290
30
0.000000000000000
11
-69.4382133995037
21
11.2943508510832
31
0.000000000000000
  0
LINE
  5
F10423
330
F10424
100
AcDbEntity
8
Geo
100
AcDbLine
10
-69.4382133995037
20
11.2943508510832
30
0.000000000000000
11
-69.3382133995037
21
11.2664208757275
31
0.000000000000000
  0
LINE
  5
F10425
330
F10426
100
AcDbEntity
8
Geo
100
AcDbLine
10
-69.3382133995037
20
11.2664208757275
30
0.000000000000000
11
-69.2382133995037
21
11.2379093129174
31
0.000000000000000
  0
LINE
  5
F10427
330
F10428
100
AcDbEntity
8
Geo
100
AcDbLine
10
-69.2382133995037
20
11.2379093129174
30
0.000000000000000
11
-69.1382133995037
21
11.2088199641523
31
0.000000000000000
  0
LINE
  5
F10429
330
F1042A
100
AcDbEntity
8
Geo
100
AcDbLine
10
-69.1382133995037
20
11.2088199641523
30
0.000000000000000
11
-69.0382133995037
21
11.1791567079690
31
0.000000000000000
  0
LINE
  5
F1042B
330
F1042C
100
AcDbEntity
8
Geo
100
AcDbLine
10
-69.0382133995037
20
11.1791567079690
30
0.000000000000000
11
-68.9382133995037
21
11.1489234994242
31
0.000000000000000
  0
LINE
  5
F1042D
330
F1042E
100
AcDbEntity
8
Geo
100
AcDbLine
10
-68.9382133995037
20
11.1489234994242
30
0.000000000000000
11
-68.8382133995037
21
11.1181243695677
31
0.000000000000000
  0
LINE
  5
F1042F
330
F10430
100
AcDbEntity
8
Geo
100
AcDbLine
10
-68.8382133995037
20
11.1181243695677
30
0.000000000000000
11
-68.7382133995037
21
11.0867634249046
31
0.000000000000000
  0
LINE
  5
F10431
330
F10432
100
AcDbEntity
8
Geo
100
AcDbLine
10
-68.7382133995037
20
11.0867634249046
30
0.000000000000000
11
-68.6382133995037
21
11.0548448468476
31
0.000000000000000
  0
LINE
  5
F10433
330
F10434
100
AcDbEntity
8
Geo
100
AcDbLine
10
-68.6382133995037
20
11.0548448468476
30
0.000000000000000
11
-68.5382133995037
21
11.0223728911599
31
0.000000000000000
  0
LINE
  5
F10435
330
F10436
100
AcDbEntity
8
Geo
100
AcDbLine
10
-68.5382133995037
20
11.0223728911599
30
0.000000000000000
11
-68.4382133995037
21
10.9893518873874
31
0.000000000000000
  0
LINE
  5
F10437
330
F10438
100
AcDbEntity
8
Geo
100
AcDbLine
10
-68.4382133995037
20
10.9893518873874
30
0.000000000000000
11
-68.3382133995037
21
10.9557862382818
31
0.000000000000000
  0
LINE
  5
F10439
330
F1043A
100
AcDbEntity
8
Geo
100
AcDbLine
10
-68.3382133995037
20
10.9557862382818
30
0.000000000000000
11
-68.2382133995037
21
10.9216804192131
31
0.000000000000000
  0
LINE
  5
F1043B
330
F1043C
100
AcDbEntity
8
Geo
100
AcDbLine
10
-68.2382133995037
20
10.9216804192131
30
0.000000000000000
11
-68.1382133995037
21
10.8870389775735
31
0.000000000000000
  0
LINE
  5
F1043D
330
F1043E
100
AcDbEntity
8
Geo
100
AcDbLine
10
-68.1382133995037
20
10.8870389775735
30
0.000000000000000
11
-68.0382133995037
21
10.8518665321704
31
0.000000000000000
  0
LINE
  5
F1043F
330
F10440
100
AcDbEntity
8
Geo
100
AcDbLine
10
-68.0382133995037
20
10.8518665321704
30
0.000000000000000
11
-67.9382133995037
21
10.8161677726112
31
0.000000000000000
  0
LINE
  5
F10441
330
F10442
100
AcDbEntity
8
Geo
100
AcDbLine
10
-67.9382133995037
20
10.8161677726112
30
0.000000000000000
11
-67.8382133995037
21
10.7799474586776
31
0.000000000000000
  0
LINE
  5
F10443
330
F10444
100
AcDbEntity
8
Geo
100
AcDbLine
10
-67.8382133995037
20
10.7799474586776
30
0.000000000000000
11
-67.7382133995037
21
10.7432104196910
31
0.000000000000000
  0
LINE
  5
F10445
330
F10446
100
AcDbEntity
8
Geo
100
AcDbLine
10
-67.7382133995037
20
10.7432104196910
30
0.000000000000000
11
-67.6382133995037
21
10.7059615538690
31
0.000000000000000
  0
LINE
  5
F10447
330
F10448
100
AcDbEntity
8
Geo
100
AcDbLine
10
-67.6382133995037
20
10.7059615538690
30
0.000000000000000
11
-67.5382133995037
21
10.6682058276718
31
0.000000000000000
  0
LINE
  5
F10449
330
F1044A
100
AcDbEntity
8
Geo
100
AcDbLine
10
-67.5382133995037
20
10.6682058276718
30
0.000000000000000
11
-67.4382133995037
21
10.6299482751403
31
0.000000000000000
  0
LINE
  5
F1044B
330
F1044C
100
AcDbEntity
8
Geo
100
AcDbLine
10
-67.4382133995037
20
10.6299482751403
30
0.000000000000000
11
-67.3382133995037
21
10.5911939972248
31
0.000000000000000
  0
LINE
  5
F1044D
330
F1044E
100
AcDbEntity
8
Geo
100
AcDbLine
10
-67.3382133995037
20
10.5911939972248
30
0.000000000000000
11
-67.2382133995037
21
10.5519481611050
31
0.000000000000000
  0
LINE
  5
F1044F
330
F10450
100
AcDbEntity
8
Geo
100
AcDbLine
10
-67.2382133995037
20
10.5519481611050
30
0.000000000000000
11
-67.1382133995037
21
10.5122159995008
31
0.000000000000000
  0
LINE
  5
F10451
330
F10452
100
AcDbEntity
8
Geo
100
AcDbLine
10
-67.1382133995037
20
10.5122159995008
30
0.000000000000000
11
-67.0382133995037
21
10.4720028099750
31
0.000000000000000
  0
LINE
  5
F10453
330
F10454
100
AcDbEntity
8
Geo
100
AcDbLine
10
-67.0382133995037
20
10.4720028099750
30
0.000000000000000
11
-66.9382133995037
21
10.4313139542266
31
0.000000000000000
  0
LINE
  5
F10455
330
F10456
100
AcDbEntity
8
Geo
100
AcDbLine
10
-66.9382133995037
20
10.4313139542266
30
0.000000000000000
11
-66.8382133995037
21
10.3901548573761
31
0.000000000000000
  0
LINE
  5
F10457
330
F10458
100
AcDbEntity
8
Geo
100
AcDbLine
10
-66.8382133995037
20
10.3901548573761
30
0.000000000000000
11
-66.7382133995037
21
10.3485310072420
31
0.000000000000000
  0
LINE
  5
F10459
330
F1045A
100
AcDbEntity
8
Geo
100
AcDbLine
10
-66.7382133995037
20
10.3485310072420
30
0.000000000000000
11
-66.6382133995037
21
10.3064479536095
31
0.000000000000000
  0
LINE
  5
F1045B
330
F1045C
100
AcDbEntity
8
Geo
100
AcDbLine
10
-66.6382133995037
20
10.3064479536095
30
0.000000000000000
11
-66.5382133995037
21
10.2639113074899
31
0.000000000000000
  0
LINE
  5
F1045D
330
F1045E
100
AcDbEntity
8
Geo
100
AcDbLine
10
-66.5382133995037
20
10.2639113074899
30
0.000000000000000
11
-66.4382133995037
21
10.2209267403730
31
0.000000000000000
  0
LINE
  5
F1045F
330
F10460
100
AcDbEntity
8
Geo
100
AcDbLine
10
-66.4382133995037
20
10.2209267403730
30
0.000000000000000
11
-66.3382133995037
21
10.1774999834709
31
0.000000000000000
  0
LINE
  5
F10461
330
F10462
100
AcDbEntity
8
Geo
100
AcDbLine
10
-66.3382133995037
20
10.1774999834709
30
0.000000000000000
11
-66.2382133995037
21
10.1336368269534
31
0.000000000000000
  0
LINE
  5
F10463
330
F10464
100
AcDbEntity
8
Geo
100
AcDbLine
10
-66.2382133995037
20
10.1336368269534
30
0.000000000000000
11
-66.1382133995037
21
10.0893431191764
31
0.000000000000000
  0
LINE
  5
F10465
330
F10466
100
AcDbEntity
8
Geo
100
AcDbLine
10
-66.1382133995037
20
10.0893431191764
30
0.000000000000000
11
-66.0382133995037
21
10.0446247659019
31
0.000000000000000
  0
LINE
  5
F10467
330
F10468
100
AcDbEntity
8
Geo
100
AcDbLine
10
-66.0382133995037
20
10.0446247659019
30
0.000000000000000
11
-65.9382133995037
21
9.99948772951097
31
0.000000000000000
  0
LINE
  5
F10469
330
F1046A
100
AcDbEntity
8
Geo
100
AcDbLine
10
-65.9382133995037
20
9.99948772951097
30
0.000000000000000
11
-65.8382133995037
21
9.95393802820809
31
0.000000000000000
  0
LINE
  5
F1046B
330
F1046C
100
AcDbEntity
8
Geo
100
AcDbLine
10
-65.8382133995037
20
9.95393802820809
30
0.000000000000000
11
-65.7382133995037
21
9.90798173521933
31
0.000000000000000
  0
LINE
  5
F1046D
330
F1046E
100
AcDbEntity
8
Geo
100
AcDbLine
10
-65.7382133995037
20
9.90798173521933
30
0.000000000000000
11
-65.6382133995037
21
9.86162497798233
31
0.000000000000000
  0
LINE
  5
F1046F
330
F10470
100
AcDbEntity
8
Geo
100
AcDbLine
10
-65.6382133995037
20
9.86162497798233
30
0.000000000000000
11
-65.5382133995037
21
9.81487393732940
31
0.000000000000000
  0
LINE
  5
F10471
330
F10472
100
AcDbEntity
8
Geo
100
AcDbLine
10
-65.5382133995037
20
9.81487393732940
30
0.000000000000000
11
-65.4382133995037
21
9.76773484666335
31
0.000000000000000
  0
LINE
  5
F10473
330
F10474
100
AcDbEntity
8
Geo
100
AcDbLine
10
-65.4382133995037
20
9.76773484666335
30
0.000000000000000
11
-65.3382133995037
21
9.72021399112643
31
0.000000000000000
  0
LINE
  5
F10475
330
F10476
100
AcDbEntity
8
Geo
100
AcDbLine
10
-65.3382133995037
20
9.72021399112643
30
0.000000000000000
11
-65.2382133995037
21
9.67231770676233
31
0.000000000000000
  0
LINE
  5
F10477
330
F10478
100
AcDbEntity
8
Geo
100
AcDbLine
10
-65.2382133995037
20
9.67231770676233
30
0.000000000000000
11
-65.1382133995037
21
9.62405237967132
31
0.000000000000000
  0
LINE
  5
F10479
330
F1047A
100
AcDbEntity
8
Geo
100
AcDbLine
10
-65.1382133995037
20
9.62405237967132
30
0.000000000000000
11
-65.0382133995037
21
9.57542444515885
31
0.000000000000000
  0
LINE
  5
F1047B
330
F1047C
100
AcDbEntity
8
Geo
100
AcDbLine
10
-65.0382133995037
20
9.57542444515885
30
0.000000000000000
11
-64.9382133995037
21
9.52644038687749
31
0.000000000000000
  0
LINE
  5
F1047D
330
F1047E
100
AcDbEntity
8
Geo
100
AcDbLine
10
-64.9382133995037
20
9.52644038687749
30
0.000000000000000
11
-64.8382133995037
21
9.47710673596242
31
0.000000000000000
  0
LINE
  5
F1047F
330
F10480
100
AcDbEntity
8
Geo
100
AcDbLine
10
-64.8382133995037
20
9.47710673596242
30
0.000000000000000
11
-64.7382133995037
21
9.42743007016070
31
0.000000000000000
  0
LINE
  5
F10481
330
F10482
100
AcDbEntity
8
Geo
100
AcDbLine
10
-64.7382133995037
20
9.42743007016070
30
0.000000000000000
11
-64.6382133995037
21
9.37741701295416
31
0.000000000000000
  0
LINE
  5
F10483
330
F10484
100
AcDbEntity
8
Geo
100
AcDbLine
10
-64.6382133995037
20
9.37741701295416
30
0.000000000000000
11
-64.5382133995037
21
9.32707423267635
31
0.000000000000000
  0
LINE
  5
F10485
330
F10486
100
AcDbEntity
8
Geo
100
AcDbLine
10
-64.5382133995037
20
9.32707423267635
30
0.000000000000000
11
-64.4382133995037
21
9.27640844162337
31
0.000000000000000
  0
LINE
  5
F10487
330
F10488
100
AcDbEntity
8
Geo
100
AcDbLine
10
-64.4382133995037
20
9.27640844162337
30
0.000000000000000
11
-64.3382133995037
21
9.22542639515898
31
0.000000000000000
  0
LINE
  5
F10489
330
F1048A
100
AcDbEntity
8
Geo
100
AcDbLine
10
-64.3382133995037
20
9.22542639515898
30
0.000000000000000
11
-64.2382133995037
21
9.17413489081384
31
0.000000000000000
  0
LINE
  5
F1048B
330
F1048C
100
AcDbEntity
8
Geo
100
AcDbLine
10
-64.2382133995037
20
9.17413489081384
30
0.000000000000000
11
-64.1382133995037
21
9.12254076737922
31
0.000000000000000
  0
LINE
  5
F1048D
330
F1048E
100
AcDbEntity
8
Geo
100
AcDbLine
10
-64.1382133995037
20
9.12254076737922
30
0.000000000000000
11
-64.0382133995037
21
9.07065090399513
31
0.000000000000000
  0
LINE
  5
F1048F
330
F10490
100
AcDbEntity
8
Geo
100
AcDbLine
10
-64.0382133995037
20
9.07065090399513
30
0.000000000000000
11
-63.9382133995037
21
9.01847221923316
31
0.000000000000000
  0
LINE
  5
F10491
330
F10492
100
AcDbEntity
8
Geo
100
AcDbLine
10
-63.9382133995037
20
9.01847221923316
30
0.000000000000000
11
-63.8382133995037
21
8.96601167017397
31
0.000000000000000
  0
LINE
  5
F10493
330
F10494
100
AcDbEntity
8
Geo
100
AcDbLine
10
-63.8382133995037
20
8.96601167017397
30
0.000000000000000
11
-63.7382133995037
21
8.91327625147972
31
0.000000000000000
  0
LINE
  5
F10495
330
F10496
100
AcDbEntity
8
Geo
100
AcDbLine
10
-63.7382133995037
20
8.91327625147972
30
0.000000000000000
11
-63.6382133995037
21
8.86027299446143
31
0.000000000000000
  0
LINE
  5
F10497
330
F10498
100
AcDbEntity
8
Geo
100
AcDbLine
10
-63.6382133995037
20
8.86027299446143
30
0.000000000000000
11
-63.5382133995037
21
8.80700896614153
31
0.000000000000000
  0
LINE
  5
F10499
330
F1049A
100
AcDbEntity
8
Geo
100
AcDbLine
10
-63.5382133995037
20
8.80700896614153
30
0.000000000000000
11
-63.4382133995037
21
8.75349126831154
31
0.000000000000000
  0
LINE
  5
F1049B
330
F1049C
100
AcDbEntity
8
Geo
100
AcDbLine
10
-63.4382133995037
20
8.75349126831154
30
0.000000000000000
11
-63.3382133995037
21
8.69972703658523
31
0.000000000000000
  0
LINE
  5
F1049D
330
F1049E
100
AcDbEntity
8
Geo
100
AcDbLine
10
-63.3382133995037
20
8.69972703658523
30
0.000000000000000
11
-63.2382133995037
21
8.64572343944717
31
0.000000000000000
  0
LINE
  5
F1049F
330
F104A0
100
AcDbEntity
8
Geo
100
AcDbLine
10
-63.2382133995037
20
8.64572343944717
30
0.000000000000000
11
-63.1382133995037
21
8.59148767729698
31
0.000000000000000
  0
LINE
  5
F104A1
330
F104A2
100
AcDbEntity
8
Geo
100
AcDbLine
10
-63.1382133995037
20
8.59148767729698
30
0.000000000000000
11
-63.0382133995037
21
8.53702698148926
31
0.000000000000000
  0
LINE
  5
F104A3
330
F104A4
100
AcDbEntity
8
Geo
100
AcDbLine
10
-63.0382133995037
20
8.53702698148926
30
0.000000000000000
11
-62.9382133995037
21
8.48234861336944
31
0.000000000000000
  0
LINE
  5
F104A5
330
F104A6
100
AcDbEntity
8
Geo
100
AcDbLine
10
-62.9382133995037
20
8.48234861336944
30
0.000000000000000
11
-62.8382133995037
21
8.42745986330559
31
0.000000000000000
  0
LINE
  5
F104A7
330
F104A8
100
AcDbEntity
8
Geo
100
AcDbLine
10
-62.8382133995037
20
8.42745986330559
30
0.000000000000000
11
-62.7382133995037
21
8.37236804971641
31
0.000000000000000
  0
LINE
  5
F104A9
330
F104AA
100
AcDbEntity
8
Geo
100
AcDbLine
10
-62.7382133995037
20
8.37236804971641
30
0.000000000000000
11
-62.6382133995037
21
8.31708051809543
31
0.000000000000000
  0
LINE
  5
F104AB
330
F104AC
100
AcDbEntity
8
Geo
100
AcDbLine
10
-62.6382133995037
20
8.31708051809543
30
0.000000000000000
11
-62.5382133995037
21
8.26160464003162
31
0.000000000000000
  0
LINE
  5
F104AD
330
F104AE
100
AcDbEntity
8
Geo
100
AcDbLine
10
-62.5382133995037
20
8.26160464003162
30
0.000000000000000
11
-62.4382133995038
21
8.20594781222654
31
0.000000000000000
  0
LINE
  5
F104AF
330
F104B0
100
AcDbEntity
8
Geo
100
AcDbLine
10
-62.4382133995038
20
8.20594781222654
30
0.000000000000000
11
-62.3382133995038
21
8.15011745550810
31
0.000000000000000
  0
LINE
  5
F104B1
330
F104B2
100
AcDbEntity
8
Geo
100
AcDbLine
10
-62.3382133995038
20
8.15011745550810
30
0.000000000000000
11
-62.2382133995037
21
8.09412101384116
31
0.000000000000000
  0
LINE
  5
F104B3
330
F104B4
100
AcDbEntity
8
Geo
100
AcDbLine
10
-62.2382133995037
20
8.09412101384116
30
0.000000000000000
11
-62.1382133995037
21
8.03796595333499
31
0.000000000000000
  0
LINE
  5
F104B5
330
F104B6
100
AcDbEntity
8
Geo
100
AcDbLine
10
-62.1382133995037
20
8.03796595333499
30
0.000000000000000
11
-62.0382133995037
21
7.98165976124778
31
0.000000000000000
  0
LINE
  5
F104B7
330
F104B8
100
AcDbEntity
8
Geo
100
AcDbLine
10
-62.0382133995037
20
7.98165976124778
30
0.000000000000000
11
-61.9382133995038
21
7.92520994498841
31
0.000000000000000
  0
LINE
  5
F104B9
330
F104BA
100
AcDbEntity
8
Geo
100
AcDbLine
10
-61.9382133995038
20
7.92520994498841
30
0.000000000000000
11
-61.8382133995038
21
7.86862403111542
31
0.000000000000000
  0
LINE
  5
F104BB
330
F104BC
100
AcDbEntity
8
Geo
100
AcDbLine
10
-61.8382133995038
20
7.86862403111542
30
0.000000000000000
11
-61.7382133995037
21
7.81190956433348
31
0.000000000000000
  0
LINE
  5
F104BD
330
F104BE
100
AcDbEntity
8
Geo
100
AcDbLine
10
-61.7382133995037
20
7.81190956433348
30
0.000000000000000
11
-61.6382133995038
21
7.75507410648748
31
0.000000000000000
  0
LINE
  5
F104BF
330
F104C0
100
AcDbEntity
8
Geo
100
AcDbLine
10
-61.6382133995038
20
7.75507410648748
30
0.000000000000000
11
-61.5382133995038
21
7.69812523555427
31
0.000000000000000
  0
LINE
  5
F104C1
330
F104C2
100
AcDbEntity
8
Geo
100
AcDbLine
10
-61.5382133995038
20
7.69812523555427
30
0.000000000000000
11
-61.4382133995038
21
7.64107054463227
31
0.000000000000000
  0
LINE
  5
F104C3
330
F104C4
100
AcDbEntity
8
Geo
100
AcDbLine
10
-61.4382133995038
20
7.64107054463227
30
0.000000000000000
11
-61.3382133995038
21
7.58391764092908
31
0.000000000000000
  0
LINE
  5
F104C5
330
F104C6
100
AcDbEntity
8
Geo
100
AcDbLine
10
-61.3382133995038
20
7.58391764092908
30
0.000000000000000
11
-61.2382133995037
21
7.52667414474719
31
0.000000000000000
  0
LINE
  5
F104C7
330
F104C8
100
AcDbEntity
8
Geo
100
AcDbLine
10
-61.2382133995037
20
7.52667414474719
30
0.000000000000000
11
-61.1382133995038
21
7.46934768846795
31
0.000000000000000
  0
LINE
  5
F104C9
330
F104CA
100
AcDbEntity
8
Geo
100
AcDbLine
10
-61.1382133995038
20
7.46934768846795
30
0.000000000000000
11
-61.0382133995038
21
7.41194591553394
31
0.000000000000000
  0
LINE
  5
F104CB
330
F104CC
100
AcDbEntity
8
Geo
100
AcDbLine
10
-61.0382133995038
20
7.41194591553394
30
0.000000000000000
11
-60.9382133995038
21
7.35447647942983
31
0.000000000000000
  0
LINE
  5
F104CD
330
F104CE
100
AcDbEntity
8
Geo
100
AcDbLine
10
-60.9382133995038
20
7.35447647942983
30
0.000000000000000
11
-60.8382133995038
21
7.29694704266198
31
0.000000000000000
  0
LINE
  5
F104CF
330
F104D0
100
AcDbEntity
8
Geo
100
AcDbLine
10
-60.8382133995038
20
7.29694704266198
30
0.000000000000000
11
-60.7382133995038
21
7.23936527573673
31
0.000000000000000
  0
LINE
  5
F104D1
330
F104D2
100
AcDbEntity
8
Geo
100
AcDbLine
10
-60.7382133995038
20
7.23936527573673
30
0.000000000000000
11
-60.6382133995038
21
7.18173885613769
31
0.000000000000000
  0
LINE
  5
F104D3
330
F104D4
100
AcDbEntity
8
Geo
100
AcDbLine
10
-60.6382133995038
20
7.18173885613769
30
0.000000000000000
11
-60.5382133995038
21
7.12407546730209
31
0.000000000000000
  0
LINE
  5
F104D5
330
F104D6
100
AcDbEntity
8
Geo
100
AcDbLine
10
-60.5382133995038
20
7.12407546730209
30
0.000000000000000
11
-60.4382133995038
21
7.06638279759637
31
0.000000000000000
  0
LINE
  5
F104D7
330
F104D8
100
AcDbEntity
8
Geo
100
AcDbLine
10
-60.4382133995038
20
7.06638279759637
30
0.000000000000000
11
-60.3382133995038
21
7.00866853929101
31
0.000000000000000
  0
LINE
  5
F104D9
330
F104DA
100
AcDbEntity
8
Geo
100
AcDbLine
10
-60.3382133995038
20
7.00866853929101
30
0.000000000000000
11
-60.2382133995038
21
6.95094038753495
31
0.000000000000000
  0
LINE
  5
F104DB
330
F104DC
100
AcDbEntity
8
Geo
100
AcDbLine
10
-60.2382133995038
20
6.95094038753495
30
0.000000000000000
11
-60.1382133995038
21
6.89320603932957
31
0.000000000000000
  0
LINE
  5
F104DD
330
F104DE
100
AcDbEntity
8
Geo
100
AcDbLine
10
-60.1382133995038
20
6.89320603932957
30
0.000000000000000
11
-60.0382133995038
21
6.83547319250243
31
0.000000000000000
  0
LINE
  5
F104DF
330
F104E0
100
AcDbEntity
8
Geo
100
AcDbLine
10
-60.0382133995038
20
6.83547319250243
30
0.000000000000000
11
-59.9382133995038
21
6.77774954468090
31
0.000000000000000
  0
LINE
  5
F104E1
330
F104E2
100
AcDbEntity
8
Geo
100
AcDbLine
10
-59.9382133995038
20
6.77774954468090
30
0.000000000000000
11
-59.8382133995038
21
6.72004279226586
31
0.000000000000000
  0
LINE
  5
F104E3
330
F104E4
100
AcDbEntity
8
Geo
100
AcDbLine
10
-59.8382133995038
20
6.72004279226586
30
0.000000000000000
11
-59.7382133995038
21
6.66236062940546
31
0.000000000000000
  0
LINE
  5
F104E5
330
F104E6
100
AcDbEntity
8
Geo
100
AcDbLine
10
-59.7382133995038
20
6.66236062940546
30
0.000000000000000
11
-59.6382133995038
21
6.60471074696929
31
0.000000000000000
  0
LINE
  5
F104E7
330
F104E8
100
AcDbEntity
8
Geo
100
AcDbLine
10
-59.6382133995038
20
6.60471074696929
30
0.000000000000000
11
-59.5382133995038
21
6.54710083152295
31
0.000000000000000
  0
LINE
  5
F104E9
330
F104EA
100
AcDbEntity
8
Geo
100
AcDbLine
10
-59.5382133995038
20
6.54710083152295
30
0.000000000000000
11
-59.4382133995038
21
6.48953856430315
31
0.000000000000000
  0
LINE
  5
F104EB
330
F104EC
100
AcDbEntity
8
Geo
100
AcDbLine
10
-59.4382133995038
20
6.48953856430315
30
0.000000000000000
11
-59.3382133995038
21
6.43203162019356
31
0.000000000000000
  0
LINE
  5
F104ED
330
F104EE
100
AcDbEntity
8
Geo
100
AcDbLine
10
-59.3382133995038
20
6.43203162019356
30
0.000000000000000
11
-59.2382133995038
21
6.37458766670155
31
0.000000000000000
  0
LINE
  5
F104EF
330
F104F0
100
AcDbEntity
8
Geo
100
AcDbLine
10
-59.2382133995038
20
6.37458766670155
30
0.000000000000000
11
-59.1382133995038
21
6.31721436293580
31
0.000000000000000
  0
LINE
  5
F104F1
330
F104F2
100
AcDbEntity
8
Geo
100
AcDbLine
10
-59.1382133995038
20
6.31721436293580
30
0.000000000000000
11
-59.0382133995038
21
6.25991935858517
31
0.000000000000000
  0
LINE
  5
F104F3
330
F104F4
100
AcDbEntity
8
Geo
100
AcDbLine
10
-59.0382133995038
20
6.25991935858517
30
0.000000000000000
11
-58.9382133995038
21
6.20271029289867
31
0.000000000000000
  0
LINE
  5
F104F5
330
F104F6
100
AcDbEntity
8
Geo
100
AcDbLine
10
-58.9382133995038
20
6.20271029289867
30
0.000000000000000
11
-58.8382133995038
21
6.14559479366699
31
0.000000000000000
  0
LINE
  5
F104F7
330
F104F8
100
AcDbEntity
8
Geo
100
AcDbLine
10
-58.8382133995038
20
6.14559479366699
30
0.000000000000000
11
-58.7382133995038
21
6.08858047620540
31
0.000000000000000
  0
LINE
  5
F104F9
330
F104FA
100
AcDbEntity
8
Geo
100
AcDbLine
10
-58.7382133995038
20
6.08858047620540
30
0.000000000000000
11
-58.6382133995038
21
6.03167494233843
31
0.000000000000000
  0
LINE
  5
F104FB
330
F104FC
100
AcDbEntity
8
Geo
100
AcDbLine
10
-58.6382133995038
20
6.03167494233843
30
0.000000000000000
11
-58.5382133995038
21
5.97488577938630
31
0.000000000000000
  0
LINE
  5
F104FD
330
F104FE
100
AcDbEntity
8
Geo
100
AcDbLine
10
-58.5382133995038
20
5.97488577938630
30
0.000000000000000
11
-58.4382133995038
21
5.91822055915326
31
0.000000000000000
  0
LINE
  5
F104FF
330
F10500
100
AcDbEntity
8
Geo
100
AcDbLine
10
-58.4382133995038
20
5.91822055915326
30
0.000000000000000
11
-58.3382133995038
21
5.86168683691807
31
0.000000000000000
  0
LINE
  5
F10501
330
F10502
100
AcDbEntity
8
Geo
100
AcDbLine
10
-58.3382133995038
20
5.86168683691807
30
0.000000000000000
11
-58.2382133995038
21
5.80529215042661
31
0.000000000000000
  0
LINE
  5
F10503
330
F10504
100
AcDbEntity
8
Geo
100
AcDbLine
10
-58.2382133995038
20
5.80529215042661
30
0.000000000000000
11
-58.1382133995038
21
5.74904401888685
31
0.000000000000000
  0
LINE
  5
F10505
330
F10506
100
AcDbEntity
8
Geo
100
AcDbLine
10
-58.1382133995038
20
5.74904401888685
30
0.000000000000000
11
-58.0382133995038
21
5.69294994196635
31
0.000000000000000
  0
LINE
  5
F10507
330
F10508
100
AcDbEntity
8
Geo
100
AcDbLine
10
-58.0382133995038
20
5.69294994196635
30
0.000000000000000
11
-57.9382133995038
21
5.63701739879225
31
0.000000000000000
  0
LINE
  5
F10509
330
F1050A
100
AcDbEntity
8
Geo
100
AcDbLine
10
-57.9382133995038
20
5.63701739879225
30
0.000000000000000
11
-57.8382133995038
21
5.58125384695412
31
0.000000000000000
  0
LINE
  5
F1050B
330
F1050C
100
AcDbEntity
8
Geo
100
AcDbLine
10
-57.8382133995038
20
5.58125384695412
30
0.000000000000000
11
-57.7382133995038
21
5.52566672150958
31
0.000000000000000
  0
LINE
  5
F1050D
330
F1050E
100
AcDbEntity
8
Geo
100
AcDbLine
10
-57.7382133995038
20
5.52566672150958
30
0.000000000000000
11
-57.6382133995038
21
5.47026343399302
31
0.000000000000000
  0
LINE
  5
F1050F
330
F10510
100
AcDbEntity
8
Geo
100
AcDbLine
10
-57.6382133995038
20
5.47026343399302
30
0.000000000000000
11
-57.5382133995038
21
5.41505137142736
31
0.000000000000000
  0
LINE
  5
F10511
330
F10512
100
AcDbEntity
8
Geo
100
AcDbLine
10
-57.5382133995038
20
5.41505137142736
30
0.000000000000000
11
-57.4382133995038
21
5.36003789533914
31
0.000000000000000
  0
LINE
  5
F10513
330
F10514
100
AcDbEntity
8
Geo
100
AcDbLine
10
-57.4382133995038
20
5.36003789533914
30
0.000000000000000
11
-57.3382133995038
21
5.30523034077700
31
0.000000000000000
  0
LINE
  5
F10515
330
F10516
100
AcDbEntity
8
Geo
100
AcDbLine
10
-57.3382133995038
20
5.30523034077700
30
0.000000000000000
11
-57.2382133995038
21
5.25063601533370
31
0.000000000000000
  0
LINE
  5
F10517
330
F10518
100
AcDbEntity
8
Geo
100
AcDbLine
10
-57.2382133995038
20
5.25063601533370
30
0.000000000000000
11
-57.1382133995038
21
5.19626219817175
31
0.000000000000000
  0
LINE
  5
F10519
330
F1051A
100
AcDbEntity
8
Geo
100
AcDbLine
10
-57.1382133995038
20
5.19626219817175
30
0.000000000000000
11
-57.0382133995038
21
5.14211613905288
31
0.000000000000000
  0
LINE
  5
F1051B
330
F1051C
100
AcDbEntity
8
Geo
100
AcDbLine
10
-57.0382133995038
20
5.14211613905288
30
0.000000000000000
11
-56.9382133995038
21
5.08820505737142
31
0.000000000000000
  0
LINE
  5
F1051D
330
F1051E
100
AcDbEntity
8
Geo
100
AcDbLine
10
-56.9382133995038
20
5.08820505737142
30
0.000000000000000
11
-56.8382133995038
21
5.03453614119173
31
0.000000000000000
  0
LINE
  5
F1051F
330
F10520
100
AcDbEntity
8
Geo
100
AcDbLine
10
-56.8382133995038
20
5.03453614119173
30
0.000000000000000
11
-56.7382133995038
21
4.98111654628980
31
0.000000000000000
  0
LINE
  5
F10521
330
F10522
100
AcDbEntity
8
Geo
100
AcDbLine
10
-56.7382133995038
20
4.98111654628980
30
0.000000000000000
11
-56.6382133995038
21
4.92795339519913
31
0.000000000000000
  0
LINE
  5
F10523
330
F10524
100
AcDbEntity
8
Geo
100
AcDbLine
10
-56.6382133995038
20
4.92795339519913
30
0.000000000000000
11
-56.5382133995038
21
4.87505377626111
31
0.000000000000000
  0
LINE
  5
F10525
330
F10526
100
AcDbEntity
8
Geo
100
AcDbLine
10
-56.5382133995038
20
4.87505377626111
30
0.000000000000000
11
-56.4382133995038
21
4.82242474267990
31
0.000000000000000
  0
LINE
  5
F10527
330
F10528
100
AcDbEntity
8
Geo
100
AcDbLine
10
-56.4382133995038
20
4.82242474267990
30
0.000000000000000
11
-56.3382133995038
21
4.77007331158200
31
0.000000000000000
  0
LINE
  5
F10529
330
F1052A
100
AcDbEntity
8
Geo
100
AcDbLine
10
-56.3382133995038
20
4.77007331158200
30
0.000000000000000
11
-56.2382133995038
21
4.71800646308067
31
0.000000000000000
  0
LINE
  5
F1052B
330
F1052C
100
AcDbEntity
8
Geo
100
AcDbLine
10
-56.2382133995038
20
4.71800646308067
30
0.000000000000000
11
-56.1382133995038
21
4.66623113934525
31
0.000000000000000
  0
LINE
  5
F1052D
330
F1052E
100
AcDbEntity
8
Geo
100
AcDbLine
10
-56.1382133995038
20
4.66623113934525
30
0.000000000000000
11
-56.0382133995038
21
4.61475424367552
31
0.000000000000000
  0
LINE
  5
F1052F
330
F10530
100
AcDbEntity
8
Geo
100
AcDbLine
10
-56.0382133995038
20
4.61475424367552
30
0.000000000000000
11
-55.9382133995038
21
4.56358263958132
31
0.000000000000000
  0
LINE
  5
F10531
330
F10532
100
AcDbEntity
8
Geo
100
AcDbLine
10
-55.9382133995038
20
4.56358263958132
30
0.000000000000000
11
-55.8382133995038
21
4.51272314986737
31
0.000000000000000
  0
LINE
  5
F10533
330
F10534
100
AcDbEntity
8
Geo
100
AcDbLine
10
-55.8382133995038
20
4.51272314986737
30
0.000000000000000
11
-55.7382133995038
21
4.46218255572364
31
0.000000000000000
  0
LINE
  5
F10535
330
F10536
100
AcDbEntity
8
Geo
100
AcDbLine
10
-55.7382133995038
20
4.46218255572364
30
0.000000000000000
11
-55.6382133995038
21
4.41196759582113
31
0.000000000000000
  0
LINE
  5
F10537
330
F10538
100
AcDbEntity
8
Geo
100
AcDbLine
10
-55.6382133995038
20
4.41196759582113
30
0.000000000000000
11
-55.5382133995038
21
4.36208496541343
31
0.000000000000000
  0
LINE
  5
F10539
330
F1053A
100
AcDbEntity
8
Geo
100
AcDbLine
10
-55.5382133995038
20
4.36208496541343
30
0.000000000000000
11
-55.4382133995038
21
4.31254131544403
31
0.000000000000000
  0
LINE
  5
F1053B
330
F1053C
100
AcDbEntity
8
Geo
100
AcDbLine
10
-55.4382133995038
20
4.31254131544403
30
0.000000000000000
11
-55.3382133995038
21
4.26334325165953
31
0.000000000000000
  0
LINE
  5
F1053D
330
F1053E
100
AcDbEntity
8
Geo
100
AcDbLine
10
-55.3382133995038
20
4.26334325165953
30
0.000000000000000
11
-55.2382133995038
21
4.21449733372889
31
0.000000000000000
  0
LINE
  5
F1053F
330
F10540
100
AcDbEntity
8
Geo
100
AcDbLine
10
-55.2382133995038
20
4.21449733372889
30
0.000000000000000
11
-55.1382133995038
21
4.16601007436879
31
0.000000000000000
  0
LINE
  5
F10541
330
F10542
100
AcDbEntity
8
Geo
100
AcDbLine
10
-55.1382133995038
20
4.16601007436879
30
0.000000000000000
11
-55.0382133995038
21
4.11788793847532
31
0.000000000000000
  0
LINE
  5
F10543
330
F10544
100
AcDbEntity
8
Geo
100
AcDbLine
10
-55.0382133995038
20
4.11788793847532
30
0.000000000000000
11
-54.9382133995038
21
4.07013734226198
31
0.000000000000000
  0
LINE
  5
F10545
330
F10546
100
AcDbEntity
8
Geo
100
AcDbLine
10
-54.9382133995038
20
4.07013734226198
30
0.000000000000000
11
-54.8382133995038
21
4.02276465240418
31
0.000000000000000
  0
LINE
  5
F10547
330
F10548
100
AcDbEntity
8
Geo
100
AcDbLine
10
-54.8382133995038
20
4.02276465240418
30
0.000000000000000
11
-54.7382133995038
21
3.97577618519038
31
0.000000000000000
  0
LINE
  5
F10549
330
F1054A
100
AcDbEntity
8
Geo
100
AcDbLine
10
-54.7382133995038
20
3.97577618519038
30
0.000000000000000
11
-54.6382133995038
21
3.92917820567995
31
0.000000000000000
  0
LINE
  5
F1054B
330
F1054C
100
AcDbEntity
8
Geo
100
AcDbLine
10
-54.6382133995038
20
3.92917820567995
30
0.000000000000000
11
-54.5382133995038
21
3.88297692686777
31
0.000000000000000
  0
LINE
  5
F1054D
330
F1054E
100
AcDbEntity
8
Geo
100
AcDbLine
10
-54.5382133995038
20
3.88297692686777
30
0.000000000000000
11
-54.4382133995038
21
3.83717850885592
31
0.000000000000000
  0
LINE
  5
F1054F
330
F10550
100
AcDbEntity
8
Geo
100
AcDbLine
10
-54.4382133995038
20
3.83717850885592
30
0.000000000000000
11
-54.3382133995038
21
3.79178905803227
31
0.000000000000000
  0
LINE
  5
F10551
330
F10552
100
AcDbEntity
8
Geo
100
AcDbLine
10
-54.3382133995038
20
3.79178905803227
30
0.000000000000000
11
-54.2382133995038
21
3.74681462625637
31
0.000000000000000
  0
LINE
  5
F10553
330
F10554
100
AcDbEntity
8
Geo
100
AcDbLine
10
-54.2382133995038
20
3.74681462625637
30
0.000000000000000
11
-54.1382133995038
21
3.70226121005248
31
0.000000000000000
  0
LINE
  5
F10555
330
F10556
100
AcDbEntity
8
Geo
100
AcDbLine
10
-54.1382133995038
20
3.70226121005248
30
0.000000000000000
11
-54.0382133995038
21
3.65813474981010
31
0.000000000000000
  0
LINE
  5
F10557
330
F10558
100
AcDbEntity
8
Geo
100
AcDbLine
10
-54.0382133995038
20
3.65813474981010
30
0.000000000000000
11
-53.9382133995038
21
3.61444112899188
31
0.000000000000000
  0
LINE
  5
F10559
330
F1055A
100
AcDbEntity
8
Geo
100
AcDbLine
10
-53.9382133995038
20
3.61444112899188
30
0.000000000000000
11
-53.8382133995038
21
3.57118617334920
31
0.000000000000000
  0
LINE
  5
F1055B
330
F1055C
100
AcDbEntity
8
Geo
100
AcDbLine
10
-53.8382133995038
20
3.57118617334920
30
0.000000000000000
11
-53.7382133995038
21
3.52837565014541
31
0.000000000000000
  0
LINE
  5
F1055D
330
F1055E
100
AcDbEntity
8
Geo
100
AcDbLine
10
-53.7382133995038
20
3.52837565014541
30
0.000000000000000
11
-53.6382133995038
21
3.48601526738683
31
0.000000000000000
  0
LINE
  5
F1055F
330
F10560
100
AcDbEntity
8
Geo
100
AcDbLine
10
-53.6382133995038
20
3.48601526738683
30
0.000000000000000
11
-53.5382133995038
21
3.44411067306176
31
0.000000000000000
  0
LINE
  5
F10561
330
F10562
100
AcDbEntity
8
Geo
100
AcDbLine
10
-53.5382133995038
20
3.44411067306176
30
0.000000000000000
11
-53.4382133995038
21
3.40266745438734
31
0.000000000000000
  0
LINE
  5
F10563
330
F10564
100
AcDbEntity
8
Geo
100
AcDbLine
10
-53.4382133995038
20
3.40266745438734
30
0.000000000000000
11
-53.3382133995038
21
3.36169113706467
31
0.000000000000000
  0
LINE
  5
F10565
330
F10566
100
AcDbEntity
8
Geo
100
AcDbLine
10
-53.3382133995038
20
3.36169113706467
30
0.000000000000000
11
-53.2382133995038
21
3.32118718454203
31
0.000000000000000
  0
LINE
  5
F10567
330
F10568
100
AcDbEntity
8
Geo
100
AcDbLine
10
-53.2382133995038
20
3.32118718454203
30
0.000000000000000
11
-53.1382133995038
21
3.28116099728641
31
0.000000000000000
  0
LINE
  5
F10569
330
F1056A
100
AcDbEntity
8
Geo
100
AcDbLine
10
-53.1382133995038
20
3.28116099728641
30
0.000000000000000
11
-53.0382133995038
21
3.24161791206348
31
0.000000000000000
  0
LINE
  5
F1056B
330
F1056C
100
AcDbEntity
8
Geo
100
AcDbLine
10
-53.0382133995038
20
3.24161791206348
30
0.000000000000000
11
-52.9382133995038
21
3.20256320122603
31
0.000000000000000
  0
LINE
  5
F1056D
330
F1056E
100
AcDbEntity
8
Geo
100
AcDbLine
10
-52.9382133995038
20
3.20256320122603
30
0.000000000000000
11
-52.8382133995038
21
3.16400207201097
31
0.000000000000000
  0
LINE
  5
F1056F
330
F10570
100
AcDbEntity
8
Geo
100
AcDbLine
10
-52.8382133995038
20
3.16400207201097
30
0.000000000000000
11
-52.7382133995037
21
3.12593966584506
31
0.000000000000000
  0
LINE
  5
F10571
330
F10572
100
AcDbEntity
8
Geo
100
AcDbLine
10
-52.7382133995037
20
3.12593966584506
30
0.000000000000000
11
-52.6382133995037
21
3.08838105765942
31
0.000000000000000
  0
LINE
  5
F10573
330
F10574
100
AcDbEntity
8
Geo
100
AcDbLine
10
-52.6382133995037
20
3.08838105765942
30
0.000000000000000
11
-52.5382133995037
21
3.05133125521282
31
0.000000000000000
  0
LINE
  5
F10575
330
F10576
100
AcDbEntity
8
Geo
100
AcDbLine
10
-52.5382133995037
20
3.05133125521282
30
0.000000000000000
11
-52.4382133995037
21
3.01479519842403
31
0.000000000000000
  0
LINE
  5
F10577
330
F10578
100
AcDbEntity
8
Geo
100
AcDbLine
10
-52.4382133995037
20
3.01479519842403
30
0.000000000000000
11
-52.3382133995037
21
2.97877775871317
31
0.000000000000000
  0
LINE
  5
F10579
330
F1057A
100
AcDbEntity
8
Geo
100
AcDbLine
10
-52.3382133995037
20
2.97877775871317
30
0.000000000000000
11
-52.2382133995037
21
2.94328373835216
31
0.000000000000000
  0
LINE
  5
F1057B
330
F1057C
100
AcDbEntity
8
Geo
100
AcDbLine
10
-52.2382133995037
20
2.94328373835216
30
0.000000000000000
11
-52.1382133995037
21
2.90831786982449
31
0.000000000000000
  0
LINE
  5
F1057D
330
F1057E
100
AcDbEntity
8
Geo
100
AcDbLine
10
-52.1382133995037
20
2.90831786982449
30
0.000000000000000
11
-52.0382133995037
21
2.87388481519414
31
0.000000000000000
  0
LINE
  5
F1057F
330
F10580
100
AcDbEntity
8
Geo
100
AcDbLine
10
-52.0382133995037
20
2.87388481519414
30
0.000000000000000
11
-51.9382133995037
21
2.83998916548406
31
0.000000000000000
  0
LINE
  5
F10581
330
F10582
100
AcDbEntity
8
Geo
100
AcDbLine
10
-51.9382133995037
20
2.83998916548406
30
0.000000000000000
11
-51.8382133995037
21
2.80663544006399
31
0.000000000000000
  0
LINE
  5
F10583
330
F10584
100
AcDbEntity
8
Geo
100
AcDbLine
10
-51.8382133995037
20
2.80663544006399
30
0.000000000000000
11
-51.7382133995037
21
2.77382808604792
31
0.000000000000000
  0
LINE
  5
F10585
330
F10586
100
AcDbEntity
8
Geo
100
AcDbLine
10
-51.7382133995037
20
2.77382808604792
30
0.000000000000000
11
-51.6382133995037
21
2.74157147770110
31
0.000000000000000
  0
LINE
  5
F10587
330
F10588
100
AcDbEntity
8
Geo
100
AcDbLine
10
-51.6382133995037
20
2.74157147770110
30
0.000000000000000
11
-51.5382133995037
21
2.70986991585685
31
0.000000000000000
  0
LINE
  5
F10589
330
F1058A
100
AcDbEntity
8
Geo
100
AcDbLine
10
-51.5382133995037
20
2.70986991585685
30
0.000000000000000
11
-51.4382133995037
21
2.67872762734314
31
0.000000000000000
  0
LINE
  5
F1058B
330
F1058C
100
AcDbEntity
8
Geo
100
AcDbLine
10
-51.4382133995037
20
2.67872762734314
30
0.000000000000000
11
-51.3382133995037
21
2.64814876441896
31
0.000000000000000
  0
LINE
  5
F1058D
330
F1058E
100
AcDbEntity
8
Geo
100
AcDbLine
10
-51.3382133995037
20
2.64814876441896
30
0.000000000000000
11
-51.2382133995037
21
2.61813740422072
31
0.000000000000000
  0
LINE
  5
F1058F
330
F10590
100
AcDbEntity
8
Geo
100
AcDbLine
10
-51.2382133995037
20
2.61813740422072
30
0.000000000000000
11
-51.1382133995037
21
2.58869754821866
31
0.000000000000000
  0
LINE
  5
F10591
330
F10592
100
AcDbEntity
8
Geo
100
AcDbLine
10
-51.1382133995037
20
2.58869754821866
30
0.000000000000000
11
-51.0382133995037
21
2.55983312168330
31
0.000000000000000
  0
LINE
  5
F10593
330
F10594
100
AcDbEntity
8
Geo
100
AcDbLine
10
-51.0382133995037
20
2.55983312168330
30
0.000000000000000
11
-50.9382133995037
21
2.53154797316209
31
0.000000000000000
  0
LINE
  5
F10595
330
F10596
100
AcDbEntity
8
Geo
100
AcDbLine
10
-50.9382133995037
20
2.53154797316209
30
0.000000000000000
11
-50.8382133995037
21
2.50384587396625
31
0.000000000000000
  0
LINE
  5
F10597
330
F10598
100
AcDbEntity
8
Geo
100
AcDbLine
10
-50.8382133995037
20
2.50384587396625
30
0.000000000000000
11
-50.7382133995037
21
2.47673051766797
31
0.000000000000000
  0
LINE
  5
F10599
330
F1059A
100
AcDbEntity
8
Geo
100
AcDbLine
10
-50.7382133995037
20
2.47673051766797
30
0.000000000000000
11
-50.6382133995037
21
2.45020551960792
31
0.000000000000000
  0
LINE
  5
F1059B
330
F1059C
100
AcDbEntity
8
Geo
100
AcDbLine
10
-50.6382133995037
20
2.45020551960792
30
0.000000000000000
11
-50.5382133995037
21
2.42427441641321
31
0.000000000000000
  0
LINE
  5
F1059D
330
F1059E
100
AcDbEntity
8
Geo
100
AcDbLine
10
-50.5382133995037
20
2.42427441641321
30
0.000000000000000
11
-50.4382133995037
21
2.39894066552586
31
0.000000000000000
  0
LINE
  5
F1059F
330
F105A0
100
AcDbEntity
8
Geo
100
AcDbLine
10
-50.4382133995037
20
2.39894066552586
30
0.000000000000000
11
-50.3382133995037
21
2.37420764474177
31
0.000000000000000
  0
LINE
  5
F105A1
330
F105A2
100
AcDbEntity
8
Geo
100
AcDbLine
10
-50.3382133995037
20
2.37420764474177
30
0.000000000000000
11
-50.2382133995037
21
2.35007865176042
31
0.000000000000000
  0
LINE
  5
F105A3
330
F105A4
100
AcDbEntity
8
Geo
100
AcDbLine
10
-50.2382133995037
20
2.35007865176042
30
0.000000000000000
11
-50.1382133995037
21
2.32655690374513
31
0.000000000000000
  0
LINE
  5
F105A5
330
F105A6
100
AcDbEntity
8
Geo
100
AcDbLine
10
-50.1382133995037
20
2.32655690374513
30
0.000000000000000
11
-50.0382133995037
21
2.30364553689411
31
0.000000000000000
  0
LINE
  5
F105A7
330
F105A8
100
AcDbEntity
8
Geo
100
AcDbLine
10
-50.0382133995037
20
2.30364553689411
30
0.000000000000000
11
-49.9382133995037
21
2.28134760602233
31
0.000000000000000
  0
LINE
  5
F105A9
330
F105AA
100
AcDbEntity
8
Geo
100
AcDbLine
10
-49.9382133995037
20
2.28134760602233
30
0.000000000000000
11
-49.8382133995037
21
2.25966608415422
31
0.000000000000000
  0
LINE
  5
F105AB
330
F105AC
100
AcDbEntity
8
Geo
100
AcDbLine
10
-49.8382133995037
20
2.25966608415422
30
0.000000000000000
11
-49.7382133995037
21
2.23860386212722
31
0.000000000000000
  0
LINE
  5
F105AD
330
F105AE
100
AcDbEntity
8
Geo
100
AcDbLine
10
-49.7382133995037
20
2.23860386212722
30
0.000000000000000
11
-49.6382133995037
21
2.21816374820642
31
0.000000000000000
  0
LINE
  5
F105AF
330
F105B0
100
AcDbEntity
8
Geo
100
AcDbLine
10
-49.6382133995037
20
2.21816374820642
30
0.000000000000000
11
-49.5382133995037
21
2.19834846771005
31
0.000000000000000
  0
LINE
  5
F105B1
330
F105B2
100
AcDbEntity
8
Geo
100
AcDbLine
10
-49.5382133995037
20
2.19834846771005
30
0.000000000000000
11
-49.4382133995037
21
2.17916066264616
31
0.000000000000000
  0
LINE
  5
F105B3
330
F105B4
100
AcDbEntity
8
Geo
100
AcDbLine
10
-49.4382133995037
20
2.17916066264616
30
0.000000000000000
11
-49.3382133995037
21
2.16060289136032
31
0.000000000000000
  0
LINE
  5
F105B5
330
F105B6
100
AcDbEntity
8
Geo
100
AcDbLine
10
-49.3382133995037
20
2.16060289136032
30
0.000000000000000
11
-49.2382133995037
21
2.14267762819455
31
0.000000000000000
  0
LINE
  5
F105B7
330
F105B8
100
AcDbEntity
8
Geo
100
AcDbLine
10
-49.2382133995037
20
2.14267762819455
30
0.000000000000000
11
-49.1382133995037
21
2.12538726315738
31
0.000000000000000
  0
LINE
  5
F105B9
330
F105BA
100
AcDbEntity
8
Geo
100
AcDbLine
10
-49.1382133995037
20
2.12538726315738
30
0.000000000000000
11
-49.0382133995037
21
2.10873410160521
31
0.000000000000000
  0
LINE
  5
F105BB
330
F105BC
100
AcDbEntity
8
Geo
100
AcDbLine
10
-49.0382133995037
20
2.10873410160521
30
0.000000000000000
11
-48.9382133995037
21
2.09272036393489
31
0.000000000000000
  0
LINE
  5
F105BD
330
F105BE
100
AcDbEntity
8
Geo
100
AcDbLine
10
-48.9382133995037
20
2.09272036393489
30
0.000000000000000
11
-48.8382133995037
21
2.07734818528774
31
0.000000000000000
  0
LINE
  5
F105BF
330
F105C0
100
AcDbEntity
8
Geo
100
AcDbLine
10
-48.8382133995037
20
2.07734818528774
30
0.000000000000000
11
-48.7382133995037
21
2.06261961526479
31
0.000000000000000
  0
LINE
  5
F105C1
330
F105C2
100
AcDbEntity
8
Geo
100
AcDbLine
10
-48.7382133995037
20
2.06261961526479
30
0.000000000000000
11
-48.6382133995037
21
2.04853661765357
31
0.000000000000000
  0
LINE
  5
F105C3
330
F105C4
100
AcDbEntity
8
Geo
100
AcDbLine
10
-48.6382133995037
20
2.04853661765357
30
0.000000000000000
11
-48.5382133995037
21
2.03510107016621
31
0.000000000000000
  0
LINE
  5
F105C5
330
F105C6
100
AcDbEntity
8
Geo
100
AcDbLine
10
-48.5382133995037
20
2.03510107016621
30
0.000000000000000
11
-48.4382133995037
21
2.02231476418916
31
0.000000000000000
  0
LINE
  5
F105C7
330
F105C8
100
AcDbEntity
8
Geo
100
AcDbLine
10
-48.4382133995037
20
2.02231476418916
30
0.000000000000000
11
-48.3382133995037
21
2.01017940454426
31
0.000000000000000
  0
LINE
  5
F105C9
330
F105CA
100
AcDbEntity
8
Geo
100
AcDbLine
10
-48.3382133995037
20
2.01017940454426
30
0.000000000000000
11
-48.2382133995037
21
1.99869660926150
31
0.000000000000000
  0
LINE
  5
F105CB
330
F105CC
100
AcDbEntity
8
Geo
100
AcDbLine
10
-48.2382133995037
20
1.99869660926150
30
0.000000000000000
11
-48.1382133995037
21
1.98786790936322
31
0.000000000000000
  0
LINE
  5
F105CD
330
F105CE
100
AcDbEntity
8
Geo
100
AcDbLine
10
-48.1382133995037
20
1.98786790936322
30
0.000000000000000
11
-48.0382133995037
21
1.97769474866004
31
0.000000000000000
  0
LINE
  5
F105CF
330
F105D0
100
AcDbEntity
8
Geo
100
AcDbLine
10
-48.0382133995037
20
1.97769474866004
30
0.000000000000000
11
-47.9382133995037
21
1.96817848355832
31
0.000000000000000
  0
LINE
  5
F105D1
330
F105D2
100
AcDbEntity
8
Geo
100
AcDbLine
10
-47.9382133995037
20
1.96817848355832
30
0.000000000000000
11
-47.8382133995037
21
1.95932038287930
31
0.000000000000000
  0
LINE
  5
F105D3
330
F105D4
100
AcDbEntity
8
Geo
100
AcDbLine
10
-47.8382133995037
20
1.95932038287930
30
0.000000000000000
11
-47.7382133995037
21
1.95112162768995
31
0.000000000000000
  0
LINE
  5
F105D5
330
F105D6
100
AcDbEntity
8
Geo
100
AcDbLine
10
-47.7382133995037
20
1.95112162768995
30
0.000000000000000
11
-47.6382133995037
21
1.94358331114548
31
0.000000000000000
  0
LINE
  5
F105D7
330
F105D8
100
AcDbEntity
8
Geo
100
AcDbLine
10
-47.6382133995037
20
1.94358331114548
30
0.000000000000000
11
-47.5382133995037
21
1.93670643834361
31
0.000000000000000
  0
LINE
  5
F105D9
330
F105DA
100
AcDbEntity
8
Geo
100
AcDbLine
10
-47.5382133995037
20
1.93670643834361
30
0.000000000000000
11
-47.4382133995037
21
1.93049192619051
31
0.000000000000000
  0
LINE
  5
F105DB
330
F105DC
100
AcDbEntity
8
Geo
100
AcDbLine
10
-47.4382133995037
20
1.93049192619051
30
0.000000000000000
11
-47.3382133995037
21
1.92494060327860
31
0.000000000000000
  0
LINE
  5
F105DD
330
F105DE
100
AcDbEntity
8
Geo
100
AcDbLine
10
-47.3382133995037
20
1.92494060327860
30
0.000000000000000
11
-47.2382133995037
21
1.92005320977604
31
0.000000000000000
  0
LINE
  5
F105DF
330
F105E0
100
AcDbEntity
8
Geo
100
AcDbLine
10
-47.2382133995037
20
1.92005320977604
30
0.000000000000000
11
-47.1382133995037
21
1.91583039732806
31
0.000000000000000
  0
LINE
  5
F105E1
330
F105E2
100
AcDbEntity
8
Geo
100
AcDbLine
10
-47.1382133995037
20
1.91583039732806
30
0.000000000000000
11
-47.0382133995037
21
1.91227272897006
31
0.000000000000000
  0
LINE
  5
F105E3
330
F105E4
100
AcDbEntity
8
Geo
100
AcDbLine
10
-47.0382133995037
20
1.91227272897006
30
0.000000000000000
11
-46.9382133995037
21
1.90938067905255
31
0.000000000000000
  0
LINE
  5
F105E5
330
F105E6
100
AcDbEntity
8
Geo
100
AcDbLine
10
-46.9382133995037
20
1.90938067905255
30
0.000000000000000
11
-46.8382133995037
21
1.90715463317791
31
0.000000000000000
  0
LINE
  5
F105E7
330
F105E8
100
AcDbEntity
8
Geo
100
AcDbLine
10
-46.8382133995037
20
1.90715463317791
30
0.000000000000000
11
-46.7382133995037
21
1.90559488814895
31
0.000000000000000
  0
LINE
  5
F105E9
330
F105EA
100
AcDbEntity
8
Geo
100
AcDbLine
10
-46.7382133995037
20
1.90559488814895
30
0.000000000000000
11
-46.6382133995037
21
1.90470165192937
31
0.000000000000000
  0
LINE
  5
F105EB
330
F105EC
100
AcDbEntity
8
Geo
100
AcDbLine
10
-27.5382133995037
20
11.9039665012407
30
0.000000000000000
11
-27.4382133995037
21
11.8740097590057
31
0.000000000000000
  0
LINE
  5
F105ED
330
F105EE
100
AcDbEntity
8
Geo
100
AcDbLine
10
-27.4382133995037
20
11.8740097590057
30
0.000000000000000
11
-27.3382133995037
21
11.7241510225126
31
0.000000000000000
  0
LINE
  5
F105EF
330
F105F0
100
AcDbEntity
8
Geo
100
AcDbLine
10
-27.3382133995037
20
11.7241510225126
30
0.000000000000000
11
-27.2382133995037
21
11.4316672086889
31
0.000000000000000
  0
LINE
  5
F105F1
330
F105F2
100
AcDbEntity
8
Geo
100
AcDbLine
10
-27.2382133995037
20
11.4316672086889
30
0.000000000000000
11
-27.1382133995037
21
10.9821922310641
31
0.000000000000000
  0
LINE
  5
F105F3
330
F105F4
100
AcDbEntity
8
Geo
100
AcDbLine
10
-27.1382133995037
20
10.9821922310641
30
0.000000000000000
11
-27.0382133995037
21
10.3679950349978
31
0.000000000000000
  0
LINE
  5
F105F5
330
F105F6
100
AcDbEntity
8
Geo
100
AcDbLine
10
-27.0382133995037
20
10.3679950349978
30
0.000000000000000
11
-26.9382133995037
21
9.59049372520231
31
0.000000000000000
  0
LINE
  5
F105F7
330
F105F8
100
AcDbEntity
8
Geo
100
AcDbLine
10
-26.9382133995037
20
9.59049372520231
30
0.000000000000000
11
-26.8382133995037
21
8.66273154187193
31
0.000000000000000
  0
LINE
  5
F105F9
330
F105FA
100
AcDbEntity
8
Geo
100
AcDbLine
10
-26.8382133995037
20
8.66273154187193
30
0.000000000000000
11
-26.7382133995037
21
7.61158488912163
31
0.000000000000000
  0
LINE
  5
F105FB
330
F105FC
100
AcDbEntity
8
Geo
100
AcDbLine
10
-43.5382133995036
20
11.9044648723548
30
0.000000000000000
11
-43.4382133995036
21
11.9041781448831
31
0.000000000000000
  0
LINE
  5
F105FD
330
F105FE
100
AcDbEntity
8
Geo
100
AcDbLine
10
-43.4382133995036
20
11.9041781448831
30
0.000000000000000
11
-43.3382133995036
21
11.9032247965993
31
0.000000000000000
  0
LINE
  5
F105FF
330
F10600
100
AcDbEntity
8
Geo
100
AcDbLine
10
-43.3382133995036
20
11.9032247965993
30
0.000000000000000
11
-43.2382133995036
21
11.9016049546149
31
0.000000000000000
  0
LINE
  5
F10601
330
F10602
100
AcDbEntity
8
Geo
100
AcDbLine
10
-43.2382133995036
20
11.9016049546149
30
0.000000000000000
11
-43.1382133995036
21
11.8993188349066
31
0.000000000000000
  0
LINE
  5
F10603
330
F10604
100
AcDbEntity
8
Geo
100
AcDbLine
10
-43.1382133995036
20
11.8993188349066
30
0.000000000000000
11
-43.0382133995036
21
11.8963667422868
31
0.000000000000000
  0
LINE
  5
F10605
330
F10606
100
AcDbEntity
8
Geo
100
AcDbLine
10
-43.0382133995036
20
11.8963667422868
30
0.000000000000000
11
-42.9382133995036
21
11.8927490703637
31
0.000000000000000
  0
LINE
  5
F10607
330
F10608
100
AcDbEntity
8
Geo
100
AcDbLine
10
-42.9382133995036
20
11.8927490703637
30
0.000000000000000
11
-42.8382133995036
21
11.8884663014879
31
0.000000000000000
  0
LINE
  5
F10609
330
F1060A
100
AcDbEntity
8
Geo
100
AcDbLine
10
-42.8382133995036
20
11.8884663014879
30
0.000000000000000
11
-42.7382133995036
21
11.8835190066892
31
0.000000000000000
  0
LINE
  5
F1060B
330
F1060C
100
AcDbEntity
8
Geo
100
AcDbLine
10
-42.7382133995036
20
11.8835190066892
30
0.000000000000000
11
-42.6382133995036
21
11.8779078455994
31
0.000000000000000
  0
LINE
  5
F1060D
330
F1060E
100
AcDbEntity
8
Geo
100
AcDbLine
10
-42.6382133995036
20
11.8779078455994
30
0.000000000000000
11
-42.5382133995036
21
11.8716335663650
31
0.000000000000000
  0
LINE
  5
F1060F
330
F10610
100
AcDbEntity
8
Geo
100
AcDbLine
10
-42.5382133995036
20
11.8716335663650
30
0.000000000000000
11
-42.4382133995036
21
11.8646970055474
31
0.000000000000000
  0
LINE
  5
F10611
330
F10612
100
AcDbEntity
8
Geo
100
AcDbLine
10
-42.4382133995036
20
11.8646970055474
30
0.000000000000000
11
-42.3382133995036
21
11.8570990880110
31
0.000000000000000
  0
LINE
  5
F10613
330
F10614
100
AcDbEntity
8
Geo
100
AcDbLine
10
-42.3382133995036
20
11.8570990880110
30
0.000000000000000
11
-42.2382133995036
21
11.8488408268002
31
0.000000000000000
  0
LINE
  5
F10615
330
F10616
100
AcDbEntity
8
Geo
100
AcDbLine
10
-42.2382133995036
20
11.8488408268002
30
0.000000000000000
11
-42.1382133995036
21
11.8399233230043
31
0.000000000000000
  0
LINE
  5
F10617
330
F10618
100
AcDbEntity
8
Geo
100
AcDbLine
10
-42.1382133995036
20
11.8399233230043
30
0.000000000000000
11
-42.0382133995036
21
11.8303477656106
31
0.000000000000000
  0
LINE
  5
F10619
330
F1061A
100
AcDbEntity
8
Geo
100
AcDbLine
10
-42.0382133995036
20
11.8303477656106
30
0.000000000000000
11
-41.9382133995036
21
11.8201154313459
31
0.000000000000000
  0
LINE
  5
F1061B
330
F1061C
100
AcDbEntity
8
Geo
100
AcDbLine
10
-41.9382133995036
20
11.8201154313459
30
0.000000000000000
11
-41.8382133995036
21
11.8092276845062
31
0.000000000000000
  0
LINE
  5
F1061D
330
F1061E
100
AcDbEntity
8
Geo
100
AcDbLine
10
-41.8382133995036
20
11.8092276845062
30
0.000000000000000
11
-41.7382133995036
21
11.7976859767751
31
0.000000000000000
  0
LINE
  5
F1061F
330
F10620
100
AcDbEntity
8
Geo
100
AcDbLine
10
-41.7382133995036
20
11.7976859767751
30
0.000000000000000
11
-41.6382133995036
21
11.7854918470297
31
0.000000000000000
  0
LINE
  5
F10621
330
F10622
100
AcDbEntity
8
Geo
100
AcDbLine
10
-41.6382133995036
20
11.7854918470297
30
0.000000000000000
11
-41.5382133995036
21
11.7726469211360
31
0.000000000000000
  0
LINE
  5
F10623
330
F10624
100
AcDbEntity
8
Geo
100
AcDbLine
10
-41.5382133995036
20
11.7726469211360
30
0.000000000000000
11
-41.4382133995036
21
11.7591529117318
31
0.000000000000000
  0
LINE
  5
F10625
330
F10626
100
AcDbEntity
8
Geo
100
AcDbLine
10
-41.4382133995036
20
11.7591529117318
30
0.000000000000000
11
-41.3382133995036
21
11.7450116179982
31
0.000000000000000
  0
LINE
  5
F10627
330
F10628
100
AcDbEntity
8
Geo
100
AcDbLine
10
-41.3382133995036
20
11.7450116179982
30
0.000000000000000
11
-41.2382133995036
21
11.7302249254202
31
0.000000000000000
  0
LINE
  5
F10629
330
F1062A
100
AcDbEntity
8
Geo
100
AcDbLine
10
-41.2382133995036
20
11.7302249254202
30
0.000000000000000
11
-41.1382133995036
21
11.7147948055349
31
0.000000000000000
  0
LINE
  5
F1062B
330
F1062C
100
AcDbEntity
8
Geo
100
AcDbLine
10
-41.1382133995036
20
11.7147948055349
30
0.000000000000000
11
-41.0382133995036
21
11.6987233156688
31
0.000000000000000
  0
LINE
  5
F1062D
330
F1062E
100
AcDbEntity
8
Geo
100
AcDbLine
10
-41.0382133995036
20
11.6987233156688
30
0.000000000000000
11
-40.9382133995036
21
11.6820125986633
31
0.000000000000000
  0
LINE
  5
F1062F
330
F10630
100
AcDbEntity
8
Geo
100
AcDbLine
10
-40.9382133995036
20
11.6820125986633
30
0.000000000000000
11
-40.8382133995036
21
11.6646648825892
31
0.000000000000000
  0
LINE
  5
F10631
330
F10632
100
AcDbEntity
8
Geo
100
AcDbLine
10
-40.8382133995036
20
11.6646648825892
30
0.000000000000000
11
-40.7382133995036
21
11.6466824804498
31
0.000000000000000
  0
LINE
  5
F10633
330
F10634
100
AcDbEntity
8
Geo
100
AcDbLine
10
-40.7382133995036
20
11.6466824804498
30
0.000000000000000
11
-40.6382133995036
21
11.6280677898720
31
0.000000000000000
  0
LINE
  5
F10635
330
F10636
100
AcDbEntity
8
Geo
100
AcDbLine
10
-40.6382133995036
20
11.6280677898720
30
0.000000000000000
11
-40.5382133995036
21
11.6088232927869
31
0.000000000000000
  0
LINE
  5
F10637
330
F10638
100
AcDbEntity
8
Geo
100
AcDbLine
10
-40.5382133995036
20
11.6088232927869
30
0.000000000000000
11
-40.4382133995036
21
11.5889515550990
31
0.000000000000000
  0
LINE
  5
F10639
330
F1063A
100
AcDbEntity
8
Geo
100
AcDbLine
10
-40.4382133995036
20
11.5889515550990
30
0.000000000000000
11
-40.3382133995036
21
11.5684552263438
31
0.000000000000000
  0
LINE
  5
F1063B
330
F1063C
100
AcDbEntity
8
Geo
100
AcDbLine
10
-40.3382133995036
20
11.5684552263438
30
0.000000000000000
11
-40.2382133995036
21
11.5473370393349
31
0.000000000000000
  0
LINE
  5
F1063D
330
F1063E
100
AcDbEntity
8
Geo
100
AcDbLine
10
-40.2382133995036
20
11.5473370393349
30
0.000000000000000
11
-40.1382133995036
21
11.5255998097992
31
0.000000000000000
  0
LINE
  5
F1063F
330
F10640
100
AcDbEntity
8
Geo
100
AcDbLine
10
-40.1382133995036
20
11.5255998097992
30
0.000000000000000
11
-40.0382133995036
21
11.5032464360018
31
0.000000000000000
  0
LINE
  5
F10641
330
F10642
100
AcDbEntity
8
Geo
100
AcDbLine
10
-40.0382133995036
20
11.5032464360018
30
0.000000000000000
11
-39.9382133995036
21
11.4802798983594
31
0.000000000000000
  0
LINE
  5
F10643
330
F10644
100
AcDbEntity
8
Geo
100
AcDbLine
10
-39.9382133995036
20
11.4802798983594
30
0.000000000000000
11
-39.8382133995036
21
11.4567032590430
31
0.000000000000000
  0
LINE
  5
F10645
330
F10646
100
AcDbEntity
8
Geo
100
AcDbLine
10
-39.8382133995036
20
11.4567032590430
30
0.000000000000000
11
-39.7382133995036
21
11.4325196615696
31
0.000000000000000
  0
LINE
  5
F10647
330
F10648
100
AcDbEntity
8
Geo
100
AcDbLine
10
-39.7382133995036
20
11.4325196615696
30
0.000000000000000
11
-39.6382133995036
21
11.4077323303830
31
0.000000000000000
  0
LINE
  5
F10649
330
F1064A
100
AcDbEntity
8
Geo
100
AcDbLine
10
-39.6382133995036
20
11.4077323303830
30
0.000000000000000
11
-39.5382133995036
21
11.3823445704240
31
0.000000000000000
  0
LINE
  5
F1064B
330
F1064C
100
AcDbEntity
8
Geo
100
AcDbLine
10
-39.5382133995036
20
11.3823445704240
30
0.000000000000000
11
-39.4382133995036
21
11.3563597666897
31
0.000000000000000
  0
LINE
  5
F1064D
330
F1064E
100
AcDbEntity
8
Geo
100
AcDbLine
10
-39.4382133995036
20
11.3563597666897
30
0.000000000000000
11
-39.3382133995036
21
11.3297813837819
31
0.000000000000000
  0
LINE
  5
F1064F
330
F10650
100
AcDbEntity
8
Geo
100
AcDbLine
10
-39.3382133995036
20
11.3297813837819
30
0.000000000000000
11
-39.2382133995036
21
11.3026129654459
31
0.000000000000000
  0
LINE
  5
F10651
330
F10652
100
AcDbEntity
8
Geo
100
AcDbLine
10
-39.2382133995036
20
11.3026129654459
30
0.000000000000000
11
-39.1382133995036
21
11.2748581340970
31
0.000000000000000
  0
LINE
  5
F10653
330
F10654
100
AcDbEntity
8
Geo
100
AcDbLine
10
-39.1382133995036
20
11.2748581340970
30
0.000000000000000
11
-39.0382133995036
21
11.2465205903383
31
0.000000000000000
  0
LINE
  5
F10655
330
F10656
100
AcDbEntity
8
Geo
100
AcDbLine
10
-39.0382133995036
20
11.2465205903383
30
0.000000000000000
11
-38.9382133995036
21
11.2176041124671
31
0.000000000000000
  0
LINE
  5
F10657
330
F10658
100
AcDbEntity
8
Geo
100
AcDbLine
10
-38.9382133995036
20
11.2176041124671
30
0.000000000000000
11
-38.8382133995036
21
11.1881125559709
31
0.000000000000000
  0
LINE
  5
F10659
330
F1065A
100
AcDbEntity
8
Geo
100
AcDbLine
10
-38.8382133995036
20
11.1881125559709
30
0.000000000000000
11
-38.7382133995036
21
11.1580498530135
31
0.000000000000000
  0
LINE
  5
F1065B
330
F1065C
100
AcDbEntity
8
Geo
100
AcDbLine
10
-38.7382133995036
20
11.1580498530135
30
0.000000000000000
11
-38.6382133995035
21
11.1274200119107
31
0.000000000000000
  0
LINE
  5
F1065D
330
F1065E
100
AcDbEntity
8
Geo
100
AcDbLine
10
-38.6382133995035
20
11.1274200119107
30
0.000000000000000
11
-38.5382133995035
21
11.0962271165961
31
0.000000000000000
  0
LINE
  5
F1065F
330
F10660
100
AcDbEntity
8
Geo
100
AcDbLine
10
-38.5382133995035
20
11.0962271165961
30
0.000000000000000
11
-38.4382133995035
21
11.0644753260761
31
0.000000000000000
  0
LINE
  5
F10661
330
F10662
100
AcDbEntity
8
Geo
100
AcDbLine
10
-38.4382133995035
20
11.0644753260761
30
0.000000000000000
11
-38.3382133995035
21
11.0321688738757
31
0.000000000000000
  0
LINE
  5
F10663
330
F10664
100
AcDbEntity
8
Geo
100
AcDbLine
10
-38.3382133995035
20
11.0321688738757
30
0.000000000000000
11
-38.2382133995035
21
10.9993120674741
31
0.000000000000000
  0
LINE
  5
F10665
330
F10666
100
AcDbEntity
8
Geo
100
AcDbLine
10
-38.2382133995035
20
10.9993120674741
30
0.000000000000000
11
-38.1382133995035
21
10.9659092877300
31
0.000000000000000
  0
LINE
  5
F10667
330
F10668
100
AcDbEntity
8
Geo
100
AcDbLine
10
-38.1382133995035
20
10.9659092877300
30
0.000000000000000
11
-38.0382133995035
21
10.9319649882980
31
0.000000000000000
  0
LINE
  5
F10669
330
F1066A
100
AcDbEntity
8
Geo
100
AcDbLine
10
-38.0382133995035
20
10.9319649882980
30
0.000000000000000
11
-37.9382133995035
21
10.8974836950343
31
0.000000000000000
  0
LINE
  5
F1066B
330
F1066C
100
AcDbEntity
8
Geo
100
AcDbLine
10
-37.9382133995035
20
10.8974836950343
30
0.000000000000000
11
-37.8382133995035
21
10.8624700053937
31
0.000000000000000
  0
LINE
  5
F1066D
330
F1066E
100
AcDbEntity
8
Geo
100
AcDbLine
10
-37.8382133995035
20
10.8624700053937
30
0.000000000000000
11
-37.7382133995035
21
10.8269285878163
31
0.000000000000000
  0
LINE
  5
F1066F
330
F10670
100
AcDbEntity
8
Geo
100
AcDbLine
10
-37.7382133995035
20
10.8269285878163
30
0.000000000000000
11
-37.6382133995035
21
10.7908641811049
31
0.000000000000000
  0
LINE
  5
F10671
330
F10672
100
AcDbEntity
8
Geo
100
AcDbLine
10
-37.6382133995035
20
10.7908641811049
30
0.000000000000000
11
-37.5382133995035
21
10.7542815937939
31
0.000000000000000
  0
LINE
  5
F10673
330
F10674
100
AcDbEntity
8
Geo
100
AcDbLine
10
-37.5382133995035
20
10.7542815937939
30
0.000000000000000
11
-37.4382133995035
21
10.7171857035073
31
0.000000000000000
  0
LINE
  5
F10675
330
F10676
100
AcDbEntity
8
Geo
100
AcDbLine
10
-37.4382133995035
20
10.7171857035073
30
0.000000000000000
11
-37.3382133995035
21
10.6795814563088
31
0.000000000000000
  0
LINE
  5
F10677
330
F10678
100
AcDbEntity
8
Geo
100
AcDbLine
10
-37.3382133995035
20
10.6795814563088
30
0.000000000000000
11
-37.2382133995035
21
10.6414738660424
31
0.000000000000000
  0
LINE
  5
F10679
330
F1067A
100
AcDbEntity
8
Geo
100
AcDbLine
10
-37.2382133995035
20
10.6414738660424
30
0.000000000000000
11
-37.1382133995035
21
10.6028680136636
31
0.000000000000000
  0
LINE
  5
F1067B
330
F1067C
100
AcDbEntity
8
Geo
100
AcDbLine
10
-37.1382133995035
20
10.6028680136636
30
0.000000000000000
11
-37.0382133995035
21
10.5637690465622
31
0.000000000000000
  0
LINE
  5
F1067D
330
F1067E
100
AcDbEntity
8
Geo
100
AcDbLine
10
-37.0382133995035
20
10.5637690465622
30
0.000000000000000
11
-36.9382133995035
21
10.5241821778760
31
0.000000000000000
  0
LINE
  5
F1067F
330
F10680
100
AcDbEntity
8
Geo
100
AcDbLine
10
-36.9382133995035
20
10.5241821778760
30
0.000000000000000
11
-36.8382133995035
21
10.4841126857954
31
0.000000000000000
  0
LINE
  5
F10681
330
F10682
100
AcDbEntity
8
Geo
100
AcDbLine
10
-36.8382133995035
20
10.4841126857954
30
0.000000000000000
11
-36.7382133995035
21
10.4435659128600
31
0.000000000000000
  0
LINE
  5
F10683
330
F10684
100
AcDbEntity
8
Geo
100
AcDbLine
10
-36.7382133995035
20
10.4435659128600
30
0.000000000000000
11
-36.6382133995035
21
10.4025472652462
31
0.000000000000000
  0
LINE
  5
F10685
330
F10686
100
AcDbEntity
8
Geo
100
AcDbLine
10
-36.6382133995035
20
10.4025472652462
30
0.000000000000000
11
-36.5382133995035
21
10.3610622120461
31
0.000000000000000
  0
LINE
  5
F10687
330
F10688
100
AcDbEntity
8
Geo
100
AcDbLine
10
-36.5382133995035
20
10.3610622120461
30
0.000000000000000
11
-36.4382133995035
21
10.3191162845388
31
0.000000000000000
  0
LINE
  5
F10689
330
F1068A
100
AcDbEntity
8
Geo
100
AcDbLine
10
-36.4382133995035
20
10.3191162845388
30
0.000000000000000
11
-36.3382133995035
21
10.2767150754524
31
0.000000000000000
  0
LINE
  5
F1068B
330
F1068C
100
AcDbEntity
8
Geo
100
AcDbLine
10
-36.3382133995035
20
10.2767150754524
30
0.000000000000000
11
-36.2382133995035
21
10.2338642382187
31
0.000000000000000
  0
LINE
  5
F1068D
330
F1068E
100
AcDbEntity
8
Geo
100
AcDbLine
10
-36.2382133995035
20
10.2338642382187
30
0.000000000000000
11
-36.1382133995035
21
10.1905694862192
31
0.000000000000000
  0
LINE
  5
F1068F
330
F10690
100
AcDbEntity
8
Geo
100
AcDbLine
10
-36.1382133995035
20
10.1905694862192
30
0.000000000000000
11
-36.0382133995035
21
10.1468365920233
31
0.000000000000000
  0
LINE
  5
F10691
330
F10692
100
AcDbEntity
8
Geo
100
AcDbLine
10
-36.0382133995035
20
10.1468365920233
30
0.000000000000000
11
-35.9382133995035
21
10.1026713866188
31
0.000000000000000
  0
LINE
  5
F10693
330
F10694
100
AcDbEntity
8
Geo
100
AcDbLine
10
-35.9382133995035
20
10.1026713866188
30
0.000000000000000
11
-35.8382133995035
21
10.0580797586342
31
0.000000000000000
  0
LINE
  5
F10695
330
F10696
100
AcDbEntity
8
Geo
100
AcDbLine
10
-35.8382133995035
20
10.0580797586342
30
0.000000000000000
11
-35.7382133995035
21
10.0130676535541
31
0.000000000000000
  0
LINE
  5
F10697
330
F10698
100
AcDbEntity
8
Geo
100
AcDbLine
10
-35.7382133995035
20
10.0130676535541
30
0.000000000000000
11
-35.6382133995035
21
9.96764107292556
31
0.000000000000000
  0
LINE
  5
F10699
330
F1069A
100
AcDbEntity
8
Geo
100
AcDbLine
10
-35.6382133995035
20
9.96764107292556
30
0.000000000000000
11
-35.5382133995035
21
9.92180607355884
31
0.000000000000000
  0
LINE
  5
F1069B
330
F1069C
100
AcDbEntity
8
Geo
100
AcDbLine
10
-35.5382133995035
20
9.92180607355884
30
0.000000000000000
11
-35.4382133995035
21
9.87556876671927
31
0.000000000000000
  0
LINE
  5
F1069D
330
F1069E
100
AcDbEntity
8
Geo
100
AcDbLine
10
-35.4382133995035
20
9.87556876671927
30
0.000000000000000
11
-35.3382133995035
21
9.82893531731258
31
0.000000000000000
  0
LINE
  5
F1069F
330
F106A0
100
AcDbEntity
8
Geo
100
AcDbLine
10
-35.3382133995035
20
9.82893531731258
30
0.000000000000000
11
-35.2382133995035
21
9.78191194306294
31
0.000000000000000
  0
LINE
  5
F106A1
330
F106A2
100
AcDbEntity
8
Geo
100
AcDbLine
10
-35.2382133995035
20
9.78191194306294
30
0.000000000000000
11
-35.1382133995035
21
9.73450491368392
31
0.000000000000000
  0
LINE
  5
F106A3
330
F106A4
100
AcDbEntity
8
Geo
100
AcDbLine
10
-35.1382133995035
20
9.73450491368392
30
0.000000000000000
11
-35.0382133995035
21
9.68672055004253
31
0.000000000000000
  0
LINE
  5
F106A5
330
F106A6
100
AcDbEntity
8
Geo
100
AcDbLine
10
-35.0382133995035
20
9.68672055004253
30
0.000000000000000
11
-34.9382133995035
21
9.63856522331649
31
0.000000000000000
  0
LINE
  5
F106A7
330
F106A8
100
AcDbEntity
8
Geo
100
AcDbLine
10
-34.9382133995035
20
9.63856522331649
30
0.000000000000000
11
-34.8382133995035
21
9.59004535414466
31
0.000000000000000
  0
LINE
  5
F106A9
330
F106AA
100
AcDbEntity
8
Geo
100
AcDbLine
10
-34.8382133995035
20
9.59004535414466
30
0.000000000000000
11
-34.7382133995035
21
9.54116741177106
31
0.000000000000000
  0
LINE
  5
F106AB
330
F106AC
100
AcDbEntity
8
Geo
100
AcDbLine
10
-34.7382133995035
20
9.54116741177106
30
0.000000000000000
11
-34.6382133995035
21
9.49193791318226
31
0.000000000000000
  0
LINE
  5
F106AD
330
F106AE
100
AcDbEntity
8
Geo
100
AcDbLine
10
-34.6382133995035
20
9.49193791318226
30
0.000000000000000
11
-34.5382133995035
21
9.44236342223848
31
0.000000000000000
  0
LINE
  5
F106AF
330
F106B0
100
AcDbEntity
8
Geo
100
AcDbLine
10
-34.5382133995035
20
9.44236342223848
30
0.000000000000000
11
-34.4382133995035
21
9.39245054879840
31
0.000000000000000
  0
LINE
  5
F106B1
330
F106B2
100
AcDbEntity
8
Geo
100
AcDbLine
10
-34.4382133995035
20
9.39245054879840
30
0.000000000000000
11
-34.3382133995035
21
9.34220594783787
31
0.000000000000000
  0
LINE
  5
F106B3
330
F106B4
100
AcDbEntity
8
Geo
100
AcDbLine
10
-34.3382133995035
20
9.34220594783787
30
0.000000000000000
11
-34.2382133995035
21
9.29163631856256
31
0.000000000000000
  0
LINE
  5
F106B5
330
F106B6
100
AcDbEntity
8
Geo
100
AcDbLine
10
-34.2382133995035
20
9.29163631856256
30
0.000000000000000
11
-34.1382133995035
21
9.24074840351482
31
0.000000000000000
  0
LINE
  5
F106B7
330
F106B8
100
AcDbEntity
8
Geo
100
AcDbLine
10
-34.1382133995035
20
9.24074840351482
30
0.000000000000000
11
-34.0382133995035
21
9.18954898767458
31
0.000000000000000
  0
LINE
  5
F106B9
330
F106BA
100
AcDbEntity
8
Geo
100
AcDbLine
10
-34.0382133995035
20
9.18954898767458
30
0.000000000000000
11
-33.9382133995035
21
9.13804489755477
31
0.000000000000000
  0
LINE
  5
F106BB
330
F106BC
100
AcDbEntity
8
Geo
100
AcDbLine
10
-33.9382133995035
20
9.13804489755477
30
0.000000000000000
11
-33.8382133995035
21
9.08624300029112
31
0.000000000000000
  0
LINE
  5
F106BD
330
F106BE
100
AcDbEntity
8
Geo
100
AcDbLine
10
-33.8382133995035
20
9.08624300029112
30
0.000000000000000
11
-33.7382133995035
21
9.03415020272650
31
0.000000000000000
  0
LINE
  5
F106BF
330
F106C0
100
AcDbEntity
8
Geo
100
AcDbLine
10
-33.7382133995035
20
9.03415020272650
30
0.000000000000000
11
-33.6382133995035
21
8.98177345049010
31
0.000000000000000
  0
LINE
  5
F106C1
330
F106C2
100
AcDbEntity
8
Geo
100
AcDbLine
10
-33.6382133995035
20
8.98177345049010
30
0.000000000000000
11
-33.5382133995035
21
8.92911972707127
31
0.000000000000000
  0
LINE
  5
F106C3
330
F106C4
100
AcDbEntity
8
Geo
100
AcDbLine
10
-33.5382133995035
20
8.92911972707127
30
0.000000000000000
11
-33.4382133995035
21
8.87619605288847
31
0.000000000000000
  0
LINE
  5
F106C5
330
F106C6
100
AcDbEntity
8
Geo
100
AcDbLine
10
-33.4382133995035
20
8.87619605288847
30
0.000000000000000
11
-33.3382133995035
21
8.82300948435318
31
0.000000000000000
  0
LINE
  5
F106C7
330
F106C8
100
AcDbEntity
8
Geo
100
AcDbLine
10
-33.3382133995035
20
8.82300948435318
30
0.000000000000000
11
-33.2382133995035
21
8.76956711292909
31
0.000000000000000
  0
LINE
  5
F106C9
330
F106CA
100
AcDbEntity
8
Geo
100
AcDbLine
10
-33.2382133995035
20
8.76956711292909
30
0.000000000000000
11
-33.1382133995035
21
8.71587606418653
31
0.000000000000000
  0
LINE
  5
F106CB
330
F106CC
100
AcDbEntity
8
Geo
100
AcDbLine
10
-33.1382133995035
20
8.71587606418653
30
0.000000000000000
11
-33.0382133995035
21
8.66194349685248
31
0.000000000000000
  0
LINE
  5
F106CD
330
F106CE
100
AcDbEntity
8
Geo
100
AcDbLine
10
-33.0382133995035
20
8.66194349685248
30
0.000000000000000
11
-32.9382133995035
21
8.60777660185600
31
0.000000000000000
  0
LINE
  5
F106CF
330
F106D0
100
AcDbEntity
8
Geo
100
AcDbLine
10
-32.9382133995035
20
8.60777660185600
30
0.000000000000000
11
-32.8382133995035
21
8.55338260136952
31
0.000000000000000
  0
LINE
  5
F106D1
330
F106D2
100
AcDbEntity
8
Geo
100
AcDbLine
10
-32.8382133995035
20
8.55338260136952
30
0.000000000000000
11
-32.7382133995035
21
8.49876874784585
31
0.000000000000000
  0
LINE
  5
F106D3
330
F106D4
100
AcDbEntity
8
Geo
100
AcDbLine
10
-32.7382133995035
20
8.49876874784585
30
0.000000000000000
11
-32.6382133995035
21
8.44394232305122
31
0.000000000000000
  0
LINE
  5
F106D5
330
F106D6
100
AcDbEntity
8
Geo
100
AcDbLine
10
-32.6382133995035
20
8.44394232305122
30
0.000000000000000
11
-32.5382133995035
21
8.38891063709437
31
0.000000000000000
  0
LINE
  5
F106D7
330
F106D8
100
AcDbEntity
8
Geo
100
AcDbLine
10
-32.5382133995035
20
8.38891063709437
30
0.000000000000000
11
-32.4382133995035
21
8.33368102745191
31
0.000000000000000
  0
LINE
  5
F106D9
330
F106DA
100
AcDbEntity
8
Geo
100
AcDbLine
10
-32.4382133995035
20
8.33368102745191
30
0.000000000000000
11
-32.3382133995035
21
8.27826085798997
31
0.000000000000000
  0
LINE
  5
F106DB
330
F106DC
100
AcDbEntity
8
Geo
100
AcDbLine
10
-32.3382133995035
20
8.27826085798997
30
0.000000000000000
11
-32.2382133995035
21
8.22265751798237
31
0.000000000000000
  0
LINE
  5
F106DD
330
F106DE
100
AcDbEntity
8
Geo
100
AcDbLine
10
-32.2382133995035
20
8.22265751798237
30
0.000000000000000
11
-32.1382133995035
21
8.16687842112540
31
0.000000000000000
  0
LINE
  5
F106DF
330
F106E0
100
AcDbEntity
8
Geo
100
AcDbLine
10
-32.1382133995035
20
8.16687842112540
30
0.000000000000000
11
-32.0382133995035
21
8.11093100454935
31
0.000000000000000
  0
LINE
  5
F106E1
330
F106E2
100
AcDbEntity
8
Geo
100
AcDbLine
10
-32.0382133995035
20
8.11093100454935
30
0.000000000000000
11
-31.9382133995035
21
8.05482272782687
31
0.000000000000000
  0
LINE
  5
F106E3
330
F106E4
100
AcDbEntity
8
Geo
100
AcDbLine
10
-31.9382133995035
20
8.05482272782687
30
0.000000000000000
11
-31.8382133995035
21
7.99856107197840
31
0.000000000000000
  0
LINE
  5
F106E5
330
F106E6
100
AcDbEntity
8
Geo
100
AcDbLine
10
-31.8382133995035
20
7.99856107197840
30
0.000000000000000
11
-31.7382133995035
21
7.94215353847471
31
0.000000000000000
  0
LINE
  5
F106E7
330
F106E8
100
AcDbEntity
8
Geo
100
AcDbLine
10
-31.7382133995035
20
7.94215353847471
30
0.000000000000000
11
-31.6382133995034
21
7.88560764823669
31
0.000000000000000
  0
LINE
  5
F106E9
330
F106EA
100
AcDbEntity
8
Geo
100
AcDbLine
10
-31.6382133995034
20
7.88560764823669
30
0.000000000000000
11
-31.5382133995034
21
7.82893094063261
31
0.000000000000000
  0
LINE
  5
F106EB
330
F106EC
100
AcDbEntity
8
Geo
100
AcDbLine
10
-31.5382133995034
20
7.82893094063261
30
0.000000000000000
11
-31.4382133995034
21
7.77213097247285
31
0.000000000000000
  0
LINE
  5
F106ED
330
F106EE
100
AcDbEntity
8
Geo
100
AcDbLine
10
-31.4382133995034
20
7.77213097247285
30
0.000000000000000
11
-31.3382133995034
21
7.71521531700235
31
0.000000000000000
  0
LINE
  5
F106EF
330
F106F0
100
AcDbEntity
8
Geo
100
AcDbLine
10
-31.3382133995034
20
7.71521531700235
30
0.000000000000000
11
-31.2382133995034
21
7.65819156289085
31
0.000000000000000
  0
LINE
  5
F106F1
330
F106F2
100
AcDbEntity
8
Geo
100
AcDbLine
10
-31.2382133995034
20
7.65819156289085
30
0.000000000000000
11
-31.1382133995034
21
7.60106731322108
31
0.000000000000000
  0
LINE
  5
F106F3
330
F106F4
100
AcDbEntity
8
Geo
100
AcDbLine
10
-31.1382133995034
20
7.60106731322108
30
0.000000000000000
11
-31.0382133995034
21
7.54385018447505
31
0.000000000000000
  0
LINE
  5
F106F5
330
F106F6
100
AcDbEntity
8
Geo
100
AcDbLine
10
-31.0382133995034
20
7.54385018447505
30
0.000000000000000
11
-30.9382133995034
21
7.48654780551849
31
0.000000000000000
  0
LINE
  5
F106F7
330
F106F8
100
AcDbEntity
8
Geo
100
AcDbLine
10
-30.9382133995034
20
7.48654780551849
30
0.000000000000000
11
-30.8382133995034
21
7.42916781658370
31
0.000000000000000
  0
LINE
  5
F106F9
330
F106FA
100
AcDbEntity
8
Geo
100
AcDbLine
10
-30.8382133995034
20
7.42916781658370
30
0.000000000000000
11
-30.7382133995034
21
7.37171786825085
31
0.000000000000000
  0
LINE
  5
F106FB
330
F106FC
100
AcDbEntity
8
Geo
100
AcDbLine
10
-30.7382133995034
20
7.37171786825085
30
0.000000000000000
11
-30.6382133995034
21
7.31420562042796
31
0.000000000000000
  0
LINE
  5
F106FD
330
F106FE
100
AcDbEntity
8
Geo
100
AcDbLine
10
-30.6382133995034
20
7.31420562042796
30
0.000000000000000
11
-30.5382133995034
21
7.25663874132953
31
0.000000000000000
  0
LINE
  5
F106FF
330
F10700
100
AcDbEntity
8
Geo
100
AcDbLine
10
-30.5382133995034
20
7.25663874132953
30
0.000000000000000
11
-30.4382133995034
21
7.19902490645416
31
0.000000000000000
  0
LINE
  5
F10701
330
F10702
100
AcDbEntity
8
Geo
100
AcDbLine
10
-30.4382133995034
20
7.19902490645416
30
0.000000000000000
11
-30.3382133995034
21
7.14137179756114
31
0.000000000000000
  0
LINE
  5
F10703
330
F10704
100
AcDbEntity
8
Geo
100
AcDbLine
10
-30.3382133995034
20
7.14137179756114
30
0.000000000000000
11
-30.2382133995034
21
7.08368710164625
31
0.000000000000000
  0
LINE
  5
F10705
330
F10706
100
AcDbEntity
8
Geo
100
AcDbLine
10
-30.2382133995034
20
7.08368710164625
30
0.000000000000000
11
-30.1382133995034
21
7.02597850991681
31
0.000000000000000
  0
LINE
  5
F10707
330
F10708
100
AcDbEntity
8
Geo
100
AcDbLine
10
-30.1382133995034
20
7.02597850991681
30
0.000000000000000
11
-30.0382133995034
21
6.96825371676623
31
0.000000000000000
  0
LINE
  5
F10709
330
F1070A
100
AcDbEntity
8
Geo
100
AcDbLine
10
-30.0382133995034
20
6.96825371676623
30
0.000000000000000
11
-29.9382133995034
21
6.91052041874809
31
0.000000000000000
  0
LINE
  5
F1070B
330
F1070C
100
AcDbEntity
8
Geo
100
AcDbLine
10
-29.9382133995034
20
6.91052041874809
30
0.000000000000000
11
-29.8382133995034
21
6.85278631354990
31
0.000000000000000
  0
LINE
  5
F1070D
330
F1070E
100
AcDbEntity
8
Geo
100
AcDbLine
10
-29.8382133995034
20
6.85278631354990
30
0.000000000000000
11
-29.7382133995034
21
6.79505909896685
31
0.000000000000000
  0
LINE
  5
F1070F
330
F10710
100
AcDbEntity
8
Geo
100
AcDbLine
10
-29.7382133995034
20
6.79505909896685
30
0.000000000000000
11
-29.6382133995034
21
6.73734647187535
31
0.000000000000000
  0
LINE
  5
F10711
330
F10712
100
AcDbEntity
8
Geo
100
AcDbLine
10
-29.6382133995034
20
6.73734647187535
30
0.000000000000000
11
-29.5382133995034
21
6.67965612720685
31
0.000000000000000
  0
LINE
  5
F10713
330
F10714
100
AcDbEntity
8
Geo
100
AcDbLine
10
-29.5382133995034
20
6.67965612720685
30
0.000000000000000
11
-29.4382133995034
21
6.62199575692184
31
0.000000000000000
  0
LINE
  5
F10715
330
F10716
100
AcDbEntity
8
Geo
100
AcDbLine
10
-29.4382133995034
20
6.62199575692184
30
0.000000000000000
11
-29.3382133995034
21
6.56437304898426
31
0.000000000000000
  0
LINE
  5
F10717
330
F10718
100
AcDbEntity
8
Geo
100
AcDbLine
10
-29.3382133995034
20
6.56437304898426
30
0.000000000000000
11
-29.2382133995034
21
6.50679568633647
31
0.000000000000000
  0
LINE
  5
F10719
330
F1071A
100
AcDbEntity
8
Geo
100
AcDbLine
10
-29.2382133995034
20
6.50679568633647
30
0.000000000000000
11
-29.1382133995034
21
6.44927134587487
31
0.000000000000000
  0
LINE
  5
F1071B
330
F1071C
100
AcDbEntity
8
Geo
100
AcDbLine
10
-29.1382133995034
20
6.44927134587487
30
0.000000000000000
11
-29.0382133995034
21
6.39180769742629
31
0.000000000000000
  0
LINE
  5
F1071D
330
F1071E
100
AcDbEntity
8
Geo
100
AcDbLine
10
-29.0382133995034
20
6.39180769742629
30
0.000000000000000
11
-28.9382133995034
21
6.33441240272539
31
0.000000000000000
  0
LINE
  5
F1071F
330
F10720
100
AcDbEntity
8
Geo
100
AcDbLine
10
-28.9382133995034
20
6.33441240272539
30
0.000000000000000
11
-28.8382133995034
21
6.27709311439311
31
0.000000000000000
  0
LINE
  5
F10721
330
F10722
100
AcDbEntity
8
Geo
100
AcDbLine
10
-28.8382133995034
20
6.27709311439311
30
0.000000000000000
11
-28.7382133995037
21
6.21985747491649
31
0.000000000000000
  0
LINE
  5
F10723
330
F10724
100
AcDbEntity
8
Geo
100
AcDbLine
10
-28.7382133995037
20
6.21985747491649
30
0.000000000000000
11
-28.6382133995037
21
6.23855892919494
31
0.000000000000000
  0
LINE
  5
F10725
330
F10726
100
AcDbEntity
8
Geo
100
AcDbLine
10
-28.6382133995037
20
6.23855892919494
30
0.000000000000000
11
-28.5382133995037
21
6.26252504810136
31
0.000000000000000
  0
LINE
  5
F10727
330
F10728
100
AcDbEntity
8
Geo
100
AcDbLine
10
-28.5382133995037
20
6.26252504810136
30
0.000000000000000
11
-28.4382133995037
21
6.29183387650660
31
0.000000000000000
  0
LINE
  5
F10729
330
F1072A
100
AcDbEntity
8
Geo
100
AcDbLine
10
-28.4382133995037
20
6.29183387650660
30
0.000000000000000
11
-28.3382133995037
21
6.32649628103680
31
0.000000000000000
  0
LINE
  5
F1072B
330
F1072C
100
AcDbEntity
8
Geo
100
AcDbLine
10
-28.3382133995037
20
6.32649628103680
30
0.000000000000000
11
-28.2382133995037
21
6.36652390262818
31
0.000000000000000
  0
LINE
  5
F1072D
330
F1072E
100
AcDbEntity
8
Geo
100
AcDbLine
10
-28.2382133995037
20
6.36652390262818
30
0.000000000000000
11
-28.1382133995037
21
6.41192855484792
31
0.000000000000000
  0
LINE
  5
F1072F
330
F10730
100
AcDbEntity
8
Geo
100
AcDbLine
10
-28.1382133995037
20
6.41192855484792
30
0.000000000000000
11
-28.0382133995037
21
6.46272152856041
31
0.000000000000000
  0
LINE
  5
F10731
330
F10732
100
AcDbEntity
8
Geo
100
AcDbLine
10
-28.0382133995037
20
6.46272152856041
30
0.000000000000000
11
-27.9382133995037
21
6.51891280268333
31
0.000000000000000
  0
LINE
  5
F10733
330
F10734
100
AcDbEntity
8
Geo
100
AcDbLine
10
-27.9382133995037
20
6.51891280268333
30
0.000000000000000
11
-27.8382133995037
21
6.58051016089710
31
0.000000000000000
  0
LINE
  5
F10735
330
F10736
100
AcDbEntity
8
Geo
100
AcDbLine
10
-27.8382133995037
20
6.58051016089710
30
0.000000000000000
11
-27.7382133995037
21
6.64751821434716
31
0.000000000000000
  0
LINE
  5
F10737
330
F10738
100
AcDbEntity
8
Geo
100
AcDbLine
10
-27.7382133995037
20
6.64751821434716
30
0.000000000000000
11
-27.6382133995037
21
6.71993733061928
31
0.000000000000000
  0
LINE
  5
F10739
330
F1073A
100
AcDbEntity
8
Geo
100
AcDbLine
10
-27.6382133995037
20
6.71993733061928
30
0.000000000000000
11
-27.5382133995037
21
6.79776246957985
31
0.000000000000000
  0
LINE
  5
F1073B
330
F1073C
100
AcDbEntity
8
Geo
100
AcDbLine
10
-27.5382133995037
20
6.79776246957985
30
0.000000000000000
11
-27.4382133995037
21
6.88098192706207
31
0.000000000000000
  0
LINE
  5
F1073D
330
F1073E
100
AcDbEntity
8
Geo
100
AcDbLine
10
-27.4382133995037
20
6.88098192706207
30
0.000000000000000
11
-27.3382133995037
21
6.96957598785342
31
0.000000000000000
  0
LINE
  5
F1073F
330
F10740
100
AcDbEntity
8
Geo
100
AcDbLine
10
-27.3382133995037
20
6.96957598785342
30
0.000000000000000
11
-27.2382133995037
21
7.06351549000305
31
0.000000000000000
  0
LINE
  5
F10741
330
F10742
100
AcDbEntity
8
Geo
100
AcDbLine
10
-27.2382133995037
20
7.06351549000305
30
0.000000000000000
11
-27.1382133995037
21
7.16276030312934
31
0.000000000000000
  0
LINE
  5
F10743
330
F10744
100
AcDbEntity
8
Geo
100
AcDbLine
10
-27.1382133995037
20
7.16276030312934
30
0.000000000000000
11
-27.0382133995037
21
7.26725772416996
31
0.000000000000000
  0
LINE
  5
F10745
330
F10746
100
AcDbEntity
8
Geo
100
AcDbLine
10
-27.0382133995037
20
7.26725772416996
30
0.000000000000000
11
-26.9382133995037
21
7.37694079488697
31
0.000000000000000
  0
LINE
  5
F10747
330
F10748
100
AcDbEntity
8
Geo
100
AcDbLine
10
-26.9382133995037
20
7.37694079488697
30
0.000000000000000
11
-26.8382133995037
21
7.49172654642074
31
0.000000000000000
  0
LINE
  5
F10749
330
F1074A
100
AcDbEntity
8
Geo
100
AcDbLine
10
-26.8382133995037
20
7.49172654642074
30
0.000000000000000
11
-26.7382133995037
21
7.61158488912163
31
0.000000000000000
  0
LINE
  5
F1074B
330
F1074C
100
AcDbEntity
8
Geo
100
AcDbLine
10
-70.7382133995037
20
11.3176424124072
30
0.000000000000000
11
-70.6382133995037
21
11.6116425403081
31
0.000000000000000
  0
LINE
  5
F1074D
330
F1074E
100
AcDbEntity
8
Geo
100
AcDbLine
10
-70.6382133995037
20
11.6116425403081
30
0.000000000000000
11
-70.5382133995037
21
11.7049883862291
31
0.000000000000000
  0
LINE
  5
F1074F
330
F10750
100
AcDbEntity
8
Geo
100
AcDbLine
10
-70.5382133995037
20
11.7049883862291
30
0.000000000000000
11
-70.4382133995037
21
11.7559234547191
31
0.000000000000000
  0
LINE
  5
F10751
330
F10752
100
AcDbEntity
8
Geo
100
AcDbLine
10
-70.4382133995037
20
11.7559234547191
30
0.000000000000000
11
-70.3382133995037
21
11.7795762699581
31
0.000000000000000
  0
LINE
  5
F10753
330
F10754
100
AcDbEntity
8
Geo
100
AcDbLine
10
-70.3382133995037
20
11.7795762699581
30
0.000000000000000
11
-70.2382133995037
21
11.7810429004189
31
0.000000000000000
  0
LINE
  5
F10755
330
F10756
100
AcDbEntity
8
Geo
100
AcDbLine
10
-70.2382133995037
20
11.7810429004189
30
0.000000000000000
11
-70.1382133995037
21
11.7717680500804
31
0.000000000000000
  0
LINE
  5
F10757
330
F10758
100
AcDbEntity
8
Geo
100
AcDbLine
10
-70.1382133995037
20
11.7717680500804
30
0.000000000000000
11
-70.0382133995037
21
11.7618442334128
31
0.000000000000000
  0
LINE
  5
F10759
330
F1075A
100
AcDbEntity
8
Geo
100
AcDbLine
10
-70.0382133995037
20
11.7618442334128
30
0.000000000000000
11
-69.9382133995037
21
11.7512727735769
31
0.000000000000000
  0
LINE
  5
F1075B
330
F1075C
100
AcDbEntity
8
Geo
100
AcDbLine
10
-69.9382133995037
20
11.7512727735769
30
0.000000000000000
11
-69.8382133995037
21
11.7400550800852
31
0.000000000000000
  0
LINE
  5
F1075D
330
F1075E
100
AcDbEntity
8
Geo
100
AcDbLine
10
-69.8382133995037
20
11.7400550800852
30
0.000000000000000
11
-69.7382133995037
21
11.7281926486135
31
0.000000000000000
  0
LINE
  5
F1075F
330
F10760
100
AcDbEntity
8
Geo
100
AcDbLine
10
-69.7382133995037
20
11.7281926486135
30
0.000000000000000
11
-69.6382133995037
21
11.7156870608017
31
0.000000000000000
  0
LINE
  5
F10761
330
F10762
100
AcDbEntity
8
Geo
100
AcDbLine
10
-69.6382133995037
20
11.7156870608017
30
0.000000000000000
11
-69.5382133995037
21
11.7025399840429
31
0.000000000000000
  0
LINE
  5
F10763
330
F10764
100
AcDbEntity
8
Geo
100
AcDbLine
10
-69.5382133995037
20
11.7025399840429
30
0.000000000000000
11
-69.4382133995037
21
11.6887531712614
31
0.000000000000000
  0
LINE
  5
F10765
330
F10766
100
AcDbEntity
8
Geo
100
AcDbLine
10
-69.4382133995037
20
11.6887531712614
30
0.000000000000000
11
-69.3382133995037
21
11.6743284606783
31
0.000000000000000
  0
LINE
  5
F10767
330
F10768
100
AcDbEntity
8
Geo
100
AcDbLine
10
-69.3382133995037
20
11.6743284606783
30
0.000000000000000
11
-69.2382133995037
21
11.6592677755670
31
0.000000000000000
  0
LINE
  5
F10769
330
F1076A
100
AcDbEntity
8
Geo
100
AcDbLine
10
-69.2382133995037
20
11.6592677755670
30
0.000000000000000
11
-69.1382133995037
21
11.6435731239966
31
0.000000000000000
  0
LINE
  5
F1076B
330
F1076C
100
AcDbEntity
8
Geo
100
AcDbLine
10
-69.1382133995037
20
11.6435731239966
30
0.000000000000000
11
-69.0382133995037
21
11.6272465985641
31
0.000000000000000
  0
LINE
  5
F1076D
330
F1076E
100
AcDbEntity
8
Geo
100
AcDbLine
10
-69.0382133995037
20
11.6272465985641
30
0.000000000000000
11
-68.9382133995037
21
11.6102903761153
31
0.000000000000000
  0
LINE
  5
F1076F
330
F10770
100
AcDbEntity
8
Geo
100
AcDbLine
10
-68.9382133995037
20
11.6102903761153
30
0.000000000000000
11
-68.8382133995037
21
11.5927067174547
31
0.000000000000000
  0
LINE
  5
F10771
330
F10772
100
AcDbEntity
8
Geo
100
AcDbLine
10
-68.8382133995037
20
11.5927067174547
30
0.000000000000000
11
-68.7382133995037
21
11.5744979670441
31
0.000000000000000
  0
LINE
  5
F10773
330
F10774
100
AcDbEntity
8
Geo
100
AcDbLine
10
-68.7382133995037
20
11.5744979670441
30
0.000000000000000
11
-68.6382133995037
21
11.5556665526899
31
0.000000000000000
  0
LINE
  5
F10775
330
F10776
100
AcDbEntity
8
Geo
100
AcDbLine
10
-68.6382133995037
20
11.5556665526899
30
0.000000000000000
11
-68.5382133995037
21
11.5362149852196
31
0.000000000000000
  0
LINE
  5
F10777
330
F10778
100
AcDbEntity
8
Geo
100
AcDbLine
10
-68.5382133995037
20
11.5362149852196
30
0.000000000000000
11
-68.4382133995037
21
11.5161458581465
31
0.000000000000000
  0
LINE
  5
F10779
330
F1077A
100
AcDbEntity
8
Geo
100
AcDbLine
10
-68.4382133995037
20
11.5161458581465
30
0.000000000000000
11
-68.3382133995037
21
11.4954618473246
31
0.000000000000000
  0
LINE
  5
F1077B
330
F1077C
100
AcDbEntity
8
Geo
100
AcDbLine
10
-68.3382133995037
20
11.4954618473246
30
0.000000000000000
11
-68.2382133995037
21
11.4741657105913
31
0.000000000000000
  0
LINE
  5
F1077D
330
F1077E
100
AcDbEntity
8
Geo
100
AcDbLine
10
-68.2382133995037
20
11.4741657105913
30
0.000000000000000
11
-68.1382133995037
21
11.4522602874000
31
0.000000000000000
  0
LINE
  5
F1077F
330
F10780
100
AcDbEntity
8
Geo
100
AcDbLine
10
-68.1382133995037
20
11.4522602874000
30
0.000000000000000
11
-68.0382133995037
21
11.4297484984413
31
0.000000000000000
  0
LINE
  5
F10781
330
F10782
100
AcDbEntity
8
Geo
100
AcDbLine
10
-68.0382133995037
20
11.4297484984413
30
0.000000000000000
11
-67.9382133995037
21
11.4066333452537
31
0.000000000000000
  0
LINE
  5
F10783
330
F10784
100
AcDbEntity
8
Geo
100
AcDbLine
10
-67.9382133995037
20
11.4066333452537
30
0.000000000000000
11
-67.8382133995037
21
11.3829179098235
31
0.000000000000000
  0
LINE
  5
F10785
330
F10786
100
AcDbEntity
8
Geo
100
AcDbLine
10
-67.8382133995037
20
11.3829179098235
30
0.000000000000000
11
-67.7382133995037
21
11.3586053541735
31
0.000000000000000
  0
LINE
  5
F10787
330
F10788
100
AcDbEntity
8
Geo
100
AcDbLine
10
-67.7382133995037
20
11.3586053541735
30
0.000000000000000
11
-67.6382133995037
21
11.3336989199418
31
0.000000000000000
  0
LINE
  5
F10789
330
F1078A
100
AcDbEntity
8
Geo
100
AcDbLine
10
-67.6382133995037
20
11.3336989199418
30
0.000000000000000
11
-67.5382133995037
21
11.3082019279494
31
0.000000000000000
  0
LINE
  5
F1078B
330
F1078C
100
AcDbEntity
8
Geo
100
AcDbLine
10
-67.5382133995037
20
11.3082019279494
30
0.000000000000000
11
-67.4382133995037
21
11.2821177777574
31
0.000000000000000
  0
LINE
  5
F1078D
330
F1078E
100
AcDbEntity
8
Geo
100
AcDbLine
10
-67.4382133995037
20
11.2821177777574
30
0.000000000000000
11
-67.3382133995037
21
11.2554499472140
31
0.000000000000000
  0
LINE
  5
F1078F
330
F10790
100
AcDbEntity
8
Geo
100
AcDbLine
10
-67.3382133995037
20
11.2554499472140
30
0.000000000000000
11
-67.2382133995037
21
11.2282019919903
31
0.000000000000000
  0
LINE
  5
F10791
330
F10792
100
AcDbEntity
8
Geo
100
AcDbLine
10
-67.2382133995037
20
11.2282019919903
30
0.000000000000000
11
-67.1382133995037
21
11.2003775451067
31
0.000000000000000
  0
LINE
  5
F10793
330
F10794
100
AcDbEntity
8
Geo
100
AcDbLine
10
-67.1382133995037
20
11.2003775451067
30
0.000000000000000
11
-67.0382133995037
21
11.1719803164482
31
0.000000000000000
  0
LINE
  5
F10795
330
F10796
100
AcDbEntity
8
Geo
100
AcDbLine
10
-67.0382133995037
20
11.1719803164482
30
0.000000000000000
11
-66.9382133995037
21
11.1430140922699
31
0.000000000000000
  0
LINE
  5
F10797
330
F10798
100
AcDbEntity
8
Geo
100
AcDbLine
10
-66.9382133995037
20
11.1430140922699
30
0.000000000000000
11
-66.8382133995037
21
11.1134827346921
31
0.000000000000000
  0
LINE
  5
F10799
330
F1079A
100
AcDbEntity
8
Geo
100
AcDbLine
10
-66.8382133995037
20
11.1134827346921
30
0.000000000000000
11
-66.7382133995037
21
11.0833901811853
31
0.000000000000000
  0
LINE
  5
F1079B
330
F1079C
100
AcDbEntity
8
Geo
100
AcDbLine
10
-66.7382133995037
20
11.0833901811853
30
0.000000000000000
11
-66.6382133995037
21
11.0527404440456
31
0.000000000000000
  0
LINE
  5
F1079D
330
F1079E
100
AcDbEntity
8
Geo
100
AcDbLine
10
-66.6382133995037
20
11.0527404440456
30
0.000000000000000
11
-66.5382133995037
21
11.0215376098590
31
0.000000000000000
  0
LINE
  5
F1079F
330
F107A0
100
AcDbEntity
8
Geo
100
AcDbLine
10
-66.5382133995037
20
11.0215376098590
30
0.000000000000000
11
-66.4382133995037
21
10.9897858389573
31
0.000000000000000
  0
LINE
  5
F107A1
330
F107A2
100
AcDbEntity
8
Geo
100
AcDbLine
10
-66.4382133995037
20
10.9897858389573
30
0.000000000000000
11
-66.3382133995037
21
10.9574893648629
31
0.000000000000000
  0
LINE
  5
F107A3
330
F107A4
100
AcDbEntity
8
Geo
100
AcDbLine
10
-66.3382133995037
20
10.9574893648629
30
0.000000000000000
11
-66.2382133995037
21
10.9246524937244
31
0.000000000000000
  0
LINE
  5
F107A5
330
F107A6
100
AcDbEntity
8
Geo
100
AcDbLine
10
-66.2382133995037
20
10.9246524937244
30
0.000000000000000
11
-66.1382133995037
21
10.8912796037427
31
0.000000000000000
  0
LINE
  5
F107A7
330
F107A8
100
AcDbEntity
8
Geo
100
AcDbLine
10
-66.1382133995037
20
10.8912796037427
30
0.000000000000000
11
-66.0382133995037
21
10.8573751445871
31
0.000000000000000
  0
LINE
  5
F107A9
330
F107AA
100
AcDbEntity
8
Geo
100
AcDbLine
10
-66.0382133995037
20
10.8573751445871
30
0.000000000000000
11
-65.9382133995037
21
10.8229436368018
31
0.000000000000000
  0
LINE
  5
F107AB
330
F107AC
100
AcDbEntity
8
Geo
100
AcDbLine
10
-65.9382133995037
20
10.8229436368018
30
0.000000000000000
11
-65.8382133995037
21
10.7879896712036
31
0.000000000000000
  0
LINE
  5
F107AD
330
F107AE
100
AcDbEntity
8
Geo
100
AcDbLine
10
-65.8382133995037
20
10.7879896712036
30
0.000000000000000
11
-65.7382133995037
21
10.7525179082694
31
0.000000000000000
  0
LINE
  5
F107AF
330
F107B0
100
AcDbEntity
8
Geo
100
AcDbLine
10
-65.7382133995037
20
10.7525179082694
30
0.000000000000000
11
-65.6382133995037
21
10.7165330775150
31
0.000000000000000
  0
LINE
  5
F107B1
330
F107B2
100
AcDbEntity
8
Geo
100
AcDbLine
10
-65.6382133995037
20
10.7165330775150
30
0.000000000000000
11
-65.5382133995037
21
10.6800399768646
31
0.000000000000000
  0
LINE
  5
F107B3
330
F107B4
100
AcDbEntity
8
Geo
100
AcDbLine
10
-65.5382133995037
20
10.6800399768646
30
0.000000000000000
11
-65.4382133995037
21
10.6430434720109
31
0.000000000000000
  0
LINE
  5
F107B5
330
F107B6
100
AcDbEntity
8
Geo
100
AcDbLine
10
-65.4382133995037
20
10.6430434720109
30
0.000000000000000
11
-65.3382133995037
21
10.6055484957664
31
0.000000000000000
  0
LINE
  5
F107B7
330
F107B8
100
AcDbEntity
8
Geo
100
AcDbLine
10
-65.3382133995037
20
10.6055484957664
30
0.000000000000000
11
-65.2382133995037
21
10.5675600474056
31
0.000000000000000
  0
LINE
  5
F107B9
330
F107BA
100
AcDbEntity
8
Geo
100
AcDbLine
10
-65.2382133995037
20
10.5675600474056
30
0.000000000000000
11
-65.1382133995037
21
10.5290831919988
31
0.000000000000000
  0
LINE
  5
F107BB
330
F107BC
100
AcDbEntity
8
Geo
100
AcDbLine
10
-65.1382133995037
20
10.5290831919988
30
0.000000000000000
11
-65.0382133995037
21
10.4901230597364
31
0.000000000000000
  0
LINE
  5
F107BD
330
F107BE
100
AcDbEntity
8
Geo
100
AcDbLine
10
-65.0382133995037
20
10.4901230597364
30
0.000000000000000
11
-64.9382133995037
21
10.4506848452449
31
0.000000000000000
  0
LINE
  5
F107BF
330
F107C0
100
AcDbEntity
8
Geo
100
AcDbLine
10
-64.9382133995037
20
10.4506848452449
30
0.000000000000000
11
-64.8382133995037
21
10.4107738068944
31
0.000000000000000
  0
LINE
  5
F107C1
330
F107C2
100
AcDbEntity
8
Geo
100
AcDbLine
10
-64.8382133995037
20
10.4107738068944
30
0.000000000000000
11
-64.7382133995037
21
10.3703952660978
31
0.000000000000000
  0
LINE
  5
F107C3
330
F107C4
100
AcDbEntity
8
Geo
100
AcDbLine
10
-64.7382133995037
20
10.3703952660978
30
0.000000000000000
11
-64.6382133995037
21
10.3295546066005
31
0.000000000000000
  0
LINE
  5
F107C5
330
F107C6
100
AcDbEntity
8
Geo
100
AcDbLine
10
-64.6382133995037
20
10.3295546066005
30
0.000000000000000
11
-64.5382133995037
21
10.2882572737633
31
0.000000000000000
  0
LINE
  5
F107C7
330
F107C8
100
AcDbEntity
8
Geo
100
AcDbLine
10
-64.5382133995037
20
10.2882572737633
30
0.000000000000000
11
-64.4382133995037
21
10.2465087738361
31
0.000000000000000
  0
LINE
  5
F107C9
330
F107CA
100
AcDbEntity
8
Geo
100
AcDbLine
10
-64.4382133995037
20
10.2465087738361
30
0.000000000000000
11
-64.3382133995037
21
10.2043146732238
31
0.000000000000000
  0
LINE
  5
F107CB
330
F107CC
100
AcDbEntity
8
Geo
100
AcDbLine
10
-64.3382133995037
20
10.2043146732238
30
0.000000000000000
11
-64.2382133995037
21
10.1616805977438
31
0.000000000000000
  0
LINE
  5
F107CD
330
F107CE
100
AcDbEntity
8
Geo
100
AcDbLine
10
-64.2382133995037
20
10.1616805977438
30
0.000000000000000
11
-64.1382133995037
21
10.1186122318764
31
0.000000000000000
  0
LINE
  5
F107CF
330
F107D0
100
AcDbEntity
8
Geo
100
AcDbLine
10
-64.1382133995037
20
10.1186122318764
30
0.000000000000000
11
-64.0382133995037
21
10.0751153180066
31
0.000000000000000
  0
LINE
  5
F107D1
330
F107D2
100
AcDbEntity
8
Geo
100
AcDbLine
10
-64.0382133995037
20
10.0751153180066
30
0.000000000000000
11
-63.9382133995037
21
10.0311956556585
31
0.000000000000000
  0
LINE
  5
F107D3
330
F107D4
100
AcDbEntity
8
Geo
100
AcDbLine
10
-63.9382133995037
20
10.0311956556585
30
0.000000000000000
11
-63.8382133995037
21
9.98685910072201
31
0.000000000000000
  0
LINE
  5
F107D5
330
F107D6
100
AcDbEntity
8
Geo
100
AcDbLine
10
-63.8382133995037
20
9.98685910072201
30
0.000000000000000
11
-63.7382133995037
21
9.94211156467204
31
0.000000000000000
  0
LINE
  5
F107D7
330
F107D8
100
AcDbEntity
8
Geo
100
AcDbLine
10
-63.7382133995037
20
9.94211156467204
30
0.000000000000000
11
-63.6382133995037
21
9.89695901378047
31
0.000000000000000
  0
LINE
  5
F107D9
330
F107DA
100
AcDbEntity
8
Geo
100
AcDbLine
10
-63.6382133995037
20
9.89695901378047
30
0.000000000000000
11
-63.5382133995037
21
9.85140746832053
31
0.000000000000000
  0
LINE
  5
F107DB
330
F107DC
100
AcDbEntity
8
Geo
100
AcDbLine
10
-63.5382133995037
20
9.85140746832053
30
0.000000000000000
11
-63.4382133995037
21
9.80546300176414
31
0.000000000000000
  0
LINE
  5
F107DD
330
F107DE
100
AcDbEntity
8
Geo
100
AcDbLine
10
-63.4382133995037
20
9.80546300176414
30
0.000000000000000
11
-63.3382133995037
21
9.75913173997209
31
0.000000000000000
  0
LINE
  5
F107DF
330
F107E0
100
AcDbEntity
8
Geo
100
AcDbLine
10
-63.3382133995037
20
9.75913173997209
30
0.000000000000000
11
-63.2382133995037
21
9.71241986037733
31
0.000000000000000
  0
LINE
  5
F107E1
330
F107E2
100
AcDbEntity
8
Geo
100
AcDbLine
10
-63.2382133995037
20
9.71241986037733
30
0.000000000000000
11
-63.1382133995037
21
9.66533359116127
31
0.000000000000000
  0
LINE
  5
F107E3
330
F107E4
100
AcDbEntity
8
Geo
100
AcDbLine
10
-63.1382133995037
20
9.66533359116127
30
0.000000000000000
11
-63.0382133995037
21
9.61787921042337
31
0.000000000000000
  0
LINE
  5
F107E5
330
F107E6
100
AcDbEntity
8
Geo
100
AcDbLine
10
-63.0382133995037
20
9.61787921042337
30
0.000000000000000
11
-62.9382133995037
21
9.57006304534410
31
0.000000000000000
  0
LINE
  5
F107E7
330
F107E8
100
AcDbEntity
8
Geo
100
AcDbLine
10
-62.9382133995037
20
9.57006304534410
30
0.000000000000000
11
-62.8382133995037
21
9.52189147134129
31
0.000000000000000
  0
LINE
  5
F107E9
330
F107EA
100
AcDbEntity
8
Geo
100
AcDbLine
10
-62.8382133995037
20
9.52189147134129
30
0.000000000000000
11
-62.7382133995037
21
9.47337091122012
31
0.000000000000000
  0
LINE
  5
F107EB
330
F107EC
100
AcDbEntity
8
Geo
100
AcDbLine
10
-62.7382133995037
20
9.47337091122012
30
0.000000000000000
11
-62.6382133995037
21
9.42450783431673
31
0.000000000000000
  0
LINE
  5
F107ED
330
F107EE
100
AcDbEntity
8
Geo
100
AcDbLine
10
-62.6382133995037
20
9.42450783431673
30
0.000000000000000
11
-62.5382133995037
21
9.37530875563563
31
0.000000000000000
  0
LINE
  5
F107EF
330
F107F0
100
AcDbEntity
8
Geo
100
AcDbLine
10
-62.5382133995037
20
9.37530875563563
30
0.000000000000000
11
-62.4382133995038
21
9.32578023498110
31
0.000000000000000
  0
LINE
  5
F107F1
330
F107F2
100
AcDbEntity
8
Geo
100
AcDbLine
10
-62.4382133995038
20
9.32578023498110
30
0.000000000000000
11
-62.3382133995038
21
9.27592887608253
31
0.000000000000000
  0
LINE
  5
F107F3
330
F107F4
100
AcDbEntity
8
Geo
100
AcDbLine
10
-62.3382133995038
20
9.27592887608253
30
0.000000000000000
11
-62.2382133995037
21
9.22576132571390
31
0.000000000000000
  0
LINE
  5
F107F5
330
F107F6
100
AcDbEntity
8
Geo
100
AcDbLine
10
-62.2382133995037
20
9.22576132571390
30
0.000000000000000
11
-62.1382133995037
21
9.17528427280762
31
0.000000000000000
  0
LINE
  5
F107F7
330
F107F8
100
AcDbEntity
8
Geo
100
AcDbLine
10
-62.1382133995037
20
9.17528427280762
30
0.000000000000000
11
-62.0382133995037
21
9.12450444756262
31
0.000000000000000
  0
LINE
  5
F107F9
330
F107FA
100
AcDbEntity
8
Geo
100
AcDbLine
10
-62.0382133995037
20
9.12450444756262
30
0.000000000000000
11
-61.9382133995038
21
9.07342862054704
31
0.000000000000000
  0
LINE
  5
F107FB
330
F107FC
100
AcDbEntity
8
Geo
100
AcDbLine
10
-61.9382133995038
20
9.07342862054704
30
0.000000000000000
11
-61.8382133995038
21
9.02206360179549
31
0.000000000000000
  0
LINE
  5
F107FD
330
F107FE
100
AcDbEntity
8
Geo
100
AcDbLine
10
-61.8382133995038
20
9.02206360179549
30
0.000000000000000
11
-61.7382133995037
21
8.97041623990103
31
0.000000000000000
  0
LINE
  5
F107FF
330
F10800
100
AcDbEntity
8
Geo
100
AcDbLine
10
-61.7382133995037
20
8.97041623990103
30
0.000000000000000
11
-61.6382133995038
21
8.91849342110206
31
0.000000000000000
  0
LINE
  5
F10801
330
F10802
100
AcDbEntity
8
Geo
100
AcDbLine
10
-61.6382133995038
20
8.91849342110206
30
0.000000000000000
11
-61.5382133995038
21
8.86630206836418
31
0.000000000000000
  0
LINE
  5
F10803
330
F10804
100
AcDbEntity
8
Geo
100
AcDbLine
10
-61.5382133995038
20
8.86630206836418
30
0.000000000000000
11
-61.4382133995038
21
8.81384914045709
31
0.000000000000000
  0
LINE
  5
F10805
330
F10806
100
AcDbEntity
8
Geo
100
AcDbLine
10
-61.4382133995038
20
8.81384914045709
30
0.000000000000000
11
-61.3382133995038
21
8.76114163102681
31
0.000000000000000
  0
LINE
  5
F10807
330
F10808
100
AcDbEntity
8
Geo
100
AcDbLine
10
-61.3382133995038
20
8.76114163102681
30
0.000000000000000
11
-61.2382133995037
21
8.70818656766318
31
0.000000000000000
  0
LINE
  5
F10809
330
F1080A
100
AcDbEntity
8
Geo
100
AcDbLine
10
-61.2382133995037
20
8.70818656766318
30
0.000000000000000
11
-61.1382133995038
21
8.65499101096285
31
0.000000000000000
  0
LINE
  5
F1080B
330
F1080C
100
AcDbEntity
8
Geo
100
AcDbLine
10
-61.1382133995038
20
8.65499101096285
30
0.000000000000000
11
-61.0382133995038
21
8.60156205358792
31
0.000000000000000
  0
LINE
  5
F1080D
330
F1080E
100
AcDbEntity
8
Geo
100
AcDbLine
10
-61.0382133995038
20
8.60156205358792
30
0.000000000000000
11
-60.9382133995038
21
8.54790681932021
31
0.000000000000000
  0
LINE
  5
F1080F
330
F10810
100
AcDbEntity
8
Geo
100
AcDbLine
10
-60.9382133995038
20
8.54790681932021
30
0.000000000000000
11
-60.8382133995038
21
8.49403246211148
31
0.000000000000000
  0
LINE
  5
F10811
330
F10812
100
AcDbEntity
8
Geo
100
AcDbLine
10
-60.8382133995038
20
8.49403246211148
30
0.000000000000000
11
-60.7382133995038
21
8.43994616512953
31
0.000000000000000
  0
LINE
  5
F10813
330
F10814
100
AcDbEntity
8
Geo
100
AcDbLine
10
-60.7382133995038
20
8.43994616512953
30
0.000000000000000
11
-60.6382133995038
21
8.38565513980051
31
0.000000000000000
  0
LINE
  5
F10815
330
F10816
100
AcDbEntity
8
Geo
100
AcDbLine
10
-60.6382133995038
20
8.38565513980051
30
0.000000000000000
11
-60.5382133995038
21
8.33116662484735
31
0.000000000000000
  0
LINE
  5
F10817
330
F10818
100
AcDbEntity
8
Geo
100
AcDbLine
10
-60.5382133995038
20
8.33116662484735
30
0.000000000000000
11
-60.4382133995038
21
8.27648788532467
31
0.000000000000000
  0
LINE
  5
F10819
330
F1081A
100
AcDbEntity
8
Geo
100
AcDbLine
10
-60.4382133995038
20
8.27648788532467
30
0.000000000000000
11
-60.3382133995038
21
8.22162621165006
31
0.000000000000000
  0
LINE
  5
F1081B
330
F1081C
100
AcDbEntity
8
Geo
100
AcDbLine
10
-60.3382133995038
20
8.22162621165006
30
0.000000000000000
11
-60.2382133995038
21
8.16658891863206
31
0.000000000000000
  0
LINE
  5
F1081D
330
F1081E
100
AcDbEntity
8
Geo
100
AcDbLine
10
-60.2382133995038
20
8.16658891863206
30
0.000000000000000
11
-60.1382133995038
21
8.11138334449488
31
0.000000000000000
  0
LINE
  5
F1081F
330
F10820
100
AcDbEntity
8
Geo
100
AcDbLine
10
-60.1382133995038
20
8.11138334449488
30
0.000000000000000
11
-60.0382133995038
21
8.05601684989996
31
0.000000000000000
  0
LINE
  5
F10821
330
F10822
100
AcDbEntity
8
Geo
100
AcDbLine
10
-60.0382133995038
20
8.05601684989996
30
0.000000000000000
11
-59.9382133995038
21
8.00049681696453
31
0.000000000000000
  0
LINE
  5
F10823
330
F10824
100
AcDbEntity
8
Geo
100
AcDbLine
10
-59.9382133995038
20
8.00049681696453
30
0.000000000000000
11
-59.8382133995038
21
7.94483064827742
31
0.000000000000000
  0
LINE
  5
F10825
330
F10826
100
AcDbEntity
8
Geo
100
AcDbLine
10
-59.8382133995038
20
7.94483064827742
30
0.000000000000000
11
-59.7382133995038
21
7.88902576591198
31
0.000000000000000
  0
LINE
  5
F10827
330
F10828
100
AcDbEntity
8
Geo
100
AcDbLine
10
-59.7382133995038
20
7.88902576591198
30
0.000000000000000
11
-59.6382133995038
21
7.83308961043651
31
0.000000000000000
  0
LINE
  5
F10829
330
F1082A
100
AcDbEntity
8
Geo
100
AcDbLine
10
-59.6382133995038
20
7.83308961043651
30
0.000000000000000
11
-59.5382133995038
21
7.77702963992222
31
0.000000000000000
  0
LINE
  5
F1082B
330
F1082C
100
AcDbEntity
8
Geo
100
AcDbLine
10
-59.5382133995038
20
7.77702963992222
30
0.000000000000000
11
-59.4382133995038
21
7.72085332894878
31
0.000000000000000
  0
LINE
  5
F1082D
330
F1082E
100
AcDbEntity
8
Geo
100
AcDbLine
10
-59.4382133995038
20
7.72085332894878
30
0.000000000000000
11
-59.3382133995038
21
7.66456816760777
31
0.000000000000000
  0
LINE
  5
F1082F
330
F10830
100
AcDbEntity
8
Geo
100
AcDbLine
10
-59.3382133995038
20
7.66456816760777
30
0.000000000000000
11
-59.2382133995038
21
7.60818166050399
31
0.000000000000000
  0
LINE
  5
F10831
330
F10832
100
AcDbEntity
8
Geo
100
AcDbLine
10
-59.2382133995038
20
7.60818166050399
30
0.000000000000000
11
-59.1382133995038
21
7.55170132575484
31
0.000000000000000
  0
LINE
  5
F10833
330
F10834
100
AcDbEntity
8
Geo
100
AcDbLine
10
-59.1382133995038
20
7.55170132575484
30
0.000000000000000
11
-59.0382133995038
21
7.49513469398795
31
0.000000000000000
  0
LINE
  5
F10835
330
F10836
100
AcDbEntity
8
Geo
100
AcDbLine
10
-59.0382133995038
20
7.49513469398795
30
0.000000000000000
11
-58.9382133995038
21
7.43848930733708
31
0.000000000000000
  0
LINE
  5
F10837
330
F10838
100
AcDbEntity
8
Geo
100
AcDbLine
10
-58.9382133995038
20
7.43848930733708
30
0.000000000000000
11
-58.8382133995038
21
7.38177271843655
31
0.000000000000000
  0
LINE
  5
F10839
330
F1083A
100
AcDbEntity
8
Geo
100
AcDbLine
10
-58.8382133995038
20
7.38177271843655
30
0.000000000000000
11
-58.7382133995038
21
7.32499248941417
31
0.000000000000000
  0
LINE
  5
F1083B
330
F1083C
100
AcDbEntity
8
Geo
100
AcDbLine
10
-58.7382133995038
20
7.32499248941417
30
0.000000000000000
11
-58.6382133995038
21
7.26815619088303
31
0.000000000000000
  0
LINE
  5
F1083D
330
F1083E
100
AcDbEntity
8
Geo
100
AcDbLine
10
-58.6382133995038
20
7.26815619088303
30
0.000000000000000
11
-58.5382133995038
21
7.21127140093208
31
0.000000000000000
  0
LINE
  5
F1083F
330
F10840
100
AcDbEntity
8
Geo
100
AcDbLine
10
-58.5382133995038
20
7.21127140093208
30
0.000000000000000
11
-58.4382133995038
21
7.15434570411568
31
0.000000000000000
  0
LINE
  5
F10841
330
F10842
100
AcDbEntity
8
Geo
100
AcDbLine
10
-58.4382133995038
20
7.15434570411568
30
0.000000000000000
11
-58.3382133995038
21
7.09738669044243
31
0.000000000000000
  0
LINE
  5
F10843
330
F10844
100
AcDbEntity
8
Geo
100
AcDbLine
10
-58.3382133995038
20
7.09738669044243
30
0.000000000000000
11
-58.2382133995038
21
7.04040195436309
31
0.000000000000000
  0
LINE
  5
F10845
330
F10846
100
AcDbEntity
8
Geo
100
AcDbLine
10
-58.2382133995038
20
7.04040195436309
30
0.000000000000000
11
-58.1382133995038
21
6.98339909375806
31
0.000000000000000
  0
LINE
  5
F10847
330
F10848
100
AcDbEntity
8
Geo
100
AcDbLine
10
-58.1382133995038
20
6.98339909375806
30
0.000000000000000
11
-58.0382133995038
21
6.92638570892428
31
0.000000000000000
  0
LINE
  5
F10849
330
F1084A
100
AcDbEntity
8
Geo
100
AcDbLine
10
-58.0382133995038
20
6.92638570892428
30
0.000000000000000
11
-57.9382133995038
21
6.86936940156196
31
0.000000000000000
  0
LINE
  5
F1084B
330
F1084C
100
AcDbEntity
8
Geo
100
AcDbLine
10
-57.9382133995038
20
6.86936940156196
30
0.000000000000000
11
-57.8382133995038
21
6.81235777376094
31
0.000000000000000
  0
LINE
  5
F1084D
330
F1084E
100
AcDbEntity
8
Geo
100
AcDbLine
10
-57.8382133995038
20
6.81235777376094
30
0.000000000000000
11
-57.7382133995038
21
6.75535842698712
31
0.000000000000000
  0
LINE
  5
F1084F
330
F10850
100
AcDbEntity
8
Geo
100
AcDbLine
10
-57.7382133995038
20
6.75535842698712
30
0.000000000000000
11
-57.6382133995038
21
6.69837896106897
31
0.000000000000000
  0
LINE
  5
F10851
330
F10852
100
AcDbEntity
8
Geo
100
AcDbLine
10
-57.6382133995038
20
6.69837896106897
30
0.000000000000000
11
-57.5382133995038
21
6.64142697318419
31
0.000000000000000
  0
LINE
  5
F10853
330
F10854
100
AcDbEntity
8
Geo
100
AcDbLine
10
-57.5382133995038
20
6.64142697318419
30
0.000000000000000
11
-57.4382133995038
21
6.58451005684680
31
0.000000000000000
  0
LINE
  5
F10855
330
F10856
100
AcDbEntity
8
Geo
100
AcDbLine
10
-57.4382133995038
20
6.58451005684680
30
0.000000000000000
11
-57.3382133995038
21
6.52763580089466
31
0.000000000000000
  0
LINE
  5
F10857
330
F10858
100
AcDbEntity
8
Geo
100
AcDbLine
10
-57.3382133995038
20
6.52763580089466
30
0.000000000000000
11
-57.2382133995038
21
6.47081178847763
31
0.000000000000000
  0
LINE
  5
F10859
330
F1085A
100
AcDbEntity
8
Geo
100
AcDbLine
10
-57.2382133995038
20
6.47081178847763
30
0.000000000000000
11
-57.1382133995038
21
6.41404559604652
31
0.000000000000000
  0
LINE
  5
F1085B
330
F1085C
100
AcDbEntity
8
Geo
100
AcDbLine
10
-57.1382133995038
20
6.41404559604652
30
0.000000000000000
11
-57.0382133995038
21
6.35734479234289
31
0.000000000000000
  0
LINE
  5
F1085D
330
F1085E
100
AcDbEntity
8
Geo
100
AcDbLine
10
-57.0382133995038
20
6.35734479234289
30
0.000000000000000
11
-56.9382133995038
21
6.30071693738990
31
0.000000000000000
  0
LINE
  5
F1085F
330
F10860
100
AcDbEntity
8
Geo
100
AcDbLine
10
-56.9382133995038
20
6.30071693738990
30
0.000000000000000
11
-56.8382133995038
21
6.24416958148432
31
0.000000000000000
  0
LINE
  5
F10861
330
F10862
100
AcDbEntity
8
Geo
100
AcDbLine
10
-56.8382133995038
20
6.24416958148432
30
0.000000000000000
11
-56.7382133995038
21
6.18771026418982
31
0.000000000000000
  0
LINE
  5
F10863
330
F10864
100
AcDbEntity
8
Geo
100
AcDbLine
10
-56.7382133995038
20
6.18771026418982
30
0.000000000000000
11
-56.6382133995038
21
6.13134651333174
31
0.000000000000000
  0
LINE
  5
F10865
330
F10866
100
AcDbEntity
8
Geo
100
AcDbLine
10
-56.6382133995038
20
6.13134651333174
30
0.000000000000000
11
-56.5382133995038
21
6.07508584399336
31
0.000000000000000
  0
LINE
  5
F10867
330
F10868
100
AcDbEntity
8
Geo
100
AcDbLine
10
-56.5382133995038
20
6.07508584399336
30
0.000000000000000
11
-56.4382133995038
21
6.01893575751390
31
0.000000000000000
  0
LINE
  5
F10869
330
F1086A
100
AcDbEntity
8
Geo
100
AcDbLine
10
-56.4382133995038
20
6.01893575751390
30
0.000000000000000
11
-56.3382133995038
21
5.96290374048839
31
0.000000000000000
  0
LINE
  5
F1086B
330
F1086C
100
AcDbEntity
8
Geo
100
AcDbLine
10
-56.3382133995038
20
5.96290374048839
30
0.000000000000000
11
-56.2382133995038
21
5.90699726376940
31
0.000000000000000
  0
LINE
  5
F1086D
330
F1086E
100
AcDbEntity
8
Geo
100
AcDbLine
10
-56.2382133995038
20
5.90699726376940
30
0.000000000000000
11
-56.1382133995038
21
5.85122378147102
31
0.000000000000000
  0
LINE
  5
F1086F
330
F10870
100
AcDbEntity
8
Geo
100
AcDbLine
10
-56.1382133995038
20
5.85122378147102
30
0.000000000000000
11
-56.0382133995038
21
5.79559072997492
31
0.000000000000000
  0
LINE
  5
F10871
330
F10872
100
AcDbEntity
8
Geo
100
AcDbLine
10
-56.0382133995038
20
5.79559072997492
30
0.000000000000000
11
-55.9382133995038
21
5.74010552693889
31
0.000000000000000
  0
LINE
  5
F10873
330
F10874
100
AcDbEntity
8
Geo
100
AcDbLine
10
-55.9382133995038
20
5.74010552693889
30
0.000000000000000
11
-55.8382133995038
21
5.68477557030779
31
0.000000000000000
  0
LINE
  5
F10875
330
F10876
100
AcDbEntity
8
Geo
100
AcDbLine
10
-55.8382133995038
20
5.68477557030779
30
0.000000000000000
11
-55.7382133995038
21
5.62960823732721
31
0.000000000000000
  0
LINE
  5
F10877
330
F10878
100
AcDbEntity
8
Geo
100
AcDbLine
10
-55.7382133995038
20
5.62960823732721
30
0.000000000000000
11
-55.6382133995038
21
5.57461088355981
31
0.000000000000000
  0
LINE
  5
F10879
330
F1087A
100
AcDbEntity
8
Geo
100
AcDbLine
10
-55.6382133995038
20
5.57461088355981
30
0.000000000000000
11
-55.5382133995038
21
5.51979084190462
31
0.000000000000000
  0
LINE
  5
F1087B
330
F1087C
100
AcDbEntity
8
Geo
100
AcDbLine
10
-55.5382133995038
20
5.51979084190462
30
0.000000000000000
11
-55.4382133995038
21
5.46515542161932
31
0.000000000000000
  0
LINE
  5
F1087D
330
F1087E
100
AcDbEntity
8
Geo
100
AcDbLine
10
-55.4382133995038
20
5.46515542161932
30
0.000000000000000
11
-55.3382133995038
21
5.41071190734566
31
0.000000000000000
  0
LINE
  5
F1087F
330
F10880
100
AcDbEntity
8
Geo
100
AcDbLine
10
-55.3382133995038
20
5.41071190734566
30
0.000000000000000
11
-55.2382133995038
21
5.35646755813822
31
0.000000000000000
  0
LINE
  5
F10881
330
F10882
100
AcDbEntity
8
Geo
100
AcDbLine
10
-55.2382133995038
20
5.35646755813822
30
0.000000000000000
11
-55.1382133995038
21
5.30242960649655
31
0.000000000000000
  0
LINE
  5
F10883
330
F10884
100
AcDbEntity
8
Geo
100
AcDbLine
10
-55.1382133995038
20
5.30242960649655
30
0.000000000000000
11
-55.0382133995038
21
5.24860525740080
31
0.000000000000000
  0
LINE
  5
F10885
330
F10886
100
AcDbEntity
8
Geo
100
AcDbLine
10
-55.0382133995038
20
5.24860525740080
30
0.000000000000000
11
-54.9382133995038
21
5.19500168735111
31
0.000000000000000
  0
LINE
  5
F10887
330
F10888
100
AcDbEntity
8
Geo
100
AcDbLine
10
-54.9382133995038
20
5.19500168735111
30
0.000000000000000
11
-54.8382133995038
21
5.14162604341074
31
0.000000000000000
  0
LINE
  5
F10889
330
F1088A
100
AcDbEntity
8
Geo
100
AcDbLine
10
-54.8382133995038
20
5.14162604341074
30
0.000000000000000
11
-54.7382133995038
21
5.08848544225314
31
0.000000000000000
  0
LINE
  5
F1088B
330
F1088C
100
AcDbEntity
8
Geo
100
AcDbLine
10
-54.7382133995038
20
5.08848544225314
30
0.000000000000000
11
-54.6382133995038
21
5.03558696921308
31
0.000000000000000
  0
LINE
  5
F1088D
330
F1088E
100
AcDbEntity
8
Geo
100
AcDbLine
10
-54.6382133995038
20
5.03558696921308
30
0.000000000000000
11
-54.5382133995038
21
4.98293767734193
31
0.000000000000000
  0
LINE
  5
F1088F
330
F10890
100
AcDbEntity
8
Geo
100
AcDbLine
10
-54.5382133995038
20
4.98293767734193
30
0.000000000000000
11
-54.4382133995038
21
4.93054458646726
31
0.000000000000000
  0
LINE
  5
F10891
330
F10892
100
AcDbEntity
8
Geo
100
AcDbLine
10
-54.4382133995038
20
4.93054458646726
30
0.000000000000000
11
-54.3382133995038
21
4.87841468225692
31
0.000000000000000
  0
LINE
  5
F10893
330
F10894
100
AcDbEntity
8
Geo
100
AcDbLine
10
-54.3382133995038
20
4.87841468225692
30
0.000000000000000
11
-54.2382133995038
21
4.82655491528756
31
0.000000000000000
  0
LINE
  5
F10895
330
F10896
100
AcDbEntity
8
Geo
100
AcDbLine
10
-54.2382133995038
20
4.82655491528756
30
0.000000000000000
11
-54.1382133995038
21
4.77497220011795
31
0.000000000000000
  0
LINE
  5
F10897
330
F10898
100
AcDbEntity
8
Geo
100
AcDbLine
10
-54.1382133995038
20
4.77497220011795
30
0.000000000000000
11
-54.0382133995038
21
4.72367341436704
31
0.000000000000000
  0
LINE
  5
F10899
330
F1089A
100
AcDbEntity
8
Geo
100
AcDbLine
10
-54.0382133995038
20
4.72367341436704
30
0.000000000000000
11
-53.9382133995038
21
4.67266539779692
31
0.000000000000000
  0
LINE
  5
F1089B
330
F1089C
100
AcDbEntity
8
Geo
100
AcDbLine
10
-53.9382133995038
20
4.67266539779692
30
0.000000000000000
11
-53.8382133995038
21
4.62195495140090
31
0.000000000000000
  0
LINE
  5
F1089D
330
F1089E
100
AcDbEntity
8
Geo
100
AcDbLine
10
-53.8382133995038
20
4.62195495140090
30
0.000000000000000
11
-53.7382133995038
21
4.57154883649671
31
0.000000000000000
  0
LINE
  5
F1089F
330
F108A0
100
AcDbEntity
8
Geo
100
AcDbLine
10
-53.7382133995038
20
4.57154883649671
30
0.000000000000000
11
-53.6382133995038
21
4.52145377382499
31
0.000000000000000
  0
LINE
  5
F108A1
330
F108A2
100
AcDbEntity
8
Geo
100
AcDbLine
10
-53.6382133995038
20
4.52145377382499
30
0.000000000000000
11
-53.5382133995038
21
4.47167644265322
31
0.000000000000000
  0
LINE
  5
F108A3
330
F108A4
100
AcDbEntity
8
Geo
100
AcDbLine
10
-53.5382133995038
20
4.47167644265322
30
0.000000000000000
11
-53.4382133995038
21
4.42222347988515
31
0.000000000000000
  0
LINE
  5
F108A5
330
F108A6
100
AcDbEntity
8
Geo
100
AcDbLine
10
-53.4382133995038
20
4.42222347988515
30
0.000000000000000
11
-53.3382133995038
21
4.37310147917587
31
0.000000000000000
  0
LINE
  5
F108A7
330
F108A8
100
AcDbEntity
8
Geo
100
AcDbLine
10
-53.3382133995038
20
4.37310147917587
30
0.000000000000000
11
-53.2382133995038
21
4.32431699005272
31
0.000000000000000
  0
LINE
  5
F108A9
330
F108AA
100
AcDbEntity
8
Geo
100
AcDbLine
10
-53.2382133995038
20
4.32431699005272
30
0.000000000000000
11
-53.1382133995038
21
4.27587651704196
31
0.000000000000000
  0
LINE
  5
F108AB
330
F108AC
100
AcDbEntity
8
Geo
100
AcDbLine
10
-53.1382133995038
20
4.27587651704196
30
0.000000000000000
11
-53.0382133995038
21
4.22778651880158
31
0.000000000000000
  0
LINE
  5
F108AD
330
F108AE
100
AcDbEntity
8
Geo
100
AcDbLine
10
-53.0382133995038
20
4.22778651880158
30
0.000000000000000
11
-52.9382133995038
21
4.18005340726008
31
0.000000000000000
  0
LINE
  5
F108AF
330
F108B0
100
AcDbEntity
8
Geo
100
AcDbLine
10
-52.9382133995038
20
4.18005340726008
30
0.000000000000000
11
-52.8382133995038
21
4.13268354676164
31
0.000000000000000
  0
LINE
  5
F108B1
330
F108B2
100
AcDbEntity
8
Geo
100
AcDbLine
10
-52.8382133995038
20
4.13268354676164
30
0.000000000000000
11
-52.7382133995037
21
4.08568325321746
31
0.000000000000000
  0
LINE
  5
F108B3
330
F108B4
100
AcDbEntity
8
Geo
100
AcDbLine
10
-52.7382133995037
20
4.08568325321746
30
0.000000000000000
11
-52.6382133995037
21
4.03905879326373
31
0.000000000000000
  0
LINE
  5
F108B5
330
F108B6
100
AcDbEntity
8
Geo
100
AcDbLine
10
-52.6382133995037
20
4.03905879326373
30
0.000000000000000
11
-52.5382133995037
21
3.99281638342604
31
0.000000000000000
  0
LINE
  5
F108B7
330
F108B8
100
AcDbEntity
8
Geo
100
AcDbLine
10
-52.5382133995037
20
3.99281638342604
30
0.000000000000000
11
-52.4382133995037
21
3.94696218929051
31
0.000000000000000
  0
LINE
  5
F108B9
330
F108BA
100
AcDbEntity
8
Geo
100
AcDbLine
10
-52.4382133995037
20
3.94696218929051
30
0.000000000000000
11
-52.3382133995037
21
3.90150232468178
31
0.000000000000000
  0
LINE
  5
F108BB
330
F108BC
100
AcDbEntity
8
Geo
100
AcDbLine
10
-52.3382133995037
20
3.90150232468178
30
0.000000000000000
11
-52.2382133995037
21
3.85644285084777
31
0.000000000000000
  0
LINE
  5
F108BD
330
F108BE
100
AcDbEntity
8
Geo
100
AcDbLine
10
-52.2382133995037
20
3.85644285084777
30
0.000000000000000
11
-52.1382133995037
21
3.81178977565158
31
0.000000000000000
  0
LINE
  5
F108BF
330
F108C0
100
AcDbEntity
8
Geo
100
AcDbLine
10
-52.1382133995037
20
3.81178977565158
30
0.000000000000000
11
-52.0382133995037
21
3.76754905277041
31
0.000000000000000
  0
LINE
  5
F108C1
330
F108C2
100
AcDbEntity
8
Geo
100
AcDbLine
10
-52.0382133995037
20
3.76754905277041
30
0.000000000000000
11
-51.9382133995037
21
3.72372658090177
31
0.000000000000000
  0
LINE
  5
F108C3
330
F108C4
100
AcDbEntity
8
Geo
100
AcDbLine
10
-51.9382133995037
20
3.72372658090177
30
0.000000000000000
11
-51.8382133995037
21
3.68032820297700
31
0.000000000000000
  0
LINE
  5
F108C5
330
F108C6
100
AcDbEntity
8
Geo
100
AcDbLine
10
-51.8382133995037
20
3.68032820297700
30
0.000000000000000
11
-51.7382133995037
21
3.63735970538217
31
0.000000000000000
  0
LINE
  5
F108C7
330
F108C8
100
AcDbEntity
8
Geo
100
AcDbLine
10
-51.7382133995037
20
3.63735970538217
30
0.000000000000000
11
-51.6382133995037
21
3.59482681718666
31
0.000000000000000
  0
LINE
  5
F108C9
330
F108CA
100
AcDbEntity
8
Geo
100
AcDbLine
10
-51.6382133995037
20
3.59482681718666
30
0.000000000000000
11
-51.5382133995037
21
3.55273520937921
31
0.000000000000000
  0
LINE
  5
F108CB
330
F108CC
100
AcDbEntity
8
Geo
100
AcDbLine
10
-51.5382133995037
20
3.55273520937921
30
0.000000000000000
11
-51.4382133995037
21
3.51109049411183
31
0.000000000000000
  0
LINE
  5
F108CD
330
F108CE
100
AcDbEntity
8
Geo
100
AcDbLine
10
-51.4382133995037
20
3.51109049411183
30
0.000000000000000
11
-51.3382133995037
21
3.46989822395154
31
0.000000000000000
  0
LINE
  5
F108CF
330
F108D0
100
AcDbEntity
8
Geo
100
AcDbLine
10
-51.3382133995037
20
3.46989822395154
30
0.000000000000000
11
-51.2382133995037
21
3.42916389113999
31
0.000000000000000
  0
LINE
  5
F108D1
330
F108D2
100
AcDbEntity
8
Geo
100
AcDbLine
10
-51.2382133995037
20
3.42916389113999
30
0.000000000000000
11
-51.1382133995037
21
3.38889292686121
31
0.000000000000000
  0
LINE
  5
F108D3
330
F108D4
100
AcDbEntity
8
Geo
100
AcDbLine
10
-51.1382133995037
20
3.38889292686121
30
0.000000000000000
11
-51.0382133995037
21
3.34909070051745
31
0.000000000000000
  0
LINE
  5
F108D5
330
F108D6
100
AcDbEntity
8
Geo
100
AcDbLine
10
-51.0382133995037
20
3.34909070051745
30
0.000000000000000
11
-50.9382133995037
21
3.30976251901325
31
0.000000000000000
  0
LINE
  5
F108D7
330
F108D8
100
AcDbEntity
8
Geo
100
AcDbLine
10
-50.9382133995037
20
3.30976251901325
30
0.000000000000000
11
-50.8382133995037
21
3.27091362604789
31
0.000000000000000
  0
LINE
  5
F108D9
330
F108DA
100
AcDbEntity
8
Geo
100
AcDbLine
10
-50.8382133995037
20
3.27091362604789
30
0.000000000000000
11
-50.7382133995037
21
3.23254920141620
31
0.000000000000000
  0
LINE
  5
F108DB
330
F108DC
100
AcDbEntity
8
Geo
100
AcDbLine
10
-50.7382133995037
20
3.23254920141620
30
0.000000000000000
11
-50.6382133995037
21
3.19467436031797
31
0.000000000000000
  0
LINE
  5
F108DD
330
F108DE
100
AcDbEntity
8
Geo
100
AcDbLine
10
-50.6382133995037
20
3.19467436031797
30
0.000000000000000
11
-50.5382133995037
21
3.15729415267589
31
0.000000000000000
  0
LINE
  5
F108DF
330
F108E0
100
AcDbEntity
8
Geo
100
AcDbLine
10
-50.5382133995037
20
3.15729415267589
30
0.000000000000000
11
-50.4382133995037
21
3.12041356246229
31
0.000000000000000
  0
LINE
  5
F108E1
330
F108E2
100
AcDbEntity
8
Geo
100
AcDbLine
10
-50.4382133995037
20
3.12041356246229
30
0.000000000000000
11
-50.3382133995037
21
3.08403750703454
31
0.000000000000000
  0
LINE
  5
F108E3
330
F108E4
100
AcDbEntity
8
Geo
100
AcDbLine
10
-50.3382133995037
20
3.08403750703454
30
0.000000000000000
11
-50.2382133995037
21
3.04817083647948
31
0.000000000000000
  0
LINE
  5
F108E5
330
F108E6
100
AcDbEntity
8
Geo
100
AcDbLine
10
-50.2382133995037
20
3.04817083647948
30
0.000000000000000
11
-50.1382133995037
21
3.01281833296672
31
0.000000000000000
  0
LINE
  5
F108E7
330
F108E8
100
AcDbEntity
8
Geo
100
AcDbLine
10
-50.1382133995037
20
3.01281833296672
30
0.000000000000000
11
-50.0382133995037
21
2.97798471011102
31
0.000000000000000
  0
LINE
  5
F108E9
330
F108EA
100
AcDbEntity
8
Geo
100
AcDbLine
10
-50.0382133995037
20
2.97798471011102
30
0.000000000000000
11
-49.9382133995037
21
2.94367461234382
31
0.000000000000000
  0
LINE
  5
F108EB
330
F108EC
100
AcDbEntity
8
Geo
100
AcDbLine
10
-49.9382133995037
20
2.94367461234382
30
0.000000000000000
11
-49.8382133995037
21
2.90989261429399
31
0.000000000000000
  0
LINE
  5
F108ED
330
F108EE
100
AcDbEntity
8
Geo
100
AcDbLine
10
-49.8382133995037
20
2.90989261429399
30
0.000000000000000
11
-49.7382133995037
21
2.87664322017789
31
0.000000000000000
  0
LINE
  5
F108EF
330
F108F0
100
AcDbEntity
8
Geo
100
AcDbLine
10
-49.7382133995037
20
2.87664322017789
30
0.000000000000000
11
-49.6382133995037
21
2.84393086319881
31
0.000000000000000
  0
LINE
  5
F108F1
330
F108F2
100
AcDbEntity
8
Geo
100
AcDbLine
10
-49.6382133995037
20
2.84393086319881
30
0.000000000000000
11
-49.5382133995037
21
2.81175990495589
31
0.000000000000000
  0
LINE
  5
F108F3
330
F108F4
100
AcDbEntity
8
Geo
100
AcDbLine
10
-49.5382133995037
20
2.81175990495589
30
0.000000000000000
11
-49.4382133995037
21
2.78013463486257
31
0.000000000000000
  0
LINE
  5
F108F5
330
F108F6
100
AcDbEntity
8
Geo
100
AcDbLine
10
-49.4382133995037
20
2.78013463486257
30
0.000000000000000
11
-49.3382133995037
21
2.74905926957467
31
0.000000000000000
  0
LINE
  5
F108F7
330
F108F8
100
AcDbEntity
8
Geo
100
AcDbLine
10
-49.3382133995037
20
2.74905926957467
30
0.000000000000000
11
-49.2382133995037
21
2.71853795242819
31
0.000000000000000
  0
LINE
  5
F108F9
330
F108FA
100
AcDbEntity
8
Geo
100
AcDbLine
10
-49.2382133995037
20
2.71853795242819
30
0.000000000000000
11
-49.1382133995037
21
2.68857475288688
31
0.000000000000000
  0
LINE
  5
F108FB
330
F108FC
100
AcDbEntity
8
Geo
100
AcDbLine
10
-49.1382133995037
20
2.68857475288688
30
0.000000000000000
11
-49.0382133995037
21
2.65917366599960
31
0.000000000000000
  0
LINE
  5
F108FD
330
F108FE
100
AcDbEntity
8
Geo
100
AcDbLine
10
-49.0382133995037
20
2.65917366599960
30
0.000000000000000
11
-48.9382133995037
21
2.63033861186773
31
0.000000000000000
  0
LINE
  5
F108FF
330
F10900
100
AcDbEntity
8
Geo
100
AcDbLine
10
-48.9382133995037
20
2.63033861186773
30
0.000000000000000
11
-48.8382133995037
21
2.60207343512244
31
0.000000000000000
  0
LINE
  5
F10901
330
F10902
100
AcDbEntity
8
Geo
100
AcDbLine
10
-48.8382133995037
20
2.60207343512244
30
0.000000000000000
11
-48.7382133995037
21
2.57438190441206
31
0.000000000000000
  0
LINE
  5
F10903
330
F10904
100
AcDbEntity
8
Geo
100
AcDbLine
10
-48.7382133995037
20
2.57438190441206
30
0.000000000000000
11
-48.6382133995037
21
2.54726771189969
31
0.000000000000000
  0
LINE
  5
F10905
330
F10906
100
AcDbEntity
8
Geo
100
AcDbLine
10
-48.6382133995037
20
2.54726771189969
30
0.000000000000000
11
-48.5382133995037
21
2.52073447277082
31
0.000000000000000
  0
LINE
  5
F10907
330
F10908
100
AcDbEntity
8
Geo
100
AcDbLine
10
-48.5382133995037
20
2.52073447277082
30
0.000000000000000
11
-48.4382133995037
21
2.49478572475135
31
0.000000000000000
  0
LINE
  5
F10909
330
F1090A
100
AcDbEntity
8
Geo
100
AcDbLine
10
-48.4382133995037
20
2.49478572475135
30
0.000000000000000
11
-48.3382133995037
21
2.46942492763592
31
0.000000000000000
  0
LINE
  5
F1090B
330
F1090C
100
AcDbEntity
8
Geo
100
AcDbLine
10
-48.3382133995037
20
2.46942492763592
30
0.000000000000000
11
-48.2382133995037
21
2.44465546282656
31
0.000000000000000
  0
LINE
  5
F1090D
330
F1090E
100
AcDbEntity
8
Geo
100
AcDbLine
10
-48.2382133995037
20
2.44465546282656
30
0.000000000000000
11
-48.1382133995037
21
2.42048063288190
31
0.000000000000000
  0
LINE
  5
F1090F
330
F10910
100
AcDbEntity
8
Geo
100
AcDbLine
10
-48.1382133995037
20
2.42048063288190
30
0.000000000000000
11
-48.0382133995037
21
2.39690366107677
31
0.000000000000000
  0
LINE
  5
F10911
330
F10912
100
AcDbEntity
8
Geo
100
AcDbLine
10
-48.0382133995037
20
2.39690366107677
30
0.000000000000000
11
-47.9382133995037
21
2.37392769097249
31
0.000000000000000
  0
LINE
  5
F10913
330
F10914
100
AcDbEntity
8
Geo
100
AcDbLine
10
-47.9382133995037
20
2.37392769097249
30
0.000000000000000
11
-47.8382133995037
21
2.35155578599770
31
0.000000000000000
  0
LINE
  5
F10915
330
F10916
100
AcDbEntity
8
Geo
100
AcDbLine
10
-47.8382133995037
20
2.35155578599770
30
0.000000000000000
11
-47.7382133995037
21
2.32979092903992
31
0.000000000000000
  0
LINE
  5
F10917
330
F10918
100
AcDbEntity
8
Geo
100
AcDbLine
10
-47.7382133995037
20
2.32979092903992
30
0.000000000000000
11
-47.6382133995037
21
2.30863602204783
31
0.000000000000000
  0
LINE
  5
F10919
330
F1091A
100
AcDbEntity
8
Geo
100
AcDbLine
10
-47.6382133995037
20
2.30863602204783
30
0.000000000000000
11
-47.5382133995037
21
2.28809388564436
31
0.000000000000000
  0
LINE
  5
F1091B
330
F1091C
100
AcDbEntity
8
Geo
100
AcDbLine
10
-47.5382133995037
20
2.28809388564436
30
0.000000000000000
11
-47.4382133995037
21
2.26816725875059
31
0.000000000000000
  0
LINE
  5
F1091D
330
F1091E
100
AcDbEntity
8
Geo
100
AcDbLine
10
-47.4382133995037
20
2.26816725875059
30
0.000000000000000
11
-47.3382133995037
21
2.24885879822059
31
0.000000000000000
  0
LINE
  5
F1091F
330
F10920
100
AcDbEntity
8
Geo
100
AcDbLine
10
-47.3382133995037
20
2.24885879822059
30
0.000000000000000
11
-47.2382133995037
21
2.23017107848717
31
0.000000000000000
  0
LINE
  5
F10921
330
F10922
100
AcDbEntity
8
Geo
100
AcDbLine
10
-47.2382133995037
20
2.23017107848717
30
0.000000000000000
11
-47.1382133995037
21
2.21210659121860
31
0.000000000000000
  0
LINE
  5
F10923
330
F10924
100
AcDbEntity
8
Geo
100
AcDbLine
10
-47.1382133995037
20
2.21210659121860
30
0.000000000000000
11
-47.0382133995037
21
2.19466774498641
31
0.000000000000000
  0
LINE
  5
F10925
330
F10926
100
AcDbEntity
8
Geo
100
AcDbLine
10
-47.0382133995037
20
2.19466774498641
30
0.000000000000000
11
-46.9382133995037
21
2.17785686494428
31
0.000000000000000
  0
LINE
  5
F10927
330
F10928
100
AcDbEntity
8
Geo
100
AcDbLine
10
-46.9382133995037
20
2.17785686494428
30
0.000000000000000
11
-46.8382133995037
21
2.16167619251796
31
0.000000000000000
  0
LINE
  5
F10929
330
F1092A
100
AcDbEntity
8
Geo
100
AcDbLine
10
-46.8382133995037
20
2.16167619251796
30
0.000000000000000
11
-46.7382133995037
21
2.14612788510649
31
0.000000000000000
  0
LINE
  5
F1092B
330
F1092C
100
AcDbEntity
8
Geo
100
AcDbLine
10
-46.7382133995037
20
2.14612788510649
30
0.000000000000000
11
-46.6382133995037
21
2.13121401579447
31
0.000000000000000
  0
LINE
  5
F1092D
330
F1092E
100
AcDbEntity
8
Geo
100
AcDbLine
10
-46.6382133995037
20
2.13121401579447
30
0.000000000000000
11
-46.5382133995037
21
2.11693657307573
31
0.000000000000000
  0
LINE
  5
F1092F
330
F10930
100
AcDbEntity
8
Geo
100
AcDbLine
10
-46.5382133995037
20
2.11693657307573
30
0.000000000000000
11
-46.4382133995037
21
2.10329746058813
31
0.000000000000000
  0
LINE
  5
F10931
330
F10932
100
AcDbEntity
8
Geo
100
AcDbLine
10
-46.4382133995037
20
2.10329746058813
30
0.000000000000000
11
-46.3382133995037
21
2.09029849685981
31
0.000000000000000
  0
LINE
  5
F10933
330
F10934
100
AcDbEntity
8
Geo
100
AcDbLine
10
-46.3382133995037
20
2.09029849685981
30
0.000000000000000
11
-46.2382133995037
21
2.07794141506668
31
0.000000000000000
  0
LINE
  5
F10935
330
F10936
100
AcDbEntity
8
Geo
100
AcDbLine
10
-46.2382133995037
20
2.07794141506668
30
0.000000000000000
11
-46.1382133995037
21
2.06622786280132
31
0.000000000000000
  0
LINE
  5
F10937
330
F10938
100
AcDbEntity
8
Geo
100
AcDbLine
10
-46.1382133995037
20
2.06622786280132
30
0.000000000000000
11
-46.0382133995037
21
2.05515940185336
31
0.000000000000000
  0
LINE
  5
F10939
330
F1093A
100
AcDbEntity
8
Geo
100
AcDbLine
10
-46.0382133995037
20
2.05515940185336
30
0.000000000000000
11
-45.9382133995037
21
2.04473750800119
31
0.000000000000000
  0
LINE
  5
F1093B
330
F1093C
100
AcDbEntity
8
Geo
100
AcDbLine
10
-45.9382133995037
20
2.04473750800119
30
0.000000000000000
11
-45.8382133995037
21
2.03496357081522
31
0.000000000000000
  0
LINE
  5
F1093D
330
F1093E
100
AcDbEntity
8
Geo
100
AcDbLine
10
-45.8382133995037
20
2.03496357081522
30
0.000000000000000
11
-45.7382133995037
21
2.02583889347259
31
0.000000000000000
  0
LINE
  5
F1093F
330
F10940
100
AcDbEntity
8
Geo
100
AcDbLine
10
-45.7382133995037
20
2.02583889347259
30
0.000000000000000
11
-45.6382133995036
21
2.01736469258344
31
0.000000000000000
  0
LINE
  5
F10941
330
F10942
100
AcDbEntity
8
Geo
100
AcDbLine
10
-45.6382133995036
20
2.01736469258344
30
0.000000000000000
11
-45.5382133995036
21
2.00954209802865
31
0.000000000000000
  0
LINE
  5
F10943
330
F10944
100
AcDbEntity
8
Geo
100
AcDbLine
10
-45.5382133995036
20
2.00954209802865
30
0.000000000000000
11
-45.4382133995036
21
2.00237215280926
31
0.000000000000000
  0
LINE
  5
F10945
330
F10946
100
AcDbEntity
8
Geo
100
AcDbLine
10
-45.4382133995036
20
2.00237215280926
30
0.000000000000000
11
-45.3382133995036
21
1.99585581290732
31
0.000000000000000
  0
LINE
  5
F10947
330
F10948
100
AcDbEntity
8
Geo
100
AcDbLine
10
-45.3382133995036
20
1.99585581290732
30
0.000000000000000
11
-45.2382133995036
21
1.98999394715851
31
0.000000000000000
  0
LINE
  5
F10949
330
F1094A
100
AcDbEntity
8
Geo
100
AcDbLine
10
-45.2382133995036
20
1.98999394715851
30
0.000000000000000
11
-45.1382133995036
21
1.98478733713624
31
0.000000000000000
  0
LINE
  5
F1094B
330
F1094C
100
AcDbEntity
8
Geo
100
AcDbLine
10
-45.1382133995036
20
1.98478733713624
30
0.000000000000000
11
-45.0382133995036
21
1.98023667704748
31
0.000000000000000
  0
LINE
  5
F1094D
330
F1094E
100
AcDbEntity
8
Geo
100
AcDbLine
10
-45.0382133995036
20
1.98023667704748
30
0.000000000000000
11
-44.9382133995036
21
1.97634257364015
31
0.000000000000000
  0
LINE
  5
F1094F
330
F10950
100
AcDbEntity
8
Geo
100
AcDbLine
10
-44.9382133995036
20
1.97634257364015
30
0.000000000000000
11
-44.8382133995036
21
1.97310554612227
31
0.000000000000000
  0
LINE
  5
F10951
330
F10952
100
AcDbEntity
8
Geo
100
AcDbLine
10
-44.8382133995036
20
1.97310554612227
30
0.000000000000000
11
-44.7382133995036
21
1.97052602609272
31
0.000000000000000
  0
LINE
  5
F10953
330
F10954
100
AcDbEntity
8
Geo
100
AcDbLine
10
-44.7382133995036
20
1.97052602609272
30
0.000000000000000
11
-44.6382133995036
21
1.96860435748369
31
0.000000000000000
  0
LINE
  5
F10955
330
F10956
100
AcDbEntity
8
Geo
100
AcDbLine
10
-44.6382133995036
20
1.96860435748369
30
0.000000000000000
11
-44.5382133995036
21
1.96734079651479
31
0.000000000000000
  0
LINE
  5
F10957
330
F10958
100
AcDbEntity
8
Geo
100
AcDbLine
10
-44.5382133995036
20
1.96734079651479
30
0.000000000000000
11
-44.4382133995036
21
1.96673551165897
31
0.000000000000000
  0
LINE
  5
F10959
330
F1095A
100
AcDbEntity
8
Geo
100
AcDbLine
10
-44.3382133995036
20
11.8421444188614
30
0.000000000000000
11
-44.2382133995036
21
11.8414329971598
31
0.000000000000000
  0
LINE
  5
F1095B
330
F1095C
100
AcDbEntity
8
Geo
100
AcDbLine
10
-44.2382133995036
20
11.8414329971598
30
0.000000000000000
11
-44.1382133995036
21
11.8400633205727
31
0.000000000000000
  0
LINE
  5
F1095D
330
F1095E
100
AcDbEntity
8
Geo
100
AcDbLine
10
-44.1382133995036
20
11.8400633205727
30
0.000000000000000
11
-44.0382133995036
21
11.8380355717217
31
0.000000000000000
  0
LINE
  5
F1095F
330
F10960
100
AcDbEntity
8
Geo
100
AcDbLine
10
-44.0382133995036
20
11.8380355717217
30
0.000000000000000
11
-43.9382133995036
21
11.8353500209702
31
0.000000000000000
  0
LINE
  5
F10961
330
F10962
100
AcDbEntity
8
Geo
100
AcDbLine
10
-43.9382133995036
20
11.8353500209702
30
0.000000000000000
11
-43.8382133995036
21
11.8320070263877
31
0.000000000000000
  0
LINE
  5
F10963
330
F10964
100
AcDbEntity
8
Geo
100
AcDbLine
10
-43.8382133995036
20
11.8320070263877
30
0.000000000000000
11
-43.7382133995036
21
11.8280070337019
31
0.000000000000000
  0
LINE
  5
F10965
330
F10966
100
AcDbEntity
8
Geo
100
AcDbLine
10
-43.7382133995036
20
11.8280070337019
30
0.000000000000000
11
-43.6382133995036
21
11.8233505762392
31
0.000000000000000
  0
LINE
  5
F10967
330
F10968
100
AcDbEntity
8
Geo
100
AcDbLine
10
-43.6382133995036
20
11.8233505762392
30
0.000000000000000
11
-43.5382133995036
21
11.8180382748538
31
0.000000000000000
  0
LINE
  5
F10969
330
F1096A
100
AcDbEntity
8
Geo
100
AcDbLine
10
-43.5382133995036
20
11.8180382748538
30
0.000000000000000
11
-43.4382133995036
21
11.8120708378445
31
0.000000000000000
  0
LINE
  5
F1096B
330
F1096C
100
AcDbEntity
8
Geo
100
AcDbLine
10
-43.4382133995036
20
11.8120708378445
30
0.000000000000000
11
-43.3382133995036
21
11.8054490608608
31
0.000000000000000
  0
LINE
  5
F1096D
330
F1096E
100
AcDbEntity
8
Geo
100
AcDbLine
10
-43.3382133995036
20
11.8054490608608
30
0.000000000000000
11
-43.2382133995036
21
11.7981738267965
31
0.000000000000000
  0
LINE
  5
F1096F
330
F10970
100
AcDbEntity
8
Geo
100
AcDbLine
10
-43.2382133995036
20
11.7981738267965
30
0.000000000000000
11
-43.1382133995036
21
11.7902461056720
31
0.000000000000000
  0
LINE
  5
F10971
330
F10972
100
AcDbEntity
8
Geo
100
AcDbLine
10
-43.1382133995036
20
11.7902461056720
30
0.000000000000000
11
-43.0382133995036
21
11.7816669545051
31
0.000000000000000
  0
LINE
  5
F10973
330
F10974
100
AcDbEntity
8
Geo
100
AcDbLine
10
-43.0382133995036
20
11.7816669545051
30
0.000000000000000
11
-42.9382133995036
21
11.7724375171699
31
0.000000000000000
  0
LINE
  5
F10975
330
F10976
100
AcDbEntity
8
Geo
100
AcDbLine
10
-42.9382133995036
20
11.7724375171699
30
0.000000000000000
11
-42.8382133995036
21
11.7625590242444
31
0.000000000000000
  0
LINE
  5
F10977
330
F10978
100
AcDbEntity
8
Geo
100
AcDbLine
10
-42.8382133995036
20
11.7625590242444
30
0.000000000000000
11
-42.7382133995036
21
11.7520327928462
31
0.000000000000000
  0
LINE
  5
F10979
330
F1097A
100
AcDbEntity
8
Geo
100
AcDbLine
10
-42.7382133995036
20
11.7520327928462
30
0.000000000000000
11
-42.6382133995036
21
11.7408602264574
31
0.000000000000000
  0
LINE
  5
F1097B
330
F1097C
100
AcDbEntity
8
Geo
100
AcDbLine
10
-42.6382133995036
20
11.7408602264574
30
0.000000000000000
11
-42.5382133995036
21
11.7290428147369
31
0.000000000000000
  0
LINE
  5
F1097D
330
F1097E
100
AcDbEntity
8
Geo
100
AcDbLine
10
-42.5382133995036
20
11.7290428147369
30
0.000000000000000
11
-42.4382133995036
21
11.7165821333221
31
0.000000000000000
  0
LINE
  5
F1097F
330
F10980
100
AcDbEntity
8
Geo
100
AcDbLine
10
-42.4382133995036
20
11.7165821333221
30
0.000000000000000
11
-42.3382133995036
21
11.7034798436187
31
0.000000000000000
  0
LINE
  5
F10981
330
F10982
100
AcDbEntity
8
Geo
100
AcDbLine
10
-42.3382133995036
20
11.7034798436187
30
0.000000000000000
11
-42.2382133995036
21
11.6897376925792
31
0.000000000000000
  0
LINE
  5
F10983
330
F10984
100
AcDbEntity
8
Geo
100
AcDbLine
10
-42.2382133995036
20
11.6897376925792
30
0.000000000000000
11
-42.1382133995036
21
11.6753575124702
31
0.000000000000000
  0
LINE
  5
F10985
330
F10986
100
AcDbEntity
8
Geo
100
AcDbLine
10
-42.1382133995036
20
11.6753575124702
30
0.000000000000000
11
-42.0382133995036
21
11.6603412206277
31
0.000000000000000
  0
LINE
  5
F10987
330
F10988
100
AcDbEntity
8
Geo
100
AcDbLine
10
-42.0382133995036
20
11.6603412206277
30
0.000000000000000
11
-41.9382133995036
21
11.6446908192016
31
0.000000000000000
  0
LINE
  5
F10989
330
F1098A
100
AcDbEntity
8
Geo
100
AcDbLine
10
-41.9382133995036
20
11.6446908192016
30
0.000000000000000
11
-41.8382133995036
21
11.6284083948889
31
0.000000000000000
  0
LINE
  5
F1098B
330
F1098C
100
AcDbEntity
8
Geo
100
AcDbLine
10
-41.8382133995036
20
11.6284083948889
30
0.000000000000000
11
-41.7382133995036
21
11.6114961186555
31
0.000000000000000
  0
LINE
  5
F1098D
330
F1098E
100
AcDbEntity
8
Geo
100
AcDbLine
10
-41.7382133995036
20
11.6114961186555
30
0.000000000000000
11
-41.6382133995036
21
11.5939562454465
31
0.000000000000000
  0
LINE
  5
F1098F
330
F10990
100
AcDbEntity
8
Geo
100
AcDbLine
10
-41.6382133995036
20
11.5939562454465
30
0.000000000000000
11
-41.5382133995036
21
11.5757911138856
31
0.000000000000000
  0
LINE
  5
F10991
330
F10992
100
AcDbEntity
8
Geo
100
AcDbLine
10
-41.5382133995036
20
11.5757911138856
30
0.000000000000000
11
-41.4382133995036
21
11.5570031459634
31
0.000000000000000
  0
LINE
  5
F10993
330
F10994
100
AcDbEntity
8
Geo
100
AcDbLine
10
-41.4382133995036
20
11.5570031459634
30
0.000000000000000
11
-41.3382133995036
21
11.5375948467146
31
0.000000000000000
  0
LINE
  5
F10995
330
F10996
100
AcDbEntity
8
Geo
100
AcDbLine
10
-41.3382133995036
20
11.5375948467146
30
0.000000000000000
11
-41.2382133995036
21
11.5175688038836
31
0.000000000000000
  0
LINE
  5
F10997
330
F10998
100
AcDbEntity
8
Geo
100
AcDbLine
10
-41.2382133995036
20
11.5175688038836
30
0.000000000000000
11
-41.1382133995036
21
11.4969276875797
31
0.000000000000000
  0
LINE
  5
F10999
330
F1099A
100
AcDbEntity
8
Geo
100
AcDbLine
10
-41.1382133995036
20
11.4969276875797
30
0.000000000000000
11
-41.0382133995036
21
11.4756742499213
31
0.000000000000000
  0
LINE
  5
F1099B
330
F1099C
100
AcDbEntity
8
Geo
100
AcDbLine
10
-41.0382133995036
20
11.4756742499213
30
0.000000000000000
11
-40.9382133995036
21
11.4538113246686
31
0.000000000000000
  0
LINE
  5
F1099D
330
F1099E
100
AcDbEntity
8
Geo
100
AcDbLine
10
-40.9382133995036
20
11.4538113246686
30
0.000000000000000
11
-40.8382133995036
21
11.4313418268457
31
0.000000000000000
  0
LINE
  5
F1099F
330
F109A0
100
AcDbEntity
8
Geo
100
AcDbLine
10
-40.8382133995036
20
11.4313418268457
30
0.000000000000000
11
-40.7382133995036
21
11.4082687523526
31
0.000000000000000
  0
LINE
  5
F109A1
330
F109A2
100
AcDbEntity
8
Geo
100
AcDbLine
10
-40.7382133995036
20
11.4082687523526
30
0.000000000000000
11
-40.6382133995036
21
11.3845951775650
31
0.000000000000000
  0
LINE
  5
F109A3
330
F109A4
100
AcDbEntity
8
Geo
100
AcDbLine
10
-40.6382133995036
20
11.3845951775650
30
0.000000000000000
11
-40.5382133995036
21
11.3603242589243
31
0.000000000000000
  0
LINE
  5
F109A5
330
F109A6
100
AcDbEntity
8
Geo
100
AcDbLine
10
-40.5382133995036
20
11.3603242589243
30
0.000000000000000
11
-40.4382133995036
21
11.3354592325172
31
0.000000000000000
  0
LINE
  5
F109A7
330
F109A8
100
AcDbEntity
8
Geo
100
AcDbLine
10
-40.4382133995036
20
11.3354592325172
30
0.000000000000000
11
-40.3382133995036
21
11.3100034136437
31
0.000000000000000
  0
LINE
  5
F109A9
330
F109AA
100
AcDbEntity
8
Geo
100
AcDbLine
10
-40.3382133995036
20
11.3100034136437
30
0.000000000000000
11
-40.2382133995036
21
11.2839601963752
31
0.000000000000000
  0
LINE
  5
F109AB
330
F109AC
100
AcDbEntity
8
Geo
100
AcDbLine
10
-40.2382133995036
20
11.2839601963752
30
0.000000000000000
11
-40.1382133995036
21
11.2573330531022
31
0.000000000000000
  0
LINE
  5
F109AD
330
F109AE
100
AcDbEntity
8
Geo
100
AcDbLine
10
-40.1382133995036
20
11.2573330531022
30
0.000000000000000
11
-40.0382133995036
21
11.2301255340709
31
0.000000000000000
  0
LINE
  5
F109AF
330
F109B0
100
AcDbEntity
8
Geo
100
AcDbLine
10
-40.0382133995036
20
11.2301255340709
30
0.000000000000000
11
-39.9382133995036
21
11.2023412669102
31
0.000000000000000
  0
LINE
  5
F109B1
330
F109B2
100
AcDbEntity
8
Geo
100
AcDbLine
10
-39.9382133995036
20
11.2023412669102
30
0.000000000000000
11
-39.8382133995036
21
11.1739839561480
31
0.000000000000000
  0
LINE
  5
F109B3
330
F109B4
100
AcDbEntity
8
Geo
100
AcDbLine
10
-39.8382133995036
20
11.1739839561480
30
0.000000000000000
11
-39.7382133995036
21
11.1450573827169
31
0.000000000000000
  0
LINE
  5
F109B5
330
F109B6
100
AcDbEntity
8
Geo
100
AcDbLine
10
-39.7382133995036
20
11.1450573827169
30
0.000000000000000
11
-39.6382133995036
21
11.1155654034507
31
0.000000000000000
  0
LINE
  5
F109B7
330
F109B8
100
AcDbEntity
8
Geo
100
AcDbLine
10
-39.6382133995036
20
11.1155654034507
30
0.000000000000000
11
-39.5382133995036
21
11.0855119505695
31
0.000000000000000
  0
LINE
  5
F109B9
330
F109BA
100
AcDbEntity
8
Geo
100
AcDbLine
10
-39.5382133995036
20
11.0855119505695
30
0.000000000000000
11
-39.4382133995036
21
11.0549010311558
31
0.000000000000000
  0
LINE
  5
F109BB
330
F109BC
100
AcDbEntity
8
Geo
100
AcDbLine
10
-39.4382133995036
20
11.0549010311558
30
0.000000000000000
11
-39.3382133995036
21
11.0237367266202
31
0.000000000000000
  0
LINE
  5
F109BD
330
F109BE
100
AcDbEntity
8
Geo
100
AcDbLine
10
-39.3382133995036
20
11.0237367266202
30
0.000000000000000
11
-39.2382133995036
21
10.9920231921572
31
0.000000000000000
  0
LINE
  5
F109BF
330
F109C0
100
AcDbEntity
8
Geo
100
AcDbLine
10
-39.2382133995036
20
10.9920231921572
30
0.000000000000000
11
-39.1382133995036
21
10.9597646561910
31
0.000000000000000
  0
LINE
  5
F109C1
330
F109C2
100
AcDbEntity
8
Geo
100
AcDbLine
10
-39.1382133995036
20
10.9597646561910
30
0.000000000000000
11
-39.0382133995036
21
10.9269654198119
31
0.000000000000000
  0
LINE
  5
F109C3
330
F109C4
100
AcDbEntity
8
Geo
100
AcDbLine
10
-39.0382133995036
20
10.9269654198119
30
0.000000000000000
11
-38.9382133995036
21
10.8936298562030
31
0.000000000000000
  0
LINE
  5
F109C5
330
F109C6
100
AcDbEntity
8
Geo
100
AcDbLine
10
-38.9382133995036
20
10.8936298562030
30
0.000000000000000
11
-38.8382133995036
21
10.8597624100565
31
0.000000000000000
  0
LINE
  5
F109C7
330
F109C8
100
AcDbEntity
8
Geo
100
AcDbLine
10
-38.8382133995036
20
10.8597624100565
30
0.000000000000000
11
-38.7382133995036
21
10.8253675969819
31
0.000000000000000
  0
LINE
  5
F109C9
330
F109CA
100
AcDbEntity
8
Geo
100
AcDbLine
10
-38.7382133995036
20
10.8253675969819
30
0.000000000000000
11
-38.6382133995035
21
10.7904500029033
31
0.000000000000000
  0
LINE
  5
F109CB
330
F109CC
100
AcDbEntity
8
Geo
100
AcDbLine
10
-38.6382133995035
20
10.7904500029033
30
0.000000000000000
11
-38.5382133995035
21
10.7550142834480
31
0.000000000000000
  0
LINE
  5
F109CD
330
F109CE
100
AcDbEntity
8
Geo
100
AcDbLine
10
-38.5382133995035
20
10.7550142834480
30
0.000000000000000
11
-38.4382133995035
21
10.7190651633263
31
0.000000000000000
  0
LINE
  5
F109CF
330
F109D0
100
AcDbEntity
8
Geo
100
AcDbLine
10
-38.4382133995035
20
10.7190651633263
30
0.000000000000000
11
-38.3382133995035
21
10.6826074357009
31
0.000000000000000
  0
LINE
  5
F109D1
330
F109D2
100
AcDbEntity
8
Geo
100
AcDbLine
10
-38.3382133995035
20
10.6826074357009
30
0.000000000000000
11
-38.2382133995035
21
10.6456459615481
31
0.000000000000000
  0
LINE
  5
F109D3
330
F109D4
100
AcDbEntity
8
Geo
100
AcDbLine
10
-38.2382133995035
20
10.6456459615481
30
0.000000000000000
11
-38.1382133995035
21
10.6081856690098
31
0.000000000000000
  0
LINE
  5
F109D5
330
F109D6
100
AcDbEntity
8
Geo
100
AcDbLine
10
-38.1382133995035
20
10.6081856690098
30
0.000000000000000
11
-38.0382133995035
21
10.5702315527360
31
0.000000000000000
  0
LINE
  5
F109D7
330
F109D8
100
AcDbEntity
8
Geo
100
AcDbLine
10
-38.0382133995035
20
10.5702315527360
30
0.000000000000000
11
-37.9382133995035
21
10.5317886732195
31
0.000000000000000
  0
LINE
  5
F109D9
330
F109DA
100
AcDbEntity
8
Geo
100
AcDbLine
10
-37.9382133995035
20
10.5317886732195
30
0.000000000000000
11
-37.8382133995035
21
10.4928621561204
31
0.000000000000000
  0
LINE
  5
F109DB
330
F109DC
100
AcDbEntity
8
Geo
100
AcDbLine
10
-37.8382133995035
20
10.4928621561204
30
0.000000000000000
11
-37.7382133995035
21
10.4534571915835
31
0.000000000000000
  0
LINE
  5
F109DD
330
F109DE
100
AcDbEntity
8
Geo
100
AcDbLine
10
-37.7382133995035
20
10.4534571915835
30
0.000000000000000
11
-37.6382133995035
21
10.4135790335456
31
0.000000000000000
  0
LINE
  5
F109DF
330
F109E0
100
AcDbEntity
8
Geo
100
AcDbLine
10
-37.6382133995035
20
10.4135790335456
30
0.000000000000000
11
-37.5382133995035
21
10.3732329990355
31
0.000000000000000
  0
LINE
  5
F109E1
330
F109E2
100
AcDbEntity
8
Geo
100
AcDbLine
10
-37.5382133995035
20
10.3732329990355
30
0.000000000000000
11
-37.4382133995035
21
10.3324244674645
31
0.000000000000000
  0
LINE
  5
F109E3
330
F109E4
100
AcDbEntity
8
Geo
100
AcDbLine
10
-37.4382133995035
20
10.3324244674645
30
0.000000000000000
11
-37.3382133995035
21
10.2911588799097
31
0.000000000000000
  0
LINE
  5
F109E5
330
F109E6
100
AcDbEntity
8
Geo
100
AcDbLine
10
-37.3382133995035
20
10.2911588799097
30
0.000000000000000
11
-37.2382133995035
21
10.2494417383885
31
0.000000000000000
  0
LINE
  5
F109E7
330
F109E8
100
AcDbEntity
8
Geo
100
AcDbLine
10
-37.2382133995035
20
10.2494417383885
30
0.000000000000000
11
-37.1382133995035
21
10.2072786051244
31
0.000000000000000
  0
LINE
  5
F109E9
330
F109EA
100
AcDbEntity
8
Geo
100
AcDbLine
10
-37.1382133995035
20
10.2072786051244
30
0.000000000000000
11
-37.0382133995035
21
10.1646751018062
31
0.000000000000000
  0
LINE
  5
F109EB
330
F109EC
100
AcDbEntity
8
Geo
100
AcDbLine
10
-37.0382133995035
20
10.1646751018062
30
0.000000000000000
11
-36.9382133995035
21
10.1216369088379
31
0.000000000000000
  0
LINE
  5
F109ED
330
F109EE
100
AcDbEntity
8
Geo
100
AcDbLine
10
-36.9382133995035
20
10.1216369088379
30
0.000000000000000
11
-36.8382133995035
21
10.0781697645813
31
0.000000000000000
  0
LINE
  5
F109EF
330
F109F0
100
AcDbEntity
8
Geo
100
AcDbLine
10
-36.8382133995035
20
10.0781697645813
30
0.000000000000000
11
-36.7382133995035
21
10.0342794645914
31
0.000000000000000
  0
LINE
  5
F109F1
330
F109F2
100
AcDbEntity
8
Geo
100
AcDbLine
10
-36.7382133995035
20
10.0342794645914
30
0.000000000000000
11
-36.6382133995035
21
9.98997186084318
31
0.000000000000000
  0
LINE
  5
F109F3
330
F109F4
100
AcDbEntity
8
Geo
100
AcDbLine
10
-36.6382133995035
20
9.98997186084318
30
0.000000000000000
11
-36.5382133995035
21
9.94525286095141
31
0.000000000000000
  0
LINE
  5
F109F5
330
F109F6
100
AcDbEntity
8
Geo
100
AcDbLine
10
-36.5382133995035
20
9.94525286095141
30
0.000000000000000
11
-36.4382133995035
21
9.90012842738318
31
0.000000000000000
  0
LINE
  5
F109F7
330
F109F8
100
AcDbEntity
8
Geo
100
AcDbLine
10
-36.4382133995035
20
9.90012842738318
30
0.000000000000000
11
-36.3382133995035
21
9.85460457666279
31
0.000000000000000
  0
LINE
  5
F109F9
330
F109FA
100
AcDbEntity
8
Geo
100
AcDbLine
10
-36.3382133995035
20
9.85460457666279
30
0.000000000000000
11
-36.2382133995035
21
9.80868737856958
31
0.000000000000000
  0
LINE
  5
F109FB
330
F109FC
100
AcDbEntity
8
Geo
100
AcDbLine
10
-36.2382133995035
20
9.80868737856958
30
0.000000000000000
11
-36.1382133995035
21
9.76238295532858
31
0.000000000000000
  0
LINE
  5
F109FD
330
F109FE
100
AcDbEntity
8
Geo
100
AcDbLine
10
-36.1382133995035
20
9.76238295532858
30
0.000000000000000
11
-36.0382133995035
21
9.71569748079430
31
0.000000000000000
  0
LINE
  5
F109FF
330
F10A00
100
AcDbEntity
8
Geo
100
AcDbLine
10
-36.0382133995035
20
9.71569748079430
30
0.000000000000000
11
-35.9382133995035
21
9.66863717962752
31
0.000000000000000
  0
LINE
  5
F10A01
330
F10A02
100
AcDbEntity
8
Geo
100
AcDbLine
10
-35.9382133995035
20
9.66863717962752
30
0.000000000000000
11
-35.8382133995035
21
9.62120832646534
31
0.000000000000000
  0
LINE
  5
F10A03
330
F10A04
100
AcDbEntity
8
Geo
100
AcDbLine
10
-35.8382133995035
20
9.62120832646534
30
0.000000000000000
11
-35.7382133995035
21
9.57341724508458
31
0.000000000000000
  0
LINE
  5
F10A05
330
F10A06
100
AcDbEntity
8
Geo
100
AcDbLine
10
-35.7382133995035
20
9.57341724508458
30
0.000000000000000
11
-35.6382133995035
21
9.52527030755862
31
0.000000000000000
  0
LINE
  5
F10A07
330
F10A08
100
AcDbEntity
8
Geo
100
AcDbLine
10
-35.6382133995035
20
9.52527030755862
30
0.000000000000000
11
-35.5382133995035
21
9.47677393340780
31
0.000000000000000
  0
LINE
  5
F10A09
330
F10A0A
100
AcDbEntity
8
Geo
100
AcDbLine
10
-35.5382133995035
20
9.47677393340780
30
0.000000000000000
11
-35.4382133995035
21
9.42793458874351
31
0.000000000000000
  0
LINE
  5
F10A0B
330
F10A0C
100
AcDbEntity
8
Geo
100
AcDbLine
10
-35.4382133995035
20
9.42793458874351
30
0.000000000000000
11
-35.3382133995035
21
9.37875878540601
31
0.000000000000000
  0
LINE
  5
F10A0D
330
F10A0E
100
AcDbEntity
8
Geo
100
AcDbLine
10
-35.3382133995035
20
9.37875878540601
30
0.000000000000000
11
-35.2382133995035
21
9.32925308009621
31
0.000000000000000
  0
LINE
  5
F10A0F
330
F10A10
100
AcDbEntity
8
Geo
100
AcDbLine
10
-35.2382133995035
20
9.32925308009621
30
0.000000000000000
11
-35.1382133995035
21
9.27942407350150
31
0.000000000000000
  0
LINE
  5
F10A11
330
F10A12
100
AcDbEntity
8
Geo
100
AcDbLine
10
-35.1382133995035
20
9.27942407350150
30
0.000000000000000
11
-35.0382133995035
21
9.22927840941560
31
0.000000000000000
  0
LINE
  5
F10A13
330
F10A14
100
AcDbEntity
8
Geo
100
AcDbLine
10
-35.0382133995035
20
9.22927840941560
30
0.000000000000000
11
-34.9382133995035
21
9.17882277385275
31
0.000000000000000
  0
LINE
  5
F10A15
330
F10A16
100
AcDbEntity
8
Geo
100
AcDbLine
10
-34.9382133995035
20
9.17882277385275
30
0.000000000000000
11
-34.8382133995035
21
9.12806389415629
31
0.000000000000000
  0
LINE
  5
F10A17
330
F10A18
100
AcDbEntity
8
Geo
100
AcDbLine
10
-34.8382133995035
20
9.12806389415629
30
0.000000000000000
11
-34.7382133995035
21
9.07700853810165
31
0.000000000000000
  0
LINE
  5
F10A19
330
F10A1A
100
AcDbEntity
8
Geo
100
AcDbLine
10
-34.7382133995035
20
9.07700853810165
30
0.000000000000000
11
-34.6382133995035
21
9.02566351299399
31
0.000000000000000
  0
LINE
  5
F10A1B
330
F10A1C
100
AcDbEntity
8
Geo
100
AcDbLine
10
-34.6382133995035
20
9.02566351299399
30
0.000000000000000
11
-34.5382133995035
21
8.97403566476059
31
0.000000000000000
  0
LINE
  5
F10A1D
330
F10A1E
100
AcDbEntity
8
Geo
100
AcDbLine
10
-34.5382133995035
20
8.97403566476059
30
0.000000000000000
11
-34.4382133995035
21
8.92213187703808
31
0.000000000000000
  0
LINE
  5
F10A1F
330
F10A20
100
AcDbEntity
8
Geo
100
AcDbLine
10
-34.4382133995035
20
8.92213187703808
30
0.000000000000000
11
-34.3382133995035
21
8.86995907025458
31
0.000000000000000
  0
LINE
  5
F10A21
330
F10A22
100
AcDbEntity
8
Geo
100
AcDbLine
10
-34.3382133995035
20
8.86995907025458
30
0.000000000000000
11
-34.2382133995035
21
8.81752420070704
31
0.000000000000000
  0
LINE
  5
F10A23
330
F10A24
100
AcDbEntity
8
Geo
100
AcDbLine
10
-34.2382133995035
20
8.81752420070704
30
0.000000000000000
11
-34.1382133995035
21
8.76483425963371
31
0.000000000000000
  0
LINE
  5
F10A25
330
F10A26
100
AcDbEntity
8
Geo
100
AcDbLine
10
-34.1382133995035
20
8.76483425963371
30
0.000000000000000
11
-34.0382133995035
21
8.71189627228203
31
0.000000000000000
  0
LINE
  5
F10A27
330
F10A28
100
AcDbEntity
8
Geo
100
AcDbLine
10
-34.0382133995035
20
8.71189627228203
30
0.000000000000000
11
-33.9382133995035
21
8.65871729697187
31
0.000000000000000
  0
LINE
  5
F10A29
330
F10A2A
100
AcDbEntity
8
Geo
100
AcDbLine
10
-33.9382133995035
20
8.65871729697187
30
0.000000000000000
11
-33.8382133995035
21
8.60530442415448
31
0.000000000000000
  0
LINE
  5
F10A2B
330
F10A2C
100
AcDbEntity
8
Geo
100
AcDbLine
10
-33.8382133995035
20
8.60530442415448
30
0.000000000000000
11
-33.7382133995035
21
8.55166477546712
31
0.000000000000000
  0
LINE
  5
F10A2D
330
F10A2E
100
AcDbEntity
8
Geo
100
AcDbLine
10
-33.7382133995035
20
8.55166477546712
30
0.000000000000000
11
-33.6382133995035
21
8.49780550278349
31
0.000000000000000
  0
LINE
  5
F10A2F
330
F10A30
100
AcDbEntity
8
Geo
100
AcDbLine
10
-33.6382133995035
20
8.49780550278349
30
0.000000000000000
11
-33.5382133995035
21
8.44373378726014
31
0.000000000000000
  0
LINE
  5
F10A31
330
F10A32
100
AcDbEntity
8
Geo
100
AcDbLine
10
-33.5382133995035
20
8.44373378726014
30
0.000000000000000
11
-33.4382133995035
21
8.38945683837904
31
0.000000000000000
  0
LINE
  5
F10A33
330
F10A34
100
AcDbEntity
8
Geo
100
AcDbLine
10
-33.4382133995035
20
8.38945683837904
30
0.000000000000000
11
-33.3382133995035
21
8.33498189298629
31
0.000000000000000
  0
LINE
  5
F10A35
330
F10A36
100
AcDbEntity
8
Geo
100
AcDbLine
10
-33.3382133995035
20
8.33498189298629
30
0.000000000000000
11
-33.2382133995035
21
8.28031621432726
31
0.000000000000000
  0
LINE
  5
F10A37
330
F10A38
100
AcDbEntity
8
Geo
100
AcDbLine
10
-33.2382133995035
20
8.28031621432726
30
0.000000000000000
11
-33.1382133995035
21
8.22546709107810
31
0.000000000000000
  0
LINE
  5
F10A39
330
F10A3A
100
AcDbEntity
8
Geo
100
AcDbLine
10
-33.1382133995035
20
8.22546709107810
30
0.000000000000000
11
-33.0382133995035
21
8.17044183637399
31
0.000000000000000
  0
LINE
  5
F10A3B
330
F10A3C
100
AcDbEntity
8
Geo
100
AcDbLine
10
-33.0382133995035
20
8.17044183637399
30
0.000000000000000
11
-32.9382133995035
21
8.11524778683403
31
0.000000000000000
  0
LINE
  5
F10A3D
330
F10A3E
100
AcDbEntity
8
Geo
100
AcDbLine
10
-32.9382133995035
20
8.11524778683403
30
0.000000000000000
11
-32.8382133995035
21
8.05989230158308
31
0.000000000000000
  0
LINE
  5
F10A3F
330
F10A40
100
AcDbEntity
8
Geo
100
AcDbLine
10
-32.8382133995035
20
8.05989230158308
30
0.000000000000000
11
-32.7382133995035
21
8.00438276127048
31
0.000000000000000
  0
LINE
  5
F10A41
330
F10A42
100
AcDbEntity
8
Geo
100
AcDbLine
10
-32.7382133995035
20
8.00438276127048
30
0.000000000000000
11
-32.6382133995035
21
7.94872656708604
31
0.000000000000000
  0
LINE
  5
F10A43
330
F10A44
100
AcDbEntity
8
Geo
100
AcDbLine
10
-32.6382133995035
20
7.94872656708604
30
0.000000000000000
11
-32.5382133995035
21
7.89293113977320
31
0.000000000000000
  0
LINE
  5
F10A45
330
F10A46
100
AcDbEntity
8
Geo
100
AcDbLine
10
-32.5382133995035
20
7.89293113977320
30
0.000000000000000
11
-32.4382133995035
21
7.83700391863961
31
0.000000000000000
  0
LINE
  5
F10A47
330
F10A48
100
AcDbEntity
8
Geo
100
AcDbLine
10
-32.4382133995035
20
7.83700391863961
30
0.000000000000000
11
-32.3382133995035
21
7.78095236056523
31
0.000000000000000
  0
LINE
  5
F10A49
330
F10A4A
100
AcDbEntity
8
Geo
100
AcDbLine
10
-32.3382133995035
20
7.78095236056523
30
0.000000000000000
11
-32.2382133995035
21
7.72478393900810
31
0.000000000000000
  0
LINE
  5
F10A4B
330
F10A4C
100
AcDbEntity
8
Geo
100
AcDbLine
10
-32.2382133995035
20
7.72478393900810
30
0.000000000000000
11
-32.1382133995035
21
7.66850614300788
31
0.000000000000000
  0
LINE
  5
F10A4D
330
F10A4E
100
AcDbEntity
8
Geo
100
AcDbLine
10
-32.1382133995035
20
7.66850614300788
30
0.000000000000000
11
-32.0382133995035
21
7.61212647618733
31
0.000000000000000
  0
LINE
  5
F10A4F
330
F10A50
100
AcDbEntity
8
Geo
100
AcDbLine
10
-32.0382133995035
20
7.61212647618733
30
0.000000000000000
11
-31.9382133995035
21
7.55565245575183
31
0.000000000000000
  0
LINE
  5
F10A51
330
F10A52
100
AcDbEntity
8
Geo
100
AcDbLine
10
-31.9382133995035
20
7.55565245575183
30
0.000000000000000
11
-31.8382133995035
21
7.49909161148711
31
0.000000000000000
  0
LINE
  5
F10A53
330
F10A54
100
AcDbEntity
8
Geo
100
AcDbLine
10
-31.8382133995035
20
7.49909161148711
30
0.000000000000000
11
-31.7382133995035
21
7.44245148475529
31
0.000000000000000
  0
LINE
  5
F10A55
330
F10A56
100
AcDbEntity
8
Geo
100
AcDbLine
10
-31.7382133995035
20
7.44245148475529
30
0.000000000000000
11
-31.6382133995034
21
7.38573962748934
31
0.000000000000000
  0
LINE
  5
F10A57
330
F10A58
100
AcDbEntity
8
Geo
100
AcDbLine
10
-31.6382133995034
20
7.38573962748934
30
0.000000000000000
11
-31.5382133995034
21
7.32896360118621
31
0.000000000000000
  0
LINE
  5
F10A59
330
F10A5A
100
AcDbEntity
8
Geo
100
AcDbLine
10
-31.5382133995034
20
7.32896360118621
30
0.000000000000000
11
-31.4382133995034
21
7.27213097589864
31
0.000000000000000
  0
LINE
  5
F10A5B
330
F10A5C
100
AcDbEntity
8
Geo
100
AcDbLine
10
-31.4382133995034
20
7.27213097589864
30
0.000000000000000
11
-31.3382133995034
21
7.21524932922581
31
0.000000000000000
  0
LINE
  5
F10A5D
330
F10A5E
100
AcDbEntity
8
Geo
100
AcDbLine
10
-31.3382133995034
20
7.21524932922581
30
0.000000000000000
11
-31.2382133995034
21
7.15832624530299
31
0.000000000000000
  0
LINE
  5
F10A5F
330
F10A60
100
AcDbEntity
8
Geo
100
AcDbLine
10
-31.2382133995034
20
7.15832624530299
30
0.000000000000000
11
-31.1382133995034
21
7.10136931379038
31
0.000000000000000
  0
LINE
  5
F10A61
330
F10A62
100
AcDbEntity
8
Geo
100
AcDbLine
10
-31.1382133995034
20
7.10136931379038
30
0.000000000000000
11
-31.0382133995034
21
7.04438612886115
31
0.000000000000000
  0
LINE
  5
F10A63
330
F10A64
100
AcDbEntity
8
Geo
100
AcDbLine
10
-31.0382133995034
20
7.04438612886115
30
0.000000000000000
11
-30.9382133995034
21
6.98738428818885
31
0.000000000000000
  0
LINE
  5
F10A65
330
F10A66
100
AcDbEntity
8
Geo
100
AcDbLine
10
-30.9382133995034
20
6.98738428818885
30
0.000000000000000
11
-30.8382133995034
21
6.93037139193446
31
0.000000000000000
  0
LINE
  5
F10A67
330
F10A68
100
AcDbEntity
8
Geo
100
AcDbLine
10
-30.8382133995034
20
6.93037139193446
30
0.000000000000000
11
-30.7382133995034
21
6.87335504173302
31
0.000000000000000
  0
LINE
  5
F10A69
330
F10A6A
100
AcDbEntity
8
Geo
100
AcDbLine
10
-30.7382133995034
20
6.87335504173302
30
0.000000000000000
11
-30.6382133995034
21
6.81634283968010
31
0.000000000000000
  0
LINE
  5
F10A6B
330
F10A6C
100
AcDbEntity
8
Geo
100
AcDbLine
10
-30.6382133995034
20
6.81634283968010
30
0.000000000000000
11
-30.5382133995034
21
6.75934238731816
31
0.000000000000000
  0
LINE
  5
F10A6D
330
F10A6E
100
AcDbEntity
8
Geo
100
AcDbLine
10
-30.5382133995034
20
6.75934238731816
30
0.000000000000000
11
-30.4382133995034
21
6.70236128462308
31
0.000000000000000
  0
LINE
  5
F10A6F
330
F10A70
100
AcDbEntity
8
Geo
100
AcDbLine
10
-30.4382133995034
20
6.70236128462308
30
0.000000000000000
11
-30.3382133995034
21
6.64540712899080
31
0.000000000000000
  0
LINE
  5
F10A71
330
F10A72
100
AcDbEntity
8
Geo
100
AcDbLine
10
-30.3382133995034
20
6.64540712899080
30
0.000000000000000
11
-30.2382133995034
21
6.58848751422438
31
0.000000000000000
  0
LINE
  5
F10A73
330
F10A74
100
AcDbEntity
8
Geo
100
AcDbLine
10
-30.2382133995034
20
6.58848751422438
30
0.000000000000000
11
-30.1382133995034
21
6.53161002952143
31
0.000000000000000
  0
LINE
  5
F10A75
330
F10A76
100
AcDbEntity
8
Geo
100
AcDbLine
10
-30.1382133995034
20
6.53161002952143
30
0.000000000000000
11
-30.0382133995034
21
6.47478225846233
31
0.000000000000000
  0
LINE
  5
F10A77
330
F10A78
100
AcDbEntity
8
Geo
100
AcDbLine
10
-30.0382133995034
20
6.47478225846233
30
0.000000000000000
11
-29.9382133995034
21
6.41801177799905
31
0.000000000000000
  0
LINE
  5
F10A79
330
F10A7A
100
AcDbEntity
8
Geo
100
AcDbLine
10
-29.9382133995034
20
6.41801177799905
30
0.000000000000000
11
-29.8382133995034
21
6.36130615744485
31
0.000000000000000
  0
LINE
  5
F10A7B
330
F10A7C
100
AcDbEntity
8
Geo
100
AcDbLine
10
-29.8382133995034
20
6.36130615744485
30
0.000000000000000
11
-29.7382133995034
21
6.30467295746515
31
0.000000000000000
  0
LINE
  5
F10A7D
330
F10A7E
100
AcDbEntity
8
Geo
100
AcDbLine
10
-29.7382133995034
20
6.30467295746515
30
0.000000000000000
11
-29.6382133995034
21
6.24811972906937
31
0.000000000000000
  0
LINE
  5
F10A7F
330
F10A80
100
AcDbEntity
8
Geo
100
AcDbLine
10
-29.6382133995034
20
6.24811972906937
30
0.000000000000000
11
-29.5382133995034
21
6.19165401260420
31
0.000000000000000
  0
LINE
  5
F10A81
330
F10A82
100
AcDbEntity
8
Geo
100
AcDbLine
10
-29.5382133995034
20
6.19165401260420
30
0.000000000000000
11
-29.4382133995034
21
6.13528333674815
31
0.000000000000000
  0
LINE
  5
F10A83
330
F10A84
100
AcDbEntity
8
Geo
100
AcDbLine
10
-29.4382133995034
20
6.13528333674815
30
0.000000000000000
11
-29.3382133995034
21
6.07901521750785
31
0.000000000000000
  0
LINE
  5
F10A85
330
F10A86
100
AcDbEntity
8
Geo
100
AcDbLine
10
-29.3382133995034
20
6.07901521750785
30
0.000000000000000
11
-29.2382133995034
21
6.02285715721582
31
0.000000000000000
  0
LINE
  5
F10A87
330
F10A88
100
AcDbEntity
8
Geo
100
AcDbLine
10
-29.2382133995034
20
6.02285715721582
30
0.000000000000000
11
-29.1382133995034
21
5.96681664353026
31
0.000000000000000
  0
LINE
  5
F10A89
330
F10A8A
100
AcDbEntity
8
Geo
100
AcDbLine
10
-29.1382133995034
20
5.96681664353026
30
0.000000000000000
11
-29.0382133995034
21
5.91090114843661
31
0.000000000000000
  0
LINE
  5
F10A8B
330
F10A8C
100
AcDbEntity
8
Geo
100
AcDbLine
10
-29.0382133995034
20
5.91090114843661
30
0.000000000000000
11
-28.9382133995034
21
5.85511812725139
31
0.000000000000000
  0
LINE
  5
F10A8D
330
F10A8E
100
AcDbEntity
8
Geo
100
AcDbLine
10
-28.9382133995034
20
5.85511812725139
30
0.000000000000000
11
-28.8382133995034
21
5.79947501762812
31
0.000000000000000
  0
LINE
  5
F10A8F
330
F10A90
100
AcDbEntity
8
Geo
100
AcDbLine
10
-70.7382133995037
20
6.90446650124071
30
0.000000000000000
11
-70.7382133995037
21
6.90446650124071
31
0.000000000000000
  0
LINE
  5
F10A91
330
F10A92
100
AcDbEntity
8
Geo
100
AcDbLine
10
-70.7382133995037
20
6.90446650124071
30
0.000000000000000
11
-70.7382133995037
21
6.90446650124071
31
0.000000000000000
  0
LINE
  5
F10A93
330
F10A94
100
AcDbEntity
8
Geo
100
AcDbLine
10
79.2617866004963
20
11.3044665012407
30
0.000000000000000
11
79.2617866004963
21
6.90446650124071
31
0.000000000000000
  0
LINE
  5
F10A95
330
F10A96
100
AcDbEntity
8
Geo
100
AcDbLine
10
-70.7382133995037
20
6.90446650124071
30
0.000000000000000
11
-70.7382133995037
21
2.40446650124071
31
0.000000000000000
  0
ARC
  5
F10A97
330
F10A98
100
AcDbEntity
8
Geo
100
AcDbCircle
10
-70.2382133995037
20
2.40446650124071
30
0.000000000000000
 40
0.500000000000000
100
AcDbArc
 50
180.000000000000
 51
270.000000000000
  0
LINE
  5
F10A99
330
F10A9A
100
AcDbEntity
8
Geo
100
AcDbLine
10
-70.2382133995037
20
1.90446650124071
30
0.000000000000000
11
-28.7382133995037
21
1.90446650124071
31
0.000000000000000
  0
LINE
  5
F10A9B
330
F10A9C
100
AcDbEntity
8
Geo
100
AcDbLine
10
-28.7382133995037
20
1.90446650124071
30
0.000000000000000
11
-28.7382133995037
21
1.90496650124070
31
0.000000000000000
  0
LINE
  5
F10A9D
330
F10A9E
100
AcDbEntity
8
Geo
100
AcDbLine
10
-28.7382133995037
20
1.90496650124070
30
0.000000000000000
11
-26.7382133995037
21
1.90496650124070
31
0.000000000000000
  0
LINE
  5
F10A9F
330
F10AA0
100
AcDbEntity
8
Geo
100
AcDbLine
10
-26.7382133995037
20
1.90496650124070
30
0.000000000000000
11
-26.7382133995037
21
1.90446650124071
31
0.000000000000000
  0
LINE
  5
F10AA1
330
F10AA2
100
AcDbEntity
8
Geo
100
AcDbLine
10
-26.7382133995037
20
1.90446650124071
30
0.000000000000000
11
78.6617866004963
21
1.90446650124071
31
0.000000000000000
  0
LINE
  5
F10AA3
330
F10AA4
100
AcDbEntity
8
Geo
100
AcDbLine
10
78.6617866004963
20
1.90446650124071
30
0.000000000000000
11
79.2617866004963
21
2.50446650124070
31
0.000000000000000
  0
LINE
  5
F10AA5
330
F10AA6
100
AcDbEntity
8
Geo
100
AcDbLine
10
-70.2382133995037
20
11.9044665012407
30
0.000000000000000
11
-70.2382133995037
21
1.90446650124071
31
0.000000000000000
  0
LINE
  5
F10AA7
330
F10AA8
100
AcDbEntity
8
Geo
100
AcDbLine
10
-70.2382133995037
20
11.9044665012407
30
0.000000000000000
11
-70.2382133995037
21
1.90446650124071
31
0.000000000000000
  0
LINE
  5
F10AA9
330
F10AAA
100
AcDbEntity
8
Geo
100
AcDbLine
10
-28.7382133995037
20
11.9044665012407
30
0.000000000000000
11
-28.7382133995037
21
1.90446650124071
31
0.000000000000000
  0
LINE
  5
F10AAB
330
F10AAC
100
AcDbEntity
8
Geo
100
AcDbLine
10
-28.7382133995037
20
11.9039665012407
30
0.000000000000000
11
-28.7382133995037
21
1.90496650124070
31
0.000000000000000
  0
LINE
  5
F10AAD
330
F10AAE
100
AcDbEntity
8
Geo
100
AcDbLine
10
-26.7382133995037
20
11.9039665012407
30
0.000000000000000
11
-26.7382133995037
21
1.90496650124070
31
0.000000000000000
  0
LINE
  5
F10AAF
330
F10AB0
100
AcDbEntity
8
Geo
100
AcDbLine
10
-26.7382133995037
20
11.9039665012407
30
0.000000000000000
11
-26.7382133995037
21
1.90496650124070
31
0.000000000000000
  0
LINE
  5
F10AB1
330
F10AB2
100
AcDbEntity
8
Geo
100
AcDbLine
10
78.6617866004963
20
11.9044665012407
30
0.000000000000000
11
78.6617866004963
21
1.90446650124071
31
0.000000000000000
  0
LINE
  5
F10AB3
330
F10AB4
100
AcDbEntity
8
Geo
100
AcDbLine
10
79.2617866004963
20
11.3044665012407
30
0.000000000000000
11
79.2617866004963
21
2.50446650124070
31
0.000000000000000
  0
LWPOLYLINE
  5
F10AB5
330
F10AB6
100
AcDbEntity
8
Rahmen
100
AcDbPolyline
90
   4
70
   1
43
   0.0
 10
-134.702233250620
 20
99.7890818858561
 10
143.300248138958
 20
99.7890818858561
 10
143.300248138958
 20
-100.049627791563
 10
-134.702233250620
 20
-100.049627791563
  0
TEXT
  5
F10AB7
330
F10AB8
 100
AcDbEntity
8
Text
100
AcDbText
10
-133.660049627792
20
-99.5496277915633
30
0.000000000000000
40
1.00000000000000
1
ISBESketcher - ©ISBE GmbH      Licensed for: Van Hoorn Hardmetaal BV
100
AcDbText
  0
LWPOLYLINE
  5
F10AB9
330
F10ABA
100
AcDbEntity
8
Rahmen
100
AcDbPolyline
90
   4
70
   1
43
   0.0
 10
103.436724565757
 20
-97.1836228287841
 10
143.300248138958
 20
-97.1836228287841
 10
143.300248138958
 20
-100.049627791563
 10
103.436724565757
 20
-100.049627791563
  0
TEXT
  5
F10ABB
330
F10ABC
 100
AcDbEntity
8
Text
100
AcDbText
10
104.478908188586
20
-98.1836228287841
30
0.000000000000000
40
0.750000000000000
1
Created by:
100
AcDbText
  0
TEXT
  5
F10ABD
330
F10ABE
 100
AcDbEntity
8
Text
100
AcDbText
10
131.315136476427
20
-99.4863523573201
30
0.000000000000000
40
0.750000000000000
1

100
AcDbText
  0
LWPOLYLINE
  5
F10ABF
330
F10AC0
100
AcDbEntity
8
Rahmen
100
AcDbPolyline
90
   4
70
   1
43
   0.0
 10
63.3126550868486
 20
-97.1836228287841
 10
103.436724565757
 20
-97.1836228287841
 10
103.436724565757
 20
-100.049627791563
 10
63.3126550868486
 20
-100.049627791563
  0
TEXT
  5
F10AC1
330
F10AC2
 100
AcDbEntity
8
Text
100
AcDbText
10
64.3548387096774
20
-98.1836228287841
30
0.000000000000000
40
0.750000000000000
1
Created for:
100
AcDbText
  0
TEXT
  5
F10AC3
330
F10AC4
 100
AcDbEntity
8
Text
100
AcDbText
10
91.4516129032258
20
-99.4863523573201
30
0.000000000000000
40
0.750000000000000
1

100
AcDbText
  0
LWPOLYLINE
  5
F10AC5
330
F10AC6
100
AcDbEntity
8
Rahmen
100
AcDbPolyline
90
   4
70
   1
43
   0.0
 10
130.012406947891
 20
-94.0570719602978
 10
143.300248138958
 20
-94.0570719602978
 10
143.300248138958
 20
-97.1836228287841
 10
130.012406947891
 20
-97.1836228287841
  0
TEXT
  5
F10AC7
330
F10AC8
 100
AcDbEntity
8
Text
100
AcDbText
10
131.054590570720
20
-95.0570719602978
30
0.000000000000000
40
0.750000000000000
1
Pages
100
AcDbText
  0
TEXT
  5
F10AC9
330
F10ACA
 100
AcDbEntity
8
Text
100
AcDbText
10
141.215880893300
20
-96.3598014888337
30
0.000000000000000
40
0.750000000000000
1

100
AcDbText
  0
LWPOLYLINE
  5
F10ACB
330
F10ACC
100
AcDbEntity
8
Rahmen
100
AcDbPolyline
90
   4
70
   1
43
   0.0
 10
130.012406947891
 20
-91.1910669975186
 10
143.300248138958
 20
-91.1910669975186
 10
143.300248138958
 20
-94.0570719602978
 10
130.012406947891
 20
-94.0570719602978
  0
TEXT
  5
F10ACD
330
F10ACE
 100
AcDbEntity
8
Text
100
AcDbText
10
131.054590570720
20
-92.1910669975186
30
0.000000000000000
40
0.750000000000000
1
Page
100
AcDbText
  0
TEXT
  5
F10ACF
330
F10AD0
 100
AcDbEntity
8
Text
100
AcDbText
10
141.215880893300
20
-93.4937965260546
30
0.000000000000000
40
0.750000000000000
1

100
AcDbText
  0
LWPOLYLINE
  5
F10AD1
330
F10AD2
100
AcDbEntity
8
Rahmen
100
AcDbPolyline
90
   4
70
   1
43
   0.0
 10
63.3126550868486
 20
-91.1910669975186
 10
130.012406947891
 20
-91.1910669975186
 10
130.012406947891
 20
-97.1836228287841
 10
63.3126550868486
 20
-97.1836228287841
  0
TEXT
  5
F10AD3
330
F10AD4
 100
AcDbEntity
8
Text
100
AcDbText
10
64.3548387096774
20
-92.1910669975186
30
0.000000000000000
40
0.750000000000000
1
Date:
100
AcDbText
  0
TEXT
  5
F10AD5
330
F10AD6
 100
AcDbEntity
8
Text
100
AcDbText
10
90.4094292803970
20
-95.0570719602978
30
0.000000000000000
40
0.750000000000000
1
21.09.2016
100
AcDbText
  0
LWPOLYLINE
  5
F10AD7
330
F10AD8
100
AcDbEntity
8
Rahmen
100
AcDbPolyline
90
   4
70
   1
43
   0.0
 10
63.3126550868486
 20
-85.1985111662531
 10
143.300248138958
 20
-85.1985111662531
 10
143.300248138958
 20
-91.1910669975186
 10
63.3126550868486
 20
-91.1910669975186
  0
TEXT
  5
F10AD9
330
F10ADA
 100
AcDbEntity
8
Text
100
AcDbText
10
-166.228287841191
20
103.260545905707
30
0.000000000000000
40
1.50000000000000
1

100
AcDbText
  0
TEXT
  5
F10ADB
330
F10ADC
 100
AcDbEntity
8
Text
100
AcDbText
10
83.3746898263027
20
-89.0529363110008
30
0.000000000000000
40
2.50000000000000
1
VHGTF21001501002
100
AcDbText
  0
LWPOLYLINE
  5
F10ADD
330
F10ADE
100
AcDbEntity
8
Rahmen
100
AcDbPolyline
90
   4
70
   1
43
   0.0
 10
103.436724565757
 20
-79.2059553349876
 10
143.300248138958
 20
-79.2059553349876
 10
143.300248138958
 20
-85.1985111662531
 10
103.436724565757
 20
-85.1985111662531
  0
TEXT
  5
F10ADF
330
F10AE0
 100
AcDbEntity
8
Text
100
AcDbText
10
104.478908188586
20
-80.2059553349876
30
0.000000000000000
40
0.750000000000000
1
Work piece material:
100
AcDbText
  0
TEXT
  5
F10AE1
330
F10AE2
 100
AcDbEntity
8
Text
100
AcDbText
10
123.238213399504
20
-84.3746898263027
30
0.000000000000000
40
0.750000000000000
1

100
AcDbText
  0
LWPOLYLINE
  5
F10AE3
330
F10AE4
100
AcDbEntity
8
Rahmen
100
AcDbPolyline
90
   4
70
   1
43
   0.0
 10
63.3126550868486
 20
-79.2059553349876
 10
103.436724565757
 20
-79.2059553349876
 10
103.436724565757
 20
-85.1985111662531
 10
63.3126550868486
 20
-85.1985111662531
  0
TEXT
  5
F10AE5
330
F10AE6
 100
AcDbEntity
8
Text
100
AcDbText
10
64.3548387096774
20
-80.2059553349876
30
0.000000000000000
40
0.750000000000000
1
Tool material:
100
AcDbText
  0
TEXT
  5
F10AE7
330
F10AE8
 100
AcDbEntity
8
Text
100
AcDbText
10
83.1141439205955
20
-84.3746898263027
30
0.000000000000000
40
0.750000000000000
1

100
AcDbText
  0
LWPOLYLINE
  5
F10AE9
330
F10AEA
100
AcDbEntity
8
Rahmen
100
AcDbPolyline
90
   4
70
   1
43
   0.0
 10
103.436724565757
 20
-76.0794044665012
 10
143.300248138958
 20
-76.0794044665012
 10
143.300248138958
 20
-79.2059553349876
 10
103.436724565757
 20
-79.2059553349876
  0
TEXT
  5
F10AEB
330
F10AEC
 100
AcDbEntity
8
Text
100
AcDbText
10
-166.228287841191
20
103.260545905707
30
0.000000000000000
40
1.50000000000000
1

100
AcDbText
  0
TEXT
  5
F10AED
330
F10AEE
 100
AcDbEntity
8
Text
100
AcDbText
10
123.238213399504
20
-78.3821339950372
30
0.000000000000000
40
0.750000000000000
1

100
AcDbText
  0
LWPOLYLINE
  5
F10AEF
330
F10AF0
100
AcDbEntity
8
Rahmen
100
AcDbPolyline
90
   4
70
   1
43
   0.0
 10
63.3126550868486
 20
-76.0794044665012
 10
103.436724565757
 20
-76.0794044665012
 10
103.436724565757
 20
-79.2059553349876
 10
63.3126550868486
 20
-79.2059553349876
  0
TEXT
  5
F10AF1
330
F10AF2
 100
AcDbEntity
8
Text
100
AcDbText
10
64.3548387096774
20
-77.0794044665012
30
0.000000000000000
40
0.750000000000000
1
Scale:
100
AcDbText
  0
TEXT
  5
F10AF3
330
F10AF4
 100
AcDbEntity
8
Text
100
AcDbText
10
88.8461538461538
20
-77.0794044665012
30
0.000000000000000
40
0.750000000000000
1
1 : 1
100
AcDbText
0
VIEWPORT
5
294
102
{ACAD_XDICTIONARY
360
58A
102
}
330
25D
100
AcDbEntity
67
1
8
0
60
1
100
AcDbViewport
10
0.0
20
0.0
30
0.0
40
10.0
41
10.0
68
-1
69
1
12
0.0
22
0.0
13
0.0
23
0.0
14
1.0
24
1.0
15
0.0
25
0.0
16
0.0
26
0.0
36
1.0
17
0.0
27
0.0
37
0.0
42
0.0
43
0.0
44
0.0
45
10.0
50
0.0
51
0.0000000000007958
72
100
90
32800
1

281
0
71
0
74
0
110
0.0
120
0.0
130
0.0
111
1.0
121
0.0
131
0.0
112
0.0
122
1.0
132
0.0
79
0
146
0.0
1001
VD_INVISIBLE_NOT_FOR_READ
1000
VD_INVISIBLE_NOT_FOR_READ
0
VIEWPORT
5
295
102
{ACAD_XDICTIONARY
360
58C
102
}
330
25D
100
AcDbEntity
67
1
8
0
60
1
100
AcDbViewport
10
0.0
20
0.0
30
0.0
40
10.0
41
10.0
68
0
69
2
12
0.0
22
0.0
13
0.0
23
0.0
14
1.0
24
1.0
15
0.0
25
0.0
16
0.0
26
0.0
36
1.0
17
0.0
27
0.0
37
0.0
42
0.0
43
0.0
44
0.0
45
10.0
50
0.0
51
0.0000000000007958
72
100
90
163872
1

281
0
71
0
74
0
110
0.0
120
0.0
130
0.0
111
1.0
121
0.0
131
0.0
112
0.0
122
1.0
132
0.0
79
0
146
0.0
1001
VD_INVISIBLE_NOT_FOR_READ
1000
VD_INVISIBLE_NOT_FOR_READ
0
ENDSEC
0
SECTION
2
OBJECTS
0
DICTIONARY
5
13
330
0
100
AcDbDictionary
281
1
3
ACAD_COLOR
350
FA7
3
ACAD_GROUP
350
14
3
ACAD_LAYOUT
350
FCF
3
ACAD_MATERIAL
350
F7A
3
ACAD_MLEADERSTYLE
350
FCD
3
ACAD_MLINESTYLE
350
16
3
ACAD_PLOTSETTINGS
350
17
3
ACAD_PLOTSTYLENAME
350
18
3
ACAD_SCALELIST
350
FAB
3
ACAD_TABLESTYLE
350
FA8
3
ACAD_VISUALSTYLE
350
F93
3
ACDB_RECOMPOSE_DATA
350
107E
3
AcDbVariableDictionary
350
FF0
3
DWGPROPS
350
107F
0
DICTIONARY
5
F1000F
330
F1000E
100
AcDbDictionary
280
1
281
1
3
ACAD_MTEXT_2008_RT
360
F10010
0
DICTIONARY
5
F10019
330
F10018
100
AcDbDictionary
280
1
281
1
3
ACAD_MTEXT_2008_RT
360
F1001A
0
DICTIONARY
5
F1001E
330
F1001D
100
AcDbDictionary
280
1
281
1
3
ACAD_MTEXT_2008_RT
360
F1001F
0
DICTIONARY
5
F1000A
330
F10009
100
AcDbDictionary
280
1
281
1
3
ACAD_MTEXT_2008_RT
360
F1000B
0
DICTIONARY
5
F10005
330
F10004
100
AcDbDictionary
280
1
281
1
3
ACAD_MTEXT_2008_RT
360
F10006
0
DICTIONARY
5
F10014
330
F10013
100
AcDbDictionary
280
1
281
1
3
ACAD_MTEXT_2008_RT
360
F10015
0
DICTIONARY
5
FA7
102
{ACAD_REACTORS
330
13
102
}
330
13
100
AcDbDictionary
281
1
0
DICTIONARY
5
14
330
13
100
AcDbDictionary
281
1
0
DICTIONARY
5
FCF
102
{ACAD_REACTORS
330
13
102
}
330
13
100
AcDbDictionary
281
1
3
Layout1
350
FD1
3
Model
350
FD0
0
DICTIONARY
5
F7A
102
{ACAD_REACTORS
330
13
102
}
330
13
100
AcDbDictionary
281
1
3
ByBlock
350
F83
3
ByLayer
350
F7B
3
Global
350
F8B
0
DICTIONARY
5
FCD
102
{ACAD_REACTORS
330
13
102
}
330
13
100
AcDbDictionary
281
1
3
Standard
350
FCE
0
DICTIONARY
5
16
330
13
100
AcDbDictionary
281
1
3
Standard
350
FAA
0
DICTIONARY
5
17
102
{ACAD_REACTORS
330
13
102
}
330
13
100
AcDbDictionary
281
1
0
ACDBDICTIONARYWDFLT
5
18
102
{ACAD_REACTORS
330
13
102
}
330
13
100
AcDbDictionary
281
1
3
Normal
350
19
100
AcDbDictionaryWithDefault
340
19
0
DICTIONARY
5
FAB
102
{ACAD_REACTORS
330
13
102
}
330
13
100
AcDbDictionary
281
1
3
A0
350
FAC
3
A1
350
FAD
3
A2
350
FAE
3
A3
350
FAF
3
A4
350
FB0
3
A5
350
FB1
3
A6
350
FB2
3
A7
350
FB3
3
A8
350
FB4
3
A9
350
FB5
3
B0
350
FB6
3
B1
350
FB7
3
B2
350
FB8
3
B3
350
FB9
3
B4
350
FBA
3
B5
350
FBB
3
B6
350
FBC
3
B7
350
FBD
3
B8
350
FBE
3
B9
350
FBF
3
C0
350
FC0
3
C1
350
FC1
3
C2
350
FC2
3
C3
350
FC3
3
C4
350
FC4
3
C5
350
FC5
3
C6
350
FC6
3
C7
350
FC7
3
C8
350
FC8
3
C9
350
FC9
3
D0
350
FCA
3
D1
350
FCB
3
D2
350
FCC
0
DICTIONARY
5
FA8
102
{ACAD_REACTORS
330
13
102
}
330
13
100
AcDbDictionary
281
1
3
Standard
350
FA9
0
DICTIONARY
5
F93
102
{ACAD_REACTORS
330
13
102
}
330
13
100
AcDbDictionary
281
1
3
2dWireframe
350
F99
3
3D Hidden
350
F9B
3
3dWireframe
350
F9A
3
Basic
350
F98
3
Brighten
350
F9F
3
ColorChange
350
FA3
3
Conceptual
350
F9C
3
Dim
350
F9E
3
EdgeColorOff
350
FA6
3
Facepattern
350
FA2
3
Flat
350
F94
3
FlatWithEdges
350
F95
3
Gouraud
350
F96
3
GouraudWithEdges
350
F97
3
JitterOff
350
FA4
3
Linepattern
350
FA1
3
OverhangOff
350
FA5
3
Realistic
350
F9D
3
Thicken
350
FA0
0
XRECORD
5
107E
102
{ACAD_REACTORS
330
13
102
}
330
13
100
AcDbXrecord
280
1
90
1
330
FA9
330
F1000E
330
F10018
330
F1001D
330
F10009
330
F10004
330
F10013
0
DICTIONARY
5
FF0
102
{ACAD_REACTORS
330
13
102
}
330
13
100
AcDbDictionary
281
1
3
CANNOSCALE
350
FF3
3
CMLEADERSTYLE
350
FF2
3
CTABLESTYLE
350
FF1
3
DIMASSOC
350
FF6
3
INDEXCTL
350
FF5
3
SORTENTS
350
FF4
3
XCLIPFRAME
350
1078
0
XRECORD
5
107F
102
{ACAD_REACTORS
330
13
102
}
330
13
100
AcDbXrecord
280
1
1
DWGPROPS COOKIE
2

3

4

6

7

8

9

300
=
301
=
302
=
303
=
304
=
305
=
306
=
307
=
308
=
309
=
40
0.0
41
0.0
42
0.0
1

90
0
0
XRECORD
5
F10010
102
{ACAD_REACTORS
330
F1000F
102
}
330
F1000F
100
AcDbXrecord
280
1
40
48458.0
1
\A1;106
0
XRECORD
5
F1001A
102
{ACAD_REACTORS
330
F10019
102
}
330
F10019
100
AcDbXrecord
280
1
40
48458.0
1
\A1;42
0
XRECORD
5
F1001F
102
{ACAD_REACTORS
330
F1001E
102
}
330
F1001E
100
AcDbXrecord
280
1
40
48458.0
1
\A1;150
0
XRECORD
5
F1000B
102
{ACAD_REACTORS
330
F1000A
102
}
330
F1000A
100
AcDbXrecord
280
1
40
48458.0
1
\A1;R0.5
0
XRECORD
5
F10006
102
{ACAD_REACTORS
330
F10005
102
}
330
F10005
100
AcDbXrecord
280
1
40
48458.0
1
\A1;10
0
LAYOUT
5
FD1
102
{ACAD_XDICTIONARY
360
10A9
102
}
102
{ACAD_REACTORS
330
FCF
102
}
330
FCF
100
AcDbPlotSettings
1

2
Microsoft XPS Document Writer
4

6

40
0.0
41
0.0
42
0.0
43
0.0
44
0.0
45
0.0
46
0.0
47
0.0
48
0.0
49
0.0
140
0.0
141
0.0
142
1.0
143
1.0
70
688
72
0
73
0
74
5
7

75
16
147
1.0
148
0.0
149
0.0
100
AcDbLayout
1
Layout1
70
1
71
1
10
0.0
20
0.0
11
12.0
21
9.0
12
0.0
22
0.0
32
0.0
14
1.000000000000000E+20
24
1.000000000000000E+20
34
1.000000000000000E+20
15
-1.000000000000000E+20
25
-1.000000000000000E+20
35
-1.000000000000000E+20
146
0.0
13
0.0
23
0.0
33
0.0
16
1.0
26
0.0
36
0.0
17
0.0
27
1.0
37
0.0
76
0
330
25D
0
LAYOUT
5
FD0
102
{ACAD_XDICTIONARY
360
10A7
102
}
102
{ACAD_REACTORS
330
FCF
102
}
330
FCF
100
AcDbPlotSettings
1

2
Microsoft XPS Document Writer
4

6

40
0.0
41
0.0
42
0.0
43
0.0
44
0.0
45
0.0
46
0.0
47
0.0
48
0.0
49
0.0
140
0.0
141
0.0
142
1.0
143
1.0
70
1712
72
0
73
0
74
0
7

75
0
147
1.0
148
0.0
149
0.0
100
AcDbLayout
1
Model
70
1
71
0
10
0.0
20
0.0
11
12.0
21
9.0
12
0.0
22
0.0
32
0.0
14
0.0
24
0.0
34
0.0
15
0.0
25
0.0
35
0.0
146
0.0
13
0.0
23
0.0
33
0.0
16
1.0
26
0.0
36
0.0
17
0.0
27
1.0
37
0.0
76
0
330
261
331
26B
0
MATERIAL
5
F83
102
{ACAD_XDICTIONARY
360
F84
102
}
102
{ACAD_REACTORS
330
F7A
102
}
330
F7A
100
AcDbMaterial
1
ByBlock
72
0
43
0.0208333333333333
43
0.0
43
0.0
43
0.0
43
0.0
43
0.0208333333333333
43
0.0
43
0.0
43
0.0
43
0.0
43
1.0
43
0.0
43
0.0
43
0.0
43
0.0
43
1.0
77
0
47
0.0208333333333333
47
0.0
47
0.0
47
0.0
47
0.0
47
0.0208333333333333
47
0.0
47
0.0
47
0.0
47
0.0
47
1.0
47
0.0
47
0.0
47
0.0
47
0.0
47
1.0
171
0
49
0.0208333333333333
49
0.0
49
0.0
49
0.0
49
0.0
49
0.0208333333333333
49
0.0
49
0.0
49
0.0
49
0.0
49
1.0
49
0.0
49
0.0
49
0.0
49
0.0
49
1.0
175
0
142
0.0208333333333333
142
0.0
142
0.0
142
0.0
142
0.0
142
0.0208333333333333
142
0.0
142
0.0
142
0.0
142
0.0
142
1.0
142
0.0
142
0.0
142
0.0
142
0.0
142
1.0
179
0
144
0.0208333333333333
144
0.0
144
0.0
144
0.0
144
0.0
144
0.0208333333333333
144
0.0
144
0.0
144
0.0
144
0.0
144
1.0
144
0.0
144
0.0
144
0.0
144
0.0
144
1.0
147
0.0208333333333333
147
0.0
147
0.0
147
0.0
147
0.0
147
0.0208333333333333
147
0.0
147
0.0
147
0.0
147
0.0
147
1.0
147
0.0
147
0.0
147
0.0
147
0.0
147
1.0
0
MATERIAL
5
F7B
102
{ACAD_XDICTIONARY
360
F7C
102
}
102
{ACAD_REACTORS
330
F7A
102
}
330
F7A
100
AcDbMaterial
1
ByLayer
72
0
43
0.0208333333333333
43
0.0
43
0.0
43
0.0
43
0.0
43
0.0208333333333333
43
0.0
43
0.0
43
0.0
43
0.0
43
1.0
43
0.0
43
0.0
43
0.0
43
0.0
43
1.0
77
0
47
0.0208333333333333
47
0.0
47
0.0
47
0.0
47
0.0
47
0.0208333333333333
47
0.0
47
0.0
47
0.0
47
0.0
47
1.0
47
0.0
47
0.0
47
0.0
47
0.0
47
1.0
171
0
49
0.0208333333333333
49
0.0
49
0.0
49
0.0
49
0.0
49
0.0208333333333333
49
0.0
49
0.0
49
0.0
49
0.0
49
1.0
49
0.0
49
0.0
49
0.0
49
0.0
49
1.0
175
0
142
0.0208333333333333
142
0.0
142
0.0
142
0.0
142
0.0
142
0.0208333333333333
142
0.0
142
0.0
142
0.0
142
0.0
142
1.0
142
0.0
142
0.0
142
0.0
142
0.0
142
1.0
179
0
144
0.0208333333333333
144
0.0
144
0.0
144
0.0
144
0.0
144
0.0208333333333333
144
0.0
144
0.0
144
0.0
144
0.0
144
1.0
144
0.0
144
0.0
144
0.0
144
0.0
144
1.0
147
0.0208333333333333
147
0.0
147
0.0
147
0.0
147
0.0
147
0.0208333333333333
147
0.0
147
0.0
147
0.0
147
0.0
147
1.0
147
0.0
147
0.0
147
0.0
147
0.0
147
1.0
0
MATERIAL
5
F8B
102
{ACAD_XDICTIONARY
360
F8C
102
}
102
{ACAD_REACTORS
330
F7A
102
}
330
F7A
100
AcDbMaterial
1
Global
72
0
43
0.0208333333333333
43
0.0
43
0.0
43
0.0
43
0.0
43
0.0208333333333333
43
0.0
43
0.0
43
0.0
43
0.0
43
1.0
43
0.0
43
0.0
43
0.0
43
0.0
43
1.0
77
0
47
0.0208333333333333
47
0.0
47
0.0
47
0.0
47
0.0
47
0.0208333333333333
47
0.0
47
0.0
47
0.0
47
0.0
47
1.0
47
0.0
47
0.0
47
0.0
47
0.0
47
1.0
171
0
49
0.0208333333333333
49
0.0
49
0.0
49
0.0
49
0.0
49
0.0208333333333333
49
0.0
49
0.0
49
0.0
49
0.0
49
1.0
49
0.0
49
0.0
49
0.0
49
0.0
49
1.0
175
0
142
0.0208333333333333
142
0.0
142
0.0
142
0.0
142
0.0
142
0.0208333333333333
142
0.0
142
0.0
142
0.0
142
0.0
142
1.0
142
0.0
142
0.0
142
0.0
142
0.0
142
1.0
179
0
144
0.0208333333333333
144
0.0
144
0.0
144
0.0
144
0.0
144
0.0208333333333333
144
0.0
144
0.0
144
0.0
144
0.0
144
1.0
144
0.0
144
0.0
144
0.0
144
0.0
144
1.0
147
0.0208333333333333
147
0.0
147
0.0
147
0.0
147
0.0
147
0.0208333333333333
147
0.0
147
0.0
147
0.0
147
0.0
147
1.0
147
0.0
147
0.0
147
0.0
147
0.0
147
1.0
0
MLEADERSTYLE
5
FCE
102
{ACAD_REACTORS
330
FCD
102
}
330
FCD
100
AcDbMLeaderStyle
170
2
171
1
172
0
90
2
40
0.0
41
0.0
173
1
91
-1056964608
340
256
92
-2
290
1
42
0.09
291
1
43
0.36
3
Standard
44
0.18
300

342
253
174
1
178
6
175
1
176
0
93
-1056964608
45
0.18
292
0
297
0
46
0.18
94
-1056964608
47
1.0
49
1.0
140
1.0
293
1
141
0.0
294
1
177
0
142
1.0
295
0
296
0
143
0.125
1001
ACAD_MLEADERVER
1070
2
0
MLINESTYLE
5
FAA
102
{ACAD_REACTORS
330
16
102
}
330
16
100
AcDbMlineStyle
2
STANDARD
70
0
3

62
256
51
90.0
52
90.0
71
2
49
0.5
62
256
6
BYLAYER
49
-0.5
62
256
6
BYLAYER
0
ACDBPLACEHOLDER
5
19
102
{ACAD_REACTORS
330
18
102
}
330
18
0
SCALE
5
FAC
102
{ACAD_REACTORS
330
FAB
102
}
330
FAB
100
AcDbScale
70
0
300
1:1
140
1.0
141
1.0
290
1
0
SCALE
5
FAD
102
{ACAD_REACTORS
330
FAB
102
}
330
FAB
100
AcDbScale
70
0
300
1:2
140
1.0
141
2.0
290
0
0
SCALE
5
FAE
102
{ACAD_REACTORS
330
FAB
102
}
330
FAB
100
AcDbScale
70
0
300
1:4
140
1.0
141
4.0
290
0
0
SCALE
5
FAF
102
{ACAD_REACTORS
330
FAB
102
}
330
FAB
100
AcDbScale
70
0
300
1:5
140
1.0
141
5.0
290
0
0
SCALE
5
FB0
102
{ACAD_REACTORS
330
FAB
102
}
330
FAB
100
AcDbScale
70
0
300
1:8
140
1.0
141
8.0
290
0
0
SCALE
5
FB1
102
{ACAD_REACTORS
330
FAB
102
}
330
FAB
100
AcDbScale
70
0
300
1:10
140
1.0
141
10.0
290
0
0
SCALE
5
FB2
102
{ACAD_REACTORS
330
FAB
102
}
330
FAB
100
AcDbScale
70
0
300
1:16
140
1.0
141
16.0
290
0
0
SCALE
5
FB3
102
{ACAD_REACTORS
330
FAB
102
}
330
FAB
100
AcDbScale
70
0
300
1:20
140
1.0
141
20.0
290
0
0
SCALE
5
FB4
102
{ACAD_REACTORS
330
FAB
102
}
330
FAB
100
AcDbScale
70
0
300
1:30
140
1.0
141
30.0
290
0
0
SCALE
5
FB5
102
{ACAD_REACTORS
330
FAB
102
}
330
FAB
100
AcDbScale
70
0
300
1:40
140
1.0
141
40.0
290
0
0
SCALE
5
FB6
102
{ACAD_REACTORS
330
FAB
102
}
330
FAB
100
AcDbScale
70
0
300
1:50
140
1.0
141
50.0
290
0
0
SCALE
5
FB7
102
{ACAD_REACTORS
330
FAB
102
}
330
FAB
100
AcDbScale
70
0
300
1:100
140
1.0
141
100.0
290
0
0
SCALE
5
FB8
102
{ACAD_REACTORS
330
FAB
102
}
330
FAB
100
AcDbScale
70
0
300
2:1
140
2.0
141
1.0
290
0
0
SCALE
5
FB9
102
{ACAD_REACTORS
330
FAB
102
}
330
FAB
100
AcDbScale
70
0
300
4:1
140
4.0
141
1.0
290
0
0
SCALE
5
FBA
102
{ACAD_REACTORS
330
FAB
102
}
330
FAB
100
AcDbScale
70
0
300
8:1
140
8.0
141
1.0
290
0
0
SCALE
5
FBB
102
{ACAD_REACTORS
330
FAB
102
}
330
FAB
100
AcDbScale
70
0
300
10:1
140
10.0
141
1.0
290
0
0
SCALE
5
FBC
102
{ACAD_REACTORS
330
FAB
102
}
330
FAB
100
AcDbScale
70
0
300
100:1
140
100.0
141
1.0
290
0
0
SCALE
5
FBD
102
{ACAD_REACTORS
330
FAB
102
}
330
FAB
100
AcDbScale
70
0
300
1/128" = 1'-0"
140
0.0078125
141
12.0
290
0
0
SCALE
5
FBE
102
{ACAD_REACTORS
330
FAB
102
}
330
FAB
100
AcDbScale
70
0
300
1/64" = 1'-0"
140
0.015625
141
12.0
290
0
0
SCALE
5
FBF
102
{ACAD_REACTORS
330
FAB
102
}
330
FAB
100
AcDbScale
70
0
300
1/32" = 1'-0"
140
0.03125
141
12.0
290
0
0
SCALE
5
FC0
102
{ACAD_REACTORS
330
FAB
102
}
330
FAB
100
AcDbScale
70
0
300
1/16" = 1'-0"
140
0.0625
141
12.0
290
0
0
SCALE
5
FC1
102
{ACAD_REACTORS
330
FAB
102
}
330
FAB
100
AcDbScale
70
0
300
3/32" = 1'-0"
140
0.09375
141
12.0
290
0
0
SCALE
5
FC2
102
{ACAD_REACTORS
330
FAB
102
}
330
FAB
100
AcDbScale
70
0
300
1/8" = 1'-0"
140
0.125
141
12.0
290
0
0
SCALE
5
FC3
102
{ACAD_REACTORS
330
FAB
102
}
330
FAB
100
AcDbScale
70
0
300
3/16" = 1'-0"
140
0.1875
141
12.0
290
0
0
SCALE
5
FC4
102
{ACAD_REACTORS
330
FAB
102
}
330
FAB
100
AcDbScale
70
0
300
1/4" = 1'-0"
140
0.25
141
12.0
290
0
0
SCALE
5
FC5
102
{ACAD_REACTORS
330
FAB
102
}
330
FAB
100
AcDbScale
70
0
300
3/8" = 1'-0"
140
0.375
141
12.0
290
0
0
SCALE
5
FC6
102
{ACAD_REACTORS
330
FAB
102
}
330
FAB
100
AcDbScale
70
0
300
1/2" = 1'-0"
140
0.5
141
12.0
290
0
0
SCALE
5
FC7
102
{ACAD_REACTORS
330
FAB
102
}
330
FAB
100
AcDbScale
70
0
300
3/4" = 1'-0"
140
0.75
141
12.0
290
0
0
SCALE
5
FC8
102
{ACAD_REACTORS
330
FAB
102
}
330
FAB
100
AcDbScale
70
0
300
1" = 1'-0"
140
1.0
141
12.0
290
0
0
SCALE
5
FC9
102
{ACAD_REACTORS
330
FAB
102
}
330
FAB
100
AcDbScale
70
0
300
1-1/2" = 1'-0"
140
1.5
141
12.0
290
0
0
SCALE
5
FCA
102
{ACAD_REACTORS
330
FAB
102
}
330
FAB
100
AcDbScale
70
0
300
3" = 1'-0"
140
3.0
141
12.0
290
0
0
SCALE
5
FCB
102
{ACAD_REACTORS
330
FAB
102
}
330
FAB
100
AcDbScale
70
0
300
6" = 1'-0"
140
6.0
141
12.0
290
0
0
SCALE
5
FCC
102
{ACAD_REACTORS
330
FAB
102
}
330
FAB
100
AcDbScale
70
0
300
1'-0" = 1'-0"
140
12.0
141
12.0
290
0
0
TABLESTYLE
5
FA9
102
{ACAD_XDICTIONARY
360
FF8
102
}
102
{ACAD_REACTORS
330
FA8
102
}
330
FA8
100
AcDbTableStyle
3
Standard
70
0
71
0
40
0.06
41
0.06
280
0
281
0
7
Standard
140
0.18
170
2
62
0
63
7
283
0
274
-2
284
1
64
0
275
-2
285
1
65
0
276
-2
286
1
66
0
277
-2
287
1
67
0
278
-2
288
1
68
0
279
-2
289
1
69
0
7
Standard
140
0.25
170
5
62
0
63
7
283
0
274
-2
284
1
64
0
275
-2
285
1
65
0
276
-2
286
1
66
0
277
-2
287
1
67
0
278
-2
288
1
68
0
279
-2
289
1
69
0
7
Standard
140
0.18
170
5
62
0
63
7
283
0
274
-2
284
1
64
0
275
-2
285
1
65
0
276
-2
286
1
66
0
277
-2
287
1
67
0
278
-2
288
1
68
0
279
-2
289
1
69
0
0
VISUALSTYLE
5
F99
102
{ACAD_XDICTIONARY
360
108A
102
}
102
{ACAD_REACTORS
330
F93
102
}
330
F93
100
AcDbVisualStyle
2

70
4
71
0
72
2
73
0
90
0
40
-0.6
41
-30.0
62
5
63
7
74
1
91
4
64
7
65
257
75
1
175
1
42
1.0
92
0
66
257
43
1.0
76
1
77
6
78
2
67
7
79
5
170
0
171
0
290
0
174
0
93
1
44
0.0
173
0
291
0
45
0.0
1001
ACAD
1000
AcDbSavedByObjectVersion
1070
0
0
VISUALSTYLE
5
F9B
102
{ACAD_XDICTIONARY
360
108E
102
}
102
{ACAD_REACTORS
330
F93
102
}
330
F93
100
AcDbVisualStyle
2

70
6
71
1
72
2
73
2
90
0
40
-0.6
41
-30.0
62
5
63
7
74
2
91
2
64
7
65
257
75
2
175
1
42
179.0
92
0
66
257
43
1.0
76
1
77
6
78
2
67
7
79
3
170
0
171
0
290
0
174
0
93
1
44
0.0
173
0
291
0
45
0.0
1001
ACAD
1000
AcDbSavedByObjectVersion
1070
0
0
VISUALSTYLE
5
F9A
102
{ACAD_XDICTIONARY
360
108C
102
}
102
{ACAD_REACTORS
330
F93
102
}
330
F93
100
AcDbVisualStyle
2

70
5
71
0
72
2
73
0
90
0
40
-0.6
41
-30.0
62
5
63
7
74
1
91
4
64
7
65
257
75
1
175
1
42
1.0
92
0
66
257
43
1.0
76
1
77
6
78
2
67
7
79
5
170
0
171
0
290
0
174
0
93
1
44
0.0
173
0
291
0
45
0.0
1001
ACAD
1000
AcDbSavedByObjectVersion
1070
0
0
VISUALSTYLE
5
F98
102
{ACAD_XDICTIONARY
360
1088
102
}
102
{ACAD_REACTORS
330
F93
102
}
330
F93
100
AcDbVisualStyle
2

70
7
71
1
72
0
73
1
90
0
40
-0.6
41
-30.0
62
5
63
7
74
0
91
4
64
7
65
257
75
1
175
1
42
1.0
92
8
66
7
43
1.0
76
1
77
6
78
2
67
7
79
5
170
0
171
0
290
0
174
0
93
1
44
0.0
173
0
291
1
45
0.0
1001
ACAD
1000
AcDbSavedByObjectVersion
1070
0
0
VISUALSTYLE
5
F9F
102
{ACAD_XDICTIONARY
360
1096
102
}
102
{ACAD_REACTORS
330
F93
102
}
330
F93
100
AcDbVisualStyle
2

70
12
71
2
72
2
73
0
90
0
40
-0.6
41
-30.0
62
5
63
7
74
1
91
4
64
7
65
257
75
1
175
1
42
1.0
92
8
66
7
43
1.0
76
1
77
6
78
2
67
7
79
5
170
0
171
0
290
0
174
0
93
1
44
50.0
173
0
291
1
45
0.0
1001
ACAD
1000
AcDbSavedByObjectVersion
1070
0
0
VISUALSTYLE
5
FA3
102
{ACAD_XDICTIONARY
360
109E
102
}
102
{ACAD_REACTORS
330
F93
102
}
330
F93
100
AcDbVisualStyle
2

70
16
71
2
72
2
73
3
90
0
40
-0.6
41
-30.0
62
5
63
8
74
1
91
4
64
7
65
257
75
1
175
1
42
1.0
92
8
66
8
43
1.0
76
1
77
6
78
2
67
7
79
5
170
0
171
0
290
0
174
0
93
1
44
0.0
173
0
291
1
45
0.0
1001
ACAD
1000
AcDbSavedByObjectVersion
1070
0
0
VISUALSTYLE
5
F9C
102
{ACAD_XDICTIONARY
360
1090
102
}
102
{ACAD_REACTORS
330
F93
102
}
330
F93
100
AcDbVisualStyle
2

70
9
71
3
72
2
73
0
90
0
40
-0.6
41
-30.0
62
5
63
7
74
2
91
2
64
7
65
257
75
1
175
1
42
179.0
92
8
66
7
43
1.0
76
1
77
6
78
2
67
7
79
3
170
0
171
0
290
0
174
0
93
1
44
0.0
173
0
291
0
45
0.0
1001
ACAD
1000
AcDbSavedByObjectVersion
1070
0
0
VISUALSTYLE
5
F9E
102
{ACAD_XDICTIONARY
360
1094
102
}
102
{ACAD_REACTORS
330
F93
102
}
330
F93
100
AcDbVisualStyle
2

70
11
71
2
72
2
73
0
90
0
40
-0.6
41
-30.0
62
5
63
7
74
1
91
4
64
7
65
257
75
1
175
1
42
1.0
92
8
66
7
43
1.0
76
1
77
6
78
2
67
7
79
5
170
0
171
0
290
0
174
0
93
1
44
-50.0
173
0
291
1
45
0.0
1001
ACAD
1000
AcDbSavedByObjectVersion
1070
0
0
VISUALSTYLE
5
FA6
102
{ACAD_XDICTIONARY
360
10A4
102
}
102
{ACAD_REACTORS
330
F93
102
}
330
F93
100
AcDbVisualStyle
2

70
22
71
2
72
2
73
0
90
0
40
-0.6
41
-30.0
62
5
63
7
74
1
91
4
64
7
65
257
75
1
175
1
42
1.0
92
8
66
7
43
1.0
76
1
77
6
78
2
67
7
79
5
170
0
171
0
290
0
174
0
93
1
44
0.0
173
0
291
1
45
0.0
1001
ACAD
1000
AcDbSavedByObjectVersion
1070
0
0
VISUALSTYLE
5
FA2
102
{ACAD_XDICTIONARY
360
109C
102
}
102
{ACAD_REACTORS
330
F93
102
}
330
F93
100
AcDbVisualStyle
2

70
15
71
2
72
2
73
0
90
0
40
-0.6
41
-30.0
62
5
63
7
74
1
91
4
64
7
65
257
75
1
175
1
42
1.0
92
8
66
7
43
1.0
76
1
77
6
78
2
67
7
79
5
170
0
171
0
290
0
174
0
93
1
44
0.0
173
0
291
1
45
0.0
1001
ACAD
1000
AcDbSavedByObjectVersion
1070
0
0
VISUALSTYLE
5
F94
102
{ACAD_XDICTIONARY
360
1080
102
}
102
{ACAD_REACTORS
330
F93
102
}
330
F93
100
AcDbVisualStyle
2

70
0
71
2
72
1
73
1
90
2
40
-0.6
41
30.0
62
5
63
7
74
0
91
4
64
7
65
257
75
1
175
1
42
1.0
92
8
66
7
43
1.0
76
1
77
6
78
2
67
7
79
5
170
0
171
0
290
0
174
0
93
13
44
0.0
173
0
291
1
45
0.0
1001
ACAD
1000
AcDbSavedByObjectVersion
1070
0
0
VISUALSTYLE
5
F95
102
{ACAD_XDICTIONARY
360
1082
102
}
102
{ACAD_REACTORS
330
F93
102
}
330
F93
100
AcDbVisualStyle
2

70
1
71
2
72
1
73
1
90
2
40
-0.6
41
30.0
62
5
63
7
74
1
91
4
64
7
65
257
75
1
175
1
42
1.0
92
0
66
257
43
1.0
76
1
77
6
78
2
67
7
79
5
170
0
171
0
290
0
174
0
93
13
44
0.0
173
0
291
1
45
0.0
1001
ACAD
1000
AcDbSavedByObjectVersion
1070
0
0
VISUALSTYLE
5
F96
102
{ACAD_XDICTIONARY
360
1084
102
}
102
{ACAD_REACTORS
330
F93
102
}
330
F93
100
AcDbVisualStyle
2

70
2
71
2
72
2
73
1
90
2
40
-0.6
41
30.0
62
5
63
7
74
0
91
4
64
7
65
257
75
1
175
1
42
1.0
92
0
66
7
43
1.0
76
1
77
6
78
2
67
7
79
5
170
0
171
0
290
0
174
0
93
13
44
0.0
173
0
291
1
45
0.0
1001
ACAD
1000
AcDbSavedByObjectVersion
1070
0
0
VISUALSTYLE
5
F97
102
{ACAD_XDICTIONARY
360
1086
102
}
102
{ACAD_REACTORS
330
F93
102
}
330
F93
100
AcDbVisualStyle
2

70
3
71
2
72
2
73
1
90
2
40
-0.6
41
30.0
62
5
63
7
74
1
91
4
64
7
65
257
75
1
175
1
42
1.0
92
0
66
257
43
1.0
76
1
77
6
78
2
67
7
79
5
170
0
171
0
290
0
174
0
93
13
44
0.0
173
0
291
1
45
0.0
1001
ACAD
1000
AcDbSavedByObjectVersion
1070
0
0
VISUALSTYLE
5
FA4
102
{ACAD_XDICTIONARY
360
10A0
102
}
102
{ACAD_REACTORS
330
F93
102
}
330
F93
100
AcDbVisualStyle
2

70
20
71
2
72
2
73
0
90
0
40
-0.6
41
-30.0
62
5
63
7
74
1
91
4
64
7
65
257
75
1
175
1
42
1.0
92
10
66
7
43
1.0
76
1
77
6
78
2
67
7
79
5
170
0
171
0
290
0
174
0
93
1
44
0.0
173
0
291
1
45
0.0
1001
ACAD
1000
AcDbSavedByObjectVersion
1070
0
0
VISUALSTYLE
5
FA1
102
{ACAD_XDICTIONARY
360
109A
102
}
102
{ACAD_REACTORS
330
F93
102
}
330
F93
100
AcDbVisualStyle
2

70
14
71
2
72
2
73
0
90
0
40
-0.6
41
-30.0
62
5
63
7
74
1
91
4
64
7
65
257
75
7
175
7
42
1.0
92
8
66
7
43
1.0
76
1
77
6
78
2
67
7
79
5
170
0
171
0
290
0
174
0
93
1
44
0.0
173
0
291
1
45
0.0
1001
ACAD
1000
AcDbSavedByObjectVersion
1070
0
0
VISUALSTYLE
5
FA5
102
{ACAD_XDICTIONARY
360
10A2
102
}
102
{ACAD_REACTORS
330
F93
102
}
330
F93
100
AcDbVisualStyle
2

70
21
71
2
72
2
73
0
90
0
40
-0.6
41
-30.0
62
5
63
7
74
1
91
4
64
7
65
257
75
1
175
1
42
1.0
92
9
66
7
43
1.0
76
1
77
6
78
2
67
7
79
5
170
0
171
0
290
0
174
0
93
1
44
0.0
173
0
291
1
45
0.0
1001
ACAD
1000
AcDbSavedByObjectVersion
1070
0
0
VISUALSTYLE
5
F9D
102
{ACAD_XDICTIONARY
360
1092
102
}
102
{ACAD_REACTORS
330
F93
102
}
330
F93
100
AcDbVisualStyle
2

70
8
71
2
72
2
73
0
90
0
40
-0.6
41
-30.0
62
5
63
7
74
1
91
0
64
7
65
257
75
1
175
1
42
1.0
92
8
66
8
43
1.0
76
1
77
6
78
2
67
7
79
5
170
0
171
0
290
0
174
0
93
13
44
0.0
173
0
291
0
45
0.0
1001
ACAD
1000
AcDbSavedByObjectVersion
1070
0
0
VISUALSTYLE
5
FA0
102
{ACAD_XDICTIONARY
360
1098
102
}
102
{ACAD_REACTORS
330
F93
102
}
330
F93
100
AcDbVisualStyle
2

70
13
71
2
72
2
73
0
90
0
40
-0.6
41
-30.0
62
5
63
7
74
1
91
4
64
7
65
257
75
1
175
1
42
1.0
92
12
66
7
43
1.0
76
1
77
6
78
2
67
7
79
5
170
0
171
0
290
0
174
0
93
1
44
0.0
173
0
291
1
45
0.0
1001
ACAD
1000
AcDbSavedByObjectVersion
1070
0
0
DICTIONARYVAR
5
FF3
102
{ACAD_REACTORS
330
FF0
102
}
330
FF0
100
DictionaryVariables
280
0
1
1:1
0
DICTIONARYVAR
5
FF2
102
{ACAD_REACTORS
330
FF0
102
}
330
FF0
100
DictionaryVariables
280
0
1
STANDARD
0
DICTIONARYVAR
5
FF1
102
{ACAD_REACTORS
330
FF0
102
}
330
FF0
100
DictionaryVariables
280
0
1
STANDARD
0
DICTIONARYVAR
5
FF6
102
{ACAD_REACTORS
330
FF0
102
}
330
FF0
100
DictionaryVariables
280
0
1
1
0
DICTIONARYVAR
5
FF5
102
{ACAD_REACTORS
330
FF0
102
}
330
FF0
100
DictionaryVariables
280
0
1
0
0
DICTIONARYVAR
5
FF4
102
{ACAD_REACTORS
330
FF0
102
}
330
FF0
100
DictionaryVariables
280
0
1
127
0
DICTIONARYVAR
5
1078
102
{ACAD_REACTORS
330
FF0
102
}
330
FF0
100
DictionaryVariables
280
0
1
2
0
DICTIONARY
5
10A9
330
FD1
100
AcDbDictionary
280
1
281
1
3
ACAD_XREC_ROUNDTRIP
360
10AA
0
DICTIONARY
5
10A7
330
FD0
100
AcDbDictionary
280
1
281
1
3
ACAD_XREC_ROUNDTRIP
360
10A8
0
DICTIONARY
5
F84
330
F83
100
AcDbDictionary
280
1
281
1
3
ACAD_XREC_ROUNDTRIP
360
FFF
3
BUMPTILE
360
F86
3
DIFFUSETILE
360
F85
3
OPACITYTILE
360
F89
3
REFLECTIONTILE
360
F88
3
REFRACTIONTILE
360
F8A
3
SPECULARTILE
360
F87
0
DICTIONARY
5
F7C
330
F7B
100
AcDbDictionary
280
1
281
1
3
ACAD_XREC_ROUNDTRIP
360
FFE
3
BUMPTILE
360
F7E
3
DIFFUSETILE
360
F7D
3
OPACITYTILE
360
F81
3
REFLECTIONTILE
360
F80
3
REFRACTIONTILE
360
F82
3
SPECULARTILE
360
F7F
0
DICTIONARY
5
F8C
330
F8B
100
AcDbDictionary
280
1
281
1
3
ACAD_XREC_ROUNDTRIP
360
1000
3
BUMPTILE
360
F8E
3
DIFFUSETILE
360
F8D
3
OPACITYTILE
360
F91
3
REFLECTIONTILE
360
F90
3
REFRACTIONTILE
360
F92
3
SPECULARTILE
360
F8F
0
DICTIONARY
5
FF8
330
FA9
100
AcDbDictionary
280
1
281
1
3
ACAD_ROUNDTRIP_2008_TABLESTYLE_CELLSTYLEMAP
360
1079
3
ACAD_XREC_ROUNDTRIP
360
10A6
0
DICTIONARY
5
108A
330
F99
100
AcDbDictionary
280
1
281
1
3
ACAD_XREC_ROUNDTRIP
360
108B
0
DICTIONARY
5
108E
330
F9B
100
AcDbDictionary
280
1
281
1
3
ACAD_XREC_ROUNDTRIP
360
108F
0
DICTIONARY
5
108C
330
F9A
100
AcDbDictionary
280
1
281
1
3
ACAD_XREC_ROUNDTRIP
360
108D
0
DICTIONARY
5
1088
330
F98
100
AcDbDictionary
280
1
281
1
3
ACAD_XREC_ROUNDTRIP
360
1089
0
DICTIONARY
5
1096
330
F9F
100
AcDbDictionary
280
1
281
1
3
ACAD_XREC_ROUNDTRIP
360
1097
0
DICTIONARY
5
109E
330
FA3
100
AcDbDictionary
280
1
281
1
3
ACAD_XREC_ROUNDTRIP
360
109F
0
DICTIONARY
5
1090
330
F9C
100
AcDbDictionary
280
1
281
1
3
ACAD_XREC_ROUNDTRIP
360
1091
0
DICTIONARY
5
1094
330
F9E
100
AcDbDictionary
280
1
281
1
3
ACAD_XREC_ROUNDTRIP
360
1095
0
DICTIONARY
5
10A4
330
FA6
100
AcDbDictionary
280
1
281
1
3
ACAD_XREC_ROUNDTRIP
360
10A5
0
DICTIONARY
5
109C
330
FA2
100
AcDbDictionary
280
1
281
1
3
ACAD_XREC_ROUNDTRIP
360
109D
0
DICTIONARY
5
1080
330
F94
100
AcDbDictionary
280
1
281
1
3
ACAD_XREC_ROUNDTRIP
360
1081
0
DICTIONARY
5
1082
330
F95
100
AcDbDictionary
280
1
281
1
3
ACAD_XREC_ROUNDTRIP
360
1083
0
DICTIONARY
5
1084
330
F96
100
AcDbDictionary
280
1
281
1
3
ACAD_XREC_ROUNDTRIP
360
1085
0
DICTIONARY
5
1086
330
F97
100
AcDbDictionary
280
1
281
1
3
ACAD_XREC_ROUNDTRIP
360
1087
0
DICTIONARY
5
10A0
330
FA4
100
AcDbDictionary
280
1
281
1
3
ACAD_XREC_ROUNDTRIP
360
10A1
0
DICTIONARY
5
109A
330
FA1
100
AcDbDictionary
280
1
281
1
3
ACAD_XREC_ROUNDTRIP
360
109B
0
DICTIONARY
5
10A2
330
FA5
100
AcDbDictionary
280
1
281
1
3
ACAD_XREC_ROUNDTRIP
360
10A3
0
DICTIONARY
5
1092
330
F9D
100
AcDbDictionary
280
1
281
1
3
ACAD_XREC_ROUNDTRIP
360
1093
0
DICTIONARY
5
1098
330
FA0
100
AcDbDictionary
280
1
281
1
3
ACAD_XREC_ROUNDTRIP
360
1099
0
XRECORD
5
10AA
102
{ACAD_REACTORS
330
10A9
102
}
330
10A9
100
AcDbXrecord
280
1
102
SHADEPLOT
70
0
102
SHADEPLOTRESLEVEL
70
2
102
SHADEPLOTCUSTOMDPI
70
300
0
XRECORD
5
10A8
102
{ACAD_REACTORS
330
10A7
102
}
330
10A7
100
AcDbXrecord
280
1
102
SHADEPLOT
70
0
102
SHADEPLOTRESLEVEL
70
2
102
SHADEPLOTCUSTOMDPI
70
300
0
XRECORD
5
FFF
102
{ACAD_REACTORS
330
F84
102
}
330
F84
100
AcDbXrecord
280
1
102
MATERIAL
148
0.0
149
0.0
149
0.0
93
0
94
127
282
0
72
0
77
0
171
0
175
0
179
0
273
0
0
XRECORD
5
F86
102
{ACAD_REACTORS
330
F84
102
}
330
F84
100
AcDbXrecord
280
1
270
1
271
1
0
XRECORD
5
F85
102
{ACAD_REACTORS
330
F84
102
}
330
F84
100
AcDbXrecord
280
1
270
1
271
1
0
XRECORD
5
F89
102
{ACAD_REACTORS
330
F84
102
}
330
F84
100
AcDbXrecord
280
1
270
1
271
1
0
XRECORD
5
F88
102
{ACAD_REACTORS
330
F84
102
}
330
F84
100
AcDbXrecord
280
1
270
1
271
1
0
XRECORD
5
F8A
102
{ACAD_REACTORS
330
F84
102
}
330
F84
100
AcDbXrecord
280
1
270
1
271
1
0
XRECORD
5
F87
102
{ACAD_REACTORS
330
F84
102
}
330
F84
100
AcDbXrecord
280
1
270
1
271
1
0
XRECORD
5
FFE
102
{ACAD_REACTORS
330
F7C
102
}
330
F7C
100
AcDbXrecord
280
1
102
MATERIAL
148
0.0
149
0.0
149
0.0
93
0
94
127
282
0
72
0
77
0
171
0
175
0
179
0
273
0
0
XRECORD
5
F7E
102
{ACAD_REACTORS
330
F7C
102
}
330
F7C
100
AcDbXrecord
280
1
270
1
271
1
0
XRECORD
5
F7D
102
{ACAD_REACTORS
330
F7C
102
}
330
F7C
100
AcDbXrecord
280
1
270
1
271
1
0
XRECORD
5
F81
102
{ACAD_REACTORS
330
F7C
102
}
330
F7C
100
AcDbXrecord
280
1
270
1
271
1
0
XRECORD
5
F80
102
{ACAD_REACTORS
330
F7C
102
}
330
F7C
100
AcDbXrecord
280
1
270
1
271
1
0
XRECORD
5
F82
102
{ACAD_REACTORS
330
F7C
102
}
330
F7C
100
AcDbXrecord
280
1
270
1
271
1
0
XRECORD
5
F7F
102
{ACAD_REACTORS
330
F7C
102
}
330
F7C
100
AcDbXrecord
280
1
270
1
271
1
0
XRECORD
5
1000
102
{ACAD_REACTORS
330
F8C
102
}
330
F8C
100
AcDbXrecord
280
1
102
MATERIAL
148
0.0
149
0.0
149
0.0
93
0
94
127
282
0
72
0
77
0
171
0
175
0
179
0
273
0
0
XRECORD
5
F8E
102
{ACAD_REACTORS
330
F8C
102
}
330
F8C
100
AcDbXrecord
280
1
270
1
271
1
0
XRECORD
5
F8D
102
{ACAD_REACTORS
330
F8C
102
}
330
F8C
100
AcDbXrecord
280
1
270
1
271
1
0
XRECORD
5
F91
102
{ACAD_REACTORS
330
F8C
102
}
330
F8C
100
AcDbXrecord
280
1
270
1
271
1
0
XRECORD
5
F90
102
{ACAD_REACTORS
330
F8C
102
}
330
F8C
100
AcDbXrecord
280
1
270
1
271
1
0
XRECORD
5
F92
102
{ACAD_REACTORS
330
F8C
102
}
330
F8C
100
AcDbXrecord
280
1
270
1
271
1
0
XRECORD
5
F8F
102
{ACAD_REACTORS
330
F8C
102
}
330
F8C
100
AcDbXrecord
280
1
270
1
271
1
0
CELLSTYLEMAP
5
1079
102
{ACAD_REACTORS
330
FF8
102
}
330
FF8
100
AcDbCellStyleMap
90
3
300
CELLSTYLE
1
TABLEFORMAT_BEGIN
90
5
170
1
91
0
92
32768
62
257
93
1
300
CONTENTFORMAT
1
CONTENTFORMAT_BEGIN
90
0
91
0
92
512
93
0
300

40
0.0
140
1.0
94
5
62
0
340
253
144
0.25
309
CONTENTFORMAT_END
171
1
301
MARGIN
1
CELLMARGIN_BEGIN
40
0.06
40
0.06
40
0.06
40
0.06
40
0.18
40
0.18
309
CELLMARGIN_END
94
6
95
1
302
GRIDFORMAT
1
GRIDFORMAT_BEGIN
90
0
91
1
62
0
92
-2
340
0
93
0
40
0.045
309
GRIDFORMAT_END
95
2
302
GRIDFORMAT
1
GRIDFORMAT_BEGIN
90
0
91
1
62
0
92
-2
340
0
93
0
40
0.045
309
GRIDFORMAT_END
95
4
302
GRIDFORMAT
1
GRIDFORMAT_BEGIN
90
0
91
1
62
0
92
-2
340
0
93
0
40
0.045
309
GRIDFORMAT_END
95
8
302
GRIDFORMAT
1
GRIDFORMAT_BEGIN
90
0
91
1
62
0
92
-2
340
0
93
0
40
0.045
309
GRIDFORMAT_END
95
16
302
GRIDFORMAT
1
GRIDFORMAT_BEGIN
90
0
91
1
62
0
92
-2
340
0
93
0
40
0.045
309
GRIDFORMAT_END
95
32
302
GRIDFORMAT
1
GRIDFORMAT_BEGIN
90
0
91
1
62
0
92
-2
340
0
93
0
40
0.045
309
GRIDFORMAT_END
309
TABLEFORMAT_END
1
CELLSTYLE_BEGIN
90
1
91
1
300
_TITLE
309
CELLSTYLE_END
300
CELLSTYLE
1
TABLEFORMAT_BEGIN
90
5
170
1
91
0
92
0
62
257
93
1
300
CONTENTFORMAT
1
CONTENTFORMAT_BEGIN
90
0
91
0
92
512
93
0
300

40
0.0
140
1.0
94
5
62
0
340
253
144
0.18
309
CONTENTFORMAT_END
171
1
301
MARGIN
1
CELLMARGIN_BEGIN
40
0.06
40
0.06
40
0.06
40
0.06
40
0.18
40
0.18
309
CELLMARGIN_END
94
6
95
1
302
GRIDFORMAT
1
GRIDFORMAT_BEGIN
90
0
91
1
62
0
92
-2
340
0
93
0
40
0.045
309
GRIDFORMAT_END
95
2
302
GRIDFORMAT
1
GRIDFORMAT_BEGIN
90
0
91
1
62
0
92
-2
340
0
93
0
40
0.045
309
GRIDFORMAT_END
95
4
302
GRIDFORMAT
1
GRIDFORMAT_BEGIN
90
0
91
1
62
0
92
-2
340
0
93
0
40
0.045
309
GRIDFORMAT_END
95
8
302
GRIDFORMAT
1
GRIDFORMAT_BEGIN
90
0
91
1
62
0
92
-2
340
0
93
0
40
0.045
309
GRIDFORMAT_END
95
16
302
GRIDFORMAT
1
GRIDFORMAT_BEGIN
90
0
91
1
62
0
92
-2
340
0
93
0
40
0.045
309
GRIDFORMAT_END
95
32
302
GRIDFORMAT
1
GRIDFORMAT_BEGIN
90
0
91
1
62
0
92
-2
340
0
93
0
40
0.045
309
GRIDFORMAT_END
309
TABLEFORMAT_END
1
CELLSTYLE_BEGIN
90
2
91
1
300
_HEADER
309
CELLSTYLE_END
300
CELLSTYLE
1
TABLEFORMAT_BEGIN
90
5
170
1
91
0
92
0
62
257
93
1
300
CONTENTFORMAT
1
CONTENTFORMAT_BEGIN
90
0
91
0
92
512
93
0
300

40
0.0
140
1.0
94
2
62
0
340
253
144
0.18
309
CONTENTFORMAT_END
171
1
301
MARGIN
1
CELLMARGIN_BEGIN
40
0.06
40
0.06
40
0.06
40
0.06
40
0.18
40
0.18
309
CELLMARGIN_END
94
6
95
1
302
GRIDFORMAT
1
GRIDFORMAT_BEGIN
90
0
91
1
62
0
92
-2
340
0
93
0
40
0.045
309
GRIDFORMAT_END
95
2
302
GRIDFORMAT
1
GRIDFORMAT_BEGIN
90
0
91
1
62
0
92
-2
340
0
93
0
40
0.045
309
GRIDFORMAT_END
95
4
302
GRIDFORMAT
1
GRIDFORMAT_BEGIN
90
0
91
1
62
0
92
-2
340
0
93
0
40
0.045
309
GRIDFORMAT_END
95
8
302
GRIDFORMAT
1
GRIDFORMAT_BEGIN
90
0
91
1
62
0
92
-2
340
0
93
0
40
0.045
309
GRIDFORMAT_END
95
16
302
GRIDFORMAT
1
GRIDFORMAT_BEGIN
90
0
91
1
62
0
92
-2
340
0
93
0
40
0.045
309
GRIDFORMAT_END
95
32
302
GRIDFORMAT
1
GRIDFORMAT_BEGIN
90
0
91
1
62
0
92
-2
340
0
93
0
40
0.045
309
GRIDFORMAT_END
309
TABLEFORMAT_END
1
CELLSTYLE_BEGIN
90
3
91
2
300
_DATA
309
CELLSTYLE_END
0
XRECORD
5
10A6
102
{ACAD_REACTORS
330
FF8
102
}
330
FF8
100
AcDbXrecord
280
1
102
ACAD_ROUNDTRIP_PRE2007_TABLESTYLE
90
512
91
0
1

92
512
93
0
2

94
512
95
0
3

0
XRECORD
5
108B
102
{ACAD_REACTORS
330
108A
102
}
330
108A
100
AcDbXrecord
280
1
102
RTVSPropertyOp0
70
1
102
RTVSPropertyOp1
70
1
102
RTVSPropertyOp2
70
1
102
RTVSPropertyOp3
70
1
102
RTVSPropertyOp4
70
1
102
RTVSPropertyOp5
70
1
102
RTVSPropertyOp6
70
1
102
RTVSPropertyOp7
70
1
102
RTVSPropertyOp8
70
1
102
RTVSPropertyOp9
70
1
102
RTVSPropertyOp10
70
1
102
RTVSPropertyOp11
70
1
102
RTVSPropertyOp12
70
1
102
RTVSPropertyOp13
70
1
102
RTVSPropertyOp14
70
1
102
RTVSPropertyOp15
70
1
102
RTVSPropertyOp16
70
1
102
RTVSPropertyOp17
70
1
102
RTVSPropertyOp18
70
1
102
RTVSPropertyOp19
70
1
102
RTVSPropertyOp20
70
1
102
RTVSPropertyOp21
70
1
102
RTVSPropertyOp22
70
1
102
RTVSPropertyOp23
70
1
102
RTVSPropertyOp24
70
1
102
RTVSPropertyOp25
70
1
102
RTVSPropertyOp26
70
1
102
RTVSPropertyOp27
70
1
0
XRECORD
5
108F
102
{ACAD_REACTORS
330
108E
102
}
330
108E
100
AcDbXrecord
280
1
102
RTVSPropertyOp0
70
1
102
RTVSPropertyOp1
70
1
102
RTVSPropertyOp2
70
1
102
RTVSPropertyOp3
70
1
102
RTVSPropertyOp4
70
1
102
RTVSPropertyOp5
70
1
102
RTVSPropertyOp6
70
1
102
RTVSPropertyOp7
70
1
102
RTVSPropertyOp8
70
1
102
RTVSPropertyOp9
70
1
102
RTVSPropertyOp10
70
1
102
RTVSPropertyOp11
70
1
102
RTVSPropertyOp12
70
1
102
RTVSPropertyOp13
70
1
102
RTVSPropertyOp14
70
1
102
RTVSPropertyOp15
70
1
102
RTVSPropertyOp16
70
1
102
RTVSPropertyOp17
70
1
102
RTVSPropertyOp18
70
1
102
RTVSPropertyOp19
70
1
102
RTVSPropertyOp20
70
1
102
RTVSPropertyOp21
70
1
102
RTVSPropertyOp22
70
1
102
RTVSPropertyOp23
70
1
102
RTVSPropertyOp24
70
1
102
RTVSPropertyOp25
70
1
102
RTVSPropertyOp26
70
1
102
RTVSPropertyOp27
70
1
0
XRECORD
5
108D
102
{ACAD_REACTORS
330
108C
102
}
330
108C
100
AcDbXrecord
280
1
102
RTVSPropertyOp0
70
1
102
RTVSPropertyOp1
70
1
102
RTVSPropertyOp2
70
1
102
RTVSPropertyOp3
70
1
102
RTVSPropertyOp4
70
1
102
RTVSPropertyOp5
70
1
102
RTVSPropertyOp6
70
1
102
RTVSPropertyOp7
70
1
102
RTVSPropertyOp8
70
1
102
RTVSPropertyOp9
70
1
102
RTVSPropertyOp10
70
1
102
RTVSPropertyOp11
70
1
102
RTVSPropertyOp12
70
1
102
RTVSPropertyOp13
70
1
102
RTVSPropertyOp14
70
1
102
RTVSPropertyOp15
70
1
102
RTVSPropertyOp16
70
1
102
RTVSPropertyOp17
70
1
102
RTVSPropertyOp18
70
1
102
RTVSPropertyOp19
70
1
102
RTVSPropertyOp20
70
1
102
RTVSPropertyOp21
70
1
102
RTVSPropertyOp22
70
1
102
RTVSPropertyOp23
70
1
102
RTVSPropertyOp24
70
1
102
RTVSPropertyOp25
70
1
102
RTVSPropertyOp26
70
1
102
RTVSPropertyOp27
70
1
0
XRECORD
5
1089
102
{ACAD_REACTORS
330
1088
102
}
330
1088
100
AcDbXrecord
280
1
102
RTVSPropertyOp0
70
1
102
RTVSPropertyOp1
70
1
102
RTVSPropertyOp2
70
1
102
RTVSPropertyOp3
70
1
102
RTVSPropertyOp4
70
1
102
RTVSPropertyOp5
70
1
102
RTVSPropertyOp6
70
1
102
RTVSPropertyOp7
70
1
102
RTVSPropertyOp8
70
1
102
RTVSPropertyOp9
70
1
102
RTVSPropertyOp10
70
1
102
RTVSPropertyOp11
70
1
102
RTVSPropertyOp12
70
1
102
RTVSPropertyOp13
70
1
102
RTVSPropertyOp14
70
1
102
RTVSPropertyOp15
70
1
102
RTVSPropertyOp16
70
1
102
RTVSPropertyOp17
70
1
102
RTVSPropertyOp18
70
1
102
RTVSPropertyOp19
70
1
102
RTVSPropertyOp20
70
1
102
RTVSPropertyOp21
70
1
102
RTVSPropertyOp22
70
1
102
RTVSPropertyOp23
70
1
102
RTVSPropertyOp24
70
1
102
RTVSPropertyOp25
70
1
102
RTVSPropertyOp26
70
1
102
RTVSPropertyOp27
70
1
0
XRECORD
5
1097
102
{ACAD_REACTORS
330
1096
102
}
330
1096
100
AcDbXrecord
280
1
102
RTVSPropertyOp0
70
1
102
RTVSPropertyOp1
70
1
102
RTVSPropertyOp2
70
1
102
RTVSPropertyOp3
70
1
102
RTVSPropertyOp4
70
1
102
RTVSPropertyOp5
70
1
102
RTVSPropertyOp6
70
1
102
RTVSPropertyOp7
70
1
102
RTVSPropertyOp8
70
1
102
RTVSPropertyOp9
70
1
102
RTVSPropertyOp10
70
1
102
RTVSPropertyOp11
70
1
102
RTVSPropertyOp12
70
1
102
RTVSPropertyOp13
70
1
102
RTVSPropertyOp14
70
1
102
RTVSPropertyOp15
70
1
102
RTVSPropertyOp16
70
1
102
RTVSPropertyOp17
70
1
102
RTVSPropertyOp18
70
1
102
RTVSPropertyOp19
70
1
102
RTVSPropertyOp20
70
1
102
RTVSPropertyOp21
70
1
102
RTVSPropertyOp22
70
1
102
RTVSPropertyOp23
70
1
102
RTVSPropertyOp24
70
1
102
RTVSPropertyOp25
70
1
102
RTVSPropertyOp26
70
1
102
RTVSPropertyOp27
70
1
0
XRECORD
5
109F
102
{ACAD_REACTORS
330
109E
102
}
330
109E
100
AcDbXrecord
280
1
102
RTVSPropertyOp0
70
1
102
RTVSPropertyOp1
70
1
102
RTVSPropertyOp2
70
1
102
RTVSPropertyOp3
70
1
102
RTVSPropertyOp4
70
1
102
RTVSPropertyOp5
70
1
102
RTVSPropertyOp6
70
1
102
RTVSPropertyOp7
70
1
102
RTVSPropertyOp8
70
1
102
RTVSPropertyOp9
70
1
102
RTVSPropertyOp10
70
1
102
RTVSPropertyOp11
70
1
102
RTVSPropertyOp12
70
1
102
RTVSPropertyOp13
70
1
102
RTVSPropertyOp14
70
1
102
RTVSPropertyOp15
70
1
102
RTVSPropertyOp16
70
1
102
RTVSPropertyOp17
70
1
102
RTVSPropertyOp18
70
1
102
RTVSPropertyOp19
70
1
102
RTVSPropertyOp20
70
1
102
RTVSPropertyOp21
70
1
102
RTVSPropertyOp22
70
1
102
RTVSPropertyOp23
70
1
102
RTVSPropertyOp24
70
1
102
RTVSPropertyOp25
70
1
102
RTVSPropertyOp26
70
1
102
RTVSPropertyOp27
70
1
0
XRECORD
5
1091
102
{ACAD_REACTORS
330
1090
102
}
330
1090
100
AcDbXrecord
280
1
102
RTVSPropertyOp0
70
1
102
RTVSPropertyOp1
70
1
102
RTVSPropertyOp2
70
1
102
RTVSPropertyOp3
70
1
102
RTVSPropertyOp4
70
1
102
RTVSPropertyOp5
70
1
102
RTVSPropertyOp6
70
1
102
RTVSPropertyOp7
70
1
102
RTVSPropertyOp8
70
1
102
RTVSPropertyOp9
70
1
102
RTVSPropertyOp10
70
1
102
RTVSPropertyOp11
70
1
102
RTVSPropertyOp12
70
1
102
RTVSPropertyOp13
70
1
102
RTVSPropertyOp14
70
1
102
RTVSPropertyOp15
70
1
102
RTVSPropertyOp16
70
1
102
RTVSPropertyOp17
70
1
102
RTVSPropertyOp18
70
1
102
RTVSPropertyOp19
70
1
102
RTVSPropertyOp20
70
1
102
RTVSPropertyOp21
70
1
102
RTVSPropertyOp22
70
1
102
RTVSPropertyOp23
70
1
102
RTVSPropertyOp24
70
1
102
RTVSPropertyOp25
70
1
102
RTVSPropertyOp26
70
1
102
RTVSPropertyOp27
70
1
0
XRECORD
5
1095
102
{ACAD_REACTORS
330
1094
102
}
330
1094
100
AcDbXrecord
280
1
102
RTVSPropertyOp0
70
1
102
RTVSPropertyOp1
70
1
102
RTVSPropertyOp2
70
1
102
RTVSPropertyOp3
70
1
102
RTVSPropertyOp4
70
1
102
RTVSPropertyOp5
70
1
102
RTVSPropertyOp6
70
1
102
RTVSPropertyOp7
70
1
102
RTVSPropertyOp8
70
1
102
RTVSPropertyOp9
70
1
102
RTVSPropertyOp10
70
1
102
RTVSPropertyOp11
70
1
102
RTVSPropertyOp12
70
1
102
RTVSPropertyOp13
70
1
102
RTVSPropertyOp14
70
1
102
RTVSPropertyOp15
70
1
102
RTVSPropertyOp16
70
1
102
RTVSPropertyOp17
70
1
102
RTVSPropertyOp18
70
1
102
RTVSPropertyOp19
70
1
102
RTVSPropertyOp20
70
1
102
RTVSPropertyOp21
70
1
102
RTVSPropertyOp22
70
1
102
RTVSPropertyOp23
70
1
102
RTVSPropertyOp24
70
1
102
RTVSPropertyOp25
70
1
102
RTVSPropertyOp26
70
1
102
RTVSPropertyOp27
70
1
0
XRECORD
5
10A5
102
{ACAD_REACTORS
330
10A4
102
}
330
10A4
100
AcDbXrecord
280
1
102
RTVSPropertyOp0
70
0
102
RTVSPropertyOp1
70
0
102
RTVSPropertyOp2
70
0
102
RTVSPropertyOp3
70
0
102
RTVSPropertyOp4
70
0
102
RTVSPropertyOp5
70
0
102
RTVSPropertyOp6
70
0
102
RTVSPropertyOp7
70
0
102
RTVSPropertyOp8
70
0
102
RTVSPropertyOp9
70
0
102
RTVSPropertyOp10
70
0
102
RTVSPropertyOp11
70
0
102
RTVSPropertyOp12
70
0
102
RTVSPropertyOp13
70
0
102
RTVSPropertyOp14
70
2
102
RTVSPropertyOp15
70
0
102
RTVSPropertyOp16
70
0
102
RTVSPropertyOp17
70
0
102
RTVSPropertyOp18
70
0
102
RTVSPropertyOp19
70
0
102
RTVSPropertyOp20
70
0
102
RTVSPropertyOp21
70
0
102
RTVSPropertyOp22
70
0
102
RTVSPropertyOp23
70
0
102
RTVSPropertyOp24
70
0
102
RTVSPropertyOp25
70
0
102
RTVSPropertyOp26
70
0
102
RTVSPropertyOp27
70
0
0
XRECORD
5
109D
102
{ACAD_REACTORS
330
109C
102
}
330
109C
100
AcDbXrecord
280
1
102
RTVSPropertyOp0
70
1
102
RTVSPropertyOp1
70
1
102
RTVSPropertyOp2
70
1
102
RTVSPropertyOp3
70
1
102
RTVSPropertyOp4
70
1
102
RTVSPropertyOp5
70
1
102
RTVSPropertyOp6
70
1
102
RTVSPropertyOp7
70
1
102
RTVSPropertyOp8
70
1
102
RTVSPropertyOp9
70
1
102
RTVSPropertyOp10
70
1
102
RTVSPropertyOp11
70
1
102
RTVSPropertyOp12
70
1
102
RTVSPropertyOp13
70
1
102
RTVSPropertyOp14
70
1
102
RTVSPropertyOp15
70
1
102
RTVSPropertyOp16
70
1
102
RTVSPropertyOp17
70
1
102
RTVSPropertyOp18
70
1
102
RTVSPropertyOp19
70
1
102
RTVSPropertyOp20
70
1
102
RTVSPropertyOp21
70
1
102
RTVSPropertyOp22
70
1
102
RTVSPropertyOp23
70
1
102
RTVSPropertyOp24
70
1
102
RTVSPropertyOp25
70
1
102
RTVSPropertyOp26
70
1
102
RTVSPropertyOp27
70
1
0
XRECORD
5
1081
102
{ACAD_REACTORS
330
1080
102
}
330
1080
100
AcDbXrecord
280
1
102
RTVSPropertyOp0
70
1
102
RTVSPropertyOp1
70
1
102
RTVSPropertyOp2
70
1
102
RTVSPropertyOp3
70
1
102
RTVSPropertyOp4
70
1
102
RTVSPropertyOp5
70
1
102
RTVSPropertyOp6
70
1
102
RTVSPropertyOp7
70
1
102
RTVSPropertyOp8
70
1
102
RTVSPropertyOp9
70
1
102
RTVSPropertyOp10
70
1
102
RTVSPropertyOp11
70
1
102
RTVSPropertyOp12
70
1
102
RTVSPropertyOp13
70
1
102
RTVSPropertyOp14
70
1
102
RTVSPropertyOp15
70
1
102
RTVSPropertyOp16
70
1
102
RTVSPropertyOp17
70
1
102
RTVSPropertyOp18
70
1
102
RTVSPropertyOp19
70
1
102
RTVSPropertyOp20
70
1
102
RTVSPropertyOp21
70
1
102
RTVSPropertyOp22
70
1
102
RTVSPropertyOp23
70
1
102
RTVSPropertyOp24
70
1
102
RTVSPropertyOp25
70
1
102
RTVSPropertyOp26
70
1
102
RTVSPropertyOp27
70
1
0
XRECORD
5
1083
102
{ACAD_REACTORS
330
1082
102
}
330
1082
100
AcDbXrecord
280
1
102
RTVSPropertyOp0
70
1
102
RTVSPropertyOp1
70
1
102
RTVSPropertyOp2
70
1
102
RTVSPropertyOp3
70
1
102
RTVSPropertyOp4
70
1
102
RTVSPropertyOp5
70
1
102
RTVSPropertyOp6
70
1
102
RTVSPropertyOp7
70
1
102
RTVSPropertyOp8
70
1
102
RTVSPropertyOp9
70
1
102
RTVSPropertyOp10
70
1
102
RTVSPropertyOp11
70
1
102
RTVSPropertyOp12
70
1
102
RTVSPropertyOp13
70
1
102
RTVSPropertyOp14
70
1
102
RTVSPropertyOp15
70
1
102
RTVSPropertyOp16
70
1
102
RTVSPropertyOp17
70
1
102
RTVSPropertyOp18
70
1
102
RTVSPropertyOp19
70
1
102
RTVSPropertyOp20
70
1
102
RTVSPropertyOp21
70
1
102
RTVSPropertyOp22
70
1
102
RTVSPropertyOp23
70
1
102
RTVSPropertyOp24
70
1
102
RTVSPropertyOp25
70
1
102
RTVSPropertyOp26
70
1
102
RTVSPropertyOp27
70
1
0
XRECORD
5
1085
102
{ACAD_REACTORS
330
1084
102
}
330
1084
100
AcDbXrecord
280
1
102
RTVSPropertyOp0
70
1
102
RTVSPropertyOp1
70
1
102
RTVSPropertyOp2
70
1
102
RTVSPropertyOp3
70
1
102
RTVSPropertyOp4
70
1
102
RTVSPropertyOp5
70
1
102
RTVSPropertyOp6
70
1
102
RTVSPropertyOp7
70
1
102
RTVSPropertyOp8
70
1
102
RTVSPropertyOp9
70
1
102
RTVSPropertyOp10
70
1
102
RTVSPropertyOp11
70
1
102
RTVSPropertyOp12
70
1
102
RTVSPropertyOp13
70
1
102
RTVSPropertyOp14
70
1
102
RTVSPropertyOp15
70
1
102
RTVSPropertyOp16
70
1
102
RTVSPropertyOp17
70
1
102
RTVSPropertyOp18
70
1
102
RTVSPropertyOp19
70
1
102
RTVSPropertyOp20
70
1
102
RTVSPropertyOp21
70
1
102
RTVSPropertyOp22
70
1
102
RTVSPropertyOp23
70
1
102
RTVSPropertyOp24
70
1
102
RTVSPropertyOp25
70
1
102
RTVSPropertyOp26
70
1
102
RTVSPropertyOp27
70
1
0
XRECORD
5
1087
102
{ACAD_REACTORS
330
1086
102
}
330
1086
100
AcDbXrecord
280
1
102
RTVSPropertyOp0
70
1
102
RTVSPropertyOp1
70
1
102
RTVSPropertyOp2
70
1
102
RTVSPropertyOp3
70
1
102
RTVSPropertyOp4
70
1
102
RTVSPropertyOp5
70
1
102
RTVSPropertyOp6
70
1
102
RTVSPropertyOp7
70
1
102
RTVSPropertyOp8
70
1
102
RTVSPropertyOp9
70
1
102
RTVSPropertyOp10
70
1
102
RTVSPropertyOp11
70
1
102
RTVSPropertyOp12
70
1
102
RTVSPropertyOp13
70
1
102
RTVSPropertyOp14
70
1
102
RTVSPropertyOp15
70
1
102
RTVSPropertyOp16
70
1
102
RTVSPropertyOp17
70
1
102
RTVSPropertyOp18
70
1
102
RTVSPropertyOp19
70
1
102
RTVSPropertyOp20
70
1
102
RTVSPropertyOp21
70
1
102
RTVSPropertyOp22
70
1
102
RTVSPropertyOp23
70
1
102
RTVSPropertyOp24
70
1
102
RTVSPropertyOp25
70
1
102
RTVSPropertyOp26
70
1
102
RTVSPropertyOp27
70
1
0
XRECORD
5
10A1
102
{ACAD_REACTORS
330
10A0
102
}
330
10A0
100
AcDbXrecord
280
1
102
RTVSPropertyOp0
70
0
102
RTVSPropertyOp1
70
0
102
RTVSPropertyOp2
70
0
102
RTVSPropertyOp3
70
0
102
RTVSPropertyOp4
70
0
102
RTVSPropertyOp5
70
0
102
RTVSPropertyOp6
70
0
102
RTVSPropertyOp7
70
0
102
RTVSPropertyOp8
70
0
102
RTVSPropertyOp9
70
0
102
RTVSPropertyOp10
70
0
102
RTVSPropertyOp11
70
0
102
RTVSPropertyOp12
70
0
102
RTVSPropertyOp13
70
0
102
RTVSPropertyOp14
70
2
102
RTVSPropertyOp15
70
0
102
RTVSPropertyOp16
70
0
102
RTVSPropertyOp17
70
0
102
RTVSPropertyOp18
70
0
102
RTVSPropertyOp19
70
0
102
RTVSPropertyOp20
70
0
102
RTVSPropertyOp21
70
0
102
RTVSPropertyOp22
70
0
102
RTVSPropertyOp23
70
0
102
RTVSPropertyOp24
70
0
102
RTVSPropertyOp25
70
0
102
RTVSPropertyOp26
70
0
102
RTVSPropertyOp27
70
0
0
XRECORD
5
109B
102
{ACAD_REACTORS
330
109A
102
}
330
109A
100
AcDbXrecord
280
1
102
RTVSPropertyOp0
70
1
102
RTVSPropertyOp1
70
1
102
RTVSPropertyOp2
70
1
102
RTVSPropertyOp3
70
1
102
RTVSPropertyOp4
70
1
102
RTVSPropertyOp5
70
1
102
RTVSPropertyOp6
70
1
102
RTVSPropertyOp7
70
1
102
RTVSPropertyOp8
70
1
102
RTVSPropertyOp9
70
1
102
RTVSPropertyOp10
70
1
102
RTVSPropertyOp11
70
1
102
RTVSPropertyOp12
70
1
102
RTVSPropertyOp13
70
1
102
RTVSPropertyOp14
70
1
102
RTVSPropertyOp15
70
1
102
RTVSPropertyOp16
70
1
102
RTVSPropertyOp17
70
1
102
RTVSPropertyOp18
70
1
102
RTVSPropertyOp19
70
1
102
RTVSPropertyOp20
70
1
102
RTVSPropertyOp21
70
1
102
RTVSPropertyOp22
70
1
102
RTVSPropertyOp23
70
1
102
RTVSPropertyOp24
70
1
102
RTVSPropertyOp25
70
1
102
RTVSPropertyOp26
70
1
102
RTVSPropertyOp27
70
1
0
XRECORD
5
10A3
102
{ACAD_REACTORS
330
10A2
102
}
330
10A2
100
AcDbXrecord
280
1
102
RTVSPropertyOp0
70
0
102
RTVSPropertyOp1
70
0
102
RTVSPropertyOp2
70
0
102
RTVSPropertyOp3
70
0
102
RTVSPropertyOp4
70
0
102
RTVSPropertyOp5
70
0
102
RTVSPropertyOp6
70
0
102
RTVSPropertyOp7
70
0
102
RTVSPropertyOp8
70
0
102
RTVSPropertyOp9
70
0
102
RTVSPropertyOp10
70
0
102
RTVSPropertyOp11
70
0
102
RTVSPropertyOp12
70
0
102
RTVSPropertyOp13
70
0
102
RTVSPropertyOp14
70
2
102
RTVSPropertyOp15
70
0
102
RTVSPropertyOp16
70
0
102
RTVSPropertyOp17
70
0
102
RTVSPropertyOp18
70
0
102
RTVSPropertyOp19
70
0
102
RTVSPropertyOp20
70
0
102
RTVSPropertyOp21
70
0
102
RTVSPropertyOp22
70
0
102
RTVSPropertyOp23
70
0
102
RTVSPropertyOp24
70
0
102
RTVSPropertyOp25
70
0
102
RTVSPropertyOp26
70
0
102
RTVSPropertyOp27
70
0
0
XRECORD
5
1093
102
{ACAD_REACTORS
330
1092
102
}
330
1092
100
AcDbXrecord
280
1
102
RTVSPropertyOp0
70
1
102
RTVSPropertyOp1
70
1
102
RTVSPropertyOp2
70
1
102
RTVSPropertyOp3
70
1
102
RTVSPropertyOp4
70
1
102
RTVSPropertyOp5
70
1
102
RTVSPropertyOp6
70
1
102
RTVSPropertyOp7
70
1
102
RTVSPropertyOp8
70
1
102
RTVSPropertyOp9
70
1
102
RTVSPropertyOp10
70
1
102
RTVSPropertyOp11
70
1
102
RTVSPropertyOp12
70
1
102
RTVSPropertyOp13
70
1
102
RTVSPropertyOp14
70
1
102
RTVSPropertyOp15
70
1
102
RTVSPropertyOp16
70
1
102
RTVSPropertyOp17
70
1
102
RTVSPropertyOp18
70
1
102
RTVSPropertyOp19
70
1
102
RTVSPropertyOp20
70
1
102
RTVSPropertyOp21
70
1
102
RTVSPropertyOp22
70
1
102
RTVSPropertyOp23
70
1
102
RTVSPropertyOp24
70
1
102
RTVSPropertyOp25
70
1
102
RTVSPropertyOp26
70
1
102
RTVSPropertyOp27
70
1
0
XRECORD
5
1099
102
{ACAD_REACTORS
330
1098
102
}
330
1098
100
AcDbXrecord
280
1
102
RTVSPropertyOp0
70
1
102
RTVSPropertyOp1
70
1
102
RTVSPropertyOp2
70
1
102
RTVSPropertyOp3
70
1
102
RTVSPropertyOp4
70
1
102
RTVSPropertyOp5
70
1
102
RTVSPropertyOp6
70
1
102
RTVSPropertyOp7
70
1
102
RTVSPropertyOp8
70
1
102
RTVSPropertyOp9
70
1
102
RTVSPropertyOp10
70
1
102
RTVSPropertyOp11
70
1
102
RTVSPropertyOp12
70
1
102
RTVSPropertyOp13
70
1
102
RTVSPropertyOp14
70
1
102
RTVSPropertyOp15
70
1
102
RTVSPropertyOp16
70
1
102
RTVSPropertyOp17
70
1
102
RTVSPropertyOp18
70
1
102
RTVSPropertyOp19
70
1
102
RTVSPropertyOp20
70
1
102
RTVSPropertyOp21
70
1
102
RTVSPropertyOp22
70
1
102
RTVSPropertyOp23
70
1
102
RTVSPropertyOp24
70
1
102
RTVSPropertyOp25
70
1
102
RTVSPropertyOp26
70
1
102
RTVSPropertyOp27
70
1
0
ENDSEC
0
EOF
