0
SECTION
2
HEADER
9
$ACADVER
1
AC1015
9
$ACADMAINTVER
70
20
9
$DWGCODEPAGE
3
ANSI_1252
9
$INSBASE
10
0.0
20
0.0
30
0.0
9
$EXTMIN
10
-150.000000000000
20
-105.000000000000
30
0.0
9
$EXTMAX
10
150.000000000000
20
105.000000000000
30
0.0
9
$LIMMIN
10
0.0
20
0.0
9
$LIMMAX
10
12.0
20
9.0
9
$ORTHOMODE
70
0
9
$REGENMODE
70
1
9
$FILLMODE
70
1
9
$QTEXTMODE
70
0
9
$MIRRTEXT
70
1
9
$LTSCALE
40
1.0
9
$ATTMODE
70
1
9
$TEXTSIZE
40
0.2
9
$TRACEWID
40
0.05
9
$TEXTSTYLE
7
Standard
9
$CLAYER
8
0
9
$CELTYPE
6
ByLayer
9
$CECOLOR
62
256
9
$CELTSCALE
40
1.0
9
$DISPSILH
70
0
9
$DIMSCALE
40
1.0
9
$DIMASZ
40
2.5
9
$DIMEXO
40
0.625
9
$DIMDLI
40
0.38
9
$DIMRND
40
0.0
9
$DIMDLE
40
0.0
9
$DIMEXE
40
1.25
9
$DIMTP
40
0.0
9
$DIMTM
40
0.000000001
9
$DIMTXT
40
2.5
9
$DIMCEN
40
0.09
9
$DIMTSZ
40
0.0
9
$DIMTOL
70
1
9
$DIMLIM
70
0
9
$DIMTIH
70
0
9
$DIMTOH
70
0
9
$DIMSE1
70
0
9
$DIMSE2
70
0
9
$DIMTAD
70
1
9
$DIMZIN
70
0
9
$DIMBLK
1
VDDIM_DEFAULT
9
$DIMASO
70
1
9
$DIMSHO
70
1
9
$DIMPOST
1

9
$DIMAPOST
1

9
$DIMALT
70
0
9
$DIMALTD
70
2
9
$DIMALTF
40
25.4
9
$DIMLFAC
40
1.00000000000000
9
$DIMTOFL
70
0
9
$DIMTVP
40
0.0
9
$DIMTIX
70
0
9
$DIMSOXD
70
0
9
$DIMSAH
70
0
9
$DIMBLK1
1

9
$DIMBLK2
1

9
$DIMSTYLE
2
BEM-ISBE
9
$DIMCLRD
70
0
9
$DIMCLRE
70
0
9
$DIMCLRT
70
0
9
$DIMTFAC
40
0.5
9
$DIMGAP
40
0.625
9
$DIMJUST
70
0
9
$DIMSD1
70
0
9
$DIMSD2
70
0
9
$DIMTOLJ
70
1
9
$DIMTZIN
70
0
9
$DIMALTZ
70
0
9
$DIMALTTZ
70
0
9
$DIMUPT
70
0
9
$DIMDEC
70
3
9
$DIMTDEC
70
3
9
$DIMALTU
70
2
9
$DIMALTTD
70
2
9
$DIMTXSTY
7
Standard
9
$DIMAUNIT
70
0
9
$DIMADEC
70
3
9
$DIMALTRND
40
0.0
9
$DIMAZIN
70
0
9
$DIMDSEP
70
46
9
$DIMATFIT
70
3
9
$DIMFRAC
70
0
9
$DIMLDRBLK
1

9
$DIMLUNIT
70
2
9
$DIMLWD
70
-2
9
$DIMLWE
70
-2
9
$DIMTMOVE
70
0
9
$LUNITS
70
2
9
$LUPREC
70
4
9
$SKETCHINC
40
0.1
9
$FILLETRAD
40
0.5
9
$AUNITS
70
0
9
$AUPREC
70
0
9
$MENU
1
.
9
$ELEVATION
40
0.0
9
$PELEVATION
40
0.0
9
$THICKNESS
40
0.0
9
$LIMCHECK
70
0
9
$CHAMFERA
40
0.5
9
$CHAMFERB
40
0.5
9
$CHAMFERC
40
1.0
9
$CHAMFERD
40
0.0
9
$SKPOLY
70
0
9
$TDCREATE
40
0.0
9
$TDUCREATE
40
0.0
9
$TDUPDATE
40
0.0
9
$TDUUPDATE
40
0.0
9
$TDINDWG
40
0.0
9
$TDUSRTIMER
40
0.0
9
$USRTIMER
70
1
9
$ANGBASE
50
0.0
9
$ANGDIR
70
0
9
$PDMODE
70
0
9
$PDSIZE
40
0.0
9
$PLINEWID
40
0.0
9
$SPLFRAME
70
0
9
$SPLINETYPE
70
6
9
$SPLINESEGS
70
8
9
$HANDSEED
5
10AB
9
$SURFTAB1
70
6
9
$SURFTAB2
70
6
9
$SURFTYPE
70
6
9
$SURFU
70
6
9
$SURFV
70
6
9
$UCSBASE
2

9
$UCSNAME
2

9
$UCSORG
10
0.0
20
0.0
30
0.0
9
$UCSXDIR
10
1.0
20
0.0
30
0.0
9
$UCSYDIR
10
0.0
20
1.0
30
0.0
9
$UCSORTHOREF
2

9
$UCSORTHOVIEW
70
0
9
$UCSORGTOP
10
0.0
20
0.0
30
0.0
9
$UCSORGBOTTOM
10
0.0
20
0.0
30
0.0
9
$UCSORGLEFT
10
0.0
20
0.0
30
0.0
9
$UCSORGRIGHT
10
0.0
20
0.0
30
0.0
9
$UCSORGFRONT
10
0.0
20
0.0
30
0.0
9
$UCSORGBACK
10
0.0
20
0.0
30
0.0
9
$PUCSBASE
2

9
$PUCSNAME
2

9
$PUCSORG
10
0.0
20
0.0
30
0.0
9
$PUCSXDIR
10
1.0
20
0.0
30
0.0
9
$PUCSYDIR
10
0.0
20
1.0
30
0.0
9
$PUCSORTHOREF
2

9
$PUCSORTHOVIEW
70
0
9
$PUCSORGTOP
10
0.0
20
0.0
30
0.0
9
$PUCSORGBOTTOM
10
0.0
20
0.0
30
0.0
9
$PUCSORGLEFT
10
0.0
20
0.0
30
0.0
9
$PUCSORGRIGHT
10
0.0
20
0.0
30
0.0
9
$PUCSORGFRONT
10
0.0
20
0.0
30
0.0
9
$PUCSORGBACK
10
0.0
20
0.0
30
0.0
9
$USERI1
70
0
9
$USERI2
70
0
9
$USERI3
70
0
9
$USERI4
70
0
9
$USERI5
70
0
9
$USERR1
40
0.0
9
$USERR2
40
0.0
9
$USERR3
40
0.0
9
$USERR4
40
0.0
9
$USERR5
40
0.0
9
$WORLDVIEW
70
1
9
$SHADEDGE
70
3
9
$SHADEDIF
70
70
9
$TILEMODE
70
1
9
$MAXACTVP
70
64
9
$PINSBASE
10
0.0
20
0.0
30
0.0
9
$PLIMCHECK
70
0
9
$PEXTMIN
10
1.000000000000000E+20
20
1.000000000000000E+20
30
1.000000000000000E+20
9
$PEXTMAX
10
-1.000000000000000E+20
20
-1.000000000000000E+20
30
-1.000000000000000E+20
9
$PLIMMIN
10
0.0
20
0.0
9
$PLIMMAX
10
12.0
20
9.0
9
$UNITMODE
70
0
9
$VISRETAIN
70
1
9
$PLINEGEN
70
0
9
$PSLTSCALE
70
1
9
$TREEDEPTH
70
3020
9
$CMLSTYLE
2
Standard
9
$CMLJUST
70
0
9
$CMLSCALE
40
1.0
9
$PROXYGRAPHICS
70
1
9
$MEASUREMENT
70
0
9
$CELWEIGHT
370
-1
9
$ENDCAPS
280
0
9
$JOINSTYLE
280
0
9
$LWDISPLAY
290
0
9
$INSUNITS
70
4
9
$HYPERLINKBASE
1

9
$STYLESHEET
1

9
$XEDIT
290
1
9
$CEPSNTYPE
380
0
9
$PSTYLEMODE
290
0
9
$FINGERPRINTGUID
2
{FAEB1C30-E019-11D5-929B-00C0DF256EC4}
9
$VERSIONGUID
2
{04C5C4E4-4947-4D90-8812-D401569E61F7}
9
$EXTNAMES
290
1
9
$PSVPSCALE
40
0.0
9
$OLESTARTUP
290
0
0
ENDSEC
0
SECTION
2
TABLES
0
TABLE
2
VPORT
5
24A
330
0
100
AcDbSymbolTable
70
1
0
VPORT
5
26B
330
24A
100
AcDbSymbolTableRecord
100
AcDbViewportTableRecord
2
*Active
70
0
10
0.0
20
0.0
11
1.0
21
1.0
12
0.000000000000000
22
0.000000000000000
13
0.0
23
0.0
14
10.0
24
10.0
15
10.0
25
10.0
16
0.0
26
0.0
36
1.0
17
0.0
27
0.0
37
0.0
40
210.000000000000
41
1.42857142857143
42
1.0
43
0.0
44
0.0
50
0.0
51
0.0000000000007958
71
0
72
100
73
1
74
3
75
0
76
0
77
0
78
1
281
0
65
1
110
0.0
120
0.0
130
0.0
111
1.0
121
0.0
131
0.0
112
0.0
122
1.0
132
0.0
79
0
146
0.0
0
ENDTAB
0
TABLE
2
LTYPE
5
247
330
0
100
AcDbSymbolTable
70
25
0
LTYPE
5
256
330
247
100
AcDbSymbolTableRecord
100
AcDbLinetypeTableRecord
2
ByBlock
70
0
3

72
65
73
0
40
0.0
0
LTYPE
5
257
330
247
100
AcDbSymbolTableRecord
100
AcDbLinetypeTableRecord
2
ByLayer
70
0
3

72
65
73
0
40
0.0
0
LTYPE
5
258
330
247
100
AcDbSymbolTableRecord
100
AcDbLinetypeTableRecord
2
Continuous
70
0
3
Solid line
72
65
73
0
40
0.0
0
LTYPE
5
273
330
247
100
AcDbSymbolTableRecord
100
AcDbLinetypeTableRecord
2
CENTER
70
0
3
Center ____ _ ____ _ ____ _ ____ _ ____ _ ____
72
65
73
4
40
2.0
49
1.25
74
0
49
-0.25
74
0
49
0.25
74
0
49
-0.25
74
0
0
LTYPE
5
274
330
247
100
AcDbSymbolTableRecord
100
AcDbLinetypeTableRecord
2
DASHDOT
70
0
3
Dashdot __ . __ . __ . __ . __ . __ . __ . __
72
65
73
4
40
1.0
49
0.5
74
0
49
-0.25
74
0
49
0.0
74
0
49
-0.25
74
0
0
LTYPE
5
275
330
247
100
AcDbSymbolTableRecord
100
AcDbLinetypeTableRecord
2
DASHED
70
0
3
Dashed __ __ __ __ __ __ __ __ __ __ __ __ __ _
72
65
73
2
40
0.75
49
0.5
74
0
49
-0.25
74
0
0
LTYPE
5
276
330
247
100
AcDbSymbolTableRecord
100
AcDbLinetypeTableRecord
2
HIDDEN
70
0
3
Hidden __ __ __ __ __ __ __ __ __ __ __ __ __ __
72
65
73
2
40
0.375
49
0.25
74
0
49
-0.125
74
0
0
LTYPE
5
277
330
247
100
AcDbSymbolTableRecord
100
AcDbLinetypeTableRecord
2
HIDDEN2
70
0
3
Hidden2 _ _ _ _ _ _ _ _ _ _ _ _ _ _ _ _ _
72
65
73
2
40
0.1875
49
0.125
74
0
49
-0.0625
74
0
0
LTYPE
5
278
330
247
100
AcDbSymbolTableRecord
100
AcDbLinetypeTableRecord
2
BORDER
70
0
3
Border __ __ . __ __ . __ __ . __ __ . __ __ .
72
65
73
6
40
1.75
49
0.5
74
0
49
-0.25
74
0
49
0.5
74
0
49
-0.25
74
0
49
0.0
74
0
49
-0.25
74
0
0
LTYPE
5
279
330
247
100
AcDbSymbolTableRecord
100
AcDbLinetypeTableRecord
2
BORDER2
70
0
3
Border2 __.__.__.__.__.__.__.__.__.__.__.
72
65
73
6
40
0.875
49
0.25
74
0
49
-0.125
74
0
49
0.25
74
0
49
-0.125
74
0
49
0.0
74
0
49
-0.125
74
0
0
LTYPE
5
27A
330
247
100
AcDbSymbolTableRecord
100
AcDbLinetypeTableRecord
2
BORDERX2
70
0
3
Borderx2  ____  ____  .  ____  ____  .  ___
72
65
73
6
40
3.5
49
1.0
74
0
49
-0.5
74
0
49
1.0
74
0
49
-0.5
74
0
49
0.0
74
0
49
-0.5
74
0
0
LTYPE
5
27B
330
247
100
AcDbSymbolTableRecord
100
AcDbLinetypeTableRecord
2
CENTER2
70
0
3
Center2  ___ _ ___ _ ___ _ ___ _ ___ _ ___
72
65
73
4
40
1.125
49
0.75
74
0
49
-0.125
74
0
49
0.125
74
0
49
-0.125
74
0
0
LTYPE
5
27C
330
247
100
AcDbSymbolTableRecord
100
AcDbLinetypeTableRecord
2
CENTERX2
70
0
3
Centerx2  ________  __  ________  __  _____
72
65
73
4
40
4.0
49
2.5
74
0
49
-0.5
74
0
49
0.5
74
0
49
-0.5
74
0
0
LTYPE
5
27D
330
247
100
AcDbSymbolTableRecord
100
AcDbLinetypeTableRecord
2
DASHDOT2
70
0
3
Dashdot2  _._._._._._._._._._._._._._._.
72
65
73
4
40
0.5
49
0.25
74
0
49
-0.125
74
0
49
0.0
74
0
49
-0.125
74
0
0
LTYPE
5
27E
330
247
100
AcDbSymbolTableRecord
100
AcDbLinetypeTableRecord
2
DASHDOTX2
70
0
3
Dashdotx2 ____  .  ____  .  ____  .  ___
72
65
73
4
40
2.0
49
1.0
74
0
49
-0.5
74
0
49
0.0
74
0
49
-0.5
74
0
0
LTYPE
5
27F
330
247
100
AcDbSymbolTableRecord
100
AcDbLinetypeTableRecord
2
DASHED2
70
0
3
Dashed2 _ _ _ _ _ _ _ _ _ _ _ _ _ _ _ _ _
72
65
73
2
40
0.375
49
0.25
74
0
49
-0.125
74
0
0
LTYPE
5
280
330
247
100
AcDbSymbolTableRecord
100
AcDbLinetypeTableRecord
2
DASHEDX2
70
0
3
Dashedx2 ____  ____  ____  ____  ____  ___
72
65
73
2
40
1.5
49
1.0
74
0
49
-0.5
74
0
0
LTYPE
5
281
330
247
100
AcDbSymbolTableRecord
100
AcDbLinetypeTableRecord
2
DIVIDE
70
0
3
Divide ____ . . ____ . . ____ . . ____ . . ____
72
65
73
6
40
1.25
49
0.5
74
0
49
-0.25
74
0
49
0.0
74
0
49
-0.25
74
0
49
0.0
74
0
49
-0.25
74
0
0
LTYPE
5
282
330
247
100
AcDbSymbolTableRecord
100
AcDbLinetypeTableRecord
2
DIVIDE2
70
0
3
Divide2 __..__..__..__..__..__..__..__.._
72
65
73
6
40
0.625
49
0.25
74
0
49
-0.125
74
0
49
0.0
74
0
49
-0.125
74
0
49
0.0
74
0
49
-0.125
74
0
0
LTYPE
5
283
330
247
100
AcDbSymbolTableRecord
100
AcDbLinetypeTableRecord
2
DIVIDEX2
70
0
3
Dividex2 ________  .  .  ________  .  .  _
72
65
73
6
40
2.5
49
1.0
74
0
49
-0.5
74
0
49
0.0
74
0
49
-0.5
74
0
49
0.0
74
0
49
-0.5
74
0
0
LTYPE
5
284
330
247
100
AcDbSymbolTableRecord
100
AcDbLinetypeTableRecord
2
DOT
70
0
3
Dot . . . . . . . . . . . . . . . . . . . . . . . .
72
65
73
2
40
0.25
49
0.0
74
0
49
-0.25
74
0
0
LTYPE
5
285
330
247
100
AcDbSymbolTableRecord
100
AcDbLinetypeTableRecord
2
DOT2
70
0
3
Dot2 ........................................
72
65
73
2
40
0.125
49
0.0
74
0
49
-0.125
74
0
0
LTYPE
5
286
330
247
100
AcDbSymbolTableRecord
100
AcDbLinetypeTableRecord
2
DOTX2
70
0
3
Dotx2 .  .  .  .  .  .  .  .  .  .  .  .  .  .
72
65
73
2
40
0.5
49
0.0
74
0
49
-0.5
74
0
0
LTYPE
5
287
330
247
100
AcDbSymbolTableRecord
100
AcDbLinetypeTableRecord
2
HIDDENX2
70
0
3
Hiddenx2 ____ ____ ____ ____ ____ ____ ____
72
65
73
2
40
0.75
49
0.5
74
0
49
-0.25
74
0
0
LTYPE
5
288
330
247
100
AcDbSymbolTableRecord
100
AcDbLinetypeTableRecord
2
PHANTOM
70
0
3
Phantom ______  __  __  ______  __  __  ______
72
65
73
6
40
2.5
49
1.25
74
0
49
-0.25
74
0
49
0.25
74
0
49
-0.25
74
0
49
0.25
74
0
49
-0.25
74
0
0
LTYPE
5
289
330
247
100
AcDbSymbolTableRecord
100
AcDbLinetypeTableRecord
2
PHANTOM2
70
0
3
Phantom2 ___ _ _ ___ _ _ ___ _ _ ___ _ _
72
65
73
6
40
1.25
49
0.625
74
0
49
-0.125
74
0
49
0.125
74
0
49
-0.125
74
0
49
0.125
74
0
49
-0.125
74
0
0
LTYPE
5
28A
330
247
100
AcDbSymbolTableRecord
100
AcDbLinetypeTableRecord
2
PHANTOMX2
70
0
3
Phantomx2 ____________    ____    ____   _
72
65
73
6
40
5.0
49
2.5
74
0
49
-0.5
74
0
49
0.5
74
0
49
-0.5
74
0
49
0.5
74
0
49
-0.5
74
0
0
ENDTAB
0
TABLE
2
LAYER
5
244
330
0
100
AcDbSymbolTable
70
6
0
LAYER
5
252
330
244
100
AcDbSymbolTableRecord
100
AcDbLayerTableRecord
2
0
70
0
62
7
6
Continuous
370
0
390
251
0
LAYER
5
23F
330
244
100
AcDbSymbolTableRecord
100
AcDbLayerTableRecord
2
Bemassung
70
0
 62
   7
6
Continuous
370
0
390
251
0
LAYER
5
240
330
244
100
AcDbSymbolTableRecord
100
AcDbLayerTableRecord
2
Rahmen
70
0
 62
   7
6
Continuous
370
0
390
251
0
LAYER
5
241
330
244
100
AcDbSymbolTableRecord
100
AcDbLayerTableRecord
2
Geo
70
0
 62
   7
6
Continuous
370
0
390
251
0
LAYER
5
33A
330
244
100
AcDbSymbolTableRecord
100
AcDbLayerTableRecord
2
Defpoints
70
0
62
7
6
Continuous
290
0
370
-3
390
251
0
LAYER
5
57E
330
244
100
AcDbSymbolTableRecord
100
AcDbLayerTableRecord
2
Text
70
0
 62
   7
6
Continuous
370
0
390
251
1001
AcAecLayerStandard
1000

1000

0
ENDTAB
0
TABLE
2
STYLE
5
245
330
0
100
AcDbSymbolTable
70
2
0
STYLE
5
253
330
245
100
AcDbSymbolTableRecord
100
AcDbTextStyleTableRecord
2
Standard
70
0
40
0.0
41
1.0
50
0.0
71
0
42
0.2
3
Arial
4

1001
ACAD
1000
Arial
1071
0
0
STYLE
5
132
330
245
100
AcDbSymbolTableRecord
100
AcDbTextStyleTableRecord
2
Beschriftung
70
0
40
0.0
41
1.0
50
0.0
71
0
42
0.2
3
Arial
4

1001
ACAD
1000
Arial
1071
0
1001
AcadAnnotative
1000
AnnotativeData
1070
1
1070
1
0
ENDTAB
0
TABLE
2
VIEW
5
248
330
0
100
AcDbSymbolTable
70
0
0
ENDTAB
0
TABLE
2
UCS
5
249
330
0
100
AcDbSymbolTable
70
0
0
ENDTAB
0
TABLE
2
APPID
5
24B
330
0
100
AcDbSymbolTable
70
13
0
APPID
5
254
330
24B
100
AcDbSymbolTableRecord
100
AcDbRegAppTableRecord
2
ACAD
70
0
0
APPID
5
26C
330
24B
100
AcDbSymbolTableRecord
100
AcDbRegAppTableRecord
2
VD_INVISIBLE_NOT_FOR_READ
70
0
0
APPID
5
26D
330
24B
100
AcDbSymbolTableRecord
100
AcDbRegAppTableRecord
2
VD_TEMPHATCH
70
0
0
APPID
5
26E
330
24B
100
AcDbSymbolTableRecord
100
AcDbRegAppTableRecord
2
VDEXTRAPARAM
70
0
0
APPID
5
26F
330
24B
100
AcDbSymbolTableRecord
100
AcDbRegAppTableRecord
2
PE_URL
70
0
0
APPID
5
270
330
24B
100
AcDbSymbolTableRecord
100
AcDbRegAppTableRecord
2
VD_UNKNOWN
70
0
0
APPID
5
28F
330
24B
100
AcDbSymbolTableRecord
100
AcDbRegAppTableRecord
2
AcadAnnotative
70
0
0
APPID
5
290
330
24B
100
AcDbSymbolTableRecord
100
AcDbRegAppTableRecord
2
ACAD_DSTYLE_DIMJAG
70
0
0
APPID
5
291
330
24B
100
AcDbSymbolTableRecord
100
AcDbRegAppTableRecord
2
ACAD_DSTYLE_DIMTALN
70
0
0
APPID
5
293
330
24B
100
AcDbSymbolTableRecord
100
AcDbRegAppTableRecord
2
ACAD_PSEXT
70
0
0
APPID
5
42A
330
24B
100
AcDbSymbolTableRecord
100
AcDbRegAppTableRecord
2
ACAD_MLEADERVER
70
0
0
APPID
5
532
330
24B
100
AcDbSymbolTableRecord
100
AcDbRegAppTableRecord
2
ACAD_EXEMPT_FROM_CAD_STANDARDS
70
0
0
APPID
5
57F
330
24B
100
AcDbSymbolTableRecord
100
AcDbRegAppTableRecord
2
AcAecLayerStandard
70
0
0
ENDTAB
0
TABLE
2
DIMSTYLE
5
24C
330
0
100
AcDbSymbolTable
70
3
100
AcDbDimStyleTable
71
2
340
27
340
269
0
DIMSTYLE
105
269
330
24C
100
AcDbSymbolTableRecord
100
AcDbDimStyleTableRecord
2
Standard
70
0
172
1
174
1
288
1
340
253
342
23C
0
DIMSTYLE
105
137
330
24C
100
AcDbSymbolTableRecord
100
AcDbDimStyleTableRecord
2
Beschriftung
70
0
41
2.5
42
0.625
44
1.25
73
0
74
0
77
1
140
2.5
147
0.625
172
1
174
1
271
2
288
1
340
253
342
23C
1001
AcadAnnotative
1000
AnnotativeData
1070
1
1070
1
1001
ACAD_DSTYLE_DIMJAG
1070
388
1040
1.5
1001
ACAD_DSTYLE_DIMTALN
1070
392
1070
0
0
DIMSTYLE
105
27
102
{ACAD_REACTORS
330
F10012
330
F1001C
330
F10021
330
F10003
330
F1000D
330
F10008
330
F10017
102
}
330
24C
100
AcDbSymbolTableRecord
100
AcDbDimStyleTableRecord
2
BEM-ISBE
70
0
41
2.5
42
0.625
44
1.25
48
0.000000001
71
1
73
0
74
0
77
1
140
2.5
144
1.00000000000000
146
0.5
147
0.625
171
 3
172
 1
179
 3
271
 3
272
 3
274
 3
340
253
342
23C
1001
ACAD_DSTYLE_DIMJAG
1070
388
1040
1.5
1001
ACAD_DSTYLE_DIMTALN
1070
392
1070
1
0
ENDTAB
0
TABLE
2
BLOCK_RECORD
5
243
330
0
100
AcDbSymbolTable
70
5
0
BLOCK_RECORD
5
261
330
243
100
AcDbSymbolTableRecord
100
AcDbBlockTableRecord
2
*Model_Space
340
FD0
0
BLOCK_RECORD
5
25D
330
243
100
AcDbSymbolTableRecord
100
AcDbBlockTableRecord
2
*Paper_Space
340
FD1
0
BLOCK_RECORD
5
265
330
243
100
AcDbSymbolTableRecord
100
AcDbBlockTableRecord
2
*Paper_Space0
340
0
0
BLOCK_RECORD
5
23C
330
243
100
AcDbSymbolTableRecord
100
AcDbBlockTableRecord
2
VDDIM_DEFAULT
340
0
102
{BLKREFS
102
}
0
BLOCK_RECORD
5
23E
330
243
100
AcDbSymbolTableRecord
100
AcDbBlockTableRecord
2
VDDIM_NONE
340
0
0
BLOCK_RECORD
5
F10011
330
243
100
AcDbSymbolTableRecord
100
AcDbBlockTableRecord
2
*D6
340
0
0
BLOCK_RECORD
5
F1001B
330
243
100
AcDbSymbolTableRecord
100
AcDbBlockTableRecord
2
*D8
340
0
0
BLOCK_RECORD
5
F10020
330
243
100
AcDbSymbolTableRecord
100
AcDbBlockTableRecord
2
*D9
340
0
0
BLOCK_RECORD
5
F10002
330
243
100
AcDbSymbolTableRecord
100
AcDbBlockTableRecord
2
*D3
340
0
0
BLOCK_RECORD
5
F1000C
330
243
100
AcDbSymbolTableRecord
100
AcDbBlockTableRecord
2
*D5
340
0
0
BLOCK_RECORD
5
F10007
330
243
100
AcDbSymbolTableRecord
100
AcDbBlockTableRecord
2
*D4
340
0
0
BLOCK_RECORD
5
F10016
330
243
100
AcDbSymbolTableRecord
100
AcDbBlockTableRecord
2
*D7
340
0
0
ENDTAB
0
ENDSEC
0
SECTION
2
BLOCKS
0
BLOCK
5
262
330
261
100
AcDbEntity
8
0
100
AcDbBlockBegin
2
*Model_Space
70
0
10
0.0
20
0.0
30
0.0
3
*Model_Space
1

0
ENDBLK
5
263
330
261
100
AcDbEntity
8
0
100
AcDbBlockEnd
0
BLOCK
5
25E
330
25D
100
AcDbEntity
67
1
8
0
100
AcDbBlockBegin
2
*Paper_Space
70
0
10
0.0
20
0.0
30
0.0
3
*Paper_Space
1

0
ENDBLK
5
25F
330
25D
100
AcDbEntity
67
1
8
0
100
AcDbBlockEnd
0
BLOCK
5
266
330
265
100
AcDbEntity
8
0
100
AcDbBlockBegin
2
*Paper_Space0
70
0
10
0.0
20
0.0
30
0.0
3
*Paper_Space0
1

0
VIEWPORT
5
296
102
{ACAD_XDICTIONARY
360
58E
102
}
330
265
100
AcDbEntity
8
0
60
1
100
AcDbViewport
10
0.0
20
0.0
30
0.0
40
10.0
41
10.0
69
0
12
0.0
22
0.0
13
0.0
23
0.0
14
1.0
24
1.0
15
0.0
25
0.0
16
0.0
26
0.0
36
1.0
17
0.0
27
0.0
37
0.0
42
0.0
43
0.0
44
0.0
45
10.0
50
0.0
51
0.0000000000007958
72
100
90
163872
1

281
0
71
0
74
0
110
0.0
120
0.0
130
0.0
111
1.0
121
0.0
131
0.0
112
0.0
122
1.0
132
0.0
79
0
146
0.0
1001
VD_INVISIBLE_NOT_FOR_READ
1000
VD_INVISIBLE_NOT_FOR_READ
0
VIEWPORT
5
297
102
{ACAD_XDICTIONARY
360
590
102
}
330
265
100
AcDbEntity
8
0
60
1
100
AcDbViewport
10
0.0
20
0.0
30
0.0
40
10.0
41
10.0
69
0
12
0.0
22
0.0
13
0.0
23
0.0
14
1.0
24
1.0
15
0.0
25
0.0
16
0.0
26
0.0
36
1.0
17
0.0
27
0.0
37
0.0
42
0.0
43
0.0
44
0.0
45
10.0
50
0.0
51
0.0000000000007958
72
100
90
163872
1

281
0
71
0
74
0
110
0.0
120
0.0
130
0.0
111
1.0
121
0.0
131
0.0
112
0.0
122
1.0
132
0.0
79
0
146
0.0
1001
VD_INVISIBLE_NOT_FOR_READ
1000
VD_INVISIBLE_NOT_FOR_READ
0
ENDBLK
5
267
330
265
100
AcDbEntity
8
0
100
AcDbBlockEnd
0
BLOCK
5
28B
330
23C
100
AcDbEntity
8
0
100
AcDbBlockBegin
2
VDDIM_DEFAULT
70
0
10
0.0
20
0.0
30
0.0
3
VDDIM_DEFAULT
1

0
LWPOLYLINE
5
23D
330
23C
100
AcDbEntity
8
0
6
Continuous
62
0
100
AcDbPolyline
90
4
70
0
43
0.0
10
0.0
20
0.0
10
-1.0
20
-0.1665
10
-1.0
20
0.1665
10
0.0
20
0.0
1001
VDEXTRAPARAM
1071
1
1071
0
1071
0
1040
1.0
1000

1000

1040
0.0
1040
0.0
0
HATCH
5
292
330
23C
100
AcDbEntity
8
0
6
Continuous
62
0
100
AcDbHatch
10
0.0
20
0.0
30
0.0
210
0.0
220
0.0
230
1.0
2
SOLID
70
1
71
0
91
1
92
2
72
0
73
1
93
3
10
0.0
20
0.0
10
-1.0
20
-0.1665
10
-1.0
20
0.1665
97
0
75
0
76
1
98
1
10
0.0
20
0.0
1001
VDEXTRAPARAM
1071
1
1071
0
1071
0
1040
1.0
1000

1000

1040
0.0
1040
0.0
1001
VD_TEMPHATCH
1000
VD_TEMPHATCH
0
ENDBLK
5
28C
330
23C
100
AcDbEntity
8
0
100
AcDbBlockEnd
0
BLOCK
5
28D
330
23E
100
AcDbEntity
8
0
100
AcDbBlockBegin
2
VDDIM_NONE
70
0
10
0.0
20
0.0
30
0.0
3
VDDIM_NONE
1

0
ENDBLK
5
28E
330
23E
100
AcDbEntity
8
0
100
AcDbBlockEnd
  0
BLOCK
  5
F10025
330
F10011
100
AcDbEntity
  8
0
100
AcDbBlockBegin
  2
*D6
 70
     1
 10
0.0
 20
0.0
 30
0.0
  3
*D6
  1

  0
LINE
  5
F10026
330
F10011
100
AcDbEntity
  8
Bemassung
 62
     0
370
    -2
100
AcDbLine
10
-65.6912400829437
20
13.9113221957711
30
0.000000000000000
11
-65.6912400829437
21
25.9113221957711
31
0.000000000000000
  0
LINE
  5
F10027
330
F10011
100
AcDbEntity
  8
Bemassung
 62
     0
370
    -2
100
AcDbLine
10
4.30875991705635
20
13.7113221957711
30
0.000000000000000
11
4.30875991705635
21
30.9113221957711
31
0.000000000000000
  0
LINE
  5
F10028
330
F10011
100
AcDbEntity
  8
Bemassung
 62
     0
370
    -2
100
AcDbLine
10
-65.6912400829437
20
23.9113221957711
30
0.000000000000000
11
24.0726546908215
21
23.9113221957711
31
0.000000000000000
  0
INSERT
  5
F10029
330
F10011
100
AcDbEntity
  8
Bemassung
 62
     0
370
    -2
100
AcDbBlockReference
  2
VDDIM_DEFAULT
10
-65.6912400829437
20
23.9113221957711
30
0.000000000000000
 41
2.50000000000000
 42
2.50000000000000
 43
2.50000000000000
 50
180.000000000000
  0
INSERT
  5
F1002A
330
F10011
100
AcDbEntity
  8
Bemassung
 62
     0
370
    -2
100
AcDbBlockReference
  2
VDDIM_DEFAULT
10
4.30875991705635
20
23.9113221957711
30
0.000000000000000
 41
2.50000000000000
 42
2.50000000000000
 43
2.50000000000000
  0
MTEXT
  5
F1002B
330
F10011
100
AcDbEntity
  8
Bemassung
 62
     0
100
AcDbMText
10
-30.6912400829437
20
24.5779888624377
30
0.000000000000000
 40
2.50000000000000
 41
0.0
 71
     8
 72
     1
  1
70
 11
1.00000000000000
 21
0.000000000000000
 31
0.0
 73
     1
 44
1.0
1001
ACAD
1000
MTEXTBEGIN
1070
73
1070
1
1070
44
1040
1.0
1070
74
1070
0
1000
MTEXTEND
  0
POINT
  5
F1002C
330
F10011
100
AcDbEntity
  8
Bemassung
 62
     0
100
AcDbPoint
10
-65.6912400829437
20
13.9113221957711
30
0.000000000000000
  0
POINT
  5
F1002D
330
F10011
100
AcDbEntity
  8
Bemassung
 62
     0
100
AcDbPoint
10
4.30875991705635
20
13.7113221957711
30
0.000000000000000
  0
ENDBLK
  5
F1002E
330
F10011
100
AcDbEntity
  8
0
100
AcDbBlockEnd
  0
BLOCK
  5
F1002F
330
F1001B
100
AcDbEntity
  8
0
100
AcDbBlockBegin
  2
*D8
 70
     1
 10
0.0
 20
0.0
 30
0.0
  3
*D8
  1

  0
LINE
  5
F10030
330
F1001B
100
AcDbEntity
  8
Bemassung
 62
     0
370
    -2
100
AcDbLine
10
-65.6912400829437
20
-2.08867780422892
30
0.000000000000000
11
-65.6912400829437
21
-9.08867780422892
31
0.000000000000000
  0
LINE
  5
F10031
330
F1001B
100
AcDbEntity
  8
Bemassung
 62
     0
370
    -2
100
AcDbLine
10
-84.6912400829437
20
-9.08867780422892
30
0.000000000000000
11
-84.6912400829437
21
30.9113221957711
31
0.000000000000000
  0
LINE
  5
F10032
330
F1001B
100
AcDbEntity
  8
Bemassung
 62
     0
370
    -2
100
AcDbLine
10
-64.8842036863996
20
-7.08867780422892
30
0.000000000000000
11
-84.6912400829437
21
-7.08867780422892
31
0.000000000000000
  0
INSERT
  5
F10033
330
F1001B
100
AcDbEntity
  8
Bemassung
 62
     0
370
    -2
100
AcDbBlockReference
  2
VDDIM_DEFAULT
10
-65.6912400829437
20
-7.08867780422892
30
0.000000000000000
 41
2.50000000000000
 42
2.50000000000000
 43
2.50000000000000
  0
INSERT
  5
F10034
330
F1001B
100
AcDbEntity
  8
Bemassung
 62
     0
370
    -2
100
AcDbBlockReference
  2
VDDIM_DEFAULT
10
-84.6912400829437
20
-7.08867780422892
30
0.000000000000000
 41
2.50000000000000
 42
2.50000000000000
 43
2.50000000000000
 50
180.000000000000
  0
MTEXT
  5
F10035
330
F1001B
100
AcDbEntity
  8
Bemassung
 62
     0
100
AcDbMText
10
-75.1912400829437
20
-6.42201113756226
30
0.000000000000000
 40
2.50000000000000
 41
0.0
 71
     8
 72
     1
  1
19
 11
1.00000000000000
 21
0.000000000000000
 31
0.0
 73
     1
 44
1.0
1001
ACAD
1000
MTEXTBEGIN
1070
73
1070
1
1070
44
1040
1.0
1070
74
1070
0
1000
MTEXTEND
  0
POINT
  5
F10036
330
F1001B
100
AcDbEntity
  8
Bemassung
 62
     0
100
AcDbPoint
10
-65.6912400829437
20
-2.08867780422892
30
0.000000000000000
  0
POINT
  5
F10037
330
F1001B
100
AcDbEntity
  8
Bemassung
 62
     0
100
AcDbPoint
10
-84.6912400829437
20
-9.08867780422892
30
0.000000000000000
  0
ENDBLK
  5
F10038
330
F1001B
100
AcDbEntity
  8
0
100
AcDbBlockEnd
  0
BLOCK
  5
F10039
330
F10020
100
AcDbEntity
  8
0
100
AcDbBlockBegin
  2
*D9
 70
     1
 10
0.0
 20
0.0
 30
0.0
  3
*D9
  1

  0
LINE
  5
F1003A
330
F10020
100
AcDbEntity
  8
Bemassung
 62
     0
370
    -2
100
AcDbLine
10
4.30875991705635
20
13.7113221957711
30
0.000000000000000
11
4.30875991705635
21
30.9113221957711
31
0.000000000000000
  0
LINE
  5
F1003B
330
F10020
100
AcDbEntity
  8
Bemassung
 62
     0
370
    -2
100
AcDbLine
10
-84.6912400829437
20
-9.08867780422892
30
0.000000000000000
11
-84.6912400829437
21
30.9113221957711
31
0.000000000000000
  0
LINE
  5
F1003C
330
F10020
100
AcDbEntity
  8
Bemassung
 62
     0
370
    -2
100
AcDbLine
10
5.12676804808554
20
28.9113221957711
30
0.000000000000000
11
-84.6912400829437
21
28.9113221957711
31
0.000000000000000
  0
INSERT
  5
F1003D
330
F10020
100
AcDbEntity
  8
Bemassung
 62
     0
370
    -2
100
AcDbBlockReference
  2
VDDIM_DEFAULT
10
4.30875991705635
20
28.9113221957711
30
0.000000000000000
 41
2.50000000000000
 42
2.50000000000000
 43
2.50000000000000
  0
INSERT
  5
F1003E
330
F10020
100
AcDbEntity
  8
Bemassung
 62
     0
370
    -2
100
AcDbBlockReference
  2
VDDIM_DEFAULT
10
-84.6912400829437
20
28.9113221957711
30
0.000000000000000
 41
2.50000000000000
 42
2.50000000000000
 43
2.50000000000000
 50
180.000000000000
  0
MTEXT
  5
F1003F
330
F10020
100
AcDbEntity
  8
Bemassung
 62
     0
100
AcDbMText
10
-40.1912400829437
20
29.5779888624377
30
0.000000000000000
 40
2.50000000000000
 41
0.0
 71
     8
 72
     1
  1
89
 11
1.00000000000000
 21
0.000000000000000
 31
0.0
 73
     1
 44
1.0
1001
ACAD
1000
MTEXTBEGIN
1070
73
1070
1
1070
44
1040
1.0
1070
74
1070
0
1000
MTEXTEND
  0
POINT
  5
F10040
330
F10020
100
AcDbEntity
  8
Bemassung
 62
     0
100
AcDbPoint
10
4.30875991705635
20
13.7113221957711
30
0.000000000000000
  0
POINT
  5
F10041
330
F10020
100
AcDbEntity
  8
Bemassung
 62
     0
100
AcDbPoint
10
-84.6912400829437
20
-9.08867780422892
30
0.000000000000000
  0
ENDBLK
  5
F10042
330
F10020
100
AcDbEntity
  8
0
100
AcDbBlockEnd
  0
BLOCK
  5
F10043
330
F10002
100
AcDbEntity
  8
0
100
AcDbBlockBegin
  2
*D3
 70
     1
 10
0.0
 20
0.0
 30
0.0
  3
*D3
  1

 0
ARC
  5
F10044
330
F10002
100
AcDbEntity
  8
Bemassung
 62
     0
370
   -2
100
AcDbCircle
10
-84.6909354964532
20
13.3938724474198
30
0.000000000000000
 40
18.9091232513799
100
AcDbArc
 50
90.0000000000000
 51
102.025221701427
  0
LINE
  5
F10045
330
F10002
100
AcDbEntity
  8
Bemassung
 62
     0
370
    -2
100
AcDbLine
10
-84.6909354964532
20
13.3938724474198
30
0.000000000000000
11
-84.6909354964532
21
34.3029956987997
31
0.000000000000000
  0
LINE
  5
F10046
330
F10002
100
AcDbEntity
  8
Bemassung
 62
     0
370
    -2
100
AcDbLine
10
-84.6909354964532
20
13.3938724474198
30
0.000000000000000
11
-85.4206533744169
21
34.2902584258606
31
0.000000000000000
  0
INSERT
  5
F10047
330
F10002
100
AcDbEntity
  8
Bemassung
 62
     0
370
    -2
100
AcDbBlockReference
  2
VDDIM_DEFAULT
10
-84.6909354964532
20
32.3029956987997
30
0.000000000000000
 41
2.50000000000000
 42
2.50000000000000
 43
2.50000000000000
 50
179.848496819447
  0
INSERT
  5
F10048
330
F10002
100
AcDbEntity
  8
Bemassung
 62
     0
370
    -2
100
AcDbBlockReference
  2
VDDIM_DEFAULT
10
-85.3508543810119
20
32.2914767718224
30
0.000000000000000
 41
2.50000000000000
 42
2.50000000000000
 43
2.50000000000000
 50
2.15150318055189
  0
MTEXT
  5
F10049
330
F10002
100
AcDbEntity
  8
Bemassung
 62
     0
100
AcDbMText
10
-89.1872072771222
20
31.7606490347864
30
0.000000000000000
 40
2.50000000000000
 41
0.0
 71
     8
 72
     1
  1
2°
 11
0.970142500145332
 21
0.242535625036333
 31
0.0
 73
     1
 44
1.0
1001
ACAD
1000
MTEXTBEGIN
1070
73
1070
1
1070
44
1040
1.0
1070
74
1070
0
1000
MTEXTEND
  0
POINT
  5
F1004A
330
F10002
100
AcDbEntity
  8
Bemassung
 62
     0
100
AcDbPoint
10
-84.6909354964532
20
13.3938724474198
30
0.000000000000000
  0
POINT
  5
F1004B
330
F10002
100
AcDbEntity
  8
Bemassung
 62
     0
100
AcDbPoint
10
-84.6909354964532
20
32.3029956987997
30
0.000000000000000
  0
POINT
  5
F1004C
330
F10002
100
AcDbEntity
  8
Bemassung
 62
     0
100
AcDbPoint
10
-85.3508543810119
20
32.2914767718224
30
0.000000000000000
  0
POINT
  5
F1004D
330
F10002
100
AcDbEntity
  8
Bemassung
 62
     0
100
AcDbPoint
10
-85.0209452008090
20
32.3001157477401
30
0.000000000000000
  0
ENDBLK
  5
F1004E
330
F10002
100
AcDbEntity
  8
0
100
AcDbBlockEnd
  0
BLOCK
  5
F1004F
330
F1000C
100
AcDbEntity
  8
0
100
AcDbBlockBegin
  2
*D5
 70
     1
 10
0.0
 20
0.0
 30
0.0
  3
*D5
  1

  0
LINE
  5
F10050
330
F1000C
100
AcDbEntity
  8
Bemassung
 62
     0
370
    -2
100
AcDbLine
10
-84.5509099831130
20
13.7586513810006
30
0.000000000000000
11
-96.8484090366906
21
25.6342081752410
31
0.000000000000000
  0
INSERT
  5
F10051
330
F1000C
100
AcDbEntity
  8
Bemassung
 62
     0
370
    -2
100
AcDbBlockReference
  2
VDDIM_DEFAULT
10
-84.5509099831130
20
13.7586513810006
30
0.000000000000000
 41
2.50000000000000
 42
2.50000000000000
 43
2.50000000000000
 50
316.000000000000
  0
MTEXT
  5
F10052
330
F1000C
100
AcDbEntity
  8
Bemassung
 62
     0
100
AcDbMText
10
-91.7443079864995
20
20.7052350855905
30
0.000000000000000
 40
2.50000000000000
 41
0.0
 71
     8
 72
     1
  1
R0.5
 11
0.719339800338652
 21
-0.694658370458996
 31
0.0
 73
     1
 44
1.0
1001
ACAD
1000
MTEXTBEGIN
1070
73
1070
1
1070
44
1040
1.0
1070
74
1070
0
1000
MTEXTEND
  0
POINT
  5
F10053
330
F1000C
100
AcDbEntity
  8
Bemassung
 62
     0
100
AcDbPoint
10
-84.5509099831130
20
13.7586513810006
30
0.000000000000000
  0
POINT
  5
F10054
330
F1000C
100
AcDbEntity
  8
Bemassung
 62
     0
100
AcDbPoint
10
-84.1912400829437
20
13.4113221957711
30
0.000000000000000
  0
ENDBLK
  5
F10055
330
F1000C
100
AcDbEntity
  8
0
100
AcDbBlockEnd
  0
BLOCK
  5
F10056
330
F10007
100
AcDbEntity
  8
0
100
AcDbBlockBegin
  2
*D4
 70
     1
 10
0.0
 20
0.0
 30
0.0
  3
*D4
  1

  0
LINE
  5
F10057
330
F10007
100
AcDbEntity
  8
Bemassung
 62
     0
370
    -2
100
AcDbLine
10
-84.1912400829437
20
-2.08867780422892
30
0.000000000000000
11
-96.6912400829437
21
-2.08867780422892
31
0.000000000000000
  0
LINE
  5
F10058
330
F10007
100
AcDbEntity
  8
Bemassung
 62
     0
370
    -2
100
AcDbLine
10
-84.1912400829437
20
13.9113221957711
30
0.000000000000000
11
-96.6912400829437
21
13.9113221957711
31
0.000000000000000
  0
LINE
  5
F10059
330
F10007
100
AcDbEntity
  8
Bemassung
 62
     0
370
    -2
100
AcDbLine
10
-94.6912400829437
20
-2.08867780422892
30
0.000000000000000
11
-94.6912400829437
21
13.9113221957711
31
0.000000000000000
  0
INSERT
  5
F1005A
330
F10007
100
AcDbEntity
  8
Bemassung
 62
     0
370
    -2
100
AcDbBlockReference
  2
VDDIM_DEFAULT
10
-94.6912400829437
20
-2.08867780422892
30
0.000000000000000
 41
2.50000000000000
 42
2.50000000000000
 43
2.50000000000000
 50
270.000000000000
  0
INSERT
  5
F1005B
330
F10007
100
AcDbEntity
  8
Bemassung
 62
     0
370
    -2
100
AcDbBlockReference
  2
VDDIM_DEFAULT
10
-94.6912400829437
20
13.9113221957711
30
0.000000000000000
 41
2.50000000000000
 42
2.50000000000000
 43
2.50000000000000
 50
90.0000000000000
  0
MTEXT
  5
F1005C
330
F10007
100
AcDbEntity
  8
Bemassung
 62
     0
100
AcDbMText
10
-94.0245734162770
20
5.91132219577108
30
0.000000000000000
 40
2.50000000000000
 41
0.0
 71
     8
 72
     1
  1
16
 11
6.12323399573677e-017
 21
1.00000000000000
 31
0.0
 73
     1
 44
1.0
1001
ACAD
1000
MTEXTBEGIN
1070
73
1070
1
1070
44
1040
1.0
1070
74
1070
0
1000
MTEXTEND
  0
POINT
  5
F1005D
330
F10007
100
AcDbEntity
  8
Bemassung
 62
     0
100
AcDbPoint
10
-84.1912400829437
20
-2.08867780422892
30
0.000000000000000
  0
POINT
  5
F1005E
330
F10007
100
AcDbEntity
  8
Bemassung
 62
     0
100
AcDbPoint
10
-84.1912400829437
20
13.9113221957711
30
0.000000000000000
  0
ENDBLK
  5
F1005F
330
F10007
100
AcDbEntity
  8
0
100
AcDbBlockEnd
  0
BLOCK
  5
F10060
330
F10016
100
AcDbEntity
  8
0
100
AcDbBlockBegin
  2
*D7
 70
     1
 10
0.0
 20
0.0
 30
0.0
  3
*D7
  1

  0
LINE
  5
F10061
330
F10016
100
AcDbEntity
  8
Bemassung
 62
     0
370
    -2
100
AcDbLine
10
4.10875991705635
20
-2.08867780422892
30
0.000000000000000
11
16.3087599170563
21
-2.08867780422892
31
0.000000000000000
  0
LINE
  5
F10062
330
F10016
100
AcDbEntity
  8
Bemassung
 62
     0
370
    -2
100
AcDbLine
10
4.10875991705635
20
13.9113221957711
30
0.000000000000000
11
16.3087599170563
21
13.9113221957711
31
0.000000000000000
  0
LINE
  5
F10063
330
F10016
100
AcDbEntity
  8
Bemassung
 62
     0
370
    -2
100
AcDbLine
10
14.3087599170563
20
-2.08867780422892
30
0.000000000000000
11
14.3087599170563
21
13.9113221957711
31
0.000000000000000
  0
INSERT
  5
F10064
330
F10016
100
AcDbEntity
  8
Bemassung
 62
     0
370
    -2
100
AcDbBlockReference
  2
VDDIM_DEFAULT
10
14.3087599170563
20
-2.08867780422892
30
0.000000000000000
 41
2.50000000000000
 42
2.50000000000000
 43
2.50000000000000
 50
270.000000000000
  0
INSERT
  5
F10065
330
F10016
100
AcDbEntity
  8
Bemassung
 62
     0
370
    -2
100
AcDbBlockReference
  2
VDDIM_DEFAULT
10
14.3087599170563
20
13.9113221957711
30
0.000000000000000
 41
2.50000000000000
 42
2.50000000000000
 43
2.50000000000000
 50
90.0000000000000
  0
MTEXT
  5
F10066
330
F10016
100
AcDbEntity
  8
Bemassung
 62
     0
100
AcDbMText
10
14.9754265837230
20
5.91132219577108
30
0.000000000000000
 40
2.50000000000000
 41
0.0
 71
     8
 72
     1
  1
16h6
 11
6.12323399573677e-017
 21
1.00000000000000
 31
0.0
 73
     1
 44
1.0
  0
POINT
  5
F10067
330
F10016
100
AcDbEntity
  8
Bemassung
 62
     0
100
AcDbPoint
10
4.10875991705635
20
-2.08867780422892
30
0.000000000000000
  0
POINT
  5
F10068
330
F10016
100
AcDbEntity
  8
Bemassung
 62
     0
100
AcDbPoint
10
4.10875991705635
20
13.9113221957711
30
0.000000000000000
  0
ENDBLK
  5
F10069
330
F10016
100
AcDbEntity
  8
0
100
AcDbBlockEnd
0
ENDSEC
0
SECTION
2
ENTITIES
  0
DIMENSION
  5
F10012
330
261
100
AcDbEntity
  8
Bemassung
100
AcDbDimension
  2
*D6
10
4.30875991705635
20
23.9113221957711
30
0.000000000000000
11
-30.6912400829437
21
24.5779888624377
31
0.000000000000000
 70
32
 1
70
 71
     8
  3
BEM-ISBE
100
AcDbAlignedDimension
13
-65.6912400829437
23
13.9113221957711
33
0.000000000000000
14
4.30875991705635
24
13.7113221957711
34
0.000000000000000
100
AcDbRotatedDimension
1001
ACAD
1000
DSTYLE
1002
{
1070
284
1070
8
1070
78
1070
8
1070
144
1040
1.00000000000000
1070
147
1040
0.625
1070
 72
1070
 0
1070
 71
1070
 0
1002
}
  0
DIMENSION
  5
F1001C
330
261
100
AcDbEntity
  8
Bemassung
100
AcDbDimension
  2
*D8
10
-84.6912400829437
20
-7.08867780422892
30
0.000000000000000
11
-75.1912400829437
21
-6.42201113756226
31
0.000000000000000
 70
32
 1
19
 71
     8
  3
BEM-ISBE
100
AcDbAlignedDimension
13
-65.6912400829437
23
-2.08867780422892
33
0.000000000000000
14
-84.6912400829437
24
-9.08867780422892
34
0.000000000000000
100
AcDbRotatedDimension
1001
ACAD
1000
DSTYLE
1002
{
1070
284
1070
8
1070
78
1070
8
1070
144
1040
1.00000000000000
1070
147
1040
0.625
1070
 72
1070
 0
1070
 71
1070
 0
1002
}
  0
DIMENSION
  5
F10021
330
261
100
AcDbEntity
  8
Bemassung
100
AcDbDimension
  2
*D9
10
-84.6912400829437
20
28.9113221957711
30
0.000000000000000
11
-40.1912400829437
21
29.5779888624377
31
0.000000000000000
 70
32
 1
89
 71
     8
  3
BEM-ISBE
100
AcDbAlignedDimension
13
4.30875991705635
23
13.7113221957711
33
0.000000000000000
14
-84.6912400829437
24
-9.08867780422892
34
0.000000000000000
100
AcDbRotatedDimension
1001
ACAD
1000
DSTYLE
1002
{
1070
284
1070
8
1070
78
1070
8
1070
144
1040
1.00000000000000
1070
147
1040
0.625
1070
 72
1070
 0
1070
 71
1070
 0
1002
}
  0
DIMENSION
  5
F10003
330
261
100
AcDbEntity
  8
Bemassung
100
AcDbDimension
  2
*D3
10
-84.6909354964532
20
13.3938724474198
30
0.000000000000000
11
-89.1872072771222
21
31.7606490347864
31
0.000000000000000
 70
34
 1
2°
 71
     8
  3
BEM-ISBE
100
AcDb2LineAngularDimension
13
-84.6909354964532
23
13.3938724474198
33
0.000000000000000
14
-88.6305048355461
24
31.8880535744218
34
0.000000000000000
15
-84.6909354964532
25
32.3029956987997
35
0.000000000000000
16
-85.0209452008090
26
32.3001157477401
36
0.000000000000000
1001
ACAD
1000
DSTYLE
1002
{
1070
284
1070
8
1070
79
1070
2
1070
147
1040
0.625
1070
 72
1070
 0
1070
 71
1070
 0
1002
}
  0
DIMENSION
  5
F1000D
330
261
100
AcDbEntity
  8
Bemassung
100
AcDbDimension
  2
*D5
10
-84.1912400829437
20
13.4113221957711
30
0.000000000000000
11
-91.7443079864995
21
20.7052350855905
31
0.000000000000000
 70
164
 1
R0.5
 71
     8
  3
BEM-ISBE
100
AcDbRadialDimension
15
-84.5509099831130
25
13.7586513810006
35
0.000000000000000
40
0.0
1001
ACAD
1000
DSTYLE
1002
{
1070
284
1070
8
1070
78
1070
8
1070
144
1040
1.00000000000000
1070
147
1040
0.625
1070
 72
1070
 0
1070
 71
1070
 0
1002
}
  0
DIMENSION
  5
F10008
330
261
100
AcDbEntity
  8
Bemassung
100
AcDbDimension
  2
*D4
10
-94.6912400829437
20
13.9113221957711
30
0.000000000000000
11
-94.0245734162770
21
5.91132219577108
31
0.000000000000000
 70
32
 1
16
 71
     8
  3
BEM-ISBE
100
AcDbAlignedDimension
13
-84.1912400829437
23
-2.08867780422892
33
0.000000000000000
14
-84.1912400829437
24
13.9113221957711
34
0.000000000000000
50
90.0000000000000
100
AcDbRotatedDimension
1001
ACAD
1000
DSTYLE
1002
{
1070
284
1070
8
1070
78
1070
8
1070
144
1040
1.00000000000000
1070
147
1040
0.625
1070
 72
1070
 0
1070
 71
1070
 0
1002
}
  0
DIMENSION
  5
F10017
330
261
100
AcDbEntity
  8
Bemassung
100
AcDbDimension
  2
*D7
10
14.3087599170563
20
13.9113221957711
30
0.000000000000000
11
14.9754265837230
21
5.91132219577108
31
0.000000000000000
 70
32
 1
16h6
 71
     8
  3
BEM-ISBE
100
AcDbAlignedDimension
13
4.10875991705635
23
-2.08867780422892
33
0.000000000000000
14
4.10875991705635
24
13.9113221957711
34
0.000000000000000
50
90.0000000000000
100
AcDbRotatedDimension
1001
ACAD
1000
DSTYLE
1002
{
1070
284
1070
8
1070
78
1070
8
1070
144
1040
1.00000000000000
1070
147
1040
0.625
1070
 72
1070
 0
1070
 71
1070
 0
1002
}
  0
LINE
  5
F1006A
330
F1006B
100
AcDbEntity
8
Geo
100
AcDbLine
10
-84.4296390839049
20
5.91132219577108
30
0.000000000000000
11
-84.6909354964532
21
13.3938724474198
31
0.000000000000000
  0
ARC
  5
F1006C
330
F1006D
100
AcDbEntity
8
Geo
100
AcDbCircle
10
-84.1912400829437
20
13.4113221957711
30
0.000000000000000
 40
0.500000000000000
100
AcDbArc
 50
90.0000000000000
 51
182.000000000000
  0
LINE
  5
F1006E
330
F1006F
100
AcDbEntity
8
Geo
100
AcDbLine
10
-84.1912400829437
20
13.9113221957711
30
0.000000000000000
11
-65.6912400829437
21
13.9113221957711
31
0.000000000000000
  0
LINE
  5
F10070
330
F10071
100
AcDbEntity
8
Geo
100
AcDbLine
10
-65.6912400829437
20
13.9113221957711
30
0.000000000000000
11
4.10875991705635
21
13.9113221957711
31
0.000000000000000
  0
LINE
  5
F10072
330
F10073
100
AcDbEntity
8
Geo
100
AcDbLine
10
4.10875991705635
20
13.9113221957711
30
0.000000000000000
11
4.30875991705635
21
13.7113221957711
31
0.000000000000000
  0
LINE
  5
F10074
330
F10075
100
AcDbEntity
8
Geo
100
AcDbLine
10
-81.4912400829436
20
13.9088310200662
30
0.000000000000000
11
-81.3912400829437
21
13.9105895811315
31
0.000000000000000
  0
LINE
  5
F10076
330
F10077
100
AcDbEntity
8
Geo
100
AcDbLine
10
-81.3912400829437
20
13.9105895811315
30
0.000000000000000
11
-81.2912400829436
21
13.9004988386853
31
0.000000000000000
  0
LINE
  5
F10078
330
F10079
100
AcDbEntity
8
Geo
100
AcDbLine
10
-81.2912400829436
20
13.9004988386853
30
0.000000000000000
11
-81.1912400829437
21
13.8785737401302
31
0.000000000000000
  0
LINE
  5
F1007A
330
F1007B
100
AcDbEntity
8
Geo
100
AcDbLine
10
-81.1912400829437
20
13.8785737401302
30
0.000000000000000
11
-81.0912400829436
21
13.8448467630838
31
0.000000000000000
  0
LINE
  5
F1007C
330
F1007D
100
AcDbEntity
8
Geo
100
AcDbLine
10
-81.0912400829436
20
13.8448467630838
30
0.000000000000000
11
-80.9912400829436
21
13.7993678672697
31
0.000000000000000
  0
LINE
  5
F1007E
330
F1007F
100
AcDbEntity
8
Geo
100
AcDbLine
10
-80.9912400829436
20
13.7993678672697
30
0.000000000000000
11
-80.8912400829437
21
13.7422044205122
31
0.000000000000000
  0
LINE
  5
F10080
330
F10081
100
AcDbEntity
8
Geo
100
AcDbLine
10
-80.8912400829437
20
13.7422044205122
30
0.000000000000000
11
-80.7912400829436
21
13.6734410989445
31
0.000000000000000
  0
LINE
  5
F10082
330
F10083
100
AcDbEntity
8
Geo
100
AcDbLine
10
-80.7912400829436
20
13.6734410989445
30
0.000000000000000
11
-80.6912400829437
21
13.5931797615780
31
0.000000000000000
  0
LINE
  5
F10084
330
F10085
100
AcDbEntity
8
Geo
100
AcDbLine
10
-80.6912400829437
20
13.5931797615780
30
0.000000000000000
11
-80.5912400829436
21
13.5015392994186
31
0.000000000000000
  0
LINE
  5
F10086
330
F10087
100
AcDbEntity
8
Geo
100
AcDbLine
10
-80.5912400829436
20
13.5015392994186
30
0.000000000000000
11
-80.4912400829436
21
13.3986554593540
31
0.000000000000000
  0
LINE
  5
F10088
330
F10089
100
AcDbEntity
8
Geo
100
AcDbLine
10
-80.4912400829436
20
13.3986554593540
30
0.000000000000000
11
-80.3912400829437
21
13.2846806430714
31
0.000000000000000
  0
LINE
  5
F1008A
330
F1008B
100
AcDbEntity
8
Geo
100
AcDbLine
10
-80.3912400829437
20
13.2846806430714
30
0.000000000000000
11
-80.2912400829436
21
13.1597836813057
31
0.000000000000000
  0
LINE
  5
F1008C
330
F1008D
100
AcDbEntity
8
Geo
100
AcDbLine
10
-80.2912400829436
20
13.1597836813057
30
0.000000000000000
11
-80.1912400829437
21
13.0241495837505
31
0.000000000000000
  0
LINE
  5
F1008E
330
F1008F
100
AcDbEntity
8
Geo
100
AcDbLine
10
-80.1912400829437
20
13.0241495837505
30
0.000000000000000
11
-80.0912400829437
21
12.8779792650034
31
0.000000000000000
  0
LINE
  5
F10090
330
F10091
100
AcDbEntity
8
Geo
100
AcDbLine
10
-80.0912400829437
20
12.8779792650034
30
0.000000000000000
11
-79.9912400829436
21
12.7214892469517
31
0.000000000000000
  0
LINE
  5
F10092
330
F10093
100
AcDbEntity
8
Geo
100
AcDbLine
10
-79.9912400829436
20
12.7214892469517
30
0.000000000000000
11
-79.8912400829437
21
12.5549113380388
31
0.000000000000000
  0
LINE
  5
F10094
330
F10095
100
AcDbEntity
8
Geo
100
AcDbLine
10
-79.8912400829437
20
12.5549113380388
30
0.000000000000000
11
-79.7912400829437
21
12.3784922898866
31
0.000000000000000
  0
LINE
  5
F10096
330
F10097
100
AcDbEntity
8
Geo
100
AcDbLine
10
-79.7912400829437
20
12.3784922898866
30
0.000000000000000
11
-79.6912400829437
21
12.1924934317825
31
0.000000000000000
  0
LINE
  5
F10098
330
F10099
100
AcDbEntity
8
Geo
100
AcDbLine
10
-79.6912400829437
20
12.1924934317825
30
0.000000000000000
11
-79.5912400829437
21
11.9971902835731
31
0.000000000000000
  0
LINE
  5
F1009A
330
F1009B
100
AcDbEntity
8
Geo
100
AcDbLine
10
-79.5912400829437
20
11.9971902835731
30
0.000000000000000
11
-79.4912400829436
21
11.7928721475368
31
0.000000000000000
  0
LINE
  5
F1009C
330
F1009D
100
AcDbEntity
8
Geo
100
AcDbLine
10
-79.4912400829436
20
11.7928721475368
30
0.000000000000000
11
-79.3912400829437
21
11.5798416798408
31
0.000000000000000
  0
LINE
  5
F1009E
330
F1009F
100
AcDbEntity
8
Geo
100
AcDbLine
10
-79.3912400829437
20
11.5798416798408
30
0.000000000000000
11
-79.2912400829437
21
11.3584144422167
31
0.000000000000000
  0
LINE
  5
F100A0
330
F100A1
100
AcDbEntity
8
Geo
100
AcDbLine
10
-79.2912400829437
20
11.3584144422167
30
0.000000000000000
11
-79.1912400829437
21
11.1289184345199
31
0.000000000000000
  0
LINE
  5
F100A2
330
F100A3
100
AcDbEntity
8
Geo
100
AcDbLine
10
-79.1912400829437
20
11.1289184345199
30
0.000000000000000
11
-79.0912400829437
21
10.8916936088632
31
0.000000000000000
  0
LINE
  5
F100A4
330
F100A5
100
AcDbEntity
8
Geo
100
AcDbLine
10
-79.0912400829437
20
10.8916936088632
30
0.000000000000000
11
-78.9912400829436
21
10.6470913660469
31
0.000000000000000
  0
LINE
  5
F100A6
330
F100A7
100
AcDbEntity
8
Geo
100
AcDbLine
10
-78.9912400829436
20
10.6470913660469
30
0.000000000000000
11
-78.8912400829437
21
10.3954740350286
31
0.000000000000000
  0
LINE
  5
F100A8
330
F100A9
100
AcDbEntity
8
Geo
100
AcDbLine
10
-78.8912400829437
20
10.3954740350286
30
0.000000000000000
11
-78.7912400829437
21
10.1372143362065
31
0.000000000000000
  0
LINE
  5
F100AA
330
F100AB
100
AcDbEntity
8
Geo
100
AcDbLine
10
-78.7912400829437
20
10.1372143362065
30
0.000000000000000
11
-78.6912400829437
21
9.87269482930870
31
0.000000000000000
  0
LINE
  5
F100AC
330
F100AD
100
AcDbEntity
8
Geo
100
AcDbLine
10
-78.6912400829437
20
9.87269482930870
30
0.000000000000000
11
-78.5912400829437
21
9.60230734670814
31
0.000000000000000
  0
LINE
  5
F100AE
330
F100AF
100
AcDbEntity
8
Geo
100
AcDbLine
10
-78.5912400829437
20
9.60230734670814
30
0.000000000000000
11
-78.4912400829437
21
9.32645241300201
31
0.000000000000000
  0
LINE
  5
F100B0
330
F100B1
100
AcDbEntity
8
Geo
100
AcDbLine
10
-78.4912400829437
20
9.32645241300201
30
0.000000000000000
11
-78.3912400829437
21
9.04553865171508
31
0.000000000000000
  0
LINE
  5
F100B2
330
F100B3
100
AcDbEntity
8
Geo
100
AcDbLine
10
-78.3912400829437
20
9.04553865171508
30
0.000000000000000
11
-78.2912400829437
21
8.75998218000631
31
0.000000000000000
  0
LINE
  5
F100B4
330
F100B5
100
AcDbEntity
8
Geo
100
AcDbLine
10
-78.2912400829437
20
8.75998218000631
30
0.000000000000000
11
-78.1912400829437
21
8.47020599227504
31
0.000000000000000
  0
LINE
  5
F100B6
330
F100B7
100
AcDbEntity
8
Geo
100
AcDbLine
10
-78.1912400829437
20
8.47020599227504
30
0.000000000000000
11
-78.0912400829437
21
8.17663933358003
31
0.000000000000000
  0
LINE
  5
F100B8
330
F100B9
100
AcDbEntity
8
Geo
100
AcDbLine
10
-78.0912400829437
20
8.17663933358003
30
0.000000000000000
11
-77.9912400829437
21
7.87971706379933
31
0.000000000000000
  0
LINE
  5
F100BA
330
F100BB
100
AcDbEntity
8
Geo
100
AcDbLine
10
-77.9912400829437
20
7.87971706379933
30
0.000000000000000
11
-77.8912400829437
21
7.57987901347299
31
0.000000000000000
  0
LINE
  5
F100BC
330
F100BD
100
AcDbEntity
8
Geo
100
AcDbLine
10
-77.8912400829437
20
7.57987901347299
30
0.000000000000000
11
-77.7912400829437
21
7.27756933228263
31
0.000000000000000
  0
LINE
  5
F100BE
330
F100BF
100
AcDbEntity
8
Geo
100
AcDbLine
10
-77.7912400829437
20
7.27756933228263
30
0.000000000000000
11
-77.6912400829437
21
6.97323583113323
31
0.000000000000000
  0
LINE
  5
F100C0
330
F100C1
100
AcDbEntity
8
Geo
100
AcDbLine
10
-77.6912400829437
20
6.97323583113323
30
0.000000000000000
11
-77.5912400829437
21
6.66732931881141
31
0.000000000000000
  0
LINE
  5
F100C2
330
F100C3
100
AcDbEntity
8
Geo
100
AcDbLine
10
-77.5912400829437
20
6.66732931881141
30
0.000000000000000
11
-77.4912400829437
21
6.36030293420301
31
0.000000000000000
  0
LINE
  5
F100C4
330
F100C5
100
AcDbEntity
8
Geo
100
AcDbLine
10
-77.4912400829437
20
6.36030293420301
30
0.000000000000000
11
-77.3912400829437
21
6.05261147505913
31
0.000000000000000
  0
LINE
  5
F100C6
330
F100C7
100
AcDbEntity
8
Geo
100
AcDbLine
10
-77.3912400829437
20
6.05261147505913
30
0.000000000000000
11
-77.2912400829437
21
5.74471072430484
31
0.000000000000000
  0
LINE
  5
F100C8
330
F100C9
100
AcDbEntity
8
Geo
100
AcDbLine
10
-77.2912400829437
20
5.74471072430484
30
0.000000000000000
11
-77.1912400829437
21
5.43705677488858
31
0.000000000000000
  0
LINE
  5
F100CA
330
F100CB
100
AcDbEntity
8
Geo
100
AcDbLine
10
-77.1912400829437
20
5.43705677488858
30
0.000000000000000
11
-77.0912400829437
21
5.13010535417229
31
0.000000000000000
  0
LINE
  5
F100CC
330
F100CD
100
AcDbEntity
8
Geo
100
AcDbLine
10
-77.0912400829437
20
5.13010535417229
30
0.000000000000000
11
-76.9912400829437
21
4.82431114886317
31
0.000000000000000
  0
LINE
  5
F100CE
330
F100CF
100
AcDbEntity
8
Geo
100
AcDbLine
10
-76.9912400829437
20
4.82431114886317
30
0.000000000000000
11
-76.8912400829437
21
4.52012713148685
31
0.000000000000000
  0
LINE
  5
F100D0
330
F100D1
100
AcDbEntity
8
Geo
100
AcDbLine
10
-76.8912400829437
20
4.52012713148685
30
0.000000000000000
11
-76.7912400829437
21
4.21800388939985
31
0.000000000000000
  0
LINE
  5
F100D2
330
F100D3
100
AcDbEntity
8
Geo
100
AcDbLine
10
-76.7912400829437
20
4.21800388939985
30
0.000000000000000
11
-76.6912400829437
21
3.91838895733514
31
0.000000000000000
  0
LINE
  5
F100D4
330
F100D5
100
AcDbEntity
8
Geo
100
AcDbLine
10
-76.6912400829437
20
3.91838895733514
30
0.000000000000000
11
-76.5912400829437
21
3.62172615446962
31
0.000000000000000
  0
LINE
  5
F100D6
330
F100D7
100
AcDbEntity
8
Geo
100
AcDbLine
10
-76.5912400829437
20
3.62172615446962
30
0.000000000000000
11
-76.4912400829437
21
3.32845492699532
31
0.000000000000000
  0
LINE
  5
F100D8
330
F100D9
100
AcDbEntity
8
Geo
100
AcDbLine
10
-76.4912400829437
20
3.32845492699532
30
0.000000000000000
11
-76.3912400829437
21
3.03900969716846
31
0.000000000000000
  0
LINE
  5
F100DA
330
F100DB
100
AcDbEntity
8
Geo
100
AcDbLine
10
-76.3912400829437
20
3.03900969716846
30
0.000000000000000
11
-76.2912400829437
21
2.75381921980032
31
0.000000000000000
  0
LINE
  5
F100DC
330
F100DD
100
AcDbEntity
8
Geo
100
AcDbLine
10
-76.2912400829437
20
2.75381921980032
30
0.000000000000000
11
-76.1912400829437
21
2.47330594714335
31
0.000000000000000
  0
LINE
  5
F100DE
330
F100DF
100
AcDbEntity
8
Geo
100
AcDbLine
10
-76.1912400829437
20
2.47330594714335
30
0.000000000000000
11
-76.0912400829437
21
2.19788540311324
31
0.000000000000000
  0
LINE
  5
F100E0
330
F100E1
100
AcDbEntity
8
Geo
100
AcDbLine
10
-76.0912400829437
20
2.19788540311324
30
0.000000000000000
11
-75.9912400829437
21
1.92796556777396
31
0.000000000000000
  0
LINE
  5
F100E2
330
F100E3
100
AcDbEntity
8
Geo
100
AcDbLine
10
-75.9912400829437
20
1.92796556777396
30
0.000000000000000
11
-75.8912400829437
21
1.66394627299744
31
0.000000000000000
  0
LINE
  5
F100E4
330
F100E5
100
AcDbEntity
8
Geo
100
AcDbLine
10
-75.8912400829437
20
1.66394627299744
30
0.000000000000000
11
-75.7912400829437
21
1.40621861019317
31
0.000000000000000
  0
LINE
  5
F100E6
330
F100E7
100
AcDbEntity
8
Geo
100
AcDbLine
10
-75.7912400829437
20
1.40621861019317
30
0.000000000000000
11
-75.6912400829437
21
1.15516435098507
31
0.000000000000000
  0
LINE
  5
F100E8
330
F100E9
100
AcDbEntity
8
Geo
100
AcDbLine
10
-75.6912400829437
20
1.15516435098507
30
0.000000000000000
11
-75.5912400829437
21
0.911155381693714
31
0.000000000000000
  0
LINE
  5
F100EA
330
F100EB
100
AcDbEntity
8
Geo
100
AcDbLine
10
-75.5912400829437
20
0.911155381693714
30
0.000000000000000
11
-75.4912400829437
21
0.674553152461637
31
0.000000000000000
  0
LINE
  5
F100EC
330
F100ED
100
AcDbEntity
8
Geo
100
AcDbLine
10
-75.4912400829437
20
0.674553152461637
30
0.000000000000000
11
-75.3912400829437
21
0.445708141837766
31
0.000000000000000
  0
LINE
  5
F100EE
330
F100EF
100
AcDbEntity
8
Geo
100
AcDbLine
10
-75.3912400829437
20
0.445708141837766
30
0.000000000000000
11
-75.2912400829437
21
0.224959337614025
31
0.000000000000000
  0
LINE
  5
F100F0
330
F100F1
100
AcDbEntity
8
Geo
100
AcDbLine
10
-75.2912400829437
20
0.224959337614025
30
0.000000000000000
11
-75.1912400829437
21
0.0126337346831997
31
0.000000000000000
  0
LINE
  5
F100F2
330
F100F3
100
AcDbEntity
8
Geo
100
AcDbLine
10
-75.1912400829437
20
0.0126337346831997
30
0.000000000000000
11
-75.0912400829437
21
-0.190954149338137
31
0.000000000000000
  0
LINE
  5
F100F4
330
F100F5
100
AcDbEntity
8
Geo
100
AcDbLine
10
-75.0912400829437
20
-0.190954149338137
30
0.000000000000000
11
-74.9912400829437
21
-0.385502740004124
31
0.000000000000000
  0
LINE
  5
F100F6
330
F100F7
100
AcDbEntity
8
Geo
100
AcDbLine
10
-74.9912400829437
20
-0.385502740004124
30
0.000000000000000
11
-74.8912400829437
21
-0.570723852761415
31
0.000000000000000
  0
LINE
  5
F100F8
330
F100F9
100
AcDbEntity
8
Geo
100
AcDbLine
10
-74.8912400829437
20
-0.570723852761415
30
0.000000000000000
11
-74.7912400829437
21
-0.746343119836555
31
0.000000000000000
  0
LINE
  5
F100FA
330
F100FB
100
AcDbEntity
8
Geo
100
AcDbLine
10
-74.7912400829437
20
-0.746343119836555
30
0.000000000000000
11
-74.6912400829437
21
-0.912100396656576
31
0.000000000000000
  0
LINE
  5
F100FC
330
F100FD
100
AcDbEntity
8
Geo
100
AcDbLine
10
-74.6912400829437
20
-0.912100396656576
30
0.000000000000000
11
-74.5912400829437
21
-1.06775014720078
31
0.000000000000000
  0
LINE
  5
F100FE
330
F100FF
100
AcDbEntity
8
Geo
100
AcDbLine
10
-74.5912400829437
20
-1.06775014720078
30
0.000000000000000
11
-74.4912400829437
21
-1.21306180771291
31
0.000000000000000
  0
LINE
  5
F10100
330
F10101
100
AcDbEntity
8
Geo
100
AcDbLine
10
-74.4912400829437
20
-1.21306180771291
30
0.000000000000000
11
-74.3912400829437
21
-1.34782012823491
31
0.000000000000000
  0
LINE
  5
F10102
330
F10103
100
AcDbEntity
8
Geo
100
AcDbLine
10
-74.3912400829437
20
-1.34782012823491
30
0.000000000000000
11
-74.2912400829437
21
-1.47182549145640
31
0.000000000000000
  0
LINE
  5
F10104
330
F10105
100
AcDbEntity
8
Geo
100
AcDbLine
10
-74.2912400829437
20
-1.47182549145640
30
0.000000000000000
11
-74.1912400829437
21
-1.58489420840747
31
0.000000000000000
  0
LINE
  5
F10106
330
F10107
100
AcDbEntity
8
Geo
100
AcDbLine
10
-74.1912400829437
20
-1.58489420840747
30
0.000000000000000
11
-74.0912400829437
21
-1.68685879055697
31
0.000000000000000
  0
LINE
  5
F10108
330
F10109
100
AcDbEntity
8
Geo
100
AcDbLine
10
-74.0912400829437
20
-1.68685879055697
30
0.000000000000000
11
-73.9912400829437
21
-1.77756819791297
31
0.000000000000000
  0
LINE
  5
F1010A
330
F1010B
100
AcDbEntity
8
Geo
100
AcDbLine
10
-73.9912400829437
20
-1.77756819791297
30
0.000000000000000
11
-73.8912400829437
21
-1.85688806275811
31
0.000000000000000
  0
LINE
  5
F1010C
330
F1010D
100
AcDbEntity
8
Geo
100
AcDbLine
10
-73.8912400829437
20
-1.85688806275811
30
0.000000000000000
11
-73.7912400829437
21
-1.92470088868830
31
0.000000000000000
  0
LINE
  5
F1010E
330
F1010F
100
AcDbEntity
8
Geo
100
AcDbLine
10
-73.7912400829437
20
-1.92470088868830
30
0.000000000000000
11
-73.6912400829437
21
-1.98090622466002
31
0.000000000000000
  0
LINE
  5
F10110
330
F10111
100
AcDbEntity
8
Geo
100
AcDbLine
10
-73.6912400829437
20
-1.98090622466002
30
0.000000000000000
11
-73.5912400829437
21
-2.02542081378824
31
0.000000000000000
  0
LINE
  5
F10112
330
F10113
100
AcDbEntity
8
Geo
100
AcDbLine
10
-73.5912400829437
20
-2.02542081378824
30
0.000000000000000
11
-73.4912400829437
21
-2.05817871667479
31
0.000000000000000
  0
LINE
  5
F10114
330
F10115
100
AcDbEntity
8
Geo
100
AcDbLine
10
-73.4912400829437
20
-2.05817871667479
30
0.000000000000000
11
-73.3912400829437
21
-2.07913140908426
31
0.000000000000000
  0
LINE
  5
F10116
330
F10117
100
AcDbEntity
8
Geo
100
AcDbLine
10
-73.3912400829437
20
-2.07913140908426
30
0.000000000000000
11
-73.2912400829437
21
-2.08824785382289
31
0.000000000000000
  0
LINE
  5
F10118
330
F10119
100
AcDbEntity
8
Geo
100
AcDbLine
10
-84.6912400829437
20
13.4113221957711
30
0.000000000000000
11
-84.5912400829437
21
13.7055451312640
31
0.000000000000000
  0
LINE
  5
F1011A
330
F1011B
100
AcDbEntity
8
Geo
100
AcDbLine
10
-84.5912400829437
20
13.7055451312640
30
0.000000000000000
11
-84.4912400829436
21
13.7879263452941
31
0.000000000000000
  0
LINE
  5
F1011C
330
F1011D
100
AcDbEntity
8
Geo
100
AcDbLine
10
-84.4912400829436
20
13.7879263452941
30
0.000000000000000
11
-84.3912400829437
21
13.8165836386656
31
0.000000000000000
  0
LINE
  5
F1011E
330
F1011F
100
AcDbEntity
8
Geo
100
AcDbLine
10
-84.3912400829437
20
13.8165836386656
30
0.000000000000000
11
-84.2912400829436
21
13.8067119618217
31
0.000000000000000
  0
LINE
  5
F10120
330
F10121
100
AcDbEntity
8
Geo
100
AcDbLine
10
-84.2912400829436
20
13.8067119618217
30
0.000000000000000
11
-84.1912400829437
21
13.7636307308640
31
0.000000000000000
  0
LINE
  5
F10122
330
F10123
100
AcDbEntity
8
Geo
100
AcDbLine
10
-84.1912400829437
20
13.7636307308640
30
0.000000000000000
11
-84.0912400829437
21
13.6989353265936
31
0.000000000000000
  0
LINE
  5
F10124
330
F10125
100
AcDbEntity
8
Geo
100
AcDbLine
10
-84.0912400829437
20
13.6989353265936
30
0.000000000000000
11
-83.9912400829436
21
13.6227041419608
31
0.000000000000000
  0
LINE
  5
F10126
330
F10127
100
AcDbEntity
8
Geo
100
AcDbLine
10
-83.9912400829436
20
13.6227041419608
30
0.000000000000000
11
-83.8912400829437
21
13.5350500981121
31
0.000000000000000
  0
LINE
  5
F10128
330
F10129
100
AcDbEntity
8
Geo
100
AcDbLine
10
-83.8912400829437
20
13.5350500981121
30
0.000000000000000
11
-83.7912400829436
21
13.4361030368591
31
0.000000000000000
  0
LINE
  5
F1012A
330
F1012B
100
AcDbEntity
8
Geo
100
AcDbLine
10
-83.7912400829436
20
13.4361030368591
30
0.000000000000000
11
-83.6912400829437
21
13.3260095283445
31
0.000000000000000
  0
LINE
  5
F1012C
330
F1012D
100
AcDbEntity
8
Geo
100
AcDbLine
10
-83.6912400829437
20
13.3260095283445
30
0.000000000000000
11
-83.5912400829437
21
13.2049326539272
31
0.000000000000000
  0
LINE
  5
F1012E
330
F1012F
100
AcDbEntity
8
Geo
100
AcDbLine
10
-83.5912400829437
20
13.2049326539272
30
0.000000000000000
11
-83.4912400829436
21
13.0730517646108
31
0.000000000000000
  0
LINE
  5
F10130
330
F10131
100
AcDbEntity
8
Geo
100
AcDbLine
10
-83.4912400829436
20
13.0730517646108
30
0.000000000000000
11
-83.3912400829437
21
12.9305622153709
31
0.000000000000000
  0
LINE
  5
F10132
330
F10133
100
AcDbEntity
8
Geo
100
AcDbLine
10
-83.3912400829437
20
12.9305622153709
30
0.000000000000000
11
-83.2912400829436
21
12.7776750757761
31
0.000000000000000
  0
LINE
  5
F10134
330
F10135
100
AcDbEntity
8
Geo
100
AcDbLine
10
-83.2912400829436
20
12.7776750757761
30
0.000000000000000
11
-83.1912400829437
21
12.6146168173310
31
0.000000000000000
  0
LINE
  5
F10136
330
F10137
100
AcDbEntity
8
Geo
100
AcDbLine
10
-83.1912400829437
20
12.6146168173310
30
0.000000000000000
11
-83.0912400829437
21
12.4416289780042
31
0.000000000000000
  0
LINE
  5
F10138
330
F10139
100
AcDbEntity
8
Geo
100
AcDbLine
10
-83.0912400829437
20
12.4416289780042
30
0.000000000000000
11
-82.9912400829436
21
12.2589678044383
31
0.000000000000000
  0
LINE
  5
F1013A
330
F1013B
100
AcDbEntity
8
Geo
100
AcDbLine
10
-82.9912400829436
20
12.2589678044383
30
0.000000000000000
11
-82.8912400829437
21
12.0669038723725
31
0.000000000000000
  0
LINE
  5
F1013C
330
F1013D
100
AcDbEntity
8
Geo
100
AcDbLine
10
-82.8912400829437
20
12.0669038723725
30
0.000000000000000
11
-82.7912400829436
21
11.8657216858390
31
0.000000000000000
  0
LINE
  5
F1013E
330
F1013F
100
AcDbEntity
8
Geo
100
AcDbLine
10
-82.7912400829436
20
11.8657216858390
30
0.000000000000000
11
-82.6912400829437
21
11.6557192557271
31
0.000000000000000
  0
LINE
  5
F10140
330
F10141
100
AcDbEntity
8
Geo
100
AcDbLine
10
-82.6912400829437
20
11.6557192557271
30
0.000000000000000
11
-82.5912400829437
21
11.4372076583410
31
0.000000000000000
  0
LINE
  5
F10142
330
F10143
100
AcDbEntity
8
Geo
100
AcDbLine
10
-82.5912400829437
20
11.4372076583410
30
0.000000000000000
11
-82.4912400829436
21
11.2105105746020
31
0.000000000000000
  0
LINE
  5
F10144
330
F10145
100
AcDbEntity
8
Geo
100
AcDbLine
10
-82.4912400829436
20
11.2105105746020
30
0.000000000000000
11
-82.3912400829437
21
10.9759638105811
31
0.000000000000000
  0
LINE
  5
F10146
330
F10147
100
AcDbEntity
8
Geo
100
AcDbLine
10
-82.3912400829437
20
10.9759638105811
30
0.000000000000000
11
-82.2912400829436
21
10.7339148000693
31
0.000000000000000
  0
LINE
  5
F10148
330
F10149
100
AcDbEntity
8
Geo
100
AcDbLine
10
-82.2912400829436
20
10.7339148000693
30
0.000000000000000
11
-82.1912400829437
21
10.4847220899251
31
0.000000000000000
  0
LINE
  5
F1014A
330
F1014B
100
AcDbEntity
8
Geo
100
AcDbLine
10
-82.1912400829437
20
10.4847220899251
30
0.000000000000000
11
-82.0912400829437
21
10.2287548089590
31
0.000000000000000
  0
LINE
  5
F1014C
330
F1014D
100
AcDbEntity
8
Geo
100
AcDbLine
10
-82.0912400829437
20
10.2287548089590
30
0.000000000000000
11
-81.9912400829436
21
9.96639212114382
31
0.000000000000000
  0
LINE
  5
F1014E
330
F1014F
100
AcDbEntity
8
Geo
100
AcDbLine
10
-81.9912400829436
20
9.96639212114382
30
0.000000000000000
11
-81.8912400829437
21
9.69802266395949
31
0.000000000000000
  0
LINE
  5
F10150
330
F10151
100
AcDbEntity
8
Geo
100
AcDbLine
10
-81.8912400829437
20
9.69802266395949
30
0.000000000000000
11
-81.7912400829436
21
9.42404397270496
31
0.000000000000000
  0
LINE
  5
F10152
330
F10153
100
AcDbEntity
8
Geo
100
AcDbLine
10
-81.7912400829436
20
9.42404397270496
30
0.000000000000000
11
-81.6912400829437
21
9.14486189162969
31
0.000000000000000
  0
LINE
  5
F10154
330
F10155
100
AcDbEntity
8
Geo
100
AcDbLine
10
-81.6912400829437
20
9.14486189162969
30
0.000000000000000
11
-81.5912400829436
21
8.86088997275718
31
0.000000000000000
  0
LINE
  5
F10156
330
F10157
100
AcDbEntity
8
Geo
100
AcDbLine
10
-81.5912400829436
20
8.86088997275718
30
0.000000000000000
11
-81.4912400829436
21
8.57254886329089
31
0.000000000000000
  0
LINE
  5
F10158
330
F10159
100
AcDbEntity
8
Geo
100
AcDbLine
10
-81.4912400829436
20
8.57254886329089
30
0.000000000000000
11
-81.3912400829437
21
8.28026568251017
31
0.000000000000000
  0
LINE
  5
F1015A
330
F1015B
100
AcDbEntity
8
Geo
100
AcDbLine
10
-81.3912400829437
20
8.28026568251017
30
0.000000000000000
11
-81.2912400829436
21
7.98447338907905
31
0.000000000000000
  0
LINE
  5
F1015C
330
F1015D
100
AcDbEntity
8
Geo
100
AcDbLine
10
-81.2912400829436
20
7.98447338907905
30
0.000000000000000
11
-81.1912400829437
21
7.68561013970518
31
0.000000000000000
  0
LINE
  5
F1015E
330
F1015F
100
AcDbEntity
8
Geo
100
AcDbLine
10
-81.1912400829437
20
7.68561013970518
30
0.000000000000000
11
-81.0912400829436
21
7.38411864009893
31
0.000000000000000
  0
LINE
  5
F10160
330
F10161
100
AcDbEntity
8
Geo
100
AcDbLine
10
-81.0912400829436
20
7.38411864009893
30
0.000000000000000
11
-80.9912400829436
21
7.08044548919403
31
0.000000000000000
  0
LINE
  5
F10162
330
F10163
100
AcDbEntity
8
Geo
100
AcDbLine
10
-80.9912400829436
20
7.08044548919403
30
0.000000000000000
11
-80.8912400829437
21
6.77504051760123
31
0.000000000000000
  0
LINE
  5
F10164
330
F10165
100
AcDbEntity
8
Geo
100
AcDbLine
10
-80.8912400829437
20
6.77504051760123
30
0.000000000000000
11
-80.7912400829436
21
6.46835612127478
31
0.000000000000000
  0
LINE
  5
F10166
330
F10167
100
AcDbEntity
8
Geo
100
AcDbLine
10
-80.7912400829436
20
6.46835612127478
30
0.000000000000000
11
-80.6912400829437
21
6.16084659137903
31
0.000000000000000
  0
LINE
  5
F10168
330
F10169
100
AcDbEntity
8
Geo
100
AcDbLine
10
-80.6912400829437
20
6.16084659137903
30
0.000000000000000
11
-80.5912400829436
21
5.85296744134751
31
0.000000000000000
  0
LINE
  5
F1016A
330
F1016B
100
AcDbEntity
8
Geo
100
AcDbLine
10
-80.5912400829436
20
5.85296744134751
30
0.000000000000000
11
-80.4912400829436
21
5.54517473213153
31
0.000000000000000
  0
LINE
  5
F1016C
330
F1016D
100
AcDbEntity
8
Geo
100
AcDbLine
10
-80.4912400829436
20
5.54517473213153
30
0.000000000000000
11
-80.3912400829437
21
5.23792439663774
31
0.000000000000000
  0
LINE
  5
F1016E
330
F1016F
100
AcDbEntity
8
Geo
100
AcDbLine
10
-80.3912400829437
20
5.23792439663774
30
0.000000000000000
11
-80.2912400829436
21
4.93167156435537
31
0.000000000000000
  0
LINE
  5
F10170
330
F10171
100
AcDbEntity
8
Geo
100
AcDbLine
10
-80.2912400829436
20
4.93167156435537
30
0.000000000000000
11
-80.1912400829437
21
4.62686988717355
31
0.000000000000000
  0
LINE
  5
F10172
330
F10173
100
AcDbEntity
8
Geo
100
AcDbLine
10
-80.1912400829437
20
4.62686988717355
30
0.000000000000000
11
-80.0912400829437
21
4.32397086738738
31
0.000000000000000
  0
LINE
  5
F10174
330
F10175
100
AcDbEntity
8
Geo
100
AcDbLine
10
-80.0912400829437
20
4.32397086738738
30
0.000000000000000
11
-79.9912400829436
21
4.02342318888826
31
0.000000000000000
  0
LINE
  5
F10176
330
F10177
100
AcDbEntity
8
Geo
100
AcDbLine
10
-79.9912400829436
20
4.02342318888826
30
0.000000000000000
11
-79.8912400829437
21
3.72567205252906
31
0.000000000000000
  0
LINE
  5
F10178
330
F10179
100
AcDbEntity
8
Geo
100
AcDbLine
10
-79.8912400829437
20
3.72567205252906
30
0.000000000000000
11
-79.7912400829437
21
3.43115851664869
31
0.000000000000000
  0
LINE
  5
F1017A
330
F1017B
100
AcDbEntity
8
Geo
100
AcDbLine
10
-79.7912400829437
20
3.43115851664869
30
0.000000000000000
11
-79.6912400829437
21
3.14031884373306
31
0.000000000000000
  0
LINE
  5
F1017C
330
F1017D
100
AcDbEntity
8
Geo
100
AcDbLine
10
-79.6912400829437
20
3.14031884373306
30
0.000000000000000
11
-79.5912400829437
21
2.85358385418003
31
0.000000000000000
  0
LINE
  5
F1017E
330
F1017F
100
AcDbEntity
8
Geo
100
AcDbLine
10
-79.5912400829437
20
2.85358385418003
30
0.000000000000000
11
-79.4912400829436
21
2.57137828812577
31
0.000000000000000
  0
LINE
  5
F10180
330
F10181
100
AcDbEntity
8
Geo
100
AcDbLine
10
-79.4912400829436
20
2.57137828812577
30
0.000000000000000
11
-79.3912400829437
21
2.29412017627780
31
0.000000000000000
  0
LINE
  5
F10182
330
F10183
100
AcDbEntity
8
Geo
100
AcDbLine
10
-79.3912400829437
20
2.29412017627780
30
0.000000000000000
11
-79.2912400829437
21
2.02222022068672
31
0.000000000000000
  0
LINE
  5
F10184
330
F10185
100
AcDbEntity
8
Geo
100
AcDbLine
10
-79.2912400829437
20
2.02222022068672
30
0.000000000000000
11
-79.1912400829437
21
1.75608118637379
31
0.000000000000000
  0
LINE
  5
F10186
330
F10187
100
AcDbEntity
8
Geo
100
AcDbLine
10
-79.1912400829437
20
1.75608118637379
30
0.000000000000000
11
-79.0912400829437
21
1.49609730471569
31
0.000000000000000
  0
LINE
  5
F10188
330
F10189
100
AcDbEntity
8
Geo
100
AcDbLine
10
-79.0912400829437
20
1.49609730471569
30
0.000000000000000
11
-78.9912400829436
21
1.24265368947015
31
0.000000000000000
  0
LINE
  5
F1018A
330
F1018B
100
AcDbEntity
8
Geo
100
AcDbLine
10
-78.9912400829436
20
1.24265368947015
30
0.000000000000000
11
-78.8912400829437
21
0.996125766307475
31
0.000000000000000
  0
LINE
  5
F1018C
330
F1018D
100
AcDbEntity
8
Geo
100
AcDbLine
10
-78.8912400829437
20
0.996125766307475
30
0.000000000000000
11
-78.7912400829437
21
0.756878716693033
31
0.000000000000000
  0
LINE
  5
F1018E
330
F1018F
100
AcDbEntity
8
Geo
100
AcDbLine
10
-78.7912400829437
20
0.756878716693033
30
0.000000000000000
11
-78.6912400829437
21
0.525266936944451
31
0.000000000000000
  0
LINE
  5
F10190
330
F10191
100
AcDbEntity
8
Geo
100
AcDbLine
10
-78.6912400829437
20
0.525266936944451
30
0.000000000000000
11
-78.5912400829437
21
0.301633513264859
31
0.000000000000000
  0
LINE
  5
F10192
330
F10193
100
AcDbEntity
8
Geo
100
AcDbLine
10
-78.5912400829437
20
0.301633513264859
30
0.000000000000000
11
-78.4912400829437
21
0.0863097135297801
31
0.000000000000000
  0
LINE
  5
F10194
330
F10195
100
AcDbEntity
8
Geo
100
AcDbLine
10
-78.4912400829437
20
0.0863097135297801
30
0.000000000000000
11
-78.3912400829437
21
-0.120385503419505
31
0.000000000000000
  0
LINE
  5
F10196
330
F10197
100
AcDbEntity
8
Geo
100
AcDbLine
10
-78.3912400829437
20
-0.120385503419505
30
0.000000000000000
11
-78.2912400829437
21
-0.318145960249248
31
0.000000000000000
  0
LINE
  5
F10198
330
F10199
100
AcDbEntity
8
Geo
100
AcDbLine
10
-78.2912400829437
20
-0.318145960249248
30
0.000000000000000
11
-78.1912400829437
21
-0.506678714673279
31
0.000000000000000
  0
LINE
  5
F1019A
330
F1019B
100
AcDbEntity
8
Geo
100
AcDbLine
10
-78.1912400829437
20
-0.506678714673279
30
0.000000000000000
11
-78.0912400829437
21
-0.685704493388005
31
0.000000000000000
  0
LINE
  5
F1019C
330
F1019D
100
AcDbEntity
8
Geo
100
AcDbLine
10
-78.0912400829437
20
-0.685704493388005
30
0.000000000000000
11
-77.9912400829437
21
-0.854958105759567
31
0.000000000000000
  0
LINE
  5
F1019E
330
F1019F
100
AcDbEntity
8
Geo
100
AcDbLine
10
-77.9912400829437
20
-0.854958105759567
30
0.000000000000000
11
-77.8912400829437
21
-1.01418883665034
31
0.000000000000000
  0
LINE
  5
F101A0
330
F101A1
100
AcDbEntity
8
Geo
100
AcDbLine
10
-77.8912400829437
20
-1.01418883665034
30
0.000000000000000
11
-77.7912400829437
21
-1.16316081780291
31
0.000000000000000
  0
LINE
  5
F101A2
330
F101A3
100
AcDbEntity
8
Geo
100
AcDbLine
10
-77.7912400829437
20
-1.16316081780291
30
0.000000000000000
11
-77.6912400829437
21
-1.30165337723143
31
0.000000000000000
  0
LINE
  5
F101A4
330
F101A5
100
AcDbEntity
8
Geo
100
AcDbLine
10
-77.6912400829437
20
-1.30165337723143
30
0.000000000000000
11
-77.5912400829437
21
-1.42946136610267
31
0.000000000000000
  0
LINE
  5
F101A6
330
F101A7
100
AcDbEntity
8
Geo
100
AcDbLine
10
-77.5912400829437
20
-1.42946136610267
30
0.000000000000000
11
-77.4912400829437
21
-1.54639546262272
31
0.000000000000000
  0
LINE
  5
F101A8
330
F101A9
100
AcDbEntity
8
Geo
100
AcDbLine
10
-77.4912400829437
20
-1.54639546262272
30
0.000000000000000
11
-77.3912400829437
21
-1.65228245247910
31
0.000000000000000
  0
LINE
  5
F101AA
330
F101AB
100
AcDbEntity
8
Geo
100
AcDbLine
10
-77.3912400829437
20
-1.65228245247910
30
0.000000000000000
11
-77.2912400829437
21
-1.74696548542287
31
0.000000000000000
  0
LINE
  5
F101AC
330
F101AD
100
AcDbEntity
8
Geo
100
AcDbLine
10
-77.2912400829437
20
-1.74696548542287
30
0.000000000000000
11
-77.1912400829437
21
-1.83030430761070
31
0.000000000000000
  0
LINE
  5
F101AE
330
F101AF
100
AcDbEntity
8
Geo
100
AcDbLine
10
-77.1912400829437
20
-1.83030430761070
30
0.000000000000000
11
-77.0912400829437
21
-1.90217546936264
31
0.000000000000000
  0
LINE
  5
F101B0
330
F101B1
100
AcDbEntity
8
Geo
100
AcDbLine
10
-77.0912400829437
20
-1.90217546936264
30
0.000000000000000
11
-76.9912400829437
21
-1.96247250802803
31
0.000000000000000
  0
LINE
  5
F101B2
330
F101B3
100
AcDbEntity
8
Geo
100
AcDbLine
10
-76.9912400829437
20
-1.96247250802803
30
0.000000000000000
11
-76.8912400829437
21
-2.01110610568840
31
0.000000000000000
  0
LINE
  5
F101B4
330
F101B5
100
AcDbEntity
8
Geo
100
AcDbLine
10
-76.8912400829437
20
-2.01110610568840
30
0.000000000000000
11
-76.7912400829437
21
-2.04800422146405
31
0.000000000000000
  0
LINE
  5
F101B6
330
F101B7
100
AcDbEntity
8
Geo
100
AcDbLine
10
-76.7912400829437
20
-2.04800422146405
30
0.000000000000000
11
-76.6912400829437
21
-2.07311219822804
31
0.000000000000000
  0
LINE
  5
F101B8
330
F101B9
100
AcDbEntity
8
Geo
100
AcDbLine
10
-76.6912400829437
20
-2.07311219822804
30
0.000000000000000
11
-76.5912400829437
21
-2.08639284356976
31
0.000000000000000
  0
LINE
  5
F101BA
330
F101BB
100
AcDbEntity
8
Geo
100
AcDbLine
10
-84.6912400829437
20
13.0442460679847
30
0.000000000000000
11
-84.5912400829437
21
13.2313178700881
31
0.000000000000000
  0
LINE
  5
F101BC
330
F101BD
100
AcDbEntity
8
Geo
100
AcDbLine
10
-84.5912400829437
20
13.2313178700881
30
0.000000000000000
11
-84.4912400829436
21
13.2146771490747
31
0.000000000000000
  0
LINE
  5
F101BE
330
F101BF
100
AcDbEntity
8
Geo
100
AcDbLine
10
-84.4912400829436
20
13.2146771490747
30
0.000000000000000
11
-84.3912400829437
21
13.1463350142686
31
0.000000000000000
  0
LINE
  5
F101C0
330
F101C1
100
AcDbEntity
8
Geo
100
AcDbLine
10
-84.3912400829437
20
13.1463350142686
30
0.000000000000000
11
-84.2912400829436
21
13.0416544381545
31
0.000000000000000
  0
LINE
  5
F101C2
330
F101C3
100
AcDbEntity
8
Geo
100
AcDbLine
10
-84.2912400829436
20
13.0416544381545
30
0.000000000000000
11
-84.1912400829437
21
12.9064799832517
31
0.000000000000000
  0
LINE
  5
F101C4
330
F101C5
100
AcDbEntity
8
Geo
100
AcDbLine
10
-84.1912400829437
20
12.9064799832517
30
0.000000000000000
11
-84.0912400829437
21
12.7519283540067
31
0.000000000000000
  0
LINE
  5
F101C6
330
F101C7
100
AcDbEntity
8
Geo
100
AcDbLine
10
-84.0912400829437
20
12.7519283540067
30
0.000000000000000
11
-83.9912400829436
21
12.5872437444941
31
0.000000000000000
  0
LINE
  5
F101C8
330
F101C9
100
AcDbEntity
8
Geo
100
AcDbLine
10
-83.9912400829436
20
12.5872437444941
30
0.000000000000000
11
-83.8912400829437
21
12.4126701017940
31
0.000000000000000
  0
LINE
  5
F101CA
330
F101CB
100
AcDbEntity
8
Geo
100
AcDbLine
10
-83.8912400829437
20
12.4126701017940
30
0.000000000000000
11
-83.7912400829436
21
12.2284660215974
31
0.000000000000000
  0
LINE
  5
F101CC
330
F101CD
100
AcDbEntity
8
Geo
100
AcDbLine
10
-83.7912400829436
20
12.2284660215974
30
0.000000000000000
11
-83.6912400829437
21
12.0349043651489
31
0.000000000000000
  0
LINE
  5
F101CE
330
F101CF
100
AcDbEntity
8
Geo
100
AcDbLine
10
-83.6912400829437
20
12.0349043651489
30
0.000000000000000
11
-83.5912400829437
21
11.8322718550575
31
0.000000000000000
  0
LINE
  5
F101D0
330
F101D1
100
AcDbEntity
8
Geo
100
AcDbLine
10
-83.5912400829437
20
11.8322718550575
30
0.000000000000000
11
-83.4912400829436
21
11.6208686505752
31
0.000000000000000
  0
LINE
  5
F101D2
330
F101D3
100
AcDbEntity
8
Geo
100
AcDbLine
10
-83.4912400829436
20
11.6208686505752
30
0.000000000000000
11
-83.3912400829437
21
11.4010079029708
31
0.000000000000000
  0
LINE
  5
F101D4
330
F101D5
100
AcDbEntity
8
Geo
100
AcDbLine
10
-83.3912400829437
20
11.4010079029708
30
0.000000000000000
11
-83.2912400829436
21
11.1730152916603
31
0.000000000000000
  0
LINE
  5
F101D6
330
F101D7
100
AcDbEntity
8
Geo
100
AcDbLine
10
-83.2912400829436
20
11.1730152916603
30
0.000000000000000
11
-83.1912400829437
21
10.9372285417775
31
0.000000000000000
  0
LINE
  5
F101D8
330
F101D9
100
AcDbEntity
8
Geo
100
AcDbLine
10
-83.1912400829437
20
10.9372285417775
30
0.000000000000000
11
-83.0912400829437
21
10.6939969239031
31
0.000000000000000
  0
LINE
  5
F101DA
330
F101DB
100
AcDbEntity
8
Geo
100
AcDbLine
10
-83.0912400829437
20
10.6939969239031
30
0.000000000000000
11
-82.9912400829436
21
10.4436807366900
31
0.000000000000000
  0
LINE
  5
F101DC
330
F101DD
100
AcDbEntity
8
Geo
100
AcDbLine
10
-82.9912400829436
20
10.4436807366900
30
0.000000000000000
11
-82.8912400829437
21
10.1866507731537
31
0.000000000000000
  0
LINE
  5
F101DE
330
F101DF
100
AcDbEntity
8
Geo
100
AcDbLine
10
-82.8912400829437
20
10.1866507731537
30
0.000000000000000
11
-82.7912400829436
21
9.92328777141734
31
0.000000000000000
  0
LINE
  5
F101E0
330
F101E1
100
AcDbEntity
8
Geo
100
AcDbLine
10
-82.7912400829436
20
9.92328777141734
30
0.000000000000000
11
-82.6912400829437
21
9.65398185072433
31
0.000000000000000
  0
LINE
  5
F101E2
330
F101E3
100
AcDbEntity
8
Geo
100
AcDbLine
10
-82.6912400829437
20
9.65398185072433
30
0.000000000000000
11
-82.5912400829437
21
9.37913193355573
31
0.000000000000000
  0
LINE
  5
F101E4
330
F101E5
100
AcDbEntity
8
Geo
100
AcDbLine
10
-82.5912400829437
20
9.37913193355573
30
0.000000000000000
11
-82.4912400829436
21
9.09914515470673
31
0.000000000000000
  0
LINE
  5
F101E6
330
F101E7
100
AcDbEntity
8
Geo
100
AcDbLine
10
-82.4912400829436
20
9.09914515470673
30
0.000000000000000
11
-82.3912400829437
21
8.81443625819850
31
0.000000000000000
  0
LINE
  5
F101E8
330
F101E9
100
AcDbEntity
8
Geo
100
AcDbLine
10
-82.3912400829437
20
8.81443625819850
30
0.000000000000000
11
-82.2912400829436
21
8.52542698291845
31
0.000000000000000
  0
LINE
  5
F101EA
330
F101EB
100
AcDbEntity
8
Geo
100
AcDbLine
10
-82.2912400829436
20
8.52542698291845
30
0.000000000000000
11
-82.1912400829437
21
8.23254543789899
31
0.000000000000000
  0
LINE
  5
F101EC
330
F101ED
100
AcDbEntity
8
Geo
100
AcDbLine
10
-82.1912400829437
20
8.23254543789899
30
0.000000000000000
11
-82.0912400829437
21
7.93622546816026
31
0.000000000000000
  0
LINE
  5
F101EE
330
F101EF
100
AcDbEntity
8
Geo
100
AcDbLine
10
-82.0912400829437
20
7.93622546816026
30
0.000000000000000
11
-81.9912400829436
21
7.63690601205608
31
0.000000000000000
  0
LINE
  5
F101F0
330
F101F1
100
AcDbEntity
8
Geo
100
AcDbLine
10
-81.9912400829436
20
7.63690601205608
30
0.000000000000000
11
-81.8912400829437
21
7.33503045107522
31
0.000000000000000
  0
LINE
  5
F101F2
330
F101F3
100
AcDbEntity
8
Geo
100
AcDbLine
10
-81.8912400829437
20
7.33503045107522
30
0.000000000000000
11
-81.7912400829436
21
7.03104595306097
31
0.000000000000000
  0
LINE
  5
F101F4
330
F101F5
100
AcDbEntity
8
Geo
100
AcDbLine
10
-81.7912400829436
20
7.03104595306097
30
0.000000000000000
11
-81.6912400829437
21
6.72540280982211
31
0.000000000000000
  0
LINE
  5
F101F6
330
F101F7
100
AcDbEntity
8
Geo
100
AcDbLine
10
-81.6912400829437
20
6.72540280982211
30
0.000000000000000
11
-81.5912400829436
21
6.41855377011623
31
0.000000000000000
  0
LINE
  5
F101F8
330
F101F9
100
AcDbEntity
8
Geo
100
AcDbLine
10
-81.5912400829436
20
6.41855377011623
30
0.000000000000000
11
-81.4912400829436
21
6.11095336899368
31
0.000000000000000
  0
LINE
  5
F101FA
330
F101FB
100
AcDbEntity
8
Geo
100
AcDbLine
10
-81.4912400829436
20
6.11095336899368
30
0.000000000000000
11
-81.3912400829437
21
5.80305725449540
31
0.000000000000000
  0
LINE
  5
F101FC
330
F101FD
100
AcDbEntity
8
Geo
100
AcDbLine
10
-81.3912400829437
20
5.80305725449540
30
0.000000000000000
11
-81.2912400829436
21
5.49532151270215
31
0.000000000000000
  0
LINE
  5
F101FE
330
F101FF
100
AcDbEntity
8
Geo
100
AcDbLine
10
-81.2912400829436
20
5.49532151270215
30
0.000000000000000
11
-81.1912400829437
21
5.18820199213482
31
0.000000000000000
  0
LINE
  5
F10200
330
F10201
100
AcDbEntity
8
Geo
100
AcDbLine
10
-81.1912400829437
20
5.18820199213482
30
0.000000000000000
11
-81.0912400829436
21
4.88215362850667
31
0.000000000000000
  0
LINE
  5
F10202
330
F10203
100
AcDbEntity
8
Geo
100
AcDbLine
10
-81.0912400829436
20
4.88215362850667
30
0.000000000000000
11
-80.9912400829436
21
4.57762977082769
31
0.000000000000000
  0
LINE
  5
F10204
330
F10205
100
AcDbEntity
8
Geo
100
AcDbLine
10
-80.9912400829436
20
4.57762977082769
30
0.000000000000000
11
-80.8912400829437
21
4.27508150985935
31
0.000000000000000
  0
LINE
  5
F10206
330
F10207
100
AcDbEntity
8
Geo
100
AcDbLine
10
-80.8912400829437
20
4.27508150985935
30
0.000000000000000
11
-80.7912400829436
21
3.97495700991452
31
0.000000000000000
  0
LINE
  5
F10208
330
F10209
100
AcDbEntity
8
Geo
100
AcDbLine
10
-80.7912400829436
20
3.97495700991452
30
0.000000000000000
11
-80.6912400829437
21
3.67770084499226
31
0.000000000000000
  0
LINE
  5
F1020A
330
F1020B
100
AcDbEntity
8
Geo
100
AcDbLine
10
-80.6912400829437
20
3.67770084499226
30
0.000000000000000
11
-80.5912400829436
21
3.38375334023100
31
0.000000000000000
  0
LINE
  5
F1020C
330
F1020D
100
AcDbEntity
8
Geo
100
AcDbLine
10
-80.5912400829436
20
3.38375334023100
30
0.000000000000000
11
-80.4912400829436
21
3.09354991965553
31
0.000000000000000
  0
LINE
  5
F1020E
330
F1020F
100
AcDbEntity
8
Geo
100
AcDbLine
10
-80.4912400829436
20
3.09354991965553
30
0.000000000000000
11
-80.3912400829437
21
2.80752046118402
31
0.000000000000000
  0
LINE
  5
F10210
330
F10211
100
AcDbEntity
8
Geo
100
AcDbLine
10
-80.3912400829437
20
2.80752046118402
30
0.000000000000000
11
-80.2912400829436
21
2.52608865985045
31
0.000000000000000
  0
LINE
  5
F10212
330
F10213
100
AcDbEntity
8
Geo
100
AcDbLine
10
-80.2912400829436
20
2.52608865985045
30
0.000000000000000
11
-80.1912400829437
21
2.24967140018576
31
0.000000000000000
  0
LINE
  5
F10214
330
F10215
100
AcDbEntity
8
Geo
100
AcDbLine
10
-80.1912400829437
20
2.24967140018576
30
0.000000000000000
11
-80.0912400829437
21
1.97867813868737
31
0.000000000000000
  0
LINE
  5
F10216
330
F10217
100
AcDbEntity
8
Geo
100
AcDbLine
10
-80.0912400829437
20
1.97867813868737
30
0.000000000000000
11
-79.9912400829436
21
1.71351029729187
31
0.000000000000000
  0
LINE
  5
F10218
330
F10219
100
AcDbEntity
8
Geo
100
AcDbLine
10
-79.9912400829436
20
1.71351029729187
30
0.000000000000000
11
-79.8912400829437
21
1.45456066874923
31
0.000000000000000
  0
LINE
  5
F1021A
330
F1021B
100
AcDbEntity
8
Geo
100
AcDbLine
10
-79.8912400829437
20
1.45456066874923
30
0.000000000000000
11
-79.7912400829437
21
1.20221283477952
31
0.000000000000000
  0
LINE
  5
F1021C
330
F1021D
100
AcDbEntity
8
Geo
100
AcDbLine
10
-79.7912400829437
20
1.20221283477952
30
0.000000000000000
11
-79.6912400829437
21
0.956840597873772
31
0.000000000000000
  0
LINE
  5
F1021E
330
F1021F
100
AcDbEntity
8
Geo
100
AcDbLine
10
-79.6912400829437
20
0.956840597873772
30
0.000000000000000
11
-79.5912400829437
21
0.718807427580921
31
0.000000000000000
  0
LINE
  5
F10220
330
F10221
100
AcDbEntity
8
Geo
100
AcDbLine
10
-79.5912400829437
20
0.718807427580921
30
0.000000000000000
11
-79.4912400829436
21
0.488465922100870
31
0.000000000000000
  0
LINE
  5
F10222
330
F10223
100
AcDbEntity
8
Geo
100
AcDbLine
10
-79.4912400829436
20
0.488465922100870
30
0.000000000000000
11
-79.3912400829437
21
0.266157285981263
31
0.000000000000000
  0
LINE
  5
F10224
330
F10225
100
AcDbEntity
8
Geo
100
AcDbLine
10
-79.3912400829437
20
0.266157285981263
30
0.000000000000000
11
-79.2912400829437
21
0.0522108246916835
31
0.000000000000000
  0
LINE
  5
F10226
330
F10227
100
AcDbEntity
8
Geo
100
AcDbLine
10
-79.2912400829437
20
0.0522108246916835
30
0.000000000000000
11
-79.1912400829437
21
-0.153056543176095
31
0.000000000000000
  0
LINE
  5
F10228
330
F10229
100
AcDbEntity
8
Geo
100
AcDbLine
10
-79.1912400829437
20
-0.153056543176095
30
0.000000000000000
11
-79.0912400829437
21
-0.349340755359154
31
0.000000000000000
  0
LINE
  5
F1022A
330
F1022B
100
AcDbEntity
8
Geo
100
AcDbLine
10
-79.0912400829437
20
-0.349340755359154
30
0.000000000000000
11
-78.9912400829436
21
-0.536351056330443
31
0.000000000000000
  0
LINE
  5
F1022C
330
F1022D
100
AcDbEntity
8
Geo
100
AcDbLine
10
-78.9912400829436
20
-0.536351056330443
30
0.000000000000000
11
-78.8912400829437
21
-0.713810427994521
31
0.000000000000000
  0
LINE
  5
F1022E
330
F1022F
100
AcDbEntity
8
Geo
100
AcDbLine
10
-78.8912400829437
20
-0.713810427994521
30
0.000000000000000
11
-78.7912400829437
21
-0.881456000034085
31
0.000000000000000
  0
LINE
  5
F10230
330
F10231
100
AcDbEntity
8
Geo
100
AcDbLine
10
-78.7912400829437
20
-0.881456000034085
30
0.000000000000000
11
-78.6912400829437
21
-1.03903943929939
31
0.000000000000000
  0
LINE
  5
F10232
330
F10233
100
AcDbEntity
8
Geo
100
AcDbLine
10
-78.6912400829437
20
-1.03903943929939
30
0.000000000000000
11
-78.5912400829437
21
-1.18632731766380
31
0.000000000000000
  0
LINE
  5
F10234
330
F10235
100
AcDbEntity
8
Geo
100
AcDbLine
10
-78.5912400829437
20
-1.18632731766380
30
0.000000000000000
11
-78.4912400829437
21
-1.32310145780053
31
0.000000000000000
  0
LINE
  5
F10236
330
F10237
100
AcDbEntity
8
Geo
100
AcDbLine
10
-78.4912400829437
20
-1.32310145780053
30
0.000000000000000
11
-78.3912400829437
21
-1.44915925636845
31
0.000000000000000
  0
LINE
  5
F10238
330
F10239
100
AcDbEntity
8
Geo
100
AcDbLine
10
-78.3912400829437
20
-1.44915925636845
30
0.000000000000000
11
-78.2912400829437
21
-1.56431398412807
31
0.000000000000000
  0
LINE
  5
F1023A
330
F1023B
100
AcDbEntity
8
Geo
100
AcDbLine
10
-78.2912400829437
20
-1.56431398412807
30
0.000000000000000
11
-78.1912400829437
21
-1.66839506254335
31
0.000000000000000
  0
LINE
  5
F1023C
330
F1023D
100
AcDbEntity
8
Geo
100
AcDbLine
10
-78.1912400829437
20
-1.66839506254335
30
0.000000000000000
11
-78.0912400829437
21
-1.76124831645943
31
0.000000000000000
  0
LINE
  5
F1023E
330
F1023F
100
AcDbEntity
8
Geo
100
AcDbLine
10
-78.0912400829437
20
-1.76124831645943
30
0.000000000000000
11
-77.9912400829437
21
-1.84273620248207
31
0.000000000000000
  0
LINE
  5
F10240
330
F10241
100
AcDbEntity
8
Geo
100
AcDbLine
10
-77.9912400829437
20
-1.84273620248207
30
0.000000000000000
11
-77.8912400829437
21
-1.91273801272046
31
0.000000000000000
  0
LINE
  5
F10242
330
F10243
100
AcDbEntity
8
Geo
100
AcDbLine
10
-77.8912400829437
20
-1.91273801272046
30
0.000000000000000
11
-77.7912400829437
21
-1.97115005359168
31
0.000000000000000
  0
LINE
  5
F10244
330
F10245
100
AcDbEntity
8
Geo
100
AcDbLine
10
-77.7912400829437
20
-1.97115005359168
30
0.000000000000000
11
-77.6912400829437
21
-2.01788579942188
31
0.000000000000000
  0
LINE
  5
F10246
330
F10247
100
AcDbEntity
8
Geo
100
AcDbLine
10
-77.6912400829437
20
-2.01788579942188
30
0.000000000000000
11
-77.5912400829437
21
-2.05287602061658
31
0.000000000000000
  0
LINE
  5
F10248
330
F10249
100
AcDbEntity
8
Geo
100
AcDbLine
10
-77.5912400829437
20
-2.05287602061658
30
0.000000000000000
11
-77.4912400829437
21
-2.07606888621039
31
0.000000000000000
  0
LINE
  5
F1024A
330
F1024B
100
AcDbEntity
8
Geo
100
AcDbLine
10
-77.4912400829437
20
-2.07606888621039
30
0.000000000000000
11
-77.3912400829437
21
-2.08743004064419
31
0.000000000000000
  0
LINE
  5
F1024C
330
F1024D
100
AcDbEntity
8
Geo
100
AcDbLine
10
-69.1912400829437
20
13.9113221957711
30
0.000000000000000
11
-69.0912400829437
21
13.9109976626269
31
0.000000000000000
  0
LINE
  5
F1024E
330
F1024F
100
AcDbEntity
8
Geo
100
AcDbLine
10
-69.0912400829437
20
13.9109976626269
30
0.000000000000000
11
-68.9912400829437
21
13.9053207617721
31
0.000000000000000
  0
LINE
  5
F10250
330
F10251
100
AcDbEntity
8
Geo
100
AcDbLine
10
-68.9912400829437
20
13.9053207617721
30
0.000000000000000
11
-68.8912400829437
21
13.8930339729892
31
0.000000000000000
  0
LINE
  5
F10252
330
F10253
100
AcDbEntity
8
Geo
100
AcDbLine
10
-68.8912400829437
20
13.8930339729892
30
0.000000000000000
11
-68.7912400829437
21
13.8747265978506
31
0.000000000000000
  0
LINE
  5
F10254
330
F10255
100
AcDbEntity
8
Geo
100
AcDbLine
10
-68.7912400829437
20
13.8747265978506
30
0.000000000000000
11
-68.6912400829437
21
13.8509742645190
31
0.000000000000000
  0
LINE
  5
F10256
330
F10257
100
AcDbEntity
8
Geo
100
AcDbLine
10
-68.6912400829437
20
13.8509742645190
30
0.000000000000000
11
-68.5912400829437
21
13.8223376332582
31
0.000000000000000
  0
LINE
  5
F10258
330
F10259
100
AcDbEntity
8
Geo
100
AcDbLine
10
-68.5912400829437
20
13.8223376332582
30
0.000000000000000
11
-68.4912400829436
21
13.7893612887750
31
0.000000000000000
  0
LINE
  5
F1025A
330
F1025B
100
AcDbEntity
8
Geo
100
AcDbLine
10
-68.4912400829436
20
13.7893612887750
30
0.000000000000000
11
-68.3912400829437
21
13.7525728069230
31
0.000000000000000
  0
LINE
  5
F1025C
330
F1025D
100
AcDbEntity
8
Geo
100
AcDbLine
10
-68.3912400829437
20
13.7525728069230
30
0.000000000000000
11
-68.2912400829437
21
13.7124819832711
31
0.000000000000000
  0
LINE
  5
F1025E
330
F1025F
100
AcDbEntity
8
Geo
100
AcDbLine
10
-68.2912400829437
20
13.7124819832711
30
0.000000000000000
11
-68.1912400829437
21
13.6695802111027
31
0.000000000000000
  0
LINE
  5
F10260
330
F10261
100
AcDbEntity
8
Geo
100
AcDbLine
10
-68.1912400829437
20
13.6695802111027
30
0.000000000000000
11
-68.0912400829436
21
13.6243399965583
31
0.000000000000000
  0
LINE
  5
F10262
330
F10263
100
AcDbEntity
8
Geo
100
AcDbLine
10
-68.0912400829436
20
13.6243399965583
30
0.000000000000000
11
-67.9912400829436
21
13.5772145988608
31
0.000000000000000
  0
LINE
  5
F10264
330
F10265
100
AcDbEntity
8
Geo
100
AcDbLine
10
-67.9912400829436
20
13.5772145988608
30
0.000000000000000
11
-67.8912400829437
21
13.5286377838419
31
0.000000000000000
  0
LINE
  5
F10266
330
F10267
100
AcDbEntity
8
Geo
100
AcDbLine
10
-67.8912400829437
20
13.5286377838419
30
0.000000000000000
11
-67.7912400829436
21
13.4790236793288
31
0.000000000000000
  0
LINE
  5
F10268
330
F10269
100
AcDbEntity
8
Geo
100
AcDbLine
10
-67.7912400829436
20
13.4790236793288
30
0.000000000000000
11
-67.6912400829436
21
13.4287667213301
31
0.000000000000000
  0
LINE
  5
F1026A
330
F1026B
100
AcDbEntity
8
Geo
100
AcDbLine
10
-67.6912400829436
20
13.4287667213301
30
0.000000000000000
11
-67.5912400829436
21
13.3782416803781
31
0.000000000000000
  0
LINE
  5
F1026C
330
F1026D
100
AcDbEntity
8
Geo
100
AcDbLine
10
-67.5912400829436
20
13.3782416803781
30
0.000000000000000
11
-67.4912400829436
21
13.3278037578291
31
0.000000000000000
  0
LINE
  5
F1026E
330
F1026F
100
AcDbEntity
8
Geo
100
AcDbLine
10
-67.4912400829436
20
13.3278037578291
30
0.000000000000000
11
-67.3912400829436
21
13.2777887423920
31
0.000000000000000
  0
LINE
  5
F10270
330
F10271
100
AcDbEntity
8
Geo
100
AcDbLine
10
-67.3912400829436
20
13.2777887423920
30
0.000000000000000
11
-67.2912400829436
21
13.2285132176380
31
0.000000000000000
  0
LINE
  5
F10272
330
F10273
100
AcDbEntity
8
Geo
100
AcDbLine
10
-67.2912400829436
20
13.2285132176380
30
0.000000000000000
11
-67.1912400829436
21
13.1802748117389
31
0.000000000000000
  0
LINE
  5
F10274
330
F10275
100
AcDbEntity
8
Geo
100
AcDbLine
10
-67.1912400829436
20
13.1802748117389
30
0.000000000000000
11
-67.0912400829436
21
13.1333524811788
31
0.000000000000000
  0
LINE
  5
F10276
330
F10277
100
AcDbEntity
8
Geo
100
AcDbLine
10
-67.0912400829436
20
13.1333524811788
30
0.000000000000000
11
-66.9912400829436
21
13.0880068206881
31
0.000000000000000
  0
LINE
  5
F10278
330
F10279
100
AcDbEntity
8
Geo
100
AcDbLine
10
-66.9912400829436
20
13.0880068206881
30
0.000000000000000
11
-66.8912400829436
21
13.0444803921468
31
0.000000000000000
  0
LINE
  5
F1027A
330
F1027B
100
AcDbEntity
8
Geo
100
AcDbLine
10
-66.8912400829436
20
13.0444803921468
30
0.000000000000000
11
-66.7912400829436
21
13.0029980656978
31
0.000000000000000
  0
LINE
  5
F1027C
330
F1027D
100
AcDbEntity
8
Geo
100
AcDbLine
10
-66.7912400829436
20
13.0029980656978
30
0.000000000000000
11
-66.6912400829436
21
12.9637673668021
31
0.000000000000000
  0
LINE
  5
F1027E
330
F1027F
100
AcDbEntity
8
Geo
100
AcDbLine
10
-66.6912400829436
20
12.9637673668021
30
0.000000000000000
11
-66.5912400829436
21
12.9269788234447
31
0.000000000000000
  0
LINE
  5
F10280
330
F10281
100
AcDbEntity
8
Geo
100
AcDbLine
10
-66.5912400829436
20
12.9269788234447
30
0.000000000000000
11
-66.4912400829436
21
12.8928063081685
31
0.000000000000000
  0
LINE
  5
F10282
330
F10283
100
AcDbEntity
8
Geo
100
AcDbLine
10
-66.4912400829436
20
12.8928063081685
30
0.000000000000000
11
-66.3912400829436
21
12.8614073700739
31
0.000000000000000
  0
LINE
  5
F10284
330
F10285
100
AcDbEntity
8
Geo
100
AcDbLine
10
-66.3912400829436
20
12.8614073700739
30
0.000000000000000
11
-66.2912400829436
21
12.8329235523653
31
0.000000000000000
  0
LINE
  5
F10286
330
F10287
100
AcDbEntity
8
Geo
100
AcDbLine
10
-66.2912400829436
20
12.8329235523653
30
0.000000000000000
11
-66.1912400829436
21
12.8074806914597
31
0.000000000000000
  0
LINE
  5
F10288
330
F10289
100
AcDbEntity
8
Geo
100
AcDbLine
10
-66.1912400829436
20
12.8074806914597
30
0.000000000000000
11
-66.0912400829436
21
12.7851891940956
31
0.000000000000000
  0
LINE
  5
F1028A
330
F1028B
100
AcDbEntity
8
Geo
100
AcDbLine
10
-66.0912400829436
20
12.7851891940956
30
0.000000000000000
11
-65.9912400829436
21
12.7661442892883
31
0.000000000000000
  0
LINE
  5
F1028C
330
F1028D
100
AcDbEntity
8
Geo
100
AcDbLine
10
-65.9912400829436
20
12.7661442892883
30
0.000000000000000
11
-65.8912400829436
21
12.7504262523782
31
0.000000000000000
  0
LINE
  5
F1028E
330
F1028F
100
AcDbEntity
8
Geo
100
AcDbLine
10
-65.8912400829436
20
12.7504262523782
30
0.000000000000000
11
-65.7912400829436
21
12.7381005988045
31
0.000000000000000
  0
LINE
  5
F10290
330
F10291
100
AcDbEntity
8
Geo
100
AcDbLine
10
-65.7912400829436
20
12.7381005988045
30
0.000000000000000
11
-65.6912400829437
21
12.7292182456183
31
0.000000000000000
  0
LINE
  5
F10292
330
F10293
100
AcDbEntity
8
Geo
100
AcDbLine
10
-84.6912400829437
20
5.91132219577105
30
0.000000000000000
11
-84.5912400829437
21
5.61117417922506
31
0.000000000000000
  0
LINE
  5
F10294
330
F10295
100
AcDbEntity
8
Geo
100
AcDbLine
10
-84.5912400829437
20
5.61117417922506
30
0.000000000000000
11
-84.4912400829436
21
5.30378036863814
31
0.000000000000000
  0
LINE
  5
F10296
330
F10297
100
AcDbEntity
8
Geo
100
AcDbLine
10
-84.4912400829436
20
5.30378036863814
30
0.000000000000000
11
-84.3912400829437
21
4.99442249464866
31
0.000000000000000
  0
LINE
  5
F10298
330
F10299
100
AcDbEntity
8
Geo
100
AcDbLine
10
-84.3912400829437
20
4.99442249464866
30
0.000000000000000
11
-84.2912400829436
21
4.68605093172652
31
0.000000000000000
  0
LINE
  5
F1029A
330
F1029B
100
AcDbEntity
8
Geo
100
AcDbLine
10
-84.2912400829436
20
4.68605093172652
30
0.000000000000000
11
-84.1912400829437
21
4.38120760211917
31
0.000000000000000
  0
LINE
  5
F1029C
330
F1029D
100
AcDbEntity
8
Geo
100
AcDbLine
10
-84.1912400829437
20
4.38120760211917
30
0.000000000000000
11
-84.0912400829437
21
4.08018000450321
31
0.000000000000000
  0
LINE
  5
F1029E
330
F1029F
100
AcDbEntity
8
Geo
100
AcDbLine
10
-84.0912400829437
20
4.08018000450321
30
0.000000000000000
11
-83.9912400829436
21
3.78186487523612
31
0.000000000000000
  0
LINE
  5
F102A0
330
F102A1
100
AcDbEntity
8
Geo
100
AcDbLine
10
-83.9912400829436
20
3.78186487523612
30
0.000000000000000
11
-83.8912400829437
21
3.48670410809875
31
0.000000000000000
  0
LINE
  5
F102A2
330
F102A3
100
AcDbEntity
8
Geo
100
AcDbLine
10
-83.8912400829437
20
3.48670410809875
30
0.000000000000000
11
-83.7912400829436
21
3.19513492431972
31
0.000000000000000
  0
LINE
  5
F102A4
330
F102A5
100
AcDbEntity
8
Geo
100
AcDbLine
10
-83.7912400829436
20
3.19513492431972
30
0.000000000000000
11
-83.6912400829437
21
2.90758922492032
31
0.000000000000000
  0
LINE
  5
F102A6
330
F102A7
100
AcDbEntity
8
Geo
100
AcDbLine
10
-83.6912400829437
20
2.90758922492032
30
0.000000000000000
11
-83.5912400829437
21
2.62449295094008
31
0.000000000000000
  0
LINE
  5
F102A8
330
F102A9
100
AcDbEntity
8
Geo
100
AcDbLine
10
-83.5912400829437
20
2.62449295094008
30
0.000000000000000
11
-83.4912400829436
21
2.34626545249093
31
0.000000000000000
  0
LINE
  5
F102AA
330
F102AB
100
AcDbEntity
8
Geo
100
AcDbLine
10
-83.4912400829436
20
2.34626545249093
30
0.000000000000000
11
-83.3912400829437
21
2.07331886757444
31
0.000000000000000
  0
LINE
  5
F102AC
330
F102AD
100
AcDbEntity
8
Geo
100
AcDbLine
10
-83.3912400829437
20
2.07331886757444
30
0.000000000000000
11
-83.2912400829436
21
1.80605751158243
31
0.000000000000000
  0
LINE
  5
F102AE
330
F102AF
100
AcDbEntity
8
Geo
100
AcDbLine
10
-83.2912400829436
20
1.80605751158243
30
0.000000000000000
11
-83.1912400829437
21
1.54487727838511
31
0.000000000000000
  0
LINE
  5
F102B0
330
F102B1
100
AcDbEntity
8
Geo
100
AcDbLine
10
-83.1912400829437
20
1.54487727838511
30
0.000000000000000
11
-83.0912400829437
21
1.29016505389406
31
0.000000000000000
  0
LINE
  5
F102B2
330
F102B3
100
AcDbEntity
8
Geo
100
AcDbLine
10
-83.0912400829437
20
1.29016505389406
30
0.000000000000000
11
-82.9912400829436
21
1.04229814296868
31
0.000000000000000
  0
LINE
  5
F102B4
330
F102B5
100
AcDbEntity
8
Geo
100
AcDbLine
10
-82.9912400829436
20
1.04229814296868
30
0.000000000000000
11
-82.8912400829437
21
0.801643710515004
31
0.000000000000000
  0
LINE
  5
F102B6
330
F102B7
100
AcDbEntity
8
Geo
100
AcDbLine
10
-82.8912400829437
20
0.801643710515004
30
0.000000000000000
11
-82.7912400829436
21
0.568558237604892
31
0.000000000000000
  0
LINE
  5
F102B8
330
F102B9
100
AcDbEntity
8
Geo
100
AcDbLine
10
-82.7912400829436
20
0.568558237604892
30
0.000000000000000
11
-82.6912400829437
21
0.343386993421072
31
0.000000000000000
  0
LINE
  5
F102BA
330
F102BB
100
AcDbEntity
8
Geo
100
AcDbLine
10
-82.6912400829437
20
0.343386993421072
30
0.000000000000000
11
-82.5912400829437
21
0.126463523810422
31
0.000000000000000
  0
LINE
  5
F102BC
330
F102BD
100
AcDbEntity
8
Geo
100
AcDbLine
10
-82.5912400829437
20
0.126463523810422
30
0.000000000000000
11
-82.4912400829436
21
-0.0818908427970539
31
0.000000000000000
  0
LINE
  5
F102BE
330
F102BF
100
AcDbEntity
8
Geo
100
AcDbLine
10
-82.4912400829436
20
-0.0818908427970539
30
0.000000000000000
11
-82.3912400829437
21
-0.281367471371547
31
0.000000000000000
  0
LINE
  5
F102C0
330
F102C1
100
AcDbEntity
8
Geo
100
AcDbLine
10
-82.3912400829437
20
-0.281367471371547
30
0.000000000000000
11
-82.2912400829436
21
-0.471670877464105
31
0.000000000000000
  0
LINE
  5
F102C2
330
F102C3
100
AcDbEntity
8
Geo
100
AcDbLine
10
-82.2912400829436
20
-0.471670877464105
30
0.000000000000000
11
-82.1912400829437
21
-0.652519164907312
31
0.000000000000000
  0
LINE
  5
F102C4
330
F102C5
100
AcDbEntity
8
Geo
100
AcDbLine
10
-82.1912400829437
20
-0.652519164907312
30
0.000000000000000
11
-82.0912400829437
21
-0.823644443387686
31
0.000000000000000
  0
LINE
  5
F102C6
330
F102C7
100
AcDbEntity
8
Geo
100
AcDbLine
10
-82.0912400829437
20
-0.823644443387686
30
0.000000000000000
11
-81.9912400829436
21
-0.984793225271241
31
0.000000000000000
  0
LINE
  5
F102C8
330
F102C9
100
AcDbEntity
8
Geo
100
AcDbLine
10
-81.9912400829436
20
-0.984793225271241
30
0.000000000000000
11
-81.8912400829437
21
-1.13572680109434
31
0.000000000000000
  0
LINE
  5
F102CA
330
F102CB
100
AcDbEntity
8
Geo
100
AcDbLine
10
-81.8912400829437
20
-1.13572680109434
30
0.000000000000000
11
-81.7912400829436
21
-1.27622159316368
31
0.000000000000000
  0
LINE
  5
F102CC
330
F102CD
100
AcDbEntity
8
Geo
100
AcDbLine
10
-81.7912400829436
20
-1.27622159316368
30
0.000000000000000
11
-81.6912400829437
21
-1.40606948674167
31
0.000000000000000
  0
LINE
  5
F102CE
330
F102CF
100
AcDbEntity
8
Geo
100
AcDbLine
10
-81.6912400829437
20
-1.40606948674167
30
0.000000000000000
11
-81.5912400829436
21
-1.52507813832642
31
0.000000000000000
  0
LINE
  5
F102D0
330
F102D1
100
AcDbEntity
8
Geo
100
AcDbLine
10
-81.5912400829436
20
-1.52507813832642
30
0.000000000000000
11
-81.4912400829436
21
-1.63307126056996
31
0.000000000000000
  0
LINE
  5
F102D2
330
F102D3
100
AcDbEntity
8
Geo
100
AcDbLine
10
-81.4912400829436
20
-1.63307126056996
30
0.000000000000000
11
-81.3912400829437
21
-1.72988888341241
31
0.000000000000000
  0
LINE
  5
F102D4
330
F102D5
100
AcDbEntity
8
Geo
100
AcDbLine
10
-81.3912400829437
20
-1.72988888341241
30
0.000000000000000
11
-81.2912400829436
21
-1.81538759104542
31
0.000000000000000
  0
LINE
  5
F102D6
330
F102D7
100
AcDbEntity
8
Geo
100
AcDbLine
10
-81.2912400829436
20
-1.81538759104542
30
0.000000000000000
11
-81.1912400829437
21
-1.88944073435378
31
0.000000000000000
  0
LINE
  5
F102D8
330
F102D9
100
AcDbEntity
8
Geo
100
AcDbLine
10
-81.1912400829437
20
-1.88944073435378
30
0.000000000000000
11
-81.0912400829436
21
-1.95193861852062
31
0.000000000000000
  0
LINE
  5
F102DA
330
F102DB
100
AcDbEntity
8
Geo
100
AcDbLine
10
-81.0912400829436
20
-1.95193861852062
30
0.000000000000000
11
-80.9912400829436
21
-2.00278866551814
31
0.000000000000000
  0
LINE
  5
F102DC
330
F102DD
100
AcDbEntity
8
Geo
100
AcDbLine
10
-80.9912400829436
20
-2.00278866551814
30
0.000000000000000
11
-80.8912400829437
21
-2.04191555124334
31
0.000000000000000
  0
LINE
  5
F102DE
330
F102DF
100
AcDbEntity
8
Geo
100
AcDbLine
10
-80.8912400829437
20
-2.04191555124334
30
0.000000000000000
11
-80.7912400829436
21
-2.06926131709551
31
0.000000000000000
  0
LINE
  5
F102E0
330
F102E1
100
AcDbEntity
8
Geo
100
AcDbLine
10
-80.7912400829436
20
-2.06926131709551
30
0.000000000000000
11
-80.6912400829437
21
-2.08478545583020
31
0.000000000000000
  0
LINE
  5
F102E2
330
F102E3
100
AcDbEntity
8
Geo
100
AcDbLine
10
-72.4912400829437
20
13.9102190790973
30
0.000000000000000
11
-72.3912400829437
21
13.9094067697200
31
0.000000000000000
  0
LINE
  5
F102E4
330
F102E5
100
AcDbEntity
8
Geo
100
AcDbLine
10
-72.3912400829437
20
13.9094067697200
30
0.000000000000000
11
-72.2912400829437
21
13.8967469089280
31
0.000000000000000
  0
LINE
  5
F102E6
330
F102E7
100
AcDbEntity
8
Geo
100
AcDbLine
10
-72.2912400829437
20
13.8967469089280
30
0.000000000000000
11
-72.1912400829437
21
13.8722582497553
31
0.000000000000000
  0
LINE
  5
F102E8
330
F102E9
100
AcDbEntity
8
Geo
100
AcDbLine
10
-72.1912400829437
20
13.8722582497553
30
0.000000000000000
11
-72.0912400829437
21
13.8359770672184
31
0.000000000000000
  0
LINE
  5
F102EA
330
F102EB
100
AcDbEntity
8
Geo
100
AcDbLine
10
-72.0912400829437
20
13.8359770672184
30
0.000000000000000
11
-71.9912400829437
21
13.7879571045817
31
0.000000000000000
  0
LINE
  5
F102EC
330
F102ED
100
AcDbEntity
8
Geo
100
AcDbLine
10
-71.9912400829437
20
13.7879571045817
30
0.000000000000000
11
-71.8912400829437
21
13.7282694937483
31
0.000000000000000
  0
LINE
  5
F102EE
330
F102EF
100
AcDbEntity
8
Geo
100
AcDbLine
10
-71.8912400829437
20
13.7282694937483
30
0.000000000000000
11
-71.7912400829437
21
13.6570026498921
31
0.000000000000000
  0
LINE
  5
F102F0
330
F102F1
100
AcDbEntity
8
Geo
100
AcDbLine
10
-71.7912400829437
20
13.6570026498921
30
0.000000000000000
11
-71.6912400829437
21
13.5742621404886
31
0.000000000000000
  0
LINE
  5
F102F2
330
F102F3
100
AcDbEntity
8
Geo
100
AcDbLine
10
-71.6912400829437
20
13.5742621404886
30
0.000000000000000
11
-71.5912400829437
21
13.4801705289376
31
0.000000000000000
  0
LINE
  5
F102F4
330
F102F5
100
AcDbEntity
8
Geo
100
AcDbLine
10
-71.5912400829437
20
13.4801705289376
30
0.000000000000000
11
-71.4912400829437
21
13.3748671930110
31
0.000000000000000
  0
LINE
  5
F102F6
330
F102F7
100
AcDbEntity
8
Geo
100
AcDbLine
10
-71.4912400829437
20
13.3748671930110
30
0.000000000000000
11
-71.3912400829437
21
13.2585081183918
31
0.000000000000000
  0
LINE
  5
F102F8
330
F102F9
100
AcDbEntity
8
Geo
100
AcDbLine
10
-71.3912400829437
20
13.2585081183918
30
0.000000000000000
11
-71.2912400829437
21
13.1312656676136
31
0.000000000000000
  0
LINE
  5
F102FA
330
F102FB
100
AcDbEntity
8
Geo
100
AcDbLine
10
-71.2912400829437
20
13.1312656676136
30
0.000000000000000
11
-71.1912400829437
21
12.9933283247393
31
0.000000000000000
  0
LINE
  5
F102FC
330
F102FD
100
AcDbEntity
8
Geo
100
AcDbLine
10
-71.1912400829437
20
12.9933283247393
30
0.000000000000000
11
-71.0912400829437
21
12.8449004161607
31
0.000000000000000
  0
LINE
  5
F102FE
330
F102FF
100
AcDbEntity
8
Geo
100
AcDbLine
10
-71.0912400829437
20
12.8449004161607
30
0.000000000000000
11
-70.9912400829437
21
12.6862018079297
31
0.000000000000000
  0
LINE
  5
F10300
330
F10301
100
AcDbEntity
8
Geo
100
AcDbLine
10
-70.9912400829437
20
12.6862018079297
30
0.000000000000000
11
-70.8912400829437
21
12.5174675800713
31
0.000000000000000
  0
LINE
  5
F10302
330
F10303
100
AcDbEntity
8
Geo
100
AcDbLine
10
-70.8912400829437
20
12.5174675800713
30
0.000000000000000
11
-70.7912400829437
21
12.3389476783594
31
0.000000000000000
  0
LINE
  5
F10304
330
F10305
100
AcDbEntity
8
Geo
100
AcDbLine
10
-70.7912400829437
20
12.3389476783594
30
0.000000000000000
11
-70.6912400829437
21
12.1509065440729
31
0.000000000000000
  0
LINE
  5
F10306
330
F10307
100
AcDbEntity
8
Geo
100
AcDbLine
10
-70.6912400829437
20
12.1509065440729
30
0.000000000000000
11
-70.5912400829437
21
12.1748188555781
31
0.000000000000000
  0
LINE
  5
F10308
330
F10309
100
AcDbEntity
8
Geo
100
AcDbLine
10
-70.5912400829437
20
12.1748188555781
30
0.000000000000000
11
-70.4912400829436
21
12.1981276548828
31
0.000000000000000
  0
LINE
  5
F1030A
330
F1030B
100
AcDbEntity
8
Geo
100
AcDbLine
10
-70.4912400829436
20
12.1981276548828
30
0.000000000000000
11
-70.3912400829437
21
12.2208406461319
31
0.000000000000000
  0
LINE
  5
F1030C
330
F1030D
100
AcDbEntity
8
Geo
100
AcDbLine
10
-70.3912400829437
20
12.2208406461319
30
0.000000000000000
11
-70.2912400829437
21
12.2429654331904
31
0.000000000000000
  0
LINE
  5
F1030E
330
F1030F
100
AcDbEntity
8
Geo
100
AcDbLine
10
-70.2912400829437
20
12.2429654331904
30
0.000000000000000
11
-70.1912400829437
21
12.2645095161385
31
0.000000000000000
  0
LINE
  5
F10310
330
F10311
100
AcDbEntity
8
Geo
100
AcDbLine
10
-70.1912400829437
20
12.2645095161385
30
0.000000000000000
11
-70.0912400829437
21
12.2854802878748
31
0.000000000000000
  0
LINE
  5
F10312
330
F10313
100
AcDbEntity
8
Geo
100
AcDbLine
10
-70.0912400829437
20
12.2854802878748
30
0.000000000000000
11
-69.9912400829436
21
12.3058850308237
31
0.000000000000000
  0
LINE
  5
F10314
330
F10315
100
AcDbEntity
8
Geo
100
AcDbLine
10
-69.9912400829436
20
12.3058850308237
30
0.000000000000000
11
-69.8912400829437
21
12.3257309137467
31
0.000000000000000
  0
LINE
  5
F10316
330
F10317
100
AcDbEntity
8
Geo
100
AcDbLine
10
-69.8912400829437
20
12.3257309137467
30
0.000000000000000
11
-69.7912400829437
21
12.3450249886549
31
0.000000000000000
  0
LINE
  5
F10318
330
F10319
100
AcDbEntity
8
Geo
100
AcDbLine
10
-69.7912400829437
20
12.3450249886549
30
0.000000000000000
11
-69.6912400829437
21
12.3637741878203
31
0.000000000000000
  0
LINE
  5
F1031A
330
F1031B
100
AcDbEntity
8
Geo
100
AcDbLine
10
-69.6912400829437
20
12.3637741878203
30
0.000000000000000
11
-69.5912400829437
21
12.3819853208855
31
0.000000000000000
  0
LINE
  5
F1031C
330
F1031D
100
AcDbEntity
8
Geo
100
AcDbLine
10
-69.5912400829437
20
12.3819853208855
30
0.000000000000000
11
-69.4912400829436
21
12.3996650720680
31
0.000000000000000
  0
LINE
  5
F1031E
330
F1031F
100
AcDbEntity
8
Geo
100
AcDbLine
10
-69.4912400829436
20
12.3996650720680
30
0.000000000000000
11
-69.3912400829437
21
12.4168199974590
31
0.000000000000000
  0
LINE
  5
F10320
330
F10321
100
AcDbEntity
8
Geo
100
AcDbLine
10
-69.3912400829437
20
12.4168199974590
30
0.000000000000000
11
-69.2912400829437
21
12.4334565224135
31
0.000000000000000
  0
LINE
  5
F10322
330
F10323
100
AcDbEntity
8
Geo
100
AcDbLine
10
-69.2912400829437
20
12.4334565224135
30
0.000000000000000
11
-69.1912400829437
21
12.4495809390304
31
0.000000000000000
  0
LINE
  5
F10324
330
F10325
100
AcDbEntity
8
Geo
100
AcDbLine
10
-69.1912400829437
20
12.4495809390304
30
0.000000000000000
11
-69.0912400829437
21
12.4651994037217
31
0.000000000000000
  0
LINE
  5
F10326
330
F10327
100
AcDbEntity
8
Geo
100
AcDbLine
10
-69.0912400829437
20
12.4651994037217
30
0.000000000000000
11
-68.9912400829437
21
12.4803179348666
31
0.000000000000000
  0
LINE
  5
F10328
330
F10329
100
AcDbEntity
8
Geo
100
AcDbLine
10
-68.9912400829437
20
12.4803179348666
30
0.000000000000000
11
-68.8912400829437
21
12.4949424105522
31
0.000000000000000
  0
LINE
  5
F1032A
330
F1032B
100
AcDbEntity
8
Geo
100
AcDbLine
10
-68.8912400829437
20
12.4949424105522
30
0.000000000000000
11
-68.7912400829437
21
12.5090785663955
31
0.000000000000000
  0
LINE
  5
F1032C
330
F1032D
100
AcDbEntity
8
Geo
100
AcDbLine
10
-68.7912400829437
20
12.5090785663955
30
0.000000000000000
11
-68.6912400829437
21
12.5227319934477
31
0.000000000000000
  0
LINE
  5
F1032E
330
F1032F
100
AcDbEntity
8
Geo
100
AcDbLine
10
-68.6912400829437
20
12.5227319934477
30
0.000000000000000
11
-68.5912400829437
21
12.5359081361783
31
0.000000000000000
  0
LINE
  5
F10330
330
F10331
100
AcDbEntity
8
Geo
100
AcDbLine
10
-68.5912400829437
20
12.5359081361783
30
0.000000000000000
11
-68.4912400829436
21
12.5486122905370
31
0.000000000000000
  0
LINE
  5
F10332
330
F10333
100
AcDbEntity
8
Geo
100
AcDbLine
10
-68.4912400829436
20
12.5486122905370
30
0.000000000000000
11
-68.3912400829437
21
12.5608496020916
31
0.000000000000000
  0
LINE
  5
F10334
330
F10335
100
AcDbEntity
8
Geo
100
AcDbLine
10
-68.3912400829437
20
12.5608496020916
30
0.000000000000000
11
-68.2912400829437
21
12.5726250642424
31
0.000000000000000
  0
LINE
  5
F10336
330
F10337
100
AcDbEntity
8
Geo
100
AcDbLine
10
-68.2912400829437
20
12.5726250642424
30
0.000000000000000
11
-68.1912400829437
21
12.5839435165087
31
0.000000000000000
  0
LINE
  5
F10338
330
F10339
100
AcDbEntity
8
Geo
100
AcDbLine
10
-68.1912400829437
20
12.5839435165087
30
0.000000000000000
11
-68.0912400829436
21
12.5948096428878
31
0.000000000000000
  0
LINE
  5
F1033A
330
F1033B
100
AcDbEntity
8
Geo
100
AcDbLine
10
-68.0912400829436
20
12.5948096428878
30
0.000000000000000
11
-67.9912400829436
21
12.6052279702851
31
0.000000000000000
  0
LINE
  5
F1033C
330
F1033D
100
AcDbEntity
8
Geo
100
AcDbLine
10
-67.9912400829436
20
12.6052279702851
30
0.000000000000000
11
-67.8912400829437
21
12.6152028670130
31
0.000000000000000
  0
LINE
  5
F1033E
330
F1033F
100
AcDbEntity
8
Geo
100
AcDbLine
10
-67.8912400829437
20
12.6152028670130
30
0.000000000000000
11
-67.7912400829436
21
12.6247385413579
31
0.000000000000000
  0
LINE
  5
F10340
330
F10341
100
AcDbEntity
8
Geo
100
AcDbLine
10
-67.7912400829436
20
12.6247385413579
30
0.000000000000000
11
-67.6912400829436
21
12.6338390402140
31
0.000000000000000
  0
LINE
  5
F10342
330
F10343
100
AcDbEntity
8
Geo
100
AcDbLine
10
-67.6912400829436
20
12.6338390402140
30
0.000000000000000
11
-67.5912400829436
21
12.6425082477822
31
0.000000000000000
  0
LINE
  5
F10344
330
F10345
100
AcDbEntity
8
Geo
100
AcDbLine
10
-67.5912400829436
20
12.6425082477822
30
0.000000000000000
11
-67.4912400829436
21
12.6507498843339
31
0.000000000000000
  0
LINE
  5
F10346
330
F10347
100
AcDbEntity
8
Geo
100
AcDbLine
10
-67.4912400829436
20
12.6507498843339
30
0.000000000000000
11
-67.3912400829436
21
12.6585675050369
31
0.000000000000000
  0
LINE
  5
F10348
330
F10349
100
AcDbEntity
8
Geo
100
AcDbLine
10
-67.3912400829436
20
12.6585675050369
30
0.000000000000000
11
-67.2912400829436
21
12.6659644988447
31
0.000000000000000
  0
LINE
  5
F1034A
330
F1034B
100
AcDbEntity
8
Geo
100
AcDbLine
10
-67.2912400829436
20
12.6659644988447
30
0.000000000000000
11
-67.1912400829436
21
12.6729440874449
31
0.000000000000000
  0
LINE
  5
F1034C
330
F1034D
100
AcDbEntity
8
Geo
100
AcDbLine
10
-67.1912400829436
20
12.6729440874449
30
0.000000000000000
11
-67.0912400829436
21
12.6795093242694
31
0.000000000000000
  0
LINE
  5
F1034E
330
F1034F
100
AcDbEntity
8
Geo
100
AcDbLine
10
-67.0912400829436
20
12.6795093242694
30
0.000000000000000
11
-66.9912400829436
21
12.6856630935623
31
0.000000000000000
  0
LINE
  5
F10350
330
F10351
100
AcDbEntity
8
Geo
100
AcDbLine
10
-66.9912400829436
20
12.6856630935623
30
0.000000000000000
11
-66.8912400829436
21
12.6914081095064
31
0.000000000000000
  0
LINE
  5
F10352
330
F10353
100
AcDbEntity
8
Geo
100
AcDbLine
10
-66.8912400829436
20
12.6914081095064
30
0.000000000000000
11
-66.7912400829436
21
12.6967469154066
31
0.000000000000000
  0
LINE
  5
F10354
330
F10355
100
AcDbEntity
8
Geo
100
AcDbLine
10
-66.7912400829436
20
12.6967469154066
30
0.000000000000000
11
-66.6912400829436
21
12.7016818829300
31
0.000000000000000
  0
LINE
  5
F10356
330
F10357
100
AcDbEntity
8
Geo
100
AcDbLine
10
-66.6912400829436
20
12.7016818829300
30
0.000000000000000
11
-66.5912400829436
21
12.7062152114014
31
0.000000000000000
  0
LINE
  5
F10358
330
F10359
100
AcDbEntity
8
Geo
100
AcDbLine
10
-66.5912400829436
20
12.7062152114014
30
0.000000000000000
11
-66.4912400829436
21
12.7103489271538
31
0.000000000000000
  0
LINE
  5
F1035A
330
F1035B
100
AcDbEntity
8
Geo
100
AcDbLine
10
-66.4912400829436
20
12.7103489271538
30
0.000000000000000
11
-66.3912400829436
21
12.7140848829330
31
0.000000000000000
  0
LINE
  5
F1035C
330
F1035D
100
AcDbEntity
8
Geo
100
AcDbLine
10
-66.3912400829436
20
12.7140848829330
30
0.000000000000000
11
-66.2912400829436
21
12.7174247573562
31
0.000000000000000
  0
LINE
  5
F1035E
330
F1035F
100
AcDbEntity
8
Geo
100
AcDbLine
10
-66.2912400829436
20
12.7174247573562
30
0.000000000000000
11
-66.1912400829436
21
12.7203700544230
31
0.000000000000000
  0
LINE
  5
F10360
330
F10361
100
AcDbEntity
8
Geo
100
AcDbLine
10
-66.1912400829436
20
12.7203700544230
30
0.000000000000000
11
-66.0912400829436
21
12.7229221030799
31
0.000000000000000
  0
LINE
  5
F10362
330
F10363
100
AcDbEntity
8
Geo
100
AcDbLine
10
-66.0912400829436
20
12.7229221030799
30
0.000000000000000
11
-65.9912400829436
21
12.7250820568361
31
0.000000000000000
  0
LINE
  5
F10364
330
F10365
100
AcDbEntity
8
Geo
100
AcDbLine
10
-65.9912400829436
20
12.7250820568361
30
0.000000000000000
11
-65.8912400829436
21
12.7268508934314
31
0.000000000000000
  0
LINE
  5
F10366
330
F10367
100
AcDbEntity
8
Geo
100
AcDbLine
10
-65.8912400829436
20
12.7268508934314
30
0.000000000000000
11
-65.7912400829436
21
12.7282294145556
31
0.000000000000000
  0
LINE
  5
F10368
330
F10369
100
AcDbEntity
8
Geo
100
AcDbLine
10
-65.7912400829436
20
12.7282294145556
30
0.000000000000000
11
-65.6912400829437
21
12.7292182456183
31
0.000000000000000
  0
LINE
  5
F1036A
330
F1036B
100
AcDbEntity
8
Geo
100
AcDbLine
10
-84.6912400829437
20
3.59369473795900
30
0.000000000000000
11
-84.5912400829437
21
3.21731712376767
31
0.000000000000000
  0
LINE
  5
F1036C
330
F1036D
100
AcDbEntity
8
Geo
100
AcDbLine
10
-84.5912400829437
20
3.21731712376767
30
0.000000000000000
11
-84.4912400829436
21
2.89951104198762
31
0.000000000000000
  0
LINE
  5
F1036E
330
F1036F
100
AcDbEntity
8
Geo
100
AcDbLine
10
-84.4912400829436
20
2.89951104198762
30
0.000000000000000
11
-84.3912400829437
21
2.59643862939813
31
0.000000000000000
  0
LINE
  5
F10370
330
F10371
100
AcDbEntity
8
Geo
100
AcDbLine
10
-84.3912400829437
20
2.59643862939813
30
0.000000000000000
11
-84.2912400829436
21
2.30621036094868
31
0.000000000000000
  0
LINE
  5
F10372
330
F10373
100
AcDbEntity
8
Geo
100
AcDbLine
10
-84.2912400829436
20
2.30621036094868
30
0.000000000000000
11
-84.1912400829437
21
2.02959995838100
31
0.000000000000000
  0
LINE
  5
F10374
330
F10375
100
AcDbEntity
8
Geo
100
AcDbLine
10
-84.1912400829437
20
2.02959995838100
30
0.000000000000000
11
-84.0912400829437
21
1.76329767946119
31
0.000000000000000
  0
LINE
  5
F10376
330
F10377
100
AcDbEntity
8
Geo
100
AcDbLine
10
-84.0912400829437
20
1.76329767946119
30
0.000000000000000
11
-83.9912400829436
21
1.50313986341517
31
0.000000000000000
  0
LINE
  5
F10378
330
F10379
100
AcDbEntity
8
Geo
100
AcDbLine
10
-83.9912400829436
20
1.50313986341517
30
0.000000000000000
11
-83.8912400829437
21
1.24951188164943
31
0.000000000000000
  0
LINE
  5
F1037A
330
F1037B
100
AcDbEntity
8
Geo
100
AcDbLine
10
-83.8912400829437
20
1.24951188164943
30
0.000000000000000
11
-83.7912400829436
21
1.00278943293614
31
0.000000000000000
  0
LINE
  5
F1037C
330
F1037D
100
AcDbEntity
8
Geo
100
AcDbLine
10
-83.7912400829436
20
1.00278943293614
30
0.000000000000000
11
-83.6912400829437
21
0.763337986891086
31
0.000000000000000
  0
LINE
  5
F1037E
330
F1037F
100
AcDbEntity
8
Geo
100
AcDbLine
10
-83.6912400829437
20
0.763337986891086
30
0.000000000000000
11
-83.5912400829437
21
0.531512242604047
31
0.000000000000000
  0
LINE
  5
F10380
330
F10381
100
AcDbEntity
8
Geo
100
AcDbLine
10
-83.5912400829437
20
0.531512242604047
30
0.000000000000000
11
-83.4912400829436
21
0.307655603223520
31
0.000000000000000
  0
LINE
  5
F10382
330
F10383
100
AcDbEntity
8
Geo
100
AcDbLine
10
-83.4912400829436
20
0.307655603223520
30
0.000000000000000
11
-83.3912400829437
21
0.0920996672741321
31
0.000000000000000
  0
LINE
  5
F10384
330
F10385
100
AcDbEntity
8
Geo
100
AcDbLine
10
-83.3912400829437
20
0.0920996672741321
30
0.000000000000000
11
-83.2912400829436
21
-0.114836262539787
31
0.000000000000000
  0
LINE
  5
F10386
330
F10387
100
AcDbEntity
8
Geo
100
AcDbLine
10
-83.2912400829436
20
-0.114836262539787
30
0.000000000000000
11
-83.1912400829437
21
-0.312845652316866
31
0.000000000000000
  0
LINE
  5
F10388
330
F10389
100
AcDbEntity
8
Geo
100
AcDbLine
10
-83.1912400829437
20
-0.312845652316866
30
0.000000000000000
11
-83.0912400829437
21
-0.501635191026907
31
0.000000000000000
  0
LINE
  5
F1038A
330
F1038B
100
AcDbEntity
8
Geo
100
AcDbLine
10
-83.0912400829437
20
-0.501635191026907
30
0.000000000000000
11
-82.9912400829436
21
-0.680925224992117
31
0.000000000000000
  0
LINE
  5
F1038C
330
F1038D
100
AcDbEntity
8
Geo
100
AcDbLine
10
-82.9912400829436
20
-0.680925224992117
30
0.000000000000000
11
-82.8912400829437
21
-0.850450172137704
31
0.000000000000000
  0
LINE
  5
F1038E
330
F1038F
100
AcDbEntity
8
Geo
100
AcDbLine
10
-82.8912400829437
20
-0.850450172137704
30
0.000000000000000
11
-82.7912400829436
21
-1.00995891539822
31
0.000000000000000
  0
LINE
  5
F10390
330
F10391
100
AcDbEntity
8
Geo
100
AcDbLine
10
-82.7912400829436
20
-1.00995891539822
30
0.000000000000000
11
-82.6912400829437
21
-1.15921517469694
31
0.000000000000000
  0
LINE
  5
F10392
330
F10393
100
AcDbEntity
8
Geo
100
AcDbLine
10
-82.6912400829437
20
-1.15921517469694
30
0.000000000000000
11
-82.5912400829437
21
-1.29799785694718
31
0.000000000000000
  0
LINE
  5
F10394
330
F10395
100
AcDbEntity
8
Geo
100
AcDbLine
10
-82.5912400829437
20
-1.29799785694718
30
0.000000000000000
11
-82.4912400829436
21
-1.42610138355719
31
0.000000000000000
  0
LINE
  5
F10396
330
F10397
100
AcDbEntity
8
Geo
100
AcDbLine
10
-82.4912400829436
20
-1.42610138355719
30
0.000000000000000
11
-82.3912400829437
21
-1.54333599495342
31
0.000000000000000
  0
LINE
  5
F10398
330
F10399
100
AcDbEntity
8
Geo
100
AcDbLine
10
-82.3912400829437
20
-1.54333599495342
30
0.000000000000000
11
-82.2912400829436
21
-1.64952803167113
31
0.000000000000000
  0
LINE
  5
F1039A
330
F1039B
100
AcDbEntity
8
Geo
100
AcDbLine
10
-82.2912400829436
20
-1.64952803167113
30
0.000000000000000
11
-82.1912400829437
21
-1.74452019159590
31
0.000000000000000
  0
LINE
  5
F1039C
330
F1039D
100
AcDbEntity
8
Geo
100
AcDbLine
10
-82.1912400829437
20
-1.74452019159590
30
0.000000000000000
11
-82.0912400829437
21
-1.82817176297502
31
0.000000000000000
  0
LINE
  5
F1039E
330
F1039F
100
AcDbEntity
8
Geo
100
AcDbLine
10
-82.0912400829437
20
-1.82817176297502
30
0.000000000000000
11
-81.9912400829436
21
-1.90035883285362
31
0.000000000000000
  0
LINE
  5
F103A0
330
F103A1
100
AcDbEntity
8
Geo
100
AcDbLine
10
-81.9912400829436
20
-1.90035883285362
30
0.000000000000000
11
-81.8912400829437
21
-1.96097447062677
31
0.000000000000000
  0
LINE
  5
F103A2
330
F103A3
100
AcDbEntity
8
Geo
100
AcDbLine
10
-81.8912400829437
20
-1.96097447062677
30
0.000000000000000
11
-81.7912400829436
21
-2.00992888643560
31
0.000000000000000
  0
LINE
  5
F103A4
330
F103A5
100
AcDbEntity
8
Geo
100
AcDbLine
10
-81.7912400829436
20
-2.00992888643560
30
0.000000000000000
11
-81.6912400829437
21
-2.04714956417293
31
0.000000000000000
  0
LINE
  5
F103A6
330
F103A7
100
AcDbEntity
8
Geo
100
AcDbLine
10
-81.6912400829437
20
-2.04714956417293
30
0.000000000000000
11
-81.5912400829436
21
-2.07258136890124
31
0.000000000000000
  0
LINE
  5
F103A8
330
F103A9
100
AcDbEntity
8
Geo
100
AcDbLine
10
-81.5912400829436
20
-2.07258136890124
30
0.000000000000000
11
-81.4912400829436
21
-2.08618662852401
31
0.000000000000000
  0
LINE
  5
F103AA
330
F103AB
100
AcDbEntity
8
Geo
100
AcDbLine
10
-73.2912400829437
20
13.9108922453650
30
0.000000000000000
11
-73.1912400829437
21
13.9081589382561
31
0.000000000000000
  0
LINE
  5
F103AC
330
F103AD
100
AcDbEntity
8
Geo
100
AcDbLine
10
-73.1912400829437
20
13.9081589382561
30
0.000000000000000
11
-73.0912400829437
21
13.8935799281435
31
0.000000000000000
  0
LINE
  5
F103AE
330
F103AF
100
AcDbEntity
8
Geo
100
AcDbLine
10
-73.0912400829437
20
13.8935799281435
30
0.000000000000000
11
-72.9912400829437
21
13.8671768108945
31
0.000000000000000
  0
LINE
  5
F103B0
330
F103B1
100
AcDbEntity
8
Geo
100
AcDbLine
10
-72.9912400829437
20
13.8671768108945
30
0.000000000000000
11
-72.8912400829437
21
13.8289886974093
31
0.000000000000000
  0
LINE
  5
F103B2
330
F103B3
100
AcDbEntity
8
Geo
100
AcDbLine
10
-72.8912400829437
20
13.8289886974093
30
0.000000000000000
11
-72.7912400829437
21
13.7790721556869
31
0.000000000000000
  0
LINE
  5
F103B4
330
F103B5
100
AcDbEntity
8
Geo
100
AcDbLine
10
-72.7912400829437
20
13.7790721556869
30
0.000000000000000
11
-72.6912400829437
21
13.7175011270300
31
0.000000000000000
  0
LINE
  5
F103B6
330
F103B7
100
AcDbEntity
8
Geo
100
AcDbLine
10
-72.6912400829437
20
13.7175011270300
30
0.000000000000000
11
-72.5912400829437
21
13.6443668165167
31
0.000000000000000
  0
LINE
  5
F103B8
330
F103B9
100
AcDbEntity
8
Geo
100
AcDbLine
10
-72.5912400829437
20
13.6443668165167
30
0.000000000000000
11
-72.4912400829437
21
13.5597775578982
31
0.000000000000000
  0
LINE
  5
F103BA
330
F103BB
100
AcDbEntity
8
Geo
100
AcDbLine
10
-72.4912400829437
20
13.5597775578982
30
0.000000000000000
11
-72.3912400829437
21
13.4638586531242
31
0.000000000000000
  0
LINE
  5
F103BC
330
F103BD
100
AcDbEntity
8
Geo
100
AcDbLine
10
-72.3912400829437
20
13.4638586531242
30
0.000000000000000
11
-72.2912400829437
21
13.3567521867331
31
0.000000000000000
  0
LINE
  5
F103BE
330
F103BF
100
AcDbEntity
8
Geo
100
AcDbLine
10
-72.2912400829437
20
13.3567521867331
30
0.000000000000000
11
-72.1912400829437
21
13.2386168153828
31
0.000000000000000
  0
LINE
  5
F103C0
330
F103C1
100
AcDbEntity
8
Geo
100
AcDbLine
10
-72.1912400829437
20
13.2386168153828
30
0.000000000000000
11
-72.0912400829437
21
13.1096275328325
31
0.000000000000000
  0
LINE
  5
F103C2
330
F103C3
100
AcDbEntity
8
Geo
100
AcDbLine
10
-72.0912400829437
20
13.1096275328325
30
0.000000000000000
11
-71.9912400829437
21
12.9699754107248
31
0.000000000000000
  0
LINE
  5
F103C4
330
F103C5
100
AcDbEntity
8
Geo
100
AcDbLine
10
-71.9912400829437
20
12.9699754107248
30
0.000000000000000
11
-71.8912400829437
21
12.8198673155514
31
0.000000000000000
  0
LINE
  5
F103C6
330
F103C7
100
AcDbEntity
8
Geo
100
AcDbLine
10
-71.8912400829437
20
12.8198673155514
30
0.000000000000000
11
-71.7912400829437
21
12.6595256022223
31
0.000000000000000
  0
LINE
  5
F103C8
330
F103C9
100
AcDbEntity
8
Geo
100
AcDbLine
10
-71.7912400829437
20
12.6595256022223
30
0.000000000000000
11
-71.6912400829437
21
12.4891877846916
31
0.000000000000000
  0
LINE
  5
F103CA
330
F103CB
100
AcDbEntity
8
Geo
100
AcDbLine
10
-71.6912400829437
20
12.4891877846916
30
0.000000000000000
11
-71.5912400829437
21
12.3091061841286
31
0.000000000000000
  0
LINE
  5
F103CC
330
F103CD
100
AcDbEntity
8
Geo
100
AcDbLine
10
-71.5912400829437
20
12.3091061841286
30
0.000000000000000
11
-71.4912400829437
21
12.1195475551545
31
0.000000000000000
  0
LINE
  5
F103CE
330
F103CF
100
AcDbEntity
8
Geo
100
AcDbLine
10
-71.4912400829437
20
12.1195475551545
30
0.000000000000000
11
-71.3912400829437
21
11.9207926906994
31
0.000000000000000
  0
LINE
  5
F103D0
330
F103D1
100
AcDbEntity
8
Geo
100
AcDbLine
10
-71.3912400829437
20
11.9207926906994
30
0.000000000000000
11
-71.2912400829437
21
11.7131360060641
31
0.000000000000000
  0
LINE
  5
F103D2
330
F103D3
100
AcDbEntity
8
Geo
100
AcDbLine
10
-71.2912400829437
20
11.7131360060641
30
0.000000000000000
11
-71.1912400829437
21
11.4968851028031
31
0.000000000000000
  0
LINE
  5
F103D4
330
F103D5
100
AcDbEntity
8
Geo
100
AcDbLine
10
-71.1912400829437
20
11.4968851028031
30
0.000000000000000
11
-71.0912400829437
21
11.2723603130748
31
0.000000000000000
  0
LINE
  5
F103D6
330
F103D7
100
AcDbEntity
8
Geo
100
AcDbLine
10
-71.0912400829437
20
11.2723603130748
30
0.000000000000000
11
-70.9912400829437
21
11.0398942251341
31
0.000000000000000
  0
LINE
  5
F103D8
330
F103D9
100
AcDbEntity
8
Geo
100
AcDbLine
10
-70.9912400829437
20
11.0398942251341
30
0.000000000000000
11
-70.8912400829437
21
10.7998311906695
31
0.000000000000000
  0
LINE
  5
F103DA
330
F103DB
100
AcDbEntity
8
Geo
100
AcDbLine
10
-70.8912400829437
20
10.7998311906695
30
0.000000000000000
11
-70.7912400829437
21
10.5525268147159
31
0.000000000000000
  0
LINE
  5
F103DC
330
F103DD
100
AcDbEntity
8
Geo
100
AcDbLine
10
-70.7912400829437
20
10.5525268147159
30
0.000000000000000
11
-70.6912400829437
21
10.2983474288970
31
0.000000000000000
  0
LINE
  5
F103DE
330
F103DF
100
AcDbEntity
8
Geo
100
AcDbLine
10
-70.6912400829437
20
10.2983474288970
30
0.000000000000000
11
-70.5912400829437
21
10.0059413583494
31
0.000000000000000
  0
LINE
  5
F103E0
330
F103E1
100
AcDbEntity
8
Geo
100
AcDbLine
10
-70.5912400829437
20
10.0059413583494
30
0.000000000000000
11
-70.4912400829436
21
9.71181544026873
31
0.000000000000000
  0
LINE
  5
F103E2
330
F103E3
100
AcDbEntity
8
Geo
100
AcDbLine
10
-70.4912400829436
20
9.71181544026873
30
0.000000000000000
11
-70.3912400829437
21
9.41691420096821
31
0.000000000000000
  0
LINE
  5
F103E4
330
F103E5
100
AcDbEntity
8
Geo
100
AcDbLine
10
-70.3912400829437
20
9.41691420096821
30
0.000000000000000
11
-70.2912400829437
21
9.12212401986504
31
0.000000000000000
  0
LINE
  5
F103E6
330
F103E7
100
AcDbEntity
8
Geo
100
AcDbLine
10
-70.2912400829437
20
9.12212401986504
30
0.000000000000000
11
-70.1912400829437
21
8.82827317284541
31
0.000000000000000
  0
LINE
  5
F103E8
330
F103E9
100
AcDbEntity
8
Geo
100
AcDbLine
10
-70.1912400829437
20
8.82827317284541
30
0.000000000000000
11
-70.0912400829437
21
8.53613223726233
31
0.000000000000000
  0
LINE
  5
F103EA
330
F103EB
100
AcDbEntity
8
Geo
100
AcDbLine
10
-70.0912400829437
20
8.53613223726233
30
0.000000000000000
11
-69.9912400829436
21
8.24641482237362
31
0.000000000000000
  0
LINE
  5
F103EC
330
F103ED
100
AcDbEntity
8
Geo
100
AcDbLine
10
-69.9912400829436
20
8.24641482237362
30
0.000000000000000
11
-69.8912400829437
21
7.95977859015757
31
0.000000000000000
  0
LINE
  5
F103EE
330
F103EF
100
AcDbEntity
8
Geo
100
AcDbLine
10
-69.8912400829437
20
7.95977859015757
30
0.000000000000000
11
-69.7912400829437
21
7.67682653275936
31
0.000000000000000
  0
LINE
  5
F103F0
330
F103F1
100
AcDbEntity
8
Geo
100
AcDbLine
10
-69.7912400829437
20
7.67682653275936
30
0.000000000000000
11
-69.6912400829437
21
7.39810847428751
31
0.000000000000000
  0
LINE
  5
F103F2
330
F103F3
100
AcDbEntity
8
Geo
100
AcDbLine
10
-69.6912400829437
20
7.39810847428751
30
0.000000000000000
11
-69.5912400829437
21
7.12412276626564
31
0.000000000000000
  0
LINE
  5
F103F4
330
F103F5
100
AcDbEntity
8
Geo
100
AcDbLine
10
-69.5912400829437
20
7.12412276626564
30
0.000000000000000
11
-69.4912400829436
21
6.85531814772064
31
0.000000000000000
  0
LINE
  5
F103F6
330
F103F7
100
AcDbEntity
8
Geo
100
AcDbLine
10
-69.4912400829436
20
6.85531814772064
30
0.000000000000000
11
-69.3912400829437
21
6.59209574262864
31
0.000000000000000
  0
LINE
  5
F103F8
330
F103F9
100
AcDbEntity
8
Geo
100
AcDbLine
10
-69.3912400829437
20
6.59209574262864
30
0.000000000000000
11
-69.2912400829437
21
6.33481116921998
31
0.000000000000000
  0
LINE
  5
F103FA
330
F103FB
100
AcDbEntity
8
Geo
100
AcDbLine
10
-69.2912400829437
20
6.33481116921998
30
0.000000000000000
11
-69.1912400829437
21
6.08377673744296
31
0.000000000000000
  0
LINE
  5
F103FC
330
F103FD
100
AcDbEntity
8
Geo
100
AcDbLine
10
-69.1912400829437
20
6.08377673744296
30
0.000000000000000
11
-69.0912400829437
21
5.83926371268378
31
0.000000000000000
  0
LINE
  5
F103FE
330
F103FF
100
AcDbEntity
8
Geo
100
AcDbLine
10
-69.0912400829437
20
5.83926371268378
30
0.000000000000000
11
-68.9912400829437
21
5.60150462562066
31
0.000000000000000
  0
LINE
  5
F10400
330
F10401
100
AcDbEntity
8
Geo
100
AcDbLine
10
-68.9912400829437
20
5.60150462562066
30
0.000000000000000
11
-68.8912400829437
21
5.37069560983841
31
0.000000000000000
  0
LINE
  5
F10402
330
F10403
100
AcDbEntity
8
Geo
100
AcDbLine
10
-68.8912400829437
20
5.37069560983841
30
0.000000000000000
11
-68.7912400829437
21
5.14699875053348
31
0.000000000000000
  0
LINE
  5
F10404
330
F10405
100
AcDbEntity
8
Geo
100
AcDbLine
10
-68.7912400829437
20
5.14699875053348
30
0.000000000000000
11
-68.6912400829437
21
4.93054442928827
31
0.000000000000000
  0
LINE
  5
F10406
330
F10407
100
AcDbEntity
8
Geo
100
AcDbLine
10
-68.6912400829437
20
4.93054442928827
30
0.000000000000000
11
-68.5912400829437
21
4.72143365147802
31
0.000000000000000
  0
LINE
  5
F10408
330
F10409
100
AcDbEntity
8
Geo
100
AcDbLine
10
-68.5912400829437
20
4.72143365147802
30
0.000000000000000
11
-68.4912400829436
21
4.51974034438701
31
0.000000000000000
  0
LINE
  5
F1040A
330
F1040B
100
AcDbEntity
8
Geo
100
AcDbLine
10
-68.4912400829436
20
4.51974034438701
30
0.000000000000000
11
-68.3912400829437
21
4.32551361554774
31
0.000000000000000
  0
LINE
  5
F1040C
330
F1040D
100
AcDbEntity
8
Geo
100
AcDbLine
10
-68.3912400829437
20
4.32551361554774
30
0.000000000000000
11
-68.2912400829437
21
4.13877996217218
31
0.000000000000000
  0
LINE
  5
F1040E
330
F1040F
100
AcDbEntity
8
Geo
100
AcDbLine
10
-68.2912400829437
20
4.13877996217218
30
0.000000000000000
11
-68.1912400829437
21
3.95954542381620
31
0.000000000000000
  0
LINE
  5
F10410
330
F10411
100
AcDbEntity
8
Geo
100
AcDbLine
10
-68.1912400829437
20
3.95954542381620
30
0.000000000000000
11
-68.0912400829436
21
3.78779767160390
31
0.000000000000000
  0
LINE
  5
F10412
330
F10413
100
AcDbEntity
8
Geo
100
AcDbLine
10
-68.0912400829436
20
3.78779767160390
30
0.000000000000000
11
-67.9912400829436
21
3.62350802843773
31
0.000000000000000
  0
LINE
  5
F10414
330
F10415
100
AcDbEntity
8
Geo
100
AcDbLine
10
-67.9912400829436
20
3.62350802843773
30
0.000000000000000
11
-67.8912400829437
21
3.46663341563299
31
0.000000000000000
  0
LINE
  5
F10416
330
F10417
100
AcDbEntity
8
Geo
100
AcDbLine
10
-67.8912400829437
20
3.46663341563299
30
0.000000000000000
11
-67.7912400829436
21
3.31711822234139
31
0.000000000000000
  0
LINE
  5
F10418
330
F10419
100
AcDbEntity
8
Geo
100
AcDbLine
10
-67.7912400829436
20
3.31711822234139
30
0.000000000000000
11
-67.6912400829436
21
3.17489609497054
31
0.000000000000000
  0
LINE
  5
F1041A
330
F1041B
100
AcDbEntity
8
Geo
100
AcDbLine
10
-67.6912400829436
20
3.17489609497054
30
0.000000000000000
11
-67.5912400829436
21
3.03989164456577
31
0.000000000000000
  0
LINE
  5
F1041C
330
F1041D
100
AcDbEntity
8
Geo
100
AcDbLine
10
-67.5912400829436
20
3.03989164456577
30
0.000000000000000
11
-67.4912400829436
21
2.91202207079983
31
0.000000000000000
  0
LINE
  5
F1041E
330
F1041F
100
AcDbEntity
8
Geo
100
AcDbLine
10
-67.4912400829436
20
2.91202207079983
30
0.000000000000000
11
-67.3912400829436
21
2.79119870181854
31
0.000000000000000
  0
LINE
  5
F10420
330
F10421
100
AcDbEntity
8
Geo
100
AcDbLine
10
-67.3912400829436
20
2.79119870181854
30
0.000000000000000
11
-67.2912400829436
21
2.67732844971818
31
0.000000000000000
  0
LINE
  5
F10422
330
F10423
100
AcDbEntity
8
Geo
100
AcDbLine
10
-67.2912400829436
20
2.67732844971818
30
0.000000000000000
11
-67.1912400829436
21
2.57031518188830
31
0.000000000000000
  0
LINE
  5
F10424
330
F10425
100
AcDbEntity
8
Geo
100
AcDbLine
10
-67.1912400829436
20
2.57031518188830
30
0.000000000000000
11
-67.0912400829436
21
2.47006100884358
31
0.000000000000000
  0
LINE
  5
F10426
330
F10427
100
AcDbEntity
8
Geo
100
AcDbLine
10
-67.0912400829436
20
2.47006100884358
30
0.000000000000000
11
-66.9912400829436
21
2.37646748949548
31
0.000000000000000
  0
LINE
  5
F10428
330
F10429
100
AcDbEntity
8
Geo
100
AcDbLine
10
-66.9912400829436
20
2.37646748949548
30
0.000000000000000
11
-66.8912400829436
21
2.28943675508175
31
0.000000000000000
  0
LINE
  5
F1042A
330
F1042B
100
AcDbEntity
8
Geo
100
AcDbLine
10
-66.8912400829436
20
2.28943675508175
30
0.000000000000000
11
-66.7912400829436
21
2.20887255318319
31
0.000000000000000
  0
LINE
  5
F1042C
330
F1042D
100
AcDbEntity
8
Geo
100
AcDbLine
10
-66.7912400829436
20
2.20887255318319
30
0.000000000000000
11
-66.6912400829436
21
2.13468121341646
31
0.000000000000000
  0
LINE
  5
F1042E
330
F1042F
100
AcDbEntity
8
Geo
100
AcDbLine
10
-66.6912400829436
20
2.13468121341646
30
0.000000000000000
11
-66.5912400829436
21
2.06677253650296
31
0.000000000000000
  0
LINE
  5
F10430
330
F10431
100
AcDbEntity
8
Geo
100
AcDbLine
10
-66.5912400829436
20
2.06677253650296
30
0.000000000000000
11
-66.4912400829436
21
2.00506060848045
31
0.000000000000000
  0
LINE
  5
F10432
330
F10433
100
AcDbEntity
8
Geo
100
AcDbLine
10
-66.4912400829436
20
2.00506060848045
30
0.000000000000000
11
-66.3912400829436
21
1.94946454184964
31
0.000000000000000
  0
LINE
  5
F10434
330
F10435
100
AcDbEntity
8
Geo
100
AcDbLine
10
-66.3912400829436
20
1.94946454184964
30
0.000000000000000
11
-66.2912400829436
21
1.89990914543669
31
0.000000000000000
  0
LINE
  5
F10436
330
F10437
100
AcDbEntity
8
Geo
100
AcDbLine
10
-66.2912400829436
20
1.89990914543669
30
0.000000000000000
11
-66.1912400829436
21
1.85632552470689
31
0.000000000000000
  0
LINE
  5
F10438
330
F10439
100
AcDbEntity
8
Geo
100
AcDbLine
10
-66.1912400829436
20
1.85632552470689
30
0.000000000000000
11
-66.0912400829436
21
1.81865161418927
31
0.000000000000000
  0
LINE
  5
F1043A
330
F1043B
100
AcDbEntity
8
Geo
100
AcDbLine
10
-66.0912400829436
20
1.81865161418927
30
0.000000000000000
11
-65.9912400829436
21
1.78683264356862
31
0.000000000000000
  0
LINE
  5
F1043C
330
F1043D
100
AcDbEntity
8
Geo
100
AcDbLine
10
-65.9912400829436
20
1.78683264356862
30
0.000000000000000
11
-65.8912400829436
21
1.76082153887448
31
0.000000000000000
  0
LINE
  5
F1043E
330
F1043F
100
AcDbEntity
8
Geo
100
AcDbLine
10
-65.8912400829436
20
1.76082153887448
30
0.000000000000000
11
-65.7912400829436
21
1.74057926004897
31
0.000000000000000
  0
LINE
  5
F10440
330
F10441
100
AcDbEntity
8
Geo
100
AcDbLine
10
-65.7912400829436
20
1.74057926004897
30
0.000000000000000
11
-65.6912400829437
21
1.72607507600896
31
0.000000000000000
  0
LINE
  5
F10442
330
F10443
100
AcDbEntity
8
Geo
100
AcDbLine
10
-76.5912400829437
20
13.9090372351119
30
0.000000000000000
11
-76.4912400829437
21
13.9104708764301
31
0.000000000000000
  0
LINE
  5
F10444
330
F10445
100
AcDbEntity
8
Geo
100
AcDbLine
10
-76.4912400829437
20
13.9104708764301
30
0.000000000000000
11
-76.3912400829437
21
13.9000553900739
31
0.000000000000000
  0
LINE
  5
F10446
330
F10447
100
AcDbEntity
8
Geo
100
AcDbLine
10
-76.3912400829437
20
13.9000553900739
30
0.000000000000000
11
-76.2912400829437
21
13.8778062044887
31
0.000000000000000
  0
LINE
  5
F10448
330
F10449
100
AcDbEntity
8
Geo
100
AcDbLine
10
-76.2912400829437
20
13.8778062044887
30
0.000000000000000
11
-76.1912400829437
21
13.8437562773615
31
0.000000000000000
  0
LINE
  5
F1044A
330
F1044B
100
AcDbEntity
8
Geo
100
AcDbLine
10
-76.1912400829437
20
13.8437562773615
30
0.000000000000000
11
-76.0912400829437
21
13.7979560468017
31
0.000000000000000
  0
LINE
  5
F1044C
330
F1044D
100
AcDbEntity
8
Geo
100
AcDbLine
10
-76.0912400829437
20
13.7979560468017
30
0.000000000000000
11
-75.9912400829437
21
13.7404733566261
31
0.000000000000000
  0
LINE
  5
F1044E
330
F1044F
100
AcDbEntity
8
Geo
100
AcDbLine
10
-75.9912400829437
20
13.7404733566261
30
0.000000000000000
11
-75.8912400829437
21
13.6713933558628
31
0.000000000000000
  0
LINE
  5
F10450
330
F10451
100
AcDbEntity
8
Geo
100
AcDbLine
10
-75.8912400829437
20
13.6713933558628
30
0.000000000000000
11
-75.7912400829437
21
13.5908183726196
31
0.000000000000000
  0
LINE
  5
F10452
330
F10453
100
AcDbEntity
8
Geo
100
AcDbLine
10
-75.7912400829437
20
13.5908183726196
30
0.000000000000000
11
-75.6912400829437
21
13.4988677625057
31
0.000000000000000
  0
LINE
  5
F10454
330
F10455
100
AcDbEntity
8
Geo
100
AcDbLine
10
-75.6912400829437
20
13.4988677625057
30
0.000000000000000
11
-75.5912400829437
21
13.3956777318304
31
0.000000000000000
  0
LINE
  5
F10456
330
F10457
100
AcDbEntity
8
Geo
100
AcDbLine
10
-75.5912400829437
20
13.3956777318304
30
0.000000000000000
11
-75.4912400829437
21
13.2814011358407
31
0.000000000000000
  0
LINE
  5
F10458
330
F10459
100
AcDbEntity
8
Geo
100
AcDbLine
10
-75.4912400829437
20
13.2814011358407
30
0.000000000000000
11
-75.3912400829437
21
13.1562072522974
31
0.000000000000000
  0
LINE
  5
F1045A
330
F1045B
100
AcDbEntity
8
Geo
100
AcDbLine
10
-75.3912400829437
20
13.1562072522974
30
0.000000000000000
11
-75.2912400829437
21
13.0202815307238
31
0.000000000000000
  0
LINE
  5
F1045C
330
F1045D
100
AcDbEntity
8
Geo
100
AcDbLine
10
-75.2912400829437
20
13.0202815307238
30
0.000000000000000
11
-75.1912400829437
21
12.8738253176999
31
0.000000000000000
  0
LINE
  5
F1045E
330
F1045F
100
AcDbEntity
8
Geo
100
AcDbLine
10
-75.1912400829437
20
12.8738253176999
30
0.000000000000000
11
-75.0912400829437
21
12.7170555586077
31
0.000000000000000
  0
LINE
  5
F10460
330
F10461
100
AcDbEntity
8
Geo
100
AcDbLine
10
-75.0912400829437
20
12.7170555586077
30
0.000000000000000
11
-74.9912400829437
21
12.5502044762705
31
0.000000000000000
  0
LINE
  5
F10462
330
F10463
100
AcDbEntity
8
Geo
100
AcDbLine
10
-74.9912400829437
20
12.5502044762705
30
0.000000000000000
11
-74.8912400829437
21
12.3735192269617
31
0.000000000000000
  0
LINE
  5
F10464
330
F10465
100
AcDbEntity
8
Geo
100
AcDbLine
10
-74.8912400829437
20
12.3735192269617
30
0.000000000000000
11
-74.7912400829437
21
12.1872615342921
31
0.000000000000000
  0
LINE
  5
F10466
330
F10467
100
AcDbEntity
8
Geo
100
AcDbLine
10
-74.7912400829437
20
12.1872615342921
30
0.000000000000000
11
-74.6912400829437
21
11.9917073015197
31
0.000000000000000
  0
LINE
  5
F10468
330
F10469
100
AcDbEntity
8
Geo
100
AcDbLine
10
-74.6912400829437
20
11.9917073015197
30
0.000000000000000
11
-74.5912400829437
21
11.7871462028539
31
0.000000000000000
  0
LINE
  5
F1046A
330
F1046B
100
AcDbEntity
8
Geo
100
AcDbLine
10
-74.5912400829437
20
11.7871462028539
30
0.000000000000000
11
-74.4912400829437
21
11.5738812543621
31
0.000000000000000
  0
LINE
  5
F1046C
330
F1046D
100
AcDbEntity
8
Geo
100
AcDbLine
10
-74.4912400829437
20
11.5738812543621
30
0.000000000000000
11
-74.3912400829437
21
11.3522283651122
31
0.000000000000000
  0
LINE
  5
F1046E
330
F1046F
100
AcDbEntity
8
Geo
100
AcDbLine
10
-74.3912400829437
20
11.3522283651122
30
0.000000000000000
11
-74.2912400829437
21
11.1225158692169
31
0.000000000000000
  0
LINE
  5
F10470
330
F10471
100
AcDbEntity
8
Geo
100
AcDbLine
10
-74.2912400829437
20
11.1225158692169
30
0.000000000000000
11
-74.1912400829437
21
10.8850840394727
31
0.000000000000000
  0
LINE
  5
F10472
330
F10473
100
AcDbEntity
8
Geo
100
AcDbLine
10
-74.1912400829437
20
10.8850840394727
30
0.000000000000000
11
-74.0912400829437
21
10.6402845833146
31
0.000000000000000
  0
LINE
  5
F10474
330
F10475
100
AcDbEntity
8
Geo
100
AcDbLine
10
-74.0912400829437
20
10.6402845833146
30
0.000000000000000
11
-73.9912400829437
21
10.3884801218323
31
0.000000000000000
  0
LINE
  5
F10476
330
F10477
100
AcDbEntity
8
Geo
100
AcDbLine
10
-73.9912400829437
20
10.3884801218323
30
0.000000000000000
11
-73.8912400829437
21
10.1300436526199
31
0.000000000000000
  0
LINE
  5
F10478
330
F10479
100
AcDbEntity
8
Geo
100
AcDbLine
10
-73.8912400829437
20
10.1300436526199
30
0.000000000000000
11
-73.7912400829437
21
9.86535799725526
31
0.000000000000000
  0
LINE
  5
F1047A
330
F1047B
100
AcDbEntity
8
Geo
100
AcDbLine
10
-73.7912400829437
20
9.86535799725526
30
0.000000000000000
11
-73.6912400829437
21
9.59481523422690
31
0.000000000000000
  0
LINE
  5
F1047C
330
F1047D
100
AcDbEntity
8
Geo
100
AcDbLine
10
-73.6912400829437
20
9.59481523422690
30
0.000000000000000
11
-73.5912400829437
21
9.31881611814863
31
0.000000000000000
  0
LINE
  5
F1047E
330
F1047F
100
AcDbEntity
8
Geo
100
AcDbLine
10
-73.5912400829437
20
9.31881611814863
30
0.000000000000000
11
-73.4912400829437
21
9.03776948612238
31
0.000000000000000
  0
LINE
  5
F10480
330
F10481
100
AcDbEntity
8
Geo
100
AcDbLine
10
-73.4912400829437
20
9.03776948612238
30
0.000000000000000
11
-73.3912400829437
21
8.75209165212833
31
0.000000000000000
  0
LINE
  5
F10482
330
F10483
100
AcDbEntity
8
Geo
100
AcDbLine
10
-73.3912400829437
20
8.75209165212833
30
0.000000000000000
11
-73.2912400829437
21
8.46220579033961
31
0.000000000000000
  0
LINE
  5
F10484
330
F10485
100
AcDbEntity
8
Geo
100
AcDbLine
10
-73.2912400829437
20
8.46220579033961
30
0.000000000000000
11
-73.1912400829437
21
8.16854130827502
31
0.000000000000000
  0
LINE
  5
F10486
330
F10487
100
AcDbEntity
8
Geo
100
AcDbLine
10
-73.1912400829437
20
8.16854130827502
30
0.000000000000000
11
-73.0912400829437
21
7.87153321071822
31
0.000000000000000
  0
LINE
  5
F10488
330
F10489
100
AcDbEntity
8
Geo
100
AcDbLine
10
-73.0912400829437
20
7.87153321071822
30
0.000000000000000
11
-72.9912400829437
21
7.57162145534581
31
0.000000000000000
  0
LINE
  5
F1048A
330
F1048B
100
AcDbEntity
8
Geo
100
AcDbLine
10
-72.9912400829437
20
7.57162145534581
30
0.000000000000000
11
-72.8912400829437
21
7.26925030101861
31
0.000000000000000
  0
LINE
  5
F1048C
330
F1048D
100
AcDbEntity
8
Geo
100
AcDbLine
10
-72.8912400829437
20
7.26925030101861
30
0.000000000000000
11
-72.7912400829437
21
6.96486764970167
31
0.000000000000000
  0
LINE
  5
F1048E
330
F1048F
100
AcDbEntity
8
Geo
100
AcDbLine
10
-72.7912400829437
20
6.96486764970167
30
0.000000000000000
11
-72.6912400829437
21
6.65892438298767
31
0.000000000000000
  0
LINE
  5
F10490
330
F10491
100
AcDbEntity
8
Geo
100
AcDbLine
10
-72.6912400829437
20
6.65892438298767
30
0.000000000000000
11
-72.5912400829437
21
6.35187369420669
31
0.000000000000000
  0
LINE
  5
F10492
330
F10493
100
AcDbEntity
8
Geo
100
AcDbLine
10
-72.5912400829437
20
6.35187369420669
30
0.000000000000000
11
-72.4912400829437
21
6.04417041711157
31
0.000000000000000
  0
LINE
  5
F10494
330
F10495
100
AcDbEntity
8
Geo
100
AcDbLine
10
-72.4912400829437
20
6.04417041711157
30
0.000000000000000
11
-72.3912400829437
21
5.73627035213328
31
0.000000000000000
  0
LINE
  5
F10496
330
F10497
100
AcDbEntity
8
Geo
100
AcDbLine
10
-72.3912400829437
20
5.73627035213328
30
0.000000000000000
11
-72.2912400829437
21
5.42862959120442
31
0.000000000000000
  0
LINE
  5
F10498
330
F10499
100
AcDbEntity
8
Geo
100
AcDbLine
10
-72.2912400829437
20
5.42862959120442
30
0.000000000000000
11
-72.1912400829437
21
5.12170384215088
31
0.000000000000000
  0
LINE
  5
F1049A
330
F1049B
100
AcDbEntity
8
Geo
100
AcDbLine
10
-72.1912400829437
20
5.12170384215088
30
0.000000000000000
11
-72.0912400829437
21
4.81594775365242
31
0.000000000000000
  0
LINE
  5
F1049C
330
F1049D
100
AcDbEntity
8
Geo
100
AcDbLine
10
-72.0912400829437
20
4.81594775365242
30
0.000000000000000
11
-71.9912400829437
21
4.51181424177231
31
0.000000000000000
  0
LINE
  5
F1049E
330
F1049F
100
AcDbEntity
8
Geo
100
AcDbLine
10
-71.9912400829437
20
4.51181424177231
30
0.000000000000000
11
-71.8912400829437
21
4.20975381905334
31
0.000000000000000
  0
LINE
  5
F104A0
330
F104A1
100
AcDbEntity
8
Geo
100
AcDbLine
10
-71.8912400829437
20
4.20975381905334
30
0.000000000000000
11
-71.7912400829437
21
3.91021392717425
31
0.000000000000000
  0
LINE
  5
F104A2
330
F104A3
100
AcDbEntity
8
Geo
100
AcDbLine
10
-71.7912400829437
20
3.91021392717425
30
0.000000000000000
11
-71.6912400829437
21
3.61363827415501
31
0.000000000000000
  0
LINE
  5
F104A4
330
F104A5
100
AcDbEntity
8
Geo
100
AcDbLine
10
-71.6912400829437
20
3.61363827415501
30
0.000000000000000
11
-71.5912400829437
21
3.32046617709271
31
0.000000000000000
  0
LINE
  5
F104A6
330
F104A7
100
AcDbEntity
8
Geo
100
AcDbLine
10
-71.5912400829437
20
3.32046617709271
30
0.000000000000000
11
-71.4912400829437
21
3.03113191140184
31
0.000000000000000
  0
LINE
  5
F104A8
330
F104A9
100
AcDbEntity
8
Geo
100
AcDbLine
10
-71.4912400829437
20
3.03113191140184
30
0.000000000000000
11
-71.3912400829437
21
2.74606406752264
31
0.000000000000000
  0
LINE
  5
F104AA
330
F104AB
100
AcDbEntity
8
Geo
100
AcDbLine
10
-71.3912400829437
20
2.74606406752264
30
0.000000000000000
11
-71.2912400829437
21
2.46568491605075
31
0.000000000000000
  0
LINE
  5
F104AC
330
F104AD
100
AcDbEntity
8
Geo
100
AcDbLine
10
-71.2912400829437
20
2.46568491605075
30
0.000000000000000
11
-71.1912400829437
21
2.19040978222835
31
0.000000000000000
  0
LINE
  5
F104AE
330
F104AF
100
AcDbEntity
8
Geo
100
AcDbLine
10
-71.1912400829437
20
2.19040978222835
30
0.000000000000000
11
-71.0912400829437
21
1.92064643072348
31
0.000000000000000
  0
LINE
  5
F104B0
330
F104B1
100
AcDbEntity
8
Geo
100
AcDbLine
10
-71.0912400829437
20
1.92064643072348
30
0.000000000000000
11
-70.9912400829437
21
1.65679446160876
31
0.000000000000000
  0
LINE
  5
F104B2
330
F104B3
100
AcDbEntity
8
Geo
100
AcDbLine
10
-70.9912400829437
20
1.65679446160876
30
0.000000000000000
11
-70.8912400829437
21
1.39924471843442
31
0.000000000000000
  0
LINE
  5
F104B4
330
F104B5
100
AcDbEntity
8
Geo
100
AcDbLine
10
-70.8912400829437
20
1.39924471843442
30
0.000000000000000
11
-70.7912400829437
21
1.14837870927230
31
0.000000000000000
  0
LINE
  5
F104B6
330
F104B7
100
AcDbEntity
8
Geo
100
AcDbLine
10
-70.7912400829437
20
1.14837870927230
30
0.000000000000000
11
-70.6912400829437
21
0.904568041588349
31
0.000000000000000
  0
LINE
  5
F104B8
330
F104B9
100
AcDbEntity
8
Geo
100
AcDbLine
10
-70.6912400829437
20
0.904568041588349
30
0.000000000000000
11
-70.5912400829437
21
0.934515027255710
31
0.000000000000000
  0
LINE
  5
F104BA
330
F104BB
100
AcDbEntity
8
Geo
100
AcDbLine
10
-70.5912400829437
20
0.934515027255710
30
0.000000000000000
11
-70.4912400829436
21
0.963991893549213
31
0.000000000000000
  0
LINE
  5
F104BC
330
F104BD
100
AcDbEntity
8
Geo
100
AcDbLine
10
-70.4912400829436
20
0.963991893549213
30
0.000000000000000
11
-70.3912400829437
21
0.992991490688759
31
0.000000000000000
  0
LINE
  5
F104BE
330
F104BF
100
AcDbEntity
8
Geo
100
AcDbLine
10
-70.3912400829437
20
0.992991490688759
30
0.000000000000000
11
-70.2912400829437
21
1.02150687062412
31
0.000000000000000
  0
LINE
  5
F104C0
330
F104C1
100
AcDbEntity
8
Geo
100
AcDbLine
10
-70.2912400829437
20
1.02150687062412
30
0.000000000000000
11
-70.1912400829437
21
1.04953128373853
31
0.000000000000000
  0
LINE
  5
F104C2
330
F104C3
100
AcDbEntity
8
Geo
100
AcDbLine
10
-70.1912400829437
20
1.04953128373853
30
0.000000000000000
11
-70.0912400829437
21
1.07705817558470
31
0.000000000000000
  0
LINE
  5
F104C4
330
F104C5
100
AcDbEntity
8
Geo
100
AcDbLine
10
-70.0912400829437
20
1.07705817558470
30
0.000000000000000
11
-69.9912400829436
21
1.10408118365574
31
0.000000000000000
  0
LINE
  5
F104C6
330
F104C7
100
AcDbEntity
8
Geo
100
AcDbLine
10
-69.9912400829436
20
1.10408118365574
30
0.000000000000000
11
-69.8912400829437
21
1.13059413419327
31
0.000000000000000
  0
LINE
  5
F104C8
330
F104C9
100
AcDbEntity
8
Geo
100
AcDbLine
10
-69.8912400829437
20
1.13059413419327
30
0.000000000000000
11
-69.7912400829437
21
1.15659103903484
31
0.000000000000000
  0
LINE
  5
F104CA
330
F104CB
100
AcDbEntity
8
Geo
100
AcDbLine
10
-69.7912400829437
20
1.15659103903484
30
0.000000000000000
11
-69.6912400829437
21
1.18206609250293
31
0.000000000000000
  0
LINE
  5
F104CC
330
F104CD
100
AcDbEntity
8
Geo
100
AcDbLine
10
-69.6912400829437
20
1.18206609250293
30
0.000000000000000
11
-69.5912400829437
21
1.20701366833756
31
0.000000000000000
  0
LINE
  5
F104CE
330
F104CF
100
AcDbEntity
8
Geo
100
AcDbLine
10
-69.5912400829437
20
1.20701366833756
30
0.000000000000000
11
-69.4912400829436
21
1.23142831667445
31
0.000000000000000
  0
LINE
  5
F104D0
330
F104D1
100
AcDbEntity
8
Geo
100
AcDbLine
10
-69.4912400829436
20
1.23142831667445
30
0.000000000000000
11
-69.3912400829437
21
1.25530476107081
31
0.000000000000000
  0
LINE
  5
F104D2
330
F104D3
100
AcDbEntity
8
Geo
100
AcDbLine
10
-69.3912400829437
20
1.25530476107081
30
0.000000000000000
11
-69.2912400829437
21
1.27863789558044
31
0.000000000000000
  0
LINE
  5
F104D4
330
F104D5
100
AcDbEntity
8
Geo
100
AcDbLine
10
-69.2912400829437
20
1.27863789558044
30
0.000000000000000
11
-69.1912400829437
21
1.30142278188008
31
0.000000000000000
  0
LINE
  5
F104D6
330
F104D7
100
AcDbEntity
8
Geo
100
AcDbLine
10
-69.1912400829437
20
1.30142278188008
30
0.000000000000000
11
-69.0912400829437
21
1.32365464644870
31
0.000000000000000
  0
LINE
  5
F104D8
330
F104D9
100
AcDbEntity
8
Geo
100
AcDbLine
10
-69.0912400829437
20
1.32365464644870
30
0.000000000000000
11
-68.9912400829437
21
1.34532887780138
31
0.000000000000000
  0
LINE
  5
F104DA
330
F104DB
100
AcDbEntity
8
Geo
100
AcDbLine
10
-68.9912400829437
20
1.34532887780138
30
0.000000000000000
11
-68.8912400829437
21
1.36644102377940
31
0.000000000000000
  0
LINE
  5
F104DC
330
F104DD
100
AcDbEntity
8
Geo
100
AcDbLine
10
-68.8912400829437
20
1.36644102377940
30
0.000000000000000
11
-68.7912400829437
21
1.38698678889807
31
0.000000000000000
  0
LINE
  5
F104DE
330
F104DF
100
AcDbEntity
8
Geo
100
AcDbLine
10
-68.7912400829437
20
1.38698678889807
30
0.000000000000000
11
-68.6912400829437
21
1.40696203175385
31
0.000000000000000
  0
LINE
  5
F104E0
330
F104E1
100
AcDbEntity
8
Geo
100
AcDbLine
10
-68.6912400829437
20
1.40696203175385
30
0.000000000000000
11
-68.5912400829437
21
1.42636276249211
31
0.000000000000000
  0
LINE
  5
F104E2
330
F104E3
100
AcDbEntity
8
Geo
100
AcDbLine
10
-68.5912400829437
20
1.42636276249211
30
0.000000000000000
11
-68.4912400829436
21
1.44518514033689
31
0.000000000000000
  0
LINE
  5
F104E4
330
F104E5
100
AcDbEntity
8
Geo
100
AcDbLine
10
-68.4912400829436
20
1.44518514033689
30
0.000000000000000
11
-68.3912400829437
21
1.46342547118408
31
0.000000000000000
  0
LINE
  5
F104E6
330
F104E7
100
AcDbEntity
8
Geo
100
AcDbLine
10
-68.3912400829437
20
1.46342547118408
30
0.000000000000000
11
-68.2912400829437
21
1.48108020525920
31
0.000000000000000
  0
LINE
  5
F104E8
330
F104E9
100
AcDbEntity
8
Geo
100
AcDbLine
10
-68.2912400829437
20
1.48108020525920
30
0.000000000000000
11
-68.1912400829437
21
1.49814593484095
31
0.000000000000000
  0
LINE
  5
F104EA
330
F104EB
100
AcDbEntity
8
Geo
100
AcDbLine
10
-68.1912400829437
20
1.49814593484095
30
0.000000000000000
11
-68.0912400829436
21
1.51461939205183
31
0.000000000000000
  0
LINE
  5
F104EC
330
F104ED
100
AcDbEntity
8
Geo
100
AcDbLine
10
-68.0912400829436
20
1.51461939205183
30
0.000000000000000
11
-67.9912400829436
21
1.53049744671672
31
0.000000000000000
  0
LINE
  5
F104EE
330
F104EF
100
AcDbEntity
8
Geo
100
AcDbLine
10
-67.9912400829436
20
1.53049744671672
30
0.000000000000000
11
-67.8912400829437
21
1.54577710429073
31
0.000000000000000
  0
LINE
  5
F104F0
330
F104F1
100
AcDbEntity
8
Geo
100
AcDbLine
10
-67.8912400829437
20
1.54577710429073
30
0.000000000000000
11
-67.7912400829436
21
1.56045550385708
31
0.000000000000000
  0
LINE
  5
F104F2
330
F104F3
100
AcDbEntity
8
Geo
100
AcDbLine
10
-67.7912400829436
20
1.56045550385708
30
0.000000000000000
11
-67.6912400829436
21
1.57452991619616
31
0.000000000000000
  0
LINE
  5
F104F4
330
F104F5
100
AcDbEntity
8
Geo
100
AcDbLine
10
-67.6912400829436
20
1.57452991619616
30
0.000000000000000
11
-67.5912400829436
21
1.58799774192655
31
0.000000000000000
  0
LINE
  5
F104F6
330
F104F7
100
AcDbEntity
8
Geo
100
AcDbLine
10
-67.5912400829436
20
1.58799774192655
30
0.000000000000000
11
-67.4912400829436
21
1.60085650971897
31
0.000000000000000
  0
LINE
  5
F104F8
330
F104F9
100
AcDbEntity
8
Geo
100
AcDbLine
10
-67.4912400829436
20
1.60085650971897
30
0.000000000000000
11
-67.3912400829436
21
1.61310387458387
31
0.000000000000000
  0
LINE
  5
F104FA
330
F104FB
100
AcDbEntity
8
Geo
100
AcDbLine
10
-67.3912400829436
20
1.61310387458387
30
0.000000000000000
11
-67.2912400829436
21
1.62473761623360
31
0.000000000000000
  0
LINE
  5
F104FC
330
F104FD
100
AcDbEntity
8
Geo
100
AcDbLine
10
-67.2912400829436
20
1.62473761623360
30
0.000000000000000
11
-67.1912400829436
21
1.63575563751971
31
0.000000000000000
  0
LINE
  5
F104FE
330
F104FF
100
AcDbEntity
8
Geo
100
AcDbLine
10
-67.1912400829436
20
1.63575563751971
30
0.000000000000000
11
-67.0912400829436
21
1.64615596294620
31
0.000000000000000
  0
LINE
  5
F10500
330
F10501
100
AcDbEntity
8
Geo
100
AcDbLine
10
-67.0912400829436
20
1.64615596294620
30
0.000000000000000
11
-66.9912400829436
21
1.65593673725940
31
0.000000000000000
  0
LINE
  5
F10502
330
F10503
100
AcDbEntity
8
Geo
100
AcDbLine
10
-66.9912400829436
20
1.65593673725940
30
0.000000000000000
11
-66.8912400829436
21
1.66509622411490
31
0.000000000000000
  0
LINE
  5
F10504
330
F10505
100
AcDbEntity
8
Geo
100
AcDbLine
10
-66.8912400829436
20
1.66509622411490
30
0.000000000000000
11
-66.7912400829436
21
1.67363280482242
31
0.000000000000000
  0
LINE
  5
F10506
330
F10507
100
AcDbEntity
8
Geo
100
AcDbLine
10
-66.7912400829436
20
1.67363280482242
30
0.000000000000000
11
-66.6912400829436
21
1.68154497716884
31
0.000000000000000
  0
LINE
  5
F10508
330
F10509
100
AcDbEntity
8
Geo
100
AcDbLine
10
-66.6912400829436
20
1.68154497716884
30
0.000000000000000
11
-66.5912400829436
21
1.68883135432007
31
0.000000000000000
  0
LINE
  5
F1050A
330
F1050B
100
AcDbEntity
8
Geo
100
AcDbLine
10
-66.5912400829436
20
1.68883135432007
30
0.000000000000000
11
-66.4912400829436
21
1.69549066380223
31
0.000000000000000
  0
LINE
  5
F1050C
330
F1050D
100
AcDbEntity
8
Geo
100
AcDbLine
10
-66.4912400829436
20
1.69549066380223
30
0.000000000000000
11
-66.3912400829436
21
1.70152174656249
31
0.000000000000000
  0
LINE
  5
F1050E
330
F1050F
100
AcDbEntity
8
Geo
100
AcDbLine
10
-66.3912400829436
20
1.70152174656249
30
0.000000000000000
11
-66.2912400829436
21
1.70692355610993
31
0.000000000000000
  0
LINE
  5
F10510
330
F10511
100
AcDbEntity
8
Geo
100
AcDbLine
10
-66.2912400829436
20
1.70692355610993
30
0.000000000000000
11
-66.1912400829436
21
1.71169515773693
31
0.000000000000000
  0
LINE
  5
F10512
330
F10513
100
AcDbEntity
8
Geo
100
AcDbLine
10
-66.1912400829436
20
1.71169515773693
30
0.000000000000000
11
-66.0912400829436
21
1.71583572782125
31
0.000000000000000
  0
LINE
  5
F10514
330
F10515
100
AcDbEntity
8
Geo
100
AcDbLine
10
-66.0912400829436
20
1.71583572782125
30
0.000000000000000
11
-65.9912400829436
21
1.71934455320919
31
0.000000000000000
  0
LINE
  5
F10516
330
F10517
100
AcDbEntity
8
Geo
100
AcDbLine
10
-65.9912400829436
20
1.71934455320919
30
0.000000000000000
11
-65.8912400829436
21
1.72222103067996
31
0.000000000000000
  0
LINE
  5
F10518
330
F10519
100
AcDbEntity
8
Geo
100
AcDbLine
10
-65.8912400829436
20
1.72222103067996
30
0.000000000000000
11
-65.7912400829436
21
1.72446466649169
31
0.000000000000000
  0
LINE
  5
F1051A
330
F1051B
100
AcDbEntity
8
Geo
100
AcDbLine
10
-65.7912400829436
20
1.72446466649169
30
0.000000000000000
11
-65.6912400829437
21
1.72607507600896
31
0.000000000000000
  0
LINE
  5
F1051C
330
F1051D
100
AcDbEntity
8
Geo
100
AcDbLine
10
-77.3912400829437
20
13.9100744321863
30
0.000000000000000
11
-77.2912400829437
21
13.9095870461981
31
0.000000000000000
  0
LINE
  5
F1051E
330
F1051F
100
AcDbEntity
8
Geo
100
AcDbLine
10
-77.2912400829437
20
13.9095870461981
30
0.000000000000000
11
-77.1912400829437
21
13.8972518417519
31
0.000000000000000
  0
LINE
  5
F10520
330
F10521
100
AcDbEntity
8
Geo
100
AcDbLine
10
-77.1912400829437
20
13.8972518417519
30
0.000000000000000
11
-77.0912400829437
21
13.8730870909688
31
0.000000000000000
  0
LINE
  5
F10522
330
F10523
100
AcDbEntity
8
Geo
100
AcDbLine
10
-77.0912400829437
20
13.8730870909688
30
0.000000000000000
11
-76.9912400829437
21
13.8371285890600
31
0.000000000000000
  0
LINE
  5
F10524
330
F10525
100
AcDbEntity
8
Geo
100
AcDbLine
10
-76.9912400829437
20
13.8371285890600
30
0.000000000000000
11
-76.8912400829437
21
13.7894296013039
31
0.000000000000000
  0
LINE
  5
F10526
330
F10527
100
AcDbEntity
8
Geo
100
AcDbLine
10
-76.8912400829437
20
13.7894296013039
30
0.000000000000000
11
-76.7912400829437
21
13.7300607841438
31
0.000000000000000
  0
LINE
  5
F10528
330
F10529
100
AcDbEntity
8
Geo
100
AcDbLine
10
-76.7912400829437
20
13.7300607841438
30
0.000000000000000
11
-76.6912400829437
21
13.6591100805248
31
0.000000000000000
  0
LINE
  5
F1052A
330
F1052B
100
AcDbEntity
8
Geo
100
AcDbLine
10
-76.6912400829437
20
13.6591100805248
30
0.000000000000000
11
-76.5912400829437
21
13.5766825896245
31
0.000000000000000
  0
LINE
  5
F1052C
330
F1052D
100
AcDbEntity
8
Geo
100
AcDbLine
10
-76.5912400829437
20
13.5766825896245
30
0.000000000000000
11
-76.4912400829437
21
13.4829004111689
31
0.000000000000000
  0
LINE
  5
F1052E
330
F1052F
100
AcDbEntity
8
Geo
100
AcDbLine
10
-76.4912400829437
20
13.4829004111689
30
0.000000000000000
11
-76.3912400829437
21
13.3779024645669
31
0.000000000000000
  0
LINE
  5
F10530
330
F10531
100
AcDbEntity
8
Geo
100
AcDbLine
10
-76.3912400829437
20
13.3779024645669
30
0.000000000000000
11
-76.2912400829437
21
13.2618442831289
31
0.000000000000000
  0
LINE
  5
F10532
330
F10533
100
AcDbEntity
8
Geo
100
AcDbLine
10
-76.2912400829437
20
13.2618442831289
30
0.000000000000000
11
-76.1912400829437
21
13.1348977836757
31
0.000000000000000
  0
LINE
  5
F10534
330
F10535
100
AcDbEntity
8
Geo
100
AcDbLine
10
-76.1912400829437
20
13.1348977836757
30
0.000000000000000
11
-76.0912400829437
21
12.9972510118780
31
0.000000000000000
  0
LINE
  5
F10536
330
F10537
100
AcDbEntity
8
Geo
100
AcDbLine
10
-76.0912400829437
20
12.9972510118780
30
0.000000000000000
11
-75.9912400829437
21
12.8491078637052
31
0.000000000000000
  0
LINE
  5
F10538
330
F10539
100
AcDbEntity
8
Geo
100
AcDbLine
10
-75.9912400829437
20
12.8491078637052
30
0.000000000000000
11
-75.8912400829437
21
12.6906877833938
31
0.000000000000000
  0
LINE
  5
F1053A
330
F1053B
100
AcDbEntity
8
Geo
100
AcDbLine
10
-75.8912400829437
20
12.6906877833938
30
0.000000000000000
11
-75.7912400829437
21
12.5222254383857
31
0.000000000000000
  0
LINE
  5
F1053C
330
F1053D
100
AcDbEntity
8
Geo
100
AcDbLine
10
-75.7912400829437
20
12.5222254383857
30
0.000000000000000
11
-75.6912400829437
21
12.3439703717155
31
0.000000000000000
  0
LINE
  5
F1053E
330
F1053F
100
AcDbEntity
8
Geo
100
AcDbLine
10
-75.6912400829437
20
12.3439703717155
30
0.000000000000000
11
-75.5912400829437
21
12.1561866323621
31
0.000000000000000
  0
LINE
  5
F10540
330
F10541
100
AcDbEntity
8
Geo
100
AcDbLine
10
-75.5912400829437
20
12.1561866323621
30
0.000000000000000
11
-75.4912400829437
21
11.9591523841143
31
0.000000000000000
  0
LINE
  5
F10542
330
F10543
100
AcDbEntity
8
Geo
100
AcDbLine
10
-75.4912400829437
20
11.9591523841143
30
0.000000000000000
11
-75.3912400829437
21
11.7531594935265
31
0.000000000000000
  0
LINE
  5
F10544
330
F10545
100
AcDbEntity
8
Geo
100
AcDbLine
10
-75.3912400829437
20
11.7531594935265
30
0.000000000000000
11
-75.2912400829437
21
11.5385130975774
31
0.000000000000000
  0
LINE
  5
F10546
330
F10547
100
AcDbEntity
8
Geo
100
AcDbLine
10
-75.2912400829437
20
11.5385130975774
30
0.000000000000000
11
-75.1912400829437
21
11.3155311516710
31
0.000000000000000
  0
LINE
  5
F10548
330
F10549
100
AcDbEntity
8
Geo
100
AcDbLine
10
-75.1912400829437
20
11.3155311516710
30
0.000000000000000
11
-75.0912400829437
21
11.0845439586497
31
0.000000000000000
  0
LINE
  5
F1054A
330
F1054B
100
AcDbEntity
8
Geo
100
AcDbLine
10
-75.0912400829437
20
11.0845439586497
30
0.000000000000000
11
-74.9912400829437
21
10.8458936795171
31
0.000000000000000
  0
LINE
  5
F1054C
330
F1054D
100
AcDbEntity
8
Geo
100
AcDbLine
10
-74.9912400829437
20
10.8458936795171
30
0.000000000000000
11
-74.8912400829437
21
10.5999338265957
31
0.000000000000000
  0
LINE
  5
F1054E
330
F1054F
100
AcDbEntity
8
Geo
100
AcDbLine
10
-74.8912400829437
20
10.5999338265957
30
0.000000000000000
11
-74.7912400829437
21
10.3470287398692
31
0.000000000000000
  0
LINE
  5
F10550
330
F10551
100
AcDbEntity
8
Geo
100
AcDbLine
10
-74.7912400829437
20
10.3470287398692
30
0.000000000000000
11
-74.6912400829437
21
10.0875530472863
31
0.000000000000000
  0
LINE
  5
F10552
330
F10553
100
AcDbEntity
8
Geo
100
AcDbLine
10
-74.6912400829437
20
10.0875530472863
30
0.000000000000000
11
-74.5912400829437
21
9.82189110982505
31
0.000000000000000
  0
LINE
  5
F10554
330
F10555
100
AcDbEntity
8
Geo
100
AcDbLine
10
-74.5912400829437
20
9.82189110982505
30
0.000000000000000
11
-74.4912400829437
21
9.55043645213916
31
0.000000000000000
  0
LINE
  5
F10556
330
F10557
100
AcDbEntity
8
Geo
100
AcDbLine
10
-74.4912400829437
20
9.55043645213916
30
0.000000000000000
11
-74.3912400829437
21
9.27359117963077
31
0.000000000000000
  0
LINE
  5
F10558
330
F10559
100
AcDbEntity
8
Geo
100
AcDbLine
10
-74.3912400829437
20
9.27359117963077
30
0.000000000000000
11
-74.2912400829437
21
8.99176538281212
31
0.000000000000000
  0
LINE
  5
F1055A
330
F1055B
100
AcDbEntity
8
Geo
100
AcDbLine
10
-74.2912400829437
20
8.99176538281212
30
0.000000000000000
11
-74.1912400829437
21
8.70537652983912
31
0.000000000000000
  0
LINE
  5
F1055C
330
F1055D
100
AcDbEntity
8
Geo
100
AcDbLine
10
-74.1912400829437
20
8.70537652983912
30
0.000000000000000
11
-74.0912400829437
21
8.41484884811630
31
0.000000000000000
  0
LINE
  5
F1055E
330
F1055F
100
AcDbEntity
8
Geo
100
AcDbLine
10
-74.0912400829437
20
8.41484884811630
30
0.000000000000000
11
-73.9912400829437
21
8.12061269588942
31
0.000000000000000
  0
LINE
  5
F10560
330
F10561
100
AcDbEntity
8
Geo
100
AcDbLine
10
-73.9912400829437
20
8.12061269588942
30
0.000000000000000
11
-73.8912400829437
21
7.82310392475636
31
0.000000000000000
  0
LINE
  5
F10562
330
F10563
100
AcDbEntity
8
Geo
100
AcDbLine
10
-73.8912400829437
20
7.82310392475636
30
0.000000000000000
11
-73.7912400829437
21
7.52276323404077
31
0.000000000000000
  0
LINE
  5
F10564
330
F10565
100
AcDbEntity
8
Geo
100
AcDbLine
10
-73.7912400829437
20
7.52276323404077
30
0.000000000000000
11
-73.6912400829437
21
7.22003551798480
31
0.000000000000000
  0
LINE
  5
F10566
330
F10567
100
AcDbEntity
8
Geo
100
AcDbLine
10
-73.6912400829437
20
7.22003551798480
30
0.000000000000000
11
-73.5912400829437
21
6.91536920672787
31
0.000000000000000
  0
LINE
  5
F10568
330
F10569
100
AcDbEntity
8
Geo
100
AcDbLine
10
-73.5912400829437
20
6.91536920672787
30
0.000000000000000
11
-73.4912400829437
21
6.60921560204775
31
0.000000000000000
  0
LINE
  5
F1056A
330
F1056B
100
AcDbEntity
8
Geo
100
AcDbLine
10
-73.4912400829437
20
6.60921560204775
30
0.000000000000000
11
-73.3912400829437
21
6.30202820884785
31
0.000000000000000
  0
LINE
  5
F1056C
330
F1056D
100
AcDbEntity
8
Geo
100
AcDbLine
10
-73.3912400829437
20
6.30202820884785
30
0.000000000000000
11
-73.2912400829437
21
5.99426206338106
31
0.000000000000000
  0
LINE
  5
F1056E
330
F1056F
100
AcDbEntity
8
Geo
100
AcDbLine
10
-73.2912400829437
20
5.99426206338106
30
0.000000000000000
11
-73.1912400829437
21
5.68637305920519
31
0.000000000000000
  0
LINE
  5
F10570
330
F10571
100
AcDbEntity
8
Geo
100
AcDbLine
10
-73.1912400829437
20
5.68637305920519
30
0.000000000000000
11
-73.0912400829437
21
5.37881727186850
31
0.000000000000000
  0
LINE
  5
F10572
330
F10573
100
AcDbEntity
8
Geo
100
AcDbLine
10
-73.0912400829437
20
5.37881727186850
30
0.000000000000000
11
-72.9912400829437
21
5.07205028332558
31
0.000000000000000
  0
LINE
  5
F10574
330
F10575
100
AcDbEntity
8
Geo
100
AcDbLine
10
-72.9912400829437
20
5.07205028332558
30
0.000000000000000
11
-72.8912400829437
21
4.76652650708451
31
0.000000000000000
  0
LINE
  5
F10576
330
F10577
100
AcDbEntity
8
Geo
100
AcDbLine
10
-72.8912400829437
20
4.76652650708451
30
0.000000000000000
11
-72.7912400829437
21
4.46269851508473
31
0.000000000000000
  0
LINE
  5
F10578
330
F10579
100
AcDbEntity
8
Geo
100
AcDbLine
10
-72.7912400829437
20
4.46269851508473
30
0.000000000000000
11
-72.6912400829437
21
4.16101636730285
31
0.000000000000000
  0
LINE
  5
F1057A
330
F1057B
100
AcDbEntity
8
Geo
100
AcDbLine
10
-72.6912400829437
20
4.16101636730285
30
0.000000000000000
11
-72.5912400829437
21
3.86192694507949
31
0.000000000000000
  0
LINE
  5
F1057C
330
F1057D
100
AcDbEntity
8
Geo
100
AcDbLine
10
-72.5912400829437
20
3.86192694507949
30
0.000000000000000
11
-72.4912400829437
21
3.56587328915453
31
0.000000000000000
  0
LINE
  5
F1057E
330
F1057F
100
AcDbEntity
8
Geo
100
AcDbLine
10
-72.4912400829437
20
3.56587328915453
30
0.000000000000000
11
-72.3912400829437
21
3.27329394339153
31
0.000000000000000
  0
LINE
  5
F10580
330
F10581
100
AcDbEntity
8
Geo
100
AcDbLine
10
-72.3912400829437
20
3.27329394339153
30
0.000000000000000
11
-72.2912400829437
21
2.98462230516329
31
0.000000000000000
  0
LINE
  5
F10582
330
F10583
100
AcDbEntity
8
Geo
100
AcDbLine
10
-72.2912400829437
20
2.98462230516329
30
0.000000000000000
11
-72.1912400829437
21
2.70028598336094
31
0.000000000000000
  0
LINE
  5
F10584
330
F10585
100
AcDbEntity
8
Geo
100
AcDbLine
10
-72.1912400829437
20
2.70028598336094
30
0.000000000000000
11
-72.0912400829437
21
2.42070616497751
31
0.000000000000000
  0
LINE
  5
F10586
330
F10587
100
AcDbEntity
8
Geo
100
AcDbLine
10
-72.0912400829437
20
2.42070616497751
30
0.000000000000000
11
-71.9912400829437
21
2.14629699120418
31
0.000000000000000
  0
LINE
  5
F10588
330
F10589
100
AcDbEntity
8
Geo
100
AcDbLine
10
-71.9912400829437
20
2.14629699120418
30
0.000000000000000
11
-71.8912400829437
21
1.87746494396358
31
0.000000000000000
  0
LINE
  5
F1058A
330
F1058B
100
AcDbEntity
8
Geo
100
AcDbLine
10
-71.8912400829437
20
1.87746494396358
30
0.000000000000000
11
-71.7912400829437
21
1.61460824378865
31
0.000000000000000
  0
LINE
  5
F1058C
330
F1058D
100
AcDbEntity
8
Geo
100
AcDbLine
10
-71.7912400829437
20
1.61460824378865
30
0.000000000000000
11
-71.6912400829437
21
1.35811625993916
31
0.000000000000000
  0
LINE
  5
F1058E
330
F1058F
100
AcDbEntity
8
Geo
100
AcDbLine
10
-71.6912400829437
20
1.35811625993916
30
0.000000000000000
11
-71.5912400829437
21
1.10836893362952
31
0.000000000000000
  0
LINE
  5
F10590
330
F10591
100
AcDbEntity
8
Geo
100
AcDbLine
10
-71.5912400829437
20
1.10836893362952
30
0.000000000000000
11
-71.4912400829437
21
0.865736215222443
31
0.000000000000000
  0
LINE
  5
F10592
330
F10593
100
AcDbEntity
8
Geo
100
AcDbLine
10
-71.4912400829437
20
0.865736215222443
30
0.000000000000000
11
-71.3912400829437
21
0.630577516221961
31
0.000000000000000
  0
LINE
  5
F10594
330
F10595
100
AcDbEntity
8
Geo
100
AcDbLine
10
-71.3912400829437
20
0.630577516221961
30
0.000000000000000
11
-71.2912400829437
21
0.403241176877721
31
0.000000000000000
  0
LINE
  5
F10596
330
F10597
100
AcDbEntity
8
Geo
100
AcDbLine
10
-71.2912400829437
20
0.403241176877721
30
0.000000000000000
11
-71.1912400829437
21
0.184063950188992
31
0.000000000000000
  0
LINE
  5
F10598
330
F10599
100
AcDbEntity
8
Geo
100
AcDbLine
10
-71.1912400829437
20
0.184063950188992
30
0.000000000000000
11
-71.0912400829437
21
-0.0266294969270273
31
0.000000000000000
  0
LINE
  5
F1059A
330
F1059B
100
AcDbEntity
8
Geo
100
AcDbLine
10
-71.0912400829437
20
-0.0266294969270273
30
0.000000000000000
11
-70.9912400829437
21
-0.228527064563871
31
0.000000000000000
  0
LINE
  5
F1059C
330
F1059D
100
AcDbEntity
8
Geo
100
AcDbLine
10
-70.9912400829437
20
-0.228527064563871
30
0.000000000000000
11
-70.8912400829437
21
-0.421329682138961
31
0.000000000000000
  0
LINE
  5
F1059E
330
F1059F
100
AcDbEntity
8
Geo
100
AcDbLine
10
-70.8912400829437
20
-0.421329682138961
30
0.000000000000000
11
-70.7912400829437
21
-0.604751751406432
31
0.000000000000000
  0
LINE
  5
F105A0
330
F105A1
100
AcDbEntity
8
Geo
100
AcDbLine
10
-70.7912400829437
20
-0.604751751406432
30
0.000000000000000
11
-70.6912400829437
21
-0.778521569513469
31
0.000000000000000
  0
LINE
  5
F105A2
330
F105A3
100
AcDbEntity
8
Geo
100
AcDbLine
10
-70.6912400829437
20
-0.778521569513469
30
0.000000000000000
11
-70.5912400829437
21
-0.961384251724435
31
0.000000000000000
  0
LINE
  5
F105A4
330
F105A5
100
AcDbEntity
8
Geo
100
AcDbLine
10
-70.5912400829437
20
-0.961384251724435
30
0.000000000000000
11
-70.4912400829436
21
-1.12829790040797
31
0.000000000000000
  0
LINE
  5
F105A6
330
F105A7
100
AcDbEntity
8
Geo
100
AcDbLine
10
-70.4912400829436
20
-1.12829790040797
30
0.000000000000000
11
-70.3912400829437
21
-1.27970170163728
31
0.000000000000000
  0
LINE
  5
F105A8
330
F105A9
100
AcDbEntity
8
Geo
100
AcDbLine
10
-70.3912400829437
20
-1.27970170163728
30
0.000000000000000
11
-70.2912400829437
21
-1.41607513523227
31
0.000000000000000
  0
LINE
  5
F105AA
330
F105AB
100
AcDbEntity
8
Geo
100
AcDbLine
10
-70.2912400829437
20
-1.41607513523227
30
0.000000000000000
11
-70.1912400829437
21
-1.53793259899499
31
0.000000000000000
  0
LINE
  5
F105AC
330
F105AD
100
AcDbEntity
8
Geo
100
AcDbLine
10
-70.1912400829437
20
-1.53793259899499
30
0.000000000000000
11
-70.0912400829437
21
-1.64581828499854
31
0.000000000000000
  0
LINE
  5
F105AE
330
F105AF
100
AcDbEntity
8
Geo
100
AcDbLine
10
-70.0912400829437
20
-1.64581828499854
30
0.000000000000000
11
-69.9912400829436
21
-1.74030131987490
31
0.000000000000000
  0
LINE
  5
F105B0
330
F105B1
100
AcDbEntity
8
Geo
100
AcDbLine
10
-69.9912400829436
20
-1.74030131987490
30
0.000000000000000
11
-69.8912400829437
21
-1.82197117770811
31
0.000000000000000
  0
LINE
  5
F105B2
330
F105B3
100
AcDbEntity
8
Geo
100
AcDbLine
10
-69.8912400829437
20
-1.82197117770811
30
0.000000000000000
11
-69.7912400829437
21
-1.89143337108322
31
0.000000000000000
  0
LINE
  5
F105B4
330
F105B5
100
AcDbEntity
8
Geo
100
AcDbLine
10
-69.7912400829437
20
-1.89143337108322
30
0.000000000000000
11
-69.6912400829437
21
-1.94930542306543
31
0.000000000000000
  0
LINE
  5
F105B6
330
F105B7
100
AcDbEntity
8
Geo
100
AcDbLine
10
-69.6912400829437
20
-1.94930542306543
30
0.000000000000000
11
-69.5912400829437
21
-1.99621312038200
31
0.000000000000000
  0
LINE
  5
F105B8
330
F105B9
100
AcDbEntity
8
Geo
100
AcDbLine
10
-69.5912400829437
20
-1.99621312038200
30
0.000000000000000
11
-69.4912400829436
21
-2.03278704584329
31
0.000000000000000
  0
LINE
  5
F105BA
330
F105BB
100
AcDbEntity
8
Geo
100
AcDbLine
10
-69.4912400829436
20
-2.03278704584329
30
0.000000000000000
11
-69.3912400829437
21
-2.05965938606055
31
0.000000000000000
  0
LINE
  5
F105BC
330
F105BD
100
AcDbEntity
8
Geo
100
AcDbLine
10
-69.3912400829437
20
-2.05965938606055
30
0.000000000000000
11
-69.2912400829437
21
-2.07746100878312
31
0.000000000000000
  0
LINE
  5
F105BE
330
F105BF
100
AcDbEntity
8
Geo
100
AcDbLine
10
-69.2912400829437
20
-2.07746100878312
30
0.000000000000000
11
-69.1912400829437
21
-2.08681880267705
31
0.000000000000000
  0
LINE
  5
F105C0
330
F105C1
100
AcDbEntity
8
Geo
100
AcDbLine
10
-69.1912400829437
20
-2.08681880267705
30
0.000000000000000
11
-69.0912400829437
21
-2.08867780422892
31
0.000000000000000
  0
LINE
  5
F105C2
330
F105C3
100
AcDbEntity
8
Geo
100
AcDbLine
10
-80.6912400829437
20
13.9074298473724
30
0.000000000000000
11
-80.5912400829436
21
13.9111093631047
31
0.000000000000000
  0
LINE
  5
F105C4
330
F105C5
100
AcDbEntity
8
Geo
100
AcDbLine
10
-80.5912400829436
20
13.9111093631047
30
0.000000000000000
11
-80.4912400829436
21
13.9029388053733
31
0.000000000000000
  0
LINE
  5
F105C6
330
F105C7
100
AcDbEntity
8
Geo
100
AcDbLine
10
-80.4912400829436
20
13.9029388053733
30
0.000000000000000
11
-80.3912400829437
21
13.8829302772138
31
0.000000000000000
  0
LINE
  5
F105C8
330
F105C9
100
AcDbEntity
8
Geo
100
AcDbLine
10
-80.3912400829437
20
13.8829302772138
30
0.000000000000000
11
-80.2912400829436
21
13.8511134172307
31
0.000000000000000
  0
LINE
  5
F105CA
330
F105CB
100
AcDbEntity
8
Geo
100
AcDbLine
10
-80.2912400829436
20
13.8511134172307
30
0.000000000000000
11
-80.1912400829437
21
13.8075353556939
31
0.000000000000000
  0
LINE
  5
F105CC
330
F105CD
100
AcDbEntity
8
Geo
100
AcDbLine
10
-80.1912400829437
20
13.8075353556939
30
0.000000000000000
11
-80.0912400829437
21
13.7522606447247
31
0.000000000000000
  0
LINE
  5
F105CE
330
F105CF
100
AcDbEntity
8
Geo
100
AcDbLine
10
-80.0912400829437
20
13.7522606447247
30
0.000000000000000
11
-79.9912400829436
21
13.6853711626744
31
0.000000000000000
  0
LINE
  5
F105D0
330
F105D1
100
AcDbEntity
8
Geo
100
AcDbLine
10
-79.9912400829436
20
13.6853711626744
30
0.000000000000000
11
-79.8912400829437
21
13.6069659928387
31
0.000000000000000
  0
LINE
  5
F105D2
330
F105D3
100
AcDbEntity
8
Geo
100
AcDbLine
10
-79.8912400829437
20
13.6069659928387
30
0.000000000000000
11
-79.7912400829437
21
13.5171612766853
31
0.000000000000000
  0
LINE
  5
F105D4
330
F105D5
100
AcDbEntity
8
Geo
100
AcDbLine
10
-79.7912400829437
20
13.5171612766853
30
0.000000000000000
11
-79.6912400829437
21
13.4160900418136
31
0.000000000000000
  0
LINE
  5
F105D6
330
F105D7
100
AcDbEntity
8
Geo
100
AcDbLine
10
-79.6912400829437
20
13.4160900418136
30
0.000000000000000
11
-79.5912400829437
21
13.3039020049016
31
0.000000000000000
  0
LINE
  5
F105D8
330
F105D9
100
AcDbEntity
8
Geo
100
AcDbLine
10
-79.5912400829437
20
13.3039020049016
30
0.000000000000000
11
-79.4912400829436
21
13.1807633499302
31
0.000000000000000
  0
LINE
  5
F105DA
330
F105DB
100
AcDbEntity
8
Geo
100
AcDbLine
10
-79.4912400829436
20
13.1807633499302
30
0.000000000000000
11
-79.3912400829437
21
13.0468564820158
31
0.000000000000000
  0
LINE
  5
F105DC
330
F105DD
100
AcDbEntity
8
Geo
100
AcDbLine
10
-79.3912400829437
20
13.0468564820158
30
0.000000000000000
11
-79.2912400829437
21
12.9023797572131
31
0.000000000000000
  0
LINE
  5
F105DE
330
F105DF
100
AcDbEntity
8
Geo
100
AcDbLine
10
-79.2912400829437
20
12.9023797572131
30
0.000000000000000
11
-79.1912400829437
21
12.7475471886910
31
0.000000000000000
  0
LINE
  5
F105E0
330
F105E1
100
AcDbEntity
8
Geo
100
AcDbLine
10
-79.1912400829437
20
12.7475471886910
30
0.000000000000000
11
-79.0912400829437
21
12.5825881297153
31
0.000000000000000
  0
LINE
  5
F105E2
330
F105E3
100
AcDbEntity
8
Geo
100
AcDbLine
10
-79.0912400829437
20
12.5825881297153
30
0.000000000000000
11
-78.9912400829436
21
12.4077469339077
31
0.000000000000000
  0
LINE
  5
F105E4
330
F105E5
100
AcDbEntity
8
Geo
100
AcDbLine
10
-78.9912400829436
20
12.4077469339077
30
0.000000000000000
11
-78.8912400829437
21
12.2232825932853
31
0.000000000000000
  0
LINE
  5
F105E6
330
F105E7
100
AcDbEntity
8
Geo
100
AcDbLine
10
-78.8912400829437
20
12.2232825932853
30
0.000000000000000
11
-78.7912400829437
21
12.0294683546161
31
0.000000000000000
  0
LINE
  5
F105E8
330
F105E9
100
AcDbEntity
8
Geo
100
AcDbLine
10
-78.7912400829437
20
12.0294683546161
30
0.000000000000000
11
-78.6912400829437
21
11.8265913146587
31
0.000000000000000
  0
LINE
  5
F105EA
330
F105EB
100
AcDbEntity
8
Geo
100
AcDbLine
10
-78.6912400829437
20
11.8265913146587
30
0.000000000000000
11
-78.5912400829437
21
11.6149519948869
31
0.000000000000000
  0
LINE
  5
F105EC
330
F105ED
100
AcDbEntity
8
Geo
100
AcDbLine
10
-78.5912400829437
20
11.6149519948869
30
0.000000000000000
11
-78.4912400829437
21
11.3948638963268
31
0.000000000000000
  0
LINE
  5
F105EE
330
F105EF
100
AcDbEntity
8
Geo
100
AcDbLine
10
-78.4912400829437
20
11.3948638963268
30
0.000000000000000
11
-78.3912400829437
21
11.1666530351688
31
0.000000000000000
  0
LINE
  5
F105F0
330
F105F1
100
AcDbEntity
8
Geo
100
AcDbLine
10
-78.3912400829437
20
11.1666530351688
30
0.000000000000000
11
-78.2912400829437
21
10.9306574598403
31
0.000000000000000
  0
LINE
  5
F105F2
330
F105F3
100
AcDbEntity
8
Geo
100
AcDbLine
10
-78.2912400829437
20
10.9306574598403
30
0.000000000000000
11
-78.1912400829437
21
10.6872267502545
31
0.000000000000000
  0
LINE
  5
F105F4
330
F105F5
100
AcDbEntity
8
Geo
100
AcDbLine
10
-78.1912400829437
20
10.6872267502545
30
0.000000000000000
11
-78.0912400829437
21
10.4367214999787
31
0.000000000000000
  0
LINE
  5
F105F6
330
F105F7
100
AcDbEntity
8
Geo
100
AcDbLine
10
-78.0912400829437
20
10.4367214999787
30
0.000000000000000
11
-77.9912400829437
21
10.1795127820873
31
0.000000000000000
  0
LINE
  5
F105F8
330
F105F9
100
AcDbEntity
8
Geo
100
AcDbLine
10
-77.9912400829437
20
10.1795127820873
30
0.000000000000000
11
-77.8912400829437
21
9.91598159949186
31
0.000000000000000
  0
LINE
  5
F105FA
330
F105FB
100
AcDbEntity
8
Geo
100
AcDbLine
10
-77.8912400829437
20
9.91598159949186
30
0.000000000000000
11
-77.7912400829437
21
9.64651832056200
31
0.000000000000000
  0
LINE
  5
F105FC
330
F105FD
100
AcDbEntity
8
Geo
100
AcDbLine
10
-77.7912400829437
20
9.64651832056200
30
0.000000000000000
11
-77.6912400829437
21
9.37152210087326
31
0.000000000000000
  0
LINE
  5
F105FE
330
F105FF
100
AcDbEntity
8
Geo
100
AcDbLine
10
-77.6912400829437
20
9.37152210087326
30
0.000000000000000
11
-77.5912400829437
21
9.09140029193857
31
0.000000000000000
  0
LINE
  5
F10600
330
F10601
100
AcDbEntity
8
Geo
100
AcDbLine
10
-77.5912400829437
20
9.09140029193857
30
0.000000000000000
11
-77.4912400829437
21
8.80656783779895
31
0.000000000000000
  0
LINE
  5
F10602
330
F10603
100
AcDbEntity
8
Geo
100
AcDbLine
10
-77.4912400829437
20
8.80656783779895
30
0.000000000000000
11
-77.3912400829437
21
8.51744666036757
31
0.000000000000000
  0
LINE
  5
F10604
330
F10605
100
AcDbEntity
8
Geo
100
AcDbLine
10
-77.3912400829437
20
8.51744666036757
30
0.000000000000000
11
-77.2912400829437
21
8.22446503443733
31
0.000000000000000
  0
LINE
  5
F10606
330
F10607
100
AcDbEntity
8
Geo
100
AcDbLine
10
-77.2912400829437
20
8.22446503443733
30
0.000000000000000
11
-77.1912400829437
21
7.92805695327809
31
0.000000000000000
  0
LINE
  5
F10608
330
F10609
100
AcDbEntity
8
Geo
100
AcDbLine
10
-77.1912400829437
20
7.92805695327809
30
0.000000000000000
11
-77.0912400829437
21
7.62866148576300
31
0.000000000000000
  0
LINE
  5
F1060A
330
F1060B
100
AcDbEntity
8
Geo
100
AcDbLine
10
-77.0912400829437
20
7.62866148576300
30
0.000000000000000
11
-76.9912400829437
21
7.32672212597639
31
0.000000000000000
  0
LINE
  5
F1060C
330
F1060D
100
AcDbEntity
8
Geo
100
AcDbLine
10
-76.9912400829437
20
7.32672212597639
30
0.000000000000000
11
-76.8912400829437
21
7.02268613626668
31
0.000000000000000
  0
LINE
  5
F1060E
330
F1060F
100
AcDbEntity
8
Geo
100
AcDbLine
10
-76.8912400829437
20
7.02268613626668
30
0.000000000000000
11
-76.7912400829437
21
6.71700388471719
31
0.000000000000000
  0
LINE
  5
F10610
330
F10611
100
AcDbEntity
8
Geo
100
AcDbLine
10
-76.7912400829437
20
6.71700388471719
30
0.000000000000000
11
-76.6912400829437
21
6.41012817801662
31
0.000000000000000
  0
LINE
  5
F10612
330
F10613
100
AcDbEntity
8
Geo
100
AcDbLine
10
-76.6912400829437
20
6.41012817801662
30
0.000000000000000
11
-76.5912400829437
21
6.10251359071708
31
0.000000000000000
  0
LINE
  5
F10614
330
F10615
100
AcDbEntity
8
Geo
100
AcDbLine
10
-76.5912400829437
20
6.10251359071708
30
0.000000000000000
11
-76.4912400829437
21
5.79461579187349
31
0.000000000000000
  0
LINE
  5
F10616
330
F10617
100
AcDbEntity
8
Geo
100
AcDbLine
10
-76.4912400829437
20
5.79461579187349
30
0.000000000000000
11
-76.3912400829437
21
5.48689087006162
31
0.000000000000000
  0
LINE
  5
F10618
330
F10619
100
AcDbEntity
8
Geo
100
AcDbLine
10
-76.3912400829437
20
5.48689087006162
30
0.000000000000000
11
-76.2912400829437
21
5.17979465777474
31
0.000000000000000
  0
LINE
  5
F1061A
330
F1061B
100
AcDbEntity
8
Geo
100
AcDbLine
10
-76.2912400829437
20
5.17979465777474
30
0.000000000000000
11
-76.1912400829437
21
4.87378205619959
31
0.000000000000000
  0
LINE
  5
F1061C
330
F1061D
100
AcDbEntity
8
Geo
100
AcDbLine
10
-76.1912400829437
20
4.87378205619959
30
0.000000000000000
11
-76.0912400829437
21
4.56930636137187
31
0.000000000000000
  0
LINE
  5
F1061E
330
F1061F
100
AcDbEntity
8
Geo
100
AcDbLine
10
-76.0912400829437
20
4.56930636137187
30
0.000000000000000
11
-75.9912400829437
21
4.26681859270951
31
0.000000000000000
  0
LINE
  5
F10620
330
F10621
100
AcDbEntity
8
Geo
100
AcDbLine
10
-75.9912400829437
20
4.26681859270951
30
0.000000000000000
11
-75.8912400829437
21
3.96676682491819
31
0.000000000000000
  0
LINE
  5
F10622
330
F10623
100
AcDbEntity
8
Geo
100
AcDbLine
10
-75.8912400829437
20
3.96676682491819
30
0.000000000000000
11
-75.7912400829437
21
3.66959552425893
31
0.000000000000000
  0
LINE
  5
F10624
330
F10625
100
AcDbEntity
8
Geo
100
AcDbLine
10
-75.7912400829437
20
3.66959552425893
30
0.000000000000000
11
-75.6912400829437
21
3.37574489016085
31
0.000000000000000
  0
LINE
  5
F10626
330
F10627
100
AcDbEntity
8
Geo
100
AcDbLine
10
-75.6912400829437
20
3.37574489016085
30
0.000000000000000
11
-75.5912400829437
21
3.08565020315439
31
0.000000000000000
  0
LINE
  5
F10628
330
F10629
100
AcDbEntity
8
Geo
100
AcDbLine
10
-75.5912400829437
20
3.08565020315439
30
0.000000000000000
11
-75.4912400829437
21
2.79974118009080
31
0.000000000000000
  0
LINE
  5
F1062A
330
F1062B
100
AcDbEntity
8
Geo
100
AcDbLine
10
-75.4912400829437
20
2.79974118009080
30
0.000000000000000
11
-75.3912400829437
21
2.51844133760329
31
0.000000000000000
  0
LINE
  5
F1062C
330
F1062D
100
AcDbEntity
8
Geo
100
AcDbLine
10
-75.3912400829437
20
2.51844133760329
30
0.000000000000000
11
-75.2912400829437
21
2.24216736475233
31
0.000000000000000
  0
LINE
  5
F1062E
330
F1062F
100
AcDbEntity
8
Geo
100
AcDbLine
10
-75.2912400829437
20
2.24216736475233
30
0.000000000000000
11
-75.1912400829437
21
1.97132850578478
31
0.000000000000000
  0
LINE
  5
F10630
330
F10631
100
AcDbEntity
8
Geo
100
AcDbLine
10
-75.1912400829437
20
1.97132850578478
30
0.000000000000000
11
-75.0912400829437
21
1.70632595392100
31
0.000000000000000
  0
LINE
  5
F10632
330
F10633
100
AcDbEntity
8
Geo
100
AcDbLine
10
-75.0912400829437
20
1.70632595392100
30
0.000000000000000
11
-74.9912400829437
21
1.44755225706778
31
0.000000000000000
  0
LINE
  5
F10634
330
F10635
100
AcDbEntity
8
Geo
100
AcDbLine
10
-74.9912400829437
20
1.44755225706778
30
0.000000000000000
11
-74.8912400829437
21
1.19539073633785
31
0.000000000000000
  0
LINE
  5
F10636
330
F10637
100
AcDbEntity
8
Geo
100
AcDbLine
10
-74.8912400829437
20
1.19539073633785
30
0.000000000000000
11
-74.7912400829437
21
0.950214918236698
31
0.000000000000000
  0
LINE
  5
F10638
330
F10639
100
AcDbEntity
8
Geo
100
AcDbLine
10
-74.7912400829437
20
0.950214918236698
30
0.000000000000000
11
-74.6912400829437
21
0.712387981358358
31
0.000000000000000
  0
LINE
  5
F1063A
330
F1063B
100
AcDbEntity
8
Geo
100
AcDbLine
10
-74.6912400829437
20
0.712387981358358
30
0.000000000000000
11
-74.5912400829437
21
0.482262218409465
31
0.000000000000000
  0
LINE
  5
F1063C
330
F1063D
100
AcDbEntity
8
Geo
100
AcDbLine
10
-74.5912400829437
20
0.482262218409465
30
0.000000000000000
11
-74.4912400829437
21
0.260178514358561
31
0.000000000000000
  0
LINE
  5
F1063E
330
F1063F
100
AcDbEntity
8
Geo
100
AcDbLine
10
-74.4912400829437
20
0.260178514358561
30
0.000000000000000
11
-74.3912400829437
21
0.0464658414836636
31
0.000000000000000
  0
LINE
  5
F10640
330
F10641
100
AcDbEntity
8
Geo
100
AcDbLine
10
-74.3912400829437
20
0.0464658414836636
30
0.000000000000000
11
-74.2912400829437
21
-0.158559227933897
31
0.000000000000000
  0
LINE
  5
F10642
330
F10643
100
AcDbEntity
8
Geo
100
AcDbLine
10
-74.2912400829437
20
-0.158559227933897
30
0.000000000000000
11
-74.1912400829437
21
-0.354592990547557
31
0.000000000000000
  0
LINE
  5
F10644
330
F10645
100
AcDbEntity
8
Geo
100
AcDbLine
10
-74.1912400829437
20
-0.354592990547557
30
0.000000000000000
11
-74.0912400829437
21
-0.541345061820858
31
0.000000000000000
  0
LINE
  5
F10646
330
F10647
100
AcDbEntity
8
Geo
100
AcDbLine
10
-74.0912400829437
20
-0.541345061820858
30
0.000000000000000
11
-73.9912400829437
21
-0.718538806173651
31
0.000000000000000
  0
LINE
  5
F10648
330
F10649
100
AcDbEntity
8
Geo
100
AcDbLine
10
-73.9912400829437
20
-0.718538806173651
30
0.000000000000000
11
-73.8912400829437
21
-0.885911746761992
31
0.000000000000000
  0
LINE
  5
F1064A
330
F1064B
100
AcDbEntity
8
Geo
100
AcDbLine
10
-73.8912400829437
20
-0.885911746761992
30
0.000000000000000
11
-73.7912400829437
21
-1.04321595428472
31
0.000000000000000
  0
LINE
  5
F1064C
330
F1064D
100
AcDbEntity
8
Geo
100
AcDbLine
10
-73.7912400829437
20
-1.04321595428472
30
0.000000000000000
11
-73.6912400829437
21
-1.19021841424079
31
0.000000000000000
  0
LINE
  5
F1064E
330
F1064F
100
AcDbEntity
8
Geo
100
AcDbLine
10
-73.6912400829437
20
-1.19021841424079
30
0.000000000000000
11
-73.5912400829437
21
-1.32670137209330
31
0.000000000000000
  0
LINE
  5
F10650
330
F10651
100
AcDbEntity
8
Geo
100
AcDbLine
10
-73.5912400829437
20
-1.32670137209330
30
0.000000000000000
11
-73.4912400829437
21
-1.45246265582903
31
0.000000000000000
  0
LINE
  5
F10652
330
F10653
100
AcDbEntity
8
Geo
100
AcDbLine
10
-73.4912400829437
20
-1.45246265582903
30
0.000000000000000
11
-73.3912400829437
21
-1.56731597543549
31
0.000000000000000
  0
LINE
  5
F10654
330
F10655
100
AcDbEntity
8
Geo
100
AcDbLine
10
-73.3912400829437
20
-1.56731597543549
30
0.000000000000000
11
-73.2912400829437
21
-1.67109119885212
31
0.000000000000000
  0
LINE
  5
F10656
330
F10657
100
AcDbEntity
8
Geo
100
AcDbLine
10
-73.2912400829437
20
-1.67109119885212
30
0.000000000000000
11
-73.1912400829437
21
-1.76363460398663
31
0.000000000000000
  0
LINE
  5
F10658
330
F10659
100
AcDbEntity
8
Geo
100
AcDbLine
10
-73.1912400829437
20
-1.76363460398663
30
0.000000000000000
11
-73.0912400829437
21
-1.84480910642333
31
0.000000000000000
  0
LINE
  5
F1065A
330
F1065B
100
AcDbEntity
8
Geo
100
AcDbLine
10
-73.0912400829437
20
-1.84480910642333
30
0.000000000000000
11
-72.9912400829437
21
-1.91449446248611
31
0.000000000000000
  0
LINE
  5
F1065C
330
F1065D
100
AcDbEntity
8
Geo
100
AcDbLine
10
-72.9912400829437
20
-1.91449446248611
30
0.000000000000000
11
-72.8912400829437
21
-1.97258744735516
31
0.000000000000000
  0
LINE
  5
F1065E
330
F1065F
100
AcDbEntity
8
Geo
100
AcDbLine
10
-72.8912400829437
20
-1.97258744735516
30
0.000000000000000
11
-72.7912400829437
21
-2.01900200797383
31
0.000000000000000
  0
LINE
  5
F10660
330
F10661
100
AcDbEntity
8
Geo
100
AcDbLine
10
-72.7912400829437
20
-2.01900200797383
30
0.000000000000000
11
-72.6912400829437
21
-2.05366939051883
31
0.000000000000000
  0
LINE
  5
F10662
330
F10663
100
AcDbEntity
8
Geo
100
AcDbLine
10
-72.6912400829437
20
-2.05366939051883
30
0.000000000000000
11
-72.5912400829437
21
-2.07653824224523
31
0.000000000000000
  0
LINE
  5
F10664
330
F10665
100
AcDbEntity
8
Geo
100
AcDbLine
10
-72.5912400829437
20
-2.07653824224523
30
0.000000000000000
11
-72.4912400829437
21
-2.08757468755519
31
0.000000000000000
  0
LINE
  5
F10666
330
F10667
100
AcDbEntity
8
Geo
100
AcDbLine
10
-84.6912400829437
20
13.4026397868877
30
0.000000000000000
11
-84.5912400829437
21
13.6949743575279
31
0.000000000000000
  0
LINE
  5
F10668
330
F10669
100
AcDbEntity
8
Geo
100
AcDbLine
10
-84.6912400829437
20
5.86208180812047
30
0.000000000000000
11
-84.5912400829437
21
5.56230436499765
31
0.000000000000000
  0
LINE
  5
F1066A
330
F1066B
100
AcDbEntity
8
Geo
100
AcDbLine
10
-84.5912400829437
20
13.6949743575279
30
0.000000000000000
11
-84.4912400829436
21
13.7754828651776
31
0.000000000000000
  0
LINE
  5
F1066C
330
F1066D
100
AcDbEntity
8
Geo
100
AcDbLine
10
-84.5912400829437
20
5.56230436499765
30
0.000000000000000
11
-84.4912400829436
21
5.25535351862092
31
0.000000000000000
  0
LINE
  5
F1066E
330
F1066F
100
AcDbEntity
8
Geo
100
AcDbLine
10
-84.4912400829436
20
13.7754828651776
30
0.000000000000000
11
-84.3912400829437
21
13.8022858846782
31
0.000000000000000
  0
LINE
  5
F10670
330
F10671
100
AcDbEntity
8
Geo
100
AcDbLine
10
-84.4912400829436
20
5.25535351862092
30
0.000000000000000
11
-84.3912400829437
21
4.94651034346635
31
0.000000000000000
  0
LINE
  5
F10672
330
F10673
100
AcDbEntity
8
Geo
100
AcDbLine
10
-84.3912400829437
20
13.8022858846782
30
0.000000000000000
11
-84.2912400829436
21
13.7905811132062
31
0.000000000000000
  0
LINE
  5
F10674
330
F10675
100
AcDbEntity
8
Geo
100
AcDbLine
10
-84.3912400829437
20
4.94651034346635
30
0.000000000000000
11
-84.2912400829436
21
4.63872445158120
31
0.000000000000000
  0
LINE
  5
F10676
330
F10677
100
AcDbEntity
8
Geo
100
AcDbLine
10
-84.2912400829436
20
13.7905811132062
30
0.000000000000000
11
-84.1912400829437
21
13.7456906822239
31
0.000000000000000
  0
LINE
  5
F10678
330
F10679
100
AcDbEntity
8
Geo
100
AcDbLine
10
-84.2912400829436
20
4.63872445158120
30
0.000000000000000
11
-84.1912400829437
21
4.33453689765921
31
0.000000000000000
  0
LINE
  5
F1067A
330
F1067B
100
AcDbEntity
8
Geo
100
AcDbLine
10
-84.1912400829437
20
13.7456906822239
30
0.000000000000000
11
-84.0912400829437
21
13.6792126524975
31
0.000000000000000
  0
LINE
  5
F1067C
330
F1067D
100
AcDbEntity
8
Geo
100
AcDbLine
10
-84.1912400829437
20
4.33453689765921
30
0.000000000000000
11
-84.0912400829437
21
4.03423420897739
31
0.000000000000000
  0
LINE
  5
F1067E
330
F1067F
100
AcDbEntity
8
Geo
100
AcDbLine
10
-84.0912400829437
20
13.6792126524975
30
0.000000000000000
11
-83.9912400829436
21
13.6012280575781
31
0.000000000000000
  0
LINE
  5
F10680
330
F10681
100
AcDbEntity
8
Geo
100
AcDbLine
10
-84.0912400829437
20
4.03423420897739
30
0.000000000000000
11
-83.9912400829436
21
3.73671204808665
31
0.000000000000000
  0
LINE
  5
F10682
330
F10683
100
AcDbEntity
8
Geo
100
AcDbLine
10
-83.9912400829436
20
13.6012280575781
30
0.000000000000000
11
-83.8912400829437
21
13.5118524159364
31
0.000000000000000
  0
LINE
  5
F10684
330
F10685
100
AcDbEntity
8
Geo
100
AcDbLine
10
-83.9912400829436
20
3.73671204808665
30
0.000000000000000
11
-83.8912400829437
21
3.44241113414488
31
0.000000000000000
  0
LINE
  5
F10686
330
F10687
100
AcDbEntity
8
Geo
100
AcDbLine
10
-83.8912400829437
20
13.5118524159364
30
0.000000000000000
11
-83.7912400829436
21
13.4112181195844
31
0.000000000000000
  0
LINE
  5
F10688
330
F10689
100
AcDbEntity
8
Geo
100
AcDbLine
10
-83.8912400829437
20
3.44241113414488
30
0.000000000000000
11
-83.7912400829436
21
3.15176741468140
31
0.000000000000000
  0
LINE
  5
F1068A
330
F1068B
100
AcDbEntity
8
Geo
100
AcDbLine
10
-83.7912400829436
20
13.4112181195844
30
0.000000000000000
11
-83.6912400829437
21
13.2994742379636
31
0.000000000000000
  0
LINE
  5
F1068C
330
F1068D
100
AcDbEntity
8
Geo
100
AcDbLine
10
-83.7912400829436
20
3.15176741468140
30
0.000000000000000
11
-83.6912400829437
21
2.86521141982849
31
0.000000000000000
  0
LINE
  5
F1068E
330
F1068F
100
AcDbEntity
8
Geo
100
AcDbLine
10
-83.6912400829437
20
13.2994742379636
30
0.000000000000000
11
-83.5912400829437
21
13.1767862971284
31
0.000000000000000
  0
LINE
  5
F10690
330
F10691
100
AcDbEntity
8
Geo
100
AcDbLine
10
-83.6912400829437
20
2.86521141982849
30
0.000000000000000
11
-83.5912400829437
21
2.58316762457773
31
0.000000000000000
  0
LINE
  5
F10692
330
F10693
100
AcDbEntity
8
Geo
100
AcDbLine
10
-83.5912400829437
20
13.1767862971284
30
0.000000000000000
11
-83.4912400829436
21
13.0433360345528
31
0.000000000000000
  0
LINE
  5
F10694
330
F10695
100
AcDbEntity
8
Geo
100
AcDbLine
10
-83.5912400829437
20
2.58316762457773
30
0.000000000000000
11
-83.4912400829436
21
2.30605382000580
31
0.000000000000000
  0
LINE
  5
F10696
330
F10697
100
AcDbEntity
8
Geo
100
AcDbLine
10
-83.4912400829436
20
13.0433360345528
30
0.000000000000000
11
-83.3912400829437
21
12.8993211299227
31
0.000000000000000
  0
LINE
  5
F10698
330
F10699
100
AcDbEntity
8
Geo
100
AcDbLine
10
-83.4912400829436
20
2.30605382000580
30
0.000000000000000
11
-83.3912400829437
21
2.03428049440110
31
0.000000000000000
  0
LINE
  5
F1069A
330
F1069B
100
AcDbEntity
8
Geo
100
AcDbLine
10
-83.3912400829437
20
12.8993211299227
30
0.000000000000000
11
-83.2912400829436
21
12.7449549123137
31
0.000000000000000
  0
LINE
  5
F1069C
330
F1069D
100
AcDbEntity
8
Geo
100
AcDbLine
10
-83.3912400829437
20
2.03428049440110
30
0.000000000000000
11
-83.2912400829436
21
1.76825022520807
31
0.000000000000000
  0
LINE
  5
F1069E
330
F1069F
100
AcDbEntity
8
Geo
100
AcDbLine
10
-83.2912400829436
20
12.7449549123137
30
0.000000000000000
11
-83.1912400829437
21
12.5804660441864
31
0.000000000000000
  0
LINE
  5
F106A0
330
F106A1
100
AcDbEntity
8
Geo
100
AcDbLine
10
-83.2912400829436
20
1.76825022520807
30
0.000000000000000
11
-83.1912400829437
21
1.50835708268980
31
0.000000000000000
  0
LINE
  5
F106A2
330
F106A3
100
AcDbEntity
8
Geo
100
AcDbLine
10
-83.1912400829437
20
12.5804660441864
30
0.000000000000000
11
-83.0912400829437
21
12.4060981826695
31
0.000000000000000
  0
LINE
  5
F106A4
330
F106A5
100
AcDbEntity
8
Geo
100
AcDbLine
10
-83.1912400829437
20
1.50835708268980
30
0.000000000000000
11
-83.0912400829437
21
1.25498604619224
31
0.000000000000000
  0
LINE
  5
F106A6
330
F106A7
100
AcDbEntity
8
Geo
100
AcDbLine
10
-83.0912400829437
20
12.4060981826695
30
0.000000000000000
11
-82.9912400829436
21
12.2221096186306
31
0.000000000000000
  0
LINE
  5
F106A8
330
F106A9
100
AcDbEntity
8
Geo
100
AcDbLine
10
-83.0912400829437
20
1.25498604619224
30
0.000000000000000
11
-82.9912400829436
21
1.00851243387490
31
0.000000000000000
  0
LINE
  5
F106AA
330
F106AB
100
AcDbEntity
8
Geo
100
AcDbLine
10
-82.9912400829436
20
12.2221096186306
30
0.000000000000000
11
-82.8912400829437
21
12.0287728940706
31
0.000000000000000
  0
LINE
  5
F106AC
330
F106AD
100
AcDbEntity
8
Geo
100
AcDbLine
10
-82.9912400829436
20
1.00851243387490
30
0.000000000000000
11
-82.8912400829437
21
0.769301346752576
31
0.000000000000000
  0
LINE
  5
F106AE
330
F106AF
100
AcDbEntity
8
Geo
100
AcDbLine
10
-82.8912400829437
20
12.0287728940706
30
0.000000000000000
11
-82.7912400829436
21
11.8263743984073
31
0.000000000000000
  0
LINE
  5
F106B0
330
F106B1
100
AcDbEntity
8
Geo
100
AcDbLine
10
-82.8912400829437
20
0.769301346752576
30
0.000000000000000
11
-82.7912400829436
21
0.537707127871700
31
0.000000000000000
  0
LINE
  5
F106B2
330
F106B3
100
AcDbEntity
8
Geo
100
AcDbLine
10
-82.7912400829436
20
11.8263743984073
30
0.000000000000000
11
-82.6912400829437
21
11.6152139442471
31
0.000000000000000
  0
LINE
  5
F106B4
330
F106B5
100
AcDbEntity
8
Geo
100
AcDbLine
10
-82.7912400829436
20
0.537707127871700
30
0.000000000000000
11
-82.6912400829437
21
0.314072837422512
31
0.000000000000000
  0
LINE
  5
F106B6
330
F106B7
100
AcDbEntity
8
Geo
100
AcDbLine
10
-82.6912400829437
20
11.6152139442471
30
0.000000000000000
11
-82.5912400829437
21
11.3956043232735
31
0.000000000000000
  0
LINE
  5
F106B8
330
F106B9
100
AcDbEntity
8
Geo
100
AcDbLine
10
-82.6912400829437
20
0.314072837422512
30
0.000000000000000
11
-82.5912400829437
21
0.0987297445644861
31
0.000000000000000
  0
LINE
  5
F106BA
330
F106BB
100
AcDbEntity
8
Geo
100
AcDbLine
10
-82.5912400829437
20
11.3956043232735
30
0.000000000000000
11
-82.4912400829436
21
11.1678708429087
31
0.000000000000000
  0
LINE
  5
F106BC
330
F106BD
100
AcDbEntity
8
Geo
100
AcDbLine
10
-82.5912400829437
20
0.0987297445644861
30
0.000000000000000
11
-82.4912400829436
21
-0.108003163282229
31
0.000000000000000
  0
LINE
  5
F106BE
330
F106BF
100
AcDbEntity
8
Geo
100
AcDbLine
10
-82.4912400829436
20
11.1678708429087
30
0.000000000000000
11
-82.3912400829437
21
10.9323508444364
31
0.000000000000000
  0
LINE
  5
F106C0
330
F106C1
100
AcDbEntity
8
Geo
100
AcDbLine
10
-82.4912400829436
20
-0.108003163282229
30
0.000000000000000
11
-82.3912400829437
21
-0.305819652952404
31
0.000000000000000
  0
LINE
  5
F106C2
330
F106C3
100
AcDbEntity
8
Geo
100
AcDbLine
10
-82.3912400829437
20
10.9323508444364
30
0.000000000000000
11
-82.2912400829436
21
10.6893932032986
31
0.000000000000000
  0
LINE
  5
F106C4
330
F106C5
100
AcDbEntity
8
Geo
100
AcDbLine
10
-82.3912400829437
20
-0.305819652952404
30
0.000000000000000
11
-82.2912400829436
21
-0.494426699158508
31
0.000000000000000
  0
LINE
  5
F106C6
330
F106C7
100
AcDbEntity
8
Geo
100
AcDbLine
10
-82.2912400829436
20
10.6893932032986
30
0.000000000000000
11
-82.1912400829437
21
10.4393578123070
31
0.000000000000000
  0
LINE
  5
F106C8
330
F106C9
100
AcDbEntity
8
Geo
100
AcDbLine
10
-82.2912400829436
20
-0.494426699158508
30
0.000000000000000
11
-82.1912400829437
21
-0.673544918548633
31
0.000000000000000
  0
LINE
  5
F106CA
330
F106CB
100
AcDbEntity
8
Geo
100
AcDbLine
10
-82.1912400829437
20
10.4393578123070
30
0.000000000000000
11
-82.0912400829437
21
10.1826150485340
31
0.000000000000000
  0
LINE
  5
F106CC
330
F106CD
100
AcDbEntity
8
Geo
100
AcDbLine
10
-82.1912400829437
20
-0.673544918548633
30
0.000000000000000
11
-82.0912400829437
21
-0.842908983556672
31
0.000000000000000
  0
LINE
  5
F106CE
330
F106CF
100
AcDbEntity
8
Geo
100
AcDbLine
10
-82.0912400829437
20
10.1826150485340
30
0.000000000000000
11
-81.9912400829436
21
9.91954522467406
31
0.000000000000000
  0
LINE
  5
F106D0
330
F106D1
100
AcDbEntity
8
Geo
100
AcDbLine
10
-82.0912400829437
20
-0.842908983556672
30
0.000000000000000
11
-81.9912400829436
21
-1.00226801543167
31
0.000000000000000
  0
LINE
  5
F106D2
330
F106D3
100
AcDbEntity
8
Geo
100
AcDbLine
10
-81.9912400829436
20
9.91954522467406
30
0.000000000000000
11
-81.8912400829437
21
9.65053802568674
31
0.000000000000000
  0
LINE
  5
F106D4
330
F106D5
100
AcDbEntity
8
Geo
100
AcDbLine
10
-81.9912400829436
20
-1.00226801543167
30
0.000000000000000
11
-81.8912400829437
21
-1.15138595586416
31
0.000000000000000
  0
LINE
  5
F106D6
330
F106D7
100
AcDbEntity
8
Geo
100
AcDbLine
10
-81.8912400829437
20
9.65053802568674
30
0.000000000000000
11
-81.7912400829436
21
9.37599193155700
31
0.000000000000000
  0
LINE
  5
F106D8
330
F106D9
100
AcDbEntity
8
Geo
100
AcDbLine
10
-81.8912400829437
20
-1.15138595586416
30
0.000000000000000
11
-81.7912400829436
21
-1.29004191665899
31
0.000000000000000
  0
LINE
  5
F106DA
330
F106DB
100
AcDbEntity
8
Geo
100
AcDbLine
10
-81.7912400829436
20
9.37599193155700
30
0.000000000000000
11
-81.6912400829437
21
9.09631362702741
31
0.000000000000000
  0
LINE
  5
F106DC
330
F106DD
100
AcDbEntity
8
Geo
100
AcDbLine
10
-81.7912400829436
20
-1.29004191665899
30
0.000000000000000
11
-81.6912400829437
21
-1.41803050693674
31
0.000000000000000
  0
LINE
  5
F106DE
330
F106DF
100
AcDbEntity
8
Geo
100
AcDbLine
10
-81.6912400829437
20
9.09631362702741
30
0.000000000000000
11
-81.5912400829436
21
8.81191739917655
31
0.000000000000000
  0
LINE
  5
F106E0
330
F106E1
100
AcDbEntity
8
Geo
100
AcDbLine
10
-81.6912400829437
20
-1.41803050693674
30
0.000000000000000
11
-81.5912400829436
21
-1.53516213737888
31
0.000000000000000
  0
LINE
  5
F106E2
330
F106E3
100
AcDbEntity
8
Geo
100
AcDbLine
10
-81.5912400829436
20
8.81191739917655
30
0.000000000000000
11
-81.4912400829436
21
8.52322452373619
31
0.000000000000000
  0
LINE
  5
F106E4
330
F106E5
100
AcDbEntity
8
Geo
100
AcDbLine
10
-81.5912400829436
20
-1.53516213737888
30
0.000000000000000
11
-81.4912400829436
21
-1.64126330106622
31
0.000000000000000
  0
LINE
  5
F106E6
330
F106E7
100
AcDbEntity
8
Geo
100
AcDbLine
10
-81.4912400829436
20
8.52322452373619
30
0.000000000000000
11
-81.3912400829437
21
8.23066264105611
31
0.000000000000000
  0
LINE
  5
F106E8
330
F106E9
100
AcDbEntity
8
Geo
100
AcDbLine
10
-81.4912400829436
20
-1.64126330106622
30
0.000000000000000
11
-81.3912400829437
21
-1.73617683049441
31
0.000000000000000
  0
LINE
  5
F106EA
330
F106EB
100
AcDbEntity
8
Geo
100
AcDbLine
10
-81.3912400829437
20
8.23066264105611
30
0.000000000000000
11
-81.2912400829436
21
7.93466512264106
31
0.000000000000000
  0
LINE
  5
F106EC
330
F106ED
100
AcDbEntity
8
Geo
100
AcDbLine
10
-81.3912400829437
20
-1.73617683049441
30
0.000000000000000
11
-81.2912400829436
21
-1.81976213038601
31
0.000000000000000
  0
LINE
  5
F106EE
330
F106EF
100
AcDbEntity
8
Geo
100
AcDbLine
10
-81.2912400829436
20
7.93466512264106
30
0.000000000000000
11
-81.1912400829437
21
7.63567042919820
31
0.000000000000000
  0
LINE
  5
F106F0
330
F106F1
100
AcDbEntity
8
Geo
100
AcDbLine
10
-81.2912400829436
20
-1.81976213038601
30
0.000000000000000
11
-81.1912400829437
21
-1.89189538595400
31
0.000000000000000
  0
LINE
  5
F106F2
330
F106F3
100
AcDbEntity
8
Geo
100
AcDbLine
10
-81.1912400829437
20
7.63567042919820
30
0.000000000000000
11
-81.0912400829436
21
7.33412146114578
31
0.000000000000000
  0
LINE
  5
F106F4
330
F106F5
100
AcDbEntity
8
Geo
100
AcDbLine
10
-81.1912400829437
20
-1.89189538595400
30
0.000000000000000
11
-81.0912400829436
21
-1.95246974630850
31
0.000000000000000
  0
LINE
  5
F106F6
330
F106F7
100
AcDbEntity
8
Geo
100
AcDbLine
10
-81.0912400829436
20
7.33412146114578
30
0.000000000000000
11
-80.9912400829436
21
7.03046490254549
31
0.000000000000000
  0
LINE
  5
F106F8
330
F106F9
100
AcDbEntity
8
Geo
100
AcDbLine
10
-81.0912400829436
20
-1.95246974630850
30
0.000000000000000
11
-80.9912400829436
21
-2.00139548273484
31
0.000000000000000
  0
LINE
  5
F106FA
330
F106FB
100
AcDbEntity
8
Geo
100
AcDbLine
10
-80.9912400829436
20
7.03046490254549
30
0.000000000000000
11
-80.8912400829437
21
6.72515055942990
31
0.000000000000000
  0
LINE
  5
F106FC
330
F106FD
100
AcDbEntity
8
Geo
100
AcDbLine
10
-80.9912400829436
20
-2.00139548273484
30
0.000000000000000
11
-80.8912400829437
21
-2.03860012160857
31
0.000000000000000
  0
LINE
  5
F106FE
330
F106FF
100
AcDbEntity
8
Geo
100
AcDbLine
10
-80.8912400829437
20
6.72515055942990
30
0.000000000000000
11
-80.7912400829436
21
6.41863069350544
31
0.000000000000000
  0
LINE
  5
F10700
330
F10701
100
AcDbEntity
8
Geo
100
AcDbLine
10
-80.8912400829437
20
-2.03860012160857
30
0.000000000000000
11
-80.7912400829436
21
-2.06402855175050
31
0.000000000000000
  0
LINE
  5
F10702
330
F10703
100
AcDbEntity
8
Geo
100
AcDbLine
10
-80.7912400829436
20
6.41863069350544
30
0.000000000000000
11
-80.6912400829437
21
6.11135935221780
31
0.000000000000000
  0
LINE
  5
F10704
330
F10705
100
AcDbEntity
8
Geo
100
AcDbLine
10
-80.7912400829436
20
-2.06402855175050
30
0.000000000000000
11
-80.6912400829437
21
-2.07764310606290
31
0.000000000000000
  0
LINE
  5
F10706
330
F10707
100
AcDbEntity
8
Geo
100
AcDbLine
10
-80.6912400829437
20
6.11135935221780
30
0.000000000000000
11
-80.5912400829436
21
5.80379169617205
31
0.000000000000000
  0
LINE
  5
F10708
330
F10709
100
AcDbEntity
8
Geo
100
AcDbLine
10
-80.5912400829436
20
5.80379169617205
30
0.000000000000000
11
-80.4912400829436
21
5.49638332490391
31
0.000000000000000
  0
LINE
  5
F1070A
330
F1070B
100
AcDbEntity
8
Geo
100
AcDbLine
10
-80.5912400829436
20
13.9020680088678
30
0.000000000000000
11
-80.4912400829436
21
13.8920118396120
31
0.000000000000000
  0
LINE
  5
F1070C
330
F1070D
100
AcDbEntity
8
Geo
100
AcDbLine
10
-80.4912400829436
20
5.49638332490391
30
0.000000000000000
11
-80.3912400829437
21
5.18958960200077
31
0.000000000000000
  0
LINE
  5
F1070E
330
F1070F
100
AcDbEntity
8
Geo
100
AcDbLine
10
-80.4912400829436
20
13.8920118396120
30
0.000000000000000
11
-80.3912400829437
21
13.8701338860271
31
0.000000000000000
  0
LINE
  5
F10710
330
F10711
100
AcDbEntity
8
Geo
100
AcDbLine
10
-80.3912400829437
20
5.18958960200077
30
0.000000000000000
11
-80.2912400829436
21
4.88386498057227
31
0.000000000000000
  0
LINE
  5
F10712
330
F10713
100
AcDbEntity
8
Geo
100
AcDbLine
10
-80.3912400829437
20
13.8701338860271
30
0.000000000000000
11
-80.2912400829436
21
13.8364665558949
31
0.000000000000000
  0
LINE
  5
F10714
330
F10715
100
AcDbEntity
8
Geo
100
AcDbLine
10
-80.2912400829436
20
4.88386498057227
30
0.000000000000000
11
-80.1912400829437
21
4.57966233006954
31
0.000000000000000
  0
LINE
  5
F10716
330
F10717
100
AcDbEntity
8
Geo
100
AcDbLine
10
-80.2912400829436
20
13.8364665558949
30
0.000000000000000
11
-80.1912400829437
21
13.7910597205841
31
0.000000000000000
  0
LINE
  5
F10718
330
F10719
100
AcDbEntity
8
Geo
100
AcDbLine
10
-80.1912400829437
20
4.57966233006954
30
0.000000000000000
11
-80.0912400829437
21
4.27743226545031
31
0.000000000000000
  0
LINE
  5
F1071A
330
F1071B
100
AcDbEntity
8
Geo
100
AcDbLine
10
-80.1912400829437
20
13.7910597205841
30
0.000000000000000
11
-80.0912400829437
21
13.7339806411759
31
0.000000000000000
  0
LINE
  5
F1071C
330
F1071D
100
AcDbEntity
8
Geo
100
AcDbLine
10
-80.0912400829437
20
4.27743226545031
30
0.000000000000000
11
-79.9912400829436
21
3.97762247968365
31
0.000000000000000
  0
LINE
  5
F1071E
330
F1071F
100
AcDbEntity
8
Geo
100
AcDbLine
10
-80.0912400829437
20
13.7339806411759
30
0.000000000000000
11
-79.9912400829436
21
13.6653138688302
31
0.000000000000000
  0
LINE
  5
F10720
330
F10721
100
AcDbEntity
8
Geo
100
AcDbLine
10
-79.9912400829436
20
3.97762247968365
30
0.000000000000000
11
-79.8912400829437
21
3.68067708058293
31
0.000000000000000
  0
LINE
  5
F10722
330
F10723
100
AcDbEntity
8
Geo
100
AcDbLine
10
-79.9912400829436
20
13.6653138688302
30
0.000000000000000
11
-79.8912400829437
21
13.5851611195402
31
0.000000000000000
  0
LINE
  5
F10724
330
F10725
100
AcDbEntity
8
Geo
100
AcDbLine
10
-79.8912400829437
20
3.68067708058293
30
0.000000000000000
11
-79.7912400829437
21
3.38703593294962
31
0.000000000000000
  0
LINE
  5
F10726
330
F10727
100
AcDbEntity
8
Geo
100
AcDbLine
10
-79.8912400829437
20
13.5851611195402
30
0.000000000000000
11
-79.7912400829437
21
13.4936411234605
31
0.000000000000000
  0
LINE
  5
F10728
330
F10729
100
AcDbEntity
8
Geo
100
AcDbLine
10
-79.7912400829437
20
3.38703593294962
30
0.000000000000000
11
-79.6912400829437
21
3.09713400700213
31
0.000000000000000
  0
LINE
  5
F1072A
330
F1072B
100
AcDbEntity
8
Geo
100
AcDbLine
10
-79.7912400829437
20
13.4936411234605
30
0.000000000000000
11
-79.6912400829437
21
13.3908894490324
31
0.000000000000000
  0
LINE
  5
F1072C
330
F1072D
100
AcDbEntity
8
Geo
100
AcDbLine
10
-79.6912400829437
20
3.09713400700213
30
0.000000000000000
11
-79.5912400829437
21
2.81140073405507
31
0.000000000000000
  0
LINE
  5
F1072E
330
F1072F
100
AcDbEntity
8
Geo
100
AcDbLine
10
-79.6912400829437
20
13.3908894490324
30
0.000000000000000
11
-79.5912400829437
21
13.2770583021666
31
0.000000000000000
  0
LINE
  5
F10730
330
F10731
100
AcDbEntity
8
Geo
100
AcDbLine
10
-79.5912400829437
20
2.81140073405507
30
0.000000000000000
11
-79.4912400829436
21
2.53025937040321
31
0.000000000000000
  0
LINE
  5
F10732
330
F10733
100
AcDbEntity
8
Geo
100
AcDbLine
10
-79.5912400829437
20
13.2770583021666
30
0.000000000000000
11
-79.4912400829436
21
13.1523163007805
31
0.000000000000000
  0
LINE
  5
F10734
330
F10735
100
AcDbEntity
8
Geo
100
AcDbLine
10
-79.4912400829436
20
2.53025937040321
30
0.000000000000000
11
-79.3912400829437
21
2.25412637035255
31
0.000000000000000
  0
LINE
  5
F10736
330
F10737
100
AcDbEntity
8
Geo
100
AcDbLine
10
-79.4912400829436
20
13.1523163007805
30
0.000000000000000
11
-79.3912400829437
21
13.0168482250252
31
0.000000000000000
  0
LINE
  5
F10738
330
F10739
100
AcDbEntity
8
Geo
100
AcDbLine
10
-79.3912400829437
20
2.25412637035255
30
0.000000000000000
11
-79.2912400829437
21
1.98341076932717
31
0.000000000000000
  0
LINE
  5
F1073A
330
F1073B
100
AcDbEntity
8
Geo
100
AcDbLine
10
-79.3912400829437
20
13.0168482250252
30
0.000000000000000
11
-79.2912400829437
21
12.8708547435704
31
0.000000000000000
  0
LINE
  5
F1073C
330
F1073D
100
AcDbEntity
8
Geo
100
AcDbLine
10
-79.2912400829437
20
1.98341076932717
30
0.000000000000000
11
-79.1912400829437
21
1.71851357796557
31
0.000000000000000
  0
LINE
  5
F1073E
330
F1073F
100
AcDbEntity
8
Geo
100
AcDbLine
10
-79.2912400829437
20
12.8708547435704
30
0.000000000000000
11
-79.1912400829437
21
12.7145521163546
31
0.000000000000000
  0
LINE
  5
F10740
330
F10741
100
AcDbEntity
8
Geo
100
AcDbLine
10
-79.1912400829437
20
1.71851357796557
30
0.000000000000000
11
-79.0912400829437
21
1.45982718810423
31
0.000000000000000
  0
LINE
  5
F10742
330
F10743
100
AcDbEntity
8
Geo
100
AcDbLine
10
-79.1912400829437
20
12.7145521163546
30
0.000000000000000
11
-79.0912400829437
21
12.5481718742393
31
0.000000000000000
  0
LINE
  5
F10744
330
F10745
100
AcDbEntity
8
Geo
100
AcDbLine
10
-79.0912400829437
20
1.45982718810423
30
0.000000000000000
11
-78.9912400829436
21
1.20773479152810
31
0.000000000000000
  0
LINE
  5
F10746
330
F10747
100
AcDbEntity
8
Geo
100
AcDbLine
10
-79.0912400829437
20
12.5481718742393
30
0.000000000000000
11
-78.9912400829436
21
12.3719604760429
31
0.000000000000000
  0
LINE
  5
F10748
330
F10749
100
AcDbEntity
8
Geo
100
AcDbLine
10
-78.9912400829436
20
1.20773479152810
30
0.000000000000000
11
-78.8912400829437
21
0.962609812349183
31
0.000000000000000
  0
LINE
  5
F1074A
330
F1074B
100
AcDbEntity
8
Geo
100
AcDbLine
10
-78.9912400829436
20
12.3719604760429
30
0.000000000000000
11
-78.8912400829437
21
12.1861789434613
31
0.000000000000000
  0
LINE
  5
F1074C
330
F1074D
100
AcDbEntity
8
Geo
100
AcDbLine
10
-78.8912400829437
20
0.962609812349183
30
0.000000000000000
11
-78.7912400829437
21
0.724815353853887
31
0.000000000000000
  0
LINE
  5
F1074E
330
F1074F
100
AcDbEntity
8
Geo
100
AcDbLine
10
-78.8912400829437
20
12.1861789434613
30
0.000000000000000
11
-78.7912400829437
21
11.9911024744171
31
0.000000000000000
  0
LINE
  5
F10750
330
F10751
100
AcDbEntity
8
Geo
100
AcDbLine
10
-78.7912400829437
20
0.724815353853887
30
0.000000000000000
11
-78.6912400829437
21
0.494703660638666
31
0.000000000000000
  0
LINE
  5
F10752
330
F10753
100
AcDbEntity
8
Geo
100
AcDbLine
10
-78.7912400829437
20
11.9911024744171
30
0.000000000000000
11
-78.6912400829437
21
11.7870200354091
31
0.000000000000000
  0
LINE
  5
F10754
330
F10755
100
AcDbEntity
8
Geo
100
AcDbLine
10
-78.6912400829437
20
0.494703660638666
30
0.000000000000000
11
-78.5912400829437
21
0.272615596830580
31
0.000000000000000
  0
LINE
  5
F10756
330
F10757
100
AcDbEntity
8
Geo
100
AcDbLine
10
-78.6912400829437
20
11.7870200354091
30
0.000000000000000
11
-78.5912400829437
21
11.5742339334667
31
0.000000000000000
  0
LINE
  5
F10758
330
F10759
100
AcDbEntity
8
Geo
100
AcDbLine
10
-78.5912400829437
20
0.272615596830580
30
0.000000000000000
11
-78.4912400829437
21
0.0588801411657514
31
0.000000000000000
  0
LINE
  5
F1075A
330
F1075B
100
AcDbEntity
8
Geo
100
AcDbLine
10
-78.5912400829437
20
11.5742339334667
30
0.000000000000000
11
-78.4912400829437
21
11.3530593683432
31
0.000000000000000
  0
LINE
  5
F1075C
330
F1075D
100
AcDbEntity
8
Geo
100
AcDbLine
10
-78.4912400829437
20
0.0588801411657514
30
0.000000000000000
11
-78.3912400829437
21
-0.146186100326374
31
0.000000000000000
  0
LINE
  5
F1075E
330
F1075F
100
AcDbEntity
8
Geo
100
AcDbLine
10
-78.4912400829437
20
11.3530593683432
30
0.000000000000000
11
-78.3912400829437
21
11.1238239656103
31
0.000000000000000
  0
LINE
  5
F10760
330
F10761
100
AcDbEntity
8
Geo
100
AcDbLine
10
-78.3912400829437
20
-0.146186100326374
30
0.000000000000000
11
-78.2912400829437
21
-0.342279363311097
31
0.000000000000000
  0
LINE
  5
F10762
330
F10763
100
AcDbEntity
8
Geo
100
AcDbLine
10
-78.3912400829437
20
11.1238239656103
30
0.000000000000000
11
-78.2912400829437
21
10.8868672913472
31
0.000000000000000
  0
LINE
  5
F10764
330
F10765
100
AcDbEntity
8
Geo
100
AcDbLine
10
-78.2912400829437
20
-0.342279363311097
30
0.000000000000000
11
-78.1912400829437
21
-0.529109175114143
31
0.000000000000000
  0
LINE
  5
F10766
330
F10767
100
AcDbEntity
8
Geo
100
AcDbLine
10
-78.2912400829437
20
10.8868672913472
30
0.000000000000000
11
-78.1912400829437
21
10.6425403491417
31
0.000000000000000
  0
LINE
  5
F10768
330
F10769
100
AcDbEntity
8
Geo
100
AcDbLine
10
-78.1912400829437
20
-0.529109175114143
30
0.000000000000000
11
-78.0912400829437
21
-0.706398784998425
31
0.000000000000000
  0
LINE
  5
F1076A
330
F1076B
100
AcDbEntity
8
Geo
100
AcDbLine
10
-78.1912400829437
20
10.6425403491417
30
0.000000000000000
11
-78.0912400829437
21
10.3912050601493
31
0.000000000000000
  0
LINE
  5
F1076C
330
F1076D
100
AcDbEntity
8
Geo
100
AcDbLine
10
-78.0912400829437
20
-0.706398784998425
30
0.000000000000000
11
-77.9912400829437
21
-0.873885574114526
31
0.000000000000000
  0
LINE
  5
F1076E
330
F1076F
100
AcDbEntity
8
Geo
100
AcDbLine
10
-78.0912400829437
20
10.3912050601493
30
0.000000000000000
11
-77.9912400829437
21
10.1332337269795
31
0.000000000000000
  0
LINE
  5
F10770
330
F10771
100
AcDbEntity
8
Geo
100
AcDbLine
10
-77.9912400829437
20
-0.873885574114526
30
0.000000000000000
11
-77.8912400829437
21
-1.03132144451762
31
0.000000000000000
  0
LINE
  5
F10772
330
F10773
100
AcDbEntity
8
Geo
100
AcDbLine
10
-77.9912400829437
20
10.1332337269795
30
0.000000000000000
11
-77.8912400829437
21
9.86900848220478
31
0.000000000000000
  0
LINE
  5
F10774
330
F10775
100
AcDbEntity
8
Geo
100
AcDbLine
10
-77.8912400829437
20
-1.03132144451762
30
0.000000000000000
11
-77.7912400829437
21
-1.17847318667461
31
0.000000000000000
  0
LINE
  5
F10776
330
F10777
100
AcDbEntity
8
Geo
100
AcDbLine
10
-77.8912400829437
20
9.86900848220478
30
0.000000000000000
11
-77.7912400829437
21
9.59892072230813
31
0.000000000000000
  0
LINE
  5
F10778
330
F10779
100
AcDbEntity
8
Geo
100
AcDbLine
10
-77.7912400829437
20
-1.17847318667461
30
0.000000000000000
11
-77.6912400829437
21
-1.31512282491711
31
0.000000000000000
  0
LINE
  5
F1077A
330
F1077B
100
AcDbEntity
8
Geo
100
AcDbLine
10
-77.7912400829437
20
9.59892072230813
30
0.000000000000000
11
-77.6912400829437
21
9.32337052790786
31
0.000000000000000
  0
LINE
  5
F1077C
330
F1077D
100
AcDbEntity
8
Geo
100
AcDbLine
10
-77.6912400829437
20
-1.31512282491711
30
0.000000000000000
11
-77.5912400829437
21
-1.44106794032844
31
0.000000000000000
  0
LINE
  5
F1077E
330
F1077F
100
AcDbEntity
8
Geo
100
AcDbLine
10
-77.6912400829437
20
9.32337052790786
30
0.000000000000000
11
-77.5912400829437
21
9.04276607111884
31
0.000000000000000
  0
LINE
  5
F10780
330
F10781
100
AcDbEntity
8
Geo
100
AcDbLine
10
-77.5912400829437
20
-1.44106794032844
30
0.000000000000000
11
-77.4912400829437
21
-1.55612197058653
31
0.000000000000000
  0
LINE
  5
F10782
330
F10783
100
AcDbEntity
8
Geo
100
AcDbLine
10
-77.5912400829437
20
9.04276607111884
30
0.000000000000000
11
-77.4912400829437
21
8.75752301092771
31
0.000000000000000
  0
LINE
  5
F10784
330
F10785
100
AcDbEntity
8
Geo
100
AcDbLine
10
-77.4912400829437
20
-1.55612197058653
30
0.000000000000000
11
-77.3912400829437
21
-1.66011448631840
31
0.000000000000000
  0
LINE
  5
F10786
330
F10787
100
AcDbEntity
8
Geo
100
AcDbLine
10
-77.4912400829437
20
8.75752301092771
30
0.000000000000000
11
-77.3912400829437
21
8.46806387747778
31
0.000000000000000
  0
LINE
  5
F10788
330
F10789
100
AcDbEntity
8
Geo
100
AcDbLine
10
-77.3912400829437
20
-1.66011448631840
30
0.000000000000000
11
-77.2912400829437
21
-1.75289144355697
31
0.000000000000000
  0
LINE
  5
F1078A
330
F1078B
100
AcDbEntity
8
Geo
100
AcDbLine
10
-77.3912400829437
20
8.46806387747778
30
0.000000000000000
11
-77.2912400829437
21
8.17481744617574
31
0.000000000000000
  0
LINE
  5
F1078C
330
F1078D
100
AcDbEntity
8
Geo
100
AcDbLine
10
-77.2912400829437
20
-1.75289144355697
30
0.000000000000000
11
-77.1912400829437
21
-1.83431541192615
31
0.000000000000000
  0
LINE
  5
F1078E
330
F1078F
100
AcDbEntity
8
Geo
100
AcDbLine
10
-77.2912400829437
20
8.17481744617574
30
0.000000000000000
11
-77.1912400829437
21
7.87821810254726
31
0.000000000000000
  0
LINE
  5
F10790
330
F10791
100
AcDbEntity
8
Geo
100
AcDbLine
10
-77.1912400829437
20
-1.83431541192615
30
0.000000000000000
11
-77.0912400829437
21
-1.90426577821627
31
0.000000000000000
  0
LINE
  5
F10792
330
F10793
100
AcDbEntity
8
Geo
100
AcDbLine
10
-77.1912400829437
20
7.87821810254726
30
0.000000000000000
11
-77.0912400829437
21
7.57870519878231
31
0.000000000000000
  0
LINE
  5
F10794
330
F10795
100
AcDbEntity
8
Geo
100
AcDbLine
10
-77.0912400829437
20
-1.90426577821627
30
0.000000000000000
11
-76.9912400829437
21
-1.96263892504828
31
0.000000000000000
  0
LINE
  5
F10796
330
F10797
100
AcDbEntity
8
Geo
100
AcDbLine
10
-77.0912400829437
20
7.57870519878231
30
0.000000000000000
11
-76.9912400829437
21
7.27672240292340
31
0.000000000000000
  0
LINE
  5
F10798
330
F10799
100
AcDbEntity
8
Geo
100
AcDbLine
10
-76.9912400829437
20
-1.96263892504828
30
0.000000000000000
11
-76.8912400829437
21
-2.00934838436198
31
0.000000000000000
  0
LINE
  5
F1079A
330
F1079B
100
AcDbEntity
8
Geo
100
AcDbLine
10
-76.9912400829437
20
7.27672240292340
30
0.000000000000000
11
-76.8912400829437
21
6.97271704166072
31
0.000000000000000
  0
LINE
  5
F1079C
330
F1079D
100
AcDbEntity
8
Geo
100
AcDbLine
10
-76.8912400829437
20
-2.00934838436198
30
0.000000000000000
11
-76.7912400829437
21
-2.04432496550108
31
0.000000000000000
  0
LINE
  5
F1079E
330
F1079F
100
AcDbEntity
8
Geo
100
AcDbLine
10
-76.8912400829437
20
6.97271704166072
30
0.000000000000000
11
-76.7912400829437
21
6.66713943770773
31
0.000000000000000
  0
LINE
  5
F107A0
330
F107A1
100
AcDbEntity
8
Geo
100
AcDbLine
10
-76.7912400829437
20
-2.04432496550108
30
0.000000000000000
11
-76.6912400829437
21
-2.06751685770520
31
0.000000000000000
  0
LINE
  5
F107A2
330
F107A3
100
AcDbEntity
8
Geo
100
AcDbLine
10
-76.7912400829437
20
6.66713943770773
30
0.000000000000000
11
-76.6912400829437
21
6.36044224273878
31
0.000000000000000
  0
LINE
  5
F107A4
330
F107A5
100
AcDbEntity
8
Geo
100
AcDbLine
10
-76.6912400829437
20
-2.06751685770520
30
0.000000000000000
11
-76.5912400829437
21
-2.07888970685708
31
0.000000000000000
  0
LINE
  5
F107A6
330
F107A7
100
AcDbEntity
8
Geo
100
AcDbLine
10
-76.6912400829437
20
6.36044224273878
30
0.000000000000000
11
-76.5912400829437
21
6.05307976687681
31
0.000000000000000
  0
LINE
  5
F107A8
330
F107A9
100
AcDbEntity
8
Geo
100
AcDbLine
10
-76.5912400829437
20
6.05307976687681
30
0.000000000000000
11
-76.4912400829437
21
5.74550730572442
31
0.000000000000000
  0
LINE
  5
F107AA
330
F107AB
100
AcDbEntity
8
Geo
100
AcDbLine
10
-76.4912400829437
20
13.9010710579134
30
0.000000000000000
11
-76.3912400829437
21
13.8887728136912
31
0.000000000000000
  0
LINE
  5
F107AC
330
F107AD
100
AcDbEntity
8
Geo
100
AcDbLine
10
-76.4912400829437
20
5.74550730572442
30
0.000000000000000
11
-76.3912400829437
21
5.43818046593511
31
0.000000000000000
  0
LINE
  5
F107AE
330
F107AF
100
AcDbEntity
8
Geo
100
AcDbLine
10
-76.3912400829437
20
13.8887728136912
30
0.000000000000000
11
-76.2912400829437
21
13.8646575831044
31
0.000000000000000
  0
LINE
  5
F107B0
330
F107B1
100
AcDbEntity
8
Geo
100
AcDbLine
10
-76.3912400829437
20
5.43818046593511
30
0.000000000000000
11
-76.2912400829437
21
5.13155449032382
31
0.000000000000000
  0
LINE
  5
F107B2
330
F107B3
100
AcDbEntity
8
Geo
100
AcDbLine
10
-76.2912400829437
20
13.8646575831044
30
0.000000000000000
11
-76.1912400829437
21
13.8287610880100
31
0.000000000000000
  0
LINE
  5
F107B4
330
F107B5
100
AcDbEntity
8
Geo
100
AcDbLine
10
-76.2912400829437
20
5.13155449032382
30
0.000000000000000
11
-76.1912400829437
21
4.82608358351636
31
0.000000000000000
  0
LINE
  5
F107B6
330
F107B7
100
AcDbEntity
8
Geo
100
AcDbLine
10
-76.1912400829437
20
13.8287610880100
30
0.000000000000000
11
-76.0912400829437
21
13.7811365018358
31
0.000000000000000
  0
LINE
  5
F107B8
330
F107B9
100
AcDbEntity
8
Geo
100
AcDbLine
10
-76.1912400829437
20
4.82608358351636
30
0.000000000000000
11
-76.0912400829437
21
4.52222023913675
31
0.000000000000000
  0
LINE
  5
F107BA
330
F107BB
100
AcDbEntity
8
Geo
100
AcDbLine
10
-76.0912400829437
20
13.7811365018358
30
0.000000000000000
11
-75.9912400829437
21
13.7218543708142
31
0.000000000000000
  0
LINE
  5
F107BC
330
F107BD
100
AcDbEntity
8
Geo
100
AcDbLine
10
-76.0912400829437
20
4.52222023913675
30
0.000000000000000
11
-75.9912400829437
21
4.22041456952903
31
0.000000000000000
  0
LINE
  5
F107BE
330
F107BF
100
AcDbEntity
8
Geo
100
AcDbLine
10
-75.9912400829437
20
13.7218543708142
30
0.000000000000000
11
-75.8912400829437
21
13.6510025094822
31
0.000000000000000
  0
LINE
  5
F107C0
330
F107C1
100
AcDbEntity
8
Geo
100
AcDbLine
10
-75.9912400829437
20
4.22041456952903
30
0.000000000000000
11
-75.8912400829437
21
3.92111363900654
31
0.000000000000000
  0
LINE
  5
F107C2
330
F107C3
100
AcDbEntity
8
Geo
100
AcDbLine
10
-75.8912400829437
20
13.6510025094822
30
0.000000000000000
11
-75.7912400829437
21
13.5686858706024
31
0.000000000000000
  0
LINE
  5
F107C4
330
F107C5
100
AcDbEntity
8
Geo
100
AcDbLine
10
-75.8912400829437
20
3.92111363900654
30
0.000000000000000
11
-75.7912400829437
21
3.62476080161610
31
0.000000000000000
  0
LINE
  5
F107C6
330
F107C7
100
AcDbEntity
8
Geo
100
AcDbLine
10
-75.7912400829437
20
13.5686858706024
30
0.000000000000000
11
-75.6912400829437
21
13.4750263896960
31
0.000000000000000
  0
LINE
  5
F107C8
330
F107C9
100
AcDbEntity
8
Geo
100
AcDbLine
10
-75.7912400829437
20
3.62476080161610
30
0.000000000000000
11
-75.6912400829437
21
3.33179504439835
31
0.000000000000000
  0
LINE
  5
F107CA
330
F107CB
100
AcDbEntity
8
Geo
100
AcDbLine
10
-75.6912400829437
20
13.4750263896960
30
0.000000000000000
11
-75.5912400829437
21
13.3701628044201
31
0.000000000000000
  0
LINE
  5
F107CC
330
F107CD
100
AcDbEntity
8
Geo
100
AcDbLine
10
-75.6912400829437
20
3.33179504439835
30
0.000000000000000
11
-75.5912400829437
21
3.04265033711683
31
0.000000000000000
  0
LINE
  5
F107CE
330
F107CF
100
AcDbEntity
8
Geo
100
AcDbLine
10
-75.5912400829437
20
13.3701628044201
30
0.000000000000000
11
-75.4912400829437
21
13.2542504490559
31
0.000000000000000
  0
LINE
  5
F107D0
330
F107D1
100
AcDbEntity
8
Geo
100
AcDbLine
10
-75.5912400829437
20
3.04265033711683
30
0.000000000000000
11
-75.4912400829437
21
2.75775498941920
31
0.000000000000000
  0
LINE
  5
F107D2
330
F107D3
100
AcDbEntity
8
Geo
100
AcDbLine
10
-75.4912400829437
20
13.2542504490559
30
0.000000000000000
11
-75.3912400829437
21
13.1274610244122
31
0.000000000000000
  0
LINE
  5
F107D4
330
F107D5
100
AcDbEntity
8
Geo
100
AcDbLine
10
-75.4912400829437
20
2.75775498941920
30
0.000000000000000
11
-75.3912400829437
21
2.47753101638274
31
0.000000000000000
  0
LINE
  5
F107D6
330
F107D7
100
AcDbEntity
8
Geo
100
AcDbLine
10
-75.3912400829437
20
13.1274610244122
30
0.000000000000000
11
-75.2912400829437
21
12.9899823434850
31
0.000000000000000
  0
LINE
  5
F107D8
330
F107D9
100
AcDbEntity
8
Geo
100
AcDbLine
10
-75.3912400829437
20
2.47753101638274
30
0.000000000000000
11
-75.2912400829437
21
2.20239351338404
31
0.000000000000000
  0
LINE
  5
F107DA
330
F107DB
100
AcDbEntity
8
Geo
100
AcDbLine
10
-75.2912400829437
20
12.9899823434850
30
0.000000000000000
11
-75.1912400829437
21
12.8420180532509
31
0.000000000000000
  0
LINE
  5
F107DC
330
F107DD
100
AcDbEntity
8
Geo
100
AcDbLine
10
-75.2912400829437
20
2.20239351338404
30
0.000000000000000
11
-75.1912400829437
21
1.93275004121877
31
0.000000000000000
  0
LINE
  5
F107DE
330
F107DF
100
AcDbEntity
8
Geo
100
AcDbLine
10
-75.1912400829437
20
12.8420180532509
30
0.000000000000000
11
-75.0912400829437
21
12.6837873330045
31
0.000000000000000
  0
LINE
  5
F107E0
330
F107E1
100
AcDbEntity
8
Geo
100
AcDbLine
10
-75.1912400829437
20
1.93275004121877
30
0.000000000000000
11
-75.0912400829437
21
1.66900002238248
31
0.000000000000000
  0
LINE
  5
F107E2
330
F107E3
100
AcDbEntity
8
Geo
100
AcDbLine
10
-75.0912400829437
20
12.6837873330045
30
0.000000000000000
11
-74.9912400829437
21
12.5155245696889
31
0.000000000000000
  0
LINE
  5
F107E4
330
F107E5
100
AcDbEntity
8
Geo
100
AcDbLine
10
-75.0912400829437
20
1.66900002238248
30
0.000000000000000
11
-74.9912400829437
21
1.41153414940659
31
0.000000000000000
  0
LINE
  5
F107E6
330
F107E7
100
AcDbEntity
8
Geo
100
AcDbLine
10
-74.9912400829437
20
12.5155245696889
30
0.000000000000000
11
-74.8912400829437
21
12.3374790106984
31
0.000000000000000
  0
LINE
  5
F107E8
330
F107E9
100
AcDbEntity
8
Geo
100
AcDbLine
10
-74.9912400829437
20
1.41153414940659
30
0.000000000000000
11
-74.8912400829437
21
1.16073380612612
31
0.000000000000000
  0
LINE
  5
F107EA
330
F107EB
100
AcDbEntity
8
Geo
100
AcDbLine
10
-74.8912400829437
20
12.3374790106984
30
0.000000000000000
11
-74.7912400829437
21
12.1499143946688
31
0.000000000000000
  0
LINE
  5
F107EC
330
F107ED
100
AcDbEntity
8
Geo
100
AcDbLine
10
-74.8912400829437
20
1.16073380612612
30
0.000000000000000
11
-74.7912400829437
21
0.916970502736347
31
0.000000000000000
  0
LINE
  5
F107EE
330
F107EF
100
AcDbEntity
8
Geo
100
AcDbLine
10
-74.7912400829437
20
12.1499143946688
30
0.000000000000000
11
-74.6912400829437
21
11.9531085608016
31
0.000000000000000
  0
LINE
  5
F107F0
330
F107F1
100
AcDbEntity
8
Geo
100
AcDbLine
10
-74.7912400829437
20
0.916970502736347
30
0.000000000000000
11
-74.6912400829437
21
0.680605325475246
31
0.000000000000000
  0
LINE
  5
F107F2
330
F107F3
100
AcDbEntity
8
Geo
100
AcDbLine
10
-74.6912400829437
20
11.9531085608016
30
0.000000000000000
11
-74.5912400829437
21
11.7473530373014
31
0.000000000000000
  0
LINE
  5
F107F4
330
F107F5
100
AcDbEntity
8
Geo
100
AcDbLine
10
-74.6912400829437
20
0.680605325475246
30
0.000000000000000
11
-74.5912400829437
21
0.451988401746982
31
0.000000000000000
  0
LINE
  5
F107F6
330
F107F7
100
AcDbEntity
8
Geo
100
AcDbLine
10
-74.5912400829437
20
11.7473530373014
30
0.000000000000000
11
-74.4912400829437
21
11.5329526095353
31
0.000000000000000
  0
LINE
  5
F107F8
330
F107F9
100
AcDbEntity
8
Geo
100
AcDbLine
10
-74.5912400829437
20
0.451988401746982
30
0.000000000000000
11
-74.4912400829437
21
0.231458381478692
31
0.000000000000000
  0
LINE
  5
F107FA
330
F107FB
100
AcDbEntity
8
Geo
100
AcDbLine
10
-74.4912400829437
20
11.5329526095353
30
0.000000000000000
11
-74.3912400829437
21
11.3102248685549
31
0.000000000000000
  0
LINE
  5
F107FC
330
F107FD
100
AcDbEntity
8
Geo
100
AcDbLine
10
-74.4912400829437
20
0.231458381478692
30
0.000000000000000
11
-74.3912400829437
21
0.0193419354787947
31
0.000000000000000
  0
LINE
  5
F107FE
330
F107FF
100
AcDbEntity
8
Geo
100
AcDbLine
10
-74.3912400829437
20
11.3102248685549
30
0.000000000000000
11
-74.2912400829437
21
11.0794997406494
31
0.000000000000000
  0
LINE
  5
F10800
330
F10801
100
AcDbEntity
8
Geo
100
AcDbLine
10
-74.3912400829437
20
0.0193419354787947
30
0.000000000000000
11
-74.2912400829437
21
-0.184046728460004
31
0.000000000000000
  0
LINE
  5
F10802
330
F10803
100
AcDbEntity
8
Geo
100
AcDbLine
10
-74.2912400829437
20
11.0794997406494
30
0.000000000000000
11
-74.1912400829437
21
10.8411189986257
31
0.000000000000000
  0
LINE
  5
F10804
330
F10805
100
AcDbEntity
8
Geo
100
AcDbLine
10
-74.2912400829437
20
-0.184046728460004
30
0.000000000000000
11
-74.1912400829437
21
-0.378406330996270
31
0.000000000000000
  0
LINE
  5
F10806
330
F10807
100
AcDbEntity
8
Geo
100
AcDbLine
10
-74.1912400829437
20
10.8411189986257
30
0.000000000000000
11
-74.0912400829437
21
10.5954357555412
31
0.000000000000000
  0
LINE
  5
F10808
330
F10809
100
AcDbEntity
8
Geo
100
AcDbLine
10
-74.1912400829437
20
-0.378406330996270
30
0.000000000000000
11
-74.0912400829437
21
-0.563448967524510
31
0.000000000000000
  0
LINE
  5
F1080A
330
F1080B
100
AcDbEntity
8
Geo
100
AcDbLine
10
-74.0912400829437
20
10.5954357555412
30
0.000000000000000
11
-73.9912400829437
21
10.3428139416379
31
0.000000000000000
  0
LINE
  5
F1080C
330
F1080D
100
AcDbEntity
8
Geo
100
AcDbLine
10
-74.0912400829437
20
-0.563448967524510
30
0.000000000000000
11
-73.9912400829437
21
-0.738900534647854
31
0.000000000000000
  0
LINE
  5
F1080E
330
F1080F
100
AcDbEntity
8
Geo
100
AcDbLine
10
-73.9912400829437
20
10.3428139416379
30
0.000000000000000
11
-73.8912400829437
21
10.0836277652529
31
0.000000000000000
  0
LINE
  5
F10810
330
F10811
100
AcDbEntity
8
Geo
100
AcDbLine
10
-73.9912400829437
20
-0.738900534647854
30
0.000000000000000
11
-73.8912400829437
21
-0.904501136207037
31
0.000000000000000
  0
LINE
  5
F10812
330
F10813
100
AcDbEntity
8
Geo
100
AcDbLine
10
-73.8912400829437
20
10.0836277652529
30
0.000000000000000
11
-73.7912400829437
21
9.81826115850432
31
0.000000000000000
  0
LINE
  5
F10814
330
F10815
100
AcDbEntity
8
Geo
100
AcDbLine
10
-73.8912400829437
20
-0.904501136207037
30
0.000000000000000
11
-73.7912400829437
21
-1.06000546826420
31
0.000000000000000
  0
LINE
  5
F10816
330
F10817
100
AcDbEntity
8
Geo
100
AcDbLine
10
-73.7912400829437
20
9.81826115850432
30
0.000000000000000
11
-73.6912400829437
21
9.54710720857285
31
0.000000000000000
  0
LINE
  5
F10818
330
F10819
100
AcDbEntity
8
Geo
100
AcDbLine
10
-73.7912400829437
20
-1.06000546826420
30
0.000000000000000
11
-73.6912400829437
21
-1.20518318247130
31
0.000000000000000
  0
LINE
  5
F1081A
330
F1081B
100
AcDbEntity
8
Geo
100
AcDbLine
10
-73.6912400829437
20
9.54710720857285
30
0.000000000000000
11
-73.5912400829437
21
9.27056757542270
31
0.000000000000000
  0
LINE
  5
F1081C
330
F1081D
100
AcDbEntity
8
Geo
100
AcDbLine
10
-73.6912400829437
20
-1.20518318247130
30
0.000000000000000
11
-73.5912400829437
21
-1.33981922728474
31
0.000000000000000
  0
LINE
  5
F1081E
330
F1081F
100
AcDbEntity
8
Geo
100
AcDbLine
10
-73.5912400829437
20
9.27056757542270
30
0.000000000000000
11
-73.4912400829437
21
8.98905189682294
31
0.000000000000000
  0
LINE
  5
F10820
330
F10821
100
AcDbEntity
8
Geo
100
AcDbLine
10
-73.5912400829437
20
-1.33981922728474
30
0.000000000000000
11
-73.4912400829437
21
-1.46371416652097
31
0.000000000000000
  0
LINE
  5
F10822
330
F10823
100
AcDbEntity
8
Geo
100
AcDbLine
10
-73.4912400829437
20
8.98905189682294
30
0.000000000000000
11
-73.3912400829437
21
8.70297718155179
31
0.000000000000000
  0
LINE
  5
F10824
330
F10825
100
AcDbEntity
8
Geo
100
AcDbLine
10
-73.4912400829437
20
-1.46371416652097
30
0.000000000000000
11
-73.3912400829437
21
-1.57668447478099
31
0.000000000000000
  0
LINE
  5
F10826
330
F10827
100
AcDbEntity
8
Geo
100
AcDbLine
10
-73.3912400829437
20
8.70297718155179
30
0.000000000000000
11
-73.2912400829437
21
8.41276719168207
31
0.000000000000000
  0
LINE
  5
F10828
330
F10829
100
AcDbEntity
8
Geo
100
AcDbLine
10
-73.3912400829437
20
-1.57668447478099
30
0.000000000000000
11
-73.2912400829437
21
-1.67856280930630
31
0.000000000000000
  0
LINE
  5
F1082A
330
F1082B
100
AcDbEntity
8
Geo
100
AcDbLine
10
-73.2912400829437
20
8.41276719168207
30
0.000000000000000
11
-73.1912400829437
21
8.11885181486303
31
0.000000000000000
  0
LINE
  5
F1082C
330
F1082D
100
AcDbEntity
8
Geo
100
AcDbLine
10
-73.2912400829437
20
-1.67856280930630
30
0.000000000000000
11
-73.1912400829437
21
-1.76919825786345
31
0.000000000000000
  0
LINE
  5
F1082E
330
F1082F
100
AcDbEntity
8
Geo
100
AcDbLine
10
-73.1912400829437
20
8.11885181486303
30
0.000000000000000
11
-73.0912400829437
21
7.82166642752840
31
0.000000000000000
  0
LINE
  5
F10830
330
F10831
100
AcDbEntity
8
Geo
100
AcDbLine
10
-73.1912400829437
20
-1.76919825786345
30
0.000000000000000
11
-73.0912400829437
21
-1.84845656229014
31
0.000000000000000
  0
LINE
  5
F10832
330
F10833
100
AcDbEntity
8
Geo
100
AcDbLine
10
-73.0912400829437
20
7.82166642752840
30
0.000000000000000
11
-72.9912400829437
21
7.52165124997386
31
0.000000000000000
  0
LINE
  5
F10834
330
F10835
100
AcDbEntity
8
Geo
100
AcDbLine
10
-73.0912400829437
20
-1.84845656229014
30
0.000000000000000
11
-72.9912400829437
21
-1.91622031737166
31
0.000000000000000
  0
LINE
  5
F10836
330
F10837
100
AcDbEntity
8
Geo
100
AcDbLine
10
-72.9912400829437
20
7.52165124997386
30
0.000000000000000
11
-72.8912400829437
21
7.21925069425937
31
0.000000000000000
  0
LINE
  5
F10838
330
F10839
100
AcDbEntity
8
Geo
100
AcDbLine
10
-72.9912400829437
20
-1.91622031737166
30
0.000000000000000
11
-72.8912400829437
21
-1.97238914475305
31
0.000000000000000
  0
LINE
  5
F1083A
330
F1083B
100
AcDbEntity
8
Geo
100
AcDbLine
10
-72.8912400829437
20
7.21925069425937
30
0.000000000000000
11
-72.7912400829437
21
6.91491270590221
31
0.000000000000000
  0
LINE
  5
F1083C
330
F1083D
100
AcDbEntity
8
Geo
100
AcDbLine
10
-72.8912400829437
20
-1.97238914475305
30
0.000000000000000
11
-72.7912400829437
21
-2.01687984162941
31
0.000000000000000
  0
LINE
  5
F1083E
330
F1083F
100
AcDbEntity
8
Geo
100
AcDbLine
10
-72.7912400829437
20
6.91491270590221
30
0.000000000000000
11
-72.6912400829437
21
6.60908810033588
31
0.000000000000000
  0
LINE
  5
F10840
330
F10841
100
AcDbEntity
8
Geo
100
AcDbLine
10
-72.7912400829437
20
-2.01687984162941
30
0.000000000000000
11
-72.6912400829437
21
-2.04962650399413
31
0.000000000000000
  0
LINE
  5
F10842
330
F10843
100
AcDbEntity
8
Geo
100
AcDbLine
10
-72.6912400829437
20
6.60908810033588
30
0.000000000000000
11
-72.5912400829437
21
6.30222989511787
31
0.000000000000000
  0
LINE
  5
F10844
330
F10845
100
AcDbEntity
8
Geo
100
AcDbLine
10
-72.6912400829437
20
-2.04962650399413
30
0.000000000000000
11
-72.5912400829437
21
-2.07058062426237
31
0.000000000000000
  0
LINE
  5
F10846
330
F10847
100
AcDbEntity
8
Geo
100
AcDbLine
10
-72.5912400829437
20
6.30222989511787
30
0.000000000000000
11
-72.4912400829437
21
5.99479263887539
31
0.000000000000000
  0
LINE
  5
F10848
330
F10849
100
AcDbEntity
8
Geo
100
AcDbLine
10
-72.5912400829437
20
-2.07058062426237
30
0.000000000000000
11
-72.4912400829437
21
-2.07971116312528
31
0.000000000000000
  0
LINE
  5
F1084A
330
F1084B
100
AcDbEntity
8
Geo
100
AcDbLine
10
-72.4912400829437
20
5.99479263887539
30
0.000000000000000
11
-72.3912400829437
21
5.68723173798311
31
0.000000000000000
  0
LINE
  5
F1084C
330
F1084D
100
AcDbEntity
8
Geo
100
AcDbLine
10
-72.3912400829437
20
13.8996489870707
30
0.000000000000000
11
-72.2912400829437
21
13.8851093222490
31
0.000000000000000
  0
LINE
  5
F1084E
330
F1084F
100
AcDbEntity
8
Geo
100
AcDbLine
10
-72.3912400829437
20
5.68723173798311
30
0.000000000000000
11
-72.2912400829437
21
5.38000278197033
31
0.000000000000000
  0
LINE
  5
F10850
330
F10851
100
AcDbEntity
8
Geo
100
AcDbLine
10
-72.2912400829437
20
13.8851093222490
30
0.000000000000000
11
-72.1912400829437
21
13.8587580977874
31
0.000000000000000
  0
LINE
  5
F10852
330
F10853
100
AcDbEntity
8
Geo
100
AcDbLine
10
-72.2912400829437
20
5.38000278197033
30
0.000000000000000
11
-72.1912400829437
21
5.07356086865688
31
0.000000000000000
  0
LINE
  5
F10854
330
F10855
100
AcDbEntity
8
Geo
100
AcDbLine
10
-72.1912400829437
20
13.8587580977874
30
0.000000000000000
11
-72.0912400829437
21
13.8206343477176
31
0.000000000000000
  0
LINE
  5
F10856
330
F10857
100
AcDbEntity
8
Geo
100
AcDbLine
10
-72.1912400829437
20
5.07356086865688
30
0.000000000000000
11
-72.0912400829437
21
4.76835993001735
31
0.000000000000000
  0
LINE
  5
F10858
330
F10859
100
AcDbEntity
8
Geo
100
AcDbLine
10
-72.0912400829437
20
13.8206343477176
30
0.000000000000000
11
-71.9912400829437
21
13.7707945446969
31
0.000000000000000
  0
LINE
  5
F1085A
330
F1085B
100
AcDbEntity
8
Geo
100
AcDbLine
10
-72.0912400829437
20
4.76835993001735
30
0.000000000000000
11
-71.9912400829437
21
4.46485205977230
31
0.000000000000000
  0
LINE
  5
F1085C
330
F1085D
100
AcDbEntity
8
Geo
100
AcDbLine
10
-71.9912400829437
20
13.7707945446969
30
0.000000000000000
11
-71.8912400829437
21
13.7093125163553
31
0.000000000000000
  0
LINE
  5
F1085E
330
F1085F
100
AcDbEntity
8
Geo
100
AcDbLine
10
-71.9912400829437
20
4.46485205977230
30
0.000000000000000
11
-71.8912400829437
21
4.16348684370244
31
0.000000000000000
  0
LINE
  5
F10860
330
F10861
100
AcDbEntity
8
Geo
100
AcDbLine
10
-71.8912400829437
20
13.7093125163553
30
0.000000000000000
11
-71.7912400829437
21
13.6362793359348
31
0.000000000000000
  0
LINE
  5
F10862
330
F10863
100
AcDbEntity
8
Geo
100
AcDbLine
10
-71.8912400829437
20
4.16348684370244
30
0.000000000000000
11
-71.7912400829437
21
3.86471069367789
31
0.000000000000000
  0
LINE
  5
F10864
330
F10865
100
AcDbEntity
8
Geo
100
AcDbLine
10
-71.7912400829437
20
13.6362793359348
30
0.000000000000000
11
-71.6912400829437
21
13.5518031873826
31
0.000000000000000
  0
LINE
  5
F10866
330
F10867
100
AcDbEntity
8
Geo
100
AcDbLine
10
-71.7912400829437
20
3.86471069367789
30
0.000000000000000
11
-71.6912400829437
21
3.56896618638887
31
0.000000000000000
  0
LINE
  5
F10868
330
F10869
100
AcDbEntity
8
Geo
100
AcDbLine
10
-71.6912400829437
20
13.5518031873826
30
0.000000000000000
11
-71.5912400829437
21
13.4560092050987
31
0.000000000000000
  0
LINE
  5
F1086A
330
F1086B
100
AcDbEntity
8
Geo
100
AcDbLine
10
-71.6912400829437
20
3.56896618638887
30
0.000000000000000
11
-71.5912400829437
21
3.27669140775749
31
0.000000000000000
  0
LINE
  5
F1086C
330
F1086D
100
AcDbEntity
8
Geo
100
AcDbLine
10
-71.5912400829437
20
13.4560092050987
30
0.000000000000000
11
-71.4912400829437
21
13.3490392885741
31
0.000000000000000
  0
LINE
  5
F1086E
330
F1086F
100
AcDbEntity
8
Geo
100
AcDbLine
10
-71.5912400829437
20
3.27669140775749
30
0.000000000000000
11
-71.4912400829437
21
2.98831930400170
31
0.000000000000000
  0
LINE
  5
F10870
330
F10871
100
AcDbEntity
8
Geo
100
AcDbLine
10
-71.4912400829437
20
13.3490392885741
30
0.000000000000000
11
-71.3912400829437
21
13.2310518921954
31
0.000000000000000
  0
LINE
  5
F10872
330
F10873
100
AcDbEntity
8
Geo
100
AcDbLine
10
-71.4912400829437
20
2.98831930400170
30
0.000000000000000
11
-71.3912400829437
21
2.70427704031260
31
0.000000000000000
  0
LINE
  5
F10874
330
F10875
100
AcDbEntity
8
Geo
100
AcDbLine
10
-71.3912400829437
20
13.2310518921954
30
0.000000000000000
11
-71.2912400829437
21
13.1022217905268
31
0.000000000000000
  0
LINE
  5
F10876
330
F10877
100
AcDbEntity
8
Geo
100
AcDbLine
10
-71.3912400829437
20
2.70427704031260
30
0.000000000000000
11
-71.2912400829437
21
2.42498536809538
31
0.000000000000000
  0
LINE
  5
F10878
330
F10879
100
AcDbEntity
8
Geo
100
AcDbLine
10
-71.2912400829437
20
13.1022217905268
30
0.000000000000000
11
-71.1912400829437
21
12.9627398194164
31
0.000000000000000
  0
LINE
  5
F1087A
330
F1087B
100
AcDbEntity
8
Geo
100
AcDbLine
10
-71.2912400829437
20
2.42498536809538
30
0.000000000000000
11
-71.1912400829437
21
2.15085800171073
31
0.000000000000000
  0
LINE
  5
F1087C
330
F1087D
100
AcDbEntity
8
Geo
100
AcDbLine
10
-71.1912400829437
20
12.9627398194164
30
0.000000000000000
11
-71.0912400829437
21
12.8128125933116
31
0.000000000000000
  0
LINE
  5
F1087E
330
F1087F
100
AcDbEntity
8
Geo
100
AcDbLine
10
-71.1912400829437
20
2.15085800171073
30
0.000000000000000
11
-71.0912400829437
21
1.88230100564036
31
0.000000000000000
  0
LINE
  5
F10880
330
F10881
100
AcDbEntity
8
Geo
100
AcDbLine
10
-71.0912400829437
20
12.8128125933116
30
0.000000000000000
11
-70.9912400829437
21
12.6526621992012
31
0.000000000000000
  0
LINE
  5
F10882
330
F10883
100
AcDbEntity
8
Geo
100
AcDbLine
10
-71.0912400829437
20
1.88230100564036
30
0.000000000000000
11
-70.9912400829437
21
1.61971219298432
31
0.000000000000000
  0
LINE
  5
F10884
330
F10885
100
AcDbEntity
8
Geo
100
AcDbLine
10
-70.9912400829437
20
12.6526621992012
30
0.000000000000000
11
-70.8912400829437
21
12.4825258676384
31
0.000000000000000
  0
LINE
  5
F10886
330
F10887
100
AcDbEntity
8
Geo
100
AcDbLine
10
-70.9912400829437
20
1.61971219298432
30
0.000000000000000
11
-70.8912400829437
21
1.36348053618096
31
0.000000000000000
  0
LINE
  5
F10888
330
F10889
100
AcDbEntity
8
Geo
100
AcDbLine
10
-70.8912400829437
20
12.4825258676384
30
0.000000000000000
11
-70.7912400829437
21
12.3026556213316
31
0.000000000000000
  0
LINE
  5
F1088A
330
F1088B
100
AcDbEntity
8
Geo
100
AcDbLine
10
-70.8912400829437
20
1.36348053618096
30
0.000000000000000
11
-70.7912400829437
21
1.11398559082260
31
0.000000000000000
  0
LINE
  5
F1088C
330
F1088D
100
AcDbEntity
8
Geo
100
AcDbLine
10
-70.7912400829437
20
12.3026556213316
30
0.000000000000000
11
-70.6912400829437
21
12.1133179018233
31
0.000000000000000
  0
LINE
  5
F1088E
330
F1088F
100
AcDbEntity
8
Geo
100
AcDbLine
10
-70.7912400829437
20
1.11398559082260
30
0.000000000000000
11
-70.6912400829437
21
0.871596933420416
31
0.000000000000000
  0
LINE
  5
F10890
330
F10891
100
AcDbEntity
8
Geo
100
AcDbLine
10
-84.6912400829437
20
5.91132219577108
30
0.000000000000000
11
-84.6912400829437
21
5.91132219577108
31
0.000000000000000
  0
LINE
  5
F10892
330
F10893
100
AcDbEntity
8
Geo
100
AcDbLine
10
-84.6912400829437
20
5.91132219577108
30
0.000000000000000
11
-84.6912400829437
21
5.91132219577108
31
0.000000000000000
  0
LINE
  5
F10894
330
F10895
100
AcDbEntity
8
Geo
100
AcDbLine
10
-85.6912400829437
20
5.91132219577108
30
0.000000000000000
11
-85.3912400829437
21
5.91132219577108
31
0.000000000000000
  0
LINE
  5
F10896
330
F10897
100
AcDbEntity
8
Geo
100
AcDbLine
10
-85.2637400829437
20
5.91132219577108
30
0.000000000000000
11
-85.1787400829436
21
5.91132219577108
31
0.000000000000000
  0
LINE
  5
F10898
330
F10899
100
AcDbEntity
8
Geo
100
AcDbLine
10
-84.9662400829437
20
5.91132219577108
30
0.000000000000000
11
-84.5412400829436
21
5.91132219577108
31
0.000000000000000
  0
LINE
  5
F1089A
330
F1089B
100
AcDbEntity
8
Geo
100
AcDbLine
10
-84.4137400829436
20
5.91132219577108
30
0.000000000000000
11
-84.3287400829437
21
5.91132219577108
31
0.000000000000000
  0
LINE
  5
F1089C
330
F1089D
100
AcDbEntity
8
Geo
100
AcDbLine
10
-84.1162400829436
20
5.91132219577108
30
0.000000000000000
11
-83.6912400829437
21
5.91132219577108
31
0.000000000000000
  0
LINE
  5
F1089E
330
F1089F
100
AcDbEntity
8
Geo
100
AcDbLine
10
4.30875991705635
20
13.7113221957711
30
0.000000000000000
11
4.30875991705635
21
5.91132219577108
31
0.000000000000000
  0
LINE
  5
F108A0
330
F108A1
100
AcDbEntity
8
Geo
100
AcDbLine
10
-84.4296390839049
20
5.91132219577108
30
0.000000000000000
11
-84.6909354964532
21
-1.57122805587767
31
0.000000000000000
  0
ARC
  5
F108A2
330
F108A3
100
AcDbEntity
8
Geo
100
AcDbCircle
10
-84.1912400829437
20
-1.58867780422892
30
0.000000000000000
 40
0.500000000000000
100
AcDbArc
 50
178.000000000000
 51
270.000000000000
  0
LINE
  5
F108A4
330
F108A5
100
AcDbEntity
8
Geo
100
AcDbLine
10
-84.1912400829437
20
-2.08867780422892
30
0.000000000000000
11
-65.6912400829437
21
-2.08867780422892
31
0.000000000000000
  0
LINE
  5
F108A6
330
F108A7
100
AcDbEntity
8
Geo
100
AcDbLine
10
-65.6912400829437
20
-2.08867780422892
30
0.000000000000000
11
4.10875991705635
21
-2.08867780422892
31
0.000000000000000
  0
LINE
  5
F108A8
330
F108A9
100
AcDbEntity
8
Geo
100
AcDbLine
10
4.10875991705635
20
-2.08867780422892
30
0.000000000000000
11
4.30875991705635
21
-1.88867780422892
31
0.000000000000000
  0
LINE
  5
F108AA
330
F108AB
100
AcDbEntity
8
Geo
100
AcDbLine
10
-84.1912400829437
20
13.9113221957711
30
0.000000000000000
11
-84.1912400829437
21
-2.08867780422892
31
0.000000000000000
  0
LINE
  5
F108AC
330
F108AD
100
AcDbEntity
8
Geo
100
AcDbLine
10
-84.1912400829437
20
13.9113221957711
30
0.000000000000000
11
-84.1912400829437
21
-2.08867780422892
31
0.000000000000000
  0
LINE
  5
F108AE
330
F108AF
100
AcDbEntity
8
Geo
100
AcDbLine
10
-65.6912400829437
20
13.9113221957711
30
0.000000000000000
11
-65.6912400829437
21
-2.08867780422892
31
0.000000000000000
  0
LINE
  5
F108B0
330
F108B1
100
AcDbEntity
8
Geo
100
AcDbLine
10
-65.6912400829437
20
13.9113221957711
30
0.000000000000000
11
-65.6912400829437
21
-2.08867780422892
31
0.000000000000000
  0
LINE
  5
F108B2
330
F108B3
100
AcDbEntity
8
Geo
100
AcDbLine
10
4.10875991705635
20
13.9113221957711
30
0.000000000000000
11
4.10875991705635
21
-2.08867780422892
31
0.000000000000000
  0
LINE
  5
F108B4
330
F108B5
100
AcDbEntity
8
Geo
100
AcDbLine
10
4.30875991705635
20
13.7113221957711
30
0.000000000000000
11
4.30875991705635
21
-1.88867780422892
31
0.000000000000000
  0
LWPOLYLINE
  5
F108B6
330
F108B7
100
AcDbEntity
8
Rahmen
100
AcDbPolyline
90
   4
70
   1
43
   0.0
 10
-125.422232099517
 20
102.889913381948
 10
134.491650280517
 20
102.889913381948
 10
134.491650280517
 20
-102.998589118409
 10
-125.422232099517
 20
-102.998589118409
  0
TEXT
  5
F108B8
330
F108B9
 100
AcDbEntity
8
Text
100
AcDbText
10
-124.386128923742
20
-102.498589118409
30
0.000000000000000
40
1.00000000000000
1
ISBESketcher
100
AcDbText
  0
LWPOLYLINE
  5
F108BA
330
F108BB
100
AcDbEntity
8
Rahmen
100
AcDbPolyline
90
   4
70
   1
43
   0.0
 10
94.3796559040994
 20
-99.8902795910847
 10
134.491650280517
 20
-99.8902795910847
 10
134.491650280517
 20
-102.998589118409
 10
94.3796559040994
 20
-102.998589118409
  0
TEXT
  5
F108BC
330
F108BD
 100
AcDbEntity
8
Text
100
AcDbText
10
95.5000000000000
20
-101.990073696982
30
0.000000000000000
40
0.750000000000000
1
Created by:
100
AcDbText
  0
TEXT
  5
F108BE
330
F108BF
 100
AcDbEntity
8
Text
100
AcDbText
10
120.649815757545
20
-101.990073696982
30
0.000000000000000
40
0.750000000000000
1
nsarkol
100
AcDbText
  0
LWPOLYLINE
  5
F108C0
330
F108C1
100
AcDbEntity
8
Rahmen
100
AcDbPolyline
90
   4
70
   1
43
   0.0
 10
54.4156762670783
 20
-99.8902795910847
 10
94.3796559040994
 20
-99.8902795910847
 10
94.3796559040994
 20
-102.998589118409
 10
54.4156762670783
 20
-102.998589118409
  0
TEXT
  5
F108C2
330
F108C3
 100
AcDbEntity
8
Text
100
AcDbText
10
55.5000000000000
20
-101.990073696982
30
0.000000000000000
40
0.750000000000000
1
Created for:
100
AcDbText
  0
TEXT
  5
F108C4
330
F108C5
 100
AcDbEntity
8
Text
100
AcDbText
10
0.000000000000000
20
0.250000000000000
30
0.000000000000000
40
0.750000000000000
1

100
AcDbText
  0
LWPOLYLINE
  5
F108C6
330
F108C7
100
AcDbEntity
8
Rahmen
100
AcDbPolyline
90
   4
70
   1
43
   0.0
 10
121.022308995447
 20
-96.9299848031572
 10
134.491650280517
 20
-96.9299848031572
 10
134.491650280517
 20
-99.8902795910847
 10
121.022308995447
 20
-99.8902795910847
  0
TEXT
  5
F108C8
330
F108C9
 100
AcDbEntity
8
Text
100
AcDbText
10
122.166666666667
20
-98.9900736969819
30
0.000000000000000
40
0.750000000000000
1
Pages
100
AcDbText
  0
TEXT
  5
F108CA
330
F108CB
 100
AcDbEntity
8
Text
100
AcDbText
10
0.000000000000000
20
0.250000000000000
30
0.000000000000000
40
0.750000000000000
1

100
AcDbText
  0
LWPOLYLINE
  5
F108CC
330
F108CD
100
AcDbEntity
8
Rahmen
100
AcDbPolyline
90
   4
70
   1
43
   0.0
 10
121.022308995447
 20
-93.9696900152297
 10
134.491650280517
 20
-93.9696900152297
 10
134.491650280517
 20
-96.9299848031572
 10
121.022308995447
 20
-96.9299848031572
  0
TEXT
  5
F108CE
330
F108CF
 100
AcDbEntity
8
Text
100
AcDbText
10
122.166666666667
20
-95.9900736969819
30
0.000000000000000
40
0.750000000000000
1
Page
100
AcDbText
  0
TEXT
  5
F108D0
330
F108D1
 100
AcDbEntity
8
Text
100
AcDbText
10
0.000000000000000
20
0.250000000000000
30
0.000000000000000
40
0.750000000000000
1

100
AcDbText
  0
LWPOLYLINE
  5
F108D2
330
F108D3
100
AcDbEntity
8
Rahmen
100
AcDbPolyline
90
   4
70
   1
43
   0.0
 10
54.4156762670783
 20
-93.9696900152297
 10
121.022308995447
 20
-93.9696900152297
 10
121.022308995447
 20
-99.8902795910847
 10
54.4156762670783
 20
-99.8902795910847
  0
TEXT
  5
F108D4
330
F108D5
 100
AcDbEntity
8
Text
100
AcDbText
10
55.5000000000000
20
-95.9900736969819
30
0.000000000000000
40
0.750000000000000
1
Date:
100
AcDbText
  0
TEXT
  5
F108D6
330
F108D7
 100
AcDbEntity
8
Text
100
AcDbText
10
85.0950606545004
20
-98.9900736969819
30
0.000000000000000
40
0.750000000000000
1
05.07.2016
100
AcDbText
  0
LWPOLYLINE
  5
F108D8
330
F108D9
100
AcDbEntity
8
Rahmen
100
AcDbPolyline
90
   4
70
   1
43
   0.0
 10
54.4156762670783
 20
-87.9010856999784
 10
134.491650280517
 20
-87.9010856999784
 10
134.491650280517
 20
-93.9696900152297
 10
54.4156762670783
 20
-93.9696900152297
  0
TEXT
  5
F108DA
330
F108DB
 100
AcDbEntity
8
Text
100
AcDbText
10
0.000000000000000
20
0.500000000000000
30
0.000000000000000
40
1.50000000000000
1

100
AcDbText
  0
TEXT
  5
F108DC
330
F108DD
 100
AcDbEntity
8
Text
100
AcDbText
10
64.3790005328378
20
-92.6089098667069
30
0.000000000000000
40
2.50000000000000
1
VHVTR 4 160 089 16 03 050 S 
100
AcDbText
  0
LWPOLYLINE
  5
F108DE
330
F108DF
100
AcDbEntity
8
Rahmen
100
AcDbPolyline
90
   4
70
   1
43
   0.0
 10
94.3796559040994
 20
-81.9804961241234
 10
134.491650280517
 20
-81.9804961241234
 10
134.491650280517
 20
-87.9010856999784
 10
94.3796559040994
 20
-87.9010856999784
  0
TEXT
  5
F108E0
330
F108E1
 100
AcDbEntity
8
Text
100
AcDbText
10
95.5000000000000
20
-83.9900736969819
30
0.000000000000000
40
0.750000000000000
1
Work piece material:
100
AcDbText
  0
TEXT
  5
F108E2
330
F108E3
 100
AcDbEntity
8
Text
100
AcDbText
10
0.000000000000000
20
0.250000000000000
30
0.000000000000000
40
0.750000000000000
1

100
AcDbText
  0
LWPOLYLINE
  5
F108E4
330
F108E5
100
AcDbEntity
8
Rahmen
100
AcDbPolyline
90
   4
70
   1
43
   0.0
 10
54.4156762670783
 20
-81.9804961241234
 10
94.3796559040994
 20
-81.9804961241234
 10
94.3796559040994
 20
-87.9010856999784
 10
54.4156762670783
 20
-87.9010856999784
  0
TEXT
  5
F108E6
330
F108E7
 100
AcDbEntity
8
Text
100
AcDbText
10
55.5000000000000
20
-83.9900736969819
30
0.000000000000000
40
0.750000000000000
1
Tool material:
100
AcDbText
  0
TEXT
  5
F108E8
330
F108E9
 100
AcDbEntity
8
Text
100
AcDbText
10
0.000000000000000
20
0.250000000000000
30
0.000000000000000
40
0.750000000000000
1

100
AcDbText
  0
LWPOLYLINE
  5
F108EA
330
F108EB
100
AcDbEntity
8
Rahmen
100
AcDbPolyline
90
   4
70
   1
43
   0.0
 10
94.3796559040994
 20
-78.8721865967996
 10
134.491650280517
 20
-78.8721865967996
 10
134.491650280517
 20
-81.9804961241234
 10
94.3796559040994
 20
-81.9804961241234
  0
TEXT
  5
F108EC
330
F108ED
 100
AcDbEntity
8
Text
100
AcDbText
10
0.000000000000000
20
0.500000000000000
30
0.000000000000000
40
1.50000000000000
1

100
AcDbText
  0
TEXT
  5
F108EE
330
F108EF
 100
AcDbEntity
8
Text
100
AcDbText
10
0.000000000000000
20
0.250000000000000
30
0.000000000000000
40
0.750000000000000
1

100
AcDbText
  0
LWPOLYLINE
  5
F108F0
330
F108F1
100
AcDbEntity
8
Rahmen
100
AcDbPolyline
90
   4
70
   1
43
   0.0
 10
54.4156762670783
 20
-78.8721865967996
 10
94.3796559040994
 20
-78.8721865967996
 10
94.3796559040994
 20
-81.9804961241234
 10
54.4156762670783
 20
-81.9804961241234
  0
TEXT
  5
F108F2
330
F108F3
 100
AcDbEntity
8
Text
100
AcDbText
10
55.5000000000000
20
-80.9900736969819
30
0.000000000000000
40
0.750000000000000
1
Scale:
100
AcDbText
  0
TEXT
  5
F108F4
330
F108F5
 100
AcDbEntity
8
Text
100
AcDbText
10
81.3898894545272
20
-80.9900736969819
30
0.000000000000000
40
0.750000000000000
1
2 : 1
100
AcDbText
0
VIEWPORT
5
294
102
{ACAD_XDICTIONARY
360
58A
102
}
330
25D
100
AcDbEntity
67
1
8
0
60
1
100
AcDbViewport
10
0.0
20
0.0
30
0.0
40
10.0
41
10.0
68
-1
69
1
12
0.0
22
0.0
13
0.0
23
0.0
14
1.0
24
1.0
15
0.0
25
0.0
16
0.0
26
0.0
36
1.0
17
0.0
27
0.0
37
0.0
42
0.0
43
0.0
44
0.0
45
10.0
50
0.0
51
0.0000000000007958
72
100
90
32800
1

281
0
71
0
74
0
110
0.0
120
0.0
130
0.0
111
1.0
121
0.0
131
0.0
112
0.0
122
1.0
132
0.0
79
0
146
0.0
1001
VD_INVISIBLE_NOT_FOR_READ
1000
VD_INVISIBLE_NOT_FOR_READ
0
VIEWPORT
5
295
102
{ACAD_XDICTIONARY
360
58C
102
}
330
25D
100
AcDbEntity
67
1
8
0
60
1
100
AcDbViewport
10
0.0
20
0.0
30
0.0
40
10.0
41
10.0
68
0
69
2
12
0.0
22
0.0
13
0.0
23
0.0
14
1.0
24
1.0
15
0.0
25
0.0
16
0.0
26
0.0
36
1.0
17
0.0
27
0.0
37
0.0
42
0.0
43
0.0
44
0.0
45
10.0
50
0.0
51
0.0000000000007958
72
100
90
163872
1

281
0
71
0
74
0
110
0.0
120
0.0
130
0.0
111
1.0
121
0.0
131
0.0
112
0.0
122
1.0
132
0.0
79
0
146
0.0
1001
VD_INVISIBLE_NOT_FOR_READ
1000
VD_INVISIBLE_NOT_FOR_READ
0
ENDSEC
0
SECTION
2
OBJECTS
0
DICTIONARY
5
13
330
0
100
AcDbDictionary
281
1
3
ACAD_COLOR
350
FA7
3
ACAD_GROUP
350
14
3
ACAD_LAYOUT
350
FCF
3
ACAD_MATERIAL
350
F7A
3
ACAD_MLEADERSTYLE
350
FCD
3
ACAD_MLINESTYLE
350
16
3
ACAD_PLOTSETTINGS
350
17
3
ACAD_PLOTSTYLENAME
350
18
3
ACAD_SCALELIST
350
FAB
3
ACAD_TABLESTYLE
350
FA8
3
ACAD_VISUALSTYLE
350
F93
3
ACDB_RECOMPOSE_DATA
350
107E
3
AcDbVariableDictionary
350
FF0
3
DWGPROPS
350
107F
0
DICTIONARY
5
F10014
330
F10013
100
AcDbDictionary
280
1
281
1
3
ACAD_MTEXT_2008_RT
360
F10015
0
DICTIONARY
5
F1001E
330
F1001D
100
AcDbDictionary
280
1
281
1
3
ACAD_MTEXT_2008_RT
360
F1001F
0
DICTIONARY
5
F10023
330
F10022
100
AcDbDictionary
280
1
281
1
3
ACAD_MTEXT_2008_RT
360
F10024
0
DICTIONARY
5
F10005
330
F10004
100
AcDbDictionary
280
1
281
1
3
ACAD_MTEXT_2008_RT
360
F10006
0
DICTIONARY
5
F1000F
330
F1000E
100
AcDbDictionary
280
1
281
1
3
ACAD_MTEXT_2008_RT
360
F10010
0
DICTIONARY
5
F1000A
330
F10009
100
AcDbDictionary
280
1
281
1
3
ACAD_MTEXT_2008_RT
360
F1000B
0
DICTIONARY
5
F10019
330
F10018
100
AcDbDictionary
280
1
281
1
3
ACAD_MTEXT_2008_RT
360
F1001A
0
DICTIONARY
5
FA7
102
{ACAD_REACTORS
330
13
102
}
330
13
100
AcDbDictionary
281
1
0
DICTIONARY
5
14
330
13
100
AcDbDictionary
281
1
0
DICTIONARY
5
FCF
102
{ACAD_REACTORS
330
13
102
}
330
13
100
AcDbDictionary
281
1
3
Layout1
350
FD1
3
Model
350
FD0
0
DICTIONARY
5
F7A
102
{ACAD_REACTORS
330
13
102
}
330
13
100
AcDbDictionary
281
1
3
ByBlock
350
F83
3
ByLayer
350
F7B
3
Global
350
F8B
0
DICTIONARY
5
FCD
102
{ACAD_REACTORS
330
13
102
}
330
13
100
AcDbDictionary
281
1
3
Standard
350
FCE
0
DICTIONARY
5
16
330
13
100
AcDbDictionary
281
1
3
Standard
350
FAA
0
DICTIONARY
5
17
102
{ACAD_REACTORS
330
13
102
}
330
13
100
AcDbDictionary
281
1
0
ACDBDICTIONARYWDFLT
5
18
102
{ACAD_REACTORS
330
13
102
}
330
13
100
AcDbDictionary
281
1
3
Normal
350
19
100
AcDbDictionaryWithDefault
340
19
0
DICTIONARY
5
FAB
102
{ACAD_REACTORS
330
13
102
}
330
13
100
AcDbDictionary
281
1
3
A0
350
FAC
3
A1
350
FAD
3
A2
350
FAE
3
A3
350
FAF
3
A4
350
FB0
3
A5
350
FB1
3
A6
350
FB2
3
A7
350
FB3
3
A8
350
FB4
3
A9
350
FB5
3
B0
350
FB6
3
B1
350
FB7
3
B2
350
FB8
3
B3
350
FB9
3
B4
350
FBA
3
B5
350
FBB
3
B6
350
FBC
3
B7
350
FBD
3
B8
350
FBE
3
B9
350
FBF
3
C0
350
FC0
3
C1
350
FC1
3
C2
350
FC2
3
C3
350
FC3
3
C4
350
FC4
3
C5
350
FC5
3
C6
350
FC6
3
C7
350
FC7
3
C8
350
FC8
3
C9
350
FC9
3
D0
350
FCA
3
D1
350
FCB
3
D2
350
FCC
0
DICTIONARY
5
FA8
102
{ACAD_REACTORS
330
13
102
}
330
13
100
AcDbDictionary
281
1
3
Standard
350
FA9
0
DICTIONARY
5
F93
102
{ACAD_REACTORS
330
13
102
}
330
13
100
AcDbDictionary
281
1
3
2dWireframe
350
F99
3
3D Hidden
350
F9B
3
3dWireframe
350
F9A
3
Basic
350
F98
3
Brighten
350
F9F
3
ColorChange
350
FA3
3
Conceptual
350
F9C
3
Dim
350
F9E
3
EdgeColorOff
350
FA6
3
Facepattern
350
FA2
3
Flat
350
F94
3
FlatWithEdges
350
F95
3
Gouraud
350
F96
3
GouraudWithEdges
350
F97
3
JitterOff
350
FA4
3
Linepattern
350
FA1
3
OverhangOff
350
FA5
3
Realistic
350
F9D
3
Thicken
350
FA0
0
XRECORD
5
107E
102
{ACAD_REACTORS
330
13
102
}
330
13
100
AcDbXrecord
280
1
90
1
330
FA9
330
F10013
330
F1001D
330
F10022
330
F10004
330
F1000E
330
F10009
330
F10018
0
XRECORD
5
F10015
102
{ACAD_REACTORS
330
F10014
102
}
330
F10014
100
AcDbXrecord
280
1
40
48458.0
1
70
0
XRECORD
5
F1001F
102
{ACAD_REACTORS
330
F1001E
102
}
330
F1001E
100
AcDbXrecord
280
1
40
48458.0
1
19
0
XRECORD
5
F10024
102
{ACAD_REACTORS
330
F10023
102
}
330
F10023
100
AcDbXrecord
280
1
40
48458.0
1
89
0
XRECORD
5
F10006
102
{ACAD_REACTORS
330
F10005
102
}
330
F10005
100
AcDbXrecord
280
1
40
48458.0
1
2°
0
XRECORD
5
F10010
102
{ACAD_REACTORS
330
F1000F
102
}
330
F1000F
100
AcDbXrecord
280
1
40
48458.0
1
R0.5
0
XRECORD
5
F1000B
102
{ACAD_REACTORS
330
F1000A
102
}
330
F1000A
100
AcDbXrecord
280
1
40
48458.0
1
16
0
LAYOUT
5
FD1
102
{ACAD_XDICTIONARY
360
10A9
102
}
102
{ACAD_REACTORS
330
FCF
102
}
330
FCF
100
AcDbPlotSettings
1

2
Microsoft XPS Document Writer
4

6

40
0.0
41
0.0
42
0.0
43
0.0
44
0.0
45
0.0
46
0.0
47
0.0
48
0.0
49
0.0
140
0.0
141
0.0
142
1.0
143
1.0
70
688
72
0
73
0
74
5
7

75
16
147
1.0
148
0.0
149
0.0
100
AcDbLayout
1
Layout1
70
1
71
1
10
0.0
20
0.0
11
12.0
21
9.0
12
0.0
22
0.0
32
0.0
14
1.000000000000000E+20
24
1.000000000000000E+20
34
1.000000000000000E+20
15
-1.000000000000000E+20
25
-1.000000000000000E+20
35
-1.000000000000000E+20
146
0.0
13
0.0
23
0.0
33
0.0
16
1.0
26
0.0
36
0.0
17
0.0
27
1.0
37
0.0
76
0
330
25D
0
LAYOUT
5
FD0
102
{ACAD_XDICTIONARY
360
10A7
102
}
102
{ACAD_REACTORS
330
FCF
102
}
330
FCF
100
AcDbPlotSettings
1

2
Microsoft XPS Document Writer
4

6

40
0.0
41
0.0
42
0.0
43
0.0
44
0.0
45
0.0
46
0.0
47
0.0
48
0.0
49
0.0
140
0.0
141
0.0
142
1.0
143
1.0
70
1712
72
0
73
0
74
0
7

75
0
147
1.0
148
0.0
149
0.0
100
AcDbLayout
1
Model
70
1
71
0
10
0.0
20
0.0
11
12.0
21
9.0
12
0.0
22
0.0
32
0.0
14
0.0
24
0.0
34
0.0
15
0.0
25
0.0
35
0.0
146
0.0
13
0.0
23
0.0
33
0.0
16
1.0
26
0.0
36
0.0
17
0.0
27
1.0
37
0.0
76
0
330
261
331
26B
0
MATERIAL
5
F83
102
{ACAD_XDICTIONARY
360
F84
102
}
102
{ACAD_REACTORS
330
F7A
102
}
330
F7A
100
AcDbMaterial
1
ByBlock
72
0
43
0.0208333333333333
43
0.0
43
0.0
43
0.0
43
0.0
43
0.0208333333333333
43
0.0
43
0.0
43
0.0
43
0.0
43
1.0
43
0.0
43
0.0
43
0.0
43
0.0
43
1.0
77
0
47
0.0208333333333333
47
0.0
47
0.0
47
0.0
47
0.0
47
0.0208333333333333
47
0.0
47
0.0
47
0.0
47
0.0
47
1.0
47
0.0
47
0.0
47
0.0
47
0.0
47
1.0
171
0
49
0.0208333333333333
49
0.0
49
0.0
49
0.0
49
0.0
49
0.0208333333333333
49
0.0
49
0.0
49
0.0
49
0.0
49
1.0
49
0.0
49
0.0
49
0.0
49
0.0
49
1.0
175
0
142
0.0208333333333333
142
0.0
142
0.0
142
0.0
142
0.0
142
0.0208333333333333
142
0.0
142
0.0
142
0.0
142
0.0
142
1.0
142
0.0
142
0.0
142
0.0
142
0.0
142
1.0
179
0
144
0.0208333333333333
144
0.0
144
0.0
144
0.0
144
0.0
144
0.0208333333333333
144
0.0
144
0.0
144
0.0
144
0.0
144
1.0
144
0.0
144
0.0
144
0.0
144
0.0
144
1.0
147
0.0208333333333333
147
0.0
147
0.0
147
0.0
147
0.0
147
0.0208333333333333
147
0.0
147
0.0
147
0.0
147
0.0
147
1.0
147
0.0
147
0.0
147
0.0
147
0.0
147
1.0
0
MATERIAL
5
F7B
102
{ACAD_XDICTIONARY
360
F7C
102
}
102
{ACAD_REACTORS
330
F7A
102
}
330
F7A
100
AcDbMaterial
1
ByLayer
72
0
43
0.0208333333333333
43
0.0
43
0.0
43
0.0
43
0.0
43
0.0208333333333333
43
0.0
43
0.0
43
0.0
43
0.0
43
1.0
43
0.0
43
0.0
43
0.0
43
0.0
43
1.0
77
0
47
0.0208333333333333
47
0.0
47
0.0
47
0.0
47
0.0
47
0.0208333333333333
47
0.0
47
0.0
47
0.0
47
0.0
47
1.0
47
0.0
47
0.0
47
0.0
47
0.0
47
1.0
171
0
49
0.0208333333333333
49
0.0
49
0.0
49
0.0
49
0.0
49
0.0208333333333333
49
0.0
49
0.0
49
0.0
49
0.0
49
1.0
49
0.0
49
0.0
49
0.0
49
0.0
49
1.0
175
0
142
0.0208333333333333
142
0.0
142
0.0
142
0.0
142
0.0
142
0.0208333333333333
142
0.0
142
0.0
142
0.0
142
0.0
142
1.0
142
0.0
142
0.0
142
0.0
142
0.0
142
1.0
179
0
144
0.0208333333333333
144
0.0
144
0.0
144
0.0
144
0.0
144
0.0208333333333333
144
0.0
144
0.0
144
0.0
144
0.0
144
1.0
144
0.0
144
0.0
144
0.0
144
0.0
144
1.0
147
0.0208333333333333
147
0.0
147
0.0
147
0.0
147
0.0
147
0.0208333333333333
147
0.0
147
0.0
147
0.0
147
0.0
147
1.0
147
0.0
147
0.0
147
0.0
147
0.0
147
1.0
0
MATERIAL
5
F8B
102
{ACAD_XDICTIONARY
360
F8C
102
}
102
{ACAD_REACTORS
330
F7A
102
}
330
F7A
100
AcDbMaterial
1
Global
72
0
43
0.0208333333333333
43
0.0
43
0.0
43
0.0
43
0.0
43
0.0208333333333333
43
0.0
43
0.0
43
0.0
43
0.0
43
1.0
43
0.0
43
0.0
43
0.0
43
0.0
43
1.0
77
0
47
0.0208333333333333
47
0.0
47
0.0
47
0.0
47
0.0
47
0.0208333333333333
47
0.0
47
0.0
47
0.0
47
0.0
47
1.0
47
0.0
47
0.0
47
0.0
47
0.0
47
1.0
171
0
49
0.0208333333333333
49
0.0
49
0.0
49
0.0
49
0.0
49
0.0208333333333333
49
0.0
49
0.0
49
0.0
49
0.0
49
1.0
49
0.0
49
0.0
49
0.0
49
0.0
49
1.0
175
0
142
0.0208333333333333
142
0.0
142
0.0
142
0.0
142
0.0
142
0.0208333333333333
142
0.0
142
0.0
142
0.0
142
0.0
142
1.0
142
0.0
142
0.0
142
0.0
142
0.0
142
1.0
179
0
144
0.0208333333333333
144
0.0
144
0.0
144
0.0
144
0.0
144
0.0208333333333333
144
0.0
144
0.0
144
0.0
144
0.0
144
1.0
144
0.0
144
0.0
144
0.0
144
0.0
144
1.0
147
0.0208333333333333
147
0.0
147
0.0
147
0.0
147
0.0
147
0.0208333333333333
147
0.0
147
0.0
147
0.0
147
0.0
147
1.0
147
0.0
147
0.0
147
0.0
147
0.0
147
1.0
0
MLEADERSTYLE
5
FCE
102
{ACAD_REACTORS
330
FCD
102
}
330
FCD
100
AcDbMLeaderStyle
170
2
171
1
172
0
90
2
40
0.0
41
0.0
173
1
91
-1056964608
340
256
92
-2
290
1
42
0.09
291
1
43
0.36
3
Standard
44
0.18
300

342
253
174
1
178
6
175
1
176
0
93
-1056964608
45
0.18
292
0
297
0
46
0.18
94
-1056964608
47
1.0
49
1.0
140
1.0
293
1
141
0.0
294
1
177
0
142
1.0
295
0
296
0
143
0.125
1001
ACAD_MLEADERVER
1070
2
0
MLINESTYLE
5
FAA
102
{ACAD_REACTORS
330
16
102
}
330
16
100
AcDbMlineStyle
2
STANDARD
70
0
3

62
256
51
90.0
52
90.0
71
2
49
0.5
62
256
6
BYLAYER
49
-0.5
62
256
6
BYLAYER
0
ACDBPLACEHOLDER
5
19
102
{ACAD_REACTORS
330
18
102
}
330
18
0
SCALE
5
FAC
102
{ACAD_REACTORS
330
FAB
102
}
330
FAB
100
AcDbScale
70
0
300
1:1
140
1.0
141
1.0
290
1
0
SCALE
5
FAD
102
{ACAD_REACTORS
330
FAB
102
}
330
FAB
100
AcDbScale
70
0
300
1:2
140
1.0
141
2.0
290
0
0
SCALE
5
FAE
102
{ACAD_REACTORS
330
FAB
102
}
330
FAB
100
AcDbScale
70
0
300
1:4
140
1.0
141
4.0
290
0
0
SCALE
5
FAF
102
{ACAD_REACTORS
330
FAB
102
}
330
FAB
100
AcDbScale
70
0
300
1:5
140
1.0
141
5.0
290
0
0
SCALE
5
FB0
102
{ACAD_REACTORS
330
FAB
102
}
330
FAB
100
AcDbScale
70
0
300
1:8
140
1.0
141
8.0
290
0
0
SCALE
5
FB1
102
{ACAD_REACTORS
330
FAB
102
}
330
FAB
100
AcDbScale
70
0
300
1:10
140
1.0
141
10.0
290
0
0
SCALE
5
FB2
102
{ACAD_REACTORS
330
FAB
102
}
330
FAB
100
AcDbScale
70
0
300
1:16
140
1.0
141
16.0
290
0
0
SCALE
5
FB3
102
{ACAD_REACTORS
330
FAB
102
}
330
FAB
100
AcDbScale
70
0
300
1:20
140
1.0
141
20.0
290
0
0
SCALE
5
FB4
102
{ACAD_REACTORS
330
FAB
102
}
330
FAB
100
AcDbScale
70
0
300
1:30
140
1.0
141
30.0
290
0
0
SCALE
5
FB5
102
{ACAD_REACTORS
330
FAB
102
}
330
FAB
100
AcDbScale
70
0
300
1:40
140
1.0
141
40.0
290
0
0
SCALE
5
FB6
102
{ACAD_REACTORS
330
FAB
102
}
330
FAB
100
AcDbScale
70
0
300
1:50
140
1.0
141
50.0
290
0
0
SCALE
5
FB7
102
{ACAD_REACTORS
330
FAB
102
}
330
FAB
100
AcDbScale
70
0
300
1:100
140
1.0
141
100.0
290
0
0
SCALE
5
FB8
102
{ACAD_REACTORS
330
FAB
102
}
330
FAB
100
AcDbScale
70
0
300
2:1
140
2.0
141
1.0
290
0
0
SCALE
5
FB9
102
{ACAD_REACTORS
330
FAB
102
}
330
FAB
100
AcDbScale
70
0
300
4:1
140
4.0
141
1.0
290
0
0
SCALE
5
FBA
102
{ACAD_REACTORS
330
FAB
102
}
330
FAB
100
AcDbScale
70
0
300
8:1
140
8.0
141
1.0
290
0
0
SCALE
5
FBB
102
{ACAD_REACTORS
330
FAB
102
}
330
FAB
100
AcDbScale
70
0
300
10:1
140
10.0
141
1.0
290
0
0
SCALE
5
FBC
102
{ACAD_REACTORS
330
FAB
102
}
330
FAB
100
AcDbScale
70
0
300
100:1
140
100.0
141
1.0
290
0
0
SCALE
5
FBD
102
{ACAD_REACTORS
330
FAB
102
}
330
FAB
100
AcDbScale
70
0
300
1/128" = 1'-0"
140
0.0078125
141
12.0
290
0
0
SCALE
5
FBE
102
{ACAD_REACTORS
330
FAB
102
}
330
FAB
100
AcDbScale
70
0
300
1/64" = 1'-0"
140
0.015625
141
12.0
290
0
0
SCALE
5
FBF
102
{ACAD_REACTORS
330
FAB
102
}
330
FAB
100
AcDbScale
70
0
300
1/32" = 1'-0"
140
0.03125
141
12.0
290
0
0
SCALE
5
FC0
102
{ACAD_REACTORS
330
FAB
102
}
330
FAB
100
AcDbScale
70
0
300
1/16" = 1'-0"
140
0.0625
141
12.0
290
0
0
SCALE
5
FC1
102
{ACAD_REACTORS
330
FAB
102
}
330
FAB
100
AcDbScale
70
0
300
3/32" = 1'-0"
140
0.09375
141
12.0
290
0
0
SCALE
5
FC2
102
{ACAD_REACTORS
330
FAB
102
}
330
FAB
100
AcDbScale
70
0
300
1/8" = 1'-0"
140
0.125
141
12.0
290
0
0
SCALE
5
FC3
102
{ACAD_REACTORS
330
FAB
102
}
330
FAB
100
AcDbScale
70
0
300
3/16" = 1'-0"
140
0.1875
141
12.0
290
0
0
SCALE
5
FC4
102
{ACAD_REACTORS
330
FAB
102
}
330
FAB
100
AcDbScale
70
0
300
1/4" = 1'-0"
140
0.25
141
12.0
290
0
0
SCALE
5
FC5
102
{ACAD_REACTORS
330
FAB
102
}
330
FAB
100
AcDbScale
70
0
300
3/8" = 1'-0"
140
0.375
141
12.0
290
0
0
SCALE
5
FC6
102
{ACAD_REACTORS
330
FAB
102
}
330
FAB
100
AcDbScale
70
0
300
1/2" = 1'-0"
140
0.5
141
12.0
290
0
0
SCALE
5
FC7
102
{ACAD_REACTORS
330
FAB
102
}
330
FAB
100
AcDbScale
70
0
300
3/4" = 1'-0"
140
0.75
141
12.0
290
0
0
SCALE
5
FC8
102
{ACAD_REACTORS
330
FAB
102
}
330
FAB
100
AcDbScale
70
0
300
1" = 1'-0"
140
1.0
141
12.0
290
0
0
SCALE
5
FC9
102
{ACAD_REACTORS
330
FAB
102
}
330
FAB
100
AcDbScale
70
0
300
1-1/2" = 1'-0"
140
1.5
141
12.0
290
0
0
SCALE
5
FCA
102
{ACAD_REACTORS
330
FAB
102
}
330
FAB
100
AcDbScale
70
0
300
3" = 1'-0"
140
3.0
141
12.0
290
0
0
SCALE
5
FCB
102
{ACAD_REACTORS
330
FAB
102
}
330
FAB
100
AcDbScale
70
0
300
6" = 1'-0"
140
6.0
141
12.0
290
0
0
SCALE
5
FCC
102
{ACAD_REACTORS
330
FAB
102
}
330
FAB
100
AcDbScale
70
0
300
1'-0" = 1'-0"
140
12.0
141
12.0
290
0
0
TABLESTYLE
5
FA9
102
{ACAD_XDICTIONARY
360
FF8
102
}
102
{ACAD_REACTORS
330
FA8
102
}
330
FA8
100
AcDbTableStyle
3
Standard
70
0
71
0
40
0.06
41
0.06
280
0
281
0
7
Standard
140
0.18
170
2
62
0
63
7
283
0
274
-2
284
1
64
0
275
-2
285
1
65
0
276
-2
286
1
66
0
277
-2
287
1
67
0
278
-2
288
1
68
0
279
-2
289
1
69
0
7
Standard
140
0.25
170
5
62
0
63
7
283
0
274
-2
284
1
64
0
275
-2
285
1
65
0
276
-2
286
1
66
0
277
-2
287
1
67
0
278
-2
288
1
68
0
279
-2
289
1
69
0
7
Standard
140
0.18
170
5
62
0
63
7
283
0
274
-2
284
1
64
0
275
-2
285
1
65
0
276
-2
286
1
66
0
277
-2
287
1
67
0
278
-2
288
1
68
0
279
-2
289
1
69
0
0
VISUALSTYLE
5
F99
102
{ACAD_XDICTIONARY
360
108A
102
}
102
{ACAD_REACTORS
330
F93
102
}
330
F93
100
AcDbVisualStyle
2

70
4
71
0
72
2
73
0
90
0
40
-0.6
41
-30.0
62
5
63
7
74
1
91
4
64
7
65
257
75
1
175
1
42
1.0
92
0
66
257
43
1.0
76
1
77
6
78
2
67
7
79
5
170
0
171
0
290
0
174
0
93
1
44
0.0
173
0
291
0
45
0.0
1001
ACAD
1000
AcDbSavedByObjectVersion
1070
0
0
VISUALSTYLE
5
F9B
102
{ACAD_XDICTIONARY
360
108E
102
}
102
{ACAD_REACTORS
330
F93
102
}
330
F93
100
AcDbVisualStyle
2

70
6
71
1
72
2
73
2
90
0
40
-0.6
41
-30.0
62
5
63
7
74
2
91
2
64
7
65
257
75
2
175
1
42
179.0
92
0
66
257
43
1.0
76
1
77
6
78
2
67
7
79
3
170
0
171
0
290
0
174
0
93
1
44
0.0
173
0
291
0
45
0.0
1001
ACAD
1000
AcDbSavedByObjectVersion
1070
0
0
VISUALSTYLE
5
F9A
102
{ACAD_XDICTIONARY
360
108C
102
}
102
{ACAD_REACTORS
330
F93
102
}
330
F93
100
AcDbVisualStyle
2

70
5
71
0
72
2
73
0
90
0
40
-0.6
41
-30.0
62
5
63
7
74
1
91
4
64
7
65
257
75
1
175
1
42
1.0
92
0
66
257
43
1.0
76
1
77
6
78
2
67
7
79
5
170
0
171
0
290
0
174
0
93
1
44
0.0
173
0
291
0
45
0.0
1001
ACAD
1000
AcDbSavedByObjectVersion
1070
0
0
VISUALSTYLE
5
F98
102
{ACAD_XDICTIONARY
360
1088
102
}
102
{ACAD_REACTORS
330
F93
102
}
330
F93
100
AcDbVisualStyle
2

70
7
71
1
72
0
73
1
90
0
40
-0.6
41
-30.0
62
5
63
7
74
0
91
4
64
7
65
257
75
1
175
1
42
1.0
92
8
66
7
43
1.0
76
1
77
6
78
2
67
7
79
5
170
0
171
0
290
0
174
0
93
1
44
0.0
173
0
291
1
45
0.0
1001
ACAD
1000
AcDbSavedByObjectVersion
1070
0
0
VISUALSTYLE
5
F9F
102
{ACAD_XDICTIONARY
360
1096
102
}
102
{ACAD_REACTORS
330
F93
102
}
330
F93
100
AcDbVisualStyle
2

70
12
71
2
72
2
73
0
90
0
40
-0.6
41
-30.0
62
5
63
7
74
1
91
4
64
7
65
257
75
1
175
1
42
1.0
92
8
66
7
43
1.0
76
1
77
6
78
2
67
7
79
5
170
0
171
0
290
0
174
0
93
1
44
50.0
173
0
291
1
45
0.0
1001
ACAD
1000
AcDbSavedByObjectVersion
1070
0
0
VISUALSTYLE
5
FA3
102
{ACAD_XDICTIONARY
360
109E
102
}
102
{ACAD_REACTORS
330
F93
102
}
330
F93
100
AcDbVisualStyle
2

70
16
71
2
72
2
73
3
90
0
40
-0.6
41
-30.0
62
5
63
8
74
1
91
4
64
7
65
257
75
1
175
1
42
1.0
92
8
66
8
43
1.0
76
1
77
6
78
2
67
7
79
5
170
0
171
0
290
0
174
0
93
1
44
0.0
173
0
291
1
45
0.0
1001
ACAD
1000
AcDbSavedByObjectVersion
1070
0
0
VISUALSTYLE
5
F9C
102
{ACAD_XDICTIONARY
360
1090
102
}
102
{ACAD_REACTORS
330
F93
102
}
330
F93
100
AcDbVisualStyle
2

70
9
71
3
72
2
73
0
90
0
40
-0.6
41
-30.0
62
5
63
7
74
2
91
2
64
7
65
257
75
1
175
1
42
179.0
92
8
66
7
43
1.0
76
1
77
6
78
2
67
7
79
3
170
0
171
0
290
0
174
0
93
1
44
0.0
173
0
291
0
45
0.0
1001
ACAD
1000
AcDbSavedByObjectVersion
1070
0
0
VISUALSTYLE
5
F9E
102
{ACAD_XDICTIONARY
360
1094
102
}
102
{ACAD_REACTORS
330
F93
102
}
330
F93
100
AcDbVisualStyle
2

70
11
71
2
72
2
73
0
90
0
40
-0.6
41
-30.0
62
5
63
7
74
1
91
4
64
7
65
257
75
1
175
1
42
1.0
92
8
66
7
43
1.0
76
1
77
6
78
2
67
7
79
5
170
0
171
0
290
0
174
0
93
1
44
-50.0
173
0
291
1
45
0.0
1001
ACAD
1000
AcDbSavedByObjectVersion
1070
0
0
VISUALSTYLE
5
FA6
102
{ACAD_XDICTIONARY
360
10A4
102
}
102
{ACAD_REACTORS
330
F93
102
}
330
F93
100
AcDbVisualStyle
2

70
22
71
2
72
2
73
0
90
0
40
-0.6
41
-30.0
62
5
63
7
74
1
91
4
64
7
65
257
75
1
175
1
42
1.0
92
8
66
7
43
1.0
76
1
77
6
78
2
67
7
79
5
170
0
171
0
290
0
174
0
93
1
44
0.0
173
0
291
1
45
0.0
1001
ACAD
1000
AcDbSavedByObjectVersion
1070
0
0
VISUALSTYLE
5
FA2
102
{ACAD_XDICTIONARY
360
109C
102
}
102
{ACAD_REACTORS
330
F93
102
}
330
F93
100
AcDbVisualStyle
2

70
15
71
2
72
2
73
0
90
0
40
-0.6
41
-30.0
62
5
63
7
74
1
91
4
64
7
65
257
75
1
175
1
42
1.0
92
8
66
7
43
1.0
76
1
77
6
78
2
67
7
79
5
170
0
171
0
290
0
174
0
93
1
44
0.0
173
0
291
1
45
0.0
1001
ACAD
1000
AcDbSavedByObjectVersion
1070
0
0
VISUALSTYLE
5
F94
102
{ACAD_XDICTIONARY
360
1080
102
}
102
{ACAD_REACTORS
330
F93
102
}
330
F93
100
AcDbVisualStyle
2

70
0
71
2
72
1
73
1
90
2
40
-0.6
41
30.0
62
5
63
7
74
0
91
4
64
7
65
257
75
1
175
1
42
1.0
92
8
66
7
43
1.0
76
1
77
6
78
2
67
7
79
5
170
0
171
0
290
0
174
0
93
13
44
0.0
173
0
291
1
45
0.0
1001
ACAD
1000
AcDbSavedByObjectVersion
1070
0
0
VISUALSTYLE
5
F95
102
{ACAD_XDICTIONARY
360
1082
102
}
102
{ACAD_REACTORS
330
F93
102
}
330
F93
100
AcDbVisualStyle
2

70
1
71
2
72
1
73
1
90
2
40
-0.6
41
30.0
62
5
63
7
74
1
91
4
64
7
65
257
75
1
175
1
42
1.0
92
0
66
257
43
1.0
76
1
77
6
78
2
67
7
79
5
170
0
171
0
290
0
174
0
93
13
44
0.0
173
0
291
1
45
0.0
1001
ACAD
1000
AcDbSavedByObjectVersion
1070
0
0
VISUALSTYLE
5
F96
102
{ACAD_XDICTIONARY
360
1084
102
}
102
{ACAD_REACTORS
330
F93
102
}
330
F93
100
AcDbVisualStyle
2

70
2
71
2
72
2
73
1
90
2
40
-0.6
41
30.0
62
5
63
7
74
0
91
4
64
7
65
257
75
1
175
1
42
1.0
92
0
66
7
43
1.0
76
1
77
6
78
2
67
7
79
5
170
0
171
0
290
0
174
0
93
13
44
0.0
173
0
291
1
45
0.0
1001
ACAD
1000
AcDbSavedByObjectVersion
1070
0
0
VISUALSTYLE
5
F97
102
{ACAD_XDICTIONARY
360
1086
102
}
102
{ACAD_REACTORS
330
F93
102
}
330
F93
100
AcDbVisualStyle
2

70
3
71
2
72
2
73
1
90
2
40
-0.6
41
30.0
62
5
63
7
74
1
91
4
64
7
65
257
75
1
175
1
42
1.0
92
0
66
257
43
1.0
76
1
77
6
78
2
67
7
79
5
170
0
171
0
290
0
174
0
93
13
44
0.0
173
0
291
1
45
0.0
1001
ACAD
1000
AcDbSavedByObjectVersion
1070
0
0
VISUALSTYLE
5
FA4
102
{ACAD_XDICTIONARY
360
10A0
102
}
102
{ACAD_REACTORS
330
F93
102
}
330
F93
100
AcDbVisualStyle
2

70
20
71
2
72
2
73
0
90
0
40
-0.6
41
-30.0
62
5
63
7
74
1
91
4
64
7
65
257
75
1
175
1
42
1.0
92
10
66
7
43
1.0
76
1
77
6
78
2
67
7
79
5
170
0
171
0
290
0
174
0
93
1
44
0.0
173
0
291
1
45
0.0
1001
ACAD
1000
AcDbSavedByObjectVersion
1070
0
0
VISUALSTYLE
5
FA1
102
{ACAD_XDICTIONARY
360
109A
102
}
102
{ACAD_REACTORS
330
F93
102
}
330
F93
100
AcDbVisualStyle
2

70
14
71
2
72
2
73
0
90
0
40
-0.6
41
-30.0
62
5
63
7
74
1
91
4
64
7
65
257
75
7
175
7
42
1.0
92
8
66
7
43
1.0
76
1
77
6
78
2
67
7
79
5
170
0
171
0
290
0
174
0
93
1
44
0.0
173
0
291
1
45
0.0
1001
ACAD
1000
AcDbSavedByObjectVersion
1070
0
0
VISUALSTYLE
5
FA5
102
{ACAD_XDICTIONARY
360
10A2
102
}
102
{ACAD_REACTORS
330
F93
102
}
330
F93
100
AcDbVisualStyle
2

70
21
71
2
72
2
73
0
90
0
40
-0.6
41
-30.0
62
5
63
7
74
1
91
4
64
7
65
257
75
1
175
1
42
1.0
92
9
66
7
43
1.0
76
1
77
6
78
2
67
7
79
5
170
0
171
0
290
0
174
0
93
1
44
0.0
173
0
291
1
45
0.0
1001
ACAD
1000
AcDbSavedByObjectVersion
1070
0
0
VISUALSTYLE
5
F9D
102
{ACAD_XDICTIONARY
360
1092
102
}
102
{ACAD_REACTORS
330
F93
102
}
330
F93
100
AcDbVisualStyle
2

70
8
71
2
72
2
73
0
90
0
40
-0.6
41
-30.0
62
5
63
7
74
1
91
0
64
7
65
257
75
1
175
1
42
1.0
92
8
66
8
43
1.0
76
1
77
6
78
2
67
7
79
5
170
0
171
0
290
0
174
0
93
13
44
0.0
173
0
291
0
45
0.0
1001
ACAD
1000
AcDbSavedByObjectVersion
1070
0
0
VISUALSTYLE
5
FA0
102
{ACAD_XDICTIONARY
360
1098
102
}
102
{ACAD_REACTORS
330
F93
102
}
330
F93
100
AcDbVisualStyle
2

70
13
71
2
72
2
73
0
90
0
40
-0.6
41
-30.0
62
5
63
7
74
1
91
4
64
7
65
257
75
1
175
1
42
1.0
92
12
66
7
43
1.0
76
1
77
6
78
2
67
7
79
5
170
0
171
0
290
0
174
0
93
1
44
0.0
173
0
291
1
45
0.0
1001
ACAD
1000
AcDbSavedByObjectVersion
1070
0
0
DICTIONARYVAR
5
FF3
102
{ACAD_REACTORS
330
FF0
102
}
330
FF0
100
DictionaryVariables
280
0
1
1:1
0
DICTIONARYVAR
5
FF2
102
{ACAD_REACTORS
330
FF0
102
}
330
FF0
100
DictionaryVariables
280
0
1
STANDARD
0
DICTIONARYVAR
5
FF1
102
{ACAD_REACTORS
330
FF0
102
}
330
FF0
100
DictionaryVariables
280
0
1
STANDARD
0
DICTIONARYVAR
5
FF6
102
{ACAD_REACTORS
330
FF0
102
}
330
FF0
100
DictionaryVariables
280
0
1
1
0
DICTIONARYVAR
5
FF5
102
{ACAD_REACTORS
330
FF0
102
}
330
FF0
100
DictionaryVariables
280
0
1
0
0
DICTIONARYVAR
5
FF4
102
{ACAD_REACTORS
330
FF0
102
}
330
FF0
100
DictionaryVariables
280
0
1
127
0
DICTIONARYVAR
5
1078
102
{ACAD_REACTORS
330
FF0
102
}
330
FF0
100
DictionaryVariables
280
0
1
2
0
DICTIONARY
5
10A9
330
FD1
100
AcDbDictionary
280
1
281
1
3
ACAD_XREC_ROUNDTRIP
360
10AA
0
DICTIONARY
5
10A7
330
FD0
100
AcDbDictionary
280
1
281
1
3
ACAD_XREC_ROUNDTRIP
360
10A8
0
DICTIONARY
5
F84
330
F83
100
AcDbDictionary
280
1
281
1
3
ACAD_XREC_ROUNDTRIP
360
FFF
3
BUMPTILE
360
F86
3
DIFFUSETILE
360
F85
3
OPACITYTILE
360
F89
3
REFLECTIONTILE
360
F88
3
REFRACTIONTILE
360
F8A
3
SPECULARTILE
360
F87
0
DICTIONARY
5
F7C
330
F7B
100
AcDbDictionary
280
1
281
1
3
ACAD_XREC_ROUNDTRIP
360
FFE
3
BUMPTILE
360
F7E
3
DIFFUSETILE
360
F7D
3
OPACITYTILE
360
F81
3
REFLECTIONTILE
360
F80
3
REFRACTIONTILE
360
F82
3
SPECULARTILE
360
F7F
0
DICTIONARY
5
F8C
330
F8B
100
AcDbDictionary
280
1
281
1
3
ACAD_XREC_ROUNDTRIP
360
1000
3
BUMPTILE
360
F8E
3
DIFFUSETILE
360
F8D
3
OPACITYTILE
360
F91
3
REFLECTIONTILE
360
F90
3
REFRACTIONTILE
360
F92
3
SPECULARTILE
360
F8F
0
DICTIONARY
5
FF8
330
FA9
100
AcDbDictionary
280
1
281
1
3
ACAD_ROUNDTRIP_2008_TABLESTYLE_CELLSTYLEMAP
360
1079
3
ACAD_XREC_ROUNDTRIP
360
10A6
0
DICTIONARY
5
108A
330
F99
100
AcDbDictionary
280
1
281
1
3
ACAD_XREC_ROUNDTRIP
360
108B
0
DICTIONARY
5
108E
330
F9B
100
AcDbDictionary
280
1
281
1
3
ACAD_XREC_ROUNDTRIP
360
108F
0
DICTIONARY
5
108C
330
F9A
100
AcDbDictionary
280
1
281
1
3
ACAD_XREC_ROUNDTRIP
360
108D
0
DICTIONARY
5
1088
330
F98
100
AcDbDictionary
280
1
281
1
3
ACAD_XREC_ROUNDTRIP
360
1089
0
DICTIONARY
5
1096
330
F9F
100
AcDbDictionary
280
1
281
1
3
ACAD_XREC_ROUNDTRIP
360
1097
0
DICTIONARY
5
109E
330
FA3
100
AcDbDictionary
280
1
281
1
3
ACAD_XREC_ROUNDTRIP
360
109F
0
DICTIONARY
5
1090
330
F9C
100
AcDbDictionary
280
1
281
1
3
ACAD_XREC_ROUNDTRIP
360
1091
0
DICTIONARY
5
1094
330
F9E
100
AcDbDictionary
280
1
281
1
3
ACAD_XREC_ROUNDTRIP
360
1095
0
DICTIONARY
5
10A4
330
FA6
100
AcDbDictionary
280
1
281
1
3
ACAD_XREC_ROUNDTRIP
360
10A5
0
DICTIONARY
5
109C
330
FA2
100
AcDbDictionary
280
1
281
1
3
ACAD_XREC_ROUNDTRIP
360
109D
0
DICTIONARY
5
1080
330
F94
100
AcDbDictionary
280
1
281
1
3
ACAD_XREC_ROUNDTRIP
360
1081
0
DICTIONARY
5
1082
330
F95
100
AcDbDictionary
280
1
281
1
3
ACAD_XREC_ROUNDTRIP
360
1083
0
DICTIONARY
5
1084
330
F96
100
AcDbDictionary
280
1
281
1
3
ACAD_XREC_ROUNDTRIP
360
1085
0
DICTIONARY
5
1086
330
F97
100
AcDbDictionary
280
1
281
1
3
ACAD_XREC_ROUNDTRIP
360
1087
0
DICTIONARY
5
10A0
330
FA4
100
AcDbDictionary
280
1
281
1
3
ACAD_XREC_ROUNDTRIP
360
10A1
0
DICTIONARY
5
109A
330
FA1
100
AcDbDictionary
280
1
281
1
3
ACAD_XREC_ROUNDTRIP
360
109B
0
DICTIONARY
5
10A2
330
FA5
100
AcDbDictionary
280
1
281
1
3
ACAD_XREC_ROUNDTRIP
360
10A3
0
DICTIONARY
5
1092
330
F9D
100
AcDbDictionary
280
1
281
1
3
ACAD_XREC_ROUNDTRIP
360
1093
0
DICTIONARY
5
1098
330
FA0
100
AcDbDictionary
280
1
281
1
3
ACAD_XREC_ROUNDTRIP
360
1099
0
XRECORD
5
10AA
102
{ACAD_REACTORS
330
10A9
102
}
330
10A9
100
AcDbXrecord
280
1
102
SHADEPLOT
70
0
102
SHADEPLOTRESLEVEL
70
2
102
SHADEPLOTCUSTOMDPI
70
300
0
XRECORD
5
10A8
102
{ACAD_REACTORS
330
10A7
102
}
330
10A7
100
AcDbXrecord
280
1
102
SHADEPLOT
70
0
102
SHADEPLOTRESLEVEL
70
2
102
SHADEPLOTCUSTOMDPI
70
300
0
XRECORD
5
FFF
102
{ACAD_REACTORS
330
F84
102
}
330
F84
100
AcDbXrecord
280
1
102
MATERIAL
148
0.0
149
0.0
149
0.0
93
0
94
127
282
0
72
0
77
0
171
0
175
0
179
0
273
0
0
XRECORD
5
F86
102
{ACAD_REACTORS
330
F84
102
}
330
F84
100
AcDbXrecord
280
1
270
1
271
1
0
XRECORD
5
F85
102
{ACAD_REACTORS
330
F84
102
}
330
F84
100
AcDbXrecord
280
1
270
1
271
1
0
XRECORD
5
F89
102
{ACAD_REACTORS
330
F84
102
}
330
F84
100
AcDbXrecord
280
1
270
1
271
1
0
XRECORD
5
F88
102
{ACAD_REACTORS
330
F84
102
}
330
F84
100
AcDbXrecord
280
1
270
1
271
1
0
XRECORD
5
F8A
102
{ACAD_REACTORS
330
F84
102
}
330
F84
100
AcDbXrecord
280
1
270
1
271
1
0
XRECORD
5
F87
102
{ACAD_REACTORS
330
F84
102
}
330
F84
100
AcDbXrecord
280
1
270
1
271
1
0
XRECORD
5
FFE
102
{ACAD_REACTORS
330
F7C
102
}
330
F7C
100
AcDbXrecord
280
1
102
MATERIAL
148
0.0
149
0.0
149
0.0
93
0
94
127
282
0
72
0
77
0
171
0
175
0
179
0
273
0
0
XRECORD
5
F7E
102
{ACAD_REACTORS
330
F7C
102
}
330
F7C
100
AcDbXrecord
280
1
270
1
271
1
0
XRECORD
5
F7D
102
{ACAD_REACTORS
330
F7C
102
}
330
F7C
100
AcDbXrecord
280
1
270
1
271
1
0
XRECORD
5
F81
102
{ACAD_REACTORS
330
F7C
102
}
330
F7C
100
AcDbXrecord
280
1
270
1
271
1
0
XRECORD
5
F80
102
{ACAD_REACTORS
330
F7C
102
}
330
F7C
100
AcDbXrecord
280
1
270
1
271
1
0
XRECORD
5
F82
102
{ACAD_REACTORS
330
F7C
102
}
330
F7C
100
AcDbXrecord
280
1
270
1
271
1
0
XRECORD
5
F7F
102
{ACAD_REACTORS
330
F7C
102
}
330
F7C
100
AcDbXrecord
280
1
270
1
271
1
0
XRECORD
5
1000
102
{ACAD_REACTORS
330
F8C
102
}
330
F8C
100
AcDbXrecord
280
1
102
MATERIAL
148
0.0
149
0.0
149
0.0
93
0
94
127
282
0
72
0
77
0
171
0
175
0
179
0
273
0
0
XRECORD
5
F8E
102
{ACAD_REACTORS
330
F8C
102
}
330
F8C
100
AcDbXrecord
280
1
270
1
271
1
0
XRECORD
5
F8D
102
{ACAD_REACTORS
330
F8C
102
}
330
F8C
100
AcDbXrecord
280
1
270
1
271
1
0
XRECORD
5
F91
102
{ACAD_REACTORS
330
F8C
102
}
330
F8C
100
AcDbXrecord
280
1
270
1
271
1
0
XRECORD
5
F90
102
{ACAD_REACTORS
330
F8C
102
}
330
F8C
100
AcDbXrecord
280
1
270
1
271
1
0
XRECORD
5
F92
102
{ACAD_REACTORS
330
F8C
102
}
330
F8C
100
AcDbXrecord
280
1
270
1
271
1
0
XRECORD
5
F8F
102
{ACAD_REACTORS
330
F8C
102
}
330
F8C
100
AcDbXrecord
280
1
270
1
271
1
0
CELLSTYLEMAP
5
1079
102
{ACAD_REACTORS
330
FF8
102
}
330
FF8
100
AcDbCellStyleMap
90
3
300
CELLSTYLE
1
TABLEFORMAT_BEGIN
90
5
170
1
91
0
92
32768
62
257
93
1
300
CONTENTFORMAT
1
CONTENTFORMAT_BEGIN
90
0
91
0
92
512
93
0
300

40
0.0
140
1.0
94
5
62
0
340
253
144
0.25
309
CONTENTFORMAT_END
171
1
301
MARGIN
1
CELLMARGIN_BEGIN
40
0.06
40
0.06
40
0.06
40
0.06
40
0.18
40
0.18
309
CELLMARGIN_END
94
6
95
1
302
GRIDFORMAT
1
GRIDFORMAT_BEGIN
90
0
91
1
62
0
92
-2
340
0
93
0
40
0.045
309
GRIDFORMAT_END
95
2
302
GRIDFORMAT
1
GRIDFORMAT_BEGIN
90
0
91
1
62
0
92
-2
340
0
93
0
40
0.045
309
GRIDFORMAT_END
95
4
302
GRIDFORMAT
1
GRIDFORMAT_BEGIN
90
0
91
1
62
0
92
-2
340
0
93
0
40
0.045
309
GRIDFORMAT_END
95
8
302
GRIDFORMAT
1
GRIDFORMAT_BEGIN
90
0
91
1
62
0
92
-2
340
0
93
0
40
0.045
309
GRIDFORMAT_END
95
16
302
GRIDFORMAT
1
GRIDFORMAT_BEGIN
90
0
91
1
62
0
92
-2
340
0
93
0
40
0.045
309
GRIDFORMAT_END
95
32
302
GRIDFORMAT
1
GRIDFORMAT_BEGIN
90
0
91
1
62
0
92
-2
340
0
93
0
40
0.045
309
GRIDFORMAT_END
309
TABLEFORMAT_END
1
CELLSTYLE_BEGIN
90
1
91
1
300
_TITLE
309
CELLSTYLE_END
300
CELLSTYLE
1
TABLEFORMAT_BEGIN
90
5
170
1
91
0
92
0
62
257
93
1
300
CONTENTFORMAT
1
CONTENTFORMAT_BEGIN
90
0
91
0
92
512
93
0
300

40
0.0
140
1.0
94
5
62
0
340
253
144
0.18
309
CONTENTFORMAT_END
171
1
301
MARGIN
1
CELLMARGIN_BEGIN
40
0.06
40
0.06
40
0.06
40
0.06
40
0.18
40
0.18
309
CELLMARGIN_END
94
6
95
1
302
GRIDFORMAT
1
GRIDFORMAT_BEGIN
90
0
91
1
62
0
92
-2
340
0
93
0
40
0.045
309
GRIDFORMAT_END
95
2
302
GRIDFORMAT
1
GRIDFORMAT_BEGIN
90
0
91
1
62
0
92
-2
340
0
93
0
40
0.045
309
GRIDFORMAT_END
95
4
302
GRIDFORMAT
1
GRIDFORMAT_BEGIN
90
0
91
1
62
0
92
-2
340
0
93
0
40
0.045
309
GRIDFORMAT_END
95
8
302
GRIDFORMAT
1
GRIDFORMAT_BEGIN
90
0
91
1
62
0
92
-2
340
0
93
0
40
0.045
309
GRIDFORMAT_END
95
16
302
GRIDFORMAT
1
GRIDFORMAT_BEGIN
90
0
91
1
62
0
92
-2
340
0
93
0
40
0.045
309
GRIDFORMAT_END
95
32
302
GRIDFORMAT
1
GRIDFORMAT_BEGIN
90
0
91
1
62
0
92
-2
340
0
93
0
40
0.045
309
GRIDFORMAT_END
309
TABLEFORMAT_END
1
CELLSTYLE_BEGIN
90
2
91
1
300
_HEADER
309
CELLSTYLE_END
300
CELLSTYLE
1
TABLEFORMAT_BEGIN
90
5
170
1
91
0
92
0
62
257
93
1
300
CONTENTFORMAT
1
CONTENTFORMAT_BEGIN
90
0
91
0
92
512
93
0
300

40
0.0
140
1.0
94
2
62
0
340
253
144
0.18
309
CONTENTFORMAT_END
171
1
301
MARGIN
1
CELLMARGIN_BEGIN
40
0.06
40
0.06
40
0.06
40
0.06
40
0.18
40
0.18
309
CELLMARGIN_END
94
6
95
1
302
GRIDFORMAT
1
GRIDFORMAT_BEGIN
90
0
91
1
62
0
92
-2
340
0
93
0
40
0.045
309
GRIDFORMAT_END
95
2
302
GRIDFORMAT
1
GRIDFORMAT_BEGIN
90
0
91
1
62
0
92
-2
340
0
93
0
40
0.045
309
GRIDFORMAT_END
95
4
302
GRIDFORMAT
1
GRIDFORMAT_BEGIN
90
0
91
1
62
0
92
-2
340
0
93
0
40
0.045
309
GRIDFORMAT_END
95
8
302
GRIDFORMAT
1
GRIDFORMAT_BEGIN
90
0
91
1
62
0
92
-2
340
0
93
0
40
0.045
309
GRIDFORMAT_END
95
16
302
GRIDFORMAT
1
GRIDFORMAT_BEGIN
90
0
91
1
62
0
92
-2
340
0
93
0
40
0.045
309
GRIDFORMAT_END
95
32
302
GRIDFORMAT
1
GRIDFORMAT_BEGIN
90
0
91
1
62
0
92
-2
340
0
93
0
40
0.045
309
GRIDFORMAT_END
309
TABLEFORMAT_END
1
CELLSTYLE_BEGIN
90
3
91
2
300
_DATA
309
CELLSTYLE_END
0
XRECORD
5
10A6
102
{ACAD_REACTORS
330
FF8
102
}
330
FF8
100
AcDbXrecord
280
1
102
ACAD_ROUNDTRIP_PRE2007_TABLESTYLE
90
512
91
0
1

92
512
93
0
2

94
512
95
0
3

0
XRECORD
5
108B
102
{ACAD_REACTORS
330
108A
102
}
330
108A
100
AcDbXrecord
280
1
102
RTVSPropertyOp0
70
1
102
RTVSPropertyOp1
70
1
102
RTVSPropertyOp2
70
1
102
RTVSPropertyOp3
70
1
102
RTVSPropertyOp4
70
1
102
RTVSPropertyOp5
70
1
102
RTVSPropertyOp6
70
1
102
RTVSPropertyOp7
70
1
102
RTVSPropertyOp8
70
1
102
RTVSPropertyOp9
70
1
102
RTVSPropertyOp10
70
1
102
RTVSPropertyOp11
70
1
102
RTVSPropertyOp12
70
1
102
RTVSPropertyOp13
70
1
102
RTVSPropertyOp14
70
1
102
RTVSPropertyOp15
70
1
102
RTVSPropertyOp16
70
1
102
RTVSPropertyOp17
70
1
102
RTVSPropertyOp18
70
1
102
RTVSPropertyOp19
70
1
102
RTVSPropertyOp20
70
1
102
RTVSPropertyOp21
70
1
102
RTVSPropertyOp22
70
1
102
RTVSPropertyOp23
70
1
102
RTVSPropertyOp24
70
1
102
RTVSPropertyOp25
70
1
102
RTVSPropertyOp26
70
1
102
RTVSPropertyOp27
70
1
0
XRECORD
5
108F
102
{ACAD_REACTORS
330
108E
102
}
330
108E
100
AcDbXrecord
280
1
102
RTVSPropertyOp0
70
1
102
RTVSPropertyOp1
70
1
102
RTVSPropertyOp2
70
1
102
RTVSPropertyOp3
70
1
102
RTVSPropertyOp4
70
1
102
RTVSPropertyOp5
70
1
102
RTVSPropertyOp6
70
1
102
RTVSPropertyOp7
70
1
102
RTVSPropertyOp8
70
1
102
RTVSPropertyOp9
70
1
102
RTVSPropertyOp10
70
1
102
RTVSPropertyOp11
70
1
102
RTVSPropertyOp12
70
1
102
RTVSPropertyOp13
70
1
102
RTVSPropertyOp14
70
1
102
RTVSPropertyOp15
70
1
102
RTVSPropertyOp16
70
1
102
RTVSPropertyOp17
70
1
102
RTVSPropertyOp18
70
1
102
RTVSPropertyOp19
70
1
102
RTVSPropertyOp20
70
1
102
RTVSPropertyOp21
70
1
102
RTVSPropertyOp22
70
1
102
RTVSPropertyOp23
70
1
102
RTVSPropertyOp24
70
1
102
RTVSPropertyOp25
70
1
102
RTVSPropertyOp26
70
1
102
RTVSPropertyOp27
70
1
0
XRECORD
5
108D
102
{ACAD_REACTORS
330
108C
102
}
330
108C
100
AcDbXrecord
280
1
102
RTVSPropertyOp0
70
1
102
RTVSPropertyOp1
70
1
102
RTVSPropertyOp2
70
1
102
RTVSPropertyOp3
70
1
102
RTVSPropertyOp4
70
1
102
RTVSPropertyOp5
70
1
102
RTVSPropertyOp6
70
1
102
RTVSPropertyOp7
70
1
102
RTVSPropertyOp8
70
1
102
RTVSPropertyOp9
70
1
102
RTVSPropertyOp10
70
1
102
RTVSPropertyOp11
70
1
102
RTVSPropertyOp12
70
1
102
RTVSPropertyOp13
70
1
102
RTVSPropertyOp14
70
1
102
RTVSPropertyOp15
70
1
102
RTVSPropertyOp16
70
1
102
RTVSPropertyOp17
70
1
102
RTVSPropertyOp18
70
1
102
RTVSPropertyOp19
70
1
102
RTVSPropertyOp20
70
1
102
RTVSPropertyOp21
70
1
102
RTVSPropertyOp22
70
1
102
RTVSPropertyOp23
70
1
102
RTVSPropertyOp24
70
1
102
RTVSPropertyOp25
70
1
102
RTVSPropertyOp26
70
1
102
RTVSPropertyOp27
70
1
0
XRECORD
5
1089
102
{ACAD_REACTORS
330
1088
102
}
330
1088
100
AcDbXrecord
280
1
102
RTVSPropertyOp0
70
1
102
RTVSPropertyOp1
70
1
102
RTVSPropertyOp2
70
1
102
RTVSPropertyOp3
70
1
102
RTVSPropertyOp4
70
1
102
RTVSPropertyOp5
70
1
102
RTVSPropertyOp6
70
1
102
RTVSPropertyOp7
70
1
102
RTVSPropertyOp8
70
1
102
RTVSPropertyOp9
70
1
102
RTVSPropertyOp10
70
1
102
RTVSPropertyOp11
70
1
102
RTVSPropertyOp12
70
1
102
RTVSPropertyOp13
70
1
102
RTVSPropertyOp14
70
1
102
RTVSPropertyOp15
70
1
102
RTVSPropertyOp16
70
1
102
RTVSPropertyOp17
70
1
102
RTVSPropertyOp18
70
1
102
RTVSPropertyOp19
70
1
102
RTVSPropertyOp20
70
1
102
RTVSPropertyOp21
70
1
102
RTVSPropertyOp22
70
1
102
RTVSPropertyOp23
70
1
102
RTVSPropertyOp24
70
1
102
RTVSPropertyOp25
70
1
102
RTVSPropertyOp26
70
1
102
RTVSPropertyOp27
70
1
0
XRECORD
5
1097
102
{ACAD_REACTORS
330
1096
102
}
330
1096
100
AcDbXrecord
280
1
102
RTVSPropertyOp0
70
1
102
RTVSPropertyOp1
70
1
102
RTVSPropertyOp2
70
1
102
RTVSPropertyOp3
70
1
102
RTVSPropertyOp4
70
1
102
RTVSPropertyOp5
70
1
102
RTVSPropertyOp6
70
1
102
RTVSPropertyOp7
70
1
102
RTVSPropertyOp8
70
1
102
RTVSPropertyOp9
70
1
102
RTVSPropertyOp10
70
1
102
RTVSPropertyOp11
70
1
102
RTVSPropertyOp12
70
1
102
RTVSPropertyOp13
70
1
102
RTVSPropertyOp14
70
1
102
RTVSPropertyOp15
70
1
102
RTVSPropertyOp16
70
1
102
RTVSPropertyOp17
70
1
102
RTVSPropertyOp18
70
1
102
RTVSPropertyOp19
70
1
102
RTVSPropertyOp20
70
1
102
RTVSPropertyOp21
70
1
102
RTVSPropertyOp22
70
1
102
RTVSPropertyOp23
70
1
102
RTVSPropertyOp24
70
1
102
RTVSPropertyOp25
70
1
102
RTVSPropertyOp26
70
1
102
RTVSPropertyOp27
70
1
0
XRECORD
5
109F
102
{ACAD_REACTORS
330
109E
102
}
330
109E
100
AcDbXrecord
280
1
102
RTVSPropertyOp0
70
1
102
RTVSPropertyOp1
70
1
102
RTVSPropertyOp2
70
1
102
RTVSPropertyOp3
70
1
102
RTVSPropertyOp4
70
1
102
RTVSPropertyOp5
70
1
102
RTVSPropertyOp6
70
1
102
RTVSPropertyOp7
70
1
102
RTVSPropertyOp8
70
1
102
RTVSPropertyOp9
70
1
102
RTVSPropertyOp10
70
1
102
RTVSPropertyOp11
70
1
102
RTVSPropertyOp12
70
1
102
RTVSPropertyOp13
70
1
102
RTVSPropertyOp14
70
1
102
RTVSPropertyOp15
70
1
102
RTVSPropertyOp16
70
1
102
RTVSPropertyOp17
70
1
102
RTVSPropertyOp18
70
1
102
RTVSPropertyOp19
70
1
102
RTVSPropertyOp20
70
1
102
RTVSPropertyOp21
70
1
102
RTVSPropertyOp22
70
1
102
RTVSPropertyOp23
70
1
102
RTVSPropertyOp24
70
1
102
RTVSPropertyOp25
70
1
102
RTVSPropertyOp26
70
1
102
RTVSPropertyOp27
70
1
0
XRECORD
5
1091
102
{ACAD_REACTORS
330
1090
102
}
330
1090
100
AcDbXrecord
280
1
102
RTVSPropertyOp0
70
1
102
RTVSPropertyOp1
70
1
102
RTVSPropertyOp2
70
1
102
RTVSPropertyOp3
70
1
102
RTVSPropertyOp4
70
1
102
RTVSPropertyOp5
70
1
102
RTVSPropertyOp6
70
1
102
RTVSPropertyOp7
70
1
102
RTVSPropertyOp8
70
1
102
RTVSPropertyOp9
70
1
102
RTVSPropertyOp10
70
1
102
RTVSPropertyOp11
70
1
102
RTVSPropertyOp12
70
1
102
RTVSPropertyOp13
70
1
102
RTVSPropertyOp14
70
1
102
RTVSPropertyOp15
70
1
102
RTVSPropertyOp16
70
1
102
RTVSPropertyOp17
70
1
102
RTVSPropertyOp18
70
1
102
RTVSPropertyOp19
70
1
102
RTVSPropertyOp20
70
1
102
RTVSPropertyOp21
70
1
102
RTVSPropertyOp22
70
1
102
RTVSPropertyOp23
70
1
102
RTVSPropertyOp24
70
1
102
RTVSPropertyOp25
70
1
102
RTVSPropertyOp26
70
1
102
RTVSPropertyOp27
70
1
0
XRECORD
5
1095
102
{ACAD_REACTORS
330
1094
102
}
330
1094
100
AcDbXrecord
280
1
102
RTVSPropertyOp0
70
1
102
RTVSPropertyOp1
70
1
102
RTVSPropertyOp2
70
1
102
RTVSPropertyOp3
70
1
102
RTVSPropertyOp4
70
1
102
RTVSPropertyOp5
70
1
102
RTVSPropertyOp6
70
1
102
RTVSPropertyOp7
70
1
102
RTVSPropertyOp8
70
1
102
RTVSPropertyOp9
70
1
102
RTVSPropertyOp10
70
1
102
RTVSPropertyOp11
70
1
102
RTVSPropertyOp12
70
1
102
RTVSPropertyOp13
70
1
102
RTVSPropertyOp14
70
1
102
RTVSPropertyOp15
70
1
102
RTVSPropertyOp16
70
1
102
RTVSPropertyOp17
70
1
102
RTVSPropertyOp18
70
1
102
RTVSPropertyOp19
70
1
102
RTVSPropertyOp20
70
1
102
RTVSPropertyOp21
70
1
102
RTVSPropertyOp22
70
1
102
RTVSPropertyOp23
70
1
102
RTVSPropertyOp24
70
1
102
RTVSPropertyOp25
70
1
102
RTVSPropertyOp26
70
1
102
RTVSPropertyOp27
70
1
0
XRECORD
5
10A5
102
{ACAD_REACTORS
330
10A4
102
}
330
10A4
100
AcDbXrecord
280
1
102
RTVSPropertyOp0
70
0
102
RTVSPropertyOp1
70
0
102
RTVSPropertyOp2
70
0
102
RTVSPropertyOp3
70
0
102
RTVSPropertyOp4
70
0
102
RTVSPropertyOp5
70
0
102
RTVSPropertyOp6
70
0
102
RTVSPropertyOp7
70
0
102
RTVSPropertyOp8
70
0
102
RTVSPropertyOp9
70
0
102
RTVSPropertyOp10
70
0
102
RTVSPropertyOp11
70
0
102
RTVSPropertyOp12
70
0
102
RTVSPropertyOp13
70
0
102
RTVSPropertyOp14
70
2
102
RTVSPropertyOp15
70
0
102
RTVSPropertyOp16
70
0
102
RTVSPropertyOp17
70
0
102
RTVSPropertyOp18
70
0
102
RTVSPropertyOp19
70
0
102
RTVSPropertyOp20
70
0
102
RTVSPropertyOp21
70
0
102
RTVSPropertyOp22
70
0
102
RTVSPropertyOp23
70
0
102
RTVSPropertyOp24
70
0
102
RTVSPropertyOp25
70
0
102
RTVSPropertyOp26
70
0
102
RTVSPropertyOp27
70
0
0
XRECORD
5
109D
102
{ACAD_REACTORS
330
109C
102
}
330
109C
100
AcDbXrecord
280
1
102
RTVSPropertyOp0
70
1
102
RTVSPropertyOp1
70
1
102
RTVSPropertyOp2
70
1
102
RTVSPropertyOp3
70
1
102
RTVSPropertyOp4
70
1
102
RTVSPropertyOp5
70
1
102
RTVSPropertyOp6
70
1
102
RTVSPropertyOp7
70
1
102
RTVSPropertyOp8
70
1
102
RTVSPropertyOp9
70
1
102
RTVSPropertyOp10
70
1
102
RTVSPropertyOp11
70
1
102
RTVSPropertyOp12
70
1
102
RTVSPropertyOp13
70
1
102
RTVSPropertyOp14
70
1
102
RTVSPropertyOp15
70
1
102
RTVSPropertyOp16
70
1
102
RTVSPropertyOp17
70
1
102
RTVSPropertyOp18
70
1
102
RTVSPropertyOp19
70
1
102
RTVSPropertyOp20
70
1
102
RTVSPropertyOp21
70
1
102
RTVSPropertyOp22
70
1
102
RTVSPropertyOp23
70
1
102
RTVSPropertyOp24
70
1
102
RTVSPropertyOp25
70
1
102
RTVSPropertyOp26
70
1
102
RTVSPropertyOp27
70
1
0
XRECORD
5
1081
102
{ACAD_REACTORS
330
1080
102
}
330
1080
100
AcDbXrecord
280
1
102
RTVSPropertyOp0
70
1
102
RTVSPropertyOp1
70
1
102
RTVSPropertyOp2
70
1
102
RTVSPropertyOp3
70
1
102
RTVSPropertyOp4
70
1
102
RTVSPropertyOp5
70
1
102
RTVSPropertyOp6
70
1
102
RTVSPropertyOp7
70
1
102
RTVSPropertyOp8
70
1
102
RTVSPropertyOp9
70
1
102
RTVSPropertyOp10
70
1
102
RTVSPropertyOp11
70
1
102
RTVSPropertyOp12
70
1
102
RTVSPropertyOp13
70
1
102
RTVSPropertyOp14
70
1
102
RTVSPropertyOp15
70
1
102
RTVSPropertyOp16
70
1
102
RTVSPropertyOp17
70
1
102
RTVSPropertyOp18
70
1
102
RTVSPropertyOp19
70
1
102
RTVSPropertyOp20
70
1
102
RTVSPropertyOp21
70
1
102
RTVSPropertyOp22
70
1
102
RTVSPropertyOp23
70
1
102
RTVSPropertyOp24
70
1
102
RTVSPropertyOp25
70
1
102
RTVSPropertyOp26
70
1
102
RTVSPropertyOp27
70
1
0
XRECORD
5
1083
102
{ACAD_REACTORS
330
1082
102
}
330
1082
100
AcDbXrecord
280
1
102
RTVSPropertyOp0
70
1
102
RTVSPropertyOp1
70
1
102
RTVSPropertyOp2
70
1
102
RTVSPropertyOp3
70
1
102
RTVSPropertyOp4
70
1
102
RTVSPropertyOp5
70
1
102
RTVSPropertyOp6
70
1
102
RTVSPropertyOp7
70
1
102
RTVSPropertyOp8
70
1
102
RTVSPropertyOp9
70
1
102
RTVSPropertyOp10
70
1
102
RTVSPropertyOp11
70
1
102
RTVSPropertyOp12
70
1
102
RTVSPropertyOp13
70
1
102
RTVSPropertyOp14
70
1
102
RTVSPropertyOp15
70
1
102
RTVSPropertyOp16
70
1
102
RTVSPropertyOp17
70
1
102
RTVSPropertyOp18
70
1
102
RTVSPropertyOp19
70
1
102
RTVSPropertyOp20
70
1
102
RTVSPropertyOp21
70
1
102
RTVSPropertyOp22
70
1
102
RTVSPropertyOp23
70
1
102
RTVSPropertyOp24
70
1
102
RTVSPropertyOp25
70
1
102
RTVSPropertyOp26
70
1
102
RTVSPropertyOp27
70
1
0
XRECORD
5
1085
102
{ACAD_REACTORS
330
1084
102
}
330
1084
100
AcDbXrecord
280
1
102
RTVSPropertyOp0
70
1
102
RTVSPropertyOp1
70
1
102
RTVSPropertyOp2
70
1
102
RTVSPropertyOp3
70
1
102
RTVSPropertyOp4
70
1
102
RTVSPropertyOp5
70
1
102
RTVSPropertyOp6
70
1
102
RTVSPropertyOp7
70
1
102
RTVSPropertyOp8
70
1
102
RTVSPropertyOp9
70
1
102
RTVSPropertyOp10
70
1
102
RTVSPropertyOp11
70
1
102
RTVSPropertyOp12
70
1
102
RTVSPropertyOp13
70
1
102
RTVSPropertyOp14
70
1
102
RTVSPropertyOp15
70
1
102
RTVSPropertyOp16
70
1
102
RTVSPropertyOp17
70
1
102
RTVSPropertyOp18
70
1
102
RTVSPropertyOp19
70
1
102
RTVSPropertyOp20
70
1
102
RTVSPropertyOp21
70
1
102
RTVSPropertyOp22
70
1
102
RTVSPropertyOp23
70
1
102
RTVSPropertyOp24
70
1
102
RTVSPropertyOp25
70
1
102
RTVSPropertyOp26
70
1
102
RTVSPropertyOp27
70
1
0
XRECORD
5
1087
102
{ACAD_REACTORS
330
1086
102
}
330
1086
100
AcDbXrecord
280
1
102
RTVSPropertyOp0
70
1
102
RTVSPropertyOp1
70
1
102
RTVSPropertyOp2
70
1
102
RTVSPropertyOp3
70
1
102
RTVSPropertyOp4
70
1
102
RTVSPropertyOp5
70
1
102
RTVSPropertyOp6
70
1
102
RTVSPropertyOp7
70
1
102
RTVSPropertyOp8
70
1
102
RTVSPropertyOp9
70
1
102
RTVSPropertyOp10
70
1
102
RTVSPropertyOp11
70
1
102
RTVSPropertyOp12
70
1
102
RTVSPropertyOp13
70
1
102
RTVSPropertyOp14
70
1
102
RTVSPropertyOp15
70
1
102
RTVSPropertyOp16
70
1
102
RTVSPropertyOp17
70
1
102
RTVSPropertyOp18
70
1
102
RTVSPropertyOp19
70
1
102
RTVSPropertyOp20
70
1
102
RTVSPropertyOp21
70
1
102
RTVSPropertyOp22
70
1
102
RTVSPropertyOp23
70
1
102
RTVSPropertyOp24
70
1
102
RTVSPropertyOp25
70
1
102
RTVSPropertyOp26
70
1
102
RTVSPropertyOp27
70
1
0
XRECORD
5
10A1
102
{ACAD_REACTORS
330
10A0
102
}
330
10A0
100
AcDbXrecord
280
1
102
RTVSPropertyOp0
70
0
102
RTVSPropertyOp1
70
0
102
RTVSPropertyOp2
70
0
102
RTVSPropertyOp3
70
0
102
RTVSPropertyOp4
70
0
102
RTVSPropertyOp5
70
0
102
RTVSPropertyOp6
70
0
102
RTVSPropertyOp7
70
0
102
RTVSPropertyOp8
70
0
102
RTVSPropertyOp9
70
0
102
RTVSPropertyOp10
70
0
102
RTVSPropertyOp11
70
0
102
RTVSPropertyOp12
70
0
102
RTVSPropertyOp13
70
0
102
RTVSPropertyOp14
70
2
102
RTVSPropertyOp15
70
0
102
RTVSPropertyOp16
70
0
102
RTVSPropertyOp17
70
0
102
RTVSPropertyOp18
70
0
102
RTVSPropertyOp19
70
0
102
RTVSPropertyOp20
70
0
102
RTVSPropertyOp21
70
0
102
RTVSPropertyOp22
70
0
102
RTVSPropertyOp23
70
0
102
RTVSPropertyOp24
70
0
102
RTVSPropertyOp25
70
0
102
RTVSPropertyOp26
70
0
102
RTVSPropertyOp27
70
0
0
XRECORD
5
109B
102
{ACAD_REACTORS
330
109A
102
}
330
109A
100
AcDbXrecord
280
1
102
RTVSPropertyOp0
70
1
102
RTVSPropertyOp1
70
1
102
RTVSPropertyOp2
70
1
102
RTVSPropertyOp3
70
1
102
RTVSPropertyOp4
70
1
102
RTVSPropertyOp5
70
1
102
RTVSPropertyOp6
70
1
102
RTVSPropertyOp7
70
1
102
RTVSPropertyOp8
70
1
102
RTVSPropertyOp9
70
1
102
RTVSPropertyOp10
70
1
102
RTVSPropertyOp11
70
1
102
RTVSPropertyOp12
70
1
102
RTVSPropertyOp13
70
1
102
RTVSPropertyOp14
70
1
102
RTVSPropertyOp15
70
1
102
RTVSPropertyOp16
70
1
102
RTVSPropertyOp17
70
1
102
RTVSPropertyOp18
70
1
102
RTVSPropertyOp19
70
1
102
RTVSPropertyOp20
70
1
102
RTVSPropertyOp21
70
1
102
RTVSPropertyOp22
70
1
102
RTVSPropertyOp23
70
1
102
RTVSPropertyOp24
70
1
102
RTVSPropertyOp25
70
1
102
RTVSPropertyOp26
70
1
102
RTVSPropertyOp27
70
1
0
XRECORD
5
10A3
102
{ACAD_REACTORS
330
10A2
102
}
330
10A2
100
AcDbXrecord
280
1
102
RTVSPropertyOp0
70
0
102
RTVSPropertyOp1
70
0
102
RTVSPropertyOp2
70
0
102
RTVSPropertyOp3
70
0
102
RTVSPropertyOp4
70
0
102
RTVSPropertyOp5
70
0
102
RTVSPropertyOp6
70
0
102
RTVSPropertyOp7
70
0
102
RTVSPropertyOp8
70
0
102
RTVSPropertyOp9
70
0
102
RTVSPropertyOp10
70
0
102
RTVSPropertyOp11
70
0
102
RTVSPropertyOp12
70
0
102
RTVSPropertyOp13
70
0
102
RTVSPropertyOp14
70
2
102
RTVSPropertyOp15
70
0
102
RTVSPropertyOp16
70
0
102
RTVSPropertyOp17
70
0
102
RTVSPropertyOp18
70
0
102
RTVSPropertyOp19
70
0
102
RTVSPropertyOp20
70
0
102
RTVSPropertyOp21
70
0
102
RTVSPropertyOp22
70
0
102
RTVSPropertyOp23
70
0
102
RTVSPropertyOp24
70
0
102
RTVSPropertyOp25
70
0
102
RTVSPropertyOp26
70
0
102
RTVSPropertyOp27
70
0
0
XRECORD
5
1093
102
{ACAD_REACTORS
330
1092
102
}
330
1092
100
AcDbXrecord
280
1
102
RTVSPropertyOp0
70
1
102
RTVSPropertyOp1
70
1
102
RTVSPropertyOp2
70
1
102
RTVSPropertyOp3
70
1
102
RTVSPropertyOp4
70
1
102
RTVSPropertyOp5
70
1
102
RTVSPropertyOp6
70
1
102
RTVSPropertyOp7
70
1
102
RTVSPropertyOp8
70
1
102
RTVSPropertyOp9
70
1
102
RTVSPropertyOp10
70
1
102
RTVSPropertyOp11
70
1
102
RTVSPropertyOp12
70
1
102
RTVSPropertyOp13
70
1
102
RTVSPropertyOp14
70
1
102
RTVSPropertyOp15
70
1
102
RTVSPropertyOp16
70
1
102
RTVSPropertyOp17
70
1
102
RTVSPropertyOp18
70
1
102
RTVSPropertyOp19
70
1
102
RTVSPropertyOp20
70
1
102
RTVSPropertyOp21
70
1
102
RTVSPropertyOp22
70
1
102
RTVSPropertyOp23
70
1
102
RTVSPropertyOp24
70
1
102
RTVSPropertyOp25
70
1
102
RTVSPropertyOp26
70
1
102
RTVSPropertyOp27
70
1
0
XRECORD
5
1099
102
{ACAD_REACTORS
330
1098
102
}
330
1098
100
AcDbXrecord
280
1
102
RTVSPropertyOp0
70
1
102
RTVSPropertyOp1
70
1
102
RTVSPropertyOp2
70
1
102
RTVSPropertyOp3
70
1
102
RTVSPropertyOp4
70
1
102
RTVSPropertyOp5
70
1
102
RTVSPropertyOp6
70
1
102
RTVSPropertyOp7
70
1
102
RTVSPropertyOp8
70
1
102
RTVSPropertyOp9
70
1
102
RTVSPropertyOp10
70
1
102
RTVSPropertyOp11
70
1
102
RTVSPropertyOp12
70
1
102
RTVSPropertyOp13
70
1
102
RTVSPropertyOp14
70
1
102
RTVSPropertyOp15
70
1
102
RTVSPropertyOp16
70
1
102
RTVSPropertyOp17
70
1
102
RTVSPropertyOp18
70
1
102
RTVSPropertyOp19
70
1
102
RTVSPropertyOp20
70
1
102
RTVSPropertyOp21
70
1
102
RTVSPropertyOp22
70
1
102
RTVSPropertyOp23
70
1
102
RTVSPropertyOp24
70
1
102
RTVSPropertyOp25
70
1
102
RTVSPropertyOp26
70
1
102
RTVSPropertyOp27
70
1
0
ENDSEC
0
EOF
