0
SECTION
2
HEADER
9
$ACADVER
1
AC1015
9
$ACADMAINTVER
70
20
9
$DWGCODEPAGE
3
ANSI_1252
9
$INSBASE
10
0.0
20
0.0
30
0.0
9
$EXTMIN
10
-150.000000000000
20
-105.000000000000
30
0.0
9
$EXTMAX
10
150.000000000000
20
105.000000000000
30
0.0
9
$LIMMIN
10
0.0
20
0.0
9
$LIMMAX
10
12.0
20
9.0
9
$ORTHOMODE
70
0
9
$REGENMODE
70
1
9
$FILLMODE
70
1
9
$QTEXTMODE
70
0
9
$MIRRTEXT
70
1
9
$LTSCALE
40
1.0
9
$ATTMODE
70
1
9
$TEXTSIZE
40
0.2
9
$TRACEWID
40
0.05
9
$TEXTSTYLE
7
Standard
9
$CLAYER
8
0
9
$CELTYPE
6
ByLayer
9
$CECOLOR
62
256
9
$CELTSCALE
40
1.0
9
$DISPSILH
70
0
9
$DIMSCALE
40
1.0
9
$DIMASZ
40
2.5
9
$DIMEXO
40
0.625
9
$DIMDLI
40
0.38
9
$DIMRND
40
0.0
9
$DIMDLE
40
0.0
9
$DIMEXE
40
1.25
9
$DIMTP
40
0.0
9
$DIMTM
40
0.000000001
9
$DIMTXT
40
2.5
9
$DIMCEN
40
0.09
9
$DIMTSZ
40
0.0
9
$DIMTOL
70
1
9
$DIMLIM
70
0
9
$DIMTIH
70
0
9
$DIMTOH
70
0
9
$DIMSE1
70
0
9
$DIMSE2
70
0
9
$DIMTAD
70
1
9
$DIMZIN
70
0
9
$DIMBLK
1
VDDIM_DEFAULT
9
$DIMASO
70
1
9
$DIMSHO
70
1
9
$DIMPOST
1

9
$DIMAPOST
1

9
$DIMALT
70
0
9
$DIMALTD
70
2
9
$DIMALTF
40
25.4
9
$DIMLFAC
40
1.00000000000000
9
$DIMTOFL
70
0
9
$DIMTVP
40
0.0
9
$DIMTIX
70
0
9
$DIMSOXD
70
0
9
$DIMSAH
70
0
9
$DIMBLK1
1

9
$DIMBLK2
1

9
$DIMSTYLE
2
BEM-ISBE
9
$DIMCLRD
70
0
9
$DIMCLRE
70
0
9
$DIMCLRT
70
0
9
$DIMTFAC
40
0.5
9
$DIMGAP
40
0.625
9
$DIMJUST
70
0
9
$DIMSD1
70
0
9
$DIMSD2
70
0
9
$DIMTOLJ
70
1
9
$DIMTZIN
70
0
9
$DIMALTZ
70
0
9
$DIMALTTZ
70
0
9
$DIMUPT
70
0
9
$DIMDEC
70
3
9
$DIMTDEC
70
3
9
$DIMALTU
70
2
9
$DIMALTTD
70
2
9
$DIMTXSTY
7
Standard
9
$DIMAUNIT
70
0
9
$DIMADEC
70
3
9
$DIMALTRND
40
0.0
9
$DIMAZIN
70
0
9
$DIMDSEP
70
46
9
$DIMATFIT
70
3
9
$DIMFRAC
70
0
9
$DIMLDRBLK
1

9
$DIMLUNIT
70
2
9
$DIMLWD
70
-2
9
$DIMLWE
70
-2
9
$DIMTMOVE
70
0
9
$LUNITS
70
2
9
$LUPREC
70
4
9
$SKETCHINC
40
0.1
9
$FILLETRAD
40
0.5
9
$AUNITS
70
0
9
$AUPREC
70
0
9
$MENU
1
.
9
$ELEVATION
40
0.0
9
$PELEVATION
40
0.0
9
$THICKNESS
40
0.0
9
$LIMCHECK
70
0
9
$CHAMFERA
40
0.5
9
$CHAMFERB
40
0.5
9
$CHAMFERC
40
1.0
9
$CHAMFERD
40
0.0
9
$SKPOLY
70
0
9
$TDCREATE
40
0.0
9
$TDUCREATE
40
0.0
9
$TDUPDATE
40
0.0
9
$TDUUPDATE
40
0.0
9
$TDINDWG
40
0.0
9
$TDUSRTIMER
40
0.0
9
$USRTIMER
70
1
9
$ANGBASE
50
0.0
9
$ANGDIR
70
0
9
$PDMODE
70
0
9
$PDSIZE
40
0.0
9
$PLINEWID
40
0.0
9
$SPLFRAME
70
0
9
$SPLINETYPE
70
6
9
$SPLINESEGS
70
8
9
$HANDSEED
5
10AB
9
$SURFTAB1
70
6
9
$SURFTAB2
70
6
9
$SURFTYPE
70
6
9
$SURFU
70
6
9
$SURFV
70
6
9
$UCSBASE
2

9
$UCSNAME
2

9
$UCSORG
10
0.0
20
0.0
30
0.0
9
$UCSXDIR
10
1.0
20
0.0
30
0.0
9
$UCSYDIR
10
0.0
20
1.0
30
0.0
9
$UCSORTHOREF
2

9
$UCSORTHOVIEW
70
0
9
$UCSORGTOP
10
0.0
20
0.0
30
0.0
9
$UCSORGBOTTOM
10
0.0
20
0.0
30
0.0
9
$UCSORGLEFT
10
0.0
20
0.0
30
0.0
9
$UCSORGRIGHT
10
0.0
20
0.0
30
0.0
9
$UCSORGFRONT
10
0.0
20
0.0
30
0.0
9
$UCSORGBACK
10
0.0
20
0.0
30
0.0
9
$PUCSBASE
2

9
$PUCSNAME
2

9
$PUCSORG
10
0.0
20
0.0
30
0.0
9
$PUCSXDIR
10
1.0
20
0.0
30
0.0
9
$PUCSYDIR
10
0.0
20
1.0
30
0.0
9
$PUCSORTHOREF
2

9
$PUCSORTHOVIEW
70
0
9
$PUCSORGTOP
10
0.0
20
0.0
30
0.0
9
$PUCSORGBOTTOM
10
0.0
20
0.0
30
0.0
9
$PUCSORGLEFT
10
0.0
20
0.0
30
0.0
9
$PUCSORGRIGHT
10
0.0
20
0.0
30
0.0
9
$PUCSORGFRONT
10
0.0
20
0.0
30
0.0
9
$PUCSORGBACK
10
0.0
20
0.0
30
0.0
9
$USERI1
70
0
9
$USERI2
70
0
9
$USERI3
70
0
9
$USERI4
70
0
9
$USERI5
70
0
9
$USERR1
40
0.0
9
$USERR2
40
0.0
9
$USERR3
40
0.0
9
$USERR4
40
0.0
9
$USERR5
40
0.0
9
$WORLDVIEW
70
1
9
$SHADEDGE
70
3
9
$SHADEDIF
70
70
9
$TILEMODE
70
1
9
$MAXACTVP
70
64
9
$PINSBASE
10
0.0
20
0.0
30
0.0
9
$PLIMCHECK
70
0
9
$PEXTMIN
10
1.000000000000000E+20
20
1.000000000000000E+20
30
1.000000000000000E+20
9
$PEXTMAX
10
-1.000000000000000E+20
20
-1.000000000000000E+20
30
-1.000000000000000E+20
9
$PLIMMIN
10
0.0
20
0.0
9
$PLIMMAX
10
12.0
20
9.0
9
$UNITMODE
70
0
9
$VISRETAIN
70
1
9
$PLINEGEN
70
0
9
$PSLTSCALE
70
1
9
$TREEDEPTH
70
3020
9
$CMLSTYLE
2
Standard
9
$CMLJUST
70
0
9
$CMLSCALE
40
1.0
9
$PROXYGRAPHICS
70
1
9
$MEASUREMENT
70
0
9
$CELWEIGHT
370
-1
9
$ENDCAPS
280
0
9
$JOINSTYLE
280
0
9
$LWDISPLAY
290
0
9
$INSUNITS
70
4
9
$HYPERLINKBASE
1

9
$STYLESHEET
1

9
$XEDIT
290
1
9
$CEPSNTYPE
380
0
9
$PSTYLEMODE
290
0
9
$FINGERPRINTGUID
2
{FAEB1C30-E019-11D5-929B-00C0DF256EC4}
9
$VERSIONGUID
2
{04C5C4E4-4947-4D90-8812-D401569E61F7}
9
$EXTNAMES
290
1
9
$PSVPSCALE
40
0.0
9
$OLESTARTUP
290
0
0
ENDSEC
0
SECTION
2
TABLES
0
TABLE
2
VPORT
5
24A
330
0
100
AcDbSymbolTable
70
1
0
VPORT
5
26B
330
24A
100
AcDbSymbolTableRecord
100
AcDbViewportTableRecord
2
*Active
70
0
10
0.0
20
0.0
11
1.0
21
1.0
12
0.000000000000000
22
0.000000000000000
13
0.0
23
0.0
14
10.0
24
10.0
15
10.0
25
10.0
16
0.0
26
0.0
36
1.0
17
0.0
27
0.0
37
0.0
40
210.000000000000
41
1.42857142857143
42
1.0
43
0.0
44
0.0
50
0.0
51
0.0000000000007958
71
0
72
100
73
1
74
3
75
0
76
0
77
0
78
1
281
0
65
1
110
0.0
120
0.0
130
0.0
111
1.0
121
0.0
131
0.0
112
0.0
122
1.0
132
0.0
79
0
146
0.0
0
ENDTAB
0
TABLE
2
LTYPE
5
247
330
0
100
AcDbSymbolTable
70
25
0
LTYPE
5
256
330
247
100
AcDbSymbolTableRecord
100
AcDbLinetypeTableRecord
2
ByBlock
70
0
3

72
65
73
0
40
0.0
0
LTYPE
5
257
330
247
100
AcDbSymbolTableRecord
100
AcDbLinetypeTableRecord
2
ByLayer
70
0
3

72
65
73
0
40
0.0
0
LTYPE
5
258
330
247
100
AcDbSymbolTableRecord
100
AcDbLinetypeTableRecord
2
Continuous
70
0
3
Solid line
72
65
73
0
40
0.0
0
LTYPE
5
273
330
247
100
AcDbSymbolTableRecord
100
AcDbLinetypeTableRecord
2
CENTER
70
0
3
Center ____ _ ____ _ ____ _ ____ _ ____ _ ____
72
65
73
4
40
2.0
49
1.25
74
0
49
-0.25
74
0
49
0.25
74
0
49
-0.25
74
0
0
LTYPE
5
274
330
247
100
AcDbSymbolTableRecord
100
AcDbLinetypeTableRecord
2
DASHDOT
70
0
3
Dashdot __ . __ . __ . __ . __ . __ . __ . __
72
65
73
4
40
1.0
49
0.5
74
0
49
-0.25
74
0
49
0.0
74
0
49
-0.25
74
0
0
LTYPE
5
275
330
247
100
AcDbSymbolTableRecord
100
AcDbLinetypeTableRecord
2
DASHED
70
0
3
Dashed __ __ __ __ __ __ __ __ __ __ __ __ __ _
72
65
73
2
40
0.75
49
0.5
74
0
49
-0.25
74
0
0
LTYPE
5
276
330
247
100
AcDbSymbolTableRecord
100
AcDbLinetypeTableRecord
2
HIDDEN
70
0
3
Hidden __ __ __ __ __ __ __ __ __ __ __ __ __ __
72
65
73
2
40
0.375
49
0.25
74
0
49
-0.125
74
0
0
LTYPE
5
277
330
247
100
AcDbSymbolTableRecord
100
AcDbLinetypeTableRecord
2
HIDDEN2
70
0
3
Hidden2 _ _ _ _ _ _ _ _ _ _ _ _ _ _ _ _ _
72
65
73
2
40
0.1875
49
0.125
74
0
49
-0.0625
74
0
0
LTYPE
5
278
330
247
100
AcDbSymbolTableRecord
100
AcDbLinetypeTableRecord
2
BORDER
70
0
3
Border __ __ . __ __ . __ __ . __ __ . __ __ .
72
65
73
6
40
1.75
49
0.5
74
0
49
-0.25
74
0
49
0.5
74
0
49
-0.25
74
0
49
0.0
74
0
49
-0.25
74
0
0
LTYPE
5
279
330
247
100
AcDbSymbolTableRecord
100
AcDbLinetypeTableRecord
2
BORDER2
70
0
3
Border2 __.__.__.__.__.__.__.__.__.__.__.
72
65
73
6
40
0.875
49
0.25
74
0
49
-0.125
74
0
49
0.25
74
0
49
-0.125
74
0
49
0.0
74
0
49
-0.125
74
0
0
LTYPE
5
27A
330
247
100
AcDbSymbolTableRecord
100
AcDbLinetypeTableRecord
2
BORDERX2
70
0
3
Borderx2  ____  ____  .  ____  ____  .  ___
72
65
73
6
40
3.5
49
1.0
74
0
49
-0.5
74
0
49
1.0
74
0
49
-0.5
74
0
49
0.0
74
0
49
-0.5
74
0
0
LTYPE
5
27B
330
247
100
AcDbSymbolTableRecord
100
AcDbLinetypeTableRecord
2
CENTER2
70
0
3
Center2  ___ _ ___ _ ___ _ ___ _ ___ _ ___
72
65
73
4
40
1.125
49
0.75
74
0
49
-0.125
74
0
49
0.125
74
0
49
-0.125
74
0
0
LTYPE
5
27C
330
247
100
AcDbSymbolTableRecord
100
AcDbLinetypeTableRecord
2
CENTERX2
70
0
3
Centerx2  ________  __  ________  __  _____
72
65
73
4
40
4.0
49
2.5
74
0
49
-0.5
74
0
49
0.5
74
0
49
-0.5
74
0
0
LTYPE
5
27D
330
247
100
AcDbSymbolTableRecord
100
AcDbLinetypeTableRecord
2
DASHDOT2
70
0
3
Dashdot2  _._._._._._._._._._._._._._._.
72
65
73
4
40
0.5
49
0.25
74
0
49
-0.125
74
0
49
0.0
74
0
49
-0.125
74
0
0
LTYPE
5
27E
330
247
100
AcDbSymbolTableRecord
100
AcDbLinetypeTableRecord
2
DASHDOTX2
70
0
3
Dashdotx2 ____  .  ____  .  ____  .  ___
72
65
73
4
40
2.0
49
1.0
74
0
49
-0.5
74
0
49
0.0
74
0
49
-0.5
74
0
0
LTYPE
5
27F
330
247
100
AcDbSymbolTableRecord
100
AcDbLinetypeTableRecord
2
DASHED2
70
0
3
Dashed2 _ _ _ _ _ _ _ _ _ _ _ _ _ _ _ _ _
72
65
73
2
40
0.375
49
0.25
74
0
49
-0.125
74
0
0
LTYPE
5
280
330
247
100
AcDbSymbolTableRecord
100
AcDbLinetypeTableRecord
2
DASHEDX2
70
0
3
Dashedx2 ____  ____  ____  ____  ____  ___
72
65
73
2
40
1.5
49
1.0
74
0
49
-0.5
74
0
0
LTYPE
5
281
330
247
100
AcDbSymbolTableRecord
100
AcDbLinetypeTableRecord
2
DIVIDE
70
0
3
Divide ____ . . ____ . . ____ . . ____ . . ____
72
65
73
6
40
1.25
49
0.5
74
0
49
-0.25
74
0
49
0.0
74
0
49
-0.25
74
0
49
0.0
74
0
49
-0.25
74
0
0
LTYPE
5
282
330
247
100
AcDbSymbolTableRecord
100
AcDbLinetypeTableRecord
2
DIVIDE2
70
0
3
Divide2 __..__..__..__..__..__..__..__.._
72
65
73
6
40
0.625
49
0.25
74
0
49
-0.125
74
0
49
0.0
74
0
49
-0.125
74
0
49
0.0
74
0
49
-0.125
74
0
0
LTYPE
5
283
330
247
100
AcDbSymbolTableRecord
100
AcDbLinetypeTableRecord
2
DIVIDEX2
70
0
3
Dividex2 ________  .  .  ________  .  .  _
72
65
73
6
40
2.5
49
1.0
74
0
49
-0.5
74
0
49
0.0
74
0
49
-0.5
74
0
49
0.0
74
0
49
-0.5
74
0
0
LTYPE
5
284
330
247
100
AcDbSymbolTableRecord
100
AcDbLinetypeTableRecord
2
DOT
70
0
3
Dot . . . . . . . . . . . . . . . . . . . . . . . .
72
65
73
2
40
0.25
49
0.0
74
0
49
-0.25
74
0
0
LTYPE
5
285
330
247
100
AcDbSymbolTableRecord
100
AcDbLinetypeTableRecord
2
DOT2
70
0
3
Dot2 ........................................
72
65
73
2
40
0.125
49
0.0
74
0
49
-0.125
74
0
0
LTYPE
5
286
330
247
100
AcDbSymbolTableRecord
100
AcDbLinetypeTableRecord
2
DOTX2
70
0
3
Dotx2 .  .  .  .  .  .  .  .  .  .  .  .  .  .
72
65
73
2
40
0.5
49
0.0
74
0
49
-0.5
74
0
0
LTYPE
5
287
330
247
100
AcDbSymbolTableRecord
100
AcDbLinetypeTableRecord
2
HIDDENX2
70
0
3
Hiddenx2 ____ ____ ____ ____ ____ ____ ____
72
65
73
2
40
0.75
49
0.5
74
0
49
-0.25
74
0
0
LTYPE
5
288
330
247
100
AcDbSymbolTableRecord
100
AcDbLinetypeTableRecord
2
PHANTOM
70
0
3
Phantom ______  __  __  ______  __  __  ______
72
65
73
6
40
2.5
49
1.25
74
0
49
-0.25
74
0
49
0.25
74
0
49
-0.25
74
0
49
0.25
74
0
49
-0.25
74
0
0
LTYPE
5
289
330
247
100
AcDbSymbolTableRecord
100
AcDbLinetypeTableRecord
2
PHANTOM2
70
0
3
Phantom2 ___ _ _ ___ _ _ ___ _ _ ___ _ _
72
65
73
6
40
1.25
49
0.625
74
0
49
-0.125
74
0
49
0.125
74
0
49
-0.125
74
0
49
0.125
74
0
49
-0.125
74
0
0
LTYPE
5
28A
330
247
100
AcDbSymbolTableRecord
100
AcDbLinetypeTableRecord
2
PHANTOMX2
70
0
3
Phantomx2 ____________    ____    ____   _
72
65
73
6
40
5.0
49
2.5
74
0
49
-0.5
74
0
49
0.5
74
0
49
-0.5
74
0
49
0.5
74
0
49
-0.5
74
0
0
ENDTAB
0
TABLE
2
LAYER
5
244
330
0
100
AcDbSymbolTable
70
6
0
LAYER
5
252
330
244
100
AcDbSymbolTableRecord
100
AcDbLayerTableRecord
2
0
70
0
62
7
6
Continuous
370
0
390
251
0
LAYER
5
23F
330
244
100
AcDbSymbolTableRecord
100
AcDbLayerTableRecord
2
Bemassung
70
0
 62
   7
6
Continuous
370
0
390
251
0
LAYER
5
240
330
244
100
AcDbSymbolTableRecord
100
AcDbLayerTableRecord
2
Rahmen
70
0
 62
   7
6
Continuous
370
0
390
251
0
LAYER
5
241
330
244
100
AcDbSymbolTableRecord
100
AcDbLayerTableRecord
2
Geo
70
0
 62
   7
6
Continuous
370
0
390
251
0
LAYER
5
33A
330
244
100
AcDbSymbolTableRecord
100
AcDbLayerTableRecord
2
Defpoints
70
0
62
7
6
Continuous
290
0
370
-3
390
251
0
LAYER
5
57E
330
244
100
AcDbSymbolTableRecord
100
AcDbLayerTableRecord
2
Text
70
0
 62
   7
6
Continuous
370
0
390
251
1001
AcAecLayerStandard
1000

1000

0
ENDTAB
0
TABLE
2
STYLE
5
245
330
0
100
AcDbSymbolTable
70
2
0
STYLE
5
253
330
245
100
AcDbSymbolTableRecord
100
AcDbTextStyleTableRecord
2
Standard
70
0
40
0.0
41
1.0
50
0.0
71
0
42
0.2
3
Arial
4

1001
ACAD
1000
Arial
1071
0
0
STYLE
5
132
330
245
100
AcDbSymbolTableRecord
100
AcDbTextStyleTableRecord
2
Beschriftung
70
0
40
0.0
41
1.0
50
0.0
71
0
42
0.2
3
Arial
4

1001
ACAD
1000
Arial
1071
0
1001
AcadAnnotative
1000
AnnotativeData
1070
1
1070
1
0
ENDTAB
0
TABLE
2
VIEW
5
248
330
0
100
AcDbSymbolTable
70
0
0
ENDTAB
0
TABLE
2
UCS
5
249
330
0
100
AcDbSymbolTable
70
0
0
ENDTAB
0
TABLE
2
APPID
5
24B
330
0
100
AcDbSymbolTable
70
13
0
APPID
5
254
330
24B
100
AcDbSymbolTableRecord
100
AcDbRegAppTableRecord
2
ACAD
70
0
0
APPID
5
26C
330
24B
100
AcDbSymbolTableRecord
100
AcDbRegAppTableRecord
2
VD_INVISIBLE_NOT_FOR_READ
70
0
0
APPID
5
26D
330
24B
100
AcDbSymbolTableRecord
100
AcDbRegAppTableRecord
2
VD_TEMPHATCH
70
0
0
APPID
5
26E
330
24B
100
AcDbSymbolTableRecord
100
AcDbRegAppTableRecord
2
VDEXTRAPARAM
70
0
0
APPID
5
26F
330
24B
100
AcDbSymbolTableRecord
100
AcDbRegAppTableRecord
2
PE_URL
70
0
0
APPID
5
270
330
24B
100
AcDbSymbolTableRecord
100
AcDbRegAppTableRecord
2
VD_UNKNOWN
70
0
0
APPID
5
28F
330
24B
100
AcDbSymbolTableRecord
100
AcDbRegAppTableRecord
2
AcadAnnotative
70
0
0
APPID
5
290
330
24B
100
AcDbSymbolTableRecord
100
AcDbRegAppTableRecord
2
ACAD_DSTYLE_DIMJAG
70
0
0
APPID
5
291
330
24B
100
AcDbSymbolTableRecord
100
AcDbRegAppTableRecord
2
ACAD_DSTYLE_DIMTALN
70
0
0
APPID
5
293
330
24B
100
AcDbSymbolTableRecord
100
AcDbRegAppTableRecord
2
ACAD_PSEXT
70
0
0
APPID
5
42A
330
24B
100
AcDbSymbolTableRecord
100
AcDbRegAppTableRecord
2
ACAD_MLEADERVER
70
0
0
APPID
5
532
330
24B
100
AcDbSymbolTableRecord
100
AcDbRegAppTableRecord
2
ACAD_EXEMPT_FROM_CAD_STANDARDS
70
0
0
APPID
5
57F
330
24B
100
AcDbSymbolTableRecord
100
AcDbRegAppTableRecord
2
AcAecLayerStandard
70
0
0
ENDTAB
0
TABLE
2
DIMSTYLE
5
24C
330
0
100
AcDbSymbolTable
70
3
100
AcDbDimStyleTable
71
2
340
27
340
269
0
DIMSTYLE
105
269
330
24C
100
AcDbSymbolTableRecord
100
AcDbDimStyleTableRecord
2
Standard
70
0
172
1
174
1
288
1
340
253
342
23C
0
DIMSTYLE
105
137
330
24C
100
AcDbSymbolTableRecord
100
AcDbDimStyleTableRecord
2
Beschriftung
70
0
41
2.5
42
0.625
44
1.25
73
0
74
0
77
1
140
2.5
147
0.625
172
1
174
1
271
2
288
1
340
253
342
23C
1001
AcadAnnotative
1000
AnnotativeData
1070
1
1070
1
1001
ACAD_DSTYLE_DIMJAG
1070
388
1040
1.5
1001
ACAD_DSTYLE_DIMTALN
1070
392
1070
0
0
DIMSTYLE
105
27
102
{ACAD_REACTORS
330
F10017
330
F1001C
330
F10026
330
F1002B
330
F10003
330
F1000D
330
F10008
330
F10012
330
F10021
102
}
330
24C
100
AcDbSymbolTableRecord
100
AcDbDimStyleTableRecord
2
BEM-ISBE
70
0
41
2.5
42
0.625
44
1.25
48
0.000000001
71
1
73
0
74
0
77
1
140
2.5
144
1.00000000000000
146
0.5
147
0.625
171
 3
172
 1
179
 3
271
 3
272
 3
274
 3
340
253
342
23C
1001
ACAD_DSTYLE_DIMJAG
1070
388
1040
1.5
1001
ACAD_DSTYLE_DIMTALN
1070
392
1070
1
0
ENDTAB
0
TABLE
2
BLOCK_RECORD
5
243
330
0
100
AcDbSymbolTable
70
5
0
BLOCK_RECORD
5
261
330
243
100
AcDbSymbolTableRecord
100
AcDbBlockTableRecord
2
*Model_Space
340
FD0
0
BLOCK_RECORD
5
25D
330
243
100
AcDbSymbolTableRecord
100
AcDbBlockTableRecord
2
*Paper_Space
340
FD1
0
BLOCK_RECORD
5
265
330
243
100
AcDbSymbolTableRecord
100
AcDbBlockTableRecord
2
*Paper_Space0
340
0
0
BLOCK_RECORD
5
23C
330
243
100
AcDbSymbolTableRecord
100
AcDbBlockTableRecord
2
VDDIM_DEFAULT
340
0
102
{BLKREFS
102
}
0
BLOCK_RECORD
5
23E
330
243
100
AcDbSymbolTableRecord
100
AcDbBlockTableRecord
2
VDDIM_NONE
340
0
0
BLOCK_RECORD
5
F10016
330
243
100
AcDbSymbolTableRecord
100
AcDbBlockTableRecord
2
*D7
340
0
0
BLOCK_RECORD
5
F1001B
330
243
100
AcDbSymbolTableRecord
100
AcDbBlockTableRecord
2
*D8
340
0
0
BLOCK_RECORD
5
F10025
330
243
100
AcDbSymbolTableRecord
100
AcDbBlockTableRecord
2
*D10
340
0
0
BLOCK_RECORD
5
F1002A
330
243
100
AcDbSymbolTableRecord
100
AcDbBlockTableRecord
2
*D11
340
0
0
BLOCK_RECORD
5
F10002
330
243
100
AcDbSymbolTableRecord
100
AcDbBlockTableRecord
2
*D3
340
0
0
BLOCK_RECORD
5
F1000C
330
243
100
AcDbSymbolTableRecord
100
AcDbBlockTableRecord
2
*D5
340
0
0
BLOCK_RECORD
5
F10007
330
243
100
AcDbSymbolTableRecord
100
AcDbBlockTableRecord
2
*D4
340
0
0
BLOCK_RECORD
5
F10011
330
243
100
AcDbSymbolTableRecord
100
AcDbBlockTableRecord
2
*D6
340
0
0
BLOCK_RECORD
5
F10020
330
243
100
AcDbSymbolTableRecord
100
AcDbBlockTableRecord
2
*D9
340
0
0
ENDTAB
0
ENDSEC
0
SECTION
2
BLOCKS
0
BLOCK
5
262
330
261
100
AcDbEntity
8
0
100
AcDbBlockBegin
2
*Model_Space
70
0
10
0.0
20
0.0
30
0.0
3
*Model_Space
1

0
ENDBLK
5
263
330
261
100
AcDbEntity
8
0
100
AcDbBlockEnd
0
BLOCK
5
25E
330
25D
100
AcDbEntity
67
1
8
0
100
AcDbBlockBegin
2
*Paper_Space
70
0
10
0.0
20
0.0
30
0.0
3
*Paper_Space
1

0
ENDBLK
5
25F
330
25D
100
AcDbEntity
67
1
8
0
100
AcDbBlockEnd
0
BLOCK
5
266
330
265
100
AcDbEntity
8
0
100
AcDbBlockBegin
2
*Paper_Space0
70
0
10
0.0
20
0.0
30
0.0
3
*Paper_Space0
1

0
VIEWPORT
5
296
102
{ACAD_XDICTIONARY
360
58E
102
}
330
265
100
AcDbEntity
8
0
60
1
100
AcDbViewport
10
0.0
20
0.0
30
0.0
40
10.0
41
10.0
69
0
12
0.0
22
0.0
13
0.0
23
0.0
14
1.0
24
1.0
15
0.0
25
0.0
16
0.0
26
0.0
36
1.0
17
0.0
27
0.0
37
0.0
42
0.0
43
0.0
44
0.0
45
10.0
50
0.0
51
0.0000000000007958
72
100
90
163872
1

281
0
71
0
74
0
110
0.0
120
0.0
130
0.0
111
1.0
121
0.0
131
0.0
112
0.0
122
1.0
132
0.0
79
0
146
0.0
1001
VD_INVISIBLE_NOT_FOR_READ
1000
VD_INVISIBLE_NOT_FOR_READ
0
VIEWPORT
5
297
102
{ACAD_XDICTIONARY
360
590
102
}
330
265
100
AcDbEntity
8
0
60
1
100
AcDbViewport
10
0.0
20
0.0
30
0.0
40
10.0
41
10.0
69
0
12
0.0
22
0.0
13
0.0
23
0.0
14
1.0
24
1.0
15
0.0
25
0.0
16
0.0
26
0.0
36
1.0
17
0.0
27
0.0
37
0.0
42
0.0
43
0.0
44
0.0
45
10.0
50
0.0
51
0.0000000000007958
72
100
90
163872
1

281
0
71
0
74
0
110
0.0
120
0.0
130
0.0
111
1.0
121
0.0
131
0.0
112
0.0
122
1.0
132
0.0
79
0
146
0.0
1001
VD_INVISIBLE_NOT_FOR_READ
1000
VD_INVISIBLE_NOT_FOR_READ
0
ENDBLK
5
267
330
265
100
AcDbEntity
8
0
100
AcDbBlockEnd
0
BLOCK
5
28B
330
23C
100
AcDbEntity
8
0
100
AcDbBlockBegin
2
VDDIM_DEFAULT
70
0
10
0.0
20
0.0
30
0.0
3
VDDIM_DEFAULT
1

0
LWPOLYLINE
5
23D
330
23C
100
AcDbEntity
8
0
6
Continuous
62
0
100
AcDbPolyline
90
4
70
0
43
0.0
10
0.0
20
0.0
10
-1.0
20
-0.1665
10
-1.0
20
0.1665
10
0.0
20
0.0
1001
VDEXTRAPARAM
1071
1
1071
0
1071
0
1040
1.0
1000

1000

1040
0.0
1040
0.0
0
HATCH
5
292
330
23C
100
AcDbEntity
8
0
6
Continuous
62
0
100
AcDbHatch
10
0.0
20
0.0
30
0.0
210
0.0
220
0.0
230
1.0
2
SOLID
70
1
71
0
91
1
92
2
72
0
73
1
93
3
10
0.0
20
0.0
10
-1.0
20
-0.1665
10
-1.0
20
0.1665
97
0
75
0
76
1
98
1
10
0.0
20
0.0
1001
VDEXTRAPARAM
1071
1
1071
0
1071
0
1040
1.0
1000

1000

1040
0.0
1040
0.0
1001
VD_TEMPHATCH
1000
VD_TEMPHATCH
0
ENDBLK
5
28C
330
23C
100
AcDbEntity
8
0
100
AcDbBlockEnd
0
BLOCK
5
28D
330
23E
100
AcDbEntity
8
0
100
AcDbBlockBegin
2
VDDIM_NONE
70
0
10
0.0
20
0.0
30
0.0
3
VDDIM_NONE
1

0
ENDBLK
5
28E
330
23E
100
AcDbEntity
8
0
100
AcDbBlockEnd
  0
BLOCK
  5
F1002F
330
F10016
100
AcDbEntity
  8
0
100
AcDbBlockBegin
  2
*D7
 70
     1
 10
0.0
 20
0.0
 30
0.0
  3
*D7
  1

  0
LINE
  5
F10030
330
F10016
100
AcDbEntity
  8
Bemassung
 62
     0
370
    -2
100
AcDbLine
10
-98.7597739982804
20
-11.1814480992299
30
0.000000000000000
11
-98.7597739982804
21
27.8185519007701
31
0.000000000000000
  0
LINE
  5
F10031
330
F10016
100
AcDbEntity
  8
Bemassung
 62
     0
370
    -2
100
AcDbLine
10
-68.7597739982804
20
5.51855190077008
30
0.000000000000000
11
-68.7597739982804
21
17.8185519007701
31
0.000000000000000
  0
LINE
  5
F10032
330
F10016
100
AcDbEntity
  8
Bemassung
 62
     0
370
    -2
100
AcDbLine
10
-98.7597739982804
20
15.8185519007701
30
0.000000000000000
11
-52.9356724467513
21
15.8185519007701
31
0.000000000000000
  0
INSERT
  5
F10033
330
F10016
100
AcDbEntity
  8
Bemassung
 62
     0
370
    -2
100
AcDbBlockReference
  2
VDDIM_DEFAULT
10
-98.7597739982804
20
15.8185519007701
30
0.000000000000000
 41
2.50000000000000
 42
2.50000000000000
 43
2.50000000000000
 50
180.000000000000
  0
INSERT
  5
F10034
330
F10016
100
AcDbEntity
  8
Bemassung
 62
     0
370
    -2
100
AcDbBlockReference
  2
VDDIM_DEFAULT
10
-68.7597739982804
20
15.8185519007701
30
0.000000000000000
 41
2.50000000000000
 42
2.50000000000000
 43
2.50000000000000
  0
MTEXT
  5
F10035
330
F10016
100
AcDbEntity
  8
Bemassung
 62
     0
100
AcDbMText
10
-83.7597739982804
20
16.4852185674367
30
0.000000000000000
 40
2.50000000000000
 41
0.0
 71
     8
 72
     1
  1
30
 11
1.00000000000000
 21
0.000000000000000
 31
0.0
 73
     1
 44
1.0
1001
ACAD
1000
MTEXTBEGIN
1070
73
1070
1
1070
44
1040
1.0
1070
74
1070
0
1000
MTEXTEND
  0
POINT
  5
F10036
330
F10016
100
AcDbEntity
  8
Bemassung
 62
     0
100
AcDbPoint
10
-98.7597739982804
20
-11.1814480992299
30
0.000000000000000
  0
POINT
  5
F10037
330
F10016
100
AcDbEntity
  8
Bemassung
 62
     0
100
AcDbPoint
10
-68.7597739982804
20
5.51855190077008
30
0.000000000000000
  0
ENDBLK
  5
F10038
330
F10016
100
AcDbEntity
  8
0
100
AcDbBlockEnd
  0
BLOCK
  5
F10039
330
F1001B
100
AcDbEntity
  8
0
100
AcDbBlockBegin
  2
*D8
 70
     1
 10
0.0
 20
0.0
 30
0.0
  3
*D8
  1

  0
LINE
  5
F1003A
330
F1001B
100
AcDbEntity
  8
Bemassung
 62
     0
370
    -2
100
AcDbLine
10
-68.7597739982804
20
5.51855190077008
30
0.000000000000000
11
-68.7597739982804
21
22.8185519007701
31
0.000000000000000
  0
LINE
  5
F1003B
330
F1001B
100
AcDbEntity
  8
Bemassung
 62
     0
370
    -2
100
AcDbLine
10
-28.7597739982804
20
5.31855190077007
30
0.000000000000000
11
-28.7597739982804
21
27.8185519007701
31
0.000000000000000
  0
LINE
  5
F1003C
330
F1001B
100
AcDbEntity
  8
Bemassung
 62
     0
370
    -2
100
AcDbLine
10
-68.7597739982804
20
20.8185519007701
30
0.000000000000000
11
52.2134005889009
21
20.8185519007701
31
0.000000000000000
  0
INSERT
  5
F1003D
330
F1001B
100
AcDbEntity
  8
Bemassung
 62
     0
370
    -2
100
AcDbBlockReference
  2
VDDIM_DEFAULT
10
-68.7597739982804
20
20.8185519007701
30
0.000000000000000
 41
2.50000000000000
 42
2.50000000000000
 43
2.50000000000000
 50
180.000000000000
  0
INSERT
  5
F1003E
330
F1001B
100
AcDbEntity
  8
Bemassung
 62
     0
370
    -2
100
AcDbBlockReference
  2
VDDIM_DEFAULT
10
-28.7597739982804
20
20.8185519007701
30
0.000000000000000
 41
2.50000000000000
 42
2.50000000000000
 43
2.50000000000000
  0
MTEXT
  5
F1003F
330
F1001B
100
AcDbEntity
  8
Bemassung
 62
     0
100
AcDbMText
10
-48.7597739982804
20
21.4852185674367
30
0.000000000000000
 40
2.50000000000000
 41
0.0
 71
     8
 72
     1
  1
40
 11
1.00000000000000
 21
0.000000000000000
 31
0.0
 73
     1
 44
1.0
1001
ACAD
1000
MTEXTBEGIN
1070
73
1070
1
1070
44
1040
1.0
1070
74
1070
0
1000
MTEXTEND
  0
POINT
  5
F10040
330
F1001B
100
AcDbEntity
  8
Bemassung
 62
     0
100
AcDbPoint
10
-68.7597739982804
20
5.51855190077008
30
0.000000000000000
  0
POINT
  5
F10041
330
F1001B
100
AcDbEntity
  8
Bemassung
 62
     0
100
AcDbPoint
10
-28.7597739982804
20
5.31855190077007
30
0.000000000000000
  0
ENDBLK
  5
F10042
330
F1001B
100
AcDbEntity
  8
0
100
AcDbBlockEnd
  0
BLOCK
  5
F10043
330
F10025
100
AcDbEntity
  8
0
100
AcDbBlockBegin
  2
*D10
 70
     1
 10
0.0
 20
0.0
 30
0.0
  3
*D10
  1

  0
LINE
  5
F10044
330
F10025
100
AcDbEntity
  8
Bemassung
 62
     0
370
    -2
100
AcDbLine
10
-76.7597739982804
20
-3.88144809922993
30
0.000000000000000
11
-76.7597739982804
21
-11.1814480992299
31
0.000000000000000
  0
LINE
  5
F10045
330
F10025
100
AcDbEntity
  8
Bemassung
 62
     0
370
    -2
100
AcDbLine
10
-98.7597739982804
20
-11.1814480992299
30
0.000000000000000
11
-98.7597739982804
21
27.8185519007701
31
0.000000000000000
  0
LINE
  5
F10046
330
F10025
100
AcDbEntity
  8
Bemassung
 62
     0
370
    -2
100
AcDbLine
10
-64.7354437350414
20
-9.18144809922993
30
0.000000000000000
11
-98.7597739982804
21
-9.18144809922993
31
0.000000000000000
  0
INSERT
  5
F10047
330
F10025
100
AcDbEntity
  8
Bemassung
 62
     0
370
    -2
100
AcDbBlockReference
  2
VDDIM_DEFAULT
10
-76.7597739982804
20
-9.18144809922993
30
0.000000000000000
 41
2.50000000000000
 42
2.50000000000000
 43
2.50000000000000
  0
INSERT
  5
F10048
330
F10025
100
AcDbEntity
  8
Bemassung
 62
     0
370
    -2
100
AcDbBlockReference
  2
VDDIM_DEFAULT
10
-98.7597739982804
20
-9.18144809922993
30
0.000000000000000
 41
2.50000000000000
 42
2.50000000000000
 43
2.50000000000000
 50
180.000000000000
  0
MTEXT
  5
F10049
330
F10025
100
AcDbEntity
  8
Bemassung
 62
     0
100
AcDbMText
10
-87.7597739982804
20
-8.51478143256326
30
0.000000000000000
 40
2.50000000000000
 41
0.0
 71
     8
 72
     1
  1
22
 11
1.00000000000000
 21
0.000000000000000
 31
0.0
 73
     1
 44
1.0
1001
ACAD
1000
MTEXTBEGIN
1070
73
1070
1
1070
44
1040
1.0
1070
74
1070
0
1000
MTEXTEND
  0
POINT
  5
F1004A
330
F10025
100
AcDbEntity
  8
Bemassung
 62
     0
100
AcDbPoint
10
-76.7597739982804
20
-3.88144809922993
30
0.000000000000000
  0
POINT
  5
F1004B
330
F10025
100
AcDbEntity
  8
Bemassung
 62
     0
100
AcDbPoint
10
-98.7597739982804
20
-11.1814480992299
30
0.000000000000000
  0
ENDBLK
  5
F1004C
330
F10025
100
AcDbEntity
  8
0
100
AcDbBlockEnd
  0
BLOCK
  5
F1004D
330
F1002A
100
AcDbEntity
  8
0
100
AcDbBlockBegin
  2
*D11
 70
     1
 10
0.0
 20
0.0
 30
0.0
  3
*D11
  1

  0
LINE
  5
F1004E
330
F1002A
100
AcDbEntity
  8
Bemassung
 62
     0
370
    -2
100
AcDbLine
10
-28.7597739982804
20
5.31855190077007
30
0.000000000000000
11
-28.7597739982804
21
27.8185519007701
31
0.000000000000000
  0
LINE
  5
F1004F
330
F1002A
100
AcDbEntity
  8
Bemassung
 62
     0
370
    -2
100
AcDbLine
10
-98.7597739982804
20
-11.1814480992299
30
0.000000000000000
11
-98.7597739982804
21
27.8185519007701
31
0.000000000000000
  0
LINE
  5
F10050
330
F1002A
100
AcDbEntity
  8
Bemassung
 62
     0
370
    -2
100
AcDbLine
10
7.11205255365857
20
25.8185519007701
30
0.000000000000000
11
-98.7597739982804
21
25.8185519007701
31
0.000000000000000
  0
INSERT
  5
F10051
330
F1002A
100
AcDbEntity
  8
Bemassung
 62
     0
370
    -2
100
AcDbBlockReference
  2
VDDIM_DEFAULT
10
-28.7597739982804
20
25.8185519007701
30
0.000000000000000
 41
2.50000000000000
 42
2.50000000000000
 43
2.50000000000000
  0
INSERT
  5
F10052
330
F1002A
100
AcDbEntity
  8
Bemassung
 62
     0
370
    -2
100
AcDbBlockReference
  2
VDDIM_DEFAULT
10
-98.7597739982804
20
25.8185519007701
30
0.000000000000000
 41
2.50000000000000
 42
2.50000000000000
 43
2.50000000000000
 50
180.000000000000
  0
MTEXT
  5
F10053
330
F1002A
100
AcDbEntity
  8
Bemassung
 62
     0
100
AcDbMText
10
-63.7597739982804
20
26.4852185674367
30
0.000000000000000
 40
2.50000000000000
 41
0.0
 71
     8
 72
     1
  1
70
 11
1.00000000000000
 21
0.000000000000000
 31
0.0
 73
     1
 44
1.0
1001
ACAD
1000
MTEXTBEGIN
1070
73
1070
1
1070
44
1040
1.0
1070
74
1070
0
1000
MTEXTEND
  0
POINT
  5
F10054
330
F1002A
100
AcDbEntity
  8
Bemassung
 62
     0
100
AcDbPoint
10
-28.7597739982804
20
5.31855190077007
30
0.000000000000000
  0
POINT
  5
F10055
330
F1002A
100
AcDbEntity
  8
Bemassung
 62
     0
100
AcDbPoint
10
-98.7597739982804
20
-11.1814480992299
30
0.000000000000000
  0
ENDBLK
  5
F10056
330
F1002A
100
AcDbEntity
  8
0
100
AcDbBlockEnd
  0
BLOCK
  5
F10057
330
F10002
100
AcDbEntity
  8
0
100
AcDbBlockBegin
  2
*D3
 70
     1
 10
0.0
 20
0.0
 30
0.0
  3
*D3
  1

 0
ARC
  5
F10058
330
F10002
100
AcDbEntity
  8
Bemassung
 62
     0
370
   -2
100
AcDbCircle
10
-98.7594694117899
20
5.30110215241882
30
0.000000000000000
 40
17.5178555648780
100
AcDbArc
 50
90.0000000000000
 51
109.042059399354
  0
LINE
  5
F10059
330
F10002
100
AcDbEntity
  8
Bemassung
 62
     0
370
    -2
100
AcDbLine
10
-98.7594694117899
20
5.30110215241882
30
0.000000000000000
11
-98.7594694117899
21
24.8189577172968
31
0.000000000000000
  0
LINE
  5
F1005A
330
F10002
100
AcDbEntity
  8
Bemassung
 62
     0
370
    -2
100
AcDbLine
10
-98.7594694117899
20
5.30110215241882
30
0.000000000000000
11
-99.4406327477163
21
24.8070679670415
31
0.000000000000000
  0
INSERT
  5
F1005B
330
F10002
100
AcDbEntity
  8
Bemassung
 62
     0
370
    -2
100
AcDbBlockReference
  2
VDDIM_DEFAULT
10
-98.7594694117899
20
22.8189577172968
30
0.000000000000000
 41
2.50000000000000
 42
2.50000000000000
 43
2.50000000000000
 50
179.836464408851
  0
INSERT
  5
F1005C
330
F10002
100
AcDbEntity
  8
Bemassung
 62
     0
370
    -2
100
AcDbBlockReference
  2
VDDIM_DEFAULT
10
-99.3708337543113
20
22.8082863130033
30
0.000000000000000
 41
2.50000000000000
 42
2.50000000000000
 43
2.50000000000000
 50
2.16353559114658
  0
MTEXT
  5
F1005D
330
F10002
100
AcDbEntity
  8
Bemassung
 62
     0
100
AcDbMText
10
-106.101204123308
20
21.2062646796492
30
0.000000000000000
 40
2.50000000000000
 41
0.0
 71
     8
 72
     1
  1
2°
 11
0.908829545720346
 21
0.417167660330651
 31
0.0
 73
     1
 44
1.0
1001
ACAD
1000
MTEXTBEGIN
1070
73
1070
1
1070
44
1040
1.0
1070
74
1070
0
1000
MTEXTEND
  0
POINT
  5
F1005E
330
F10002
100
AcDbEntity
  8
Bemassung
 62
     0
100
AcDbPoint
10
-98.7594694117899
20
5.30110215241882
30
0.000000000000000
  0
POINT
  5
F1005F
330
F10002
100
AcDbEntity
  8
Bemassung
 62
     0
100
AcDbPoint
10
-98.7594694117899
20
22.8189577172968
30
0.000000000000000
  0
POINT
  5
F10060
330
F10002
100
AcDbEntity
  8
Bemassung
 62
     0
100
AcDbPoint
10
-99.3708337543113
20
22.8082863130033
30
0.000000000000000
  0
POINT
  5
F10061
330
F10002
100
AcDbEntity
  8
Bemassung
 62
     0
100
AcDbPoint
10
-99.0651981470178
20
22.8162896630447
30
0.000000000000000
  0
ENDBLK
  5
F10062
330
F10002
100
AcDbEntity
  8
0
100
AcDbBlockEnd
  0
BLOCK
  5
F10063
330
F1000C
100
AcDbEntity
  8
0
100
AcDbBlockBegin
  2
*D5
 70
     1
 10
0.0
 20
0.0
 30
0.0
  3
*D5
  1

  0
LINE
  5
F10064
330
F1000C
100
AcDbEntity
  8
Bemassung
 62
     0
370
    -2
100
AcDbLine
10
-98.6194438984497
20
5.66588108599957
30
0.000000000000000
11
-111.936116214132
21
18.5256420590381
31
0.000000000000000
  0
INSERT
  5
F10065
330
F1000C
100
AcDbEntity
  8
Bemassung
 62
     0
370
    -2
100
AcDbBlockReference
  2
VDDIM_DEFAULT
10
-98.6194438984497
20
5.66588108599957
30
0.000000000000000
 41
2.50000000000000
 42
2.50000000000000
 43
2.50000000000000
 50
316.000000000000
  0
MTEXT
  5
F10066
330
F1000C
100
AcDbEntity
  8
Bemassung
 62
     0
100
AcDbMText
10
-105.812841901836
20
12.6124647905895
30
0.000000000000000
 40
2.50000000000000
 41
0.0
 71
     8
 72
     1
  1
R0.5
 11
0.719339800338652
 21
-0.694658370458996
 31
0.0
 73
     1
 44
1.0
1001
ACAD
1000
MTEXTBEGIN
1070
73
1070
1
1070
44
1040
1.0
1070
74
1070
0
1000
MTEXTEND
  0
POINT
  5
F10067
330
F1000C
100
AcDbEntity
  8
Bemassung
 62
     0
100
AcDbPoint
10
-98.6194438984497
20
5.66588108599957
30
0.000000000000000
  0
POINT
  5
F10068
330
F1000C
100
AcDbEntity
  8
Bemassung
 62
     0
100
AcDbPoint
10
-98.2597739982804
20
5.31855190077007
30
0.000000000000000
  0
ENDBLK
  5
F10069
330
F1000C
100
AcDbEntity
  8
0
100
AcDbBlockEnd
  0
BLOCK
  5
F1006A
330
F10007
100
AcDbEntity
  8
0
100
AcDbBlockBegin
  2
*D4
 70
     1
 10
0.0
 20
0.0
 30
0.0
  3
*D4
  1

  0
LINE
  5
F1006B
330
F10007
100
AcDbEntity
  8
Bemassung
 62
     0
370
    -2
100
AcDbLine
10
-98.2597739982804
20
-4.18144809922993
30
0.000000000000000
11
-110.759773998280
21
-4.18144809922993
31
0.000000000000000
  0
LINE
  5
F1006C
330
F10007
100
AcDbEntity
  8
Bemassung
 62
     0
370
    -2
100
AcDbLine
10
-98.2597739982804
20
5.81855190077007
30
0.000000000000000
11
-110.759773998280
21
5.81855190077007
31
0.000000000000000
  0
LINE
  5
F1006D
330
F10007
100
AcDbEntity
  8
Bemassung
 62
     0
370
    -2
100
AcDbLine
10
-108.759773998280
20
-4.18144809922993
30
0.000000000000000
11
-108.759773998280
21
5.81855190077007
31
0.000000000000000
  0
INSERT
  5
F1006E
330
F10007
100
AcDbEntity
  8
Bemassung
 62
     0
370
    -2
100
AcDbBlockReference
  2
VDDIM_DEFAULT
10
-108.759773998280
20
-4.18144809922993
30
0.000000000000000
 41
2.50000000000000
 42
2.50000000000000
 43
2.50000000000000
 50
270.000000000000
  0
INSERT
  5
F1006F
330
F10007
100
AcDbEntity
  8
Bemassung
 62
     0
370
    -2
100
AcDbBlockReference
  2
VDDIM_DEFAULT
10
-108.759773998280
20
5.81855190077007
30
0.000000000000000
 41
2.50000000000000
 42
2.50000000000000
 43
2.50000000000000
 50
90.0000000000000
  0
MTEXT
  5
F10070
330
F10007
100
AcDbEntity
  8
Bemassung
 62
     0
100
AcDbMText
10
-108.093107331614
20
0.818551900770075
30
0.000000000000000
 40
2.50000000000000
 41
0.0
 71
     8
 72
     1
  1
10
 11
6.12323399573677e-017
 21
1.00000000000000
 31
0.0
 73
     1
 44
1.0
1001
ACAD
1000
MTEXTBEGIN
1070
73
1070
1
1070
44
1040
1.0
1070
74
1070
0
1000
MTEXTEND
  0
POINT
  5
F10071
330
F10007
100
AcDbEntity
  8
Bemassung
 62
     0
100
AcDbPoint
10
-98.2597739982804
20
-4.18144809922993
30
0.000000000000000
  0
POINT
  5
F10072
330
F10007
100
AcDbEntity
  8
Bemassung
 62
     0
100
AcDbPoint
10
-98.2597739982804
20
5.81855190077007
30
0.000000000000000
  0
ENDBLK
  5
F10073
330
F10007
100
AcDbEntity
  8
0
100
AcDbBlockEnd
  0
BLOCK
  5
F10074
330
F10011
100
AcDbEntity
  8
0
100
AcDbBlockBegin
  2
*D6
 70
     1
 10
0.0
 20
0.0
 30
0.0
  3
*D6
  1

  0
LINE
  5
F10075
330
F10011
100
AcDbEntity
  8
Bemassung
 62
     0
370
    -2
100
AcDbLine
10
-76.7597739982804
20
-3.88144809922993
30
0.000000000000000
11
-69.0931073316137
21
-3.88144809922993
31
0.000000000000000
  0
LINE
  5
F10076
330
F10011
100
AcDbEntity
  8
Bemassung
 62
     0
370
    -2
100
AcDbLine
10
-76.7597739982804
20
5.51855190077008
30
0.000000000000000
11
-69.0931073316137
21
5.51855190077008
31
0.000000000000000
  0
LINE
  5
F10077
330
F10011
100
AcDbEntity
  8
Bemassung
 62
     0
370
    -2
100
AcDbLine
10
-71.0931073316137
20
-33.2146913974519
30
0.000000000000000
11
-71.0931073316137
21
5.51855190077008
31
0.000000000000000
  0
INSERT
  5
F10078
330
F10011
100
AcDbEntity
  8
Bemassung
 62
     0
370
    -2
100
AcDbBlockReference
  2
VDDIM_DEFAULT
10
-71.0931073316137
20
-3.88144809922993
30
0.000000000000000
 41
2.50000000000000
 42
2.50000000000000
 43
2.50000000000000
 50
270.000000000000
  0
INSERT
  5
F10079
330
F10011
100
AcDbEntity
  8
Bemassung
 62
     0
370
    -2
100
AcDbBlockReference
  2
VDDIM_DEFAULT
10
-71.0931073316137
20
5.51855190077008
30
0.000000000000000
 41
2.50000000000000
 42
2.50000000000000
 43
2.50000000000000
 50
90.0000000000000
  0
MTEXT
  5
F1007A
330
F10011
100
AcDbEntity
  8
Bemassung
 62
     0
100
AcDbMText
10
-70.4264406649470
20
-9.21477683327169
30
0.000000000000000
 40
2.50000000000000
 41
0.0
 71
     8
 72
     1
  1
9.4
 11
6.12323399573677e-017
 21
1.00000000000000
 31
0.0
 73
     1
 44
1.0
1001
ACAD
1000
MTEXTBEGIN
1070
73
1070
1
1070
44
1040
1.0
1070
74
1070
0
1000
MTEXTEND
  0
POINT
  5
F1007B
330
F10011
100
AcDbEntity
  8
Bemassung
 62
     0
100
AcDbPoint
10
-76.7597739982804
20
-3.88144809922993
30
0.000000000000000
  0
POINT
  5
F1007C
330
F10011
100
AcDbEntity
  8
Bemassung
 62
     0
100
AcDbPoint
10
-76.7597739982804
20
5.51855190077008
30
0.000000000000000
  0
ENDBLK
  5
F1007D
330
F10011
100
AcDbEntity
  8
0
100
AcDbBlockEnd
  0
BLOCK
  5
F1007E
330
F10020
100
AcDbEntity
  8
0
100
AcDbBlockBegin
  2
*D9
 70
     1
 10
0.0
 20
0.0
 30
0.0
  3
*D9
  1

  0
LINE
  5
F1007F
330
F10020
100
AcDbEntity
  8
Bemassung
 62
     0
370
    -2
100
AcDbLine
10
-29.2597739982804
20
-4.18144809922993
30
0.000000000000000
11
-16.7597739982804
21
-4.18144809922993
31
0.000000000000000
  0
LINE
  5
F10080
330
F10020
100
AcDbEntity
  8
Bemassung
 62
     0
370
    -2
100
AcDbLine
10
-29.2597739982804
20
5.81855190077007
30
0.000000000000000
11
-16.7597739982804
21
5.81855190077007
31
0.000000000000000
  0
LINE
  5
F10081
330
F10020
100
AcDbEntity
  8
Bemassung
 62
     0
370
    -2
100
AcDbLine
10
-18.7597739982804
20
-4.18144809922993
30
0.000000000000000
11
-18.7597739982804
21
5.81855190077007
31
0.000000000000000
  0
INSERT
  5
F10082
330
F10020
100
AcDbEntity
  8
Bemassung
 62
     0
370
    -2
100
AcDbBlockReference
  2
VDDIM_DEFAULT
10
-18.7597739982804
20
-4.18144809922993
30
0.000000000000000
 41
2.50000000000000
 42
2.50000000000000
 43
2.50000000000000
 50
270.000000000000
  0
INSERT
  5
F10083
330
F10020
100
AcDbEntity
  8
Bemassung
 62
     0
370
    -2
100
AcDbBlockReference
  2
VDDIM_DEFAULT
10
-18.7597739982804
20
5.81855190077007
30
0.000000000000000
 41
2.50000000000000
 42
2.50000000000000
 43
2.50000000000000
 50
90.0000000000000
  0
MTEXT
  5
F10084
330
F10020
100
AcDbEntity
  8
Bemassung
 62
     0
100
AcDbMText
10
-18.0931073316137
20
0.818551900770075
30
0.000000000000000
 40
2.50000000000000
 41
0.0
 71
     8
 72
     1
  1
10h6
 11
6.12323399573677e-017
 21
1.00000000000000
 31
0.0
 73
     1
 44
1.0
  0
POINT
  5
F10085
330
F10020
100
AcDbEntity
  8
Bemassung
 62
     0
100
AcDbPoint
10
-29.2597739982804
20
-4.18144809922993
30
0.000000000000000
  0
POINT
  5
F10086
330
F10020
100
AcDbEntity
  8
Bemassung
 62
     0
100
AcDbPoint
10
-29.2597739982804
20
5.81855190077007
30
0.000000000000000
  0
ENDBLK
  5
F10087
330
F10020
100
AcDbEntity
  8
0
100
AcDbBlockEnd
0
ENDSEC
0
SECTION
2
ENTITIES
  0
DIMENSION
  5
F10017
330
261
100
AcDbEntity
  8
Bemassung
100
AcDbDimension
  2
*D7
10
-68.7597739982804
20
15.8185519007701
30
0.000000000000000
11
-83.7597739982804
21
16.4852185674367
31
0.000000000000000
 70
32
 1
30
 71
     8
  3
BEM-ISBE
100
AcDbAlignedDimension
13
-98.7597739982804
23
-11.1814480992299
33
0.000000000000000
14
-68.7597739982804
24
5.51855190077008
34
0.000000000000000
100
AcDbRotatedDimension
1001
ACAD
1000
DSTYLE
1002
{
1070
284
1070
8
1070
78
1070
8
1070
144
1040
1.00000000000000
1070
147
1040
0.625
1070
 72
1070
 0
1070
 71
1070
 0
1002
}
  0
DIMENSION
  5
F1001C
330
261
100
AcDbEntity
  8
Bemassung
100
AcDbDimension
  2
*D8
10
-28.7597739982804
20
20.8185519007701
30
0.000000000000000
11
-48.7597739982804
21
21.4852185674367
31
0.000000000000000
 70
32
 1
40
 71
     8
  3
BEM-ISBE
100
AcDbAlignedDimension
13
-68.7597739982804
23
5.51855190077008
33
0.000000000000000
14
-28.7597739982804
24
5.31855190077007
34
0.000000000000000
100
AcDbRotatedDimension
1001
ACAD
1000
DSTYLE
1002
{
1070
284
1070
8
1070
78
1070
8
1070
144
1040
1.00000000000000
1070
147
1040
0.625
1070
 72
1070
 0
1070
 71
1070
 0
1002
}
  0
DIMENSION
  5
F10026
330
261
100
AcDbEntity
  8
Bemassung
100
AcDbDimension
  2
*D10
10
-98.7597739982804
20
-9.18144809922993
30
0.000000000000000
11
-87.7597739982804
21
-8.51478143256326
31
0.000000000000000
 70
32
 1
22
 71
     8
  3
BEM-ISBE
100
AcDbAlignedDimension
13
-76.7597739982804
23
-3.88144809922993
33
0.000000000000000
14
-98.7597739982804
24
-11.1814480992299
34
0.000000000000000
100
AcDbRotatedDimension
1001
ACAD
1000
DSTYLE
1002
{
1070
284
1070
8
1070
78
1070
8
1070
144
1040
1.00000000000000
1070
147
1040
0.625
1070
 72
1070
 0
1070
 71
1070
 0
1002
}
  0
DIMENSION
  5
F1002B
330
261
100
AcDbEntity
  8
Bemassung
100
AcDbDimension
  2
*D11
10
-98.7597739982804
20
25.8185519007701
30
0.000000000000000
11
-63.7597739982804
21
26.4852185674367
31
0.000000000000000
 70
32
 1
70
 71
     8
  3
BEM-ISBE
100
AcDbAlignedDimension
13
-28.7597739982804
23
5.31855190077007
33
0.000000000000000
14
-98.7597739982804
24
-11.1814480992299
34
0.000000000000000
100
AcDbRotatedDimension
1001
ACAD
1000
DSTYLE
1002
{
1070
284
1070
8
1070
78
1070
8
1070
144
1040
1.00000000000000
1070
147
1040
0.625
1070
 72
1070
 0
1070
 71
1070
 0
1002
}
  0
DIMENSION
  5
F10003
330
261
100
AcDbEntity
  8
Bemassung
100
AcDbDimension
  2
*D3
10
-98.7594694117899
20
5.30110215241882
30
0.000000000000000
11
-106.101204123308
21
21.2062646796492
31
0.000000000000000
 70
34
 1
2°
 71
     8
  3
BEM-ISBE
100
AcDb2LineAngularDimension
13
-98.7594694117899
23
5.30110215241882
33
0.000000000000000
14
-104.474882600674
24
21.8603689137298
34
0.000000000000000
15
-98.7594694117899
25
22.8189577172968
35
0.000000000000000
16
-99.0651981470178
26
22.8162896630447
36
0.000000000000000
1001
ACAD
1000
DSTYLE
1002
{
1070
284
1070
8
1070
79
1070
2
1070
147
1040
0.625
1070
 72
1070
 0
1070
 71
1070
 0
1002
}
  0
DIMENSION
  5
F1000D
330
261
100
AcDbEntity
  8
Bemassung
100
AcDbDimension
  2
*D5
10
-98.2597739982804
20
5.31855190077007
30
0.000000000000000
11
-105.812841901836
21
12.6124647905895
31
0.000000000000000
 70
164
 1
R0.5
 71
     8
  3
BEM-ISBE
100
AcDbRadialDimension
15
-98.6194438984497
25
5.66588108599957
35
0.000000000000000
40
0.0
1001
ACAD
1000
DSTYLE
1002
{
1070
284
1070
8
1070
78
1070
8
1070
144
1040
1.00000000000000
1070
147
1040
0.625
1070
 72
1070
 0
1070
 71
1070
 0
1002
}
  0
DIMENSION
  5
F10008
330
261
100
AcDbEntity
  8
Bemassung
100
AcDbDimension
  2
*D4
10
-108.759773998280
20
5.81855190077007
30
0.000000000000000
11
-108.093107331614
21
0.818551900770075
31
0.000000000000000
 70
32
 1
10
 71
     8
  3
BEM-ISBE
100
AcDbAlignedDimension
13
-98.2597739982804
23
-4.18144809922993
33
0.000000000000000
14
-98.2597739982804
24
5.81855190077007
34
0.000000000000000
50
90.0000000000000
100
AcDbRotatedDimension
1001
ACAD
1000
DSTYLE
1002
{
1070
284
1070
8
1070
78
1070
8
1070
144
1040
1.00000000000000
1070
147
1040
0.625
1070
 72
1070
 0
1070
 71
1070
 0
1002
}
  0
DIMENSION
  5
F10012
330
261
100
AcDbEntity
  8
Bemassung
100
AcDbDimension
  2
*D6
10
-71.0931073316137
20
5.51855190077008
30
0.000000000000000
11
-70.4264406649470
21
-9.21477683327169
31
0.000000000000000
 70
32
 1
9.4
 71
     8
  3
BEM-ISBE
100
AcDbAlignedDimension
13
-76.7597739982804
23
-3.88144809922993
33
0.000000000000000
14
-76.7597739982804
24
5.51855190077008
34
0.000000000000000
50
90.0000000000000
100
AcDbRotatedDimension
1001
ACAD
1000
DSTYLE
1002
{
1070
284
1070
8
1070
78
1070
8
1070
144
1040
1.00000000000000
1070
147
1040
0.625
1070
 72
1070
 0
1070
 71
1070
 0
1002
}
  0
DIMENSION
  5
F10021
330
261
100
AcDbEntity
  8
Bemassung
100
AcDbDimension
  2
*D9
10
-18.7597739982804
20
5.81855190077007
30
0.000000000000000
11
-18.0931073316137
21
0.818551900770075
31
0.000000000000000
 70
32
 1
10h6
 71
     8
  3
BEM-ISBE
100
AcDbAlignedDimension
13
-29.2597739982804
23
-4.18144809922993
33
0.000000000000000
14
-29.2597739982804
24
5.81855190077007
34
0.000000000000000
50
90.0000000000000
100
AcDbRotatedDimension
1001
ACAD
1000
DSTYLE
1002
{
1070
284
1070
8
1070
78
1070
8
1070
144
1040
1.00000000000000
1070
147
1040
0.625
1070
 72
1070
 0
1070
 71
1070
 0
1002
}
  0
LINE
  5
F10088
330
F10089
100
AcDbEntity
8
Geo
100
AcDbLine
10
-98.6029353077169
20
0.818551900770075
30
0.000000000000000
11
-98.7594694117899
21
5.30110215241882
31
0.000000000000000
  0
ARC
  5
F1008A
330
F1008B
100
AcDbEntity
8
Geo
100
AcDbCircle
10
-98.2597739982804
20
5.31855190077007
30
0.000000000000000
 40
0.500000000000000
100
AcDbArc
 50
90.0000000000000
 51
182.000000000000
  0
LINE
  5
F1008C
330
F1008D
100
AcDbEntity
8
Geo
100
AcDbLine
10
-98.2597739982804
20
5.81855190077007
30
0.000000000000000
11
-76.7597739982804
21
5.81855190077007
31
0.000000000000000
  0
LINE
  5
F1008E
330
F1008F
100
AcDbEntity
8
Geo
100
AcDbLine
10
-76.7597739982804
20
5.81855190077007
30
0.000000000000000
11
-76.7597739982804
21
5.51855190077008
31
0.000000000000000
  0
LINE
  5
F10090
330
F10091
100
AcDbEntity
8
Geo
100
AcDbLine
10
-76.7597739982804
20
5.51855190077008
30
0.000000000000000
11
-68.7597739982804
21
5.51855190077008
31
0.000000000000000
  0
LINE
  5
F10092
330
F10093
100
AcDbEntity
8
Geo
100
AcDbLine
10
-68.7597739982804
20
5.51855190077008
30
0.000000000000000
11
-68.7597739982804
21
5.81855190077007
31
0.000000000000000
  0
LINE
  5
F10094
330
F10095
100
AcDbEntity
8
Geo
100
AcDbLine
10
-68.7597739982804
20
5.81855190077007
30
0.000000000000000
11
-29.2597739982804
21
5.81855190077007
31
0.000000000000000
  0
LINE
  5
F10096
330
F10097
100
AcDbEntity
8
Geo
100
AcDbLine
10
-29.2597739982804
20
5.81855190077007
30
0.000000000000000
11
-28.7597739982804
21
5.31855190077007
31
0.000000000000000
  0
LINE
  5
F10098
330
F10099
100
AcDbEntity
8
Geo
100
AcDbLine
10
-95.5597739982804
20
5.81699491595450
30
0.000000000000000
11
-95.4597739982804
21
5.81809401662032
31
0.000000000000000
  0
LINE
  5
F1009A
330
F1009B
100
AcDbEntity
8
Geo
100
AcDbLine
10
-95.4597739982804
20
5.81809401662032
30
0.000000000000000
11
-95.3597739982804
21
5.81178730259147
31
0.000000000000000
  0
LINE
  5
F1009C
330
F1009D
100
AcDbEntity
8
Geo
100
AcDbLine
10
-95.3597739982804
20
5.81178730259147
30
0.000000000000000
11
-95.2597739982804
21
5.79808411599454
31
0.000000000000000
  0
LINE
  5
F1009E
330
F1009F
100
AcDbEntity
8
Geo
100
AcDbLine
10
-95.2597739982804
20
5.79808411599454
30
0.000000000000000
11
-95.1597739982804
21
5.77700475534054
31
0.000000000000000
  0
LINE
  5
F100A0
330
F100A1
100
AcDbEntity
8
Geo
100
AcDbLine
10
-95.1597739982804
20
5.77700475534054
30
0.000000000000000
11
-95.0597739982804
21
5.74858044545674
31
0.000000000000000
  0
LINE
  5
F100A2
330
F100A3
100
AcDbEntity
8
Geo
100
AcDbLine
10
-95.0597739982804
20
5.74858044545674
30
0.000000000000000
11
-94.9597739982804
21
5.71285329123331
31
0.000000000000000
  0
LINE
  5
F100A4
330
F100A5
100
AcDbEntity
8
Geo
100
AcDbLine
10
-94.9597739982804
20
5.71285329123331
30
0.000000000000000
11
-94.8597739982804
21
5.66987621525349
31
0.000000000000000
  0
LINE
  5
F100A6
330
F100A7
100
AcDbEntity
8
Geo
100
AcDbLine
10
-94.8597739982804
20
5.66987621525349
30
0.000000000000000
11
-94.7597739982804
21
5.61971287939940
31
0.000000000000000
  0
LINE
  5
F100A8
330
F100A9
100
AcDbEntity
8
Geo
100
AcDbLine
10
-94.7597739982804
20
5.61971287939940
30
0.000000000000000
11
-94.6597739982804
21
5.56243759054980
31
0.000000000000000
  0
LINE
  5
F100AA
330
F100AB
100
AcDbEntity
8
Geo
100
AcDbLine
10
-94.6597739982804
20
5.56243759054980
30
0.000000000000000
11
-94.5597739982804
21
5.49813519050938
31
0.000000000000000
  0
LINE
  5
F100AC
330
F100AD
100
AcDbEntity
8
Geo
100
AcDbLine
10
-94.5597739982804
20
5.49813519050938
30
0.000000000000000
11
-94.4597739982804
21
5.42690093033275
31
0.000000000000000
  0
LINE
  5
F100AE
330
F100AF
100
AcDbEntity
8
Geo
100
AcDbLine
10
-94.4597739982804
20
5.42690093033275
30
0.000000000000000
11
-94.3597739982804
21
5.34884032922920
31
0.000000000000000
  0
LINE
  5
F100B0
330
F100B1
100
AcDbEntity
8
Geo
100
AcDbLine
10
-94.3597739982804
20
5.34884032922920
30
0.000000000000000
11
-94.2597739982804
21
5.26406901825719
31
0.000000000000000
  0
LINE
  5
F100B2
330
F100B3
100
AcDbEntity
8
Geo
100
AcDbLine
10
-94.2597739982804
20
5.26406901825719
30
0.000000000000000
11
-94.1597739982804
21
5.17271256904026
31
0.000000000000000
  0
LINE
  5
F100B4
330
F100B5
100
AcDbEntity
8
Geo
100
AcDbLine
10
-94.1597739982804
20
5.17271256904026
30
0.000000000000000
11
-94.0597739982804
21
5.07490630775798
31
0.000000000000000
  0
LINE
  5
F100B6
330
F100B7
100
AcDbEntity
8
Geo
100
AcDbLine
10
-94.0597739982804
20
5.07490630775798
30
0.000000000000000
11
-93.9597739982804
21
4.97079511468743
31
0.000000000000000
  0
LINE
  5
F100B8
330
F100B9
100
AcDbEntity
8
Geo
100
AcDbLine
10
-93.9597739982804
20
4.97079511468743
30
0.000000000000000
11
-93.8597739982804
21
4.86053320959226
31
0.000000000000000
  0
LINE
  5
F100BA
330
F100BB
100
AcDbEntity
8
Geo
100
AcDbLine
10
-93.8597739982804
20
4.86053320959226
30
0.000000000000000
11
-93.7597739982804
21
4.74428392327721
31
0.000000000000000
  0
LINE
  5
F100BC
330
F100BD
100
AcDbEntity
8
Geo
100
AcDbLine
10
-93.7597739982804
20
4.74428392327721
30
0.000000000000000
11
-93.6597739982804
21
4.62221945564635
31
0.000000000000000
  0
LINE
  5
F100BE
330
F100BF
100
AcDbEntity
8
Geo
100
AcDbLine
10
-93.6597739982804
20
4.62221945564635
30
0.000000000000000
11
-93.5597739982804
21
4.49452062062368
31
0.000000000000000
  0
LINE
  5
F100C0
330
F100C1
100
AcDbEntity
8
Geo
100
AcDbLine
10
-93.5597739982804
20
4.49452062062368
30
0.000000000000000
11
-93.4597739982804
21
4.36137657831365
31
0.000000000000000
  0
LINE
  5
F100C2
330
F100C3
100
AcDbEntity
8
Geo
100
AcDbLine
10
-93.4597739982804
20
4.36137657831365
30
0.000000000000000
11
-93.3597739982804
21
4.22298455479861
31
0.000000000000000
  0
LINE
  5
F100C4
330
F100C5
100
AcDbEntity
8
Geo
100
AcDbLine
10
-93.3597739982804
20
4.22298455479861
30
0.000000000000000
11
-93.2597739982804
21
4.07954954998808
31
0.000000000000000
  0
LINE
  5
F100C6
330
F100C7
100
AcDbEntity
8
Geo
100
AcDbLine
10
-93.2597739982804
20
4.07954954998808
30
0.000000000000000
11
-93.1597739982804
21
3.93128403395267
31
0.000000000000000
  0
LINE
  5
F100C8
330
F100C9
100
AcDbEntity
8
Geo
100
AcDbLine
10
-93.1597739982804
20
3.93128403395267
30
0.000000000000000
11
-93.0597739982804
21
3.77840763219245
31
0.000000000000000
  0
LINE
  5
F100CA
330
F100CB
100
AcDbEntity
8
Geo
100
AcDbLine
10
-93.0597739982804
20
3.77840763219245
30
0.000000000000000
11
-92.9597739982804
21
3.62114680030605
31
0.000000000000000
  0
LINE
  5
F100CC
330
F100CD
100
AcDbEntity
8
Geo
100
AcDbLine
10
-92.9597739982804
20
3.62114680030605
30
0.000000000000000
11
-92.8597739982804
21
3.45973448854223
31
0.000000000000000
  0
LINE
  5
F100CE
330
F100CF
100
AcDbEntity
8
Geo
100
AcDbLine
10
-92.8597739982804
20
3.45973448854223
30
0.000000000000000
11
-92.7597739982804
21
3.29440979673109
31
0.000000000000000
  0
LINE
  5
F100D0
330
F100D1
100
AcDbEntity
8
Geo
100
AcDbLine
10
-92.7597739982804
20
3.29440979673109
30
0.000000000000000
11
-92.6597739982804
21
3.12541762010574
31
0.000000000000000
  0
LINE
  5
F100D2
330
F100D3
100
AcDbEntity
8
Geo
100
AcDbLine
10
-92.6597739982804
20
3.12541762010574
30
0.000000000000000
11
-92.5597739982804
21
2.95300828653941
31
0.000000000000000
  0
LINE
  5
F100D4
330
F100D5
100
AcDbEntity
8
Geo
100
AcDbLine
10
-92.5597739982804
20
2.95300828653941
30
0.000000000000000
11
-92.4597739982804
21
2.77743718573508
31
0.000000000000000
  0
LINE
  5
F100D6
330
F100D7
100
AcDbEntity
8
Geo
100
AcDbLine
10
-92.4597739982804
20
2.77743718573508
30
0.000000000000000
11
-92.3597739982804
21
2.59896439091709
31
0.000000000000000
  0
LINE
  5
F100D8
330
F100D9
100
AcDbEntity
8
Geo
100
AcDbLine
10
-92.3597739982804
20
2.59896439091709
30
0.000000000000000
11
-92.2597739982804
21
2.41785427358505
31
0.000000000000000
  0
LINE
  5
F100DA
330
F100DB
100
AcDbEntity
8
Geo
100
AcDbLine
10
-92.2597739982804
20
2.41785427358505
30
0.000000000000000
11
-92.1597739982804
21
2.23437511190067
31
0.000000000000000
  0
LINE
  5
F100DC
330
F100DD
100
AcDbEntity
8
Geo
100
AcDbLine
10
-92.1597739982804
20
2.23437511190067
30
0.000000000000000
11
-92.0597739982804
21
2.04879869328774
31
0.000000000000000
  0
LINE
  5
F100DE
330
F100DF
100
AcDbEntity
8
Geo
100
AcDbLine
10
-92.0597739982804
20
2.04879869328774
30
0.000000000000000
11
-91.9597739982804
21
1.86139991183377
31
0.000000000000000
  0
LINE
  5
F100E0
330
F100E1
100
AcDbEntity
8
Geo
100
AcDbLine
10
-91.9597739982804
20
1.86139991183377
30
0.000000000000000
11
-91.8597739982804
21
1.67245636108980
31
0.000000000000000
  0
LINE
  5
F100E2
330
F100E3
100
AcDbEntity
8
Geo
100
AcDbLine
10
-91.8597739982804
20
1.67245636108980
30
0.000000000000000
11
-91.7597739982804
21
1.48224792287142
31
0.000000000000000
  0
LINE
  5
F100E4
330
F100E5
100
AcDbEntity
8
Geo
100
AcDbLine
10
-91.7597739982804
20
1.48224792287142
30
0.000000000000000
11
-91.6597739982804
21
1.29105635267028
31
0.000000000000000
  0
LINE
  5
F100E6
330
F100E7
100
AcDbEntity
8
Geo
100
AcDbLine
10
-91.6597739982804
20
1.29105635267028
30
0.000000000000000
11
-91.5597739982804
21
1.09916486229003
31
0.000000000000000
  0
LINE
  5
F100E8
330
F100E9
100
AcDbEntity
8
Geo
100
AcDbLine
10
-91.5597739982804
20
1.09916486229003
30
0.000000000000000
11
-91.4597739982804
21
0.906857700325109
31
0.000000000000000
  0
LINE
  5
F100EA
330
F100EB
100
AcDbEntity
8
Geo
100
AcDbLine
10
-91.4597739982804
20
0.906857700325109
30
0.000000000000000
11
-91.3597739982804
21
0.714419731103678
31
0.000000000000000
  0
LINE
  5
F100EC
330
F100ED
100
AcDbEntity
8
Geo
100
AcDbLine
10
-91.3597739982804
20
0.714419731103678
30
0.000000000000000
11
-91.2597739982804
21
0.522136012718511
31
0.000000000000000
  0
LINE
  5
F100EE
330
F100EF
100
AcDbEntity
8
Geo
100
AcDbLine
10
-91.2597739982804
20
0.522136012718511
30
0.000000000000000
11
-91.1597739982804
21
0.330291374770832
31
0.000000000000000
  0
LINE
  5
F100F0
330
F100F1
100
AcDbEntity
8
Geo
100
AcDbLine
10
-91.1597739982804
20
0.330291374770832
30
0.000000000000000
11
-91.0597739982804
21
0.139169996452631
31
0.000000000000000
  0
LINE
  5
F100F2
330
F100F3
100
AcDbEntity
8
Geo
100
AcDbLine
10
-91.0597739982804
20
0.139169996452631
30
0.000000000000000
11
-90.9597739982804
21
-0.0509450144075687
31
0.000000000000000
  0
LINE
  5
F100F4
330
F100F5
100
AcDbEntity
8
Geo
100
AcDbLine
10
-90.9597739982804
20
-0.0509450144075687
30
0.000000000000000
11
-90.8597739982804
21
-0.239772040711945
31
0.000000000000000
  0
LINE
  5
F100F6
330
F100F7
100
AcDbEntity
8
Geo
100
AcDbLine
10
-90.8597739982804
20
-0.239772040711945
30
0.000000000000000
11
-90.7597739982804
21
-0.427031373252385
31
0.000000000000000
  0
LINE
  5
F100F8
330
F100F9
100
AcDbEntity
8
Geo
100
AcDbLine
10
-90.7597739982804
20
-0.427031373252385
30
0.000000000000000
11
-90.6597739982804
21
-0.612445625043339
31
0.000000000000000
  0
LINE
  5
F100FA
330
F100FB
100
AcDbEntity
8
Geo
100
AcDbLine
10
-90.6597739982804
20
-0.612445625043339
30
0.000000000000000
11
-90.5597739982804
21
-0.795740142214774
31
0.000000000000000
  0
LINE
  5
F100FC
330
F100FD
100
AcDbEntity
8
Geo
100
AcDbLine
10
-90.5597739982804
20
-0.795740142214774
30
0.000000000000000
11
-90.4597739982804
21
-0.976643410856559
31
0.000000000000000
  0
LINE
  5
F100FE
330
F100FF
100
AcDbEntity
8
Geo
100
AcDbLine
10
-90.4597739982804
20
-0.976643410856559
30
0.000000000000000
11
-90.3597739982804
21
-1.15488745921165
31
0.000000000000000
  0
LINE
  5
F10100
330
F10101
100
AcDbEntity
8
Geo
100
AcDbLine
10
-90.3597739982804
20
-1.15488745921165
30
0.000000000000000
11
-90.2597739982804
21
-1.33020825462226
31
0.000000000000000
  0
LINE
  5
F10102
330
F10103
100
AcDbEntity
8
Geo
100
AcDbLine
10
-90.2597739982804
20
-1.33020825462226
30
0.000000000000000
11
-90.1597739982804
21
-1.50234609464107
31
0.000000000000000
  0
LINE
  5
F10104
330
F10105
100
AcDbEntity
8
Geo
100
AcDbLine
10
-90.1597739982804
20
-1.50234609464107
30
0.000000000000000
11
-90.0597739982804
21
-1.67104599172812
31
0.000000000000000
  0
LINE
  5
F10106
330
F10107
100
AcDbEntity
8
Geo
100
AcDbLine
10
-90.0597739982804
20
-1.67104599172812
30
0.000000000000000
11
-89.9597739982804
21
-1.83605805096345
31
0.000000000000000
  0
LINE
  5
F10108
330
F10109
100
AcDbEntity
8
Geo
100
AcDbLine
10
-89.9597739982804
20
-1.83605805096345
30
0.000000000000000
11
-89.8597739982804
21
-1.99713784021612
31
0.000000000000000
  0
LINE
  5
F1010A
330
F1010B
100
AcDbEntity
8
Geo
100
AcDbLine
10
-89.8597739982804
20
-1.99713784021612
30
0.000000000000000
11
-89.7597739982804
21
-2.15404675222118
31
0.000000000000000
  0
LINE
  5
F1010C
330
F1010D
100
AcDbEntity
8
Geo
100
AcDbLine
10
-89.7597739982804
20
-2.15404675222118
30
0.000000000000000
11
-89.6597739982804
21
-2.30655235802828
31
0.000000000000000
  0
LINE
  5
F1010E
330
F1010F
100
AcDbEntity
8
Geo
100
AcDbLine
10
-89.6597739982804
20
-2.30655235802828
30
0.000000000000000
11
-89.5597739982804
21
-2.45442875129833
31
0.000000000000000
  0
LINE
  5
F10110
330
F10111
100
AcDbEntity
8
Geo
100
AcDbLine
10
-89.5597739982804
20
-2.45442875129833
30
0.000000000000000
11
-89.4597739982804
21
-2.59745688293824
31
0.000000000000000
  0
LINE
  5
F10112
330
F10113
100
AcDbEntity
8
Geo
100
AcDbLine
10
-89.4597739982804
20
-2.59745688293824
30
0.000000000000000
11
-89.3597739982804
21
-2.73542488557808
31
0.000000000000000
  0
LINE
  5
F10114
330
F10115
100
AcDbEntity
8
Geo
100
AcDbLine
10
-89.3597739982804
20
-2.73542488557808
30
0.000000000000000
11
-89.2597739982804
21
-2.86812838740985
31
0.000000000000000
  0
LINE
  5
F10116
330
F10117
100
AcDbEntity
8
Geo
100
AcDbLine
10
-89.2597739982804
20
-2.86812838740985
30
0.000000000000000
11
-89.1597739982804
21
-2.99537081492318
31
0.000000000000000
  0
LINE
  5
F10118
330
F10119
100
AcDbEntity
8
Geo
100
AcDbLine
10
-89.1597739982804
20
-2.99537081492318
30
0.000000000000000
11
-89.0597739982804
21
-3.11696368408943
31
0.000000000000000
  0
LINE
  5
F1011A
330
F1011B
100
AcDbEntity
8
Geo
100
AcDbLine
10
-89.0597739982804
20
-3.11696368408943
30
0.000000000000000
11
-88.9597739982804
21
-3.23272687956273
31
0.000000000000000
  0
LINE
  5
F1011C
330
F1011D
100
AcDbEntity
8
Geo
100
AcDbLine
10
-88.9597739982804
20
-3.23272687956273
30
0.000000000000000
11
-88.8597739982804
21
-3.34248892148470
31
0.000000000000000
  0
LINE
  5
F1011E
330
F1011F
100
AcDbEntity
8
Geo
100
AcDbLine
10
-88.8597739982804
20
-3.34248892148470
30
0.000000000000000
11
-88.7597739982804
21
-3.44608721949721
31
0.000000000000000
  0
LINE
  5
F10120
330
F10121
100
AcDbEntity
8
Geo
100
AcDbLine
10
-88.7597739982804
20
-3.44608721949721
30
0.000000000000000
11
-88.6597739982804
21
-3.54336831358734
31
0.000000000000000
  0
LINE
  5
F10122
330
F10123
100
AcDbEntity
8
Geo
100
AcDbLine
10
-88.6597739982804
20
-3.54336831358734
30
0.000000000000000
11
-88.5597739982804
21
-3.63418810140742
31
0.000000000000000
  0
LINE
  5
F10124
330
F10125
100
AcDbEntity
8
Geo
100
AcDbLine
10
-88.5597739982804
20
-3.63418810140742
30
0.000000000000000
11
-88.4597739982804
21
-3.71841205173367
31
0.000000000000000
  0
LINE
  5
F10126
330
F10127
100
AcDbEntity
8
Geo
100
AcDbLine
10
-88.4597739982804
20
-3.71841205173367
30
0.000000000000000
11
-88.3597739982804
21
-3.79591540374710
31
0.000000000000000
  0
LINE
  5
F10128
330
F10129
100
AcDbEntity
8
Geo
100
AcDbLine
10
-88.3597739982804
20
-3.79591540374710
30
0.000000000000000
11
-88.2597739982804
21
-3.86658335184152
31
0.000000000000000
  0
LINE
  5
F1012A
330
F1012B
100
AcDbEntity
8
Geo
100
AcDbLine
10
-88.2597739982804
20
-3.86658335184152
30
0.000000000000000
11
-88.1597739982804
21
-3.93031121568496
31
0.000000000000000
  0
LINE
  5
F1012C
330
F1012D
100
AcDbEntity
8
Geo
100
AcDbLine
10
-88.1597739982804
20
-3.93031121568496
30
0.000000000000000
11
-88.0597739982804
21
-3.98700459528246
31
0.000000000000000
  0
LINE
  5
F1012E
330
F1012F
100
AcDbEntity
8
Geo
100
AcDbLine
10
-88.0597739982804
20
-3.98700459528246
30
0.000000000000000
11
-87.9597739982804
21
-4.03657951081067
31
0.000000000000000
  0
LINE
  5
F10130
330
F10131
100
AcDbEntity
8
Geo
100
AcDbLine
10
-87.9597739982804
20
-4.03657951081067
30
0.000000000000000
11
-87.8597739982804
21
-4.07896252701704
31
0.000000000000000
  0
LINE
  5
F10132
330
F10133
100
AcDbEntity
8
Geo
100
AcDbLine
10
-87.8597739982804
20
-4.07896252701704
30
0.000000000000000
11
-87.7597739982804
21
-4.11409086199936
31
0.000000000000000
  0
LINE
  5
F10134
330
F10135
100
AcDbEntity
8
Geo
100
AcDbLine
10
-87.7597739982804
20
-4.11409086199936
30
0.000000000000000
11
-87.6597739982804
21
-4.14191248020450
31
0.000000000000000
  0
LINE
  5
F10136
330
F10137
100
AcDbEntity
8
Geo
100
AcDbLine
10
-87.6597739982804
20
-4.14191248020450
30
0.000000000000000
11
-87.5597739982804
21
-4.16238616950859
31
0.000000000000000
  0
LINE
  5
F10138
330
F10139
100
AcDbEntity
8
Geo
100
AcDbLine
10
-87.5597739982804
20
-4.16238616950859
30
0.000000000000000
11
-87.4597739982804
21
-4.17548160226451
31
0.000000000000000
  0
LINE
  5
F1013A
330
F1013B
100
AcDbEntity
8
Geo
100
AcDbLine
10
-87.4597739982804
20
-4.17548160226451
30
0.000000000000000
11
-87.3597739982804
21
-4.18117938022616
31
0.000000000000000
  0
LINE
  5
F1013C
330
F1013D
100
AcDbEntity
8
Geo
100
AcDbLine
10
-78.4597739982803
20
5.81855190077007
30
0.000000000000000
11
-78.3597739982803
21
5.81855189114405
31
0.000000000000000
  0
LINE
  5
F1013E
330
F1013F
100
AcDbEntity
8
Geo
100
AcDbLine
10
-78.3597739982803
20
5.81855189114405
30
0.000000000000000
11
-78.2597739982803
21
5.81800910516027
31
0.000000000000000
  0
LINE
  5
F10140
330
F10141
100
AcDbEntity
8
Geo
100
AcDbLine
10
-78.2597739982803
20
5.81800910516027
30
0.000000000000000
11
-78.1597739982803
21
5.81651119710173
31
0.000000000000000
  0
LINE
  5
F10142
330
F10143
100
AcDbEntity
8
Geo
100
AcDbLine
10
-78.1597739982803
20
5.81651119710173
30
0.000000000000000
11
-78.0597739982803
21
5.81423200969352
31
0.000000000000000
  0
LINE
  5
F10144
330
F10145
100
AcDbEntity
8
Geo
100
AcDbLine
10
-78.0597739982803
20
5.81423200969352
30
0.000000000000000
11
-77.9597739982803
21
5.81133493221764
31
0.000000000000000
  0
LINE
  5
F10146
330
F10147
100
AcDbEntity
8
Geo
100
AcDbLine
10
-77.9597739982803
20
5.81133493221764
30
0.000000000000000
11
-77.8597739982803
21
5.80797283177816
31
0.000000000000000
  0
LINE
  5
F10148
330
F10149
100
AcDbEntity
8
Geo
100
AcDbLine
10
-77.8597739982803
20
5.80797283177816
30
0.000000000000000
11
-77.7597739982803
21
5.80428800774898
31
0.000000000000000
  0
LINE
  5
F1014A
330
F1014B
100
AcDbEntity
8
Geo
100
AcDbLine
10
-77.7597739982803
20
5.80428800774898
30
0.000000000000000
11
-77.6597739982803
21
5.80041216566443
31
0.000000000000000
  0
LINE
  5
F1014C
330
F1014D
100
AcDbEntity
8
Geo
100
AcDbLine
10
-77.6597739982803
20
5.80041216566443
30
0.000000000000000
11
-77.5597739982803
21
5.79646640706411
31
0.000000000000000
  0
LINE
  5
F1014E
330
F1014F
100
AcDbEntity
8
Geo
100
AcDbLine
10
-77.5597739982803
20
5.79646640706411
30
0.000000000000000
11
-77.4597739982803
21
5.79256123205874
31
0.000000000000000
  0
LINE
  5
F10150
330
F10151
100
AcDbEntity
8
Geo
100
AcDbLine
10
-77.4597739982803
20
5.79256123205874
30
0.000000000000000
11
-77.3597739982803
21
5.78879655164140
31
0.000000000000000
  0
LINE
  5
F10152
330
F10153
100
AcDbEntity
8
Geo
100
AcDbLine
10
-77.3597739982803
20
5.78879655164140
30
0.000000000000000
11
-77.2597739982803
21
5.78526170702804
31
0.000000000000000
  0
LINE
  5
F10154
330
F10155
100
AcDbEntity
8
Geo
100
AcDbLine
10
-77.2597739982803
20
5.78526170702804
30
0.000000000000000
11
-77.1597739982803
21
5.78203549357133
31
0.000000000000000
  0
LINE
  5
F10156
330
F10157
100
AcDbEntity
8
Geo
100
AcDbLine
10
-77.1597739982803
20
5.78203549357133
30
0.000000000000000
11
-77.0597739982803
21
5.77918618705200
31
0.000000000000000
  0
LINE
  5
F10158
330
F10159
100
AcDbEntity
8
Geo
100
AcDbLine
10
-77.0597739982803
20
5.77918618705200
30
0.000000000000000
11
-76.9597739982803
21
5.77677157041218
31
0.000000000000000
  0
LINE
  5
F1015A
330
F1015B
100
AcDbEntity
8
Geo
100
AcDbLine
10
-76.9597739982803
20
5.77677157041218
30
0.000000000000000
11
-76.8597739982803
21
5.77483895925398
31
0.000000000000000
  0
LINE
  5
F1015C
330
F1015D
100
AcDbEntity
8
Geo
100
AcDbLine
10
-76.8597739982803
20
5.77483895925398
30
0.000000000000000
11
-76.7597739982804
21
5.77342522468550
31
0.000000000000000
  0
LINE
  5
F1015E
330
F1015F
100
AcDbEntity
8
Geo
100
AcDbLine
10
-98.7597739982804
20
5.31855190077007
30
0.000000000000000
11
-98.6597739982804
21
5.61499678415032
31
0.000000000000000
  0
LINE
  5
F10160
330
F10161
100
AcDbEntity
8
Geo
100
AcDbLine
10
-98.6597739982804
20
5.61499678415032
30
0.000000000000000
11
-98.5597739982804
21
5.70404055047426
31
0.000000000000000
  0
LINE
  5
F10162
330
F10163
100
AcDbEntity
8
Geo
100
AcDbLine
10
-98.5597739982804
20
5.70404055047426
30
0.000000000000000
11
-98.4597739982804
21
5.74379113131661
31
0.000000000000000
  0
LINE
  5
F10164
330
F10165
100
AcDbEntity
8
Geo
100
AcDbLine
10
-98.4597739982804
20
5.74379113131661
30
0.000000000000000
11
-98.3597739982804
21
5.74942704464946
31
0.000000000000000
  0
LINE
  5
F10166
330
F10167
100
AcDbEntity
8
Geo
100
AcDbLine
10
-98.3597739982804
20
5.74942704464946
30
0.000000000000000
11
-98.2597739982804
21
5.72624473520317
31
0.000000000000000
  0
LINE
  5
F10168
330
F10169
100
AcDbEntity
8
Geo
100
AcDbLine
10
-98.2597739982804
20
5.72624473520317
30
0.000000000000000
11
-98.1597739982804
21
5.68581010753413
31
0.000000000000000
  0
LINE
  5
F1016A
330
F1016B
100
AcDbEntity
8
Geo
100
AcDbLine
10
-98.1597739982804
20
5.68581010753413
30
0.000000000000000
11
-98.0597739982804
21
5.63816561713863
31
0.000000000000000
  0
LINE
  5
F1016C
330
F1016D
100
AcDbEntity
8
Geo
100
AcDbLine
10
-98.0597739982804
20
5.63816561713863
30
0.000000000000000
11
-97.9597739982804
21
5.58338183973318
31
0.000000000000000
  0
LINE
  5
F1016E
330
F1016F
100
AcDbEntity
8
Geo
100
AcDbLine
10
-97.9597739982804
20
5.58338183973318
30
0.000000000000000
11
-97.8597739982804
21
5.52153992645011
31
0.000000000000000
  0
LINE
  5
F10170
330
F10171
100
AcDbEntity
8
Geo
100
AcDbLine
10
-97.8597739982804
20
5.52153992645011
30
0.000000000000000
11
-97.7597739982804
21
5.45273148362844
31
0.000000000000000
  0
LINE
  5
F10172
330
F10173
100
AcDbEntity
8
Geo
100
AcDbLine
10
-97.7597739982804
20
5.45273148362844
30
0.000000000000000
11
-97.6597739982804
21
5.37705843711763
31
0.000000000000000
  0
LINE
  5
F10174
330
F10175
100
AcDbEntity
8
Geo
100
AcDbLine
10
-97.6597739982804
20
5.37705843711763
30
0.000000000000000
11
-97.5597739982804
21
5.29463288129489
31
0.000000000000000
  0
LINE
  5
F10176
330
F10177
100
AcDbEntity
8
Geo
100
AcDbLine
10
-97.5597739982804
20
5.29463288129489
30
0.000000000000000
11
-97.4597739982804
21
5.20557691301996
31
0.000000000000000
  0
LINE
  5
F10178
330
F10179
100
AcDbEntity
8
Geo
100
AcDbLine
10
-97.4597739982804
20
5.20557691301996
30
0.000000000000000
11
-97.3597739982804
21
5.11002245077323
31
0.000000000000000
  0
LINE
  5
F1017A
330
F1017B
100
AcDbEntity
8
Geo
100
AcDbLine
10
-97.3597739982804
20
5.11002245077323
30
0.000000000000000
11
-97.2597739982804
21
5.00811103924504
31
0.000000000000000
  0
LINE
  5
F1017C
330
F1017D
100
AcDbEntity
8
Geo
100
AcDbLine
10
-97.2597739982804
20
5.00811103924504
30
0.000000000000000
11
-97.1597739982804
21
4.89999363966575
31
0.000000000000000
  0
LINE
  5
F1017E
330
F1017F
100
AcDbEntity
8
Geo
100
AcDbLine
10
-97.1597739982804
20
4.89999363966575
30
0.000000000000000
11
-97.0597739982804
21
4.78583040618707
31
0.000000000000000
  0
LINE
  5
F10180
330
F10181
100
AcDbEntity
8
Geo
100
AcDbLine
10
-97.0597739982804
20
4.78583040618707
30
0.000000000000000
11
-96.9597739982804
21
4.66579044864598
31
0.000000000000000
  0
LINE
  5
F10182
330
F10183
100
AcDbEntity
8
Geo
100
AcDbLine
10
-96.9597739982804
20
4.66579044864598
30
0.000000000000000
11
-96.8597739982804
21
4.54005158206250
31
0.000000000000000
  0
LINE
  5
F10184
330
F10185
100
AcDbEntity
8
Geo
100
AcDbLine
10
-96.8597739982804
20
4.54005158206250
30
0.000000000000000
11
-96.7597739982804
21
4.40880006324261
31
0.000000000000000
  0
LINE
  5
F10186
330
F10187
100
AcDbEntity
8
Geo
100
AcDbLine
10
-96.7597739982804
20
4.40880006324261
30
0.000000000000000
11
-96.6597739982804
21
4.27223031487629
31
0.000000000000000
  0
LINE
  5
F10188
330
F10189
100
AcDbEntity
8
Geo
100
AcDbLine
10
-96.6597739982804
20
4.27223031487629
30
0.000000000000000
11
-96.5597739982804
21
4.13054463753943
31
0.000000000000000
  0
LINE
  5
F1018A
330
F1018B
100
AcDbEntity
8
Geo
100
AcDbLine
10
-96.5597739982804
20
4.13054463753943
30
0.000000000000000
11
-96.4597739982804
21
3.98395291002632
31
0.000000000000000
  0
LINE
  5
F1018C
330
F1018D
100
AcDbEntity
8
Geo
100
AcDbLine
10
-96.4597739982804
20
3.98395291002632
30
0.000000000000000
11
-96.3597739982804
21
3.83267227845646
31
0.000000000000000
  0
LINE
  5
F1018E
330
F1018F
100
AcDbEntity
8
Geo
100
AcDbLine
10
-96.3597739982804
20
3.83267227845646
30
0.000000000000000
11
-96.2597739982804
21
3.67692683461633
31
0.000000000000000
  0
LINE
  5
F10190
330
F10191
100
AcDbEntity
8
Geo
100
AcDbLine
10
-96.2597739982804
20
3.67692683461633
30
0.000000000000000
11
-96.1597739982804
21
3.51694728401253
31
0.000000000000000
  0
LINE
  5
F10192
330
F10193
100
AcDbEntity
8
Geo
100
AcDbLine
10
-96.1597739982804
20
3.51694728401253
30
0.000000000000000
11
-96.0597739982804
21
3.35297060412804
31
0.000000000000000
  0
LINE
  5
F10194
330
F10195
100
AcDbEntity
8
Geo
100
AcDbLine
10
-96.0597739982804
20
3.35297060412804
30
0.000000000000000
11
-95.9597739982804
21
3.18523969338783
31
0.000000000000000
  0
LINE
  5
F10196
330
F10197
100
AcDbEntity
8
Geo
100
AcDbLine
10
-95.9597739982804
20
3.18523969338783
30
0.000000000000000
11
-95.8597739982804
21
3.01400301135375
31
0.000000000000000
  0
LINE
  5
F10198
330
F10199
100
AcDbEntity
8
Geo
100
AcDbLine
10
-95.8597739982804
20
3.01400301135375
30
0.000000000000000
11
-95.7597739982804
21
2.83951421068171
31
0.000000000000000
  0
LINE
  5
F1019A
330
F1019B
100
AcDbEntity
8
Geo
100
AcDbLine
10
-95.7597739982804
20
2.83951421068171
30
0.000000000000000
11
-95.6597739982804
21
2.66203176138639
31
0.000000000000000
  0
LINE
  5
F1019C
330
F1019D
100
AcDbEntity
8
Geo
100
AcDbLine
10
-95.6597739982804
20
2.66203176138639
30
0.000000000000000
11
-95.5597739982804
21
2.48181856796996
31
0.000000000000000
  0
LINE
  5
F1019E
330
F1019F
100
AcDbEntity
8
Geo
100
AcDbLine
10
-95.5597739982804
20
2.48181856796996
30
0.000000000000000
11
-95.4597739982804
21
2.29914157998201
31
0.000000000000000
  0
LINE
  5
F101A0
330
F101A1
100
AcDbEntity
8
Geo
100
AcDbLine
10
-95.4597739982804
20
2.29914157998201
30
0.000000000000000
11
-95.3597739982804
21
2.11427139658756
31
0.000000000000000
  0
LINE
  5
F101A2
330
F101A3
100
AcDbEntity
8
Geo
100
AcDbLine
10
-95.3597739982804
20
2.11427139658756
30
0.000000000000000
11
-95.2597739982804
21
1.92748186572889
31
0.000000000000000
  0
LINE
  5
F101A4
330
F101A5
100
AcDbEntity
8
Geo
100
AcDbLine
10
-95.2597739982804
20
1.92748186572889
30
0.000000000000000
11
-95.1597739982804
21
1.73904967847498
31
0.000000000000000
  0
LINE
  5
F101A6
330
F101A7
100
AcDbEntity
8
Geo
100
AcDbLine
10
-95.1597739982804
20
1.73904967847498
30
0.000000000000000
11
-95.0597739982804
21
1.54925395915942
31
0.000000000000000
  0
LINE
  5
F101A8
330
F101A9
100
AcDbEntity
8
Geo
100
AcDbLine
10
-95.0597739982804
20
1.54925395915942
30
0.000000000000000
11
-94.9597739982804
21
1.35837585191392
31
0.000000000000000
  0
LINE
  5
F101AA
330
F101AB
100
AcDbEntity
8
Geo
100
AcDbLine
10
-94.9597739982804
20
1.35837585191392
30
0.000000000000000
11
-94.8597739982804
21
1.16669810420989
31
0.000000000000000
  0
LINE
  5
F101AC
330
F101AD
100
AcDbEntity
8
Geo
100
AcDbLine
10
-94.8597739982804
20
1.16669810420989
30
0.000000000000000
11
-94.7597739982804
21
0.974504648025048
31
0.000000000000000
  0
LINE
  5
F101AE
330
F101AF
100
AcDbEntity
8
Geo
100
AcDbLine
10
-94.7597739982804
20
0.974504648025048
30
0.000000000000000
11
-94.6597739982804
21
0.782080179255347
31
0.000000000000000
  0
LINE
  5
F101B0
330
F101B1
100
AcDbEntity
8
Geo
100
AcDbLine
10
-94.6597739982804
20
0.782080179255347
30
0.000000000000000
11
-94.5597739982804
21
0.589709735995358
31
0.000000000000000
  0
LINE
  5
F101B2
330
F101B3
100
AcDbEntity
8
Geo
100
AcDbLine
10
-94.5597739982804
20
0.589709735995358
30
0.000000000000000
11
-94.4597739982804
21
0.397678276311741
31
0.000000000000000
  0
LINE
  5
F101B4
330
F101B5
100
AcDbEntity
8
Geo
100
AcDbLine
10
-94.4597739982804
20
0.397678276311741
30
0.000000000000000
11
-94.3597739982804
21
0.206270256135259
31
0.000000000000000
  0
LINE
  5
F101B6
330
F101B7
100
AcDbEntity
8
Geo
100
AcDbLine
10
-94.3597739982804
20
0.206270256135259
30
0.000000000000000
11
-94.2597739982804
21
0.0157692078966177
31
0.000000000000000
  0
LINE
  5
F101B8
330
F101B9
100
AcDbEntity
8
Geo
100
AcDbLine
10
-94.2597739982804
20
0.0157692078966177
30
0.000000000000000
11
-94.1597739982804
21
-0.173542679469739
31
0.000000000000000
  0
LINE
  5
F101BA
330
F101BB
100
AcDbEntity
8
Geo
100
AcDbLine
10
-94.1597739982804
20
-0.173542679469739
30
0.000000000000000
11
-94.0597739982804
21
-0.361384978531686
31
0.000000000000000
  0
LINE
  5
F101BC
330
F101BD
100
AcDbEntity
8
Geo
100
AcDbLine
10
-94.0597739982804
20
-0.361384978531686
30
0.000000000000000
11
-93.9597739982804
21
-0.547479438756187
31
0.000000000000000
  0
LINE
  5
F101BE
330
F101BF
100
AcDbEntity
8
Geo
100
AcDbLine
10
-93.9597739982804
20
-0.547479438756187
30
0.000000000000000
11
-93.8597739982804
21
-0.731550398681416
31
0.000000000000000
  0
LINE
  5
F101C0
330
F101C1
100
AcDbEntity
8
Geo
100
AcDbLine
10
-93.8597739982804
20
-0.731550398681416
30
0.000000000000000
11
-93.7597739982804
21
-0.913325194253685
31
0.000000000000000
  0
LINE
  5
F101C2
330
F101C3
100
AcDbEntity
8
Geo
100
AcDbLine
10
-93.7597739982804
20
-0.913325194253685
30
0.000000000000000
11
-93.6597739982804
21
-1.09253456272433
31
0.000000000000000
  0
LINE
  5
F101C4
330
F101C5
100
AcDbEntity
8
Geo
100
AcDbLine
10
-93.6597739982804
20
-1.09253456272433
30
0.000000000000000
11
-93.5597739982804
21
-1.26891304150825
31
0.000000000000000
  0
LINE
  5
F101C6
330
F101C7
100
AcDbEntity
8
Geo
100
AcDbLine
10
-93.5597739982804
20
-1.26891304150825
30
0.000000000000000
11
-93.4597739982804
21
-1.44219936141322
31
0.000000000000000
  0
LINE
  5
F101C8
330
F101C9
100
AcDbEntity
8
Geo
100
AcDbLine
10
-93.4597739982804
20
-1.44219936141322
30
0.000000000000000
11
-93.3597739982804
21
-1.61213683365765
31
0.000000000000000
  0
LINE
  5
F101CA
330
F101CB
100
AcDbEntity
8
Geo
100
AcDbLine
10
-93.3597739982804
20
-1.61213683365765
30
0.000000000000000
11
-93.2597739982804
21
-1.77847373010323
31
0.000000000000000
  0
LINE
  5
F101CC
330
F101CD
100
AcDbEntity
8
Geo
100
AcDbLine
10
-93.2597739982804
20
-1.77847373010323
30
0.000000000000000
11
-93.1597739982804
21
-1.94096365613954
31
0.000000000000000
  0
LINE
  5
F101CE
330
F101CF
100
AcDbEntity
8
Geo
100
AcDbLine
10
-93.1597739982804
20
-1.94096365613954
30
0.000000000000000
11
-93.0597739982804
21
-2.09936591566801
31
0.000000000000000
  0
LINE
  5
F101D0
330
F101D1
100
AcDbEntity
8
Geo
100
AcDbLine
10
-93.0597739982804
20
-2.09936591566801
30
0.000000000000000
11
-92.9597739982804
21
-2.25344586764468
31
0.000000000000000
  0
LINE
  5
F101D2
330
F101D3
100
AcDbEntity
8
Geo
100
AcDbLine
10
-92.9597739982804
20
-2.25344586764468
30
0.000000000000000
11
-92.8597739982804
21
-2.40297527365370
31
0.000000000000000
  0
LINE
  5
F101D4
330
F101D5
100
AcDbEntity
8
Geo
100
AcDbLine
10
-92.8597739982804
20
-2.40297527365370
30
0.000000000000000
11
-92.7597739982804
21
-2.54773263599657
31
0.000000000000000
  0
LINE
  5
F101D6
330
F101D7
100
AcDbEntity
8
Geo
100
AcDbLine
10
-92.7597739982804
20
-2.54773263599657
30
0.000000000000000
11
-92.6597739982804
21
-2.68750352579631
31
0.000000000000000
  0
LINE
  5
F101D8
330
F101D9
100
AcDbEntity
8
Geo
100
AcDbLine
10
-92.6597739982804
20
-2.68750352579631
30
0.000000000000000
11
-92.5597739982804
21
-2.82208090063074
31
0.000000000000000
  0
LINE
  5
F101DA
330
F101DB
100
AcDbEntity
8
Geo
100
AcDbLine
10
-92.5597739982804
20
-2.82208090063074
30
0.000000000000000
11
-92.4597739982804
21
-2.95126541122404
31
0.000000000000000
  0
LINE
  5
F101DC
330
F101DD
100
AcDbEntity
8
Geo
100
AcDbLine
10
-92.4597739982804
20
-2.95126541122404
30
0.000000000000000
11
-92.3597739982804
21
-3.07486569674263
31
0.000000000000000
  0
LINE
  5
F101DE
330
F101DF
100
AcDbEntity
8
Geo
100
AcDbLine
10
-92.3597739982804
20
-3.07486569674263
30
0.000000000000000
11
-92.2597739982804
21
-3.19269866825765
31
0.000000000000000
  0
LINE
  5
F101E0
330
F101E1
100
AcDbEntity
8
Geo
100
AcDbLine
10
-92.2597739982804
20
-3.19269866825765
30
0.000000000000000
11
-92.1597739982804
21
-3.30458977995435
31
0.000000000000000
  0
LINE
  5
F101E2
330
F101E3
100
AcDbEntity
8
Geo
100
AcDbLine
10
-92.1597739982804
20
-3.30458977995435
30
0.000000000000000
11
-92.0597739982804
21
-3.41037328768658
31
0.000000000000000
  0
LINE
  5
F101E4
330
F101E5
100
AcDbEntity
8
Geo
100
AcDbLine
10
-92.0597739982804
20
-3.41037328768658
30
0.000000000000000
11
-91.9597739982804
21
-3.50989249449331
31
0.000000000000000
  0
LINE
  5
F101E6
330
F101E7
100
AcDbEntity
8
Geo
100
AcDbLine
10
-91.9597739982804
20
-3.50989249449331
30
0.000000000000000
11
-91.8597739982804
21
-3.60299998271367
31
0.000000000000000
  0
LINE
  5
F101E8
330
F101E9
100
AcDbEntity
8
Geo
100
AcDbLine
10
-91.8597739982804
20
-3.60299998271367
30
0.000000000000000
11
-91.7597739982804
21
-3.68955783235649
31
0.000000000000000
  0
LINE
  5
F101EA
330
F101EB
100
AcDbEntity
8
Geo
100
AcDbLine
10
-91.7597739982804
20
-3.68955783235649
30
0.000000000000000
11
-91.6597739982804
21
-3.76943782540102
31
0.000000000000000
  0
LINE
  5
F101EC
330
F101ED
100
AcDbEntity
8
Geo
100
AcDbLine
10
-91.6597739982804
20
-3.76943782540102
30
0.000000000000000
11
-91.5597739982804
21
-3.84252163572605
31
0.000000000000000
  0
LINE
  5
F101EE
330
F101EF
100
AcDbEntity
8
Geo
100
AcDbLine
10
-91.5597739982804
20
-3.84252163572605
30
0.000000000000000
11
-91.4597739982804
21
-3.90870100438629
31
0.000000000000000
  0
LINE
  5
F101F0
330
F101F1
100
AcDbEntity
8
Geo
100
AcDbLine
10
-91.4597739982804
20
-3.90870100438629
30
0.000000000000000
11
-91.3597739982804
21
-3.96787789997615
31
0.000000000000000
  0
LINE
  5
F101F2
330
F101F3
100
AcDbEntity
8
Geo
100
AcDbLine
10
-91.3597739982804
20
-3.96787789997615
30
0.000000000000000
11
-91.2597739982804
21
-4.01996466384353
31
0.000000000000000
  0
LINE
  5
F101F4
330
F101F5
100
AcDbEntity
8
Geo
100
AcDbLine
10
-91.2597739982804
20
-4.01996466384353
30
0.000000000000000
11
-91.1597739982804
21
-4.06488413993850
31
0.000000000000000
  0
LINE
  5
F101F6
330
F101F7
100
AcDbEntity
8
Geo
100
AcDbLine
10
-91.1597739982804
20
-4.06488413993850
30
0.000000000000000
11
-91.0597739982804
21
-4.10256978910436
31
0.000000000000000
  0
LINE
  5
F101F8
330
F101F9
100
AcDbEntity
8
Geo
100
AcDbLine
10
-91.0597739982804
20
-4.10256978910436
30
0.000000000000000
11
-90.9597739982804
21
-4.13296578764210
31
0.000000000000000
  0
LINE
  5
F101FA
330
F101FB
100
AcDbEntity
8
Geo
100
AcDbLine
10
-90.9597739982804
20
-4.13296578764210
30
0.000000000000000
11
-90.8597739982804
21
-4.15602711000188
31
0.000000000000000
  0
LINE
  5
F101FC
330
F101FD
100
AcDbEntity
8
Geo
100
AcDbLine
10
-90.8597739982804
20
-4.15602711000188
30
0.000000000000000
11
-90.7597739982804
21
-4.17171959547937
31
0.000000000000000
  0
LINE
  5
F101FE
330
F101FF
100
AcDbEntity
8
Geo
100
AcDbLine
10
-90.7597739982804
20
-4.17171959547937
30
0.000000000000000
11
-90.6597739982804
21
-4.18001999881795
31
0.000000000000000
  0
LINE
  5
F10200
330
F10201
100
AcDbEntity
8
Geo
100
AcDbLine
10
-82.4597739982804
20
5.81833510119121
30
0.000000000000000
11
-82.3597739982804
21
5.81642371565903
31
0.000000000000000
  0
LINE
  5
F10202
330
F10203
100
AcDbEntity
8
Geo
100
AcDbLine
10
-82.3597739982804
20
5.81642371565903
30
0.000000000000000
11
-82.2597739982804
21
5.80710898964663
31
0.000000000000000
  0
LINE
  5
F10204
330
F10205
100
AcDbEntity
8
Geo
100
AcDbLine
10
-82.2597739982804
20
5.80710898964663
30
0.000000000000000
11
-82.1597739982804
21
5.79040472104453
31
0.000000000000000
  0
LINE
  5
F10206
330
F10207
100
AcDbEntity
8
Geo
100
AcDbLine
10
-82.1597739982804
20
5.79040472104453
30
0.000000000000000
11
-82.0597739982804
21
5.76633565386229
31
0.000000000000000
  0
LINE
  5
F10208
330
F10209
100
AcDbEntity
8
Geo
100
AcDbLine
10
-82.0597739982804
20
5.76633565386229
30
0.000000000000000
11
-81.9597739982804
21
5.73493744157524
31
0.000000000000000
  0
LINE
  5
F1020A
330
F1020B
100
AcDbEntity
8
Geo
100
AcDbLine
10
-81.9597739982804
20
5.73493744157524
30
0.000000000000000
11
-81.8597739982804
21
5.69625659431099
31
0.000000000000000
  0
LINE
  5
F1020C
330
F1020D
100
AcDbEntity
8
Geo
100
AcDbLine
10
-81.8597739982804
20
5.69625659431099
30
0.000000000000000
11
-81.7597739982804
21
5.65035040995412
31
0.000000000000000
  0
LINE
  5
F1020E
330
F1020F
100
AcDbEntity
8
Geo
100
AcDbLine
10
-81.7597739982804
20
5.65035040995412
30
0.000000000000000
11
-81.6597739982804
21
5.65645517420339
31
0.000000000000000
  0
LINE
  5
F10210
330
F10211
100
AcDbEntity
8
Geo
100
AcDbLine
10
-81.6597739982804
20
5.65645517420339
30
0.000000000000000
11
-81.5597739982804
21
5.66233368958559
31
0.000000000000000
  0
LINE
  5
F10212
330
F10213
100
AcDbEntity
8
Geo
100
AcDbLine
10
-81.5597739982804
20
5.66233368958559
30
0.000000000000000
11
-81.4597739982804
21
5.66799216651815
31
0.000000000000000
  0
LINE
  5
F10214
330
F10215
100
AcDbEntity
8
Geo
100
AcDbLine
10
-81.4597739982804
20
5.66799216651815
30
0.000000000000000
11
-81.3597739982804
21
5.67343670713028
31
0.000000000000000
  0
LINE
  5
F10216
330
F10217
100
AcDbEntity
8
Geo
100
AcDbLine
10
-81.3597739982804
20
5.67343670713028
30
0.000000000000000
11
-81.2597739982804
21
5.67867330409226
31
0.000000000000000
  0
LINE
  5
F10218
330
F10219
100
AcDbEntity
8
Geo
100
AcDbLine
10
-81.2597739982804
20
5.67867330409226
30
0.000000000000000
11
-81.1597739982804
21
5.68370783949779
31
0.000000000000000
  0
LINE
  5
F1021A
330
F1021B
100
AcDbEntity
8
Geo
100
AcDbLine
10
-81.1597739982804
20
5.68370783949779
30
0.000000000000000
11
-81.0597739982803
21
5.68854608379770
31
0.000000000000000
  0
LINE
  5
F1021C
330
F1021D
100
AcDbEntity
8
Geo
100
AcDbLine
10
-81.0597739982803
20
5.68854608379770
30
0.000000000000000
11
-80.9597739982804
21
5.69319369478332
31
0.000000000000000
  0
LINE
  5
F1021E
330
F1021F
100
AcDbEntity
8
Geo
100
AcDbLine
10
-80.9597739982804
20
5.69319369478332
30
0.000000000000000
11
-80.8597739982804
21
5.69765621661771
31
0.000000000000000
  0
LINE
  5
F10220
330
F10221
100
AcDbEntity
8
Geo
100
AcDbLine
10
-80.8597739982804
20
5.69765621661771
30
0.000000000000000
11
-80.7597739982804
21
5.70193907891331
31
0.000000000000000
  0
LINE
  5
F10222
330
F10223
100
AcDbEntity
8
Geo
100
AcDbLine
10
-80.7597739982804
20
5.70193907891331
30
0.000000000000000
11
-80.6597739982803
21
5.70604759585421
31
0.000000000000000
  0
LINE
  5
F10224
330
F10225
100
AcDbEntity
8
Geo
100
AcDbLine
10
-80.6597739982803
20
5.70604759585421
30
0.000000000000000
11
-80.5597739982803
21
5.70998696536156
31
0.000000000000000
  0
LINE
  5
F10226
330
F10227
100
AcDbEntity
8
Geo
100
AcDbLine
10
-80.5597739982803
20
5.70998696536156
30
0.000000000000000
11
-80.4597739982804
21
5.71376226830051
31
0.000000000000000
  0
LINE
  5
F10228
330
F10229
100
AcDbEntity
8
Geo
100
AcDbLine
10
-80.4597739982804
20
5.71376226830051
30
0.000000000000000
11
-80.3597739982803
21
5.71737846772721
31
0.000000000000000
  0
LINE
  5
F1022A
330
F1022B
100
AcDbEntity
8
Geo
100
AcDbLine
10
-80.3597739982803
20
5.71737846772721
30
0.000000000000000
11
-80.2597739982803
21
5.72084040817430
31
0.000000000000000
  0
LINE
  5
F1022C
330
F1022D
100
AcDbEntity
8
Geo
100
AcDbLine
10
-80.2597739982803
20
5.72084040817430
30
0.000000000000000
11
-80.1597739982803
21
5.72415281497350
31
0.000000000000000
  0
LINE
  5
F1022E
330
F1022F
100
AcDbEntity
8
Geo
100
AcDbLine
10
-80.1597739982803
20
5.72415281497350
30
0.000000000000000
11
-80.0597739982803
21
5.72732029361382
31
0.000000000000000
  0
LINE
  5
F10230
330
F10231
100
AcDbEntity
8
Geo
100
AcDbLine
10
-80.0597739982803
20
5.72732029361382
30
0.000000000000000
11
-79.9597739982803
21
5.73034732913399
31
0.000000000000000
  0
LINE
  5
F10232
330
F10233
100
AcDbEntity
8
Geo
100
AcDbLine
10
-79.9597739982803
20
5.73034732913399
30
0.000000000000000
11
-79.8597739982803
21
5.73323828554782
31
0.000000000000000
  0
LINE
  5
F10234
330
F10235
100
AcDbEntity
8
Geo
100
AcDbLine
10
-79.8597739982803
20
5.73323828554782
30
0.000000000000000
11
-79.7597739982803
21
5.73599740530103
31
0.000000000000000
  0
LINE
  5
F10236
330
F10237
100
AcDbEntity
8
Geo
100
AcDbLine
10
-79.7597739982803
20
5.73599740530103
30
0.000000000000000
11
-79.6597739982803
21
5.73862880875837
31
0.000000000000000
  0
LINE
  5
F10238
330
F10239
100
AcDbEntity
8
Geo
100
AcDbLine
10
-79.6597739982803
20
5.73862880875837
30
0.000000000000000
11
-79.5597739982803
21
5.74113649371974
31
0.000000000000000
  0
LINE
  5
F1023A
330
F1023B
100
AcDbEntity
8
Geo
100
AcDbLine
10
-79.5597739982803
20
5.74113649371974
30
0.000000000000000
11
-79.4597739982803
21
5.74352433496399
31
0.000000000000000
  0
LINE
  5
F1023C
330
F1023D
100
AcDbEntity
8
Geo
100
AcDbLine
10
-79.4597739982803
20
5.74352433496399
30
0.000000000000000
11
-79.3597739982803
21
5.74579608381935
31
0.000000000000000
  0
LINE
  5
F1023E
330
F1023F
100
AcDbEntity
8
Geo
100
AcDbLine
10
-79.3597739982803
20
5.74579608381935
30
0.000000000000000
11
-79.2597739982803
21
5.74795536775924
31
0.000000000000000
  0
LINE
  5
F10240
330
F10241
100
AcDbEntity
8
Geo
100
AcDbLine
10
-79.2597739982803
20
5.74795536775924
30
0.000000000000000
11
-79.1597739982803
21
5.75000569002238
31
0.000000000000000
  0
LINE
  5
F10242
330
F10243
100
AcDbEntity
8
Geo
100
AcDbLine
10
-79.1597739982803
20
5.75000569002238
30
0.000000000000000
11
-79.0597739982803
21
5.75195042925604
31
0.000000000000000
  0
LINE
  5
F10244
330
F10245
100
AcDbEntity
8
Geo
100
AcDbLine
10
-79.0597739982803
20
5.75195042925604
30
0.000000000000000
11
-78.9597739982803
21
5.75379283918151
31
0.000000000000000
  0
LINE
  5
F10246
330
F10247
100
AcDbEntity
8
Geo
100
AcDbLine
10
-78.9597739982803
20
5.75379283918151
30
0.000000000000000
11
-78.8597739982803
21
5.75553604828067
31
0.000000000000000
  0
LINE
  5
F10248
330
F10249
100
AcDbEntity
8
Geo
100
AcDbLine
10
-78.8597739982803
20
5.75553604828067
30
0.000000000000000
11
-78.7597739982803
21
5.75718305950268
31
0.000000000000000
  0
LINE
  5
F1024A
330
F1024B
100
AcDbEntity
8
Geo
100
AcDbLine
10
-78.7597739982803
20
5.75718305950268
30
0.000000000000000
11
-78.6597739982803
21
5.75873674998999
31
0.000000000000000
  0
LINE
  5
F1024C
330
F1024D
100
AcDbEntity
8
Geo
100
AcDbLine
10
-78.6597739982803
20
5.75873674998999
30
0.000000000000000
11
-78.5597739982803
21
5.76019987082254
31
0.000000000000000
  0
LINE
  5
F1024E
330
F1024F
100
AcDbEntity
8
Geo
100
AcDbLine
10
-78.5597739982803
20
5.76019987082254
30
0.000000000000000
11
-78.4597739982803
21
5.76157504677952
31
0.000000000000000
  0
LINE
  5
F10250
330
F10251
100
AcDbEntity
8
Geo
100
AcDbLine
10
-78.4597739982803
20
5.76157504677952
30
0.000000000000000
11
-78.3597739982803
21
5.76286477611768
31
0.000000000000000
  0
LINE
  5
F10252
330
F10253
100
AcDbEntity
8
Geo
100
AcDbLine
10
-78.3597739982803
20
5.76286477611768
30
0.000000000000000
11
-78.2597739982803
21
5.76407143036549
31
0.000000000000000
  0
LINE
  5
F10254
330
F10255
100
AcDbEntity
8
Geo
100
AcDbLine
10
-78.2597739982803
20
5.76407143036549
30
0.000000000000000
11
-78.1597739982803
21
5.76519725413245
31
0.000000000000000
  0
LINE
  5
F10256
330
F10257
100
AcDbEntity
8
Geo
100
AcDbLine
10
-78.1597739982803
20
5.76519725413245
30
0.000000000000000
11
-78.0597739982803
21
5.76624436493262
31
0.000000000000000
  0
LINE
  5
F10258
330
F10259
100
AcDbEntity
8
Geo
100
AcDbLine
10
-78.0597739982803
20
5.76624436493262
30
0.000000000000000
11
-77.9597739982803
21
5.76721475302202
31
0.000000000000000
  0
LINE
  5
F1025A
330
F1025B
100
AcDbEntity
8
Geo
100
AcDbLine
10
-77.9597739982803
20
5.76721475302202
30
0.000000000000000
11
-77.8597739982803
21
5.76811028124889
31
0.000000000000000
  0
LINE
  5
F1025C
330
F1025D
100
AcDbEntity
8
Geo
100
AcDbLine
10
-77.8597739982803
20
5.76811028124889
30
0.000000000000000
11
-77.7597739982803
21
5.76893268491660
31
0.000000000000000
  0
LINE
  5
F1025E
330
F1025F
100
AcDbEntity
8
Geo
100
AcDbLine
10
-77.7597739982803
20
5.76893268491660
30
0.000000000000000
11
-77.6597739982803
21
5.76968357165826
31
0.000000000000000
  0
LINE
  5
F10260
330
F10261
100
AcDbEntity
8
Geo
100
AcDbLine
10
-77.6597739982803
20
5.76968357165826
30
0.000000000000000
11
-77.5597739982803
21
5.77036442132285
31
0.000000000000000
  0
LINE
  5
F10262
330
F10263
100
AcDbEntity
8
Geo
100
AcDbLine
10
-77.5597739982803
20
5.77036442132285
30
0.000000000000000
11
-77.4597739982803
21
5.77097658587213
31
0.000000000000000
  0
LINE
  5
F10264
330
F10265
100
AcDbEntity
8
Geo
100
AcDbLine
10
-77.4597739982803
20
5.77097658587213
30
0.000000000000000
11
-77.3597739982803
21
5.77152128928803
31
0.000000000000000
  0
LINE
  5
F10266
330
F10267
100
AcDbEntity
8
Geo
100
AcDbLine
10
-77.3597739982803
20
5.77152128928803
30
0.000000000000000
11
-77.2597739982803
21
5.77199962749002
31
0.000000000000000
  0
LINE
  5
F10268
330
F10269
100
AcDbEntity
8
Geo
100
AcDbLine
10
-77.2597739982803
20
5.77199962749002
30
0.000000000000000
11
-77.1597739982803
21
5.77241256826224
31
0.000000000000000
  0
LINE
  5
F1026A
330
F1026B
100
AcDbEntity
8
Geo
100
AcDbLine
10
-77.1597739982803
20
5.77241256826224
30
0.000000000000000
11
-77.0597739982803
21
5.77276095118978
31
0.000000000000000
  0
LINE
  5
F1026C
330
F1026D
100
AcDbEntity
8
Geo
100
AcDbLine
10
-77.0597739982803
20
5.77276095118978
30
0.000000000000000
11
-76.9597739982803
21
5.77304548760419
31
0.000000000000000
  0
LINE
  5
F1026E
330
F1026F
100
AcDbEntity
8
Geo
100
AcDbLine
10
-76.9597739982803
20
5.77304548760419
30
0.000000000000000
11
-76.8597739982803
21
5.77326676053760
31
0.000000000000000
  0
LINE
  5
F10270
330
F10271
100
AcDbEntity
8
Geo
100
AcDbLine
10
-76.8597739982803
20
5.77326676053760
30
0.000000000000000
11
-76.7597739982804
21
5.77342522468551
31
0.000000000000000
  0
LINE
  5
F10272
330
F10273
100
AcDbEntity
8
Geo
100
AcDbLine
10
-98.7597739982804
20
5.09830622409826
30
0.000000000000000
11
-98.6597739982804
21
5.32316462342669
31
0.000000000000000
  0
LINE
  5
F10274
330
F10275
100
AcDbEntity
8
Geo
100
AcDbLine
10
-98.6597739982804
20
5.32316462342669
30
0.000000000000000
11
-98.5597739982804
21
5.34848092243944
31
0.000000000000000
  0
LINE
  5
F10276
330
F10277
100
AcDbEntity
8
Geo
100
AcDbLine
10
-98.5597739982804
20
5.34848092243944
30
0.000000000000000
11
-98.4597739982804
21
5.32620407958575
31
0.000000000000000
  0
LINE
  5
F10278
330
F10279
100
AcDbEntity
8
Geo
100
AcDbLine
10
-98.4597739982804
20
5.32620407958575
30
0.000000000000000
11
-98.3597739982804
21
5.27162883089829
31
0.000000000000000
  0
LINE
  5
F1027A
330
F1027B
100
AcDbEntity
8
Geo
100
AcDbLine
10
-98.3597739982804
20
5.27162883089829
30
0.000000000000000
11
-98.2597739982804
21
5.19052551794547
31
0.000000000000000
  0
LINE
  5
F1027C
330
F1027D
100
AcDbEntity
8
Geo
100
AcDbLine
10
-98.2597739982804
20
5.19052551794547
30
0.000000000000000
11
-98.1597739982804
21
5.09393074966737
31
0.000000000000000
  0
LINE
  5
F1027E
330
F1027F
100
AcDbEntity
8
Geo
100
AcDbLine
10
-98.1597739982804
20
5.09393074966737
30
0.000000000000000
11
-98.0597739982804
21
4.99100286872198
31
0.000000000000000
  0
LINE
  5
F10280
330
F10281
100
AcDbEntity
8
Geo
100
AcDbLine
10
-98.0597739982804
20
4.99100286872198
30
0.000000000000000
11
-97.9597739982804
21
4.88189434203440
31
0.000000000000000
  0
LINE
  5
F10282
330
F10283
100
AcDbEntity
8
Geo
100
AcDbLine
10
-97.9597739982804
20
4.88189434203440
30
0.000000000000000
11
-97.8597739982804
21
4.76676679191152
31
0.000000000000000
  0
LINE
  5
F10284
330
F10285
100
AcDbEntity
8
Geo
100
AcDbLine
10
-97.8597739982804
20
4.76676679191152
30
0.000000000000000
11
-97.7597739982804
21
4.64579075663120
31
0.000000000000000
  0
LINE
  5
F10286
330
F10287
100
AcDbEntity
8
Geo
100
AcDbLine
10
-97.7597739982804
20
4.64579075663120
30
0.000000000000000
11
-97.6597739982804
21
4.51914543782412
31
0.000000000000000
  0
LINE
  5
F10288
330
F10289
100
AcDbEntity
8
Geo
100
AcDbLine
10
-97.6597739982804
20
4.51914543782412
30
0.000000000000000
11
-97.5597739982804
21
4.38701843502263
31
0.000000000000000
  0
LINE
  5
F1028A
330
F1028B
100
AcDbEntity
8
Geo
100
AcDbLine
10
-97.5597739982804
20
4.38701843502263
30
0.000000000000000
11
-97.4597739982804
21
4.24960546776992
31
0.000000000000000
  0
LINE
  5
F1028C
330
F1028D
100
AcDbEntity
8
Geo
100
AcDbLine
10
-97.4597739982804
20
4.24960546776992
30
0.000000000000000
11
-97.3597739982804
21
4.10711008570082
31
0.000000000000000
  0
LINE
  5
F1028E
330
F1028F
100
AcDbEntity
8
Geo
100
AcDbLine
10
-97.3597739982804
20
4.10711008570082
30
0.000000000000000
11
-97.2597739982804
21
3.95974336702410
31
0.000000000000000
  0
LINE
  5
F10290
330
F10291
100
AcDbEntity
8
Geo
100
AcDbLine
10
-97.2597739982804
20
3.95974336702410
30
0.000000000000000
11
-97.1597739982804
21
3.80772360585259
31
0.000000000000000
  0
LINE
  5
F10292
330
F10293
100
AcDbEntity
8
Geo
100
AcDbLine
10
-97.1597739982804
20
3.80772360585259
30
0.000000000000000
11
-97.0597739982804
21
3.65127598884439
31
0.000000000000000
  0
LINE
  5
F10294
330
F10295
100
AcDbEntity
8
Geo
100
AcDbLine
10
-97.0597739982804
20
3.65127598884439
30
0.000000000000000
11
-96.9597739982804
21
3.49063226163424
31
0.000000000000000
  0
LINE
  5
F10296
330
F10297
100
AcDbEntity
8
Geo
100
AcDbLine
10
-96.9597739982804
20
3.49063226163424
30
0.000000000000000
11
-96.8597739982804
21
3.32603038554899
31
0.000000000000000
  0
LINE
  5
F10298
330
F10299
100
AcDbEntity
8
Geo
100
AcDbLine
10
-96.8597739982804
20
3.32603038554899
30
0.000000000000000
11
-96.7597739982804
21
3.15771418511586
31
0.000000000000000
  0
LINE
  5
F1029A
330
F1029B
100
AcDbEntity
8
Geo
100
AcDbLine
10
-96.7597739982804
20
3.15771418511586
30
0.000000000000000
11
-96.6597739982804
21
2.98593298688548
31
0.000000000000000
  0
LINE
  5
F1029C
330
F1029D
100
AcDbEntity
8
Geo
100
AcDbLine
10
-96.6597739982804
20
2.98593298688548
30
0.000000000000000
11
-96.5597739982804
21
2.81094125010486
31
0.000000000000000
  0
LINE
  5
F1029E
330
F1029F
100
AcDbEntity
8
Geo
100
AcDbLine
10
-96.5597739982804
20
2.81094125010486
30
0.000000000000000
11
-96.4597739982804
21
2.63299818978722
31
0.000000000000000
  0
LINE
  5
F102A0
330
F102A1
100
AcDbEntity
8
Geo
100
AcDbLine
10
-96.4597739982804
20
2.63299818978722
30
0.000000000000000
11
-96.3597739982804
21
2.45236739273718
31
0.000000000000000
  0
LINE
  5
F102A2
330
F102A3
100
AcDbEntity
8
Geo
100
AcDbLine
10
-96.3597739982804
20
2.45236739273718
30
0.000000000000000
11
-96.2597739982804
21
2.26931642710002
31
0.000000000000000
  0
LINE
  5
F102A4
330
F102A5
100
AcDbEntity
8
Geo
100
AcDbLine
10
-96.2597739982804
20
2.26931642710002
30
0.000000000000000
11
-96.1597739982804
21
2.08411644601331
31
0.000000000000000
  0
LINE
  5
F102A6
330
F102A7
100
AcDbEntity
8
Geo
100
AcDbLine
10
-96.1597739982804
20
2.08411644601331
30
0.000000000000000
11
-96.0597739982804
21
1.89704178594820
31
0.000000000000000
  0
LINE
  5
F102A8
330
F102A9
100
AcDbEntity
8
Geo
100
AcDbLine
10
-96.0597739982804
20
1.89704178594820
30
0.000000000000000
11
-95.9597739982804
21
1.70836956033516
31
0.000000000000000
  0
LINE
  5
F102AA
330
F102AB
100
AcDbEntity
8
Geo
100
AcDbLine
10
-95.9597739982804
20
1.70836956033516
30
0.000000000000000
11
-95.8597739982804
21
1.51837924907626
31
0.000000000000000
  0
LINE
  5
F102AC
330
F102AD
100
AcDbEntity
8
Geo
100
AcDbLine
10
-95.8597739982804
20
1.51837924907626
30
0.000000000000000
11
-95.7597739982804
21
1.32735228455197
31
0.000000000000000
  0
LINE
  5
F102AE
330
F102AF
100
AcDbEntity
8
Geo
100
AcDbLine
10
-95.7597739982804
20
1.32735228455197
30
0.000000000000000
11
-95.6597739982804
21
1.13557163473580
31
0.000000000000000
  0
LINE
  5
F102B0
330
F102B1
100
AcDbEntity
8
Geo
100
AcDbLine
10
-95.6597739982804
20
1.13557163473580
30
0.000000000000000
11
-95.5597739982804
21
0.943321384034201
31
0.000000000000000
  0
LINE
  5
F102B2
330
F102B3
100
AcDbEntity
8
Geo
100
AcDbLine
10
-95.5597739982804
20
0.943321384034201
30
0.000000000000000
11
-95.4597739982804
21
0.750886312472776
31
0.000000000000000
  0
LINE
  5
F102B4
330
F102B5
100
AcDbEntity
8
Geo
100
AcDbLine
10
-95.4597739982804
20
0.750886312472776
30
0.000000000000000
11
-95.3597739982804
21
0.558551473851994
31
0.000000000000000
  0
LINE
  5
F102B6
330
F102B7
100
AcDbEntity
8
Geo
100
AcDbLine
10
-95.3597739982804
20
0.558551473851994
30
0.000000000000000
11
-95.2597739982804
21
0.366601773497413
31
0.000000000000000
  0
LINE
  5
F102B8
330
F102B9
100
AcDbEntity
8
Geo
100
AcDbLine
10
-95.2597739982804
20
0.366601773497413
30
0.000000000000000
11
-95.1597739982804
21
0.175321546229818
31
0.000000000000000
  0
LINE
  5
F102BA
330
F102BB
100
AcDbEntity
8
Geo
100
AcDbLine
10
-95.1597739982804
20
0.175321546229818
30
0.000000000000000
11
-95.0597739982804
21
-0.0150058648195452
31
0.000000000000000
  0
LINE
  5
F102BC
330
F102BD
100
AcDbEntity
8
Geo
100
AcDbLine
10
-95.0597739982804
20
-0.0150058648195452
30
0.000000000000000
11
-94.9597739982804
21
-0.204098527924752
31
0.000000000000000
  0
LINE
  5
F102BE
330
F102BF
100
AcDbEntity
8
Geo
100
AcDbLine
10
-94.9597739982804
20
-0.204098527924752
30
0.000000000000000
11
-94.8597739982804
21
-0.391676340390271
31
0.000000000000000
  0
LINE
  5
F102C0
330
F102C1
100
AcDbEntity
8
Geo
100
AcDbLine
10
-94.8597739982804
20
-0.391676340390271
30
0.000000000000000
11
-94.7597739982804
21
-0.577461443466685
31
0.000000000000000
  0
LINE
  5
F102C2
330
F102C3
100
AcDbEntity
8
Geo
100
AcDbLine
10
-94.7597739982804
20
-0.577461443466685
30
0.000000000000000
11
-94.6597739982804
21
-0.761178633942475
31
0.000000000000000
  0
LINE
  5
F102C4
330
F102C5
100
AcDbEntity
8
Geo
100
AcDbLine
10
-94.6597739982804
20
-0.761178633942475
30
0.000000000000000
11
-94.5597739982804
21
-0.942555771802145
31
0.000000000000000
  0
LINE
  5
F102C6
330
F102C7
100
AcDbEntity
8
Geo
100
AcDbLine
10
-94.5597739982804
20
-0.942555771802145
30
0.000000000000000
11
-94.4597739982804
21
-1.12132418334684
31
0.000000000000000
  0
LINE
  5
F102C8
330
F102C9
100
AcDbEntity
8
Geo
100
AcDbLine
10
-94.4597739982804
20
-1.12132418334684
30
0.000000000000000
11
-94.3597739982804
21
-1.29721905918032
31
0.000000000000000
  0
LINE
  5
F102CA
330
F102CB
100
AcDbEntity
8
Geo
100
AcDbLine
10
-94.3597739982804
20
-1.29721905918032
30
0.000000000000000
11
-94.2597739982804
21
-1.46997984647075
31
0.000000000000000
  0
LINE
  5
F102CC
330
F102CD
100
AcDbEntity
8
Geo
100
AcDbLine
10
-94.2597739982804
20
-1.46997984647075
30
0.000000000000000
11
-94.1597739982804
21
-1.63935063490724
31
0.000000000000000
  0
LINE
  5
F102CE
330
F102CF
100
AcDbEntity
8
Geo
100
AcDbLine
10
-94.1597739982804
20
-1.63935063490724
30
0.000000000000000
11
-94.0597739982804
21
-1.80508053577943
31
0.000000000000000
  0
LINE
  5
F102D0
330
F102D1
100
AcDbEntity
8
Geo
100
AcDbLine
10
-94.0597739982804
20
-1.80508053577943
30
0.000000000000000
11
-93.9597739982804
21
-1.96692405361858
31
0.000000000000000
  0
LINE
  5
F102D2
330
F102D3
100
AcDbEntity
8
Geo
100
AcDbLine
10
-93.9597739982804
20
-1.96692405361858
30
0.000000000000000
11
-93.8597739982804
21
-2.12464144984965
31
0.000000000000000
  0
LINE
  5
F102D4
330
F102D5
100
AcDbEntity
8
Geo
100
AcDbLine
10
-93.8597739982804
20
-2.12464144984965
30
0.000000000000000
11
-93.7597739982804
21
-2.27799909791574
31
0.000000000000000
  0
LINE
  5
F102D6
330
F102D7
100
AcDbEntity
8
Geo
100
AcDbLine
10
-93.7597739982804
20
-2.27799909791574
30
0.000000000000000
11
-93.6597739982804
21
-2.42676982934877
31
0.000000000000000
  0
LINE
  5
F102D8
330
F102D9
100
AcDbEntity
8
Geo
100
AcDbLine
10
-93.6597739982804
20
-2.42676982934877
30
0.000000000000000
11
-93.5597739982804
21
-2.57073327027380
31
0.000000000000000
  0
LINE
  5
F102DA
330
F102DB
100
AcDbEntity
8
Geo
100
AcDbLine
10
-93.5597739982804
20
-2.57073327027380
30
0.000000000000000
11
-93.4597739982804
21
-2.70967616784856
31
0.000000000000000
  0
LINE
  5
F102DC
330
F102DD
100
AcDbEntity
8
Geo
100
AcDbLine
10
-93.4597739982804
20
-2.70967616784856
30
0.000000000000000
11
-93.3597739982804
21
-2.84339270615455
31
0.000000000000000
  0
LINE
  5
F102DE
330
F102DF
100
AcDbEntity
8
Geo
100
AcDbLine
10
-93.3597739982804
20
-2.84339270615455
30
0.000000000000000
11
-93.2597739982804
21
-2.97168481107191
31
0.000000000000000
  0
LINE
  5
F102E0
330
F102E1
100
AcDbEntity
8
Geo
100
AcDbLine
10
-93.2597739982804
20
-2.97168481107191
30
0.000000000000000
11
-93.1597739982804
21
-3.09436244368632
31
0.000000000000000
  0
LINE
  5
F102E2
330
F102E3
100
AcDbEntity
8
Geo
100
AcDbLine
10
-93.1597739982804
20
-3.09436244368632
30
0.000000000000000
11
-93.0597739982804
21
-3.21124388179338
31
0.000000000000000
  0
LINE
  5
F102E4
330
F102E5
100
AcDbEntity
8
Geo
100
AcDbLine
10
-93.0597739982804
20
-3.21124388179338
30
0.000000000000000
11
-92.9597739982804
21
-3.32215598908342
31
0.000000000000000
  0
LINE
  5
F102E6
330
F102E7
100
AcDbEntity
8
Geo
100
AcDbLine
10
-92.9597739982804
20
-3.32215598908342
30
0.000000000000000
11
-92.8597739982804
21
-3.42693447160815
31
0.000000000000000
  0
LINE
  5
F102E8
330
F102E9
100
AcDbEntity
8
Geo
100
AcDbLine
10
-92.8597739982804
20
-3.42693447160815
30
0.000000000000000
11
-92.7597739982804
21
-3.52542412114897
31
0.000000000000000
  0
LINE
  5
F102EA
330
F102EB
100
AcDbEntity
8
Geo
100
AcDbLine
10
-92.7597739982804
20
-3.52542412114897
30
0.000000000000000
11
-92.6597739982804
21
-3.61747904512672
31
0.000000000000000
  0
LINE
  5
F102EC
330
F102ED
100
AcDbEntity
8
Geo
100
AcDbLine
10
-92.6597739982804
20
-3.61747904512672
30
0.000000000000000
11
-92.5597739982804
21
-3.70296288271218
31
0.000000000000000
  0
LINE
  5
F102EE
330
F102EF
100
AcDbEntity
8
Geo
100
AcDbLine
10
-92.5597739982804
20
-3.70296288271218
30
0.000000000000000
11
-92.4597739982804
21
-3.78174900681713
31
0.000000000000000
  0
LINE
  5
F102F0
330
F102F1
100
AcDbEntity
8
Geo
100
AcDbLine
10
-92.4597739982804
20
-3.78174900681713
30
0.000000000000000
11
-92.3597739982804
21
-3.85372071166689
31
0.000000000000000
  0
LINE
  5
F102F2
330
F102F3
100
AcDbEntity
8
Geo
100
AcDbLine
10
-92.3597739982804
20
-3.85372071166689
30
0.000000000000000
11
-92.2597739982804
21
-3.91877138567644
31
0.000000000000000
  0
LINE
  5
F102F4
330
F102F5
100
AcDbEntity
8
Geo
100
AcDbLine
10
-92.2597739982804
20
-3.91877138567644
30
0.000000000000000
11
-92.1597739982804
21
-3.97680466937399
31
0.000000000000000
  0
LINE
  5
F102F6
330
F102F7
100
AcDbEntity
8
Geo
100
AcDbLine
10
-92.1597739982804
20
-3.97680466937399
30
0.000000000000000
11
-92.0597739982804
21
-4.02773459813814
31
0.000000000000000
  0
LINE
  5
F102F8
330
F102F9
100
AcDbEntity
8
Geo
100
AcDbLine
10
-92.0597739982804
20
-4.02773459813814
30
0.000000000000000
11
-91.9597739982804
21
-4.07148572953713
31
0.000000000000000
  0
LINE
  5
F102FA
330
F102FB
100
AcDbEntity
8
Geo
100
AcDbLine
10
-91.9597739982804
20
-4.07148572953713
30
0.000000000000000
11
-91.8597739982804
21
-4.10799325508165
31
0.000000000000000
  0
LINE
  5
F102FC
330
F102FD
100
AcDbEntity
8
Geo
100
AcDbLine
10
-91.8597739982804
20
-4.10799325508165
30
0.000000000000000
11
-91.7597739982804
21
-4.13720309622553
31
0.000000000000000
  0
LINE
  5
F102FE
330
F102FF
100
AcDbEntity
8
Geo
100
AcDbLine
10
-91.7597739982804
20
-4.13720309622553
30
0.000000000000000
11
-91.6597739982804
21
-4.15907198447221
31
0.000000000000000
  0
LINE
  5
F10300
330
F10301
100
AcDbEntity
8
Geo
100
AcDbLine
10
-91.6597739982804
20
-4.15907198447221
30
0.000000000000000
11
-91.5597739982804
21
-4.17356752546835
31
0.000000000000000
  0
LINE
  5
F10302
330
F10303
100
AcDbEntity
8
Geo
100
AcDbLine
10
-91.5597739982804
20
-4.17356752546835
30
0.000000000000000
11
-91.4597739982804
21
-4.18066824698947
31
0.000000000000000
  0
LINE
  5
F10304
330
F10305
100
AcDbEntity
8
Geo
100
AcDbLine
10
-83.2597739982804
20
5.81852828846810
30
0.000000000000000
11
-83.1597739982804
21
5.81541636172099
31
0.000000000000000
  0
LINE
  5
F10306
330
F10307
100
AcDbEntity
8
Geo
100
AcDbLine
10
-83.1597739982804
20
5.81541636172099
30
0.000000000000000
11
-83.0597739982804
21
5.80490258668563
31
0.000000000000000
  0
LINE
  5
F10308
330
F10309
100
AcDbEntity
8
Geo
100
AcDbLine
10
-83.0597739982804
20
5.80490258668563
30
0.000000000000000
11
-82.9597739982804
21
5.78700253740218
31
0.000000000000000
  0
LINE
  5
F1030A
330
F1030B
100
AcDbEntity
8
Geo
100
AcDbLine
10
-82.9597739982804
20
5.78700253740218
30
0.000000000000000
11
-82.8597739982804
21
5.76174272918842
31
0.000000000000000
  0
LINE
  5
F1030C
330
F1030D
100
AcDbEntity
8
Geo
100
AcDbLine
10
-82.8597739982804
20
5.76174272918842
30
0.000000000000000
11
-82.7597739982804
21
5.72916057936269
31
0.000000000000000
  0
LINE
  5
F1030E
330
F1030F
100
AcDbEntity
8
Geo
100
AcDbLine
10
-82.7597739982804
20
5.72916057936269
30
0.000000000000000
11
-82.6597739982804
21
5.68930435181764
31
0.000000000000000
  0
LINE
  5
F10310
330
F10311
100
AcDbEntity
8
Geo
100
AcDbLine
10
-82.6597739982804
20
5.68930435181764
30
0.000000000000000
11
-82.5597739982804
21
5.64223308552698
31
0.000000000000000
  0
LINE
  5
F10312
330
F10313
100
AcDbEntity
8
Geo
100
AcDbLine
10
-82.5597739982804
20
5.64223308552698
30
0.000000000000000
11
-82.4597739982804
21
5.58801650709119
31
0.000000000000000
  0
LINE
  5
F10314
330
F10315
100
AcDbEntity
8
Geo
100
AcDbLine
10
-82.4597739982804
20
5.58801650709119
30
0.000000000000000
11
-82.3597739982804
21
5.52673492745153
31
0.000000000000000
  0
LINE
  5
F10316
330
F10317
100
AcDbEntity
8
Geo
100
AcDbLine
10
-82.3597739982804
20
5.52673492745153
30
0.000000000000000
11
-82.2597739982804
21
5.45847912292562
31
0.000000000000000
  0
LINE
  5
F10318
330
F10319
100
AcDbEntity
8
Geo
100
AcDbLine
10
-82.2597739982804
20
5.45847912292562
30
0.000000000000000
11
-82.1597739982804
21
5.38335020074057
31
0.000000000000000
  0
LINE
  5
F1031A
330
F1031B
100
AcDbEntity
8
Geo
100
AcDbLine
10
-82.1597739982804
20
5.38335020074057
30
0.000000000000000
11
-82.0597739982804
21
5.30145944926299
31
0.000000000000000
  0
LINE
  5
F1031C
330
F1031D
100
AcDbEntity
8
Geo
100
AcDbLine
10
-82.0597739982804
20
5.30145944926299
30
0.000000000000000
11
-81.9597739982804
21
5.21292817314771
31
0.000000000000000
  0
LINE
  5
F1031E
330
F1031F
100
AcDbEntity
8
Geo
100
AcDbLine
10
-81.9597739982804
20
5.21292817314771
30
0.000000000000000
11
-81.8597739982804
21
5.11788751364936
31
0.000000000000000
  0
LINE
  5
F10320
330
F10321
100
AcDbEntity
8
Geo
100
AcDbLine
10
-81.8597739982804
20
5.11788751364936
30
0.000000000000000
11
-81.7597739982804
21
5.01647825436295
31
0.000000000000000
  0
LINE
  5
F10322
330
F10323
100
AcDbEntity
8
Geo
100
AcDbLine
10
-81.7597739982804
20
5.01647825436295
30
0.000000000000000
11
-81.6597739982804
21
4.89551294133788
31
0.000000000000000
  0
LINE
  5
F10324
330
F10325
100
AcDbEntity
8
Geo
100
AcDbLine
10
-81.6597739982804
20
4.89551294133788
30
0.000000000000000
11
-81.5597739982804
21
4.76953539151160
31
0.000000000000000
  0
LINE
  5
F10326
330
F10327
100
AcDbEntity
8
Geo
100
AcDbLine
10
-81.5597739982804
20
4.76953539151160
30
0.000000000000000
11
-81.4597739982804
21
4.63919651071149
31
0.000000000000000
  0
LINE
  5
F10328
330
F10329
100
AcDbEntity
8
Geo
100
AcDbLine
10
-81.4597739982804
20
4.63919651071149
30
0.000000000000000
11
-81.3597739982804
21
4.50512414287548
31
0.000000000000000
  0
LINE
  5
F1032A
330
F1032B
100
AcDbEntity
8
Geo
100
AcDbLine
10
-81.3597739982804
20
4.50512414287548
30
0.000000000000000
11
-81.2597739982804
21
4.36792173681553
31
0.000000000000000
  0
LINE
  5
F1032C
330
F1032D
100
AcDbEntity
8
Geo
100
AcDbLine
10
-81.2597739982804
20
4.36792173681553
30
0.000000000000000
11
-81.1597739982804
21
4.22816728338977
31
0.000000000000000
  0
LINE
  5
F1032E
330
F1032F
100
AcDbEntity
8
Geo
100
AcDbLine
10
-81.1597739982804
20
4.22816728338977
30
0.000000000000000
11
-81.0597739982803
21
4.08641250541103
31
0.000000000000000
  0
LINE
  5
F10330
330
F10331
100
AcDbEntity
8
Geo
100
AcDbLine
10
-81.0597739982803
20
4.08641250541103
30
0.000000000000000
11
-80.9597739982804
21
3.94318228242152
31
0.000000000000000
  0
LINE
  5
F10332
330
F10333
100
AcDbEntity
8
Geo
100
AcDbLine
10
-80.9597739982804
20
3.94318228242152
30
0.000000000000000
11
-80.8597739982804
21
3.79897429244372
31
0.000000000000000
  0
LINE
  5
F10334
330
F10335
100
AcDbEntity
8
Geo
100
AcDbLine
10
-80.8597739982804
20
3.79897429244372
30
0.000000000000000
11
-80.7597739982804
21
3.65425885295444
31
0.000000000000000
  0
LINE
  5
F10336
330
F10337
100
AcDbEntity
8
Geo
100
AcDbLine
10
-80.7597739982804
20
3.65425885295444
30
0.000000000000000
11
-80.6597739982803
21
3.50947894360349
31
0.000000000000000
  0
LINE
  5
F10338
330
F10339
100
AcDbEntity
8
Geo
100
AcDbLine
10
-80.6597739982803
20
3.50947894360349
30
0.000000000000000
11
-80.5597739982803
21
3.36505039359179
31
0.000000000000000
  0
LINE
  5
F1033A
330
F1033B
100
AcDbEntity
8
Geo
100
AcDbLine
10
-80.5597739982803
20
3.36505039359179
30
0.000000000000000
11
-80.4597739982804
21
3.22136221711850
31
0.000000000000000
  0
LINE
  5
F1033C
330
F1033D
100
AcDbEntity
8
Geo
100
AcDbLine
10
-80.4597739982804
20
3.22136221711850
30
0.000000000000000
11
-80.3597739982803
21
3.07877708088606
31
0.000000000000000
  0
LINE
  5
F1033E
330
F1033F
100
AcDbEntity
8
Geo
100
AcDbLine
10
-80.3597739982803
20
3.07877708088606
30
0.000000000000000
11
-80.2597739982803
21
2.93763188830107
31
0.000000000000000
  0
LINE
  5
F10340
330
F10341
100
AcDbEntity
8
Geo
100
AcDbLine
10
-80.2597739982803
20
2.93763188830107
30
0.000000000000000
11
-80.1597739982803
21
2.79823846571275
31
0.000000000000000
  0
LINE
  5
F10342
330
F10343
100
AcDbEntity
8
Geo
100
AcDbLine
10
-80.1597739982803
20
2.79823846571275
30
0.000000000000000
11
-80.0597739982803
21
2.66088433677673
31
0.000000000000000
  0
LINE
  5
F10344
330
F10345
100
AcDbEntity
8
Geo
100
AcDbLine
10
-80.0597739982803
20
2.66088433677673
30
0.000000000000000
11
-79.9597739982803
21
2.52583357180813
31
0.000000000000000
  0
LINE
  5
F10346
330
F10347
100
AcDbEntity
8
Geo
100
AcDbLine
10
-79.9597739982803
20
2.52583357180813
30
0.000000000000000
11
-79.8597739982803
21
2.39332769978315
31
0.000000000000000
  0
LINE
  5
F10348
330
F10349
100
AcDbEntity
8
Geo
100
AcDbLine
10
-79.8597739982803
20
2.39332769978315
30
0.000000000000000
11
-79.7597739982803
21
2.26358667145341
31
0.000000000000000
  0
LINE
  5
F1034A
330
F1034B
100
AcDbEntity
8
Geo
100
AcDbLine
10
-79.7597739982803
20
2.26358667145341
30
0.000000000000000
11
-79.6597739982803
21
2.13680986284327
31
0.000000000000000
  0
LINE
  5
F1034C
330
F1034D
100
AcDbEntity
8
Geo
100
AcDbLine
10
-79.6597739982803
20
2.13680986284327
30
0.000000000000000
11
-79.5597739982803
21
2.01317710919975
31
0.000000000000000
  0
LINE
  5
F1034E
330
F1034F
100
AcDbEntity
8
Geo
100
AcDbLine
10
-79.5597739982803
20
2.01317710919975
30
0.000000000000000
11
-79.4597739982803
21
1.89284976025060
31
0.000000000000000
  0
LINE
  5
F10350
330
F10351
100
AcDbEntity
8
Geo
100
AcDbLine
10
-79.4597739982803
20
1.89284976025060
30
0.000000000000000
11
-79.3597739982803
21
1.77597174839330
31
0.000000000000000
  0
LINE
  5
F10352
330
F10353
100
AcDbEntity
8
Geo
100
AcDbLine
10
-79.3597739982803
20
1.77597174839330
30
0.000000000000000
11
-79.2597739982803
21
1.66267066218125
31
0.000000000000000
  0
LINE
  5
F10354
330
F10355
100
AcDbEntity
8
Geo
100
AcDbLine
10
-79.2597739982803
20
1.66267066218125
30
0.000000000000000
11
-79.1597739982803
21
1.55305881818851
31
0.000000000000000
  0
LINE
  5
F10356
330
F10357
100
AcDbEntity
8
Geo
100
AcDbLine
10
-79.1597739982803
20
1.55305881818851
30
0.000000000000000
11
-79.0597739982803
21
1.44723432501936
31
0.000000000000000
  0
LINE
  5
F10358
330
F10359
100
AcDbEntity
8
Geo
100
AcDbLine
10
-79.0597739982803
20
1.44723432501936
30
0.000000000000000
11
-78.9597739982803
21
1.34528213387899
31
0.000000000000000
  0
LINE
  5
F1035A
330
F1035B
100
AcDbEntity
8
Geo
100
AcDbLine
10
-78.9597739982803
20
1.34528213387899
30
0.000000000000000
11
-78.8597739982803
21
1.24727507073689
31
0.000000000000000
  0
LINE
  5
F1035C
330
F1035D
100
AcDbEntity
8
Geo
100
AcDbLine
10
-78.8597739982803
20
1.24727507073689
30
0.000000000000000
11
-78.7597739982803
21
1.15327484569200
31
0.000000000000000
  0
LINE
  5
F1035E
330
F1035F
100
AcDbEntity
8
Geo
100
AcDbLine
10
-78.7597739982803
20
1.15327484569200
30
0.000000000000000
11
-78.6597739982803
21
1.06333303568832
31
0.000000000000000
  0
LINE
  5
F10360
330
F10361
100
AcDbEntity
8
Geo
100
AcDbLine
10
-78.6597739982803
20
1.06333303568832
30
0.000000000000000
11
-78.5597739982803
21
0.977492037230500
31
0.000000000000000
  0
LINE
  5
F10362
330
F10363
100
AcDbEntity
8
Geo
100
AcDbLine
10
-78.5597739982803
20
0.977492037230500
30
0.000000000000000
11
-78.4597739982803
21
0.895785986211605
31
0.000000000000000
  0
LINE
  5
F10364
330
F10365
100
AcDbEntity
8
Geo
100
AcDbLine
10
-78.4597739982803
20
0.895785986211605
30
0.000000000000000
11
-78.3597739982803
21
0.818241642388874
31
0.000000000000000
  0
LINE
  5
F10366
330
F10367
100
AcDbEntity
8
Geo
100
AcDbLine
10
-78.3597739982803
20
0.818241642388874
30
0.000000000000000
11
-78.2597739982803
21
0.744879236429771
31
0.000000000000000
  0
LINE
  5
F10368
330
F10369
100
AcDbEntity
8
Geo
100
AcDbLine
10
-78.2597739982803
20
0.744879236429771
30
0.000000000000000
11
-78.1597739982803
21
0.675713277799844
31
0.000000000000000
  0
LINE
  5
F1036A
330
F1036B
100
AcDbEntity
8
Geo
100
AcDbLine
10
-78.1597739982803
20
0.675713277799844
30
0.000000000000000
11
-78.0597739982803
21
0.610753322077476
31
0.000000000000000
  0
LINE
  5
F1036C
330
F1036D
100
AcDbEntity
8
Geo
100
AcDbLine
10
-78.0597739982803
20
0.610753322077476
30
0.000000000000000
11
-77.9597739982803
21
0.550004696559563
31
0.000000000000000
  0
LINE
  5
F1036E
330
F1036F
100
AcDbEntity
8
Geo
100
AcDbLine
10
-77.9597739982803
20
0.550004696559563
30
0.000000000000000
11
-77.8597739982803
21
0.493469183268134
31
0.000000000000000
  0
LINE
  5
F10370
330
F10371
100
AcDbEntity
8
Geo
100
AcDbLine
10
-77.8597739982803
20
0.493469183268134
30
0.000000000000000
11
-77.7597739982803
21
0.441145658682285
31
0.000000000000000
  0
LINE
  5
F10372
330
F10373
100
AcDbEntity
8
Geo
100
AcDbLine
10
-77.7597739982803
20
0.441145658682285
30
0.000000000000000
11
-77.6597739982803
21
0.393030689704452
31
0.000000000000000
  0
LINE
  5
F10374
330
F10375
100
AcDbEntity
8
Geo
100
AcDbLine
10
-77.6597739982803
20
0.393030689704452
30
0.000000000000000
11
-77.5597739982803
21
0.349119085526580
31
0.000000000000000
  0
LINE
  5
F10376
330
F10377
100
AcDbEntity
8
Geo
100
AcDbLine
10
-77.5597739982803
20
0.349119085526580
30
0.000000000000000
11
-77.4597739982803
21
0.309404405192099
31
0.000000000000000
  0
LINE
  5
F10378
330
F10379
100
AcDbEntity
8
Geo
100
AcDbLine
10
-77.4597739982803
20
0.309404405192099
30
0.000000000000000
11
-77.3597739982803
21
0.273879420755677
31
0.000000000000000
  0
LINE
  5
F1037A
330
F1037B
100
AcDbEntity
8
Geo
100
AcDbLine
10
-77.3597739982803
20
0.273879420755677
30
0.000000000000000
11
-77.2597739982803
21
0.242536536026267
31
0.000000000000000
  0
LINE
  5
F1037C
330
F1037D
100
AcDbEntity
8
Geo
100
AcDbLine
10
-77.2597739982803
20
0.242536536026267
30
0.000000000000000
11
-77.1597739982803
21
0.215368160942183
31
0.000000000000000
  0
LINE
  5
F1037E
330
F1037F
100
AcDbEntity
8
Geo
100
AcDbLine
10
-77.1597739982803
20
0.215368160942183
30
0.000000000000000
11
-77.0597739982803
21
0.192367041671583
31
0.000000000000000
  0
LINE
  5
F10380
330
F10381
100
AcDbEntity
8
Geo
100
AcDbLine
10
-77.0597739982803
20
0.192367041671583
30
0.000000000000000
11
-76.9597739982803
21
0.173526546559742
31
0.000000000000000
  0
LINE
  5
F10382
330
F10383
100
AcDbEntity
8
Geo
100
AcDbLine
10
-76.9597739982803
20
0.173526546559742
30
0.000000000000000
11
-76.8597739982803
21
0.158840908058105
31
0.000000000000000
  0
LINE
  5
F10384
330
F10385
100
AcDbEntity
8
Geo
100
AcDbLine
10
-76.8597739982803
20
0.158840908058105
30
0.000000000000000
11
-76.7597739982804
21
0.148305420770901
31
0.000000000000000
  0
LINE
  5
F10386
330
F10387
100
AcDbEntity
8
Geo
100
AcDbLine
10
-98.7597739982804
20
0.818551900770059
30
0.000000000000000
11
-98.6597739982804
21
0.633845429049448
31
0.000000000000000
  0
LINE
  5
F10388
330
F10389
100
AcDbEntity
8
Geo
100
AcDbLine
10
-98.6597739982804
20
0.633845429049448
30
0.000000000000000
11
-98.5597739982804
21
0.441722159890150
31
0.000000000000000
  0
LINE
  5
F1038A
330
F1038B
100
AcDbEntity
8
Geo
100
AcDbLine
10
-98.5597739982804
20
0.441722159890150
30
0.000000000000000
11
-98.4597739982804
21
0.247293073839867
31
0.000000000000000
  0
LINE
  5
F1038C
330
F1038D
100
AcDbEntity
8
Geo
100
AcDbLine
10
-98.4597739982804
20
0.247293073839867
30
0.000000000000000
11
-98.3597739982804
21
0.0533383015168087
31
0.000000000000000
  0
LINE
  5
F1038E
330
F1038F
100
AcDbEntity
8
Geo
100
AcDbLine
10
-98.3597739982804
20
0.0533383015168087
30
0.000000000000000
11
-98.2597739982804
21
-0.137769720262366
31
0.000000000000000
  0
LINE
  5
F10390
330
F10391
100
AcDbEntity
8
Geo
100
AcDbLine
10
-98.2597739982804
20
-0.137769720262366
30
0.000000000000000
11
-98.1597739982804
21
-0.325911968772344
31
0.000000000000000
  0
LINE
  5
F10392
330
F10393
100
AcDbEntity
8
Geo
100
AcDbLine
10
-98.1597739982804
20
-0.325911968772344
30
0.000000000000000
11
-98.0597739982804
21
-0.512358924564271
31
0.000000000000000
  0
LINE
  5
F10394
330
F10395
100
AcDbEntity
8
Geo
100
AcDbLine
10
-98.0597739982804
20
-0.512358924564271
30
0.000000000000000
11
-97.9597739982804
21
-0.696834404025132
31
0.000000000000000
  0
LINE
  5
F10396
330
F10397
100
AcDbEntity
8
Geo
100
AcDbLine
10
-97.9597739982804
20
-0.696834404025132
30
0.000000000000000
11
-97.8597739982804
21
-0.879065143887023
31
0.000000000000000
  0
LINE
  5
F10398
330
F10399
100
AcDbEntity
8
Geo
100
AcDbLine
10
-97.8597739982804
20
-0.879065143887023
30
0.000000000000000
11
-97.7597739982804
21
-1.05878120601165
31
0.000000000000000
  0
LINE
  5
F1039A
330
F1039B
100
AcDbEntity
8
Geo
100
AcDbLine
10
-97.7597739982804
20
-1.05878120601165
30
0.000000000000000
11
-97.6597739982804
21
-1.23571637724930
31
0.000000000000000
  0
LINE
  5
F1039C
330
F1039D
100
AcDbEntity
8
Geo
100
AcDbLine
10
-97.6597739982804
20
-1.23571637724930
30
0.000000000000000
11
-97.5597739982804
21
-1.40960856378002
31
0.000000000000000
  0
LINE
  5
F1039E
330
F1039F
100
AcDbEntity
8
Geo
100
AcDbLine
10
-97.5597739982804
20
-1.40960856378002
30
0.000000000000000
11
-97.4597739982804
21
-1.58020017935283
31
0.000000000000000
  0
LINE
  5
F103A0
330
F103A1
100
AcDbEntity
8
Geo
100
AcDbLine
10
-97.4597739982804
20
-1.58020017935283
30
0.000000000000000
11
-97.3597739982804
21
-1.74723852684783
31
0.000000000000000
  0
LINE
  5
F103A2
330
F103A3
100
AcDbEntity
8
Geo
100
AcDbLine
10
-97.3597739982804
20
-1.74723852684783
30
0.000000000000000
11
-97.2597739982804
21
-1.91047617259615
31
0.000000000000000
  0
LINE
  5
F103A4
330
F103A5
100
AcDbEntity
8
Geo
100
AcDbLine
10
-97.2597739982804
20
-1.91047617259615
30
0.000000000000000
11
-97.1597739982804
21
-2.06967131290306
31
0.000000000000000
  0
LINE
  5
F103A6
330
F103A7
100
AcDbEntity
8
Geo
100
AcDbLine
10
-97.1597739982804
20
-2.06967131290306
30
0.000000000000000
11
-97.0597739982804
21
-2.22458813223142
31
0.000000000000000
  0
LINE
  5
F103A8
330
F103A9
100
AcDbEntity
8
Geo
100
AcDbLine
10
-97.0597739982804
20
-2.22458813223142
30
0.000000000000000
11
-96.9597739982804
21
-2.37499715251497
31
0.000000000000000
  0
LINE
  5
F103AA
330
F103AB
100
AcDbEntity
8
Geo
100
AcDbLine
10
-96.9597739982804
20
-2.37499715251497
30
0.000000000000000
11
-96.8597739982804
21
-2.52067557308379
31
0.000000000000000
  0
LINE
  5
F103AC
330
F103AD
100
AcDbEntity
8
Geo
100
AcDbLine
10
-96.8597739982804
20
-2.52067557308379
30
0.000000000000000
11
-96.7597739982804
21
-2.66140760069868
31
0.000000000000000
  0
LINE
  5
F103AE
330
F103AF
100
AcDbEntity
8
Geo
100
AcDbLine
10
-96.7597739982804
20
-2.66140760069868
30
0.000000000000000
11
-96.6597739982804
21
-2.79698476920534
31
0.000000000000000
  0
LINE
  5
F103B0
330
F103B1
100
AcDbEntity
8
Geo
100
AcDbLine
10
-96.6597739982804
20
-2.79698476920534
30
0.000000000000000
11
-96.5597739982804
21
-2.92720624833501
31
0.000000000000000
  0
LINE
  5
F103B2
330
F103B3
100
AcDbEntity
8
Geo
100
AcDbLine
10
-96.5597739982804
20
-2.92720624833501
30
0.000000000000000
11
-96.4597739982804
21
-3.05187914119407
31
0.000000000000000
  0
LINE
  5
F103B4
330
F103B5
100
AcDbEntity
8
Geo
100
AcDbLine
10
-96.4597739982804
20
-3.05187914119407
30
0.000000000000000
11
-96.3597739982804
21
-3.17081877000191
31
0.000000000000000
  0
LINE
  5
F103B6
330
F103B7
100
AcDbEntity
8
Geo
100
AcDbLine
10
-96.3597739982804
20
-3.17081877000191
30
0.000000000000000
11
-96.2597739982804
21
-3.28384894965392
31
0.000000000000000
  0
LINE
  5
F103B8
330
F103B9
100
AcDbEntity
8
Geo
100
AcDbLine
10
-96.2597739982804
20
-3.28384894965392
30
0.000000000000000
11
-96.1597739982804
21
-3.39080224870415
31
0.000000000000000
  0
LINE
  5
F103BA
330
F103BB
100
AcDbEntity
8
Geo
100
AcDbLine
10
-96.1597739982804
20
-3.39080224870415
30
0.000000000000000
11
-96.0597739982804
21
-3.49152023738137
31
0.000000000000000
  0
LINE
  5
F103BC
330
F103BD
100
AcDbEntity
8
Geo
100
AcDbLine
10
-96.0597739982804
20
-3.49152023738137
30
0.000000000000000
11
-95.9597739982804
21
-3.58585372227081
31
0.000000000000000
  0
LINE
  5
F103BE
330
F103BF
100
AcDbEntity
8
Geo
100
AcDbLine
10
-95.9597739982804
20
-3.58585372227081
30
0.000000000000000
11
-95.8597739982804
21
-3.67366296731415
31
0.000000000000000
  0
LINE
  5
F103C0
330
F103C1
100
AcDbEntity
8
Geo
100
AcDbLine
10
-95.8597739982804
20
-3.67366296731415
30
0.000000000000000
11
-95.7597739982804
21
-3.75481790080039
31
0.000000000000000
  0
LINE
  5
F103C2
330
F103C3
100
AcDbEntity
8
Geo
100
AcDbLine
10
-95.7597739982804
20
-3.75481790080039
30
0.000000000000000
11
-95.6597739982804
21
-3.82919830804086
31
0.000000000000000
  0
LINE
  5
F103C4
330
F103C5
100
AcDbEntity
8
Geo
100
AcDbLine
10
-95.6597739982804
20
-3.82919830804086
30
0.000000000000000
11
-95.5597739982804
21
-3.89669400944308
31
0.000000000000000
  0
LINE
  5
F103C6
330
F103C7
100
AcDbEntity
8
Geo
100
AcDbLine
10
-95.5597739982804
20
-3.89669400944308
30
0.000000000000000
11
-95.4597739982804
21
-3.95720502371961
31
0.000000000000000
  0
LINE
  5
F103C8
330
F103C9
100
AcDbEntity
8
Geo
100
AcDbLine
10
-95.4597739982804
20
-3.95720502371961
30
0.000000000000000
11
-95.3597739982804
21
-4.01064171599024
31
0.000000000000000
  0
LINE
  5
F103CA
330
F103CB
100
AcDbEntity
8
Geo
100
AcDbLine
10
-95.3597739982804
20
-4.01064171599024
30
0.000000000000000
11
-95.2597739982804
21
-4.05692493055796
31
0.000000000000000
  0
LINE
  5
F103CC
330
F103CD
100
AcDbEntity
8
Geo
100
AcDbLine
10
-95.2597739982804
20
-4.05692493055796
30
0.000000000000000
11
-95.1597739982804
21
-4.09598610816224
31
0.000000000000000
  0
LINE
  5
F103CE
330
F103CF
100
AcDbEntity
8
Geo
100
AcDbLine
10
-95.1597739982804
20
-4.09598610816224
30
0.000000000000000
11
-95.0597739982804
21
-4.12776738753568
31
0.000000000000000
  0
LINE
  5
F103D0
330
F103D1
100
AcDbEntity
8
Geo
100
AcDbLine
10
-95.0597739982804
20
-4.12776738753568
30
0.000000000000000
11
-94.9597739982804
21
-4.15222169111394
31
0.000000000000000
  0
LINE
  5
F103D2
330
F103D3
100
AcDbEntity
8
Geo
100
AcDbLine
10
-94.9597739982804
20
-4.15222169111394
30
0.000000000000000
11
-94.8597739982804
21
-4.16931279477154
31
0.000000000000000
  0
LINE
  5
F103D4
330
F103D5
100
AcDbEntity
8
Geo
100
AcDbLine
10
-94.8597739982804
20
-4.16931279477154
30
0.000000000000000
11
-94.7597739982804
21
-4.17901538148072
31
0.000000000000000
  0
LINE
  5
F103D6
330
F103D7
100
AcDbEntity
8
Geo
100
AcDbLine
10
-86.5597739982804
20
5.81786245284899
30
0.000000000000000
11
-86.4597739982804
21
5.81735475948812
31
0.000000000000000
  0
LINE
  5
F103D8
330
F103D9
100
AcDbEntity
8
Geo
100
AcDbLine
10
-86.4597739982804
20
5.81735475948812
30
0.000000000000000
11
-86.3597739982804
21
5.80944234649312
31
0.000000000000000
  0
LINE
  5
F103DA
330
F103DB
100
AcDbEntity
8
Geo
100
AcDbLine
10
-86.3597739982804
20
5.80944234649312
30
0.000000000000000
11
-86.2597739982804
21
5.79413693451022
31
0.000000000000000
  0
LINE
  5
F103DC
330
F103DD
100
AcDbEntity
8
Geo
100
AcDbLine
10
-86.2597739982804
20
5.79413693451022
30
0.000000000000000
11
-86.1597739982804
21
5.77146119542462
31
0.000000000000000
  0
LINE
  5
F103DE
330
F103DF
100
AcDbEntity
8
Geo
100
AcDbLine
10
-86.1597739982804
20
5.77146119542462
30
0.000000000000000
11
-86.0597739982804
21
5.74144871877671
31
0.000000000000000
  0
LINE
  5
F103E0
330
F103E1
100
AcDbEntity
8
Geo
100
AcDbLine
10
-86.0597739982804
20
5.74144871877671
30
0.000000000000000
11
-85.9597739982804
21
5.70414396200586
31
0.000000000000000
  0
LINE
  5
F103E2
330
F103E3
100
AcDbEntity
8
Geo
100
AcDbLine
10
-85.9597739982804
20
5.70414396200586
30
0.000000000000000
11
-85.8597739982804
21
5.65960218459574
31
0.000000000000000
  0
LINE
  5
F103E4
330
F103E5
100
AcDbEntity
8
Geo
100
AcDbLine
10
-85.8597739982804
20
5.65960218459574
30
0.000000000000000
11
-85.7597739982804
21
5.60788936621850
31
0.000000000000000
  0
LINE
  5
F103E6
330
F103E7
100
AcDbEntity
8
Geo
100
AcDbLine
10
-85.7597739982804
20
5.60788936621850
30
0.000000000000000
11
-85.6597739982804
21
5.54908210899916
31
0.000000000000000
  0
LINE
  5
F103E8
330
F103E9
100
AcDbEntity
8
Geo
100
AcDbLine
10
-85.6597739982804
20
5.54908210899916
30
0.000000000000000
11
-85.5597739982804
21
5.48326752404501
31
0.000000000000000
  0
LINE
  5
F103EA
330
F103EB
100
AcDbEntity
8
Geo
100
AcDbLine
10
-85.5597739982804
20
5.48326752404501
30
0.000000000000000
11
-85.4597739982804
21
5.41054310240806
31
0.000000000000000
  0
LINE
  5
F103EC
330
F103ED
100
AcDbEntity
8
Geo
100
AcDbLine
10
-85.4597739982804
20
5.41054310240806
30
0.000000000000000
11
-85.3597739982804
21
5.33101657067164
31
0.000000000000000
  0
LINE
  5
F103EE
330
F103EF
100
AcDbEntity
8
Geo
100
AcDbLine
10
-85.3597739982804
20
5.33101657067164
30
0.000000000000000
11
-85.2597739982804
21
5.24480573137520
31
0.000000000000000
  0
LINE
  5
F103F0
330
F103F1
100
AcDbEntity
8
Geo
100
AcDbLine
10
-85.2597739982804
20
5.24480573137520
30
0.000000000000000
11
-85.1597739982804
21
5.15203828851359
31
0.000000000000000
  0
LINE
  5
F103F2
330
F103F3
100
AcDbEntity
8
Geo
100
AcDbLine
10
-85.1597739982804
20
5.15203828851359
30
0.000000000000000
11
-85.0597739982804
21
5.05285165836924
31
0.000000000000000
  0
LINE
  5
F103F4
330
F103F5
100
AcDbEntity
8
Geo
100
AcDbLine
10
-85.0597739982804
20
5.05285165836924
30
0.000000000000000
11
-84.9597739982804
21
4.94739276595770
31
0.000000000000000
  0
LINE
  5
F103F6
330
F103F7
100
AcDbEntity
8
Geo
100
AcDbLine
10
-84.9597739982804
20
4.94739276595770
30
0.000000000000000
11
-84.8597739982804
21
4.83581782738776
31
0.000000000000000
  0
LINE
  5
F103F8
330
F103F9
100
AcDbEntity
8
Geo
100
AcDbLine
10
-84.8597739982804
20
4.83581782738776
30
0.000000000000000
11
-84.7597739982804
21
4.71829211845878
31
0.000000000000000
  0
LINE
  5
F103FA
330
F103FB
100
AcDbEntity
8
Geo
100
AcDbLine
10
-84.7597739982804
20
4.71829211845878
30
0.000000000000000
11
-84.6597739982804
21
4.59498972983787
31
0.000000000000000
  0
LINE
  5
F103FC
330
F103FD
100
AcDbEntity
8
Geo
100
AcDbLine
10
-84.6597739982804
20
4.59498972983787
30
0.000000000000000
11
-84.5597739982804
21
4.46609330917962
31
0.000000000000000
  0
LINE
  5
F103FE
330
F103FF
100
AcDbEntity
8
Geo
100
AcDbLine
10
-84.5597739982804
20
4.46609330917962
30
0.000000000000000
11
-84.4597739982804
21
4.33179379057043
31
0.000000000000000
  0
LINE
  5
F10400
330
F10401
100
AcDbEntity
8
Geo
100
AcDbLine
10
-84.4597739982804
20
4.33179379057043
30
0.000000000000000
11
-84.3597739982804
21
4.19229011169804
31
0.000000000000000
  0
LINE
  5
F10402
330
F10403
100
AcDbEntity
8
Geo
100
AcDbLine
10
-84.3597739982804
20
4.19229011169804
30
0.000000000000000
11
-84.2597739982804
21
4.04778891916550
31
0.000000000000000
  0
LINE
  5
F10404
330
F10405
100
AcDbEntity
8
Geo
100
AcDbLine
10
-84.2597739982804
20
4.04778891916550
30
0.000000000000000
11
-84.1597739982804
21
3.89850426238579
31
0.000000000000000
  0
LINE
  5
F10406
330
F10407
100
AcDbEntity
8
Geo
100
AcDbLine
10
-84.1597739982804
20
3.89850426238579
30
0.000000000000000
11
-84.0597739982804
21
3.74465727651072
31
0.000000000000000
  0
LINE
  5
F10408
330
F10409
100
AcDbEntity
8
Geo
100
AcDbLine
10
-84.0597739982804
20
3.74465727651072
30
0.000000000000000
11
-83.9597739982804
21
3.58647585486380
31
0.000000000000000
  0
LINE
  5
F1040A
330
F1040B
100
AcDbEntity
8
Geo
100
AcDbLine
10
-83.9597739982804
20
3.58647585486380
30
0.000000000000000
11
-83.8597739982804
21
3.42419431136212
31
0.000000000000000
  0
LINE
  5
F1040C
330
F1040D
100
AcDbEntity
8
Geo
100
AcDbLine
10
-83.8597739982804
20
3.42419431136212
30
0.000000000000000
11
-83.7597739982804
21
3.25805303342751
31
0.000000000000000
  0
LINE
  5
F1040E
330
F1040F
100
AcDbEntity
8
Geo
100
AcDbLine
10
-83.7597739982804
20
3.25805303342751
30
0.000000000000000
11
-83.6597739982804
21
3.08829812590097
31
0.000000000000000
  0
LINE
  5
F10410
330
F10411
100
AcDbEntity
8
Geo
100
AcDbLine
10
-83.6597739982804
20
3.08829812590097
30
0.000000000000000
11
-83.5597739982804
21
2.91518104648793
31
0.000000000000000
  0
LINE
  5
F10412
330
F10413
100
AcDbEntity
8
Geo
100
AcDbLine
10
-83.5597739982804
20
2.91518104648793
30
0.000000000000000
11
-83.4597739982804
21
2.73895823327431
31
0.000000000000000
  0
LINE
  5
F10414
330
F10415
100
AcDbEntity
8
Geo
100
AcDbLine
10
-83.4597739982804
20
2.73895823327431
30
0.000000000000000
11
-83.3597739982804
21
2.55989072486512
31
0.000000000000000
  0
LINE
  5
F10416
330
F10417
100
AcDbEntity
8
Geo
100
AcDbLine
10
-83.3597739982804
20
2.55989072486512
30
0.000000000000000
11
-83.2597739982804
21
2.37824377370836
31
0.000000000000000
  0
LINE
  5
F10418
330
F10419
100
AcDbEntity
8
Geo
100
AcDbLine
10
-83.2597739982804
20
2.37824377370836
30
0.000000000000000
11
-83.1597739982804
21
2.19428645317694
31
0.000000000000000
  0
LINE
  5
F1041A
330
F1041B
100
AcDbEntity
8
Geo
100
AcDbLine
10
-83.1597739982804
20
2.19428645317694
30
0.000000000000000
11
-83.0597739982804
21
2.00829125899067
31
0.000000000000000
  0
LINE
  5
F1041C
330
F1041D
100
AcDbEntity
8
Geo
100
AcDbLine
10
-83.0597739982804
20
2.00829125899067
30
0.000000000000000
11
-82.9597739982804
21
1.82053370556875
31
0.000000000000000
  0
LINE
  5
F1041E
330
F1041F
100
AcDbEntity
8
Geo
100
AcDbLine
10
-82.9597739982804
20
1.82053370556875
30
0.000000000000000
11
-82.8597739982804
21
1.63129191791060
31
0.000000000000000
  0
LINE
  5
F10420
330
F10421
100
AcDbEntity
8
Geo
100
AcDbLine
10
-82.8597739982804
20
1.63129191791060
30
0.000000000000000
11
-82.7597739982804
21
1.44084621960975
31
0.000000000000000
  0
LINE
  5
F10422
330
F10423
100
AcDbEntity
8
Geo
100
AcDbLine
10
-82.7597739982804
20
1.44084621960975
30
0.000000000000000
11
-82.6597739982804
21
1.24947871761086
31
0.000000000000000
  0
LINE
  5
F10424
330
F10425
100
AcDbEntity
8
Geo
100
AcDbLine
10
-82.6597739982804
20
1.24947871761086
30
0.000000000000000
11
-82.5597739982804
21
1.05747288432512
31
0.000000000000000
  0
LINE
  5
F10426
330
F10427
100
AcDbEntity
8
Geo
100
AcDbLine
10
-82.5597739982804
20
1.05747288432512
30
0.000000000000000
11
-82.4597739982804
21
0.865113137722940
31
0.000000000000000
  0
LINE
  5
F10428
330
F10429
100
AcDbEntity
8
Geo
100
AcDbLine
10
-82.4597739982804
20
0.865113137722940
30
0.000000000000000
11
-82.3597739982804
21
0.672684420026042
31
0.000000000000000
  0
LINE
  5
F1042A
330
F1042B
100
AcDbEntity
8
Geo
100
AcDbLine
10
-82.3597739982804
20
0.672684420026042
30
0.000000000000000
11
-82.2597739982804
21
0.480471775622924
31
0.000000000000000
  0
LINE
  5
F1042C
330
F1042D
100
AcDbEntity
8
Geo
100
AcDbLine
10
-82.2597739982804
20
0.480471775622924
30
0.000000000000000
11
-82.1597739982804
21
0.288759928833024
31
0.000000000000000
  0
LINE
  5
F1042E
330
F1042F
100
AcDbEntity
8
Geo
100
AcDbLine
10
-82.1597739982804
20
0.288759928833024
30
0.000000000000000
11
-82.0597739982804
21
0.0978328621449762
31
0.000000000000000
  0
LINE
  5
F10430
330
F10431
100
AcDbEntity
8
Geo
100
AcDbLine
10
-82.0597739982804
20
0.0978328621449762
30
0.000000000000000
11
-81.9597739982804
21
-0.0920266044462421
31
0.000000000000000
  0
LINE
  5
F10432
330
F10433
100
AcDbEntity
8
Geo
100
AcDbLine
10
-81.9597739982804
20
-0.0920266044462421
30
0.000000000000000
11
-81.8597739982804
21
-0.280537232380170
31
0.000000000000000
  0
LINE
  5
F10434
330
F10435
100
AcDbEntity
8
Geo
100
AcDbLine
10
-81.8597739982804
20
-0.280537232380170
30
0.000000000000000
11
-81.7597739982804
21
-0.467419781129218
31
0.000000000000000
  0
LINE
  5
F10436
330
F10437
100
AcDbEntity
8
Geo
100
AcDbLine
10
-81.7597739982804
20
-0.467419781129218
30
0.000000000000000
11
-81.6597739982804
21
-0.444259216104974
31
0.000000000000000
  0
LINE
  5
F10438
330
F10439
100
AcDbEntity
8
Geo
100
AcDbLine
10
-81.6597739982804
20
-0.444259216104974
30
0.000000000000000
11
-81.5597739982804
21
-0.421519864225505
31
0.000000000000000
  0
LINE
  5
F1043A
330
F1043B
100
AcDbEntity
8
Geo
100
AcDbLine
10
-81.5597739982804
20
-0.421519864225505
30
0.000000000000000
11
-81.4597739982804
21
-0.399203866591060
31
0.000000000000000
  0
LINE
  5
F1043C
330
F1043D
100
AcDbEntity
8
Geo
100
AcDbLine
10
-81.4597739982804
20
-0.399203866591060
30
0.000000000000000
11
-81.3597739982804
21
-0.377313274311479
31
0.000000000000000
  0
LINE
  5
F1043E
330
F1043F
100
AcDbEntity
8
Geo
100
AcDbLine
10
-81.3597739982804
20
-0.377313274311479
30
0.000000000000000
11
-81.2597739982804
21
-0.355850051275989
31
0.000000000000000
  0
LINE
  5
F10440
330
F10441
100
AcDbEntity
8
Geo
100
AcDbLine
10
-81.2597739982804
20
-0.355850051275989
30
0.000000000000000
11
-81.1597739982804
21
-0.334816076877349
31
0.000000000000000
  0
LINE
  5
F10442
330
F10443
100
AcDbEntity
8
Geo
100
AcDbLine
10
-81.1597739982804
20
-0.334816076877349
30
0.000000000000000
11
-81.0597739982803
21
-0.314213148689489
31
0.000000000000000
  0
LINE
  5
F10444
330
F10445
100
AcDbEntity
8
Geo
100
AcDbLine
10
-81.0597739982803
20
-0.314213148689489
30
0.000000000000000
11
-80.9597739982804
21
-0.294042985097827
31
0.000000000000000
  0
LINE
  5
F10446
330
F10447
100
AcDbEntity
8
Geo
100
AcDbLine
10
-80.9597739982804
20
-0.294042985097827
30
0.000000000000000
11
-80.8597739982804
21
-0.274307227881481
31
0.000000000000000
  0
LINE
  5
F10448
330
F10449
100
AcDbEntity
8
Geo
100
AcDbLine
10
-80.8597739982804
20
-0.274307227881481
30
0.000000000000000
11
-80.7597739982804
21
-0.255007444746639
31
0.000000000000000
  0
LINE
  5
F1044A
330
F1044B
100
AcDbEntity
8
Geo
100
AcDbLine
10
-80.7597739982804
20
-0.255007444746639
30
0.000000000000000
11
-80.6597739982803
21
-0.236145131810392
31
0.000000000000000
  0
LINE
  5
F1044C
330
F1044D
100
AcDbEntity
8
Geo
100
AcDbLine
10
-80.6597739982803
20
-0.236145131810392
30
0.000000000000000
11
-80.5597739982803
21
-0.217721716034341
31
0.000000000000000
  0
LINE
  5
F1044E
330
F1044F
100
AcDbEntity
8
Geo
100
AcDbLine
10
-80.5597739982803
20
-0.217721716034341
30
0.000000000000000
11
-80.4597739982804
21
-0.199738557607374
31
0.000000000000000
  0
LINE
  5
F10450
330
F10451
100
AcDbEntity
8
Geo
100
AcDbLine
10
-80.4597739982804
20
-0.199738557607374
30
0.000000000000000
11
-80.3597739982803
21
-0.182196952276985
31
0.000000000000000
  0
LINE
  5
F10452
330
F10453
100
AcDbEntity
8
Geo
100
AcDbLine
10
-80.3597739982803
20
-0.182196952276985
30
0.000000000000000
11
-80.2597739982803
21
-0.165098133628589
31
0.000000000000000
  0
LINE
  5
F10454
330
F10455
100
AcDbEntity
8
Geo
100
AcDbLine
10
-80.2597739982803
20
-0.165098133628589
30
0.000000000000000
11
-80.1597739982803
21
-0.148443275312285
31
0.000000000000000
  0
LINE
  5
F10456
330
F10457
100
AcDbEntity
8
Geo
100
AcDbLine
10
-80.1597739982803
20
-0.148443275312285
30
0.000000000000000
11
-80.0597739982803
21
-0.132233493216553
31
0.000000000000000
  0
LINE
  5
F10458
330
F10459
100
AcDbEntity
8
Geo
100
AcDbLine
10
-80.0597739982803
20
-0.132233493216553
30
0.000000000000000
11
-79.9597739982803
21
-0.116469847588428
31
0.000000000000000
  0
LINE
  5
F1045A
330
F1045B
100
AcDbEntity
8
Geo
100
AcDbLine
10
-79.9597739982803
20
-0.116469847588428
30
0.000000000000000
11
-79.8597739982803
21
-0.101153345099664
31
0.000000000000000
  0
LINE
  5
F1045C
330
F1045D
100
AcDbEntity
8
Geo
100
AcDbLine
10
-79.8597739982803
20
-0.101153345099664
30
0.000000000000000
11
-79.7597739982803
21
-0.0862849408584963
31
0.000000000000000
  0
LINE
  5
F1045E
330
F1045F
100
AcDbEntity
8
Geo
100
AcDbLine
10
-79.7597739982803
20
-0.0862849408584963
30
0.000000000000000
11
-79.6597739982803
21
-0.0718655403665708
31
0.000000000000000
  0
LINE
  5
F10460
330
F10461
100
AcDbEntity
8
Geo
100
AcDbLine
10
-79.6597739982803
20
-0.0718655403665708
30
0.000000000000000
11
-79.5597739982803
21
-0.0578960014206824
31
0.000000000000000
  0
LINE
  5
F10462
330
F10463
100
AcDbEntity
8
Geo
100
AcDbLine
10
-79.5597739982803
20
-0.0578960014206824
30
0.000000000000000
11
-79.4597739982803
21
-0.0443771359589566
31
0.000000000000000
  0
LINE
  5
F10464
330
F10465
100
AcDbEntity
8
Geo
100
AcDbLine
10
-79.4597739982803
20
-0.0443771359589566
30
0.000000000000000
11
-79.3597739982803
21
-0.0313097118511392
31
0.000000000000000
  0
LINE
  5
F10466
330
F10467
100
AcDbEntity
8
Geo
100
AcDbLine
10
-79.3597739982803
20
-0.0313097118511392
30
0.000000000000000
11
-79.2597739982803
21
-0.0186944546326884
31
0.000000000000000
  0
LINE
  5
F10468
330
F10469
100
AcDbEntity
8
Geo
100
AcDbLine
10
-79.2597739982803
20
-0.0186944546326884
30
0.000000000000000
11
-79.1597739982803
21
-0.00653204918236716
31
0.000000000000000
  0
LINE
  5
F1046A
330
F1046B
100
AcDbEntity
8
Geo
100
AcDbLine
10
-79.1597739982803
20
-0.00653204918236716
30
0.000000000000000
11
-79.0597739982803
21
0.00517685865693118
31
0.000000000000000
  0
LINE
  5
F1046C
330
F1046D
100
AcDbEntity
8
Geo
100
AcDbLine
10
-79.0597739982803
20
0.00517685865693118
30
0.000000000000000
11
-78.9597739982803
21
0.0164316605143902
31
0.000000000000000
  0
LINE
  5
F1046E
330
F1046F
100
AcDbEntity
8
Geo
100
AcDbLine
10
-78.9597739982803
20
0.0164316605143902
30
0.000000000000000
11
-78.8597739982803
21
0.0272317839847411
31
0.000000000000000
  0
LINE
  5
F10470
330
F10471
100
AcDbEntity
8
Geo
100
AcDbLine
10
-78.8597739982803
20
0.0272317839847411
30
0.000000000000000
11
-78.7597739982803
21
0.0375766911792287
31
0.000000000000000
  0
LINE
  5
F10472
330
F10473
100
AcDbEntity
8
Geo
100
AcDbLine
10
-78.7597739982803
20
0.0375766911792287
30
0.000000000000000
11
-78.6597739982803
21
0.0474658773342737
31
0.000000000000000
  0
LINE
  5
F10474
330
F10475
100
AcDbEntity
8
Geo
100
AcDbLine
10
-78.6597739982803
20
0.0474658773342737
30
0.000000000000000
11
-78.5597739982803
21
0.0568988694780350
31
0.000000000000000
  0
LINE
  5
F10476
330
F10477
100
AcDbEntity
8
Geo
100
AcDbLine
10
-78.5597739982803
20
0.0568988694780350
30
0.000000000000000
11
-78.4597739982803
21
0.0658752251550403
31
0.000000000000000
  0
LINE
  5
F10478
330
F10479
100
AcDbEntity
8
Geo
100
AcDbLine
10
-78.4597739982803
20
0.0658752251550403
30
0.000000000000000
11
-78.3597739982803
21
0.0743945312090635
31
0.000000000000000
  0
LINE
  5
F1047A
330
F1047B
100
AcDbEntity
8
Geo
100
AcDbLine
10
-78.3597739982803
20
0.0743945312090635
30
0.000000000000000
11
-78.2597739982803
21
0.0824564026243941
31
0.000000000000000
  0
LINE
  5
F1047C
330
F1047D
100
AcDbEntity
8
Geo
100
AcDbLine
10
-78.2597739982803
20
0.0824564026243941
30
0.000000000000000
11
-78.1597739982803
21
0.0900604814256492
31
0.000000000000000
  0
LINE
  5
F1047E
330
F1047F
100
AcDbEntity
8
Geo
100
AcDbLine
10
-78.1597739982803
20
0.0900604814256492
30
0.000000000000000
11
-78.0597739982803
21
0.0972064356362543
31
0.000000000000000
  0
LINE
  5
F10480
330
F10481
100
AcDbEntity
8
Geo
100
AcDbLine
10
-78.0597739982803
20
0.0972064356362543
30
0.000000000000000
11
-77.9597739982803
21
0.103893958295716
31
0.000000000000000
  0
LINE
  5
F10482
330
F10483
100
AcDbEntity
8
Geo
100
AcDbLine
10
-77.9597739982803
20
0.103893958295716
30
0.000000000000000
11
-77.8597739982803
21
0.110122766535802
31
0.000000000000000
  0
LINE
  5
F10484
330
F10485
100
AcDbEntity
8
Geo
100
AcDbLine
10
-77.8597739982803
20
0.110122766535802
30
0.000000000000000
11
-77.7597739982803
21
0.115892600715720
31
0.000000000000000
  0
LINE
  5
F10486
330
F10487
100
AcDbEntity
8
Geo
100
AcDbLine
10
-77.7597739982803
20
0.115892600715720
30
0.000000000000000
11
-77.6597739982803
21
0.121203223616401
31
0.000000000000000
  0
LINE
  5
F10488
330
F10489
100
AcDbEntity
8
Geo
100
AcDbLine
10
-77.6597739982803
20
0.121203223616401
30
0.000000000000000
11
-77.5597739982803
21
0.126054419693966
31
0.000000000000000
  0
LINE
  5
F1048A
330
F1048B
100
AcDbEntity
8
Geo
100
AcDbLine
10
-77.5597739982803
20
0.126054419693966
30
0.000000000000000
11
-77.4597739982803
21
0.130445994392445
31
0.000000000000000
  0
LINE
  5
F1048C
330
F1048D
100
AcDbEntity
8
Geo
100
AcDbLine
10
-77.4597739982803
20
0.130445994392445
30
0.000000000000000
11
-77.3597739982803
21
0.134377773515832
31
0.000000000000000
  0
LINE
  5
F1048E
330
F1048F
100
AcDbEntity
8
Geo
100
AcDbLine
10
-77.3597739982803
20
0.134377773515832
30
0.000000000000000
11
-77.2597739982803
21
0.137849602659528
31
0.000000000000000
  0
LINE
  5
F10490
330
F10491
100
AcDbEntity
8
Geo
100
AcDbLine
10
-77.2597739982803
20
0.137849602659528
30
0.000000000000000
11
-77.1597739982803
21
0.140861346701229
31
0.000000000000000
  0
LINE
  5
F10492
330
F10493
100
AcDbEntity
8
Geo
100
AcDbLine
10
-77.1597739982803
20
0.140861346701229
30
0.000000000000000
11
-77.0597739982803
21
0.143412889351305
31
0.000000000000000
  0
LINE
  5
F10494
330
F10495
100
AcDbEntity
8
Geo
100
AcDbLine
10
-77.0597739982803
20
0.143412889351305
30
0.000000000000000
11
-76.9597739982803
21
0.145504132762720
31
0.000000000000000
  0
LINE
  5
F10496
330
F10497
100
AcDbEntity
8
Geo
100
AcDbLine
10
-76.9597739982803
20
0.145504132762720
30
0.000000000000000
11
-76.8597739982803
21
0.147134997200516
31
0.000000000000000
  0
LINE
  5
F10498
330
F10499
100
AcDbEntity
8
Geo
100
AcDbLine
10
-76.8597739982803
20
0.147134997200516
30
0.000000000000000
11
-76.7597739982804
21
0.148305420770902
31
0.000000000000000
  0
LINE
  5
F1049A
330
F1049B
100
AcDbEntity
8
Geo
100
AcDbLine
10
-98.7597739982804
20
-0.572024573917175
30
0.000000000000000
11
-98.6597739982804
21
-0.839297374308942
31
0.000000000000000
  0
LINE
  5
F1049C
330
F1049D
100
AcDbEntity
8
Geo
100
AcDbLine
10
-98.6597739982804
20
-0.839297374308942
30
0.000000000000000
11
-98.5597739982804
21
-1.04953349841207
31
0.000000000000000
  0
LINE
  5
F1049E
330
F1049F
100
AcDbEntity
8
Geo
100
AcDbLine
10
-98.5597739982804
20
-1.04953349841207
30
0.000000000000000
11
-98.4597739982804
21
-1.24673015267406
31
0.000000000000000
  0
LINE
  5
F104A0
330
F104A1
100
AcDbEntity
8
Geo
100
AcDbLine
10
-98.4597739982804
20
-1.24673015267406
30
0.000000000000000
11
-98.3597739982804
21
-1.43293369575713
31
0.000000000000000
  0
LINE
  5
F104A2
330
F104A3
100
AcDbEntity
8
Geo
100
AcDbLine
10
-98.3597739982804
20
-1.43293369575713
30
0.000000000000000
11
-98.2597739982804
21
-1.60752449759872
31
0.000000000000000
  0
LINE
  5
F104A4
330
F104A5
100
AcDbEntity
8
Geo
100
AcDbLine
10
-98.2597739982804
20
-1.60752449759872
30
0.000000000000000
11
-98.1597739982804
21
-1.77396342192360
31
0.000000000000000
  0
LINE
  5
F104A6
330
F104A7
100
AcDbEntity
8
Geo
100
AcDbLine
10
-98.1597739982804
20
-1.77396342192360
30
0.000000000000000
11
-98.0597739982804
21
-1.93656205695237
31
0.000000000000000
  0
LINE
  5
F104A8
330
F104A9
100
AcDbEntity
8
Geo
100
AcDbLine
10
-98.0597739982804
20
-1.93656205695237
30
0.000000000000000
11
-97.9597739982804
21
-2.09507954555596
31
0.000000000000000
  0
LINE
  5
F104AA
330
F104AB
100
AcDbEntity
8
Geo
100
AcDbLine
10
-97.9597739982804
20
-2.09507954555596
30
0.000000000000000
11
-97.8597739982804
21
-2.24928107600176
31
0.000000000000000
  0
LINE
  5
F104AC
330
F104AD
100
AcDbEntity
8
Geo
100
AcDbLine
10
-97.8597739982804
20
-2.24928107600176
30
0.000000000000000
11
-97.7597739982804
21
-2.39893822977992
31
0.000000000000000
  0
LINE
  5
F104AE
330
F104AF
100
AcDbEntity
8
Geo
100
AcDbLine
10
-97.7597739982804
20
-2.39893822977992
30
0.000000000000000
11
-97.6597739982804
21
-2.54382931995932
31
0.000000000000000
  0
LINE
  5
F104B0
330
F104B1
100
AcDbEntity
8
Geo
100
AcDbLine
10
-97.6597739982804
20
-2.54382931995932
30
0.000000000000000
11
-97.5597739982804
21
-2.68373971957215
31
0.000000000000000
  0
LINE
  5
F104B2
330
F104B3
100
AcDbEntity
8
Geo
100
AcDbLine
10
-97.5597739982804
20
-2.68373971957215
30
0.000000000000000
11
-97.4597739982804
21
-2.81846217954052
31
0.000000000000000
  0
LINE
  5
F104B4
330
F104B5
100
AcDbEntity
8
Geo
100
AcDbLine
10
-97.4597739982804
20
-2.81846217954052
30
0.000000000000000
11
-97.3597739982804
21
-2.94779713567422
31
0.000000000000000
  0
LINE
  5
F104B6
330
F104B7
100
AcDbEntity
8
Geo
100
AcDbLine
10
-97.3597739982804
20
-2.94779713567422
30
0.000000000000000
11
-97.2597739982804
21
-3.07155300428489
31
0.000000000000000
  0
LINE
  5
F104B8
330
F104B9
100
AcDbEntity
8
Geo
100
AcDbLine
10
-97.2597739982804
20
-3.07155300428489
30
0.000000000000000
11
-97.1597739982804
21
-3.18954646597867
31
0.000000000000000
  0
LINE
  5
F104BA
330
F104BB
100
AcDbEntity
8
Geo
100
AcDbLine
10
-97.1597739982804
20
-3.18954646597867
30
0.000000000000000
11
-97.0597739982804
21
-3.30160273720692
31
0.000000000000000
  0
LINE
  5
F104BC
330
F104BD
100
AcDbEntity
8
Geo
100
AcDbLine
10
-97.0597739982804
20
-3.30160273720692
30
0.000000000000000
11
-96.9597739982804
21
-3.40755582917291
31
0.000000000000000
  0
LINE
  5
F104BE
330
F104BF
100
AcDbEntity
8
Geo
100
AcDbLine
10
-96.9597739982804
20
-3.40755582917291
30
0.000000000000000
11
-96.8597739982804
21
-3.50724879371074
31
0.000000000000000
  0
LINE
  5
F104C0
330
F104C1
100
AcDbEntity
8
Geo
100
AcDbLine
10
-96.8597739982804
20
-3.50724879371074
30
0.000000000000000
11
-96.7597739982804
21
-3.60053395577244
31
0.000000000000000
  0
LINE
  5
F104C2
330
F104C3
100
AcDbEntity
8
Geo
100
AcDbLine
10
-96.7597739982804
20
-3.60053395577244
30
0.000000000000000
11
-96.6597739982804
21
-3.68727313217884
31
0.000000000000000
  0
LINE
  5
F104C4
330
F104C5
100
AcDbEntity
8
Geo
100
AcDbLine
10
-96.6597739982804
20
-3.68727313217884
30
0.000000000000000
11
-96.5597739982804
21
-3.76733783631009
31
0.000000000000000
  0
LINE
  5
F104C6
330
F104C7
100
AcDbEntity
8
Geo
100
AcDbLine
10
-96.5597739982804
20
-3.76733783631009
30
0.000000000000000
11
-96.4597739982804
21
-3.84060946843274
31
0.000000000000000
  0
LINE
  5
F104C8
330
F104C9
100
AcDbEntity
8
Geo
100
AcDbLine
10
-96.4597739982804
20
-3.84060946843274
30
0.000000000000000
11
-96.3597739982804
21
-3.90697949138131
31
0.000000000000000
  0
LINE
  5
F104CA
330
F104CB
100
AcDbEntity
8
Geo
100
AcDbLine
10
-96.3597739982804
20
-3.90697949138131
30
0.000000000000000
11
-96.2597739982804
21
-3.96634959133429
31
0.000000000000000
  0
LINE
  5
F104CC
330
F104CD
100
AcDbEntity
8
Geo
100
AcDbLine
10
-96.2597739982804
20
-3.96634959133429
30
0.000000000000000
11
-96.1597739982804
21
-4.01863182344624
31
0.000000000000000
  0
LINE
  5
F104CE
330
F104CF
100
AcDbEntity
8
Geo
100
AcDbLine
10
-96.1597739982804
20
-4.01863182344624
30
0.000000000000000
11
-96.0597739982804
21
-4.06374874212036
31
0.000000000000000
  0
LINE
  5
F104D0
330
F104D1
100
AcDbEntity
8
Geo
100
AcDbLine
10
-96.0597739982804
20
-4.06374874212036
30
0.000000000000000
11
-95.9597739982804
21
-4.10163351572858
31
0.000000000000000
  0
LINE
  5
F104D2
330
F104D3
100
AcDbEntity
8
Geo
100
AcDbLine
10
-95.9597739982804
20
-4.10163351572858
30
0.000000000000000
11
-95.8597739982804
21
-4.13223002560910
31
0.000000000000000
  0
LINE
  5
F104D4
330
F104D5
100
AcDbEntity
8
Geo
100
AcDbLine
10
-95.8597739982804
20
-4.13223002560910
30
0.000000000000000
11
-95.7597739982804
21
-4.15549294919493
31
0.000000000000000
  0
LINE
  5
F104D6
330
F104D7
100
AcDbEntity
8
Geo
100
AcDbLine
10
-95.7597739982804
20
-4.15549294919493
30
0.000000000000000
11
-95.6597739982804
21
-4.17138782715012
31
0.000000000000000
  0
LINE
  5
F104D8
330
F104D9
100
AcDbEntity
8
Geo
100
AcDbLine
10
-95.6597739982804
20
-4.17138782715012
30
0.000000000000000
11
-95.5597739982804
21
-4.17989111441435
31
0.000000000000000
  0
LINE
  5
F104DA
330
F104DB
100
AcDbEntity
8
Geo
100
AcDbLine
10
-87.3597739982804
20
5.81828318176630
30
0.000000000000000
11
-87.2597739982804
21
5.81657486482321
31
0.000000000000000
  0
LINE
  5
F104DC
330
F104DD
100
AcDbEntity
8
Geo
100
AcDbLine
10
-87.2597739982804
20
5.81657486482321
30
0.000000000000000
11
-87.1597739982804
21
5.80746298350285
31
0.000000000000000
  0
LINE
  5
F104DE
330
F104DF
100
AcDbEntity
8
Geo
100
AcDbLine
10
-87.1597739982804
20
5.80746298350285
30
0.000000000000000
11
-87.0597739982804
21
5.79096103522219
31
0.000000000000000
  0
LINE
  5
F104E0
330
F104E1
100
AcDbEntity
8
Geo
100
AcDbLine
10
-87.0597739982804
20
5.79096103522219
30
0.000000000000000
11
-86.9597739982804
21
5.76709346429399
31
0.000000000000000
  0
LINE
  5
F104E2
330
F104E3
100
AcDbEntity
8
Geo
100
AcDbLine
10
-86.9597739982804
20
5.76709346429399
30
0.000000000000000
11
-86.8597739982804
21
5.73589562571744
31
0.000000000000000
  0
LINE
  5
F104E4
330
F104E5
100
AcDbEntity
8
Geo
100
AcDbLine
10
-86.8597739982804
20
5.73589562571744
30
0.000000000000000
11
-86.7597739982804
21
5.69741373280688
31
0.000000000000000
  0
LINE
  5
F104E6
330
F104E7
100
AcDbEntity
8
Geo
100
AcDbLine
10
-86.7597739982804
20
5.69741373280688
30
0.000000000000000
11
-86.6597739982804
21
5.65170478873609
31
0.000000000000000
  0
LINE
  5
F104E8
330
F104E9
100
AcDbEntity
8
Geo
100
AcDbLine
10
-86.6597739982804
20
5.65170478873609
30
0.000000000000000
11
-86.5597739982804
21
5.59883650209953
31
0.000000000000000
  0
LINE
  5
F104EA
330
F104EB
100
AcDbEntity
8
Geo
100
AcDbLine
10
-86.5597739982804
20
5.59883650209953
30
0.000000000000000
11
-86.4597739982804
21
5.53888718661575
31
0.000000000000000
  0
LINE
  5
F104EC
330
F104ED
100
AcDbEntity
8
Geo
100
AcDbLine
10
-86.4597739982804
20
5.53888718661575
30
0.000000000000000
11
-86.3597739982804
21
5.47194564512133
31
0.000000000000000
  0
LINE
  5
F104EE
330
F104EF
100
AcDbEntity
8
Geo
100
AcDbLine
10
-86.3597739982804
20
5.47194564512133
30
0.000000000000000
11
-86.2597739982804
21
5.39811103802740
31
0.000000000000000
  0
LINE
  5
F104F0
330
F104F1
100
AcDbEntity
8
Geo
100
AcDbLine
10
-86.2597739982804
20
5.39811103802740
30
0.000000000000000
11
-86.1597739982804
21
5.31749273643347
31
0.000000000000000
  0
LINE
  5
F104F2
330
F104F3
100
AcDbEntity
8
Geo
100
AcDbLine
10
-86.1597739982804
20
5.31749273643347
30
0.000000000000000
11
-86.0597739982804
21
5.23021016011613
31
0.000000000000000
  0
LINE
  5
F104F4
330
F104F5
100
AcDbEntity
8
Geo
100
AcDbLine
10
-86.0597739982804
20
5.23021016011613
30
0.000000000000000
11
-85.9597739982804
21
5.13639260063276
31
0.000000000000000
  0
LINE
  5
F104F6
330
F104F7
100
AcDbEntity
8
Geo
100
AcDbLine
10
-85.9597739982804
20
5.13639260063276
30
0.000000000000000
11
-85.8597739982804
21
5.03617902980208
31
0.000000000000000
  0
LINE
  5
F104F8
330
F104F9
100
AcDbEntity
8
Geo
100
AcDbLine
10
-85.8597739982804
20
5.03617902980208
30
0.000000000000000
11
-85.7597739982804
21
4.92971789384542
31
0.000000000000000
  0
LINE
  5
F104FA
330
F104FB
100
AcDbEntity
8
Geo
100
AcDbLine
10
-85.7597739982804
20
4.92971789384542
30
0.000000000000000
11
-85.6597739982804
21
4.81716689349353
31
0.000000000000000
  0
LINE
  5
F104FC
330
F104FD
100
AcDbEntity
8
Geo
100
AcDbLine
10
-85.6597739982804
20
4.81716689349353
30
0.000000000000000
11
-85.5597739982804
21
4.69869275038471
31
0.000000000000000
  0
LINE
  5
F104FE
330
F104FF
100
AcDbEntity
8
Geo
100
AcDbLine
10
-85.5597739982804
20
4.69869275038471
30
0.000000000000000
11
-85.4597739982804
21
4.57447096010027
31
0.000000000000000
  0
LINE
  5
F10500
330
F10501
100
AcDbEntity
8
Geo
100
AcDbLine
10
-85.4597739982804
20
4.57447096010027
30
0.000000000000000
11
-85.3597739982804
21
4.44468553220322
31
0.000000000000000
  0
LINE
  5
F10502
330
F10503
100
AcDbEntity
8
Geo
100
AcDbLine
10
-85.3597739982804
20
4.44468553220322
30
0.000000000000000
11
-85.2597739982804
21
4.30952871766510
31
0.000000000000000
  0
LINE
  5
F10504
330
F10505
100
AcDbEntity
8
Geo
100
AcDbLine
10
-85.2597739982804
20
4.30952871766510
30
0.000000000000000
11
-85.1597739982804
21
4.16920072408493
31
0.000000000000000
  0
LINE
  5
F10506
330
F10507
100
AcDbEntity
8
Geo
100
AcDbLine
10
-85.1597739982804
20
4.16920072408493
30
0.000000000000000
11
-85.0597739982804
21
4.02390941912195
31
0.000000000000000
  0
LINE
  5
F10508
330
F10509
100
AcDbEntity
8
Geo
100
AcDbLine
10
-85.0597739982804
20
4.02390941912195
30
0.000000000000000
11
-84.9597739982804
21
3.87387002258158
31
0.000000000000000
  0
LINE
  5
F1050A
330
F1050B
100
AcDbEntity
8
Geo
100
AcDbLine
10
-84.9597739982804
20
3.87387002258158
30
0.000000000000000
11
-84.8597739982804
21
3.71930478761059
31
0.000000000000000
  0
LINE
  5
F1050C
330
F1050D
100
AcDbEntity
8
Geo
100
AcDbLine
10
-84.8597739982804
20
3.71930478761059
30
0.000000000000000
11
-84.7597739982804
21
3.56044267147384
31
0.000000000000000
  0
LINE
  5
F1050E
330
F1050F
100
AcDbEntity
8
Geo
100
AcDbLine
10
-84.7597739982804
20
3.56044267147384
30
0.000000000000000
11
-84.6597739982804
21
3.39751899640022
31
0.000000000000000
  0
LINE
  5
F10510
330
F10511
100
AcDbEntity
8
Geo
100
AcDbLine
10
-84.6597739982804
20
3.39751899640022
30
0.000000000000000
11
-84.5597739982804
21
3.23077510100015
31
0.000000000000000
  0
LINE
  5
F10512
330
F10513
100
AcDbEntity
8
Geo
100
AcDbLine
10
-84.5597739982804
20
3.23077510100015
30
0.000000000000000
11
-84.4597739982804
21
3.06045798277104
31
0.000000000000000
  0
LINE
  5
F10514
330
F10515
100
AcDbEntity
8
Geo
100
AcDbLine
10
-84.4597739982804
20
3.06045798277104
30
0.000000000000000
11
-84.3597739982804
21
2.88681993222025
31
0.000000000000000
  0
LINE
  5
F10516
330
F10517
100
AcDbEntity
8
Geo
100
AcDbLine
10
-84.3597739982804
20
2.88681993222025
30
0.000000000000000
11
-84.2597739982804
21
2.71011815914748
31
0.000000000000000
  0
LINE
  5
F10518
330
F10519
100
AcDbEntity
8
Geo
100
AcDbLine
10
-84.2597739982804
20
2.71011815914748
30
0.000000000000000
11
-84.1597739982804
21
2.53061441164033
31
0.000000000000000
  0
LINE
  5
F1051A
330
F1051B
100
AcDbEntity
8
Geo
100
AcDbLine
10
-84.1597739982804
20
2.53061441164033
30
0.000000000000000
11
-84.0597739982804
21
2.34857458834716
31
0.000000000000000
  0
LINE
  5
F1051C
330
F1051D
100
AcDbEntity
8
Geo
100
AcDbLine
10
-84.0597739982804
20
2.34857458834716
30
0.000000000000000
11
-83.9597739982804
21
2.16426834460182
31
0.000000000000000
  0
LINE
  5
F1051E
330
F1051F
100
AcDbEntity
8
Geo
100
AcDbLine
10
-83.9597739982804
20
2.16426834460182
30
0.000000000000000
11
-83.8597739982804
21
1.97796869298358
31
0.000000000000000
  0
LINE
  5
F10520
330
F10521
100
AcDbEntity
8
Geo
100
AcDbLine
10
-83.8597739982804
20
1.97796869298358
30
0.000000000000000
11
-83.7597739982804
21
1.78995159890400
31
0.000000000000000
  0
LINE
  5
F10522
330
F10523
100
AcDbEntity
8
Geo
100
AcDbLine
10
-83.7597739982804
20
1.78995159890400
30
0.000000000000000
11
-83.6597739982804
21
1.60049557181973
31
0.000000000000000
  0
LINE
  5
F10524
330
F10525
100
AcDbEntity
8
Geo
100
AcDbLine
10
-83.6597739982804
20
1.60049557181973
30
0.000000000000000
11
-83.5597739982804
21
1.40988125267685
31
0.000000000000000
  0
LINE
  5
F10526
330
F10527
100
AcDbEntity
8
Geo
100
AcDbLine
10
-83.5597739982804
20
1.40988125267685
30
0.000000000000000
11
-83.4597739982804
21
1.21839099819783
31
0.000000000000000
  0
LINE
  5
F10528
330
F10529
100
AcDbEntity
8
Geo
100
AcDbLine
10
-83.4597739982804
20
1.21839099819783
30
0.000000000000000
11
-83.3597739982804
21
1.02630846262695
31
0.000000000000000
  0
LINE
  5
F1052A
330
F1052B
100
AcDbEntity
8
Geo
100
AcDbLine
10
-83.3597739982804
20
1.02630846262695
30
0.000000000000000
11
-83.2597739982804
21
0.833918177553596
31
0.000000000000000
  0
LINE
  5
F1052C
330
F1052D
100
AcDbEntity
8
Geo
100
AcDbLine
10
-83.2597739982804
20
0.833918177553596
30
0.000000000000000
11
-83.1597739982804
21
0.641505130436089
31
0.000000000000000
  0
LINE
  5
F1052E
330
F1052F
100
AcDbEntity
8
Geo
100
AcDbLine
10
-83.1597739982804
20
0.641505130436089
30
0.000000000000000
11
-83.0597739982804
21
0.449354342450118
31
0.000000000000000
  0
LINE
  5
F10530
330
F10531
100
AcDbEntity
8
Geo
100
AcDbLine
10
-83.0597739982804
20
0.449354342450118
30
0.000000000000000
11
-82.9597739982804
21
0.257750446287296
31
0.000000000000000
  0
LINE
  5
F10532
330
F10533
100
AcDbEntity
8
Geo
100
AcDbLine
10
-82.9597739982804
20
0.257750446287296
30
0.000000000000000
11
-82.8597739982804
21
0.0669772645291468
31
0.000000000000000
  0
LINE
  5
F10534
330
F10535
100
AcDbEntity
8
Geo
100
AcDbLine
10
-82.8597739982804
20
0.0669772645291468
30
0.000000000000000
11
-82.7597739982804
21
-0.122682610778883
31
0.000000000000000
  0
LINE
  5
F10536
330
F10537
100
AcDbEntity
8
Geo
100
AcDbLine
10
-82.7597739982804
20
-0.122682610778883
30
0.000000000000000
11
-82.6597739982804
21
-0.310948236730622
31
0.000000000000000
  0
LINE
  5
F10538
330
F10539
100
AcDbEntity
8
Geo
100
AcDbLine
10
-82.6597739982804
20
-0.310948236730622
30
0.000000000000000
11
-82.5597739982804
21
-0.497540735719510
31
0.000000000000000
  0
LINE
  5
F1053A
330
F1053B
100
AcDbEntity
8
Geo
100
AcDbLine
10
-82.5597739982804
20
-0.497540735719510
30
0.000000000000000
11
-82.4597739982804
21
-0.682183708539605
31
0.000000000000000
  0
LINE
  5
F1053C
330
F1053D
100
AcDbEntity
8
Geo
100
AcDbLine
10
-82.4597739982804
20
-0.682183708539605
30
0.000000000000000
11
-82.3597739982804
21
-0.864603643815310
31
0.000000000000000
  0
LINE
  5
F1053E
330
F1053F
100
AcDbEntity
8
Geo
100
AcDbLine
10
-82.3597739982804
20
-0.864603643815310
30
0.000000000000000
11
-82.2597739982804
21
-1.04453032315344
31
0.000000000000000
  0
LINE
  5
F10540
330
F10541
100
AcDbEntity
8
Geo
100
AcDbLine
10
-82.2597739982804
20
-1.04453032315344
30
0.000000000000000
11
-82.1597739982804
21
-1.22169722141730
31
0.000000000000000
  0
LINE
  5
F10542
330
F10543
100
AcDbEntity
8
Geo
100
AcDbLine
10
-82.1597739982804
20
-1.22169722141730
30
0.000000000000000
11
-82.0597739982804
21
-1.39584190153003
31
0.000000000000000
  0
LINE
  5
F10544
330
F10545
100
AcDbEntity
8
Geo
100
AcDbLine
10
-82.0597739982804
20
-1.39584190153003
30
0.000000000000000
11
-81.9597739982804
21
-1.56670640322223
31
0.000000000000000
  0
LINE
  5
F10546
330
F10547
100
AcDbEntity
8
Geo
100
AcDbLine
10
-81.9597739982804
20
-1.56670640322223
30
0.000000000000000
11
-81.8597739982804
21
-1.73403762514821
31
0.000000000000000
  0
LINE
  5
F10548
330
F10549
100
AcDbEntity
8
Geo
100
AcDbLine
10
-81.8597739982804
20
-1.73403762514821
30
0.000000000000000
11
-81.7597739982804
21
-1.89758769980466
31
0.000000000000000
  0
LINE
  5
F1054A
330
F1054B
100
AcDbEntity
8
Geo
100
AcDbLine
10
-81.7597739982804
20
-1.89758769980466
30
0.000000000000000
11
-81.6597739982804
21
-2.07599273935764
31
0.000000000000000
  0
LINE
  5
F1054C
330
F1054D
100
AcDbEntity
8
Geo
100
AcDbLine
10
-81.6597739982804
20
-2.07599273935764
30
0.000000000000000
11
-81.5597739982804
21
-2.24571464375371
31
0.000000000000000
  0
LINE
  5
F1054E
330
F1054F
100
AcDbEntity
8
Geo
100
AcDbLine
10
-81.5597739982804
20
-2.24571464375371
30
0.000000000000000
11
-81.4597739982804
21
-2.40676587652342
31
0.000000000000000
  0
LINE
  5
F10550
330
F10551
100
AcDbEntity
8
Geo
100
AcDbLine
10
-81.4597739982804
20
-2.40676587652342
30
0.000000000000000
11
-81.3597739982804
21
-2.55919662505859
31
0.000000000000000
  0
LINE
  5
F10552
330
F10553
100
AcDbEntity
8
Geo
100
AcDbLine
10
-81.3597739982804
20
-2.55919662505859
30
0.000000000000000
11
-81.2597739982804
21
-2.70309171648742
31
0.000000000000000
  0
LINE
  5
F10554
330
F10555
100
AcDbEntity
8
Geo
100
AcDbLine
10
-81.2597739982804
20
-2.70309171648742
30
0.000000000000000
11
-81.1597739982804
21
-2.83856758628568
31
0.000000000000000
  0
LINE
  5
F10556
330
F10557
100
AcDbEntity
8
Geo
100
AcDbLine
10
-81.1597739982804
20
-2.83856758628568
30
0.000000000000000
11
-81.0597739982803
21
-2.96576931559561
31
0.000000000000000
  0
LINE
  5
F10558
330
F10559
100
AcDbEntity
8
Geo
100
AcDbLine
10
-81.0597739982803
20
-2.96576931559561
30
0.000000000000000
11
-80.9597739982804
21
-3.08486775103020
31
0.000000000000000
  0
LINE
  5
F1055A
330
F1055B
100
AcDbEntity
8
Geo
100
AcDbLine
10
-80.9597739982804
20
-3.08486775103020
30
0.000000000000000
11
-80.8597739982804
21
-3.19605671866099
31
0.000000000000000
  0
LINE
  5
F1055C
330
F1055D
100
AcDbEntity
8
Geo
100
AcDbLine
10
-80.8597739982804
20
-3.19605671866099
30
0.000000000000000
11
-80.7597739982804
21
-3.29955034193020
31
0.000000000000000
  0
LINE
  5
F1055E
330
F1055F
100
AcDbEntity
8
Geo
100
AcDbLine
10
-80.7597739982804
20
-3.29955034193020
30
0.000000000000000
11
-80.6597739982803
21
-3.39558047139714
31
0.000000000000000
  0
LINE
  5
F10560
330
F10561
100
AcDbEntity
8
Geo
100
AcDbLine
10
-80.6597739982803
20
-3.39558047139714
30
0.000000000000000
11
-80.5597739982803
21
-3.48439423252704
31
0.000000000000000
  0
LINE
  5
F10562
330
F10563
100
AcDbEntity
8
Geo
100
AcDbLine
10
-80.5597739982803
20
-3.48439423252704
30
0.000000000000000
11
-80.4597739982804
21
-3.56625169615983
31
0.000000000000000
  0
LINE
  5
F10564
330
F10565
100
AcDbEntity
8
Geo
100
AcDbLine
10
-80.4597739982804
20
-3.56625169615983
30
0.000000000000000
11
-80.3597739982803
21
-3.64142367485470
31
0.000000000000000
  0
LINE
  5
F10566
330
F10567
100
AcDbEntity
8
Geo
100
AcDbLine
10
-80.3597739982803
20
-3.64142367485470
30
0.000000000000000
11
-80.2597739982803
21
-3.71018964699410
31
0.000000000000000
  0
LINE
  5
F10568
330
F10569
100
AcDbEntity
8
Geo
100
AcDbLine
10
-80.2597739982803
20
-3.71018964699410
30
0.000000000000000
11
-80.1597739982803
21
-3.77283580934387
31
0.000000000000000
  0
LINE
  5
F1056A
330
F1056B
100
AcDbEntity
8
Geo
100
AcDbLine
10
-80.1597739982803
20
-3.77283580934387
30
0.000000000000000
11
-80.0597739982803
21
-3.82965325770106
31
0.000000000000000
  0
LINE
  5
F1056C
330
F1056D
100
AcDbEntity
8
Geo
100
AcDbLine
10
-80.0597739982803
20
-3.82965325770106
30
0.000000000000000
11
-79.9597739982803
21
-3.88093629431430
31
0.000000000000000
  0
LINE
  5
F1056E
330
F1056F
100
AcDbEntity
8
Geo
100
AcDbLine
10
-79.9597739982803
20
-3.88093629431430
30
0.000000000000000
11
-79.8597739982803
21
-3.92698085992630
31
0.000000000000000
  0
LINE
  5
F10570
330
F10571
100
AcDbEntity
8
Geo
100
AcDbLine
10
-79.8597739982803
20
-3.92698085992630
30
0.000000000000000
11
-79.7597739982803
21
-3.96808308756109
31
0.000000000000000
  0
LINE
  5
F10572
330
F10573
100
AcDbEntity
8
Geo
100
AcDbLine
10
-79.7597739982803
20
-3.96808308756109
30
0.000000000000000
11
-79.6597739982803
21
-4.00453797455161
31
0.000000000000000
  0
LINE
  5
F10574
330
F10575
100
AcDbEntity
8
Geo
100
AcDbLine
10
-79.6597739982803
20
-4.00453797455161
30
0.000000000000000
11
-79.5597739982803
21
-4.03663816877244
31
0.000000000000000
  0
LINE
  5
F10576
330
F10577
100
AcDbEntity
8
Geo
100
AcDbLine
10
-79.5597739982803
20
-4.03663816877244
30
0.000000000000000
11
-79.4597739982803
21
-4.06467286459917
31
0.000000000000000
  0
LINE
  5
F10578
330
F10579
100
AcDbEntity
8
Geo
100
AcDbLine
10
-79.4597739982803
20
-4.06467286459917
30
0.000000000000000
11
-79.3597739982803
21
-4.08892680375601
31
0.000000000000000
  0
LINE
  5
F1057A
330
F1057B
100
AcDbEntity
8
Geo
100
AcDbLine
10
-79.3597739982803
20
-4.08892680375601
30
0.000000000000000
11
-79.2597739982803
21
-4.10967937592886
31
0.000000000000000
  0
LINE
  5
F1057C
330
F1057D
100
AcDbEntity
8
Geo
100
AcDbLine
10
-79.2597739982803
20
-4.10967937592886
30
0.000000000000000
11
-79.1597739982803
21
-4.12720381380625
31
0.000000000000000
  0
LINE
  5
F1057E
330
F1057F
100
AcDbEntity
8
Geo
100
AcDbLine
10
-79.1597739982803
20
-4.12720381380625
30
0.000000000000000
11
-79.0597739982803
21
-4.14176647706012
31
0.000000000000000
  0
LINE
  5
F10580
330
F10581
100
AcDbEntity
8
Geo
100
AcDbLine
10
-79.0597739982803
20
-4.14176647706012
30
0.000000000000000
11
-78.9597739982803
21
-4.15362621968468
31
0.000000000000000
  0
LINE
  5
F10582
330
F10583
100
AcDbEntity
8
Geo
100
AcDbLine
10
-78.9597739982803
20
-4.15362621968468
30
0.000000000000000
11
-78.8597739982803
21
-4.16303383507083
31
0.000000000000000
  0
LINE
  5
F10584
330
F10585
100
AcDbEntity
8
Geo
100
AcDbLine
10
-78.8597739982803
20
-4.16303383507083
30
0.000000000000000
11
-78.7597739982803
21
-4.17023157319858
31
0.000000000000000
  0
LINE
  5
F10586
330
F10587
100
AcDbEntity
8
Geo
100
AcDbLine
10
-78.7597739982803
20
-4.17023157319858
30
0.000000000000000
11
-78.6597739982803
21
-4.17545272437677
31
0.000000000000000
  0
LINE
  5
F10588
330
F10589
100
AcDbEntity
8
Geo
100
AcDbLine
10
-78.6597739982803
20
-4.17545272437677
30
0.000000000000000
11
-78.5597739982803
21
-4.17892126404251
31
0.000000000000000
  0
LINE
  5
F1058A
330
F1058B
100
AcDbEntity
8
Geo
100
AcDbLine
10
-78.5597739982803
20
-4.17892126404251
30
0.000000000000000
11
-78.4597739982803
21
-4.18085155324781
31
0.000000000000000
  0
LINE
  5
F1058C
330
F1058D
100
AcDbEntity
8
Geo
100
AcDbLine
10
-78.4597739982803
20
-4.18085155324781
30
0.000000000000000
11
-78.3597739982803
21
-4.18144809922993
31
0.000000000000000
  0
LINE
  5
F1058E
330
F1058F
100
AcDbEntity
8
Geo
100
AcDbLine
10
-90.6597739982804
20
5.81712380035810
30
0.000000000000000
11
-90.5597739982804
21
5.81801982618198
31
0.000000000000000
  0
LINE
  5
F10590
330
F10591
100
AcDbEntity
8
Geo
100
AcDbLine
10
-90.5597739982804
20
5.81801982618198
30
0.000000000000000
11
-90.4597739982804
21
5.81151014720937
31
0.000000000000000
  0
LINE
  5
F10592
330
F10593
100
AcDbEntity
8
Geo
100
AcDbLine
10
-90.4597739982804
20
5.81151014720937
30
0.000000000000000
11
-90.3597739982804
21
5.79760440621857
31
0.000000000000000
  0
LINE
  5
F10594
330
F10595
100
AcDbEntity
8
Geo
100
AcDbLine
10
-90.3597739982804
20
5.79760440621857
30
0.000000000000000
11
-90.2597739982804
21
5.77632320176412
31
0.000000000000000
  0
LINE
  5
F10596
330
F10597
100
AcDbEntity
8
Geo
100
AcDbLine
10
-90.2597739982804
20
5.77632320176412
30
0.000000000000000
11
-90.1597739982804
21
5.74769805766420
31
0.000000000000000
  0
LINE
  5
F10598
330
F10599
100
AcDbEntity
8
Geo
100
AcDbLine
10
-90.1597739982804
20
5.74769805766420
30
0.000000000000000
11
-90.0597739982804
21
5.71177137630447
31
0.000000000000000
  0
LINE
  5
F1059A
330
F1059B
100
AcDbEntity
8
Geo
100
AcDbLine
10
-90.0597739982804
20
5.71177137630447
30
0.000000000000000
11
-89.9597739982804
21
5.66859637582740
31
0.000000000000000
  0
LINE
  5
F1059C
330
F1059D
100
AcDbEntity
8
Geo
100
AcDbLine
10
-89.9597739982804
20
5.66859637582740
30
0.000000000000000
11
-89.8597739982804
21
5.61823701130041
31
0.000000000000000
  0
LINE
  5
F1059E
330
F1059F
100
AcDbEntity
8
Geo
100
AcDbLine
10
-89.8597739982804
20
5.61823701130041
30
0.000000000000000
11
-89.7597739982804
21
5.56076787997923
31
0.000000000000000
  0
LINE
  5
F105A0
330
F105A1
100
AcDbEntity
8
Geo
100
AcDbLine
10
-89.7597739982804
20
5.56076787997923
30
0.000000000000000
11
-89.6597739982804
21
5.49627411080715
31
0.000000000000000
  0
LINE
  5
F105A2
330
F105A3
100
AcDbEntity
8
Geo
100
AcDbLine
10
-89.6597739982804
20
5.49627411080715
30
0.000000000000000
11
-89.5597739982804
21
5.42485123831361
31
0.000000000000000
  0
LINE
  5
F105A4
330
F105A5
100
AcDbEntity
8
Geo
100
AcDbLine
10
-89.5597739982804
20
5.42485123831361
30
0.000000000000000
11
-89.4597739982804
21
5.34660506109904
31
0.000000000000000
  0
LINE
  5
F105A6
330
F105A7
100
AcDbEntity
8
Geo
100
AcDbLine
10
-89.4597739982804
20
5.34660506109904
30
0.000000000000000
11
-89.3597739982804
21
5.26165148511555
31
0.000000000000000
  0
LINE
  5
F105A8
330
F105A9
100
AcDbEntity
8
Geo
100
AcDbLine
10
-89.3597739982804
20
5.26165148511555
30
0.000000000000000
11
-89.2597739982804
21
5.17011635197558
31
0.000000000000000
  0
LINE
  5
F105AA
330
F105AB
100
AcDbEntity
8
Geo
100
AcDbLine
10
-89.2597739982804
20
5.17011635197558
30
0.000000000000000
11
-89.1597739982804
21
5.07213525254294
31
0.000000000000000
  0
LINE
  5
F105AC
330
F105AD
100
AcDbEntity
8
Geo
100
AcDbLine
10
-89.1597739982804
20
5.07213525254294
30
0.000000000000000
11
-89.0597739982804
21
4.96785332608221
31
0.000000000000000
  0
LINE
  5
F105AE
330
F105AF
100
AcDbEntity
8
Geo
100
AcDbLine
10
-89.0597739982804
20
4.96785332608221
30
0.000000000000000
11
-88.9597739982804
21
4.85742504526418
31
0.000000000000000
  0
LINE
  5
F105B0
330
F105B1
100
AcDbEntity
8
Geo
100
AcDbLine
10
-88.9597739982804
20
4.85742504526418
30
0.000000000000000
11
-88.8597739982804
21
4.74101398734571
31
0.000000000000000
  0
LINE
  5
F105B2
330
F105B3
100
AcDbEntity
8
Geo
100
AcDbLine
10
-88.8597739982804
20
4.74101398734571
30
0.000000000000000
11
-88.7597739982804
21
4.61879259186293
31
0.000000000000000
  0
LINE
  5
F105B4
330
F105B5
100
AcDbEntity
8
Geo
100
AcDbLine
10
-88.7597739982804
20
4.61879259186293
30
0.000000000000000
11
-88.6597739982804
21
4.49094190519682
31
0.000000000000000
  0
LINE
  5
F105B6
330
F105B7
100
AcDbEntity
8
Geo
100
AcDbLine
10
-88.6597739982804
20
4.49094190519682
30
0.000000000000000
11
-88.5597739982804
21
4.35765131238948
31
0.000000000000000
  0
LINE
  5
F105B8
330
F105B9
100
AcDbEntity
8
Geo
100
AcDbLine
10
-88.5597739982804
20
4.35765131238948
30
0.000000000000000
11
-88.4597739982804
21
4.21911825660830
31
0.000000000000000
  0
LINE
  5
F105BA
330
F105BB
100
AcDbEntity
8
Geo
100
AcDbLine
10
-88.4597739982804
20
4.21911825660830
30
0.000000000000000
11
-88.3597739982804
21
4.07554794667370
31
0.000000000000000
  0
LINE
  5
F105BC
330
F105BD
100
AcDbEntity
8
Geo
100
AcDbLine
10
-88.3597739982804
20
4.07554794667370
30
0.000000000000000
11
-88.2597739982804
21
3.92715305308356
31
0.000000000000000
  0
LINE
  5
F105BE
330
F105BF
100
AcDbEntity
8
Geo
100
AcDbLine
10
-88.2597739982804
20
3.92715305308356
30
0.000000000000000
11
-88.1597739982804
21
3.77415339298477
31
0.000000000000000
  0
LINE
  5
F105C0
330
F105C1
100
AcDbEntity
8
Geo
100
AcDbLine
10
-88.1597739982804
20
3.77415339298477
30
0.000000000000000
11
-88.0597739982804
21
3.61677560455833
31
0.000000000000000
  0
LINE
  5
F105C2
330
F105C3
100
AcDbEntity
8
Geo
100
AcDbLine
10
-88.0597739982804
20
3.61677560455833
30
0.000000000000000
11
-87.9597739982804
21
3.45525281130058
31
0.000000000000000
  0
LINE
  5
F105C4
330
F105C5
100
AcDbEntity
8
Geo
100
AcDbLine
10
-87.9597739982804
20
3.45525281130058
30
0.000000000000000
11
-87.8597739982804
21
3.28982427669769
31
0.000000000000000
  0
LINE
  5
F105C6
330
F105C7
100
AcDbEntity
8
Geo
100
AcDbLine
10
-87.8597739982804
20
3.28982427669769
30
0.000000000000000
11
-87.7597739982804
21
3.12073504980496
31
0.000000000000000
  0
LINE
  5
F105C8
330
F105C9
100
AcDbEntity
8
Geo
100
AcDbLine
10
-87.7597739982804
20
3.12073504980496
30
0.000000000000000
11
-87.6597739982804
21
2.94823560225605
31
0.000000000000000
  0
LINE
  5
F105CA
330
F105CB
100
AcDbEntity
8
Geo
100
AcDbLine
10
-87.6597739982804
20
2.94823560225605
30
0.000000000000000
11
-87.5597739982804
21
2.77258145723964
31
0.000000000000000
  0
LINE
  5
F105CC
330
F105CD
100
AcDbEntity
8
Geo
100
AcDbLine
10
-87.5597739982804
20
2.77258145723964
30
0.000000000000000
11
-87.4597739982804
21
2.59403281099336
31
0.000000000000000
  0
LINE
  5
F105CE
330
F105CF
100
AcDbEntity
8
Geo
100
AcDbLine
10
-87.4597739982804
20
2.59403281099336
30
0.000000000000000
11
-87.3597739982804
21
2.41285414737541
31
0.000000000000000
  0
LINE
  5
F105D0
330
F105D1
100
AcDbEntity
8
Geo
100
AcDbLine
10
-87.3597739982804
20
2.41285414737541
30
0.000000000000000
11
-87.2597739982804
21
2.22931384608504
31
0.000000000000000
  0
LINE
  5
F105D2
330
F105D3
100
AcDbEntity
8
Geo
100
AcDbLine
10
-87.2597739982804
20
2.22931384608504
30
0.000000000000000
11
-87.1597739982804
21
2.04368378511204
31
0.000000000000000
  0
LINE
  5
F105D4
330
F105D5
100
AcDbEntity
8
Geo
100
AcDbLine
10
-87.1597739982804
20
2.04368378511204
30
0.000000000000000
11
-87.0597739982804
21
1.85623893800428
31
0.000000000000000
  0
LINE
  5
F105D6
330
F105D7
100
AcDbEntity
8
Geo
100
AcDbLine
10
-87.0597739982804
20
1.85623893800428
30
0.000000000000000
11
-86.9597739982804
21
1.66725696654978
31
0.000000000000000
  0
LINE
  5
F105D8
330
F105D9
100
AcDbEntity
8
Geo
100
AcDbLine
10
-86.9597739982804
20
1.66725696654978
30
0.000000000000000
11
-86.8597739982804
21
1.47701780947669
31
0.000000000000000
  0
LINE
  5
F105DA
330
F105DB
100
AcDbEntity
8
Geo
100
AcDbLine
10
-86.8597739982804
20
1.47701780947669
30
0.000000000000000
11
-86.7597739982804
21
1.28580326778044
31
0.000000000000000
  0
LINE
  5
F105DC
330
F105DD
100
AcDbEntity
8
Geo
100
AcDbLine
10
-86.7597739982804
20
1.28580326778044
30
0.000000000000000
11
-86.6597739982804
21
1.09389658729233
31
0.000000000000000
  0
LINE
  5
F105DE
330
F105DF
100
AcDbEntity
8
Geo
100
AcDbLine
10
-86.6597739982804
20
1.09389658729233
30
0.000000000000000
11
-86.5597739982804
21
0.901582039107882
31
0.000000000000000
  0
LINE
  5
F105E0
330
F105E1
100
AcDbEntity
8
Geo
100
AcDbLine
10
-86.5597739982804
20
0.901582039107882
30
0.000000000000000
11
-86.4597739982804
21
0.709144498496450
31
0.000000000000000
  0
LINE
  5
F105E2
330
F105E3
100
AcDbEntity
8
Geo
100
AcDbLine
10
-86.4597739982804
20
0.709144498496450
30
0.000000000000000
11
-86.3597739982804
21
0.516869022915917
31
0.000000000000000
  0
LINE
  5
F105E4
330
F105E5
100
AcDbEntity
8
Geo
100
AcDbLine
10
-86.3597739982804
20
0.516869022915917
30
0.000000000000000
11
-86.2597739982804
21
0.325040429757448
31
0.000000000000000
  0
LINE
  5
F105E6
330
F105E7
100
AcDbEntity
8
Geo
100
AcDbLine
10
-86.2597739982804
20
0.325040429757448
30
0.000000000000000
11
-86.1597739982804
21
0.133942874445912
31
0.000000000000000
  0
LINE
  5
F105E8
330
F105E9
100
AcDbEntity
8
Geo
100
AcDbLine
10
-86.1597739982804
20
0.133942874445912
30
0.000000000000000
11
-86.0597739982804
21
-0.0561405704791575
31
0.000000000000000
  0
LINE
  5
F105EA
330
F105EB
100
AcDbEntity
8
Geo
100
AcDbLine
10
-86.0597739982804
20
-0.0561405704791575
30
0.000000000000000
11
-85.9597739982804
21
-0.244928334678513
31
0.000000000000000
  0
LINE
  5
F105EC
330
F105ED
100
AcDbEntity
8
Geo
100
AcDbLine
10
-85.9597739982804
20
-0.244928334678513
30
0.000000000000000
11
-85.8597739982804
21
-0.432140767102942
31
0.000000000000000
  0
LINE
  5
F105EE
330
F105EF
100
AcDbEntity
8
Geo
100
AcDbLine
10
-85.8597739982804
20
-0.432140767102942
30
0.000000000000000
11
-85.7597739982804
21
-0.617500550239969
31
0.000000000000000
  0
LINE
  5
F105F0
330
F105F1
100
AcDbEntity
8
Geo
100
AcDbLine
10
-85.7597739982804
20
-0.617500550239969
30
0.000000000000000
11
-85.6597739982804
21
-0.800733110903902
31
0.000000000000000
  0
LINE
  5
F105F2
330
F105F3
100
AcDbEntity
8
Geo
100
AcDbLine
10
-85.6597739982804
20
-0.800733110903902
30
0.000000000000000
11
-85.5597739982804
21
-0.981567026960700
31
0.000000000000000
  0
LINE
  5
F105F4
330
F105F5
100
AcDbEntity
8
Geo
100
AcDbLine
10
-85.5597739982804
20
-0.981567026960700
30
0.000000000000000
11
-85.4597739982804
21
-1.15973442938520
31
0.000000000000000
  0
LINE
  5
F105F6
330
F105F7
100
AcDbEntity
8
Geo
100
AcDbLine
10
-85.4597739982804
20
-1.15973442938520
30
0.000000000000000
11
-85.3597739982804
21
-1.33497139905513
31
0.000000000000000
  0
LINE
  5
F105F8
330
F105F9
100
AcDbEntity
8
Geo
100
AcDbLine
10
-85.3597739982804
20
-1.33497139905513
30
0.000000000000000
11
-85.2597739982804
21
-1.50701835769413
31
0.000000000000000
  0
LINE
  5
F105FA
330
F105FB
100
AcDbEntity
8
Geo
100
AcDbLine
10
-85.2597739982804
20
-1.50701835769413
30
0.000000000000000
11
-85.1597739982804
21
-1.67562045238468
31
0.000000000000000
  0
LINE
  5
F105FC
330
F105FD
100
AcDbEntity
8
Geo
100
AcDbLine
10
-85.1597739982804
20
-1.67562045238468
30
0.000000000000000
11
-85.0597739982804
21
-1.84052793308138
31
0.000000000000000
  0
LINE
  5
F105FE
330
F105FF
100
AcDbEntity
8
Geo
100
AcDbLine
10
-85.0597739982804
20
-1.84052793308138
30
0.000000000000000
11
-84.9597739982804
21
-2.00149652256533
31
0.000000000000000
  0
LINE
  5
F10600
330
F10601
100
AcDbEntity
8
Geo
100
AcDbLine
10
-84.9597739982804
20
-2.00149652256533
30
0.000000000000000
11
-84.8597739982804
21
-2.15828777829166
31
0.000000000000000
  0
LINE
  5
F10602
330
F10603
100
AcDbEntity
8
Geo
100
AcDbLine
10
-84.8597739982804
20
-2.15828777829166
30
0.000000000000000
11
-84.7597739982804
21
-2.31066944559408
31
0.000000000000000
  0
LINE
  5
F10604
330
F10605
100
AcDbEntity
8
Geo
100
AcDbLine
10
-84.7597739982804
20
-2.31066944559408
30
0.000000000000000
11
-84.6597739982804
21
-2.45841580172343
31
0.000000000000000
  0
LINE
  5
F10606
330
F10607
100
AcDbEntity
8
Geo
100
AcDbLine
10
-84.6597739982804
20
-2.45841580172343
30
0.000000000000000
11
-84.5597739982804
21
-2.60130799021047
31
0.000000000000000
  0
LINE
  5
F10608
330
F10609
100
AcDbEntity
8
Geo
100
AcDbLine
10
-84.5597739982804
20
-2.60130799021047
30
0.000000000000000
11
-84.4597739982804
21
-2.73913434505767
31
0.000000000000000
  0
LINE
  5
F1060A
330
F1060B
100
AcDbEntity
8
Geo
100
AcDbLine
10
-84.4597739982804
20
-2.73913434505767
30
0.000000000000000
11
-84.3597739982804
21
-2.87169070427968
31
0.000000000000000
  0
LINE
  5
F1060C
330
F1060D
100
AcDbEntity
8
Geo
100
AcDbLine
10
-84.3597739982804
20
-2.87169070427968
30
0.000000000000000
11
-84.2597739982804
21
-2.99878071232829
31
0.000000000000000
  0
LINE
  5
F1060E
330
F1060F
100
AcDbEntity
8
Geo
100
AcDbLine
10
-84.2597739982804
20
-2.99878071232829
30
0.000000000000000
11
-84.1597739982804
21
-3.12021611095359
31
0.000000000000000
  0
LINE
  5
F10610
330
F10611
100
AcDbEntity
8
Geo
100
AcDbLine
10
-84.1597739982804
20
-3.12021611095359
30
0.000000000000000
11
-84.0597739982804
21
-3.23581701807063
31
0.000000000000000
  0
LINE
  5
F10612
330
F10613
100
AcDbEntity
8
Geo
100
AcDbLine
10
-84.0597739982804
20
-3.23581701807063
30
0.000000000000000
11
-83.9597739982804
21
-3.34541219421850
31
0.000000000000000
  0
LINE
  5
F10614
330
F10615
100
AcDbEntity
8
Geo
100
AcDbLine
10
-83.9597739982804
20
-3.34541219421850
30
0.000000000000000
11
-83.8597739982804
21
-3.44883929621713
31
0.000000000000000
  0
LINE
  5
F10616
330
F10617
100
AcDbEntity
8
Geo
100
AcDbLine
10
-83.8597739982804
20
-3.44883929621713
30
0.000000000000000
11
-83.7597739982804
21
-3.54594511764602
31
0.000000000000000
  0
LINE
  5
F10618
330
F10619
100
AcDbEntity
8
Geo
100
AcDbLine
10
-83.7597739982804
20
-3.54594511764602
30
0.000000000000000
11
-83.6597739982804
21
-3.63658581578863
31
0.000000000000000
  0
LINE
  5
F1061A
330
F1061B
100
AcDbEntity
8
Geo
100
AcDbLine
10
-83.6597739982804
20
-3.63658581578863
30
0.000000000000000
11
-83.5597739982804
21
-3.72062712470648
31
0.000000000000000
  0
LINE
  5
F1061C
330
F1061D
100
AcDbEntity
8
Geo
100
AcDbLine
10
-83.5597739982804
20
-3.72062712470648
30
0.000000000000000
11
-83.4597739982804
21
-3.79794455412703
31
0.000000000000000
  0
LINE
  5
F1061E
330
F1061F
100
AcDbEntity
8
Geo
100
AcDbLine
10
-83.4597739982804
20
-3.79794455412703
30
0.000000000000000
11
-83.3597739982804
21
-3.86842357385097
31
0.000000000000000
  0
LINE
  5
F10620
330
F10621
100
AcDbEntity
8
Geo
100
AcDbLine
10
-83.3597739982804
20
-3.86842357385097
30
0.000000000000000
11
-83.2597739982804
21
-3.93195978340566
31
0.000000000000000
  0
LINE
  5
F10622
330
F10623
100
AcDbEntity
8
Geo
100
AcDbLine
10
-83.2597739982804
20
-3.93195978340566
30
0.000000000000000
11
-83.1597739982804
21
-3.98845906669337
31
0.000000000000000
  0
LINE
  5
F10624
330
F10625
100
AcDbEntity
8
Geo
100
AcDbLine
10
-83.1597739982804
20
-3.98845906669337
30
0.000000000000000
11
-83.0597739982804
21
-4.03783773140533
31
0.000000000000000
  0
LINE
  5
F10626
330
F10627
100
AcDbEntity
8
Geo
100
AcDbLine
10
-83.0597739982804
20
-4.03783773140533
30
0.000000000000000
11
-82.9597739982804
21
-4.08002263299506
31
0.000000000000000
  0
LINE
  5
F10628
330
F10629
100
AcDbEntity
8
Geo
100
AcDbLine
10
-82.9597739982804
20
-4.08002263299506
30
0.000000000000000
11
-82.8597739982804
21
-4.11495128302725
31
0.000000000000000
  0
LINE
  5
F1062A
330
F1062B
100
AcDbEntity
8
Geo
100
AcDbLine
10
-82.8597739982804
20
-4.11495128302725
30
0.000000000000000
11
-82.7597739982804
21
-4.14257194174180
31
0.000000000000000
  0
LINE
  5
F1062C
330
F1062D
100
AcDbEntity
8
Geo
100
AcDbLine
10
-82.7597739982804
20
-4.14257194174180
30
0.000000000000000
11
-82.6597739982804
21
-4.16284369469586
31
0.000000000000000
  0
LINE
  5
F1062E
330
F1062F
100
AcDbEntity
8
Geo
100
AcDbLine
10
-82.6597739982804
20
-4.16284369469586
30
0.000000000000000
11
-82.5597739982804
21
-4.17573651337033
31
0.000000000000000
  0
LINE
  5
F10630
330
F10631
100
AcDbEntity
8
Geo
100
AcDbLine
10
-82.5597739982804
20
-4.17573651337033
30
0.000000000000000
11
-82.4597739982804
21
-4.18123129965106
31
0.000000000000000
  0
LINE
  5
F10632
330
F10633
100
AcDbEntity
8
Geo
100
AcDbLine
10
-91.4597739982804
20
5.81777204852962
30
0.000000000000000
11
-91.3597739982804
21
5.81746743228694
31
0.000000000000000
  0
LINE
  5
F10634
330
F10635
100
AcDbEntity
8
Geo
100
AcDbLine
10
-91.3597739982804
20
5.81746743228694
30
0.000000000000000
11
-91.2597739982804
21
5.80975792950808
31
0.000000000000000
  0
LINE
  5
F10636
330
F10637
100
AcDbEntity
8
Geo
100
AcDbLine
10
-91.2597739982804
20
5.80975792950808
30
0.000000000000000
11
-91.1597739982804
21
5.79465496026864
31
0.000000000000000
  0
LINE
  5
F10638
330
F10639
100
AcDbEntity
8
Geo
100
AcDbLine
10
-91.1597739982804
20
5.79465496026864
30
0.000000000000000
11
-91.0597739982804
21
5.77218089657568
31
0.000000000000000
  0
LINE
  5
F1063A
330
F1063B
100
AcDbEntity
8
Geo
100
AcDbLine
10
-91.0597739982804
20
5.77218089657568
30
0.000000000000000
11
-90.9597739982804
21
5.74236902922809
31
0.000000000000000
  0
LINE
  5
F1063C
330
F1063D
100
AcDbEntity
8
Geo
100
AcDbLine
10
-90.9597739982804
20
5.74236902922809
30
0.000000000000000
11
-90.8597739982804
21
5.70526351850300
31
0.000000000000000
  0
LINE
  5
F1063E
330
F1063F
100
AcDbEntity
8
Geo
100
AcDbLine
10
-90.8597739982804
20
5.70526351850300
30
0.000000000000000
11
-90.7597739982804
21
5.66091932874118
31
0.000000000000000
  0
LINE
  5
F10640
330
F10641
100
AcDbEntity
8
Geo
100
AcDbLine
10
-90.7597739982804
20
5.66091932874118
30
0.000000000000000
11
-90.6597739982804
21
5.60940214692846
31
0.000000000000000
  0
LINE
  5
F10642
330
F10643
100
AcDbEntity
8
Geo
100
AcDbLine
10
-90.6597739982804
20
5.60940214692846
30
0.000000000000000
11
-90.5597739982804
21
5.55078828539371
31
0.000000000000000
  0
LINE
  5
F10644
330
F10645
100
AcDbEntity
8
Geo
100
AcDbLine
10
-90.5597739982804
20
5.55078828539371
30
0.000000000000000
11
-90.4597739982804
21
5.48516456876747
31
0.000000000000000
  0
LINE
  5
F10646
330
F10647
100
AcDbEntity
8
Geo
100
AcDbLine
10
-90.4597739982804
20
5.48516456876747
30
0.000000000000000
11
-90.3597739982804
21
5.41262820536874
31
0.000000000000000
  0
LINE
  5
F10648
330
F10649
100
AcDbEntity
8
Geo
100
AcDbLine
10
-90.3597739982804
20
5.41262820536874
30
0.000000000000000
11
-90.2597739982804
21
5.33328664321047
31
0.000000000000000
  0
LINE
  5
F1064A
330
F1064B
100
AcDbEntity
8
Geo
100
AcDbLine
10
-90.2597739982804
20
5.33328664321047
30
0.000000000000000
11
-90.1597739982804
21
5.24725741083693
31
0.000000000000000
  0
LINE
  5
F1064C
330
F1064D
100
AcDbEntity
8
Geo
100
AcDbLine
10
-90.1597739982804
20
5.24725741083693
30
0.000000000000000
11
-90.0597739982804
21
5.15466794322887
31
0.000000000000000
  0
LINE
  5
F1064E
330
F1064F
100
AcDbEntity
8
Geo
100
AcDbLine
10
-90.0597739982804
20
5.15466794322887
30
0.000000000000000
11
-89.9597739982804
21
5.05565539303426
31
0.000000000000000
  0
LINE
  5
F10650
330
F10651
100
AcDbEntity
8
Geo
100
AcDbLine
10
-89.9597739982804
20
5.05565539303426
30
0.000000000000000
11
-89.8597739982804
21
4.95036642740424
31
0.000000000000000
  0
LINE
  5
F10652
330
F10653
100
AcDbEntity
8
Geo
100
AcDbLine
10
-89.8597739982804
20
4.95036642740424
30
0.000000000000000
11
-89.7597739982804
21
4.83895701073531
31
0.000000000000000
  0
LINE
  5
F10654
330
F10655
100
AcDbEntity
8
Geo
100
AcDbLine
10
-89.7597739982804
20
4.83895701073531
30
0.000000000000000
11
-89.6597739982804
21
4.72159217363947
31
0.000000000000000
  0
LINE
  5
F10656
330
F10657
100
AcDbEntity
8
Geo
100
AcDbLine
10
-89.6597739982804
20
4.72159217363947
30
0.000000000000000
11
-89.5597739982804
21
4.59844576848461
31
0.000000000000000
  0
LINE
  5
F10658
330
F10659
100
AcDbEntity
8
Geo
100
AcDbLine
10
-89.5597739982804
20
4.59844576848461
30
0.000000000000000
11
-89.4597739982804
21
4.46970021186723
31
0.000000000000000
  0
LINE
  5
F1065A
330
F1065B
100
AcDbEntity
8
Geo
100
AcDbLine
10
-89.4597739982804
20
4.46970021186723
30
0.000000000000000
11
-89.3597739982804
21
4.33554621439903
31
0.000000000000000
  0
LINE
  5
F1065C
330
F1065D
100
AcDbEntity
8
Geo
100
AcDbLine
10
-89.3597739982804
20
4.33554621439903
30
0.000000000000000
11
-89.2597739982804
21
4.19618249820752
31
0.000000000000000
  0
LINE
  5
F1065E
330
F1065F
100
AcDbEntity
8
Geo
100
AcDbLine
10
-89.2597739982804
20
4.19618249820752
30
0.000000000000000
11
-89.1597739982804
21
4.05181550256919
31
0.000000000000000
  0
LINE
  5
F10660
330
F10661
100
AcDbEntity
8
Geo
100
AcDbLine
10
-89.1597739982804
20
4.05181550256919
30
0.000000000000000
11
-89.0597739982804
21
3.90265907811135
31
0.000000000000000
  0
LINE
  5
F10662
330
F10663
100
AcDbEntity
8
Geo
100
AcDbLine
10
-89.0597739982804
20
3.90265907811135
30
0.000000000000000
11
-88.9597739982804
21
3.74893417003549
31
0.000000000000000
  0
LINE
  5
F10664
330
F10665
100
AcDbEntity
8
Geo
100
AcDbLine
10
-88.9597739982804
20
3.74893417003549
30
0.000000000000000
11
-88.8597739982804
21
3.59086849083142
31
0.000000000000000
  0
LINE
  5
F10666
330
F10667
100
AcDbEntity
8
Geo
100
AcDbLine
10
-88.8597739982804
20
3.59086849083142
30
0.000000000000000
11
-88.7597739982804
21
3.42869618296711
31
0.000000000000000
  0
LINE
  5
F10668
330
F10669
100
AcDbEntity
8
Geo
100
AcDbLine
10
-88.7597739982804
20
3.42869618296711
30
0.000000000000000
11
-88.6597739982804
21
3.26265747205381
31
0.000000000000000
  0
LINE
  5
F1066A
330
F1066B
100
AcDbEntity
8
Geo
100
AcDbLine
10
-88.6597739982804
20
3.26265747205381
30
0.000000000000000
11
-88.5597739982804
21
3.09299831100013
31
0.000000000000000
  0
LINE
  5
F1066C
330
F1066D
100
AcDbEntity
8
Geo
100
AcDbLine
10
-88.5597739982804
20
3.09299831100013
30
0.000000000000000
11
-88.4597739982804
21
2.91997001568238
31
0.000000000000000
  0
LINE
  5
F1066E
330
F1066F
100
AcDbEntity
8
Geo
100
AcDbLine
10
-88.4597739982804
20
2.91997001568238
30
0.000000000000000
11
-88.3597739982804
21
2.74382889267073
31
0.000000000000000
  0
LINE
  5
F10670
330
F10671
100
AcDbEntity
8
Geo
100
AcDbLine
10
-88.3597739982804
20
2.74382889267073
30
0.000000000000000
11
-88.2597739982804
21
2.56483585956260
31
0.000000000000000
  0
LINE
  5
F10672
330
F10673
100
AcDbEntity
8
Geo
100
AcDbLine
10
-88.2597739982804
20
2.56483585956260
30
0.000000000000000
11
-88.1597739982804
21
2.38325605848584
31
0.000000000000000
  0
LINE
  5
F10674
330
F10675
100
AcDbEntity
8
Geo
100
AcDbLine
10
-88.1597739982804
20
2.38325605848584
30
0.000000000000000
11
-88.0597739982804
21
2.19935846334404
31
0.000000000000000
  0
LINE
  5
F10676
330
F10677
100
AcDbEntity
8
Geo
100
AcDbLine
10
-88.0597739982804
20
2.19935846334404
30
0.000000000000000
11
-87.9597739982804
21
2.01341548138587
31
0.000000000000000
  0
LINE
  5
F10678
330
F10679
100
AcDbEntity
8
Geo
100
AcDbLine
10
-87.9597739982804
20
2.01341548138587
30
0.000000000000000
11
-87.8597739982804
21
1.82570254968863
31
0.000000000000000
  0
LINE
  5
F1067A
330
F1067B
100
AcDbEntity
8
Geo
100
AcDbLine
10
-87.8597739982804
20
1.82570254968863
30
0.000000000000000
11
-87.7597739982804
21
1.63649772715365
31
0.000000000000000
  0
LINE
  5
F1067C
330
F1067D
100
AcDbEntity
8
Geo
100
AcDbLine
10
-87.7597739982804
20
1.63649772715365
30
0.000000000000000
11
-87.6597739982804
21
1.44608128261807
31
0.000000000000000
  0
LINE
  5
F1067E
330
F1067F
100
AcDbEntity
8
Geo
100
AcDbLine
10
-87.6597739982804
20
1.44608128261807
30
0.000000000000000
11
-87.5597739982804
21
1.25473527969300
31
0.000000000000000
  0
LINE
  5
F10680
330
F10681
100
AcDbEntity
8
Geo
100
AcDbLine
10
-87.5597739982804
20
1.25473527969300
30
0.000000000000000
11
-87.4597739982804
21
1.06274315894306
31
0.000000000000000
  0
LINE
  5
F10682
330
F10683
100
AcDbEntity
8
Geo
100
AcDbLine
10
-87.4597739982804
20
1.06274315894306
30
0.000000000000000
11
-87.3597739982804
21
0.870389318026312
31
0.000000000000000
  0
LINE
  5
F10684
330
F10685
100
AcDbEntity
8
Geo
100
AcDbLine
10
-87.3597739982804
20
0.870389318026312
30
0.000000000000000
11
-87.2597739982804
21
0.677958690416398
31
0.000000000000000
  0
LINE
  5
F10686
330
F10687
100
AcDbEntity
8
Geo
100
AcDbLine
10
-87.2597739982804
20
0.677958690416398
30
0.000000000000000
11
-87.1597739982804
21
0.485736323330964
31
0.000000000000000
  0
LINE
  5
F10688
330
F10689
100
AcDbEntity
8
Geo
100
AcDbLine
10
-87.1597739982804
20
0.485736323330964
30
0.000000000000000
11
-87.0597739982804
21
0.294006955491642
31
0.000000000000000
  0
LINE
  5
F1068A
330
F1068B
100
AcDbEntity
8
Geo
100
AcDbLine
10
-87.0597739982804
20
0.294006955491642
30
0.000000000000000
11
-86.9597739982804
21
0.103054595340973
31
0.000000000000000
  0
LINE
  5
F1068C
330
F1068D
100
AcDbEntity
8
Geo
100
AcDbLine
10
-86.9597739982804
20
0.103054595340973
30
0.000000000000000
11
-86.8597739982804
21
-0.0868378996588910
31
0.000000000000000
  0
LINE
  5
F1068E
330
F1068F
100
AcDbEntity
8
Geo
100
AcDbLine
10
-86.8597739982804
20
-0.0868378996588910
30
0.000000000000000
11
-86.7597739982804
21
-0.275389242022567
31
0.000000000000000
  0
LINE
  5
F10690
330
F10691
100
AcDbEntity
8
Geo
100
AcDbLine
10
-86.7597739982804
20
-0.275389242022567
30
0.000000000000000
11
-86.6597739982804
21
-0.462320130912168
31
0.000000000000000
  0
LINE
  5
F10692
330
F10693
100
AcDbEntity
8
Geo
100
AcDbLine
10
-86.6597739982804
20
-0.462320130912168
30
0.000000000000000
11
-86.5597739982804
21
-0.647353665865265
31
0.000000000000000
  0
LINE
  5
F10694
330
F10695
100
AcDbEntity
8
Geo
100
AcDbLine
10
-86.5597739982804
20
-0.647353665865265
30
0.000000000000000
11
-86.4597739982804
21
-0.830215756967145
31
0.000000000000000
  0
LINE
  5
F10696
330
F10697
100
AcDbEntity
8
Geo
100
AcDbLine
10
-86.4597739982804
20
-0.830215756967145
30
0.000000000000000
11
-86.3597739982804
21
-1.01063553085979
31
0.000000000000000
  0
LINE
  5
F10698
330
F10699
100
AcDbEntity
8
Geo
100
AcDbLine
10
-86.3597739982804
20
-1.01063553085979
30
0.000000000000000
11
-86.2597739982804
21
-1.18834573198626
31
0.000000000000000
  0
LINE
  5
F1069A
330
F1069B
100
AcDbEntity
8
Geo
100
AcDbLine
10
-86.2597739982804
20
-1.18834573198626
30
0.000000000000000
11
-86.1597739982804
21
-1.36308311847591
31
0.000000000000000
  0
LINE
  5
F1069C
330
F1069D
100
AcDbEntity
8
Geo
100
AcDbLine
10
-86.1597739982804
20
-1.36308311847591
30
0.000000000000000
11
-86.0597739982804
21
-1.53458885208424
31
0.000000000000000
  0
LINE
  5
F1069E
330
F1069F
100
AcDbEntity
8
Geo
100
AcDbLine
10
-86.0597739982804
20
-1.53458885208424
30
0.000000000000000
11
-85.9597739982804
21
-1.70260888160961
31
0.000000000000000
  0
LINE
  5
F106A0
330
F106A1
100
AcDbEntity
8
Geo
100
AcDbLine
10
-85.9597739982804
20
-1.70260888160961
30
0.000000000000000
11
-85.8597739982804
21
-1.86689431921894
31
0.000000000000000
  0
LINE
  5
F106A2
330
F106A3
100
AcDbEntity
8
Geo
100
AcDbLine
10
-85.8597739982804
20
-1.86689431921894
30
0.000000000000000
11
-85.7597739982804
21
-2.02720180912487
31
0.000000000000000
  0
LINE
  5
F106A4
330
F106A5
100
AcDbEntity
8
Geo
100
AcDbLine
10
-85.7597739982804
20
-2.02720180912487
30
0.000000000000000
11
-85.6597739982804
21
-2.18329388806840
31
0.000000000000000
  0
LINE
  5
F106A6
330
F106A7
100
AcDbEntity
8
Geo
100
AcDbLine
10
-85.6597739982804
20
-2.18329388806840
30
0.000000000000000
11
-85.5597739982804
21
-2.33493933707282
31
0.000000000000000
  0
LINE
  5
F106A8
330
F106A9
100
AcDbEntity
8
Geo
100
AcDbLine
10
-85.5597739982804
20
-2.33493933707282
30
0.000000000000000
11
-85.4597739982804
21
-2.48191352394812
31
0.000000000000000
  0
LINE
  5
F106AA
330
F106AB
100
AcDbEntity
8
Geo
100
AcDbLine
10
-85.4597739982804
20
-2.48191352394812
30
0.000000000000000
11
-85.3597739982804
21
-2.62399873603827
31
0.000000000000000
  0
LINE
  5
F106AC
330
F106AD
100
AcDbEntity
8
Geo
100
AcDbLine
10
-85.3597739982804
20
-2.62399873603827
30
0.000000000000000
11
-85.2597739982804
21
-2.76098450271873
31
0.000000000000000
  0
LINE
  5
F106AE
330
F106AF
100
AcDbEntity
8
Geo
100
AcDbLine
10
-85.2597739982804
20
-2.76098450271873
30
0.000000000000000
11
-85.1597739982804
21
-2.89266790716624
31
0.000000000000000
  0
LINE
  5
F106B0
330
F106B1
100
AcDbEntity
8
Geo
100
AcDbLine
10
-85.1597739982804
20
-2.89266790716624
30
0.000000000000000
11
-85.0597739982804
21
-3.01885388693927
31
0.000000000000000
  0
LINE
  5
F106B2
330
F106B3
100
AcDbEntity
8
Geo
100
AcDbLine
10
-85.0597739982804
20
-3.01885388693927
30
0.000000000000000
11
-84.9597739982804
21
-3.13935552292370
31
0.000000000000000
  0
LINE
  5
F106B4
330
F106B5
100
AcDbEntity
8
Geo
100
AcDbLine
10
-84.9597739982804
20
-3.13935552292370
30
0.000000000000000
11
-84.8597739982804
21
-3.25399431621587
31
0.000000000000000
  0
LINE
  5
F106B6
330
F106B7
100
AcDbEntity
8
Geo
100
AcDbLine
10
-84.8597739982804
20
-3.25399431621587
30
0.000000000000000
11
-84.7597739982804
21
-3.36260045253273
31
0.000000000000000
  0
LINE
  5
F106B8
330
F106B9
100
AcDbEntity
8
Geo
100
AcDbLine
10
-84.7597739982804
20
-3.36260045253273
30
0.000000000000000
11
-84.6597739982804
21
-3.46501305375753
31
0.000000000000000
  0
LINE
  5
F106BA
330
F106BB
100
AcDbEntity
8
Geo
100
AcDbLine
10
-84.6597739982804
20
-3.46501305375753
30
0.000000000000000
11
-84.5597739982804
21
-3.56108041624831
31
0.000000000000000
  0
LINE
  5
F106BC
330
F106BD
100
AcDbEntity
8
Geo
100
AcDbLine
10
-84.5597739982804
20
-3.56108041624831
30
0.000000000000000
11
-84.4597739982804
21
-3.65066023555632
31
0.000000000000000
  0
LINE
  5
F106BE
330
F106BF
100
AcDbEntity
8
Geo
100
AcDbLine
10
-84.4597739982804
20
-3.65066023555632
30
0.000000000000000
11
-84.3597739982804
21
-3.73361981722138
31
0.000000000000000
  0
LINE
  5
F106C0
330
F106C1
100
AcDbEntity
8
Geo
100
AcDbLine
10
-84.3597739982804
20
-3.73361981722138
30
0.000000000000000
11
-84.2597739982804
21
-3.80983627333202
31
0.000000000000000
  0
LINE
  5
F106C2
330
F106C3
100
AcDbEntity
8
Geo
100
AcDbLine
10
-84.2597739982804
20
-3.80983627333202
30
0.000000000000000
11
-84.1597739982804
21
-3.87919670455915
31
0.000000000000000
  0
LINE
  5
F106C4
330
F106C5
100
AcDbEntity
8
Geo
100
AcDbLine
10
-84.1597739982804
20
-3.87919670455915
30
0.000000000000000
11
-84.0597739982804
21
-3.94159836739368
31
0.000000000000000
  0
LINE
  5
F106C6
330
F106C7
100
AcDbEntity
8
Geo
100
AcDbLine
10
-84.0597739982804
20
-3.94159836739368
30
0.000000000000000
11
-83.9597739982804
21
-3.99694882634034
31
0.000000000000000
  0
LINE
  5
F106C8
330
F106C9
100
AcDbEntity
8
Geo
100
AcDbLine
10
-83.9597739982804
20
-3.99694882634034
30
0.000000000000000
11
-83.8597739982804
21
-4.04516609084225
31
0.000000000000000
  0
LINE
  5
F106CA
330
F106CB
100
AcDbEntity
8
Geo
100
AcDbLine
10
-83.8597739982804
20
-4.04516609084225
30
0.000000000000000
11
-83.7597739982804
21
-4.08617873673341
31
0.000000000000000
  0
LINE
  5
F106CC
330
F106CD
100
AcDbEntity
8
Geo
100
AcDbLine
10
-83.7597739982804
20
-4.08617873673341
30
0.000000000000000
11
-83.6597739982804
21
-4.11992601203924
31
0.000000000000000
  0
LINE
  5
F106CE
330
F106CF
100
AcDbEntity
8
Geo
100
AcDbLine
10
-83.6597739982804
20
-4.11992601203924
30
0.000000000000000
11
-83.5597739982804
21
-4.14635792696834
31
0.000000000000000
  0
LINE
  5
F106D0
330
F106D1
100
AcDbEntity
8
Geo
100
AcDbLine
10
-83.5597739982804
20
-4.14635792696834
30
0.000000000000000
11
-83.4597739982804
21
-4.16543532796238
31
0.000000000000000
  0
LINE
  5
F106D2
330
F106D3
100
AcDbEntity
8
Geo
100
AcDbLine
10
-83.4597739982804
20
-4.16543532796238
30
0.000000000000000
11
-83.3597739982804
21
-4.17712995569411
31
0.000000000000000
  0
LINE
  5
F106D4
330
F106D5
100
AcDbEntity
8
Geo
100
AcDbLine
10
-83.3597739982804
20
-4.17712995569411
30
0.000000000000000
11
-83.2597739982804
21
-4.18142448692795
31
0.000000000000000
  0
LINE
  5
F106D6
330
F106D7
100
AcDbEntity
8
Geo
100
AcDbLine
10
-94.7597739982804
20
5.81611918302087
30
0.000000000000000
11
-94.6597739982804
21
5.81841888035361
31
0.000000000000000
  0
LINE
  5
F106D8
330
F106D9
100
AcDbEntity
8
Geo
100
AcDbLine
10
-94.6597739982804
20
5.81841888035361
30
0.000000000000000
11
-94.5597739982804
21
5.81331228177147
31
0.000000000000000
  0
LINE
  5
F106DA
330
F106DB
100
AcDbEntity
8
Geo
100
AcDbLine
10
-94.5597739982804
20
5.81331228177147
30
0.000000000000000
11
-94.4597739982804
21
5.80080695167176
31
0.000000000000000
  0
LINE
  5
F106DC
330
F106DD
100
AcDbEntity
8
Geo
100
AcDbLine
10
-94.4597739982804
20
5.80080695167176
30
0.000000000000000
11
-94.3597739982804
21
5.78092141418232
31
0.000000000000000
  0
LINE
  5
F106DE
330
F106DF
100
AcDbEntity
8
Geo
100
AcDbLine
10
-94.3597739982804
20
5.78092141418232
30
0.000000000000000
11
-94.2597739982804
21
5.75368512572184
31
0.000000000000000
  0
LINE
  5
F106E0
330
F106E1
100
AcDbEntity
8
Geo
100
AcDbLine
10
-94.2597739982804
20
5.75368512572184
30
0.000000000000000
11
-94.1597739982804
21
5.71913843136606
31
0.000000000000000
  0
LINE
  5
F106E2
330
F106E3
100
AcDbEntity
8
Geo
100
AcDbLine
10
-94.1597739982804
20
5.71913843136606
30
0.000000000000000
11
-94.0597739982804
21
5.67733250508466
31
0.000000000000000
  0
LINE
  5
F106E4
330
F106E5
100
AcDbEntity
8
Geo
100
AcDbLine
10
-94.0597739982804
20
5.67733250508466
30
0.000000000000000
11
-93.9597739982804
21
5.62832927393737
31
0.000000000000000
  0
LINE
  5
F106E6
330
F106E7
100
AcDbEntity
8
Geo
100
AcDbLine
10
-93.9597739982804
20
5.62832927393737
30
0.000000000000000
11
-93.8597739982804
21
5.57220132634146
31
0.000000000000000
  0
LINE
  5
F106E8
330
F106E9
100
AcDbEntity
8
Geo
100
AcDbLine
10
-93.8597739982804
20
5.57220132634146
30
0.000000000000000
11
-93.7597739982804
21
5.50903180454667
31
0.000000000000000
  0
LINE
  5
F106EA
330
F106EB
100
AcDbEntity
8
Geo
100
AcDbLine
10
-93.7597739982804
20
5.50903180454667
30
0.000000000000000
11
-93.6597739982804
21
5.43891428147664
31
0.000000000000000
  0
LINE
  5
F106EC
330
F106ED
100
AcDbEntity
8
Geo
100
AcDbLine
10
-93.6597739982804
20
5.43891428147664
30
0.000000000000000
11
-93.5597739982804
21
5.36195262211955
31
0.000000000000000
  0
LINE
  5
F106EE
330
F106EF
100
AcDbEntity
8
Geo
100
AcDbLine
10
-93.5597739982804
20
5.36195262211955
30
0.000000000000000
11
-93.4597739982804
21
5.27826082967302
31
0.000000000000000
  0
LINE
  5
F106F0
330
F106F1
100
AcDbEntity
8
Geo
100
AcDbLine
10
-93.4597739982804
20
5.27826082967302
30
0.000000000000000
11
-93.3597739982804
21
5.18796287667131
31
0.000000000000000
  0
LINE
  5
F106F2
330
F106F3
100
AcDbEntity
8
Geo
100
AcDbLine
10
-93.3597739982804
20
5.18796287667131
30
0.000000000000000
11
-93.2597739982804
21
5.09119252134503
31
0.000000000000000
  0
LINE
  5
F106F4
330
F106F5
100
AcDbEntity
8
Geo
100
AcDbLine
10
-93.2597739982804
20
5.09119252134503
30
0.000000000000000
11
-93.1597739982804
21
4.98809310948523
31
0.000000000000000
  0
LINE
  5
F106F6
330
F106F7
100
AcDbEntity
8
Geo
100
AcDbLine
10
-93.1597739982804
20
4.98809310948523
30
0.000000000000000
11
-93.0597739982804
21
4.87881736210548
31
0.000000000000000
  0
LINE
  5
F106F8
330
F106F9
100
AcDbEntity
8
Geo
100
AcDbLine
10
-93.0597739982804
20
4.87881736210548
30
0.000000000000000
11
-92.9597739982804
21
4.76352714921648
31
0.000000000000000
  0
LINE
  5
F106FA
330
F106FB
100
AcDbEntity
8
Geo
100
AcDbLine
10
-92.9597739982804
20
4.76352714921648
30
0.000000000000000
11
-92.8597739982804
21
4.64239325004820
31
0.000000000000000
  0
LINE
  5
F106FC
330
F106FD
100
AcDbEntity
8
Geo
100
AcDbLine
10
-92.8597739982804
20
4.64239325004820
30
0.000000000000000
11
-92.7597739982804
21
4.51559510007487
31
0.000000000000000
  0
LINE
  5
F106FE
330
F106FF
100
AcDbEntity
8
Geo
100
AcDbLine
10
-92.7597739982804
20
4.51559510007487
30
0.000000000000000
11
-92.6597739982804
21
4.38332052521745
31
0.000000000000000
  0
LINE
  5
F10700
330
F10701
100
AcDbEntity
8
Geo
100
AcDbLine
10
-92.6597739982804
20
4.38332052521745
30
0.000000000000000
11
-92.5597739982804
21
4.24576546361737
31
0.000000000000000
  0
LINE
  5
F10702
330
F10703
100
AcDbEntity
8
Geo
100
AcDbLine
10
-92.5597739982804
20
4.24576546361737
30
0.000000000000000
11
-92.4597739982804
21
4.10313367539367
31
0.000000000000000
  0
LINE
  5
F10704
330
F10705
100
AcDbEntity
8
Geo
100
AcDbLine
10
-92.4597739982804
20
4.10313367539367
30
0.000000000000000
11
-92.3597739982804
21
3.95563644081333
31
0.000000000000000
  0
LINE
  5
F10706
330
F10707
100
AcDbEntity
8
Geo
100
AcDbLine
10
-92.3597739982804
20
3.95563644081333
30
0.000000000000000
11
-92.2597739982804
21
3.80349224732221
31
0.000000000000000
  0
LINE
  5
F10708
330
F10709
100
AcDbEntity
8
Geo
100
AcDbLine
10
-92.2597739982804
20
3.80349224732221
30
0.000000000000000
11
-92.1597739982804
21
3.64692646589983
31
0.000000000000000
  0
LINE
  5
F1070A
330
F1070B
100
AcDbEntity
8
Geo
100
AcDbLine
10
-92.1597739982804
20
3.64692646589983
30
0.000000000000000
11
-92.0597739982804
21
3.48617101721771
31
0.000000000000000
  0
LINE
  5
F1070C
330
F1070D
100
AcDbEntity
8
Geo
100
AcDbLine
10
-92.0597739982804
20
3.48617101721771
30
0.000000000000000
11
-91.9597739982804
21
3.32146402809556
31
0.000000000000000
  0
LINE
  5
F1070E
330
F1070F
100
AcDbEntity
8
Geo
100
AcDbLine
10
-91.9597739982804
20
3.32146402809556
30
0.000000000000000
11
-91.8597739982804
21
3.15304947876440
31
0.000000000000000
  0
LINE
  5
F10710
330
F10711
100
AcDbEntity
8
Geo
100
AcDbLine
10
-91.8597739982804
20
3.15304947876440
30
0.000000000000000
11
-91.7597739982804
21
2.98117684145894
31
0.000000000000000
  0
LINE
  5
F10712
330
F10713
100
AcDbEntity
8
Geo
100
AcDbLine
10
-91.7597739982804
20
2.98117684145894
30
0.000000000000000
11
-91.6597739982804
21
2.80610071087476
31
0.000000000000000
  0
LINE
  5
F10714
330
F10715
100
AcDbEntity
8
Geo
100
AcDbLine
10
-91.6597739982804
20
2.80610071087476
30
0.000000000000000
11
-91.5597739982804
21
2.62808042703750
31
0.000000000000000
  0
LINE
  5
F10716
330
F10717
100
AcDbEntity
8
Geo
100
AcDbLine
10
-91.5597739982804
20
2.62808042703750
30
0.000000000000000
11
-91.4597739982804
21
2.44737969114288
31
0.000000000000000
  0
LINE
  5
F10718
330
F10719
100
AcDbEntity
8
Geo
100
AcDbLine
10
-91.4597739982804
20
2.44737969114288
30
0.000000000000000
11
-91.3597739982804
21
2.26426617493648
31
0.000000000000000
  0
LINE
  5
F1071A
330
F1071B
100
AcDbEntity
8
Geo
100
AcDbLine
10
-91.3597739982804
20
2.26426617493648
30
0.000000000000000
11
-91.2597739982804
21
2.07901112421196
31
0.000000000000000
  0
LINE
  5
F1071C
330
F1071D
100
AcDbEntity
8
Geo
100
AcDbLine
10
-91.2597739982804
20
2.07901112421196
30
0.000000000000000
11
-91.1597739982804
21
1.89188895701502
31
0.000000000000000
  0
LINE
  5
F1071E
330
F1071F
100
AcDbEntity
8
Geo
100
AcDbLine
10
-91.1597739982804
20
1.89188895701502
30
0.000000000000000
11
-91.0597739982804
21
1.70317685714840
31
0.000000000000000
  0
LINE
  5
F10720
330
F10721
100
AcDbEntity
8
Geo
100
AcDbLine
10
-91.0597739982804
20
1.70317685714840
30
0.000000000000000
11
-90.9597739982804
21
1.51315436357982
31
0.000000000000000
  0
LINE
  5
F10722
330
F10723
100
AcDbEntity
8
Geo
100
AcDbLine
10
-90.9597739982804
20
1.51315436357982
30
0.000000000000000
11
-90.8597739982804
21
1.32210295636140
31
0.000000000000000
  0
LINE
  5
F10724
330
F10725
100
AcDbEntity
8
Geo
100
AcDbLine
10
-90.8597739982804
20
1.32210295636140
30
0.000000000000000
11
-90.7597739982804
21
1.13030563967354
31
0.000000000000000
  0
LINE
  5
F10726
330
F10727
100
AcDbEntity
8
Geo
100
AcDbLine
10
-90.7597739982804
20
1.13030563967354
30
0.000000000000000
11
-90.6597739982804
21
0.938046522611329
31
0.000000000000000
  0
LINE
  5
F10728
330
F10729
100
AcDbEntity
8
Geo
100
AcDbLine
10
-90.6597739982804
20
0.938046522611329
30
0.000000000000000
11
-90.5597739982804
21
0.745610398334082
31
0.000000000000000
  0
LINE
  5
F1072A
330
F1072B
100
AcDbEntity
8
Geo
100
AcDbLine
10
-90.5597739982804
20
0.745610398334082
30
0.000000000000000
11
-90.4597739982804
21
0.553282322201664
31
0.000000000000000
  0
LINE
  5
F1072C
330
F1072D
100
AcDbEntity
8
Geo
100
AcDbLine
10
-90.4597739982804
20
0.553282322201664
30
0.000000000000000
11
-90.3597739982804
21
0.361347189522364
31
0.000000000000000
  0
LINE
  5
F1072E
330
F1072F
100
AcDbEntity
8
Geo
100
AcDbLine
10
-90.3597739982804
20
0.361347189522364
30
0.000000000000000
11
-90.2597739982804
21
0.170089313537893
31
0.000000000000000
  0
LINE
  5
F10730
330
F10731
100
AcDbEntity
8
Geo
100
AcDbLine
10
-90.2597739982804
20
0.170089313537893
30
0.000000000000000
11
-90.1597739982804
21
-0.0202079957294289
31
0.000000000000000
  0
LINE
  5
F10732
330
F10733
100
AcDbEntity
8
Geo
100
AcDbLine
10
-90.1597739982804
20
-0.0202079957294289
30
0.000000000000000
11
-90.0597739982804
21
-0.209262851143405
31
0.000000000000000
  0
LINE
  5
F10734
330
F10735
100
AcDbEntity
8
Geo
100
AcDbLine
10
-90.0597739982804
20
-0.209262851143405
30
0.000000000000000
11
-89.9597739982804
21
-0.396795206012982
31
0.000000000000000
  0
LINE
  5
F10736
330
F10737
100
AcDbEntity
8
Geo
100
AcDbLine
10
-89.9597739982804
20
-0.396795206012982
30
0.000000000000000
11
-89.8597739982804
21
-0.582527268925018
31
0.000000000000000
  0
LINE
  5
F10738
330
F10739
100
AcDbEntity
8
Geo
100
AcDbLine
10
-89.8597739982804
20
-0.582527268925018
30
0.000000000000000
11
-89.7597739982804
21
-0.766183915236315
31
0.000000000000000
  0
LINE
  5
F1073A
330
F1073B
100
AcDbEntity
8
Geo
100
AcDbLine
10
-89.7597739982804
20
-0.766183915236315
30
0.000000000000000
11
-89.6597739982804
21
-0.947493094615358
31
0.000000000000000
  0
LINE
  5
F1073C
330
F1073D
100
AcDbEntity
8
Geo
100
AcDbLine
10
-89.6597739982804
20
-0.947493094615358
30
0.000000000000000
11
-89.5597739982804
21
-1.12618623403010
31
0.000000000000000
  0
LINE
  5
F1073E
330
F1073F
100
AcDbEntity
8
Geo
100
AcDbLine
10
-89.5597739982804
20
-1.12618623403010
30
0.000000000000000
11
-89.4597739982804
21
-1.30199863558479
31
0.000000000000000
  0
LINE
  5
F10740
330
F10741
100
AcDbEntity
8
Geo
100
AcDbLine
10
-89.4597739982804
20
-1.30199863558479
30
0.000000000000000
11
-89.3597739982804
21
-1.47466986861664
31
0.000000000000000
  0
LINE
  5
F10742
330
F10743
100
AcDbEntity
8
Geo
100
AcDbLine
10
-89.3597739982804
20
-1.47466986861664
30
0.000000000000000
11
-89.2597739982804
21
-1.64394415547136
31
0.000000000000000
  0
LINE
  5
F10744
330
F10745
100
AcDbEntity
8
Geo
100
AcDbLine
10
-89.2597739982804
20
-1.64394415547136
30
0.000000000000000
11
-89.1597739982804
21
-1.80957075038623
31
0.000000000000000
  0
LINE
  5
F10746
330
F10747
100
AcDbEntity
8
Geo
100
AcDbLine
10
-89.1597739982804
20
-1.80957075038623
30
0.000000000000000
11
-89.0597739982804
21
-1.97130431091948
31
0.000000000000000
  0
LINE
  5
F10748
330
F10749
100
AcDbEntity
8
Geo
100
AcDbLine
10
-89.0597739982804
20
-1.97130431091948
30
0.000000000000000
11
-88.9597739982804
21
-2.12890526137569
31
0.000000000000000
  0
LINE
  5
F1074A
330
F1074B
100
AcDbEntity
8
Geo
100
AcDbLine
10
-88.9597739982804
20
-2.12890526137569
30
0.000000000000000
11
-88.8597739982804
21
-2.28214014768891
31
0.000000000000000
  0
LINE
  5
F1074C
330
F1074D
100
AcDbEntity
8
Geo
100
AcDbLine
10
-88.8597739982804
20
-2.28214014768891
30
0.000000000000000
11
-88.7597739982804
21
-2.43078198323788
31
0.000000000000000
  0
LINE
  5
F1074E
330
F1074F
100
AcDbEntity
8
Geo
100
AcDbLine
10
-88.7597739982804
20
-2.43078198323788
30
0.000000000000000
11
-88.6597739982804
21
-2.57461058508093
31
0.000000000000000
  0
LINE
  5
F10750
330
F10751
100
AcDbEntity
8
Geo
100
AcDbLine
10
-88.6597739982804
20
-2.57461058508093
30
0.000000000000000
11
-88.5597739982804
21
-2.71341290011275
31
0.000000000000000
  0
LINE
  5
F10752
330
F10753
100
AcDbEntity
8
Geo
100
AcDbLine
10
-88.5597739982804
20
-2.71341290011275
30
0.000000000000000
11
-88.4597739982804
21
-2.84698332065956
31
0.000000000000000
  0
LINE
  5
F10754
330
F10755
100
AcDbEntity
8
Geo
100
AcDbLine
10
-88.4597739982804
20
-2.84698332065956
30
0.000000000000000
11
-88.3597739982804
21
-2.97512398904553
31
0.000000000000000
  0
LINE
  5
F10756
330
F10757
100
AcDbEntity
8
Geo
100
AcDbLine
10
-88.3597739982804
20
-2.97512398904553
30
0.000000000000000
11
-88.2597739982804
21
-3.09764509067907
31
0.000000000000000
  0
LINE
  5
F10758
330
F10759
100
AcDbEntity
8
Geo
100
AcDbLine
10
-88.2597739982804
20
-3.09764509067907
30
0.000000000000000
11
-88.1597739982804
21
-3.21436513522488
31
0.000000000000000
  0
LINE
  5
F1075A
330
F1075B
100
AcDbEntity
8
Geo
100
AcDbLine
10
-88.1597739982804
20
-3.21436513522488
30
0.000000000000000
11
-88.0597739982804
21
-3.32511122544538
31
0.000000000000000
  0
LINE
  5
F1075C
330
F1075D
100
AcDbEntity
8
Geo
100
AcDbLine
10
-88.0597739982804
20
-3.32511122544538
30
0.000000000000000
11
-87.9597739982804
21
-3.42971931331309
31
0.000000000000000
  0
LINE
  5
F1075E
330
F1075F
100
AcDbEntity
8
Geo
100
AcDbLine
10
-87.9597739982804
20
-3.42971931331309
30
0.000000000000000
11
-87.8597739982804
21
-3.52803444301480
31
0.000000000000000
  0
LINE
  5
F10760
330
F10761
100
AcDbEntity
8
Geo
100
AcDbLine
10
-87.8597739982804
20
-3.52803444301480
30
0.000000000000000
11
-87.7597739982804
21
-3.61991098048734
31
0.000000000000000
  0
LINE
  5
F10762
330
F10763
100
AcDbEntity
8
Geo
100
AcDbLine
10
-87.7597739982804
20
-3.61991098048734
30
0.000000000000000
11
-87.6597739982804
21
-3.70521282914516
31
0.000000000000000
  0
LINE
  5
F10764
330
F10765
100
AcDbEntity
8
Geo
100
AcDbLine
10
-87.6597739982804
20
-3.70521282914516
30
0.000000000000000
11
-87.5597739982804
21
-3.78381363147999
31
0.000000000000000
  0
LINE
  5
F10766
330
F10767
100
AcDbEntity
8
Geo
100
AcDbLine
10
-87.5597739982804
20
-3.78381363147999
30
0.000000000000000
11
-87.4597739982804
21
-3.85559695623403
31
0.000000000000000
  0
LINE
  5
F10768
330
F10769
100
AcDbEntity
8
Geo
100
AcDbLine
10
-87.4597739982804
20
-3.85559695623403
30
0.000000000000000
11
-87.3597739982804
21
-3.92045647086942
31
0.000000000000000
  0
LINE
  5
F1076A
330
F1076B
100
AcDbEntity
8
Geo
100
AcDbLine
10
-87.3597739982804
20
-3.92045647086942
30
0.000000000000000
11
-87.2597739982804
21
-3.97829609907849
31
0.000000000000000
  0
LINE
  5
F1076C
330
F1076D
100
AcDbEntity
8
Geo
100
AcDbLine
10
-87.2597739982804
20
-3.97829609907849
30
0.000000000000000
11
-87.1597739982804
21
-4.02903016310143
31
0.000000000000000
  0
LINE
  5
F1076E
330
F1076F
100
AcDbEntity
8
Geo
100
AcDbLine
10
-87.1597739982804
20
-4.02903016310143
30
0.000000000000000
11
-87.0597739982804
21
-4.07258351064067
31
0.000000000000000
  0
LINE
  5
F10770
330
F10771
100
AcDbEntity
8
Geo
100
AcDbLine
10
-87.0597739982804
20
-4.07258351064067
30
0.000000000000000
11
-86.9597739982804
21
-4.10889162618382
31
0.000000000000000
  0
LINE
  5
F10772
330
F10773
100
AcDbEntity
8
Geo
100
AcDbLine
10
-86.9597739982804
20
-4.10889162618382
30
0.000000000000000
11
-86.8597739982804
21
-4.13790072657049
31
0.000000000000000
  0
LINE
  5
F10774
330
F10775
100
AcDbEntity
8
Geo
100
AcDbLine
10
-86.8597739982804
20
-4.13790072657049
30
0.000000000000000
11
-86.7597739982804
21
-4.15956784066112
31
0.000000000000000
  0
LINE
  5
F10776
330
F10777
100
AcDbEntity
8
Geo
100
AcDbLine
10
-86.7597739982804
20
-4.15956784066112
30
0.000000000000000
11
-86.6597739982804
21
-4.17386087299012
31
0.000000000000000
  0
LINE
  5
F10778
330
F10779
100
AcDbEntity
8
Geo
100
AcDbLine
10
-86.6597739982804
20
-4.17386087299012
30
0.000000000000000
11
-86.5597739982804
21
-4.18075865130884
31
0.000000000000000
  0
LINE
  5
F1077A
330
F1077B
100
AcDbEntity
8
Geo
100
AcDbLine
10
-98.7597739982804
20
5.30986949188673
30
0.000000000000000
11
-98.6597739982804
21
5.60442601041427
31
0.000000000000000
  0
LINE
  5
F1077C
330
F1077D
100
AcDbEntity
8
Geo
100
AcDbLine
10
-98.7597739982804
20
0.769311513119465
30
0.000000000000000
11
-98.6597739982804
21
0.584975614822041
31
0.000000000000000
  0
LINE
  5
F1077E
330
F1077F
100
AcDbEntity
8
Geo
100
AcDbLine
10
-98.6597739982804
20
5.60442601041427
30
0.000000000000000
11
-98.5597739982804
21
5.69159707035775
31
0.000000000000000
  0
LINE
  5
F10780
330
F10781
100
AcDbEntity
8
Geo
100
AcDbLine
10
-98.6597739982804
20
0.584975614822041
30
0.000000000000000
11
-98.5597739982804
21
0.393295309872932
31
0.000000000000000
  0
LINE
  5
F10782
330
F10783
100
AcDbEntity
8
Geo
100
AcDbLine
10
-98.5597739982804
20
5.69159707035775
30
0.000000000000000
11
-98.4597739982804
21
5.72949337732921
31
0.000000000000000
  0
LINE
  5
F10784
330
F10785
100
AcDbEntity
8
Geo
100
AcDbLine
10
-98.5597739982804
20
0.393295309872932
30
0.000000000000000
11
-98.4597739982804
21
0.199380922657563
31
0.000000000000000
  0
LINE
  5
F10786
330
F10787
100
AcDbEntity
8
Geo
100
AcDbLine
10
-98.4597739982804
20
5.72949337732921
30
0.000000000000000
11
-98.3597739982804
21
5.73329619603403
31
0.000000000000000
  0
LINE
  5
F10788
330
F10789
100
AcDbEntity
8
Geo
100
AcDbLine
10
-98.4597739982804
20
0.199380922657563
30
0.000000000000000
11
-98.3597739982804
21
0.00601182137148315
31
0.000000000000000
  0
LINE
  5
F1078A
330
F1078B
100
AcDbEntity
8
Geo
100
AcDbLine
10
-98.3597739982804
20
5.73329619603403
30
0.000000000000000
11
-98.2597739982804
21
5.70830468656302
31
0.000000000000000
  0
LINE
  5
F1078C
330
F1078D
100
AcDbEntity
8
Geo
100
AcDbLine
10
-98.3597739982804
20
0.00601182137148315
30
0.000000000000000
11
-98.2597739982804
21
-0.184440424722330
31
0.000000000000000
  0
LINE
  5
F1078E
330
F1078F
100
AcDbEntity
8
Geo
100
AcDbLine
10
-98.2597739982804
20
5.70830468656302
30
0.000000000000000
11
-98.1597739982804
21
5.66608743343806
31
0.000000000000000
  0
LINE
  5
F10790
330
F10791
100
AcDbEntity
8
Geo
100
AcDbLine
10
-98.2597739982804
20
-0.184440424722330
30
0.000000000000000
11
-98.1597739982804
21
-0.371857764298162
31
0.000000000000000
  0
LINE
  5
F10792
330
F10793
100
AcDbEntity
8
Geo
100
AcDbLine
10
-98.1597739982804
20
5.66608743343806
30
0.000000000000000
11
-98.0597739982804
21
5.61668953275600
31
0.000000000000000
  0
LINE
  5
F10794
330
F10795
100
AcDbEntity
8
Geo
100
AcDbLine
10
-98.1597739982804
20
-0.371857764298162
30
0.000000000000000
11
-98.0597739982804
21
-0.557511751713744
31
0.000000000000000
  0
LINE
  5
F10796
330
F10797
100
AcDbEntity
8
Geo
100
AcDbLine
10
-98.0597739982804
20
5.61668953275600
30
0.000000000000000
11
-97.9597739982804
21
5.56018415755754
31
0.000000000000000
  0
LINE
  5
F10798
330
F10799
100
AcDbEntity
8
Geo
100
AcDbLine
10
-98.0597739982804
20
-0.557511751713744
30
0.000000000000000
11
-97.9597739982804
21
-0.741127377978997
31
0.000000000000000
  0
LINE
  5
F1079A
330
F1079B
100
AcDbEntity
8
Geo
100
AcDbLine
10
-97.9597739982804
20
5.56018415755754
30
0.000000000000000
11
-97.8597739982804
21
5.49665500917538
31
0.000000000000000
  0
LINE
  5
F1079C
330
F1079D
100
AcDbEntity
8
Geo
100
AcDbLine
10
-97.9597739982804
20
-0.741127377978997
30
0.000000000000000
11
-97.8597739982804
21
-0.922432653525346
31
0.000000000000000
  0
LINE
  5
F1079E
330
F1079F
100
AcDbEntity
8
Geo
100
AcDbLine
10
-97.8597739982804
20
5.49665500917538
30
0.000000000000000
11
-97.7597739982804
21
5.42619619324755
31
0.000000000000000
  0
LINE
  5
F107A0
330
F107A1
100
AcDbEntity
8
Geo
100
AcDbLine
10
-97.8597739982804
20
-0.922432653525346
30
0.000000000000000
11
-97.7597739982804
21
-1.10115901110348
31
0.000000000000000
  0
LINE
  5
F107A2
330
F107A3
100
AcDbEntity
8
Geo
100
AcDbLine
10
-97.7597739982804
20
5.42619619324755
30
0.000000000000000
11
-97.6597739982804
21
5.34891208031883
31
0.000000000000000
  0
LINE
  5
F107A4
330
F107A5
100
AcDbEntity
8
Geo
100
AcDbLine
10
-97.7597739982804
20
-1.10115901110348
30
0.000000000000000
11
-97.6597739982804
21
-1.27704170361165
31
0.000000000000000
  0
LINE
  5
F107A6
330
F107A7
100
AcDbEntity
8
Geo
100
AcDbLine
10
-97.6597739982804
20
5.34891208031883
30
0.000000000000000
11
-97.5597739982804
21
5.26491715123687
31
0.000000000000000
  0
LINE
  5
F107A8
330
F107A9
100
AcDbEntity
8
Geo
100
AcDbLine
10
-97.6597739982804
20
-1.27704170361165
30
0.000000000000000
11
-97.5597739982804
21
-1.44982019626515
31
0.000000000000000
  0
LINE
  5
F107AA
330
F107AB
100
AcDbEntity
8
Geo
100
AcDbLine
10
-97.5597739982804
20
5.26491715123687
30
0.000000000000000
11
-97.4597739982804
21
5.17433582757181
31
0.000000000000000
  0
LINE
  5
F107AC
330
F107AD
100
AcDbEntity
8
Geo
100
AcDbLine
10
-97.5597739982804
20
-1.44982019626515
30
0.000000000000000
11
-97.4597739982804
21
-1.61923855252617
31
0.000000000000000
  0
LINE
  5
F107AE
330
F107AF
100
AcDbEntity
8
Geo
100
AcDbLine
10
-97.4597739982804
20
5.17433582757181
30
0.000000000000000
11
-97.3597739982804
21
5.07730228731081
31
0.000000000000000
  0
LINE
  5
F107B0
330
F107B1
100
AcDbEntity
8
Geo
100
AcDbLine
10
-97.4597739982804
20
-1.61923855252617
30
0.000000000000000
11
-97.3597739982804
21
-1.78504581322219
31
0.000000000000000
  0
LINE
  5
F107B2
330
F107B3
100
AcDbEntity
8
Geo
100
AcDbLine
10
-97.3597739982804
20
5.07730228731081
30
0.000000000000000
11
-97.2597739982804
21
4.97396026610041
31
0.000000000000000
  0
LINE
  5
F107B4
330
F107B5
100
AcDbEntity
8
Geo
100
AcDbLine
10
-97.3597739982804
20
-1.78504581322219
30
0.000000000000000
11
-97.2597739982804
21
-1.94699636829147
31
0.000000000000000
  0
LINE
  5
F107B6
330
F107B7
100
AcDbEntity
8
Geo
100
AcDbLine
10
-97.2597739982804
20
4.97396026610041
30
0.000000000000000
11
-97.1597739982804
21
4.86446284433106
31
0.000000000000000
  0
LINE
  5
F107B8
330
F107B9
100
AcDbEntity
8
Geo
100
AcDbLine
10
-97.2597739982804
20
-1.94699636829147
30
0.000000000000000
11
-97.1597739982804
21
-2.10485032060488
31
0.000000000000000
  0
LINE
  5
F107BA
330
F107BB
100
AcDbEntity
8
Geo
100
AcDbLine
10
-97.1597739982804
20
4.86446284433106
30
0.000000000000000
11
-97.0597739982804
21
4.74897222037943
31
0.000000000000000
  0
LINE
  5
F107BC
330
F107BD
100
AcDbEntity
8
Geo
100
AcDbLine
10
-97.1597739982804
20
-2.10485032060488
30
0.000000000000000
11
-97.0597739982804
21
-2.25837384132520
31
0.000000000000000
  0
LINE
  5
F107BE
330
F107BF
100
AcDbEntity
8
Geo
100
AcDbLine
10
-97.0597739982804
20
4.74897222037943
30
0.000000000000000
11
-96.9597739982804
21
4.62765947034409
31
0.000000000000000
  0
LINE
  5
F107C0
330
F107C1
100
AcDbEntity
8
Geo
100
AcDbLine
10
-97.0597739982804
20
-2.25837384132520
30
0.000000000000000
11
-96.9597739982804
21
-2.40733951627740
31
0.000000000000000
  0
LINE
  5
F107C2
330
F107C3
100
AcDbEntity
8
Geo
100
AcDbLine
10
-96.9597739982804
20
4.62765947034409
30
0.000000000000000
11
-96.8597739982804
21
4.50070429463083
31
0.000000000000000
  0
LINE
  5
F107C4
330
F107C5
100
AcDbEntity
8
Geo
100
AcDbLine
10
-96.9597739982804
20
-2.40733951627740
30
0.000000000000000
11
-96.8597739982804
21
-2.55152668281698
31
0.000000000000000
  0
LINE
  5
F107C6
330
F107C7
100
AcDbEntity
8
Geo
100
AcDbLine
10
-96.8597739982804
20
4.50070429463083
30
0.000000000000000
11
-96.7597739982804
21
4.36829475176261
31
0.000000000000000
  0
LINE
  5
F107C8
330
F107C9
100
AcDbEntity
8
Geo
100
AcDbLine
10
-96.8597739982804
20
-2.55152668281698
30
0.000000000000000
11
-96.7597739982804
21
-2.69072175669724
31
0.000000000000000
  0
LINE
  5
F107CA
330
F107CB
100
AcDbEntity
8
Geo
100
AcDbLine
10
-96.7597739982804
20
4.36829475176261
30
0.000000000000000
11
-96.6597739982804
21
4.23062697980880
31
0.000000000000000
  0
LINE
  5
F107CC
330
F107CD
100
AcDbEntity
8
Geo
100
AcDbLine
10
-96.7597739982804
20
-2.69072175669724
30
0.000000000000000
11
-96.6597739982804
21
-2.82471854845127
31
0.000000000000000
  0
LINE
  5
F107CE
330
F107CF
100
AcDbEntity
8
Geo
100
AcDbLine
10
-96.6597739982804
20
4.23062697980880
30
0.000000000000000
11
-96.5597739982804
21
4.08790490584610
31
0.000000000000000
  0
LINE
  5
F107D0
330
F107D1
100
AcDbEntity
8
Geo
100
AcDbLine
10
-96.6597739982804
20
-2.82471854845127
30
0.000000000000000
11
-96.5597739982804
21
-2.95331856882018
31
0.000000000000000
  0
LINE
  5
F107D2
330
F107D3
100
AcDbEntity
8
Geo
100
AcDbLine
10
-96.5597739982804
20
4.08790490584610
30
0.000000000000000
11
-96.4597739982804
21
3.94033994388164
31
0.000000000000000
  0
LINE
  5
F107D4
330
F107D5
100
AcDbEntity
8
Geo
100
AcDbLine
10
-96.5597739982804
20
-2.95331856882018
30
0.000000000000000
11
-96.4597739982804
21
-3.07633132277492
31
0.000000000000000
  0
LINE
  5
F107D6
330
F107D7
100
AcDbEntity
8
Geo
100
AcDbLine
10
-96.4597739982804
20
3.94033994388164
30
0.000000000000000
11
-96.3597739982804
21
3.78815068168577
31
0.000000000000000
  0
LINE
  5
F107D8
330
F107D9
100
AcDbEntity
8
Geo
100
AcDbLine
10
-96.4597739982804
20
-3.07633132277492
30
0.000000000000000
11
-96.3597739982804
21
-3.19357459169632
31
0.000000000000000
  0
LINE
  5
F107DA
330
F107DB
100
AcDbEntity
8
Geo
100
AcDbLine
10
-96.3597739982804
20
3.78815068168577
30
0.000000000000000
11
-96.2597739982804
21
3.63156255699820
31
0.000000000000000
  0
LINE
  5
F107DC
330
F107DD
100
AcDbEntity
8
Geo
100
AcDbLine
10
-96.3597739982804
20
-3.19357459169632
30
0.000000000000000
11
-96.2597739982804
21
-3.30487470329524
31
0.000000000000000
  0
LINE
  5
F107DE
330
F107DF
100
AcDbEntity
8
Geo
100
AcDbLine
10
-96.2597739982804
20
3.63156255699820
30
0.000000000000000
11
-96.1597739982804
21
3.47080752358752
31
0.000000000000000
  0
LINE
  5
F107E0
330
F107E1
100
AcDbEntity
8
Geo
100
AcDbLine
10
-96.2597739982804
20
-3.30487470329524
30
0.000000000000000
11
-96.1597739982804
21
-3.41006678887314
31
0.000000000000000
  0
LINE
  5
F107E2
330
F107E3
100
AcDbEntity
8
Geo
100
AcDbLine
10
-96.1597739982804
20
3.47080752358752
30
0.000000000000000
11
-96.0597739982804
21
3.30612370765828
31
0.000000000000000
  0
LINE
  5
F107E4
330
F107E5
100
AcDbEntity
8
Geo
100
AcDbLine
10
-96.1597739982804
20
-3.41006678887314
30
0.000000000000000
11
-96.0597739982804
21
-3.50899502754181
31
0.000000000000000
  0
LINE
  5
F107E6
330
F107E7
100
AcDbEntity
8
Geo
100
AcDbLine
10
-96.0597739982804
20
3.30612370765828
30
0.000000000000000
11
-95.9597739982804
21
3.13775505511508
31
0.000000000000000
  0
LINE
  5
F107E8
330
F107E9
100
AcDbEntity
8
Geo
100
AcDbLine
10
-96.0597739982804
20
-3.50899502754181
30
0.000000000000000
11
-95.9597739982804
21
-3.60151287704063
31
0.000000000000000
  0
LINE
  5
F107EA
330
F107EB
100
AcDbEntity
8
Geo
100
AcDbLine
10
-95.9597739982804
20
3.13775505511508
30
0.000000000000000
11
-95.8597739982804
21
2.96595097020579
31
0.000000000000000
  0
LINE
  5
F107EC
330
F107ED
100
AcDbEntity
8
Geo
100
AcDbLine
10
-95.9597739982804
20
-3.60151287704063
30
0.000000000000000
11
-95.8597739982804
21
-3.68748329080946
31
0.000000000000000
  0
LINE
  5
F107EE
330
F107EF
100
AcDbEntity
8
Geo
100
AcDbLine
10
-95.8597739982804
20
2.96595097020579
30
0.000000000000000
11
-95.7597739982804
21
2.79096594607943
31
0.000000000000000
  0
LINE
  5
F107F0
330
F107F1
100
AcDbEntity
8
Geo
100
AcDbLine
10
-95.8597739982804
20
-3.68748329080946
30
0.000000000000000
11
-95.7597739982804
21
-3.76677892099546
31
0.000000000000000
  0
LINE
  5
F107F2
330
F107F3
100
AcDbEntity
8
Geo
100
AcDbLine
10
-95.7597739982804
20
2.79096594607943
30
0.000000000000000
11
-95.6597739982804
21
2.61305918780576
31
0.000000000000000
  0
LINE
  5
F107F4
330
F107F5
100
AcDbEntity
8
Geo
100
AcDbLine
10
-95.7597739982804
20
-3.76677892099546
30
0.000000000000000
11
-95.6597739982804
21
-3.83928230709332
31
0.000000000000000
  0
LINE
  5
F107F6
330
F107F7
100
AcDbEntity
8
Geo
100
AcDbLine
10
-95.6597739982804
20
2.61305918780576
30
0.000000000000000
11
-95.5597739982804
21
2.43249422841526
31
0.000000000000000
  0
LINE
  5
F107F8
330
F107F9
100
AcDbEntity
8
Geo
100
AcDbLine
10
-95.6597739982804
20
-3.83928230709332
30
0.000000000000000
11
-95.5597739982804
21
-3.90488604993933
31
0.000000000000000
  0
LINE
  5
F107FA
330
F107FB
100
AcDbEntity
8
Geo
100
AcDbLine
10
-95.5597739982804
20
2.43249422841526
30
0.000000000000000
11
-95.4597739982804
21
2.24953853852794
31
0.000000000000000
  0
LINE
  5
F107FC
330
F107FD
100
AcDbEntity
8
Geo
100
AcDbLine
10
-95.5597739982804
20
-3.90488604993933
30
0.000000000000000
11
-95.4597739982804
21
-3.96349297080161
31
0.000000000000000
  0
LINE
  5
F107FE
330
F107FF
100
AcDbEntity
8
Geo
100
AcDbLine
10
-95.4597739982804
20
2.24953853852794
30
0.000000000000000
11
-95.3597739982804
21
2.06446313014957
31
0.000000000000000
  0
LINE
  5
F10800
330
F10801
100
AcDbEntity
8
Geo
100
AcDbLine
10
-95.4597739982804
20
-3.96349297080161
30
0.000000000000000
11
-95.3597739982804
21
-4.01501625533083
31
0.000000000000000
  0
LINE
  5
F10802
330
F10803
100
AcDbEntity
8
Geo
100
AcDbLine
10
-95.3597739982804
20
2.06446313014957
30
0.000000000000000
11
-95.2597739982804
21
1.87754215522190
31
0.000000000000000
  0
LINE
  5
F10804
330
F10805
100
AcDbEntity
8
Geo
100
AcDbLine
10
-95.3597739982804
20
-4.01501625533083
30
0.000000000000000
11
-95.2597739982804
21
-4.05937958215818
31
0.000000000000000
  0
LINE
  5
F10806
330
F10807
100
AcDbEntity
8
Geo
100
AcDbLine
10
-95.2597739982804
20
1.87754215522190
30
0.000000000000000
11
-95.1597739982804
21
1.68905249952184
31
0.000000000000000
  0
LINE
  5
F10808
330
F10809
100
AcDbEntity
8
Geo
100
AcDbLine
10
-95.2597739982804
20
-4.05937958215818
30
0.000000000000000
11
-95.1597739982804
21
-4.09651723595012
31
0.000000000000000
  0
LINE
  5
F1080A
330
F1080B
100
AcDbEntity
8
Geo
100
AcDbLine
10
-95.1597739982804
20
1.68905249952184
30
0.000000000000000
11
-95.0597739982804
21
1.49927337251088
31
0.000000000000000
  0
LINE
  5
F1080C
330
F1080D
100
AcDbEntity
8
Geo
100
AcDbLine
10
-95.1597739982804
20
-4.09651723595012
30
0.000000000000000
11
-95.0597739982804
21
-4.12637420475239
31
0.000000000000000
  0
LINE
  5
F1080E
330
F1080F
100
AcDbEntity
8
Geo
100
AcDbLine
10
-95.0597739982804
20
1.49927337251088
30
0.000000000000000
11
-94.9597739982804
21
1.30848589374259
31
0.000000000000000
  0
LINE
  5
F10810
330
F10811
100
AcDbEntity
8
Geo
100
AcDbLine
10
-95.0597739982804
20
-4.12637420475239
30
0.000000000000000
11
-94.9597739982804
21
-4.14890626147916
31
0.000000000000000
  0
LINE
  5
F10812
330
F10813
100
AcDbEntity
8
Geo
100
AcDbLine
10
-94.9597739982804
20
1.30848589374259
30
0.000000000000000
11
-94.8597739982804
21
1.11697267644055
31
0.000000000000000
  0
LINE
  5
F10814
330
F10815
100
AcDbEntity
8
Geo
100
AcDbLine
10
-94.9597739982804
20
-4.14890626147916
30
0.000000000000000
11
-94.8597739982804
21
-4.16408002942653
31
0.000000000000000
  0
LINE
  5
F10816
330
F10817
100
AcDbEntity
8
Geo
100
AcDbLine
10
-94.8597739982804
20
1.11697267644055
30
0.000000000000000
11
-94.7597739982804
21
0.925017408863811
31
0.000000000000000
  0
LINE
  5
F10818
330
F10819
100
AcDbEntity
8
Geo
100
AcDbLine
10
-94.8597739982804
20
-4.16408002942653
30
0.000000000000000
11
-94.7597739982804
21
-4.17187303171342
31
0.000000000000000
  0
LINE
  5
F1081A
330
F1081B
100
AcDbEntity
8
Geo
100
AcDbLine
10
-94.7597739982804
20
0.925017408863811
30
0.000000000000000
11
-94.6597739982804
21
0.732904434079886
31
0.000000000000000
  0
LINE
  5
F1081C
330
F1081D
100
AcDbEntity
8
Geo
100
AcDbLine
10
-94.6597739982804
20
0.732904434079886
30
0.000000000000000
11
-94.5597739982804
21
0.540918328767739
31
0.000000000000000
  0
LINE
  5
F1081E
330
F1081F
100
AcDbEntity
8
Geo
100
AcDbLine
10
-94.6597739982804
20
5.80937752611666
30
0.000000000000000
11
-94.5597739982804
21
5.80238531601017
31
0.000000000000000
  0
LINE
  5
F10820
330
F10821
100
AcDbEntity
8
Geo
100
AcDbLine
10
-94.5597739982804
20
0.540918328767739
30
0.000000000000000
11
-94.4597739982804
21
0.349343481674771
31
0.000000000000000
  0
LINE
  5
F10822
330
F10823
100
AcDbEntity
8
Geo
100
AcDbLine
10
-94.5597739982804
20
5.80238531601017
30
0.000000000000000
11
-94.4597739982804
21
5.78801056048510
31
0.000000000000000
  0
LINE
  5
F10824
330
F10825
100
AcDbEntity
8
Geo
100
AcDbLine
10
-94.4597739982804
20
0.349343481674771
30
0.000000000000000
11
-94.3597739982804
21
0.158463672352159
31
0.000000000000000
  0
LINE
  5
F10826
330
F10827
100
AcDbEntity
8
Geo
100
AcDbLine
10
-94.4597739982804
20
5.78801056048510
30
0.000000000000000
11
-94.3597739982804
21
5.76627455284655
31
0.000000000000000
  0
LINE
  5
F10828
330
F10829
100
AcDbEntity
8
Geo
100
AcDbLine
10
-94.3597739982804
20
0.158463672352159
30
0.000000000000000
11
-94.2597739982804
21
-0.0314383492073884
31
0.000000000000000
  0
LINE
  5
F1082A
330
F1082B
100
AcDbEntity
8
Geo
100
AcDbLine
10
-94.3597739982804
20
5.76627455284655
30
0.000000000000000
11
-94.2597739982804
21
5.73720949061202
31
0.000000000000000
  0
LINE
  5
F1082C
330
F1082D
100
AcDbEntity
8
Geo
100
AcDbLine
10
-94.2597739982804
20
-0.0314383492073884
30
0.000000000000000
11
-94.1597739982804
21
-0.220081281406801
31
0.000000000000000
  0
LINE
  5
F1082E
330
F1082F
100
AcDbEntity
8
Geo
100
AcDbLine
10
-94.2597739982804
20
5.73720949061202
30
0.000000000000000
11
-94.1597739982804
21
5.70085842781727
31
0.000000000000000
  0
LINE
  5
F10830
330
F10831
100
AcDbEntity
8
Geo
100
AcDbLine
10
-94.1597739982804
20
-0.220081281406801
30
0.000000000000000
11
-94.0597739982804
21
-0.407185687736302
31
0.000000000000000
  0
LINE
  5
F10832
330
F10833
100
AcDbEntity
8
Geo
100
AcDbLine
10
-94.1597739982804
20
5.70085842781727
30
0.000000000000000
11
-94.0597739982804
21
5.65727521124042
31
0.000000000000000
  0
LINE
  5
F10834
330
F10835
100
AcDbEntity
8
Geo
100
AcDbLine
10
-94.0597739982804
20
-0.407185687736302
30
0.000000000000000
11
-93.9597739982804
21
-0.592474410702319
31
0.000000000000000
  0
LINE
  5
F10836
330
F10837
100
AcDbEntity
8
Geo
100
AcDbLine
10
-94.0597739982804
20
5.65727521124042
30
0.000000000000000
11
-93.9597739982804
21
5.60652440063880
31
0.000000000000000
  0
LINE
  5
F10838
330
F10839
100
AcDbEntity
8
Geo
100
AcDbLine
10
-93.9597739982804
20
-0.592474410702319
30
0.000000000000000
11
-93.8597739982804
21
-0.775672982380493
31
0.000000000000000
  0
LINE
  5
F1083A
330
F1083B
100
AcDbEntity
8
Geo
100
AcDbLine
10
-93.9597739982804
20
5.60652440063880
30
0.000000000000000
11
-93.8597739982804
21
5.54868117311667
31
0.000000000000000
  0
LINE
  5
F1083C
330
F1083D
100
AcDbEntity
8
Geo
100
AcDbLine
10
-93.8597739982804
20
-0.775672982380493
30
0.000000000000000
11
-93.7597739982804
21
-0.956510030984617
31
0.000000000000000
  0
LINE
  5
F1083E
330
F1083F
100
AcDbEntity
8
Geo
100
AcDbLine
10
-93.8597739982804
20
5.54868117311667
30
0.000000000000000
11
-93.7597739982804
21
5.48383121176549
31
0.000000000000000
  0
LINE
  5
F10840
330
F10841
100
AcDbEntity
8
Geo
100
AcDbLine
10
-93.7597739982804
20
-0.956510030984617
30
0.000000000000000
11
-93.6597739982804
21
-1.13471768284929
31
0.000000000000000
  0
LINE
  5
F10842
330
F10843
100
AcDbEntity
8
Geo
100
AcDbLine
10
-93.7597739982804
20
5.48383121176549
30
0.000000000000000
11
-93.6597739982804
21
5.41207057874168
31
0.000000000000000
  0
LINE
  5
F10844
330
F10845
100
AcDbEntity
8
Geo
100
AcDbLine
10
-93.6597739982804
20
-1.13471768284929
30
0.000000000000000
11
-93.5597739982804
21
-1.31003195923081
31
0.000000000000000
  0
LINE
  5
F10846
330
F10847
100
AcDbEntity
8
Geo
100
AcDbLine
10
-93.6597739982804
20
5.41207057874168
30
0.000000000000000
11
-93.5597739982804
21
5.33350557296986
31
0.000000000000000
  0
LINE
  5
F10848
330
F10849
100
AcDbEntity
8
Geo
100
AcDbLine
10
-93.5597739982804
20
-1.31003195923081
30
0.000000000000000
11
-93.4597739982804
21
-1.48219316733847
31
0.000000000000000
  0
LINE
  5
F1084A
330
F1084B
100
AcDbEntity
8
Geo
100
AcDbLine
10
-93.5597739982804
20
5.33350557296986
30
0.000000000000000
11
-93.4597739982804
21
5.24825257268243
31
0.000000000000000
  0
LINE
  5
F1084C
330
F1084D
100
AcDbEntity
8
Geo
100
AcDbLine
10
-93.4597739982804
20
-1.48219316733847
30
0.000000000000000
11
-93.3597739982804
21
-1.65094628501720
31
0.000000000000000
  0
LINE
  5
F1084E
330
F1084F
100
AcDbEntity
8
Geo
100
AcDbLine
10
-93.4597739982804
20
5.24825257268243
30
0.000000000000000
11
-93.3597739982804
21
5.15643786302864
31
0.000000000000000
  0
LINE
  5
F10850
330
F10851
100
AcDbEntity
8
Geo
100
AcDbLine
10
-93.3597739982804
20
-1.65094628501720
30
0.000000000000000
11
-93.2597739982804
21
-1.81604133851145
31
0.000000000000000
  0
LINE
  5
F10852
330
F10853
100
AcDbEntity
8
Geo
100
AcDbLine
10
-93.3597739982804
20
5.15643786302864
30
0.000000000000000
11
-93.2597739982804
21
5.05819744900859
31
0.000000000000000
  0
LINE
  5
F10854
330
F10855
100
AcDbEntity
8
Geo
100
AcDbLine
10
-93.2597739982804
20
-1.81604133851145
30
0.000000000000000
11
-93.1597739982804
21
-1.97723377275100
31
0.000000000000000
  0
LINE
  5
F10856
330
F10857
100
AcDbEntity
8
Geo
100
AcDbLine
10
-93.2597739982804
20
5.05819744900859
30
0.000000000000000
11
-93.1597739982804
21
4.95367685400920
31
0.000000000000000
  0
LINE
  5
F10858
330
F10859
100
AcDbEntity
8
Geo
100
AcDbLine
10
-93.1597739982804
20
-1.97723377275100
30
0.000000000000000
11
-93.0597739982804
21
-2.13428481361005
31
0.000000000000000
  0
LINE
  5
F1085A
330
F1085B
100
AcDbEntity
8
Geo
100
AcDbLine
10
-93.1597739982804
20
4.95367685400920
30
0.000000000000000
11
-93.0597739982804
21
4.84303090424063
31
0.000000000000000
  0
LINE
  5
F1085C
330
F1085D
100
AcDbEntity
8
Geo
100
AcDbLine
10
-93.0597739982804
20
-2.13428481361005
30
0.000000000000000
11
-92.9597739982804
21
-2.28696182160297
31
0.000000000000000
  0
LINE
  5
F1085E
330
F1085F
100
AcDbEntity
8
Geo
100
AcDbLine
10
-93.0597739982804
20
4.84303090424063
30
0.000000000000000
11
-92.9597739982804
21
4.72642349939243
31
0.000000000000000
  0
LINE
  5
F10860
330
F10861
100
AcDbEntity
8
Geo
100
AcDbLine
10
-92.9597739982804
20
-2.28696182160297
30
0.000000000000000
11
-92.8597739982804
21
-2.43503863649285
31
0.000000000000000
  0
LINE
  5
F10862
330
F10863
100
AcDbEntity
8
Geo
100
AcDbLine
10
-92.9597739982804
20
4.72642349939243
30
0.000000000000000
11
-92.8597739982804
21
4.60402736984918
31
0.000000000000000
  0
LINE
  5
F10864
330
F10865
100
AcDbEntity
8
Geo
100
AcDbLine
10
-92.8597739982804
20
-2.43503863649285
30
0.000000000000000
11
-92.7597739982804
21
-2.57829591230235
31
0.000000000000000
  0
LINE
  5
F10866
330
F10867
100
AcDbEntity
8
Geo
100
AcDbLine
10
-92.8597739982804
20
4.60402736984918
30
0.000000000000000
11
-92.7597739982804
21
4.47602382082518
31
0.000000000000000
  0
LINE
  5
F10868
330
F10869
100
AcDbEntity
8
Geo
100
AcDbLine
10
-92.7597739982804
20
-2.57829591230235
30
0.000000000000000
11
-92.6597739982804
21
-2.71652144223059
31
0.000000000000000
  0
LINE
  5
F1086A
330
F1086B
100
AcDbEntity
8
Geo
100
AcDbLine
10
-92.7597739982804
20
4.47602382082518
30
0.000000000000000
11
-92.6597739982804
21
4.34260246379732
31
0.000000000000000
  0
LINE
  5
F1086C
330
F1086D
100
AcDbEntity
8
Geo
100
AcDbLine
10
-92.6597739982804
20
-2.71652144223059
30
0.000000000000000
11
-92.5597739982804
21
-2.84951047299477
31
0.000000000000000
  0
LINE
  5
F1086E
330
F1086F
100
AcDbEntity
8
Geo
100
AcDbLine
10
-92.6597739982804
20
4.34260246379732
30
0.000000000000000
11
-92.5597739982804
21
4.20396093563383
31
0.000000000000000
  0
LINE
  5
F10870
330
F10871
100
AcDbEntity
8
Geo
100
AcDbLine
10
-92.5597739982804
20
-2.84951047299477
30
0.000000000000000
11
-92.4597739982804
21
-2.97706600813091
31
0.000000000000000
  0
LINE
  5
F10872
330
F10873
100
AcDbEntity
8
Geo
100
AcDbLine
10
-92.5597739982804
20
4.20396093563383
30
0.000000000000000
11
-92.4597739982804
21
4.06030460583514
31
0.000000000000000
  0
LINE
  5
F10874
330
F10875
100
AcDbEntity
8
Geo
100
AcDbLine
10
-92.4597739982804
20
-2.97706600813091
30
0.000000000000000
11
-92.3597739982804
21
-3.09899909980448
31
0.000000000000000
  0
LINE
  5
F10876
330
F10877
100
AcDbEntity
8
Geo
100
AcDbLine
10
-92.4597739982804
20
4.06030460583514
30
0.000000000000000
11
-92.3597739982804
21
3.91184627232023
31
0.000000000000000
  0
LINE
  5
F10878
330
F10879
100
AcDbEntity
8
Geo
100
AcDbLine
10
-92.3597739982804
20
-3.09899909980448
30
0.000000000000000
11
-92.2597739982804
21
-3.21512912869851
31
0.000000000000000
  0
LINE
  5
F1087A
330
F1087B
100
AcDbEntity
8
Geo
100
AcDbLine
10
-92.3597739982804
20
3.91184627232023
30
0.000000000000000
11
-92.2597739982804
21
3.75880584620944
31
0.000000000000000
  0
LINE
  5
F1087C
330
F1087D
100
AcDbEntity
8
Geo
100
AcDbLine
10
-92.2597739982804
20
-3.21512912869851
30
0.000000000000000
11
-92.1597739982804
21
-3.32528407156477
31
0.000000000000000
  0
LINE
  5
F1087E
330
F1087F
100
AcDbEntity
8
Geo
100
AcDbLine
10
-92.2597739982804
20
3.75880584620944
30
0.000000000000000
11
-92.1597739982804
21
3.60141002607044
31
0.000000000000000
  0
LINE
  5
F10880
330
F10881
100
AcDbEntity
8
Geo
100
AcDbLine
10
-92.1597739982804
20
-3.32528407156477
30
0.000000000000000
11
-92.0597739982804
21
-3.42930075604154
31
0.000000000000000
  0
LINE
  5
F10882
330
F10883
100
AcDbEntity
8
Geo
100
AcDbLine
10
-92.1597739982804
20
3.60141002607044
30
0.000000000000000
11
-92.0597739982804
21
3.43989196210990
31
0.000000000000000
  0
LINE
  5
F10884
330
F10885
100
AcDbEntity
8
Geo
100
AcDbLine
10
-92.0597739982804
20
-3.42930075604154
30
0.000000000000000
11
-91.9597739982804
21
-3.52702510236059
31
0.000000000000000
  0
LINE
  5
F10886
330
F10887
100
AcDbEntity
8
Geo
100
AcDbLine
10
-92.0597739982804
20
3.43989196210990
30
0.000000000000000
11
-91.9597739982804
21
3.27449091080848
31
0.000000000000000
  0
LINE
  5
F10888
330
F10889
100
AcDbEntity
8
Geo
100
AcDbLine
10
-91.9597739982804
20
-3.52702510236059
30
0.000000000000000
11
-91.8597739982804
21
-3.61831235158537
31
0.000000000000000
  0
LINE
  5
F1088A
330
F1088B
100
AcDbEntity
8
Geo
100
AcDbLine
10
-91.9597739982804
20
3.27449091080848
30
0.000000000000000
11
-91.8597739982804
21
3.10545188051053
31
0.000000000000000
  0
LINE
  5
F1088C
330
F1088D
100
AcDbEntity
8
Geo
100
AcDbLine
10
-91.8597739982804
20
-3.61831235158537
30
0.000000000000000
11
-91.7597739982804
21
-3.70302728004217
31
0.000000000000000
  0
LINE
  5
F1088E
330
F1088F
100
AcDbEntity
8
Geo
100
AcDbLine
10
-91.8597739982804
20
3.10545188051053
30
0.000000000000000
11
-91.7597739982804
21
2.93302526849354
31
0.000000000000000
  0
LINE
  5
F10890
330
F10891
100
AcDbEntity
8
Geo
100
AcDbLine
10
-91.7597739982804
20
-3.70302728004217
30
0.000000000000000
11
-91.6597739982804
21
-3.78104439962679
31
0.000000000000000
  0
LINE
  5
F10892
330
F10893
100
AcDbEntity
8
Geo
100
AcDbLine
10
-91.7597739982804
20
2.93302526849354
30
0.000000000000000
11
-91.6597739982804
21
2.75746649005503
31
0.000000000000000
  0
LINE
  5
F10894
330
F10895
100
AcDbEntity
8
Geo
100
AcDbLine
10
-91.6597739982804
20
-3.78104439962679
30
0.000000000000000
11
-91.5597739982804
21
-3.85224814368986
31
0.000000000000000
  0
LINE
  5
F10896
330
F10897
100
AcDbEntity
8
Geo
100
AcDbLine
10
-91.6597739982804
20
2.75746649005503
30
0.000000000000000
11
-91.5597739982804
21
2.57903560016626
31
0.000000000000000
  0
LINE
  5
F10898
330
F10899
100
AcDbEntity
8
Geo
100
AcDbLine
10
-91.5597739982804
20
-3.85224814368986
30
0.000000000000000
11
-91.4597739982804
21
-3.91653303822558
31
0.000000000000000
  0
LINE
  5
F1089A
330
F1089B
100
AcDbEntity
8
Geo
100
AcDbLine
10
-91.5597739982804
20
2.57903560016626
30
0.000000000000000
11
-91.4597739982804
21
2.39799690825309
31
0.000000000000000
  0
LINE
  5
F1089C
330
F1089D
100
AcDbEntity
8
Geo
100
AcDbLine
10
-91.4597739982804
20
-3.91653303822558
30
0.000000000000000
11
-91.3597739982804
21
-3.97380385811024
31
0.000000000000000
  0
LINE
  5
F1089E
330
F1089F
100
AcDbEntity
8
Geo
100
AcDbLine
10
-91.4597739982804
20
2.39799690825309
30
0.000000000000000
11
-91.3597739982804
21
2.21461858667489
31
0.000000000000000
  0
LINE
  5
F108A0
330
F108A1
100
AcDbEntity
8
Geo
100
AcDbLine
10
-91.3597739982804
20
-3.97380385811024
30
0.000000000000000
11
-91.2597739982804
21
-4.02397576815898
31
0.000000000000000
  0
LINE
  5
F108A2
330
F108A3
100
AcDbEntity
8
Geo
100
AcDbLine
10
-91.3597739982804
20
2.21461858667489
30
0.000000000000000
11
-91.2597739982804
21
2.02917227348112
31
0.000000000000000
  0
LINE
  5
F108A4
330
F108A5
100
AcDbEntity
8
Geo
100
AcDbLine
10
-91.2597739982804
20
-4.02397576815898
30
0.000000000000000
11
-91.1597739982804
21
-4.06697444879213
31
0.000000000000000
  0
LINE
  5
F108A6
330
F108A7
100
AcDbEntity
8
Geo
100
AcDbLine
10
-91.2597739982804
20
2.02917227348112
30
0.000000000000000
11
-91.1597739982804
21
1.84193267003434
31
0.000000000000000
  0
LINE
  5
F108A8
330
F108A9
100
AcDbEntity
8
Geo
100
AcDbLine
10
-91.1597739982804
20
-4.06697444879213
30
0.000000000000000
11
-91.0597739982804
21
-4.10273620612462
31
0.000000000000000
  0
LINE
  5
F108AA
330
F108AB
100
AcDbEntity
8
Geo
100
AcDbLine
10
-91.1597739982804
20
1.84193267003434
30
0.000000000000000
11
-91.0597739982804
21
1.65317713409541
31
0.000000000000000
  0
LINE
  5
F108AC
330
F108AD
100
AcDbEntity
8
Geo
100
AcDbLine
10
-91.0597739982804
20
-4.10273620612462
30
0.000000000000000
11
-90.9597739982804
21
-4.13120806631568
31
0.000000000000000
  0
LINE
  5
F108AE
330
F108AF
100
AcDbEntity
8
Geo
100
AcDbLine
10
-91.0597739982804
20
1.65317713409541
30
0.000000000000000
11
-90.9597739982804
21
1.46318526897387
31
0.000000000000000
  0
LINE
  5
F108B0
330
F108B1
100
AcDbEntity
8
Geo
100
AcDbLine
10
-90.9597739982804
20
-4.13120806631568
30
0.000000000000000
11
-90.8597739982804
21
-4.15234785403891
31
0.000000000000000
  0
LINE
  5
F108B2
330
F108B3
100
AcDbEntity
8
Geo
100
AcDbLine
10
-90.9597739982804
20
1.46318526897387
30
0.000000000000000
11
-90.8597739982804
21
1.27223850935194
31
0.000000000000000
  0
LINE
  5
F108B4
330
F108B5
100
AcDbEntity
8
Geo
100
AcDbLine
10
-90.8597739982804
20
-4.15234785403891
30
0.000000000000000
11
-90.7597739982804
21
-4.16612425495653
31
0.000000000000000
  0
LINE
  5
F108B6
330
F108B7
100
AcDbEntity
8
Geo
100
AcDbLine
10
-90.8597739982804
20
1.27223850935194
30
0.000000000000000
11
-90.7597739982804
21
1.08061970439570
31
0.000000000000000
  0
LINE
  5
F108B8
330
F108B9
100
AcDbEntity
8
Geo
100
AcDbLine
10
-90.7597739982804
20
-4.16612425495653
30
0.000000000000000
11
-90.6597739982804
21
-4.17251686210527
31
0.000000000000000
  0
LINE
  5
F108BA
330
F108BB
100
AcDbEntity
8
Geo
100
AcDbLine
10
-90.7597739982804
20
1.08061970439570
30
0.000000000000000
11
-90.6597739982804
21
0.888612698771059
31
0.000000000000000
  0
LINE
  5
F108BC
330
F108BD
100
AcDbEntity
8
Geo
100
AcDbLine
10
-90.6597739982804
20
0.888612698771059
30
0.000000000000000
11
-90.5597739982804
21
0.696501912185010
31
0.000000000000000
  0
LINE
  5
F108BE
330
F108BF
100
AcDbEntity
8
Geo
100
AcDbLine
10
-90.5597739982804
20
5.80862000766530
30
0.000000000000000
11
-90.4597739982804
21
5.80022757082663
31
0.000000000000000
  0
LINE
  5
F108C0
330
F108C1
100
AcDbEntity
8
Geo
100
AcDbLine
10
-90.5597739982804
20
0.696501912185010
30
0.000000000000000
11
-90.4597739982804
21
0.504571918075156
31
0.000000000000000
  0
LINE
  5
F108C2
330
F108C3
100
AcDbEntity
8
Geo
100
AcDbLine
10
-90.4597739982804
20
5.80022757082663
30
0.000000000000000
11
-90.3597739982804
21
5.78445578483427
31
0.000000000000000
  0
LINE
  5
F108C4
330
F108C5
100
AcDbEntity
8
Geo
100
AcDbLine
10
-90.4597739982804
20
0.504571918075156
30
0.000000000000000
11
-90.3597739982804
21
0.313107022071448
31
0.000000000000000
  0
LINE
  5
F108C6
330
F108C7
100
AcDbEntity
8
Geo
100
AcDbLine
10
-90.3597739982804
20
5.78445578483427
30
0.000000000000000
11
-90.2597739982804
21
5.76132801241260
31
0.000000000000000
  0
LINE
  5
F108C8
330
F108C9
100
AcDbEntity
8
Geo
100
AcDbLine
10
-90.3597739982804
20
0.313107022071448
30
0.000000000000000
11
-90.2597739982804
21
0.122390840854670
31
0.000000000000000
  0
LINE
  5
F108CA
330
F108CB
100
AcDbEntity
8
Geo
100
AcDbLine
10
-90.2597739982804
20
5.76132801241260
30
0.000000000000000
11
-90.1597739982804
21
5.73087851269833
31
0.000000000000000
  0
LINE
  5
F108CC
330
F108CD
100
AcDbEntity
8
Geo
100
AcDbLine
10
-90.2597739982804
20
0.122390840854670
30
0.000000000000000
11
-90.1597739982804
21
-0.0672941179645534
31
0.000000000000000
  0
LINE
  5
F108CE
330
F108CF
100
AcDbEntity
8
Geo
100
AcDbLine
10
-90.1597739982804
20
5.73087851269833
30
0.000000000000000
11
-90.0597739982804
21
5.69315239049251
31
0.000000000000000
  0
LINE
  5
F108D0
330
F108D1
100
AcDbEntity
8
Geo
100
AcDbLine
10
-90.1597739982804
20
-0.0672941179645534
30
0.000000000000000
11
-90.0597739982804
21
-0.255666874323881
31
0.000000000000000
  0
LINE
  5
F108D2
330
F108D3
100
AcDbEntity
8
Geo
100
AcDbLine
10
-90.0597739982804
20
5.69315239049251
30
0.000000000000000
11
-89.9597739982804
21
5.64820552944682
31
0.000000000000000
  0
LINE
  5
F108D4
330
F108D5
100
AcDbEntity
8
Geo
100
AcDbLine
10
-90.0597739982804
20
-0.255666874323881
30
0.000000000000000
11
-89.9597739982804
21
-0.442448391924630
31
0.000000000000000
  0
LINE
  5
F108D6
330
F108D7
100
AcDbEntity
8
Geo
100
AcDbLine
10
-89.9597739982804
20
5.64820552944682
30
0.000000000000000
11
-89.8597739982804
21
5.59610450928322
31
0.000000000000000
  0
LINE
  5
F108D8
330
F108D9
100
AcDbEntity
8
Geo
100
AcDbLine
10
-89.9597739982804
20
-0.442448391924630
30
0.000000000000000
11
-89.8597739982804
21
-0.627361991567847
31
0.000000000000000
  0
LINE
  5
F108DA
330
F108DB
100
AcDbEntity
8
Geo
100
AcDbLine
10
-89.8597739982804
20
5.59610450928322
30
0.000000000000000
11
-89.7597739982804
21
5.53692650716951
31
0.000000000000000
  0
LINE
  5
F108DC
330
F108DD
100
AcDbEntity
8
Geo
100
AcDbLine
10
-89.8597739982804
20
-0.627361991567847
30
0.000000000000000
11
-89.7597739982804
21
-0.810133760998820
31
0.000000000000000
  0
LINE
  5
F108DE
330
F108DF
100
AcDbEntity
8
Geo
100
AcDbLine
10
-89.7597739982804
20
5.53692650716951
30
0.000000000000000
11
-89.6597739982804
21
5.47075918339686
31
0.000000000000000
  0
LINE
  5
F108E0
330
F108E1
100
AcDbEntity
8
Geo
100
AcDbLine
10
-89.7597739982804
20
-0.810133760998820
30
0.000000000000000
11
-89.6597739982804
21
-0.990492960652912
31
0.000000000000000
  0
LINE
  5
F108E2
330
F108E3
100
AcDbEntity
8
Geo
100
AcDbLine
10
-89.6597739982804
20
5.47075918339686
30
0.000000000000000
11
-89.5597739982804
21
5.39770055152878
31
0.000000000000000
  0
LINE
  5
F108E4
330
F108E5
100
AcDbEntity
8
Geo
100
AcDbLine
10
-89.6597739982804
20
-0.990492960652912
30
0.000000000000000
11
-89.5597739982804
21
-1.16817242470170
31
0.000000000000000
  0
LINE
  5
F108E6
330
F108E7
100
AcDbEntity
8
Geo
100
AcDbLine
10
-89.5597739982804
20
5.39770055152878
30
0.000000000000000
11
-89.4597739982804
21
5.31785883321377
31
0.000000000000000
  0
LINE
  5
F108E8
330
F108E9
100
AcDbEntity
8
Geo
100
AcDbLine
10
-89.5597739982804
20
-1.16817242470170
30
0.000000000000000
11
-89.4597739982804
21
-1.34290895680534
31
0.000000000000000
  0
LINE
  5
F108EA
330
F108EB
100
AcDbEntity
8
Geo
100
AcDbLine
10
-89.4597739982804
20
5.31785883321377
30
0.000000000000000
11
-89.3597739982804
21
5.23135229787672
31
0.000000000000000
  0
LINE
  5
F108EC
330
F108ED
100
AcDbEntity
8
Geo
100
AcDbLine
10
-89.4597739982804
20
-1.34290895680534
30
0.000000000000000
11
-89.3597739982804
21
-1.51444371998493
31
0.000000000000000
  0
LINE
  5
F108EE
330
F108EF
100
AcDbEntity
8
Geo
100
AcDbLine
10
-89.3597739982804
20
5.23135229787672
30
0.000000000000000
11
-89.2597739982804
21
5.13830908752657
31
0.000000000000000
  0
LINE
  5
F108F0
330
F108F1
100
AcDbEntity
8
Geo
100
AcDbLine
10
-89.3597739982804
20
-1.51444371998493
30
0.000000000000000
11
-89.2597739982804
21
-1.68252262003737
31
0.000000000000000
  0
LINE
  5
F108F2
330
F108F3
100
AcDbEntity
8
Geo
100
AcDbLine
10
-89.2597739982804
20
5.13830908752657
30
0.000000000000000
11
-89.1597739982804
21
5.03886702693978
31
0.000000000000000
  0
LINE
  5
F108F4
330
F108F5
100
AcDbEntity
8
Geo
100
AcDbLine
10
-89.2597739982804
20
-1.68252262003737
30
0.000000000000000
11
-89.1597739982804
21
-1.84689668192474
31
0.000000000000000
  0
LINE
  5
F108F6
330
F108F7
100
AcDbEntity
8
Geo
100
AcDbLine
10
-89.1597739982804
20
5.03886702693978
30
0.000000000000000
11
-89.0597739982804
21
4.93317341950063
31
0.000000000000000
  0
LINE
  5
F108F8
330
F108F9
100
AcDbEntity
8
Geo
100
AcDbLine
10
-89.1597739982804
20
-1.84689668192474
30
0.000000000000000
11
-89.0597739982804
21
-2.00732241858068
31
0.000000000000000
  0
LINE
  5
F108FA
330
F108FB
100
AcDbEntity
8
Geo
100
AcDbLine
10
-89.0597739982804
20
4.93317341950063
30
0.000000000000000
11
-88.9597739982804
21
4.82138482900096
31
0.000000000000000
  0
LINE
  5
F108FC
330
F108FD
100
AcDbEntity
8
Geo
100
AcDbLine
10
-89.0597739982804
20
-2.00732241858068
30
0.000000000000000
11
-88.9597739982804
21
-2.16356219158742
31
0.000000000000000
  0
LINE
  5
F108FE
330
F108FF
100
AcDbEntity
8
Geo
100
AcDbLine
10
-88.9597739982804
20
4.82138482900096
30
0.000000000000000
11
-88.8597739982804
21
4.70366684772244
31
0.000000000000000
  0
LINE
  5
F10900
330
F10901
100
AcDbEntity
8
Geo
100
AcDbLine
10
-88.9597739982804
20
-2.16356219158742
30
0.000000000000000
11
-88.8597739982804
21
-2.31538456318926
31
0.000000000000000
  0
LINE
  5
F10902
330
F10903
100
AcDbEntity
8
Geo
100
AcDbLine
10
-88.8597739982804
20
4.70366684772244
30
0.000000000000000
11
-88.7597739982804
21
4.58019385114493
31
0.000000000000000
  0
LINE
  5
F10904
330
F10905
100
AcDbEntity
8
Geo
100
AcDbLine
10
-88.8597739982804
20
-2.31538456318926
30
0.000000000000000
11
-88.7597739982804
21
-2.46256463912099
31
0.000000000000000
  0
LINE
  5
F10906
330
F10907
100
AcDbEntity
8
Geo
100
AcDbLine
10
-88.7597739982804
20
4.58019385114493
30
0.000000000000000
11
-88.6597739982804
21
4.45114873964435
31
0.000000000000000
  0
LINE
  5
F10908
330
F10909
100
AcDbEntity
8
Geo
100
AcDbLine
10
-88.7597739982804
20
-2.46256463912099
30
0.000000000000000
11
-88.6597739982804
21
-2.60488440174342
31
0.000000000000000
  0
LINE
  5
F1090A
330
F1090B
100
AcDbEntity
8
Geo
100
AcDbLine
10
-88.6597739982804
20
4.45114873964435
30
0.000000000000000
11
-88.5597739982804
21
4.31672266756263
31
0.000000000000000
  0
LINE
  5
F1090C
330
F1090D
100
AcDbEntity
8
Geo
100
AcDbLine
10
-88.6597739982804
20
-2.60488440174342
30
0.000000000000000
11
-88.5597739982804
21
-2.74213303299261
31
0.000000000000000
  0
LINE
  5
F1090E
330
F1090F
100
AcDbEntity
8
Geo
100
AcDbLine
10
-88.5597739982804
20
4.31672266756263
30
0.000000000000000
11
-88.4597739982804
21
4.17711476005100
31
0.000000000000000
  0
LINE
  5
F10910
330
F10911
100
AcDbEntity
8
Geo
100
AcDbLine
10
-88.5597739982804
20
-2.74213303299261
30
0.000000000000000
11
-88.4597739982804
21
-2.87410722666443
31
0.000000000000000
  0
LINE
  5
F10912
330
F10913
100
AcDbEntity
8
Geo
100
AcDbLine
10
-88.4597739982804
20
4.17711476005100
30
0.000000000000000
11
-88.3597739982804
21
4.03253181810624
31
0.000000000000000
  0
LINE
  5
F10914
330
F10915
100
AcDbEntity
8
Geo
100
AcDbLine
10
-88.4597739982804
20
-2.87410722666443
30
0.000000000000000
11
-88.3597739982804
21
-3.00061148957164
31
0.000000000000000
  0
LINE
  5
F10916
330
F10917
100
AcDbEntity
8
Geo
100
AcDbLine
10
-88.3597739982804
20
4.03253181810624
30
0.000000000000000
11
-88.2597739982804
21
3.88318801223661
31
0.000000000000000
  0
LINE
  5
F10918
330
F10919
100
AcDbEntity
8
Geo
100
AcDbLine
10
-88.3597739982804
20
-3.00061148957164
30
0.000000000000000
11
-88.2597739982804
21
-3.12145843112778
31
0.000000000000000
  0
LINE
  5
F1091A
330
F1091B
100
AcDbEntity
8
Geo
100
AcDbLine
10
-88.2597739982804
20
3.88318801223661
30
0.000000000000000
11
-88.1597739982804
21
3.72930456521141
31
0.000000000000000
  0
LINE
  5
F1091C
330
F1091D
100
AcDbEntity
8
Geo
100
AcDbLine
10
-88.2597739982804
20
-3.12145843112778
30
0.000000000000000
11
-88.1597739982804
21
-3.23646904092854
31
0.000000000000000
  0
LINE
  5
F1091E
330
F1091F
100
AcDbEntity
8
Geo
100
AcDbLine
10
-88.1597739982804
20
3.72930456521141
30
0.000000000000000
11
-88.0597739982804
21
3.57110942436398
31
0.000000000000000
  0
LINE
  5
F10920
330
F10921
100
AcDbEntity
8
Geo
100
AcDbLine
10
-88.1597739982804
20
-3.23646904092854
30
0.000000000000000
11
-88.0597739982804
21
-3.34547295391958
31
0.000000000000000
  0
LINE
  5
F10922
330
F10923
100
AcDbEntity
8
Geo
100
AcDbLine
10
-88.0597739982804
20
3.57110942436398
30
0.000000000000000
11
-87.9597739982804
21
3.40883692393364
31
0.000000000000000
  0
LINE
  5
F10924
330
F10925
100
AcDbEntity
8
Geo
100
AcDbLine
10
-88.0597739982804
20
-3.34547295391958
30
0.000000000000000
11
-87.9597739982804
21
-3.44830870275814
31
0.000000000000000
  0
LINE
  5
F10926
330
F10927
100
AcDbEntity
8
Geo
100
AcDbLine
10
-87.9597739982804
20
3.40883692393364
30
0.000000000000000
11
-87.8597739982804
21
3.24272743794674
31
0.000000000000000
  0
LINE
  5
F10928
330
F10929
100
AcDbEntity
8
Geo
100
AcDbLine
10
-87.9597739982804
20
-3.44830870275814
30
0.000000000000000
11
-87.8597739982804
21
-3.54482395699428
31
0.000000000000000
  0
LINE
  5
F1092A
330
F1092B
100
AcDbEntity
8
Geo
100
AcDbLine
10
-87.8597739982804
20
3.24272743794674
30
0.000000000000000
11
-87.7597739982804
21
3.07302702415092
31
0.000000000000000
  0
LINE
  5
F1092C
330
F1092D
100
AcDbEntity
8
Geo
100
AcDbLine
10
-87.8597739982804
20
-3.54482395699428
30
0.000000000000000
11
-87.7597739982804
21
-3.63487574871785
31
0.000000000000000
  0
LINE
  5
F1092E
330
F1092F
100
AcDbEntity
8
Geo
100
AcDbLine
10
-87.7597739982804
20
3.07302702415092
30
0.000000000000000
11
-87.6597739982804
21
2.89998705953011
31
0.000000000000000
  0
LINE
  5
F10930
330
F10931
100
AcDbEntity
8
Geo
100
AcDbLine
10
-87.7597739982804
20
-3.63487574871785
30
0.000000000000000
11
-87.6597739982804
21
-3.71833068433660
31
0.000000000000000
  0
LINE
  5
F10932
330
F10933
100
AcDbEntity
8
Geo
100
AcDbLine
10
-87.6597739982804
20
2.89998705953011
30
0.000000000000000
11
-87.5597739982804
21
2.72386386794020
31
0.000000000000000
  0
LINE
  5
F10934
330
F10935
100
AcDbEntity
8
Geo
100
AcDbLine
10
-87.6597739982804
20
-3.71833068433660
30
0.000000000000000
11
-87.5597739982804
21
-3.79506514217193
31
0.000000000000000
  0
LINE
  5
F10936
330
F10937
100
AcDbEntity
8
Geo
100
AcDbLine
10
-87.5597739982804
20
2.72386386794020
30
0.000000000000000
11
-87.4597739982804
21
2.54491834041682
31
0.000000000000000
  0
LINE
  5
F10938
330
F10939
100
AcDbEntity
8
Geo
100
AcDbLine
10
-87.5597739982804
20
-3.79506514217193
30
0.000000000000000
11
-87.4597739982804
21
-3.86496545557953
31
0.000000000000000
  0
LINE
  5
F1093A
330
F1093B
100
AcDbEntity
8
Geo
100
AcDbLine
10
-87.4597739982804
20
2.54491834041682
30
0.000000000000000
11
-87.3597739982804
21
2.36341554871787
31
0.000000000000000
  0
LINE
  5
F1093C
330
F1093D
100
AcDbEntity
8
Geo
100
AcDbLine
10
-87.4597739982804
20
-3.86496545557953
30
0.000000000000000
11
-87.3597739982804
21
-3.92792808132360
31
0.000000000000000
  0
LINE
  5
F1093E
330
F1093F
100
AcDbEntity
8
Geo
100
AcDbLine
10
-87.3597739982804
20
2.36341554871787
30
0.000000000000000
11
-87.2597739982804
21
2.17962435267305
31
0.000000000000000
  0
LINE
  5
F10940
330
F10941
100
AcDbEntity
8
Geo
100
AcDbLine
10
-87.3597739982804
20
-3.92792808132360
30
0.000000000000000
11
-87.2597739982804
21
-3.98385975295531
31
0.000000000000000
  0
LINE
  5
F10942
330
F10943
100
AcDbEntity
8
Geo
100
AcDbLine
10
-87.2597739982804
20
2.17962435267305
30
0.000000000000000
11
-87.1597739982804
21
1.99381700192222
31
0.000000000000000
  0
LINE
  5
F10944
330
F10945
100
AcDbEntity
8
Geo
100
AcDbLine
10
-87.2597739982804
20
-3.98385975295531
30
0.000000000000000
11
-87.1597739982804
21
-4.03267761896824
31
0.000000000000000
  0
LINE
  5
F10946
330
F10947
100
AcDbEntity
8
Geo
100
AcDbLine
10
-87.1597739982804
20
1.99381700192222
30
0.000000000000000
11
-87.0597739982804
21
1.80626873263233
31
0.000000000000000
  0
LINE
  5
F10948
330
F10949
100
AcDbEntity
8
Geo
100
AcDbLine
10
-87.1597739982804
20
-4.03267761896824
30
0.000000000000000
11
-87.0597739982804
21
-4.07430936552622
31
0.000000000000000
  0
LINE
  5
F1094A
330
F1094B
100
AcDbEntity
8
Geo
100
AcDbLine
10
-87.0597739982804
20
1.80626873263233
30
0.000000000000000
11
-86.9597739982804
21
1.61725735979055
31
0.000000000000000
  0
LINE
  5
F1094C
330
F1094D
100
AcDbEntity
8
Geo
100
AcDbLine
10
-87.0597739982804
20
-4.07430936552622
30
0.000000000000000
11
-86.9597739982804
21
-4.10869332358171
31
0.000000000000000
  0
LINE
  5
F1094E
330
F1094F
100
AcDbEntity
8
Geo
100
AcDbLine
10
-86.9597739982804
20
1.61725735979055
30
0.000000000000000
11
-86.8597739982804
21
1.42706286567723
31
0.000000000000000
  0
LINE
  5
F10950
330
F10951
100
AcDbEntity
8
Geo
100
AcDbLine
10
-86.9597739982804
20
-4.10869332358171
30
0.000000000000000
11
-86.8597739982804
21
-4.13577856022607
31
0.000000000000000
  0
LINE
  5
F10952
330
F10953
100
AcDbEntity
8
Geo
100
AcDbLine
10
-86.8597739982804
20
1.42706286567723
30
0.000000000000000
11
-86.7597739982804
21
1.23596698512866
31
0.000000000000000
  0
LINE
  5
F10954
330
F10955
100
AcDbEntity
8
Geo
100
AcDbLine
10
-86.8597739982804
20
-4.13577856022607
30
0.000000000000000
11
-86.7597739982804
21
-4.15552495413642
31
0.000000000000000
  0
LINE
  5
F10956
330
F10957
100
AcDbEntity
8
Geo
100
AcDbLine
10
-86.7597739982804
20
1.23596698512866
30
0.000000000000000
11
-86.6597739982804
21
1.04425278820352
31
0.000000000000000
  0
LINE
  5
F10958
330
F10959
100
AcDbEntity
8
Geo
100
AcDbLine
10
-86.7597739982804
20
-4.15552495413642
30
0.000000000000000
11
-86.6597739982804
21
-4.16790325500725
31
0.000000000000000
  0
LINE
  5
F1095A
330
F1095B
100
AcDbEntity
8
Geo
100
AcDbLine
10
-86.6597739982804
20
1.04425278820352
30
0.000000000000000
11
-86.5597739982804
21
0.852204260871709
31
0.000000000000000
  0
LINE
  5
F1095C
330
F1095D
100
AcDbEntity
8
Geo
100
AcDbLine
10
-86.6597739982804
20
-4.16790325500725
30
0.000000000000000
11
-86.5597739982804
21
-4.17289512687893
31
0.000000000000000
  0
LINE
  5
F1095E
330
F1095F
100
AcDbEntity
8
Geo
100
AcDbLine
10
-86.5597739982804
20
0.852204260871709
30
0.000000000000000
11
-86.4597739982804
21
0.660105884346279
31
0.000000000000000
  0
LINE
  5
F10960
330
F10961
100
AcDbEntity
8
Geo
100
AcDbLine
10
-86.4597739982804
20
5.80759697683884
30
0.000000000000000
11
-86.3597739982804
21
5.79780475981415
31
0.000000000000000
  0
LINE
  5
F10962
330
F10963
100
AcDbEntity
8
Geo
100
AcDbLine
10
-86.4597739982804
20
0.660105884346279
30
0.000000000000000
11
-86.3597739982804
21
0.468242213681817
31
0.000000000000000
  0
LINE
  5
F10964
330
F10965
100
AcDbEntity
8
Geo
100
AcDbLine
10
-86.3597739982804
20
5.79780475981415
30
0.000000000000000
11
-86.2597739982804
21
5.78063678254232
31
0.000000000000000
  0
LINE
  5
F10966
330
F10967
100
AcDbEntity
8
Geo
100
AcDbLine
10
-86.3597739982804
20
0.468242213681817
30
0.000000000000000
11
-86.2597739982804
21
0.276897456263451
31
0.000000000000000
  0
LINE
  5
F10968
330
F10969
100
AcDbEntity
8
Geo
100
AcDbLine
10
-86.2597739982804
20
5.78063678254232
30
0.000000000000000
11
-86.1597739982804
21
5.75611847592390
31
0.000000000000000
  0
LINE
  5
F1096A
330
F1096B
100
AcDbEntity
8
Geo
100
AcDbLine
10
-86.2597739982804
20
0.276897456263451
30
0.000000000000000
11
-86.1597739982804
21
0.0863550508108469
31
0.000000000000000
  0
LINE
  5
F1096C
330
F1096D
100
AcDbEntity
8
Geo
100
AcDbLine
10
-86.1597739982804
20
5.75611847592390
30
0.000000000000000
11
-86.0597739982804
21
5.72428615889194
31
0.000000000000000
  0
LINE
  5
F1096E
330
F1096F
100
AcDbEntity
8
Geo
100
AcDbLine
10
-86.1597739982804
20
0.0863550508108469
30
0.000000000000000
11
-86.0597739982804
21
-0.103102752479164
31
0.000000000000000
  0
LINE
  5
F10970
330
F10971
100
AcDbEntity
8
Geo
100
AcDbLine
10
-86.0597739982804
20
5.72428615889194
30
0.000000000000000
11
-85.9597739982804
21
5.68518698461284
31
0.000000000000000
  0
LINE
  5
F10972
330
F10973
100
AcDbEntity
8
Geo
100
AcDbLine
10
-86.0597739982804
20
-0.103102752479164
30
0.000000000000000
11
-85.9597739982804
21
-0.291195310029408
31
0.000000000000000
  0
LINE
  5
F10974
330
F10975
100
AcDbEntity
8
Geo
100
AcDbLine
10
-85.9597739982804
20
5.68518698461284
30
0.000000000000000
11
-85.8597739982804
21
5.63887887063837
31
0.000000000000000
  0
LINE
  5
F10976
330
F10977
100
AcDbEntity
8
Geo
100
AcDbLine
10
-85.9597739982804
20
-0.291195310029408
30
0.000000000000000
11
-85.8597739982804
21
-0.477644000599301
31
0.000000000000000
  0
LINE
  5
F10978
330
F10979
100
AcDbEntity
8
Geo
100
AcDbLine
10
-85.8597739982804
20
5.63887887063837
30
0.000000000000000
11
-85.7597739982804
21
5.58543041311256
31
0.000000000000000
  0
LINE
  5
F1097A
330
F1097B
100
AcDbEntity
8
Geo
100
AcDbLine
10
-85.8597739982804
20
-0.477644000599301
30
0.000000000000000
11
-85.7597739982804
21
-0.662172638006104
31
0.000000000000000
  0
LINE
  5
F1097C
330
F1097D
100
AcDbEntity
8
Geo
100
AcDbLine
10
-85.7597739982804
20
5.58543041311256
30
0.000000000000000
11
-85.6597739982804
21
5.52492078516025
31
0.000000000000000
  0
LINE
  5
F1097E
330
F1097F
100
AcDbEntity
8
Geo
100
AcDbLine
10
-85.7597739982804
20
-0.662172638006104
30
0.000000000000000
11
-85.6597739982804
21
-0.844507880239122
31
0.000000000000000
  0
LINE
  5
F10980
330
F10981
100
AcDbEntity
8
Geo
100
AcDbLine
10
-85.6597739982804
20
5.52492078516025
30
0.000000000000000
11
-85.5597739982804
21
5.45743961960812
31
0.000000000000000
  0
LINE
  5
F10982
330
F10983
100
AcDbEntity
8
Geo
100
AcDbLine
10
-85.6597739982804
20
-0.844507880239122
30
0.000000000000000
11
-85.5597739982804
21
-1.02437963436084
31
0.000000000000000
  0
LINE
  5
F10984
330
F10985
100
AcDbEntity
8
Geo
100
AcDbLine
10
-85.5597739982804
20
5.45743961960812
30
0.000000000000000
11
-85.4597739982804
21
5.38308687621164
31
0.000000000000000
  0
LINE
  5
F10986
330
F10987
100
AcDbEntity
8
Geo
100
AcDbLine
10
-85.5597739982804
20
-1.02437963436084
30
0.000000000000000
11
-85.4597739982804
21
-1.20152145659523
31
0.000000000000000
  0
LINE
  5
F10988
330
F10989
100
AcDbEntity
8
Geo
100
AcDbLine
10
-85.4597739982804
20
5.38308687621164
30
0.000000000000000
11
-85.3597739982804
21
5.30197269358488
31
0.000000000000000
  0
LINE
  5
F1098A
330
F1098B
100
AcDbEntity
8
Geo
100
AcDbLine
10
-85.4597739982804
20
-1.20152145659523
30
0.000000000000000
11
-85.3597739982804
21
-1.37567094701049
31
0.000000000000000
  0
LINE
  5
F1098C
330
F1098D
100
AcDbEntity
8
Geo
100
AcDbLine
10
-85.3597739982804
20
5.30197269358488
30
0.000000000000000
11
-85.2597739982804
21
5.21421722605234
31
0.000000000000000
  0
LINE
  5
F1098E
330
F1098F
100
AcDbEntity
8
Geo
100
AcDbLine
10
-85.3597739982804
20
-1.37567094701049
30
0.000000000000000
11
-85.2597739982804
21
-1.54657013821175
31
0.000000000000000
  0
LINE
  5
F10990
330
F10991
100
AcDbEntity
8
Geo
100
AcDbLine
10
-85.2597739982804
20
5.21421722605234
30
0.000000000000000
11
-85.1597739982804
21
5.11995046566447
31
0.000000000000000
  0
LINE
  5
F10992
330
F10993
100
AcDbEntity
8
Geo
100
AcDbLine
10
-85.2597739982804
20
-1.54657013821175
30
0.000000000000000
11
-85.1597739982804
21
-1.71396587746779
31
0.000000000000000
  0
LINE
  5
F10994
330
F10995
100
AcDbEntity
8
Geo
100
AcDbLine
10
-85.1597739982804
20
5.11995046566447
30
0.000000000000000
11
-85.0597739982804
21
5.01931204964066
31
0.000000000000000
  0
LINE
  5
F10996
330
F10997
100
AcDbEntity
8
Geo
100
AcDbLine
10
-85.1597739982804
20
-1.71396587746779
30
0.000000000000000
11
-85.0597739982804
21
-1.87761020170581
31
0.000000000000000
  0
LINE
  5
F10998
330
F10999
100
AcDbEntity
8
Geo
100
AcDbLine
10
-85.0597739982804
20
5.01931204964066
30
0.000000000000000
11
-84.9597739982804
21
4.91245105352483
31
0.000000000000000
  0
LINE
  5
F1099A
330
F1099B
100
AcDbEntity
8
Geo
100
AcDbLine
10
-85.0597739982804
20
-1.87761020170581
30
0.000000000000000
11
-84.9597739982804
21
-2.03726070481880
31
0.000000000000000
  0
LINE
  5
F1099C
330
F1099D
100
AcDbEntity
8
Geo
100
AcDbLine
10
-84.9597739982804
20
4.91245105352483
30
0.000000000000000
11
-84.8597739982804
21
4.79952577036001
31
0.000000000000000
  0
LINE
  5
F1099E
330
F1099F
100
AcDbEntity
8
Geo
100
AcDbLine
10
-84.9597739982804
20
-2.03726070481880
30
0.000000000000000
11
-84.8597739982804
21
-2.19268089674136
31
0.000000000000000
  0
LINE
  5
F109A0
330
F109A1
100
AcDbEntity
8
Geo
100
AcDbLine
10
-84.8597739982804
20
4.79952577036001
30
0.000000000000000
11
-84.7597739982804
21
4.68070347620911
31
0.000000000000000
  0
LINE
  5
F109A2
330
F109A3
100
AcDbEntity
8
Geo
100
AcDbLine
10
-84.8597739982804
20
-2.19268089674136
30
0.000000000000000
11
-84.7597739982804
21
-2.34364055376209
31
0.000000000000000
  0
LINE
  5
F109A4
330
F109A5
100
AcDbEntity
8
Geo
100
AcDbLine
10
-84.7597739982804
20
4.68070347620911
30
0.000000000000000
11
-84.6597739982804
21
4.55616018236910
31
0.000000000000000
  0
LINE
  5
F109A6
330
F109A7
100
AcDbEntity
8
Geo
100
AcDbLine
10
-84.7597739982804
20
-2.34364055376209
30
0.000000000000000
11
-84.6597739982804
21
-2.48991605955367
31
0.000000000000000
  0
LINE
  5
F109A8
330
F109A9
100
AcDbEntity
8
Geo
100
AcDbLine
10
-84.6597739982804
20
4.55616018236910
30
0.000000000000000
11
-84.5597739982804
21
4.42608037464574
31
0.000000000000000
  0
LINE
  5
F109AA
330
F109AB
100
AcDbEntity
8
Geo
100
AcDbLine
10
-84.6597739982804
20
-2.48991605955367
30
0.000000000000000
11
-84.5597739982804
21
-2.63129073641538
31
0.000000000000000
  0
LINE
  5
F109AC
330
F109AD
100
AcDbEntity
8
Geo
100
AcDbLine
10
-84.5597739982804
20
4.42608037464574
30
0.000000000000000
11
-84.4597739982804
21
4.29065674007500
31
0.000000000000000
  0
LINE
  5
F109AE
330
F109AF
100
AcDbEntity
8
Geo
100
AcDbLine
10
-84.5597739982804
20
-2.63129073641538
30
0.000000000000000
11
-84.4597739982804
21
-2.76755516623750
31
0.000000000000000
  0
LINE
  5
F109B0
330
F109B1
100
AcDbEntity
8
Geo
100
AcDbLine
10
-84.4597739982804
20
4.29065674007500
30
0.000000000000000
11
-84.3597739982804
21
4.15008988149602
31
0.000000000000000
  0
LINE
  5
F109B2
330
F109B3
100
AcDbEntity
8
Geo
100
AcDbLine
10
-84.4597739982804
20
-2.76755516623750
30
0.000000000000000
11
-84.3597739982804
21
-2.89850750071207
31
0.000000000000000
  0
LINE
  5
F109B4
330
F109B5
100
AcDbEntity
8
Geo
100
AcDbLine
10
-84.3597739982804
20
4.15008988149602
30
0.000000000000000
11
-84.2597739982804
21
4.00458802039846
31
0.000000000000000
  0
LINE
  5
F109B6
330
F109B7
100
AcDbEntity
8
Geo
100
AcDbLine
10
-84.3597739982804
20
-2.89850750071207
30
0.000000000000000
11
-84.2597739982804
21
-3.02395376033046
31
0.000000000000000
  0
LINE
  5
F109B8
330
F109B9
100
AcDbEntity
8
Geo
100
AcDbLine
10
-84.2597739982804
20
4.00458802039846
30
0.000000000000000
11
-84.1597739982804
21
3.85436668848421
31
0.000000000000000
  0
LINE
  5
F109BA
330
F109BB
100
AcDbEntity
8
Geo
100
AcDbLine
10
-84.2597739982804
20
-3.02395376033046
30
0.000000000000000
11
-84.1597739982804
21
-3.14370812172498
31
0.000000000000000
  0
LINE
  5
F109BC
330
F109BD
100
AcDbEntity
8
Geo
100
AcDbLine
10
-84.1597739982804
20
3.85436668848421
30
0.000000000000000
11
-84.0597739982804
21
3.69964840840067
31
0.000000000000000
  0
LINE
  5
F109BE
330
F109BF
100
AcDbEntity
8
Geo
100
AcDbLine
10
-84.1597739982804
20
-3.14370812172498
30
0.000000000000000
11
-84.0597739982804
21
-3.25759319292877
31
0.000000000000000
  0
LINE
  5
F109C0
330
F109C1
100
AcDbEntity
8
Geo
100
AcDbLine
10
-84.0597739982804
20
3.69964840840067
30
0.000000000000000
11
-83.9597739982804
21
3.54066236411822
31
0.000000000000000
  0
LINE
  5
F109C2
330
F109C3
100
AcDbEntity
8
Geo
100
AcDbLine
10
-84.0597739982804
20
-3.25759319292877
30
0.000000000000000
11
-83.9597739982804
21
-3.36544027614624
31
0.000000000000000
  0
LINE
  5
F109C4
330
F109C5
100
AcDbEntity
8
Geo
100
AcDbLine
10
-83.9597739982804
20
3.54066236411822
30
0.000000000000000
11
-83.8597739982804
21
3.37764406144032
31
0.000000000000000
  0
LINE
  5
F109C6
330
F109C7
100
AcDbEntity
8
Geo
100
AcDbLine
10
-83.9597739982804
20
-3.36544027614624
30
0.000000000000000
11
-83.8597739982804
21
-3.46708961764493
31
0.000000000000000
  0
LINE
  5
F109C8
330
F109C9
100
AcDbEntity
8
Geo
100
AcDbLine
10
-83.8597739982804
20
3.37764406144032
30
0.000000000000000
11
-83.7597739982804
21
3.21083497914913
31
0.000000000000000
  0
LINE
  5
F109CA
330
F109CB
100
AcDbEntity
8
Geo
100
AcDbLine
10
-83.8597739982804
20
-3.46708961764493
30
0.000000000000000
11
-83.7597739982804
21
-3.56239064439844
31
0.000000000000000
  0
LINE
  5
F109CC
330
F109CD
100
AcDbEntity
8
Geo
100
AcDbLine
10
-83.7597739982804
20
3.21083497914913
30
0.000000000000000
11
-83.6597739982804
21
3.04048221130332
31
0.000000000000000
  0
LINE
  5
F109CE
330
F109CF
100
AcDbEntity
8
Geo
100
AcDbLine
10
-83.7597739982804
20
-3.56239064439844
30
0.000000000000000
11
-83.6597739982804
21
-3.65120218713006
31
0.000000000000000
  0
LINE
  5
F109D0
330
F109D1
100
AcDbEntity
8
Geo
100
AcDbLine
10
-83.6597739982804
20
3.04048221130332
30
0.000000000000000
11
-83.5597739982804
21
2.86683810121797
31
0.000000000000000
  0
LINE
  5
F109D2
330
F109D3
100
AcDbEntity
8
Geo
100
AcDbLine
10
-83.6597739982804
20
-3.65120218713006
30
0.000000000000000
11
-83.5597739982804
21
-3.73339268942664
31
0.000000000000000
  0
LINE
  5
F109D4
330
F109D5
100
AcDbEntity
8
Geo
100
AcDbLine
10
-83.5597739982804
20
2.86683810121797
30
0.000000000000000
11
-83.4597739982804
21
2.69015986766876
31
0.000000000000000
  0
LINE
  5
F109D6
330
F109D7
100
AcDbEntity
8
Geo
100
AcDbLine
10
-83.5597739982804
20
-3.73339268942664
30
0.000000000000000
11
-83.4597739982804
21
-3.80884040261288
31
0.000000000000000
  0
LINE
  5
F109D8
330
F109D9
100
AcDbEntity
8
Geo
100
AcDbLine
10
-83.4597739982804
20
2.69015986766876
30
0.000000000000000
11
-83.3597739982804
21
2.51070922387422
31
0.000000000000000
  0
LINE
  5
F109DA
330
F109DB
100
AcDbEntity
8
Geo
100
AcDbLine
10
-83.4597739982804
20
-3.80884040261288
30
0.000000000000000
11
-83.3597739982804
21
-3.87743356609750
31
0.000000000000000
  0
LINE
  5
F109DC
330
F109DD
100
AcDbEntity
8
Geo
100
AcDbLine
10
-83.3597739982804
20
2.51070922387422
30
0.000000000000000
11
-83.2597739982804
21
2.32875198982027
31
0.000000000000000
  0
LINE
  5
F109DE
330
F109DF
100
AcDbEntity
8
Geo
100
AcDbLine
10
-83.3597739982804
20
-3.87743356609750
30
0.000000000000000
11
-83.2597739982804
21
-3.93907057292403
31
0.000000000000000
  0
LINE
  5
F109E0
330
F109E1
100
AcDbEntity
8
Geo
100
AcDbLine
10
-83.2597739982804
20
2.32875198982027
30
0.000000000000000
11
-83.1597739982804
21
2.14455769850142
31
0.000000000000000
  0
LINE
  5
F109E2
330
F109E3
100
AcDbEntity
8
Geo
100
AcDbLine
10
-83.2597739982804
20
-3.93907057292403
30
0.000000000000000
11
-83.1597739982804
21
-3.99366012028109
31
0.000000000000000
  0
LINE
  5
F109E4
330
F109E5
100
AcDbEntity
8
Geo
100
AcDbLine
10
-83.1597739982804
20
2.14455769850142
30
0.000000000000000
11
-83.0597739982804
21
1.95839919666199
31
0.000000000000000
  0
LINE
  5
F109E6
330
F109E7
100
AcDbEntity
8
Geo
100
AcDbLine
10
-83.1597739982804
20
-3.99366012028109
30
0.000000000000000
11
-83.0597739982804
21
-4.04112134474905
31
0.000000000000000
  0
LINE
  5
F109E8
330
F109E9
100
AcDbEntity
8
Geo
100
AcDbLine
10
-83.0597739982804
20
1.95839919666199
30
0.000000000000000
11
-82.9597739982804
21
1.77055224062856
31
0.000000000000000
  0
LINE
  5
F109EA
330
F109EB
100
AcDbEntity
8
Geo
100
AcDbLine
10
-83.0597739982804
20
-4.04112134474905
30
0.000000000000000
11
-82.9597739982804
21
-4.08138394208295
31
0.000000000000000
  0
LINE
  5
F109EC
330
F109ED
100
AcDbEntity
8
Geo
100
AcDbLine
10
-82.9597739982804
20
1.77055224062856
30
0.000000000000000
11
-82.8597739982804
21
1.58129508783252
31
0.000000000000000
  0
LINE
  5
F109EE
330
F109EF
100
AcDbEntity
8
Geo
100
AcDbLine
10
-82.9597739982804
20
-4.08138394208295
30
0.000000000000000
11
-82.8597739982804
21
-4.11438827135408
31
0.000000000000000
  0
LINE
  5
F109F0
330
F109F1
100
AcDbEntity
8
Geo
100
AcDbLine
10
-82.8597739982804
20
1.58129508783252
30
0.000000000000000
11
-82.7597739982804
21
1.39090808462776
31
0.000000000000000
  0
LINE
  5
F109F2
330
F109F3
100
AcDbEntity
8
Geo
100
AcDbLine
10
-82.8597739982804
20
-4.11438827135408
30
0.000000000000000
11
-82.7597739982804
21
-4.14008544329597
31
0.000000000000000
  0
LINE
  5
F109F4
330
F109F5
100
AcDbEntity
8
Geo
100
AcDbLine
10
-82.7597739982804
20
1.39090808462776
30
0.000000000000000
11
-82.6597739982804
21
1.19967325101398
31
0.000000000000000
  0
LINE
  5
F109F6
330
F109F7
100
AcDbEntity
8
Geo
100
AcDbLine
10
-82.7597739982804
20
-4.14008544329597
30
0.000000000000000
11
-82.6597739982804
21
-4.15843739272401
31
0.000000000000000
  0
LINE
  5
F109F8
330
F109F9
100
AcDbEntity
8
Geo
100
AcDbLine
10
-82.6597739982804
20
1.19967325101398
30
0.000000000000000
11
-82.5597739982804
21
1.00787386288087
31
0.000000000000000
  0
LINE
  5
F109FA
330
F109FB
100
AcDbEntity
8
Geo
100
AcDbLine
10
-82.6597739982804
20
-4.15843739272401
30
0.000000000000000
11
-82.5597739982804
21
-4.16941693492137
31
0.000000000000000
  0
LINE
  5
F109FC
330
F109FD
100
AcDbEntity
8
Geo
100
AcDbLine
10
-82.5597739982804
20
1.00787386288087
30
0.000000000000000
11
-82.4597739982804
21
0.815794032391923
31
0.000000000000000
  0
LINE
  5
F109FE
330
F109FF
100
AcDbEntity
8
Geo
100
AcDbLine
10
-82.4597739982804
20
5.81011160744779
30
0.000000000000000
11
-82.3597739982804
21
5.80630848807085
31
0.000000000000000
  0
LINE
  5
F10A00
330
F10A01
100
AcDbEntity
8
Geo
100
AcDbLine
10
-82.4597739982804
20
0.815794032391923
30
0.000000000000000
11
-82.3597739982804
21
0.623718287129524
31
0.000000000000000
  0
LINE
  5
F10A02
330
F10A03
100
AcDbEntity
8
Geo
100
AcDbLine
10
-82.3597739982804
20
5.80630848807085
30
0.000000000000000
11
-82.2597739982804
21
5.79511701188608
31
0.000000000000000
  0
LINE
  5
F10A04
330
F10A05
100
AcDbEntity
8
Geo
100
AcDbLine
10
-82.3597739982804
20
0.623718287129524
30
0.000000000000000
11
-82.2597739982804
21
0.431931148624600
31
0.000000000000000
  0
LINE
  5
F10A06
330
F10A07
100
AcDbEntity
8
Geo
100
AcDbLine
10
-82.2597739982804
20
5.79511701188608
30
0.000000000000000
11
-82.1597739982804
21
5.77655375681137
31
0.000000000000000
  0
LINE
  5
F10A08
330
F10A09
100
AcDbEntity
8
Geo
100
AcDbLine
10
-82.2597739982804
20
0.431931148624600
30
0.000000000000000
11
-82.1597739982804
21
0.240716710895299
31
0.000000000000000
  0
LINE
  5
F10A0A
330
F10A0B
100
AcDbEntity
8
Geo
100
AcDbLine
10
-82.1597739982804
20
5.77655375681137
30
0.000000000000000
11
-82.0597739982804
21
5.75064622057034
31
0.000000000000000
  0
LINE
  5
F10A0C
330
F10A0D
100
AcDbEntity
8
Geo
100
AcDbLine
10
-82.1597739982804
20
0.240716710895299
30
0.000000000000000
11
-82.0597739982804
21
0.0503582196189165
31
0.000000000000000
  0
LINE
  5
F10A0E
330
F10A0F
100
AcDbEntity
8
Geo
100
AcDbLine
10
-82.0597739982804
20
5.75064622057034
30
0.000000000000000
11
-81.9597739982804
21
5.71743277995991
31
0.000000000000000
  0
LINE
  5
F10A10
330
F10A11
100
AcDbEntity
8
Geo
100
AcDbLine
10
-82.0597739982804
20
0.0503582196189165
30
0.000000000000000
11
-81.9597739982804
21
-0.138862347439528
31
0.000000000000000
  0
LINE
  5
F10A12
330
F10A13
100
AcDbEntity
8
Geo
100
AcDbLine
10
-81.9597739982804
20
5.71743277995991
30
0.000000000000000
11
-81.8597739982804
21
5.67696263400290
31
0.000000000000000
  0
LINE
  5
F10A14
330
F10A15
100
AcDbEntity
8
Geo
100
AcDbLine
10
-81.9597739982804
20
-0.138862347439528
30
0.000000000000000
11
-81.8597739982804
21
-0.326664698120551
31
0.000000000000000
  0
LINE
  5
F10A16
330
F10A17
100
AcDbEntity
8
Geo
100
AcDbLine
10
-81.8597739982804
20
5.67696263400290
30
0.000000000000000
11
-81.7597739982804
21
5.62929573106951
31
0.000000000000000
  0
LINE
  5
F10A18
330
F10A19
100
AcDbEntity
8
Geo
100
AcDbLine
10
-81.8597739982804
20
-0.326664698120551
30
0.000000000000000
11
-81.7597739982804
21
-0.512770641066600
31
0.000000000000000
  0
LINE
  5
F10A1A
330
F10A1B
100
AcDbEntity
8
Geo
100
AcDbLine
10
-98.7597739982804
20
0.818551900770075
30
0.000000000000000
11
-98.7597739982804
21
0.818551900770075
31
0.000000000000000
  0
LINE
  5
F10A1C
330
F10A1D
100
AcDbEntity
8
Geo
100
AcDbLine
10
-98.7597739982804
20
0.818551900770075
30
0.000000000000000
11
-98.7597739982804
21
0.818551900770075
31
0.000000000000000
  0
LINE
  5
F10A1E
330
F10A1F
100
AcDbEntity
8
Geo
100
AcDbLine
10
-99.7597739982804
20
0.818551900770075
30
0.000000000000000
11
-99.4597739982804
21
0.818551900770075
31
0.000000000000000
  0
LINE
  5
F10A20
330
F10A21
100
AcDbEntity
8
Geo
100
AcDbLine
10
-99.3322739982804
20
0.818551900770075
30
0.000000000000000
11
-99.2472739982804
21
0.818551900770075
31
0.000000000000000
  0
LINE
  5
F10A22
330
F10A23
100
AcDbEntity
8
Geo
100
AcDbLine
10
-99.0347739982804
20
0.818551900770075
30
0.000000000000000
11
-98.6097739982804
21
0.818551900770075
31
0.000000000000000
  0
LINE
  5
F10A24
330
F10A25
100
AcDbEntity
8
Geo
100
AcDbLine
10
-98.4822739982804
20
0.818551900770075
30
0.000000000000000
11
-98.3972739982804
21
0.818551900770075
31
0.000000000000000
  0
LINE
  5
F10A26
330
F10A27
100
AcDbEntity
8
Geo
100
AcDbLine
10
-98.1847739982804
20
0.818551900770075
30
0.000000000000000
11
-97.7597739982804
21
0.818551900770075
31
0.000000000000000
  0
LINE
  5
F10A28
330
F10A29
100
AcDbEntity
8
Geo
100
AcDbLine
10
-28.7597739982804
20
5.31855190077007
30
0.000000000000000
11
-28.7597739982804
21
0.818551900770075
31
0.000000000000000
  0
LINE
  5
F10A2A
330
F10A2B
100
AcDbEntity
8
Geo
100
AcDbLine
10
-98.6029353077169
20
0.818551900770075
30
0.000000000000000
11
-98.7594694117899
21
-3.66399835087867
31
0.000000000000000
  0
ARC
  5
F10A2C
330
F10A2D
100
AcDbEntity
8
Geo
100
AcDbCircle
10
-98.2597739982804
20
-3.68144809922993
30
0.000000000000000
 40
0.500000000000000
100
AcDbArc
 50
178.000000000000
 51
270.000000000000
  0
LINE
  5
F10A2E
330
F10A2F
100
AcDbEntity
8
Geo
100
AcDbLine
10
-98.2597739982804
20
-4.18144809922993
30
0.000000000000000
11
-76.7597739982804
21
-4.18144809922993
31
0.000000000000000
  0
LINE
  5
F10A30
330
F10A31
100
AcDbEntity
8
Geo
100
AcDbLine
10
-76.7597739982804
20
-4.18144809922993
30
0.000000000000000
11
-76.7597739982804
21
-3.88144809922993
31
0.000000000000000
  0
LINE
  5
F10A32
330
F10A33
100
AcDbEntity
8
Geo
100
AcDbLine
10
-76.7597739982804
20
-3.88144809922993
30
0.000000000000000
11
-68.7597739982804
21
-3.88144809922993
31
0.000000000000000
  0
LINE
  5
F10A34
330
F10A35
100
AcDbEntity
8
Geo
100
AcDbLine
10
-68.7597739982804
20
-3.88144809922993
30
0.000000000000000
11
-68.7597739982804
21
-4.18144809922993
31
0.000000000000000
  0
LINE
  5
F10A36
330
F10A37
100
AcDbEntity
8
Geo
100
AcDbLine
10
-68.7597739982804
20
-4.18144809922993
30
0.000000000000000
11
-29.2597739982804
21
-4.18144809922993
31
0.000000000000000
  0
LINE
  5
F10A38
330
F10A39
100
AcDbEntity
8
Geo
100
AcDbLine
10
-29.2597739982804
20
-4.18144809922993
30
0.000000000000000
11
-28.7597739982804
21
-3.68144809922993
31
0.000000000000000
  0
LINE
  5
F10A3A
330
F10A3B
100
AcDbEntity
8
Geo
100
AcDbLine
10
-98.2597739982804
20
5.81855190077007
30
0.000000000000000
11
-98.2597739982804
21
-4.18144809922993
31
0.000000000000000
  0
LINE
  5
F10A3C
330
F10A3D
100
AcDbEntity
8
Geo
100
AcDbLine
10
-98.2597739982804
20
5.81855190077007
30
0.000000000000000
11
-98.2597739982804
21
-4.18144809922993
31
0.000000000000000
  0
LINE
  5
F10A3E
330
F10A3F
100
AcDbEntity
8
Geo
100
AcDbLine
10
-76.7597739982804
20
5.81855190077007
30
0.000000000000000
11
-76.7597739982804
21
-4.18144809922993
31
0.000000000000000
  0
LINE
  5
F10A40
330
F10A41
100
AcDbEntity
8
Geo
100
AcDbLine
10
-76.7597739982804
20
5.51855190077008
30
0.000000000000000
11
-76.7597739982804
21
-3.88144809922993
31
0.000000000000000
  0
LINE
  5
F10A42
330
F10A43
100
AcDbEntity
8
Geo
100
AcDbLine
10
-68.7597739982804
20
5.51855190077008
30
0.000000000000000
11
-68.7597739982804
21
-3.88144809922993
31
0.000000000000000
  0
LINE
  5
F10A44
330
F10A45
100
AcDbEntity
8
Geo
100
AcDbLine
10
-68.7597739982804
20
5.51855190077008
30
0.000000000000000
11
-68.7597739982804
21
-3.88144809922993
31
0.000000000000000
  0
LINE
  5
F10A46
330
F10A47
100
AcDbEntity
8
Geo
100
AcDbLine
10
-29.2597739982804
20
5.81855190077007
30
0.000000000000000
11
-29.2597739982804
21
-4.18144809922993
31
0.000000000000000
  0
LINE
  5
F10A48
330
F10A49
100
AcDbEntity
8
Geo
100
AcDbLine
10
-28.7597739982804
20
5.31855190077007
30
0.000000000000000
11
-28.7597739982804
21
-3.68144809922993
31
0.000000000000000
  0
LWPOLYLINE
  5
F10A4A
330
F10A4B
100
AcDbEntity
8
Rahmen
100
AcDbPolyline
90
   4
70
   1
43
   0.0
 10
-125.569820154671
 20
102.876004127494
 10
134.287365327452
 20
102.876004127494
 10
134.287365327452
 20
-103.226667707973
 10
-125.569820154671
 20
-103.226667707973
  0
TEXT
  5
F10A4C
330
F10A4D
 100
AcDbEntity
8
Text
100
AcDbText
10
-124.520951595711
20
-102.726667707973
30
0.000000000000000
40
1.00000000000000
1
ISBESketcher
100
AcDbText
  0
LWPOLYLINE
  5
F10A4E
330
F10A4F
100
AcDbEntity
8
Rahmen
100
AcDbPolyline
90
   4
70
   1
43
   0.0
 10
94.4303600870057
 20
-100.080062031096
 10
134.287365327452
 20
-100.080062031096
 10
134.287365327452
 20
-103.226667707973
 10
94.4303600870057
 20
-103.226667707973
  0
TEXT
  5
F10A50
330
F10A51
 100
AcDbEntity
8
Text
100
AcDbText
10
95.5000000000000
20
-102.036651419219
30
0.000000000000000
40
0.750000000000000
1
Created by:
100
AcDbText
  0
TEXT
  5
F10A52
330
F10A53
 100
AcDbEntity
8
Text
100
AcDbText
10
120.008937172472
20
-102.036651419219
30
0.000000000000000
40
0.750000000000000
1
nsarkol
100
AcDbText
  0
LWPOLYLINE
  5
F10A54
330
F10A55
100
AcDbEntity
8
Rahmen
100
AcDbPolyline
90
   4
70
   1
43
   0.0
 10
54.3111377068192
 20
-100.080062031096
 10
94.4303600870057
 20
-100.080062031096
 10
94.4303600870057
 20
-103.226667707973
 10
54.3111377068192
 20
-103.226667707973
  0
TEXT
  5
F10A56
330
F10A57
 100
AcDbEntity
8
Text
100
AcDbText
10
55.5000000000000
20
-102.036651419219
30
0.000000000000000
40
0.750000000000000
1
Created for:
100
AcDbText
  0
TEXT
  5
F10A58
330
F10A59
 100
AcDbEntity
8
Text
100
AcDbText
10
0.000000000000000
20
0.250000000000000
30
0.000000000000000
40
0.750000000000000
1

100
AcDbText
  0
LWPOLYLINE
  5
F10A5A
330
F10A5B
100
AcDbEntity
8
Rahmen
100
AcDbPolyline
90
   4
70
   1
43
   0.0
 10
120.914291200724
 20
-97.1956734939585
 10
134.287365327452
 20
-97.1956734939585
 10
134.287365327452
 20
-100.080062031096
 10
120.914291200724
 20
-100.080062031096
  0
TEXT
  5
F10A5C
330
F10A5D
 100
AcDbEntity
8
Text
100
AcDbText
10
122.166666666667
20
-99.0366514192193
30
0.000000000000000
40
0.750000000000000
1
Pages
100
AcDbText
  0
TEXT
  5
F10A5E
330
F10A5F
 100
AcDbEntity
8
Text
100
AcDbText
10
0.000000000000000
20
0.250000000000000
30
0.000000000000000
40
0.750000000000000
1

100
AcDbText
  0
LWPOLYLINE
  5
F10A60
330
F10A61
100
AcDbEntity
8
Rahmen
100
AcDbPolyline
90
   4
70
   1
43
   0.0
 10
120.914291200724
 20
-94.0490678170811
 10
134.287365327452
 20
-94.0490678170811
 10
134.287365327452
 20
-97.1956734939585
 10
120.914291200724
 20
-97.1956734939585
  0
TEXT
  5
F10A62
330
F10A63
 100
AcDbEntity
8
Text
100
AcDbText
10
122.166666666667
20
-96.0366514192193
30
0.000000000000000
40
0.750000000000000
1
Page
100
AcDbText
  0
TEXT
  5
F10A64
330
F10A65
 100
AcDbEntity
8
Text
100
AcDbText
10
0.000000000000000
20
0.250000000000000
30
0.000000000000000
40
0.750000000000000
1

100
AcDbText
  0
LWPOLYLINE
  5
F10A66
330
F10A67
100
AcDbEntity
8
Rahmen
100
AcDbPolyline
90
   4
70
   1
43
   0.0
 10
54.3111377068192
 20
-94.0490678170811
 10
120.914291200724
 20
-94.0490678170811
 10
120.914291200724
 20
-100.080062031096
 10
54.3111377068192
 20
-100.080062031096
  0
TEXT
  5
F10A68
330
F10A69
 100
AcDbEntity
8
Text
100
AcDbText
10
55.5000000000000
20
-96.0366514192193
30
0.000000000000000
40
0.750000000000000
1
Date:
100
AcDbText
  0
TEXT
  5
F10A6A
330
F10A6B
 100
AcDbEntity
8
Text
100
AcDbText
10
84.2934019468463
20
-99.0366514192193
30
0.000000000000000
40
0.750000000000000
1
05.07.2016
100
AcDbText
  0
LWPOLYLINE
  5
F10A6C
330
F10A6D
100
AcDbEntity
8
Rahmen
100
AcDbPolyline
90
   4
70
   1
43
   0.0
 10
54.3111377068192
 20
-88.0180736030662
 10
134.287365327452
 20
-88.0180736030662
 10
134.287365327452
 20
-94.0490678170811
 10
54.3111377068192
 20
-94.0490678170811
  0
TEXT
  5
F10A6E
330
F10A6F
 100
AcDbEntity
8
Text
100
AcDbText
10
0.000000000000000
20
0.500000000000000
30
0.000000000000000
40
1.50000000000000
1

100
AcDbText
  0
TEXT
  5
F10A70
330
F10A71
 100
AcDbEntity
8
Text
100
AcDbText
10
66.3116574779735
20
-92.6577294941946
30
0.000000000000000
40
2.50000000000000
1
VHRS 5 100 070 10 03 050 L
100
AcDbText
  0
LWPOLYLINE
  5
F10A72
330
F10A73
100
AcDbEntity
8
Rahmen
100
AcDbPolyline
90
   4
70
   1
43
   0.0
 10
94.4303600870057
 20
-82.2492965287910
 10
134.287365327452
 20
-82.2492965287910
 10
134.287365327452
 20
-88.0180736030662
 10
94.4303600870057
 20
-88.0180736030662
  0
TEXT
  5
F10A74
330
F10A75
 100
AcDbEntity
8
Text
100
AcDbText
10
95.5000000000000
20
-84.0366514192193
30
0.000000000000000
40
0.750000000000000
1
Work piece material:
100
AcDbText
  0
TEXT
  5
F10A76
330
F10A77
 100
AcDbEntity
8
Text
100
AcDbText
10
0.000000000000000
20
0.250000000000000
30
0.000000000000000
40
0.750000000000000
1

100
AcDbText
  0
LWPOLYLINE
  5
F10A78
330
F10A79
100
AcDbEntity
8
Rahmen
100
AcDbPolyline
90
   4
70
   1
43
   0.0
 10
54.3111377068192
 20
-82.2492965287910
 10
94.4303600870057
 20
-82.2492965287910
 10
94.4303600870057
 20
-88.0180736030662
 10
54.3111377068192
 20
-88.0180736030662
  0
TEXT
  5
F10A7A
330
F10A7B
 100
AcDbEntity
8
Text
100
AcDbText
10
55.5000000000000
20
-84.0366514192193
30
0.000000000000000
40
0.750000000000000
1
Tool material:
100
AcDbText
  0
TEXT
  5
F10A7C
330
F10A7D
 100
AcDbEntity
8
Text
100
AcDbText
10
0.000000000000000
20
0.250000000000000
30
0.000000000000000
40
0.750000000000000
1

100
AcDbText
  0
LWPOLYLINE
  5
F10A7E
330
F10A7F
100
AcDbEntity
8
Rahmen
100
AcDbPolyline
90
   4
70
   1
43
   0.0
 10
94.4303600870057
 20
-79.1026908519136
 10
134.287365327452
 20
-79.1026908519136
 10
134.287365327452
 20
-82.2492965287910
 10
94.4303600870057
 20
-82.2492965287910
  0
TEXT
  5
F10A80
330
F10A81
 100
AcDbEntity
8
Text
100
AcDbText
10
0.000000000000000
20
0.500000000000000
30
0.000000000000000
40
1.50000000000000
1

100
AcDbText
  0
TEXT
  5
F10A82
330
F10A83
 100
AcDbEntity
8
Text
100
AcDbText
10
0.000000000000000
20
0.250000000000000
30
0.000000000000000
40
0.750000000000000
1

100
AcDbText
  0
LWPOLYLINE
  5
F10A84
330
F10A85
100
AcDbEntity
8
Rahmen
100
AcDbPolyline
90
   4
70
   1
43
   0.0
 10
54.3111377068192
 20
-79.1026908519136
 10
94.4303600870057
 20
-79.1026908519136
 10
94.4303600870057
 20
-82.2492965287910
 10
54.3111377068192
 20
-82.2492965287910
  0
TEXT
  5
F10A86
330
F10A87
 100
AcDbEntity
8
Text
100
AcDbText
10
55.5000000000000
20
-81.0366514192193
30
0.000000000000000
40
0.750000000000000
1
Scale:
100
AcDbText
  0
TEXT
  5
F10A88
330
F10A89
 100
AcDbEntity
8
Text
100
AcDbText
10
81.1889143013011
20
-81.0366514192193
30
0.000000000000000
40
0.750000000000000
1
3 : 1
100
AcDbText
0
VIEWPORT
5
294
102
{ACAD_XDICTIONARY
360
58A
102
}
330
25D
100
AcDbEntity
67
1
8
0
60
1
100
AcDbViewport
10
0.0
20
0.0
30
0.0
40
10.0
41
10.0
68
-1
69
1
12
0.0
22
0.0
13
0.0
23
0.0
14
1.0
24
1.0
15
0.0
25
0.0
16
0.0
26
0.0
36
1.0
17
0.0
27
0.0
37
0.0
42
0.0
43
0.0
44
0.0
45
10.0
50
0.0
51
0.0000000000007958
72
100
90
32800
1

281
0
71
0
74
0
110
0.0
120
0.0
130
0.0
111
1.0
121
0.0
131
0.0
112
0.0
122
1.0
132
0.0
79
0
146
0.0
1001
VD_INVISIBLE_NOT_FOR_READ
1000
VD_INVISIBLE_NOT_FOR_READ
0
VIEWPORT
5
295
102
{ACAD_XDICTIONARY
360
58C
102
}
330
25D
100
AcDbEntity
67
1
8
0
60
1
100
AcDbViewport
10
0.0
20
0.0
30
0.0
40
10.0
41
10.0
68
0
69
2
12
0.0
22
0.0
13
0.0
23
0.0
14
1.0
24
1.0
15
0.0
25
0.0
16
0.0
26
0.0
36
1.0
17
0.0
27
0.0
37
0.0
42
0.0
43
0.0
44
0.0
45
10.0
50
0.0
51
0.0000000000007958
72
100
90
163872
1

281
0
71
0
74
0
110
0.0
120
0.0
130
0.0
111
1.0
121
0.0
131
0.0
112
0.0
122
1.0
132
0.0
79
0
146
0.0
1001
VD_INVISIBLE_NOT_FOR_READ
1000
VD_INVISIBLE_NOT_FOR_READ
0
ENDSEC
0
SECTION
2
OBJECTS
0
DICTIONARY
5
13
330
0
100
AcDbDictionary
281
1
3
ACAD_COLOR
350
FA7
3
ACAD_GROUP
350
14
3
ACAD_LAYOUT
350
FCF
3
ACAD_MATERIAL
350
F7A
3
ACAD_MLEADERSTYLE
350
FCD
3
ACAD_MLINESTYLE
350
16
3
ACAD_PLOTSETTINGS
350
17
3
ACAD_PLOTSTYLENAME
350
18
3
ACAD_SCALELIST
350
FAB
3
ACAD_TABLESTYLE
350
FA8
3
ACAD_VISUALSTYLE
350
F93
3
ACDB_RECOMPOSE_DATA
350
107E
3
AcDbVariableDictionary
350
FF0
3
DWGPROPS
350
107F
0
DICTIONARY
5
F10019
330
F10018
100
AcDbDictionary
280
1
281
1
3
ACAD_MTEXT_2008_RT
360
F1001A
0
DICTIONARY
5
F1001E
330
F1001D
100
AcDbDictionary
280
1
281
1
3
ACAD_MTEXT_2008_RT
360
F1001F
0
DICTIONARY
5
F10028
330
F10027
100
AcDbDictionary
280
1
281
1
3
ACAD_MTEXT_2008_RT
360
F10029
0
DICTIONARY
5
F1002D
330
F1002C
100
AcDbDictionary
280
1
281
1
3
ACAD_MTEXT_2008_RT
360
F1002E
0
DICTIONARY
5
F10005
330
F10004
100
AcDbDictionary
280
1
281
1
3
ACAD_MTEXT_2008_RT
360
F10006
0
DICTIONARY
5
F1000F
330
F1000E
100
AcDbDictionary
280
1
281
1
3
ACAD_MTEXT_2008_RT
360
F10010
0
DICTIONARY
5
F1000A
330
F10009
100
AcDbDictionary
280
1
281
1
3
ACAD_MTEXT_2008_RT
360
F1000B
0
DICTIONARY
5
F10014
330
F10013
100
AcDbDictionary
280
1
281
1
3
ACAD_MTEXT_2008_RT
360
F10015
0
DICTIONARY
5
F10023
330
F10022
100
AcDbDictionary
280
1
281
1
3
ACAD_MTEXT_2008_RT
360
F10024
0
DICTIONARY
5
FA7
102
{ACAD_REACTORS
330
13
102
}
330
13
100
AcDbDictionary
281
1
0
DICTIONARY
5
14
330
13
100
AcDbDictionary
281
1
0
DICTIONARY
5
FCF
102
{ACAD_REACTORS
330
13
102
}
330
13
100
AcDbDictionary
281
1
3
Layout1
350
FD1
3
Model
350
FD0
0
DICTIONARY
5
F7A
102
{ACAD_REACTORS
330
13
102
}
330
13
100
AcDbDictionary
281
1
3
ByBlock
350
F83
3
ByLayer
350
F7B
3
Global
350
F8B
0
DICTIONARY
5
FCD
102
{ACAD_REACTORS
330
13
102
}
330
13
100
AcDbDictionary
281
1
3
Standard
350
FCE
0
DICTIONARY
5
16
330
13
100
AcDbDictionary
281
1
3
Standard
350
FAA
0
DICTIONARY
5
17
102
{ACAD_REACTORS
330
13
102
}
330
13
100
AcDbDictionary
281
1
0
ACDBDICTIONARYWDFLT
5
18
102
{ACAD_REACTORS
330
13
102
}
330
13
100
AcDbDictionary
281
1
3
Normal
350
19
100
AcDbDictionaryWithDefault
340
19
0
DICTIONARY
5
FAB
102
{ACAD_REACTORS
330
13
102
}
330
13
100
AcDbDictionary
281
1
3
A0
350
FAC
3
A1
350
FAD
3
A2
350
FAE
3
A3
350
FAF
3
A4
350
FB0
3
A5
350
FB1
3
A6
350
FB2
3
A7
350
FB3
3
A8
350
FB4
3
A9
350
FB5
3
B0
350
FB6
3
B1
350
FB7
3
B2
350
FB8
3
B3
350
FB9
3
B4
350
FBA
3
B5
350
FBB
3
B6
350
FBC
3
B7
350
FBD
3
B8
350
FBE
3
B9
350
FBF
3
C0
350
FC0
3
C1
350
FC1
3
C2
350
FC2
3
C3
350
FC3
3
C4
350
FC4
3
C5
350
FC5
3
C6
350
FC6
3
C7
350
FC7
3
C8
350
FC8
3
C9
350
FC9
3
D0
350
FCA
3
D1
350
FCB
3
D2
350
FCC
0
DICTIONARY
5
FA8
102
{ACAD_REACTORS
330
13
102
}
330
13
100
AcDbDictionary
281
1
3
Standard
350
FA9
0
DICTIONARY
5
F93
102
{ACAD_REACTORS
330
13
102
}
330
13
100
AcDbDictionary
281
1
3
2dWireframe
350
F99
3
3D Hidden
350
F9B
3
3dWireframe
350
F9A
3
Basic
350
F98
3
Brighten
350
F9F
3
ColorChange
350
FA3
3
Conceptual
350
F9C
3
Dim
350
F9E
3
EdgeColorOff
350
FA6
3
Facepattern
350
FA2
3
Flat
350
F94
3
FlatWithEdges
350
F95
3
Gouraud
350
F96
3
GouraudWithEdges
350
F97
3
JitterOff
350
FA4
3
Linepattern
350
FA1
3
OverhangOff
350
FA5
3
Realistic
350
F9D
3
Thicken
350
FA0
0
XRECORD
5
107E
102
{ACAD_REACTORS
330
13
102
}
330
13
100
AcDbXrecord
280
1
90
1
330
FA9
330
F10018
330
F1001D
330
F10027
330
F1002C
330
F10004
330
F1000E
330
F10009
330
F10013
330
F10022
0
XRECORD
5
F1001A
102
{ACAD_REACTORS
330
F10019
102
}
330
F10019
100
AcDbXrecord
280
1
40
48458.0
1
30
0
XRECORD
5
F1001F
102
{ACAD_REACTORS
330
F1001E
102
}
330
F1001E
100
AcDbXrecord
280
1
40
48458.0
1
40
0
XRECORD
5
F10029
102
{ACAD_REACTORS
330
F10028
102
}
330
F10028
100
AcDbXrecord
280
1
40
48458.0
1
22
0
XRECORD
5
F1002E
102
{ACAD_REACTORS
330
F1002D
102
}
330
F1002D
100
AcDbXrecord
280
1
40
48458.0
1
70
0
XRECORD
5
F10006
102
{ACAD_REACTORS
330
F10005
102
}
330
F10005
100
AcDbXrecord
280
1
40
48458.0
1
2°
0
XRECORD
5
F10010
102
{ACAD_REACTORS
330
F1000F
102
}
330
F1000F
100
AcDbXrecord
280
1
40
48458.0
1
R0.5
0
XRECORD
5
F1000B
102
{ACAD_REACTORS
330
F1000A
102
}
330
F1000A
100
AcDbXrecord
280
1
40
48458.0
1
10
0
XRECORD
5
F10015
102
{ACAD_REACTORS
330
F10014
102
}
330
F10014
100
AcDbXrecord
280
1
40
48458.0
1
9.4
0
LAYOUT
5
FD1
102
{ACAD_XDICTIONARY
360
10A9
102
}
102
{ACAD_REACTORS
330
FCF
102
}
330
FCF
100
AcDbPlotSettings
1

2
Microsoft XPS Document Writer
4

6

40
0.0
41
0.0
42
0.0
43
0.0
44
0.0
45
0.0
46
0.0
47
0.0
48
0.0
49
0.0
140
0.0
141
0.0
142
1.0
143
1.0
70
688
72
0
73
0
74
5
7

75
16
147
1.0
148
0.0
149
0.0
100
AcDbLayout
1
Layout1
70
1
71
1
10
0.0
20
0.0
11
12.0
21
9.0
12
0.0
22
0.0
32
0.0
14
1.000000000000000E+20
24
1.000000000000000E+20
34
1.000000000000000E+20
15
-1.000000000000000E+20
25
-1.000000000000000E+20
35
-1.000000000000000E+20
146
0.0
13
0.0
23
0.0
33
0.0
16
1.0
26
0.0
36
0.0
17
0.0
27
1.0
37
0.0
76
0
330
25D
0
LAYOUT
5
FD0
102
{ACAD_XDICTIONARY
360
10A7
102
}
102
{ACAD_REACTORS
330
FCF
102
}
330
FCF
100
AcDbPlotSettings
1

2
Microsoft XPS Document Writer
4

6

40
0.0
41
0.0
42
0.0
43
0.0
44
0.0
45
0.0
46
0.0
47
0.0
48
0.0
49
0.0
140
0.0
141
0.0
142
1.0
143
1.0
70
1712
72
0
73
0
74
0
7

75
0
147
1.0
148
0.0
149
0.0
100
AcDbLayout
1
Model
70
1
71
0
10
0.0
20
0.0
11
12.0
21
9.0
12
0.0
22
0.0
32
0.0
14
0.0
24
0.0
34
0.0
15
0.0
25
0.0
35
0.0
146
0.0
13
0.0
23
0.0
33
0.0
16
1.0
26
0.0
36
0.0
17
0.0
27
1.0
37
0.0
76
0
330
261
331
26B
0
MATERIAL
5
F83
102
{ACAD_XDICTIONARY
360
F84
102
}
102
{ACAD_REACTORS
330
F7A
102
}
330
F7A
100
AcDbMaterial
1
ByBlock
72
0
43
0.0208333333333333
43
0.0
43
0.0
43
0.0
43
0.0
43
0.0208333333333333
43
0.0
43
0.0
43
0.0
43
0.0
43
1.0
43
0.0
43
0.0
43
0.0
43
0.0
43
1.0
77
0
47
0.0208333333333333
47
0.0
47
0.0
47
0.0
47
0.0
47
0.0208333333333333
47
0.0
47
0.0
47
0.0
47
0.0
47
1.0
47
0.0
47
0.0
47
0.0
47
0.0
47
1.0
171
0
49
0.0208333333333333
49
0.0
49
0.0
49
0.0
49
0.0
49
0.0208333333333333
49
0.0
49
0.0
49
0.0
49
0.0
49
1.0
49
0.0
49
0.0
49
0.0
49
0.0
49
1.0
175
0
142
0.0208333333333333
142
0.0
142
0.0
142
0.0
142
0.0
142
0.0208333333333333
142
0.0
142
0.0
142
0.0
142
0.0
142
1.0
142
0.0
142
0.0
142
0.0
142
0.0
142
1.0
179
0
144
0.0208333333333333
144
0.0
144
0.0
144
0.0
144
0.0
144
0.0208333333333333
144
0.0
144
0.0
144
0.0
144
0.0
144
1.0
144
0.0
144
0.0
144
0.0
144
0.0
144
1.0
147
0.0208333333333333
147
0.0
147
0.0
147
0.0
147
0.0
147
0.0208333333333333
147
0.0
147
0.0
147
0.0
147
0.0
147
1.0
147
0.0
147
0.0
147
0.0
147
0.0
147
1.0
0
MATERIAL
5
F7B
102
{ACAD_XDICTIONARY
360
F7C
102
}
102
{ACAD_REACTORS
330
F7A
102
}
330
F7A
100
AcDbMaterial
1
ByLayer
72
0
43
0.0208333333333333
43
0.0
43
0.0
43
0.0
43
0.0
43
0.0208333333333333
43
0.0
43
0.0
43
0.0
43
0.0
43
1.0
43
0.0
43
0.0
43
0.0
43
0.0
43
1.0
77
0
47
0.0208333333333333
47
0.0
47
0.0
47
0.0
47
0.0
47
0.0208333333333333
47
0.0
47
0.0
47
0.0
47
0.0
47
1.0
47
0.0
47
0.0
47
0.0
47
0.0
47
1.0
171
0
49
0.0208333333333333
49
0.0
49
0.0
49
0.0
49
0.0
49
0.0208333333333333
49
0.0
49
0.0
49
0.0
49
0.0
49
1.0
49
0.0
49
0.0
49
0.0
49
0.0
49
1.0
175
0
142
0.0208333333333333
142
0.0
142
0.0
142
0.0
142
0.0
142
0.0208333333333333
142
0.0
142
0.0
142
0.0
142
0.0
142
1.0
142
0.0
142
0.0
142
0.0
142
0.0
142
1.0
179
0
144
0.0208333333333333
144
0.0
144
0.0
144
0.0
144
0.0
144
0.0208333333333333
144
0.0
144
0.0
144
0.0
144
0.0
144
1.0
144
0.0
144
0.0
144
0.0
144
0.0
144
1.0
147
0.0208333333333333
147
0.0
147
0.0
147
0.0
147
0.0
147
0.0208333333333333
147
0.0
147
0.0
147
0.0
147
0.0
147
1.0
147
0.0
147
0.0
147
0.0
147
0.0
147
1.0
0
MATERIAL
5
F8B
102
{ACAD_XDICTIONARY
360
F8C
102
}
102
{ACAD_REACTORS
330
F7A
102
}
330
F7A
100
AcDbMaterial
1
Global
72
0
43
0.0208333333333333
43
0.0
43
0.0
43
0.0
43
0.0
43
0.0208333333333333
43
0.0
43
0.0
43
0.0
43
0.0
43
1.0
43
0.0
43
0.0
43
0.0
43
0.0
43
1.0
77
0
47
0.0208333333333333
47
0.0
47
0.0
47
0.0
47
0.0
47
0.0208333333333333
47
0.0
47
0.0
47
0.0
47
0.0
47
1.0
47
0.0
47
0.0
47
0.0
47
0.0
47
1.0
171
0
49
0.0208333333333333
49
0.0
49
0.0
49
0.0
49
0.0
49
0.0208333333333333
49
0.0
49
0.0
49
0.0
49
0.0
49
1.0
49
0.0
49
0.0
49
0.0
49
0.0
49
1.0
175
0
142
0.0208333333333333
142
0.0
142
0.0
142
0.0
142
0.0
142
0.0208333333333333
142
0.0
142
0.0
142
0.0
142
0.0
142
1.0
142
0.0
142
0.0
142
0.0
142
0.0
142
1.0
179
0
144
0.0208333333333333
144
0.0
144
0.0
144
0.0
144
0.0
144
0.0208333333333333
144
0.0
144
0.0
144
0.0
144
0.0
144
1.0
144
0.0
144
0.0
144
0.0
144
0.0
144
1.0
147
0.0208333333333333
147
0.0
147
0.0
147
0.0
147
0.0
147
0.0208333333333333
147
0.0
147
0.0
147
0.0
147
0.0
147
1.0
147
0.0
147
0.0
147
0.0
147
0.0
147
1.0
0
MLEADERSTYLE
5
FCE
102
{ACAD_REACTORS
330
FCD
102
}
330
FCD
100
AcDbMLeaderStyle
170
2
171
1
172
0
90
2
40
0.0
41
0.0
173
1
91
-1056964608
340
256
92
-2
290
1
42
0.09
291
1
43
0.36
3
Standard
44
0.18
300

342
253
174
1
178
6
175
1
176
0
93
-1056964608
45
0.18
292
0
297
0
46
0.18
94
-1056964608
47
1.0
49
1.0
140
1.0
293
1
141
0.0
294
1
177
0
142
1.0
295
0
296
0
143
0.125
1001
ACAD_MLEADERVER
1070
2
0
MLINESTYLE
5
FAA
102
{ACAD_REACTORS
330
16
102
}
330
16
100
AcDbMlineStyle
2
STANDARD
70
0
3

62
256
51
90.0
52
90.0
71
2
49
0.5
62
256
6
BYLAYER
49
-0.5
62
256
6
BYLAYER
0
ACDBPLACEHOLDER
5
19
102
{ACAD_REACTORS
330
18
102
}
330
18
0
SCALE
5
FAC
102
{ACAD_REACTORS
330
FAB
102
}
330
FAB
100
AcDbScale
70
0
300
1:1
140
1.0
141
1.0
290
1
0
SCALE
5
FAD
102
{ACAD_REACTORS
330
FAB
102
}
330
FAB
100
AcDbScale
70
0
300
1:2
140
1.0
141
2.0
290
0
0
SCALE
5
FAE
102
{ACAD_REACTORS
330
FAB
102
}
330
FAB
100
AcDbScale
70
0
300
1:4
140
1.0
141
4.0
290
0
0
SCALE
5
FAF
102
{ACAD_REACTORS
330
FAB
102
}
330
FAB
100
AcDbScale
70
0
300
1:5
140
1.0
141
5.0
290
0
0
SCALE
5
FB0
102
{ACAD_REACTORS
330
FAB
102
}
330
FAB
100
AcDbScale
70
0
300
1:8
140
1.0
141
8.0
290
0
0
SCALE
5
FB1
102
{ACAD_REACTORS
330
FAB
102
}
330
FAB
100
AcDbScale
70
0
300
1:10
140
1.0
141
10.0
290
0
0
SCALE
5
FB2
102
{ACAD_REACTORS
330
FAB
102
}
330
FAB
100
AcDbScale
70
0
300
1:16
140
1.0
141
16.0
290
0
0
SCALE
5
FB3
102
{ACAD_REACTORS
330
FAB
102
}
330
FAB
100
AcDbScale
70
0
300
1:20
140
1.0
141
20.0
290
0
0
SCALE
5
FB4
102
{ACAD_REACTORS
330
FAB
102
}
330
FAB
100
AcDbScale
70
0
300
1:30
140
1.0
141
30.0
290
0
0
SCALE
5
FB5
102
{ACAD_REACTORS
330
FAB
102
}
330
FAB
100
AcDbScale
70
0
300
1:40
140
1.0
141
40.0
290
0
0
SCALE
5
FB6
102
{ACAD_REACTORS
330
FAB
102
}
330
FAB
100
AcDbScale
70
0
300
1:50
140
1.0
141
50.0
290
0
0
SCALE
5
FB7
102
{ACAD_REACTORS
330
FAB
102
}
330
FAB
100
AcDbScale
70
0
300
1:100
140
1.0
141
100.0
290
0
0
SCALE
5
FB8
102
{ACAD_REACTORS
330
FAB
102
}
330
FAB
100
AcDbScale
70
0
300
2:1
140
2.0
141
1.0
290
0
0
SCALE
5
FB9
102
{ACAD_REACTORS
330
FAB
102
}
330
FAB
100
AcDbScale
70
0
300
4:1
140
4.0
141
1.0
290
0
0
SCALE
5
FBA
102
{ACAD_REACTORS
330
FAB
102
}
330
FAB
100
AcDbScale
70
0
300
8:1
140
8.0
141
1.0
290
0
0
SCALE
5
FBB
102
{ACAD_REACTORS
330
FAB
102
}
330
FAB
100
AcDbScale
70
0
300
10:1
140
10.0
141
1.0
290
0
0
SCALE
5
FBC
102
{ACAD_REACTORS
330
FAB
102
}
330
FAB
100
AcDbScale
70
0
300
100:1
140
100.0
141
1.0
290
0
0
SCALE
5
FBD
102
{ACAD_REACTORS
330
FAB
102
}
330
FAB
100
AcDbScale
70
0
300
1/128" = 1'-0"
140
0.0078125
141
12.0
290
0
0
SCALE
5
FBE
102
{ACAD_REACTORS
330
FAB
102
}
330
FAB
100
AcDbScale
70
0
300
1/64" = 1'-0"
140
0.015625
141
12.0
290
0
0
SCALE
5
FBF
102
{ACAD_REACTORS
330
FAB
102
}
330
FAB
100
AcDbScale
70
0
300
1/32" = 1'-0"
140
0.03125
141
12.0
290
0
0
SCALE
5
FC0
102
{ACAD_REACTORS
330
FAB
102
}
330
FAB
100
AcDbScale
70
0
300
1/16" = 1'-0"
140
0.0625
141
12.0
290
0
0
SCALE
5
FC1
102
{ACAD_REACTORS
330
FAB
102
}
330
FAB
100
AcDbScale
70
0
300
3/32" = 1'-0"
140
0.09375
141
12.0
290
0
0
SCALE
5
FC2
102
{ACAD_REACTORS
330
FAB
102
}
330
FAB
100
AcDbScale
70
0
300
1/8" = 1'-0"
140
0.125
141
12.0
290
0
0
SCALE
5
FC3
102
{ACAD_REACTORS
330
FAB
102
}
330
FAB
100
AcDbScale
70
0
300
3/16" = 1'-0"
140
0.1875
141
12.0
290
0
0
SCALE
5
FC4
102
{ACAD_REACTORS
330
FAB
102
}
330
FAB
100
AcDbScale
70
0
300
1/4" = 1'-0"
140
0.25
141
12.0
290
0
0
SCALE
5
FC5
102
{ACAD_REACTORS
330
FAB
102
}
330
FAB
100
AcDbScale
70
0
300
3/8" = 1'-0"
140
0.375
141
12.0
290
0
0
SCALE
5
FC6
102
{ACAD_REACTORS
330
FAB
102
}
330
FAB
100
AcDbScale
70
0
300
1/2" = 1'-0"
140
0.5
141
12.0
290
0
0
SCALE
5
FC7
102
{ACAD_REACTORS
330
FAB
102
}
330
FAB
100
AcDbScale
70
0
300
3/4" = 1'-0"
140
0.75
141
12.0
290
0
0
SCALE
5
FC8
102
{ACAD_REACTORS
330
FAB
102
}
330
FAB
100
AcDbScale
70
0
300
1" = 1'-0"
140
1.0
141
12.0
290
0
0
SCALE
5
FC9
102
{ACAD_REACTORS
330
FAB
102
}
330
FAB
100
AcDbScale
70
0
300
1-1/2" = 1'-0"
140
1.5
141
12.0
290
0
0
SCALE
5
FCA
102
{ACAD_REACTORS
330
FAB
102
}
330
FAB
100
AcDbScale
70
0
300
3" = 1'-0"
140
3.0
141
12.0
290
0
0
SCALE
5
FCB
102
{ACAD_REACTORS
330
FAB
102
}
330
FAB
100
AcDbScale
70
0
300
6" = 1'-0"
140
6.0
141
12.0
290
0
0
SCALE
5
FCC
102
{ACAD_REACTORS
330
FAB
102
}
330
FAB
100
AcDbScale
70
0
300
1'-0" = 1'-0"
140
12.0
141
12.0
290
0
0
TABLESTYLE
5
FA9
102
{ACAD_XDICTIONARY
360
FF8
102
}
102
{ACAD_REACTORS
330
FA8
102
}
330
FA8
100
AcDbTableStyle
3
Standard
70
0
71
0
40
0.06
41
0.06
280
0
281
0
7
Standard
140
0.18
170
2
62
0
63
7
283
0
274
-2
284
1
64
0
275
-2
285
1
65
0
276
-2
286
1
66
0
277
-2
287
1
67
0
278
-2
288
1
68
0
279
-2
289
1
69
0
7
Standard
140
0.25
170
5
62
0
63
7
283
0
274
-2
284
1
64
0
275
-2
285
1
65
0
276
-2
286
1
66
0
277
-2
287
1
67
0
278
-2
288
1
68
0
279
-2
289
1
69
0
7
Standard
140
0.18
170
5
62
0
63
7
283
0
274
-2
284
1
64
0
275
-2
285
1
65
0
276
-2
286
1
66
0
277
-2
287
1
67
0
278
-2
288
1
68
0
279
-2
289
1
69
0
0
VISUALSTYLE
5
F99
102
{ACAD_XDICTIONARY
360
108A
102
}
102
{ACAD_REACTORS
330
F93
102
}
330
F93
100
AcDbVisualStyle
2

70
4
71
0
72
2
73
0
90
0
40
-0.6
41
-30.0
62
5
63
7
74
1
91
4
64
7
65
257
75
1
175
1
42
1.0
92
0
66
257
43
1.0
76
1
77
6
78
2
67
7
79
5
170
0
171
0
290
0
174
0
93
1
44
0.0
173
0
291
0
45
0.0
1001
ACAD
1000
AcDbSavedByObjectVersion
1070
0
0
VISUALSTYLE
5
F9B
102
{ACAD_XDICTIONARY
360
108E
102
}
102
{ACAD_REACTORS
330
F93
102
}
330
F93
100
AcDbVisualStyle
2

70
6
71
1
72
2
73
2
90
0
40
-0.6
41
-30.0
62
5
63
7
74
2
91
2
64
7
65
257
75
2
175
1
42
179.0
92
0
66
257
43
1.0
76
1
77
6
78
2
67
7
79
3
170
0
171
0
290
0
174
0
93
1
44
0.0
173
0
291
0
45
0.0
1001
ACAD
1000
AcDbSavedByObjectVersion
1070
0
0
VISUALSTYLE
5
F9A
102
{ACAD_XDICTIONARY
360
108C
102
}
102
{ACAD_REACTORS
330
F93
102
}
330
F93
100
AcDbVisualStyle
2

70
5
71
0
72
2
73
0
90
0
40
-0.6
41
-30.0
62
5
63
7
74
1
91
4
64
7
65
257
75
1
175
1
42
1.0
92
0
66
257
43
1.0
76
1
77
6
78
2
67
7
79
5
170
0
171
0
290
0
174
0
93
1
44
0.0
173
0
291
0
45
0.0
1001
ACAD
1000
AcDbSavedByObjectVersion
1070
0
0
VISUALSTYLE
5
F98
102
{ACAD_XDICTIONARY
360
1088
102
}
102
{ACAD_REACTORS
330
F93
102
}
330
F93
100
AcDbVisualStyle
2

70
7
71
1
72
0
73
1
90
0
40
-0.6
41
-30.0
62
5
63
7
74
0
91
4
64
7
65
257
75
1
175
1
42
1.0
92
8
66
7
43
1.0
76
1
77
6
78
2
67
7
79
5
170
0
171
0
290
0
174
0
93
1
44
0.0
173
0
291
1
45
0.0
1001
ACAD
1000
AcDbSavedByObjectVersion
1070
0
0
VISUALSTYLE
5
F9F
102
{ACAD_XDICTIONARY
360
1096
102
}
102
{ACAD_REACTORS
330
F93
102
}
330
F93
100
AcDbVisualStyle
2

70
12
71
2
72
2
73
0
90
0
40
-0.6
41
-30.0
62
5
63
7
74
1
91
4
64
7
65
257
75
1
175
1
42
1.0
92
8
66
7
43
1.0
76
1
77
6
78
2
67
7
79
5
170
0
171
0
290
0
174
0
93
1
44
50.0
173
0
291
1
45
0.0
1001
ACAD
1000
AcDbSavedByObjectVersion
1070
0
0
VISUALSTYLE
5
FA3
102
{ACAD_XDICTIONARY
360
109E
102
}
102
{ACAD_REACTORS
330
F93
102
}
330
F93
100
AcDbVisualStyle
2

70
16
71
2
72
2
73
3
90
0
40
-0.6
41
-30.0
62
5
63
8
74
1
91
4
64
7
65
257
75
1
175
1
42
1.0
92
8
66
8
43
1.0
76
1
77
6
78
2
67
7
79
5
170
0
171
0
290
0
174
0
93
1
44
0.0
173
0
291
1
45
0.0
1001
ACAD
1000
AcDbSavedByObjectVersion
1070
0
0
VISUALSTYLE
5
F9C
102
{ACAD_XDICTIONARY
360
1090
102
}
102
{ACAD_REACTORS
330
F93
102
}
330
F93
100
AcDbVisualStyle
2

70
9
71
3
72
2
73
0
90
0
40
-0.6
41
-30.0
62
5
63
7
74
2
91
2
64
7
65
257
75
1
175
1
42
179.0
92
8
66
7
43
1.0
76
1
77
6
78
2
67
7
79
3
170
0
171
0
290
0
174
0
93
1
44
0.0
173
0
291
0
45
0.0
1001
ACAD
1000
AcDbSavedByObjectVersion
1070
0
0
VISUALSTYLE
5
F9E
102
{ACAD_XDICTIONARY
360
1094
102
}
102
{ACAD_REACTORS
330
F93
102
}
330
F93
100
AcDbVisualStyle
2

70
11
71
2
72
2
73
0
90
0
40
-0.6
41
-30.0
62
5
63
7
74
1
91
4
64
7
65
257
75
1
175
1
42
1.0
92
8
66
7
43
1.0
76
1
77
6
78
2
67
7
79
5
170
0
171
0
290
0
174
0
93
1
44
-50.0
173
0
291
1
45
0.0
1001
ACAD
1000
AcDbSavedByObjectVersion
1070
0
0
VISUALSTYLE
5
FA6
102
{ACAD_XDICTIONARY
360
10A4
102
}
102
{ACAD_REACTORS
330
F93
102
}
330
F93
100
AcDbVisualStyle
2

70
22
71
2
72
2
73
0
90
0
40
-0.6
41
-30.0
62
5
63
7
74
1
91
4
64
7
65
257
75
1
175
1
42
1.0
92
8
66
7
43
1.0
76
1
77
6
78
2
67
7
79
5
170
0
171
0
290
0
174
0
93
1
44
0.0
173
0
291
1
45
0.0
1001
ACAD
1000
AcDbSavedByObjectVersion
1070
0
0
VISUALSTYLE
5
FA2
102
{ACAD_XDICTIONARY
360
109C
102
}
102
{ACAD_REACTORS
330
F93
102
}
330
F93
100
AcDbVisualStyle
2

70
15
71
2
72
2
73
0
90
0
40
-0.6
41
-30.0
62
5
63
7
74
1
91
4
64
7
65
257
75
1
175
1
42
1.0
92
8
66
7
43
1.0
76
1
77
6
78
2
67
7
79
5
170
0
171
0
290
0
174
0
93
1
44
0.0
173
0
291
1
45
0.0
1001
ACAD
1000
AcDbSavedByObjectVersion
1070
0
0
VISUALSTYLE
5
F94
102
{ACAD_XDICTIONARY
360
1080
102
}
102
{ACAD_REACTORS
330
F93
102
}
330
F93
100
AcDbVisualStyle
2

70
0
71
2
72
1
73
1
90
2
40
-0.6
41
30.0
62
5
63
7
74
0
91
4
64
7
65
257
75
1
175
1
42
1.0
92
8
66
7
43
1.0
76
1
77
6
78
2
67
7
79
5
170
0
171
0
290
0
174
0
93
13
44
0.0
173
0
291
1
45
0.0
1001
ACAD
1000
AcDbSavedByObjectVersion
1070
0
0
VISUALSTYLE
5
F95
102
{ACAD_XDICTIONARY
360
1082
102
}
102
{ACAD_REACTORS
330
F93
102
}
330
F93
100
AcDbVisualStyle
2

70
1
71
2
72
1
73
1
90
2
40
-0.6
41
30.0
62
5
63
7
74
1
91
4
64
7
65
257
75
1
175
1
42
1.0
92
0
66
257
43
1.0
76
1
77
6
78
2
67
7
79
5
170
0
171
0
290
0
174
0
93
13
44
0.0
173
0
291
1
45
0.0
1001
ACAD
1000
AcDbSavedByObjectVersion
1070
0
0
VISUALSTYLE
5
F96
102
{ACAD_XDICTIONARY
360
1084
102
}
102
{ACAD_REACTORS
330
F93
102
}
330
F93
100
AcDbVisualStyle
2

70
2
71
2
72
2
73
1
90
2
40
-0.6
41
30.0
62
5
63
7
74
0
91
4
64
7
65
257
75
1
175
1
42
1.0
92
0
66
7
43
1.0
76
1
77
6
78
2
67
7
79
5
170
0
171
0
290
0
174
0
93
13
44
0.0
173
0
291
1
45
0.0
1001
ACAD
1000
AcDbSavedByObjectVersion
1070
0
0
VISUALSTYLE
5
F97
102
{ACAD_XDICTIONARY
360
1086
102
}
102
{ACAD_REACTORS
330
F93
102
}
330
F93
100
AcDbVisualStyle
2

70
3
71
2
72
2
73
1
90
2
40
-0.6
41
30.0
62
5
63
7
74
1
91
4
64
7
65
257
75
1
175
1
42
1.0
92
0
66
257
43
1.0
76
1
77
6
78
2
67
7
79
5
170
0
171
0
290
0
174
0
93
13
44
0.0
173
0
291
1
45
0.0
1001
ACAD
1000
AcDbSavedByObjectVersion
1070
0
0
VISUALSTYLE
5
FA4
102
{ACAD_XDICTIONARY
360
10A0
102
}
102
{ACAD_REACTORS
330
F93
102
}
330
F93
100
AcDbVisualStyle
2

70
20
71
2
72
2
73
0
90
0
40
-0.6
41
-30.0
62
5
63
7
74
1
91
4
64
7
65
257
75
1
175
1
42
1.0
92
10
66
7
43
1.0
76
1
77
6
78
2
67
7
79
5
170
0
171
0
290
0
174
0
93
1
44
0.0
173
0
291
1
45
0.0
1001
ACAD
1000
AcDbSavedByObjectVersion
1070
0
0
VISUALSTYLE
5
FA1
102
{ACAD_XDICTIONARY
360
109A
102
}
102
{ACAD_REACTORS
330
F93
102
}
330
F93
100
AcDbVisualStyle
2

70
14
71
2
72
2
73
0
90
0
40
-0.6
41
-30.0
62
5
63
7
74
1
91
4
64
7
65
257
75
7
175
7
42
1.0
92
8
66
7
43
1.0
76
1
77
6
78
2
67
7
79
5
170
0
171
0
290
0
174
0
93
1
44
0.0
173
0
291
1
45
0.0
1001
ACAD
1000
AcDbSavedByObjectVersion
1070
0
0
VISUALSTYLE
5
FA5
102
{ACAD_XDICTIONARY
360
10A2
102
}
102
{ACAD_REACTORS
330
F93
102
}
330
F93
100
AcDbVisualStyle
2

70
21
71
2
72
2
73
0
90
0
40
-0.6
41
-30.0
62
5
63
7
74
1
91
4
64
7
65
257
75
1
175
1
42
1.0
92
9
66
7
43
1.0
76
1
77
6
78
2
67
7
79
5
170
0
171
0
290
0
174
0
93
1
44
0.0
173
0
291
1
45
0.0
1001
ACAD
1000
AcDbSavedByObjectVersion
1070
0
0
VISUALSTYLE
5
F9D
102
{ACAD_XDICTIONARY
360
1092
102
}
102
{ACAD_REACTORS
330
F93
102
}
330
F93
100
AcDbVisualStyle
2

70
8
71
2
72
2
73
0
90
0
40
-0.6
41
-30.0
62
5
63
7
74
1
91
0
64
7
65
257
75
1
175
1
42
1.0
92
8
66
8
43
1.0
76
1
77
6
78
2
67
7
79
5
170
0
171
0
290
0
174
0
93
13
44
0.0
173
0
291
0
45
0.0
1001
ACAD
1000
AcDbSavedByObjectVersion
1070
0
0
VISUALSTYLE
5
FA0
102
{ACAD_XDICTIONARY
360
1098
102
}
102
{ACAD_REACTORS
330
F93
102
}
330
F93
100
AcDbVisualStyle
2

70
13
71
2
72
2
73
0
90
0
40
-0.6
41
-30.0
62
5
63
7
74
1
91
4
64
7
65
257
75
1
175
1
42
1.0
92
12
66
7
43
1.0
76
1
77
6
78
2
67
7
79
5
170
0
171
0
290
0
174
0
93
1
44
0.0
173
0
291
1
45
0.0
1001
ACAD
1000
AcDbSavedByObjectVersion
1070
0
0
DICTIONARYVAR
5
FF3
102
{ACAD_REACTORS
330
FF0
102
}
330
FF0
100
DictionaryVariables
280
0
1
1:1
0
DICTIONARYVAR
5
FF2
102
{ACAD_REACTORS
330
FF0
102
}
330
FF0
100
DictionaryVariables
280
0
1
STANDARD
0
DICTIONARYVAR
5
FF1
102
{ACAD_REACTORS
330
FF0
102
}
330
FF0
100
DictionaryVariables
280
0
1
STANDARD
0
DICTIONARYVAR
5
FF6
102
{ACAD_REACTORS
330
FF0
102
}
330
FF0
100
DictionaryVariables
280
0
1
1
0
DICTIONARYVAR
5
FF5
102
{ACAD_REACTORS
330
FF0
102
}
330
FF0
100
DictionaryVariables
280
0
1
0
0
DICTIONARYVAR
5
FF4
102
{ACAD_REACTORS
330
FF0
102
}
330
FF0
100
DictionaryVariables
280
0
1
127
0
DICTIONARYVAR
5
1078
102
{ACAD_REACTORS
330
FF0
102
}
330
FF0
100
DictionaryVariables
280
0
1
2
0
DICTIONARY
5
10A9
330
FD1
100
AcDbDictionary
280
1
281
1
3
ACAD_XREC_ROUNDTRIP
360
10AA
0
DICTIONARY
5
10A7
330
FD0
100
AcDbDictionary
280
1
281
1
3
ACAD_XREC_ROUNDTRIP
360
10A8
0
DICTIONARY
5
F84
330
F83
100
AcDbDictionary
280
1
281
1
3
ACAD_XREC_ROUNDTRIP
360
FFF
3
BUMPTILE
360
F86
3
DIFFUSETILE
360
F85
3
OPACITYTILE
360
F89
3
REFLECTIONTILE
360
F88
3
REFRACTIONTILE
360
F8A
3
SPECULARTILE
360
F87
0
DICTIONARY
5
F7C
330
F7B
100
AcDbDictionary
280
1
281
1
3
ACAD_XREC_ROUNDTRIP
360
FFE
3
BUMPTILE
360
F7E
3
DIFFUSETILE
360
F7D
3
OPACITYTILE
360
F81
3
REFLECTIONTILE
360
F80
3
REFRACTIONTILE
360
F82
3
SPECULARTILE
360
F7F
0
DICTIONARY
5
F8C
330
F8B
100
AcDbDictionary
280
1
281
1
3
ACAD_XREC_ROUNDTRIP
360
1000
3
BUMPTILE
360
F8E
3
DIFFUSETILE
360
F8D
3
OPACITYTILE
360
F91
3
REFLECTIONTILE
360
F90
3
REFRACTIONTILE
360
F92
3
SPECULARTILE
360
F8F
0
DICTIONARY
5
FF8
330
FA9
100
AcDbDictionary
280
1
281
1
3
ACAD_ROUNDTRIP_2008_TABLESTYLE_CELLSTYLEMAP
360
1079
3
ACAD_XREC_ROUNDTRIP
360
10A6
0
DICTIONARY
5
108A
330
F99
100
AcDbDictionary
280
1
281
1
3
ACAD_XREC_ROUNDTRIP
360
108B
0
DICTIONARY
5
108E
330
F9B
100
AcDbDictionary
280
1
281
1
3
ACAD_XREC_ROUNDTRIP
360
108F
0
DICTIONARY
5
108C
330
F9A
100
AcDbDictionary
280
1
281
1
3
ACAD_XREC_ROUNDTRIP
360
108D
0
DICTIONARY
5
1088
330
F98
100
AcDbDictionary
280
1
281
1
3
ACAD_XREC_ROUNDTRIP
360
1089
0
DICTIONARY
5
1096
330
F9F
100
AcDbDictionary
280
1
281
1
3
ACAD_XREC_ROUNDTRIP
360
1097
0
DICTIONARY
5
109E
330
FA3
100
AcDbDictionary
280
1
281
1
3
ACAD_XREC_ROUNDTRIP
360
109F
0
DICTIONARY
5
1090
330
F9C
100
AcDbDictionary
280
1
281
1
3
ACAD_XREC_ROUNDTRIP
360
1091
0
DICTIONARY
5
1094
330
F9E
100
AcDbDictionary
280
1
281
1
3
ACAD_XREC_ROUNDTRIP
360
1095
0
DICTIONARY
5
10A4
330
FA6
100
AcDbDictionary
280
1
281
1
3
ACAD_XREC_ROUNDTRIP
360
10A5
0
DICTIONARY
5
109C
330
FA2
100
AcDbDictionary
280
1
281
1
3
ACAD_XREC_ROUNDTRIP
360
109D
0
DICTIONARY
5
1080
330
F94
100
AcDbDictionary
280
1
281
1
3
ACAD_XREC_ROUNDTRIP
360
1081
0
DICTIONARY
5
1082
330
F95
100
AcDbDictionary
280
1
281
1
3
ACAD_XREC_ROUNDTRIP
360
1083
0
DICTIONARY
5
1084
330
F96
100
AcDbDictionary
280
1
281
1
3
ACAD_XREC_ROUNDTRIP
360
1085
0
DICTIONARY
5
1086
330
F97
100
AcDbDictionary
280
1
281
1
3
ACAD_XREC_ROUNDTRIP
360
1087
0
DICTIONARY
5
10A0
330
FA4
100
AcDbDictionary
280
1
281
1
3
ACAD_XREC_ROUNDTRIP
360
10A1
0
DICTIONARY
5
109A
330
FA1
100
AcDbDictionary
280
1
281
1
3
ACAD_XREC_ROUNDTRIP
360
109B
0
DICTIONARY
5
10A2
330
FA5
100
AcDbDictionary
280
1
281
1
3
ACAD_XREC_ROUNDTRIP
360
10A3
0
DICTIONARY
5
1092
330
F9D
100
AcDbDictionary
280
1
281
1
3
ACAD_XREC_ROUNDTRIP
360
1093
0
DICTIONARY
5
1098
330
FA0
100
AcDbDictionary
280
1
281
1
3
ACAD_XREC_ROUNDTRIP
360
1099
0
XRECORD
5
10AA
102
{ACAD_REACTORS
330
10A9
102
}
330
10A9
100
AcDbXrecord
280
1
102
SHADEPLOT
70
0
102
SHADEPLOTRESLEVEL
70
2
102
SHADEPLOTCUSTOMDPI
70
300
0
XRECORD
5
10A8
102
{ACAD_REACTORS
330
10A7
102
}
330
10A7
100
AcDbXrecord
280
1
102
SHADEPLOT
70
0
102
SHADEPLOTRESLEVEL
70
2
102
SHADEPLOTCUSTOMDPI
70
300
0
XRECORD
5
FFF
102
{ACAD_REACTORS
330
F84
102
}
330
F84
100
AcDbXrecord
280
1
102
MATERIAL
148
0.0
149
0.0
149
0.0
93
0
94
127
282
0
72
0
77
0
171
0
175
0
179
0
273
0
0
XRECORD
5
F86
102
{ACAD_REACTORS
330
F84
102
}
330
F84
100
AcDbXrecord
280
1
270
1
271
1
0
XRECORD
5
F85
102
{ACAD_REACTORS
330
F84
102
}
330
F84
100
AcDbXrecord
280
1
270
1
271
1
0
XRECORD
5
F89
102
{ACAD_REACTORS
330
F84
102
}
330
F84
100
AcDbXrecord
280
1
270
1
271
1
0
XRECORD
5
F88
102
{ACAD_REACTORS
330
F84
102
}
330
F84
100
AcDbXrecord
280
1
270
1
271
1
0
XRECORD
5
F8A
102
{ACAD_REACTORS
330
F84
102
}
330
F84
100
AcDbXrecord
280
1
270
1
271
1
0
XRECORD
5
F87
102
{ACAD_REACTORS
330
F84
102
}
330
F84
100
AcDbXrecord
280
1
270
1
271
1
0
XRECORD
5
FFE
102
{ACAD_REACTORS
330
F7C
102
}
330
F7C
100
AcDbXrecord
280
1
102
MATERIAL
148
0.0
149
0.0
149
0.0
93
0
94
127
282
0
72
0
77
0
171
0
175
0
179
0
273
0
0
XRECORD
5
F7E
102
{ACAD_REACTORS
330
F7C
102
}
330
F7C
100
AcDbXrecord
280
1
270
1
271
1
0
XRECORD
5
F7D
102
{ACAD_REACTORS
330
F7C
102
}
330
F7C
100
AcDbXrecord
280
1
270
1
271
1
0
XRECORD
5
F81
102
{ACAD_REACTORS
330
F7C
102
}
330
F7C
100
AcDbXrecord
280
1
270
1
271
1
0
XRECORD
5
F80
102
{ACAD_REACTORS
330
F7C
102
}
330
F7C
100
AcDbXrecord
280
1
270
1
271
1
0
XRECORD
5
F82
102
{ACAD_REACTORS
330
F7C
102
}
330
F7C
100
AcDbXrecord
280
1
270
1
271
1
0
XRECORD
5
F7F
102
{ACAD_REACTORS
330
F7C
102
}
330
F7C
100
AcDbXrecord
280
1
270
1
271
1
0
XRECORD
5
1000
102
{ACAD_REACTORS
330
F8C
102
}
330
F8C
100
AcDbXrecord
280
1
102
MATERIAL
148
0.0
149
0.0
149
0.0
93
0
94
127
282
0
72
0
77
0
171
0
175
0
179
0
273
0
0
XRECORD
5
F8E
102
{ACAD_REACTORS
330
F8C
102
}
330
F8C
100
AcDbXrecord
280
1
270
1
271
1
0
XRECORD
5
F8D
102
{ACAD_REACTORS
330
F8C
102
}
330
F8C
100
AcDbXrecord
280
1
270
1
271
1
0
XRECORD
5
F91
102
{ACAD_REACTORS
330
F8C
102
}
330
F8C
100
AcDbXrecord
280
1
270
1
271
1
0
XRECORD
5
F90
102
{ACAD_REACTORS
330
F8C
102
}
330
F8C
100
AcDbXrecord
280
1
270
1
271
1
0
XRECORD
5
F92
102
{ACAD_REACTORS
330
F8C
102
}
330
F8C
100
AcDbXrecord
280
1
270
1
271
1
0
XRECORD
5
F8F
102
{ACAD_REACTORS
330
F8C
102
}
330
F8C
100
AcDbXrecord
280
1
270
1
271
1
0
CELLSTYLEMAP
5
1079
102
{ACAD_REACTORS
330
FF8
102
}
330
FF8
100
AcDbCellStyleMap
90
3
300
CELLSTYLE
1
TABLEFORMAT_BEGIN
90
5
170
1
91
0
92
32768
62
257
93
1
300
CONTENTFORMAT
1
CONTENTFORMAT_BEGIN
90
0
91
0
92
512
93
0
300

40
0.0
140
1.0
94
5
62
0
340
253
144
0.25
309
CONTENTFORMAT_END
171
1
301
MARGIN
1
CELLMARGIN_BEGIN
40
0.06
40
0.06
40
0.06
40
0.06
40
0.18
40
0.18
309
CELLMARGIN_END
94
6
95
1
302
GRIDFORMAT
1
GRIDFORMAT_BEGIN
90
0
91
1
62
0
92
-2
340
0
93
0
40
0.045
309
GRIDFORMAT_END
95
2
302
GRIDFORMAT
1
GRIDFORMAT_BEGIN
90
0
91
1
62
0
92
-2
340
0
93
0
40
0.045
309
GRIDFORMAT_END
95
4
302
GRIDFORMAT
1
GRIDFORMAT_BEGIN
90
0
91
1
62
0
92
-2
340
0
93
0
40
0.045
309
GRIDFORMAT_END
95
8
302
GRIDFORMAT
1
GRIDFORMAT_BEGIN
90
0
91
1
62
0
92
-2
340
0
93
0
40
0.045
309
GRIDFORMAT_END
95
16
302
GRIDFORMAT
1
GRIDFORMAT_BEGIN
90
0
91
1
62
0
92
-2
340
0
93
0
40
0.045
309
GRIDFORMAT_END
95
32
302
GRIDFORMAT
1
GRIDFORMAT_BEGIN
90
0
91
1
62
0
92
-2
340
0
93
0
40
0.045
309
GRIDFORMAT_END
309
TABLEFORMAT_END
1
CELLSTYLE_BEGIN
90
1
91
1
300
_TITLE
309
CELLSTYLE_END
300
CELLSTYLE
1
TABLEFORMAT_BEGIN
90
5
170
1
91
0
92
0
62
257
93
1
300
CONTENTFORMAT
1
CONTENTFORMAT_BEGIN
90
0
91
0
92
512
93
0
300

40
0.0
140
1.0
94
5
62
0
340
253
144
0.18
309
CONTENTFORMAT_END
171
1
301
MARGIN
1
CELLMARGIN_BEGIN
40
0.06
40
0.06
40
0.06
40
0.06
40
0.18
40
0.18
309
CELLMARGIN_END
94
6
95
1
302
GRIDFORMAT
1
GRIDFORMAT_BEGIN
90
0
91
1
62
0
92
-2
340
0
93
0
40
0.045
309
GRIDFORMAT_END
95
2
302
GRIDFORMAT
1
GRIDFORMAT_BEGIN
90
0
91
1
62
0
92
-2
340
0
93
0
40
0.045
309
GRIDFORMAT_END
95
4
302
GRIDFORMAT
1
GRIDFORMAT_BEGIN
90
0
91
1
62
0
92
-2
340
0
93
0
40
0.045
309
GRIDFORMAT_END
95
8
302
GRIDFORMAT
1
GRIDFORMAT_BEGIN
90
0
91
1
62
0
92
-2
340
0
93
0
40
0.045
309
GRIDFORMAT_END
95
16
302
GRIDFORMAT
1
GRIDFORMAT_BEGIN
90
0
91
1
62
0
92
-2
340
0
93
0
40
0.045
309
GRIDFORMAT_END
95
32
302
GRIDFORMAT
1
GRIDFORMAT_BEGIN
90
0
91
1
62
0
92
-2
340
0
93
0
40
0.045
309
GRIDFORMAT_END
309
TABLEFORMAT_END
1
CELLSTYLE_BEGIN
90
2
91
1
300
_HEADER
309
CELLSTYLE_END
300
CELLSTYLE
1
TABLEFORMAT_BEGIN
90
5
170
1
91
0
92
0
62
257
93
1
300
CONTENTFORMAT
1
CONTENTFORMAT_BEGIN
90
0
91
0
92
512
93
0
300

40
0.0
140
1.0
94
2
62
0
340
253
144
0.18
309
CONTENTFORMAT_END
171
1
301
MARGIN
1
CELLMARGIN_BEGIN
40
0.06
40
0.06
40
0.06
40
0.06
40
0.18
40
0.18
309
CELLMARGIN_END
94
6
95
1
302
GRIDFORMAT
1
GRIDFORMAT_BEGIN
90
0
91
1
62
0
92
-2
340
0
93
0
40
0.045
309
GRIDFORMAT_END
95
2
302
GRIDFORMAT
1
GRIDFORMAT_BEGIN
90
0
91
1
62
0
92
-2
340
0
93
0
40
0.045
309
GRIDFORMAT_END
95
4
302
GRIDFORMAT
1
GRIDFORMAT_BEGIN
90
0
91
1
62
0
92
-2
340
0
93
0
40
0.045
309
GRIDFORMAT_END
95
8
302
GRIDFORMAT
1
GRIDFORMAT_BEGIN
90
0
91
1
62
0
92
-2
340
0
93
0
40
0.045
309
GRIDFORMAT_END
95
16
302
GRIDFORMAT
1
GRIDFORMAT_BEGIN
90
0
91
1
62
0
92
-2
340
0
93
0
40
0.045
309
GRIDFORMAT_END
95
32
302
GRIDFORMAT
1
GRIDFORMAT_BEGIN
90
0
91
1
62
0
92
-2
340
0
93
0
40
0.045
309
GRIDFORMAT_END
309
TABLEFORMAT_END
1
CELLSTYLE_BEGIN
90
3
91
2
300
_DATA
309
CELLSTYLE_END
0
XRECORD
5
10A6
102
{ACAD_REACTORS
330
FF8
102
}
330
FF8
100
AcDbXrecord
280
1
102
ACAD_ROUNDTRIP_PRE2007_TABLESTYLE
90
512
91
0
1

92
512
93
0
2

94
512
95
0
3

0
XRECORD
5
108B
102
{ACAD_REACTORS
330
108A
102
}
330
108A
100
AcDbXrecord
280
1
102
RTVSPropertyOp0
70
1
102
RTVSPropertyOp1
70
1
102
RTVSPropertyOp2
70
1
102
RTVSPropertyOp3
70
1
102
RTVSPropertyOp4
70
1
102
RTVSPropertyOp5
70
1
102
RTVSPropertyOp6
70
1
102
RTVSPropertyOp7
70
1
102
RTVSPropertyOp8
70
1
102
RTVSPropertyOp9
70
1
102
RTVSPropertyOp10
70
1
102
RTVSPropertyOp11
70
1
102
RTVSPropertyOp12
70
1
102
RTVSPropertyOp13
70
1
102
RTVSPropertyOp14
70
1
102
RTVSPropertyOp15
70
1
102
RTVSPropertyOp16
70
1
102
RTVSPropertyOp17
70
1
102
RTVSPropertyOp18
70
1
102
RTVSPropertyOp19
70
1
102
RTVSPropertyOp20
70
1
102
RTVSPropertyOp21
70
1
102
RTVSPropertyOp22
70
1
102
RTVSPropertyOp23
70
1
102
RTVSPropertyOp24
70
1
102
RTVSPropertyOp25
70
1
102
RTVSPropertyOp26
70
1
102
RTVSPropertyOp27
70
1
0
XRECORD
5
108F
102
{ACAD_REACTORS
330
108E
102
}
330
108E
100
AcDbXrecord
280
1
102
RTVSPropertyOp0
70
1
102
RTVSPropertyOp1
70
1
102
RTVSPropertyOp2
70
1
102
RTVSPropertyOp3
70
1
102
RTVSPropertyOp4
70
1
102
RTVSPropertyOp5
70
1
102
RTVSPropertyOp6
70
1
102
RTVSPropertyOp7
70
1
102
RTVSPropertyOp8
70
1
102
RTVSPropertyOp9
70
1
102
RTVSPropertyOp10
70
1
102
RTVSPropertyOp11
70
1
102
RTVSPropertyOp12
70
1
102
RTVSPropertyOp13
70
1
102
RTVSPropertyOp14
70
1
102
RTVSPropertyOp15
70
1
102
RTVSPropertyOp16
70
1
102
RTVSPropertyOp17
70
1
102
RTVSPropertyOp18
70
1
102
RTVSPropertyOp19
70
1
102
RTVSPropertyOp20
70
1
102
RTVSPropertyOp21
70
1
102
RTVSPropertyOp22
70
1
102
RTVSPropertyOp23
70
1
102
RTVSPropertyOp24
70
1
102
RTVSPropertyOp25
70
1
102
RTVSPropertyOp26
70
1
102
RTVSPropertyOp27
70
1
0
XRECORD
5
108D
102
{ACAD_REACTORS
330
108C
102
}
330
108C
100
AcDbXrecord
280
1
102
RTVSPropertyOp0
70
1
102
RTVSPropertyOp1
70
1
102
RTVSPropertyOp2
70
1
102
RTVSPropertyOp3
70
1
102
RTVSPropertyOp4
70
1
102
RTVSPropertyOp5
70
1
102
RTVSPropertyOp6
70
1
102
RTVSPropertyOp7
70
1
102
RTVSPropertyOp8
70
1
102
RTVSPropertyOp9
70
1
102
RTVSPropertyOp10
70
1
102
RTVSPropertyOp11
70
1
102
RTVSPropertyOp12
70
1
102
RTVSPropertyOp13
70
1
102
RTVSPropertyOp14
70
1
102
RTVSPropertyOp15
70
1
102
RTVSPropertyOp16
70
1
102
RTVSPropertyOp17
70
1
102
RTVSPropertyOp18
70
1
102
RTVSPropertyOp19
70
1
102
RTVSPropertyOp20
70
1
102
RTVSPropertyOp21
70
1
102
RTVSPropertyOp22
70
1
102
RTVSPropertyOp23
70
1
102
RTVSPropertyOp24
70
1
102
RTVSPropertyOp25
70
1
102
RTVSPropertyOp26
70
1
102
RTVSPropertyOp27
70
1
0
XRECORD
5
1089
102
{ACAD_REACTORS
330
1088
102
}
330
1088
100
AcDbXrecord
280
1
102
RTVSPropertyOp0
70
1
102
RTVSPropertyOp1
70
1
102
RTVSPropertyOp2
70
1
102
RTVSPropertyOp3
70
1
102
RTVSPropertyOp4
70
1
102
RTVSPropertyOp5
70
1
102
RTVSPropertyOp6
70
1
102
RTVSPropertyOp7
70
1
102
RTVSPropertyOp8
70
1
102
RTVSPropertyOp9
70
1
102
RTVSPropertyOp10
70
1
102
RTVSPropertyOp11
70
1
102
RTVSPropertyOp12
70
1
102
RTVSPropertyOp13
70
1
102
RTVSPropertyOp14
70
1
102
RTVSPropertyOp15
70
1
102
RTVSPropertyOp16
70
1
102
RTVSPropertyOp17
70
1
102
RTVSPropertyOp18
70
1
102
RTVSPropertyOp19
70
1
102
RTVSPropertyOp20
70
1
102
RTVSPropertyOp21
70
1
102
RTVSPropertyOp22
70
1
102
RTVSPropertyOp23
70
1
102
RTVSPropertyOp24
70
1
102
RTVSPropertyOp25
70
1
102
RTVSPropertyOp26
70
1
102
RTVSPropertyOp27
70
1
0
XRECORD
5
1097
102
{ACAD_REACTORS
330
1096
102
}
330
1096
100
AcDbXrecord
280
1
102
RTVSPropertyOp0
70
1
102
RTVSPropertyOp1
70
1
102
RTVSPropertyOp2
70
1
102
RTVSPropertyOp3
70
1
102
RTVSPropertyOp4
70
1
102
RTVSPropertyOp5
70
1
102
RTVSPropertyOp6
70
1
102
RTVSPropertyOp7
70
1
102
RTVSPropertyOp8
70
1
102
RTVSPropertyOp9
70
1
102
RTVSPropertyOp10
70
1
102
RTVSPropertyOp11
70
1
102
RTVSPropertyOp12
70
1
102
RTVSPropertyOp13
70
1
102
RTVSPropertyOp14
70
1
102
RTVSPropertyOp15
70
1
102
RTVSPropertyOp16
70
1
102
RTVSPropertyOp17
70
1
102
RTVSPropertyOp18
70
1
102
RTVSPropertyOp19
70
1
102
RTVSPropertyOp20
70
1
102
RTVSPropertyOp21
70
1
102
RTVSPropertyOp22
70
1
102
RTVSPropertyOp23
70
1
102
RTVSPropertyOp24
70
1
102
RTVSPropertyOp25
70
1
102
RTVSPropertyOp26
70
1
102
RTVSPropertyOp27
70
1
0
XRECORD
5
109F
102
{ACAD_REACTORS
330
109E
102
}
330
109E
100
AcDbXrecord
280
1
102
RTVSPropertyOp0
70
1
102
RTVSPropertyOp1
70
1
102
RTVSPropertyOp2
70
1
102
RTVSPropertyOp3
70
1
102
RTVSPropertyOp4
70
1
102
RTVSPropertyOp5
70
1
102
RTVSPropertyOp6
70
1
102
RTVSPropertyOp7
70
1
102
RTVSPropertyOp8
70
1
102
RTVSPropertyOp9
70
1
102
RTVSPropertyOp10
70
1
102
RTVSPropertyOp11
70
1
102
RTVSPropertyOp12
70
1
102
RTVSPropertyOp13
70
1
102
RTVSPropertyOp14
70
1
102
RTVSPropertyOp15
70
1
102
RTVSPropertyOp16
70
1
102
RTVSPropertyOp17
70
1
102
RTVSPropertyOp18
70
1
102
RTVSPropertyOp19
70
1
102
RTVSPropertyOp20
70
1
102
RTVSPropertyOp21
70
1
102
RTVSPropertyOp22
70
1
102
RTVSPropertyOp23
70
1
102
RTVSPropertyOp24
70
1
102
RTVSPropertyOp25
70
1
102
RTVSPropertyOp26
70
1
102
RTVSPropertyOp27
70
1
0
XRECORD
5
1091
102
{ACAD_REACTORS
330
1090
102
}
330
1090
100
AcDbXrecord
280
1
102
RTVSPropertyOp0
70
1
102
RTVSPropertyOp1
70
1
102
RTVSPropertyOp2
70
1
102
RTVSPropertyOp3
70
1
102
RTVSPropertyOp4
70
1
102
RTVSPropertyOp5
70
1
102
RTVSPropertyOp6
70
1
102
RTVSPropertyOp7
70
1
102
RTVSPropertyOp8
70
1
102
RTVSPropertyOp9
70
1
102
RTVSPropertyOp10
70
1
102
RTVSPropertyOp11
70
1
102
RTVSPropertyOp12
70
1
102
RTVSPropertyOp13
70
1
102
RTVSPropertyOp14
70
1
102
RTVSPropertyOp15
70
1
102
RTVSPropertyOp16
70
1
102
RTVSPropertyOp17
70
1
102
RTVSPropertyOp18
70
1
102
RTVSPropertyOp19
70
1
102
RTVSPropertyOp20
70
1
102
RTVSPropertyOp21
70
1
102
RTVSPropertyOp22
70
1
102
RTVSPropertyOp23
70
1
102
RTVSPropertyOp24
70
1
102
RTVSPropertyOp25
70
1
102
RTVSPropertyOp26
70
1
102
RTVSPropertyOp27
70
1
0
XRECORD
5
1095
102
{ACAD_REACTORS
330
1094
102
}
330
1094
100
AcDbXrecord
280
1
102
RTVSPropertyOp0
70
1
102
RTVSPropertyOp1
70
1
102
RTVSPropertyOp2
70
1
102
RTVSPropertyOp3
70
1
102
RTVSPropertyOp4
70
1
102
RTVSPropertyOp5
70
1
102
RTVSPropertyOp6
70
1
102
RTVSPropertyOp7
70
1
102
RTVSPropertyOp8
70
1
102
RTVSPropertyOp9
70
1
102
RTVSPropertyOp10
70
1
102
RTVSPropertyOp11
70
1
102
RTVSPropertyOp12
70
1
102
RTVSPropertyOp13
70
1
102
RTVSPropertyOp14
70
1
102
RTVSPropertyOp15
70
1
102
RTVSPropertyOp16
70
1
102
RTVSPropertyOp17
70
1
102
RTVSPropertyOp18
70
1
102
RTVSPropertyOp19
70
1
102
RTVSPropertyOp20
70
1
102
RTVSPropertyOp21
70
1
102
RTVSPropertyOp22
70
1
102
RTVSPropertyOp23
70
1
102
RTVSPropertyOp24
70
1
102
RTVSPropertyOp25
70
1
102
RTVSPropertyOp26
70
1
102
RTVSPropertyOp27
70
1
0
XRECORD
5
10A5
102
{ACAD_REACTORS
330
10A4
102
}
330
10A4
100
AcDbXrecord
280
1
102
RTVSPropertyOp0
70
0
102
RTVSPropertyOp1
70
0
102
RTVSPropertyOp2
70
0
102
RTVSPropertyOp3
70
0
102
RTVSPropertyOp4
70
0
102
RTVSPropertyOp5
70
0
102
RTVSPropertyOp6
70
0
102
RTVSPropertyOp7
70
0
102
RTVSPropertyOp8
70
0
102
RTVSPropertyOp9
70
0
102
RTVSPropertyOp10
70
0
102
RTVSPropertyOp11
70
0
102
RTVSPropertyOp12
70
0
102
RTVSPropertyOp13
70
0
102
RTVSPropertyOp14
70
2
102
RTVSPropertyOp15
70
0
102
RTVSPropertyOp16
70
0
102
RTVSPropertyOp17
70
0
102
RTVSPropertyOp18
70
0
102
RTVSPropertyOp19
70
0
102
RTVSPropertyOp20
70
0
102
RTVSPropertyOp21
70
0
102
RTVSPropertyOp22
70
0
102
RTVSPropertyOp23
70
0
102
RTVSPropertyOp24
70
0
102
RTVSPropertyOp25
70
0
102
RTVSPropertyOp26
70
0
102
RTVSPropertyOp27
70
0
0
XRECORD
5
109D
102
{ACAD_REACTORS
330
109C
102
}
330
109C
100
AcDbXrecord
280
1
102
RTVSPropertyOp0
70
1
102
RTVSPropertyOp1
70
1
102
RTVSPropertyOp2
70
1
102
RTVSPropertyOp3
70
1
102
RTVSPropertyOp4
70
1
102
RTVSPropertyOp5
70
1
102
RTVSPropertyOp6
70
1
102
RTVSPropertyOp7
70
1
102
RTVSPropertyOp8
70
1
102
RTVSPropertyOp9
70
1
102
RTVSPropertyOp10
70
1
102
RTVSPropertyOp11
70
1
102
RTVSPropertyOp12
70
1
102
RTVSPropertyOp13
70
1
102
RTVSPropertyOp14
70
1
102
RTVSPropertyOp15
70
1
102
RTVSPropertyOp16
70
1
102
RTVSPropertyOp17
70
1
102
RTVSPropertyOp18
70
1
102
RTVSPropertyOp19
70
1
102
RTVSPropertyOp20
70
1
102
RTVSPropertyOp21
70
1
102
RTVSPropertyOp22
70
1
102
RTVSPropertyOp23
70
1
102
RTVSPropertyOp24
70
1
102
RTVSPropertyOp25
70
1
102
RTVSPropertyOp26
70
1
102
RTVSPropertyOp27
70
1
0
XRECORD
5
1081
102
{ACAD_REACTORS
330
1080
102
}
330
1080
100
AcDbXrecord
280
1
102
RTVSPropertyOp0
70
1
102
RTVSPropertyOp1
70
1
102
RTVSPropertyOp2
70
1
102
RTVSPropertyOp3
70
1
102
RTVSPropertyOp4
70
1
102
RTVSPropertyOp5
70
1
102
RTVSPropertyOp6
70
1
102
RTVSPropertyOp7
70
1
102
RTVSPropertyOp8
70
1
102
RTVSPropertyOp9
70
1
102
RTVSPropertyOp10
70
1
102
RTVSPropertyOp11
70
1
102
RTVSPropertyOp12
70
1
102
RTVSPropertyOp13
70
1
102
RTVSPropertyOp14
70
1
102
RTVSPropertyOp15
70
1
102
RTVSPropertyOp16
70
1
102
RTVSPropertyOp17
70
1
102
RTVSPropertyOp18
70
1
102
RTVSPropertyOp19
70
1
102
RTVSPropertyOp20
70
1
102
RTVSPropertyOp21
70
1
102
RTVSPropertyOp22
70
1
102
RTVSPropertyOp23
70
1
102
RTVSPropertyOp24
70
1
102
RTVSPropertyOp25
70
1
102
RTVSPropertyOp26
70
1
102
RTVSPropertyOp27
70
1
0
XRECORD
5
1083
102
{ACAD_REACTORS
330
1082
102
}
330
1082
100
AcDbXrecord
280
1
102
RTVSPropertyOp0
70
1
102
RTVSPropertyOp1
70
1
102
RTVSPropertyOp2
70
1
102
RTVSPropertyOp3
70
1
102
RTVSPropertyOp4
70
1
102
RTVSPropertyOp5
70
1
102
RTVSPropertyOp6
70
1
102
RTVSPropertyOp7
70
1
102
RTVSPropertyOp8
70
1
102
RTVSPropertyOp9
70
1
102
RTVSPropertyOp10
70
1
102
RTVSPropertyOp11
70
1
102
RTVSPropertyOp12
70
1
102
RTVSPropertyOp13
70
1
102
RTVSPropertyOp14
70
1
102
RTVSPropertyOp15
70
1
102
RTVSPropertyOp16
70
1
102
RTVSPropertyOp17
70
1
102
RTVSPropertyOp18
70
1
102
RTVSPropertyOp19
70
1
102
RTVSPropertyOp20
70
1
102
RTVSPropertyOp21
70
1
102
RTVSPropertyOp22
70
1
102
RTVSPropertyOp23
70
1
102
RTVSPropertyOp24
70
1
102
RTVSPropertyOp25
70
1
102
RTVSPropertyOp26
70
1
102
RTVSPropertyOp27
70
1
0
XRECORD
5
1085
102
{ACAD_REACTORS
330
1084
102
}
330
1084
100
AcDbXrecord
280
1
102
RTVSPropertyOp0
70
1
102
RTVSPropertyOp1
70
1
102
RTVSPropertyOp2
70
1
102
RTVSPropertyOp3
70
1
102
RTVSPropertyOp4
70
1
102
RTVSPropertyOp5
70
1
102
RTVSPropertyOp6
70
1
102
RTVSPropertyOp7
70
1
102
RTVSPropertyOp8
70
1
102
RTVSPropertyOp9
70
1
102
RTVSPropertyOp10
70
1
102
RTVSPropertyOp11
70
1
102
RTVSPropertyOp12
70
1
102
RTVSPropertyOp13
70
1
102
RTVSPropertyOp14
70
1
102
RTVSPropertyOp15
70
1
102
RTVSPropertyOp16
70
1
102
RTVSPropertyOp17
70
1
102
RTVSPropertyOp18
70
1
102
RTVSPropertyOp19
70
1
102
RTVSPropertyOp20
70
1
102
RTVSPropertyOp21
70
1
102
RTVSPropertyOp22
70
1
102
RTVSPropertyOp23
70
1
102
RTVSPropertyOp24
70
1
102
RTVSPropertyOp25
70
1
102
RTVSPropertyOp26
70
1
102
RTVSPropertyOp27
70
1
0
XRECORD
5
1087
102
{ACAD_REACTORS
330
1086
102
}
330
1086
100
AcDbXrecord
280
1
102
RTVSPropertyOp0
70
1
102
RTVSPropertyOp1
70
1
102
RTVSPropertyOp2
70
1
102
RTVSPropertyOp3
70
1
102
RTVSPropertyOp4
70
1
102
RTVSPropertyOp5
70
1
102
RTVSPropertyOp6
70
1
102
RTVSPropertyOp7
70
1
102
RTVSPropertyOp8
70
1
102
RTVSPropertyOp9
70
1
102
RTVSPropertyOp10
70
1
102
RTVSPropertyOp11
70
1
102
RTVSPropertyOp12
70
1
102
RTVSPropertyOp13
70
1
102
RTVSPropertyOp14
70
1
102
RTVSPropertyOp15
70
1
102
RTVSPropertyOp16
70
1
102
RTVSPropertyOp17
70
1
102
RTVSPropertyOp18
70
1
102
RTVSPropertyOp19
70
1
102
RTVSPropertyOp20
70
1
102
RTVSPropertyOp21
70
1
102
RTVSPropertyOp22
70
1
102
RTVSPropertyOp23
70
1
102
RTVSPropertyOp24
70
1
102
RTVSPropertyOp25
70
1
102
RTVSPropertyOp26
70
1
102
RTVSPropertyOp27
70
1
0
XRECORD
5
10A1
102
{ACAD_REACTORS
330
10A0
102
}
330
10A0
100
AcDbXrecord
280
1
102
RTVSPropertyOp0
70
0
102
RTVSPropertyOp1
70
0
102
RTVSPropertyOp2
70
0
102
RTVSPropertyOp3
70
0
102
RTVSPropertyOp4
70
0
102
RTVSPropertyOp5
70
0
102
RTVSPropertyOp6
70
0
102
RTVSPropertyOp7
70
0
102
RTVSPropertyOp8
70
0
102
RTVSPropertyOp9
70
0
102
RTVSPropertyOp10
70
0
102
RTVSPropertyOp11
70
0
102
RTVSPropertyOp12
70
0
102
RTVSPropertyOp13
70
0
102
RTVSPropertyOp14
70
2
102
RTVSPropertyOp15
70
0
102
RTVSPropertyOp16
70
0
102
RTVSPropertyOp17
70
0
102
RTVSPropertyOp18
70
0
102
RTVSPropertyOp19
70
0
102
RTVSPropertyOp20
70
0
102
RTVSPropertyOp21
70
0
102
RTVSPropertyOp22
70
0
102
RTVSPropertyOp23
70
0
102
RTVSPropertyOp24
70
0
102
RTVSPropertyOp25
70
0
102
RTVSPropertyOp26
70
0
102
RTVSPropertyOp27
70
0
0
XRECORD
5
109B
102
{ACAD_REACTORS
330
109A
102
}
330
109A
100
AcDbXrecord
280
1
102
RTVSPropertyOp0
70
1
102
RTVSPropertyOp1
70
1
102
RTVSPropertyOp2
70
1
102
RTVSPropertyOp3
70
1
102
RTVSPropertyOp4
70
1
102
RTVSPropertyOp5
70
1
102
RTVSPropertyOp6
70
1
102
RTVSPropertyOp7
70
1
102
RTVSPropertyOp8
70
1
102
RTVSPropertyOp9
70
1
102
RTVSPropertyOp10
70
1
102
RTVSPropertyOp11
70
1
102
RTVSPropertyOp12
70
1
102
RTVSPropertyOp13
70
1
102
RTVSPropertyOp14
70
1
102
RTVSPropertyOp15
70
1
102
RTVSPropertyOp16
70
1
102
RTVSPropertyOp17
70
1
102
RTVSPropertyOp18
70
1
102
RTVSPropertyOp19
70
1
102
RTVSPropertyOp20
70
1
102
RTVSPropertyOp21
70
1
102
RTVSPropertyOp22
70
1
102
RTVSPropertyOp23
70
1
102
RTVSPropertyOp24
70
1
102
RTVSPropertyOp25
70
1
102
RTVSPropertyOp26
70
1
102
RTVSPropertyOp27
70
1
0
XRECORD
5
10A3
102
{ACAD_REACTORS
330
10A2
102
}
330
10A2
100
AcDbXrecord
280
1
102
RTVSPropertyOp0
70
0
102
RTVSPropertyOp1
70
0
102
RTVSPropertyOp2
70
0
102
RTVSPropertyOp3
70
0
102
RTVSPropertyOp4
70
0
102
RTVSPropertyOp5
70
0
102
RTVSPropertyOp6
70
0
102
RTVSPropertyOp7
70
0
102
RTVSPropertyOp8
70
0
102
RTVSPropertyOp9
70
0
102
RTVSPropertyOp10
70
0
102
RTVSPropertyOp11
70
0
102
RTVSPropertyOp12
70
0
102
RTVSPropertyOp13
70
0
102
RTVSPropertyOp14
70
2
102
RTVSPropertyOp15
70
0
102
RTVSPropertyOp16
70
0
102
RTVSPropertyOp17
70
0
102
RTVSPropertyOp18
70
0
102
RTVSPropertyOp19
70
0
102
RTVSPropertyOp20
70
0
102
RTVSPropertyOp21
70
0
102
RTVSPropertyOp22
70
0
102
RTVSPropertyOp23
70
0
102
RTVSPropertyOp24
70
0
102
RTVSPropertyOp25
70
0
102
RTVSPropertyOp26
70
0
102
RTVSPropertyOp27
70
0
0
XRECORD
5
1093
102
{ACAD_REACTORS
330
1092
102
}
330
1092
100
AcDbXrecord
280
1
102
RTVSPropertyOp0
70
1
102
RTVSPropertyOp1
70
1
102
RTVSPropertyOp2
70
1
102
RTVSPropertyOp3
70
1
102
RTVSPropertyOp4
70
1
102
RTVSPropertyOp5
70
1
102
RTVSPropertyOp6
70
1
102
RTVSPropertyOp7
70
1
102
RTVSPropertyOp8
70
1
102
RTVSPropertyOp9
70
1
102
RTVSPropertyOp10
70
1
102
RTVSPropertyOp11
70
1
102
RTVSPropertyOp12
70
1
102
RTVSPropertyOp13
70
1
102
RTVSPropertyOp14
70
1
102
RTVSPropertyOp15
70
1
102
RTVSPropertyOp16
70
1
102
RTVSPropertyOp17
70
1
102
RTVSPropertyOp18
70
1
102
RTVSPropertyOp19
70
1
102
RTVSPropertyOp20
70
1
102
RTVSPropertyOp21
70
1
102
RTVSPropertyOp22
70
1
102
RTVSPropertyOp23
70
1
102
RTVSPropertyOp24
70
1
102
RTVSPropertyOp25
70
1
102
RTVSPropertyOp26
70
1
102
RTVSPropertyOp27
70
1
0
XRECORD
5
1099
102
{ACAD_REACTORS
330
1098
102
}
330
1098
100
AcDbXrecord
280
1
102
RTVSPropertyOp0
70
1
102
RTVSPropertyOp1
70
1
102
RTVSPropertyOp2
70
1
102
RTVSPropertyOp3
70
1
102
RTVSPropertyOp4
70
1
102
RTVSPropertyOp5
70
1
102
RTVSPropertyOp6
70
1
102
RTVSPropertyOp7
70
1
102
RTVSPropertyOp8
70
1
102
RTVSPropertyOp9
70
1
102
RTVSPropertyOp10
70
1
102
RTVSPropertyOp11
70
1
102
RTVSPropertyOp12
70
1
102
RTVSPropertyOp13
70
1
102
RTVSPropertyOp14
70
1
102
RTVSPropertyOp15
70
1
102
RTVSPropertyOp16
70
1
102
RTVSPropertyOp17
70
1
102
RTVSPropertyOp18
70
1
102
RTVSPropertyOp19
70
1
102
RTVSPropertyOp20
70
1
102
RTVSPropertyOp21
70
1
102
RTVSPropertyOp22
70
1
102
RTVSPropertyOp23
70
1
102
RTVSPropertyOp24
70
1
102
RTVSPropertyOp25
70
1
102
RTVSPropertyOp26
70
1
102
RTVSPropertyOp27
70
1
0
ENDSEC
0
EOF
