0
SECTION
2
HEADER
9
$ACADVER
1
AC1015
9
$ACADMAINTVER
70
20
9
$DWGCODEPAGE
3
ANSI_1252
9
$INSBASE
10
0.0
20
0.0
30
0.0
9
$EXTMIN
10
-150.000000000000
20
-105.000000000000
30
0.0
9
$EXTMAX
10
150.000000000000
20
105.000000000000
30
0.0
9
$LIMMIN
10
0.0
20
0.0
9
$LIMMAX
10
12.0
20
9.0
9
$ORTHOMODE
70
0
9
$REGENMODE
70
1
9
$FILLMODE
70
1
9
$QTEXTMODE
70
0
9
$MIRRTEXT
70
1
9
$LTSCALE
40
1.0
9
$ATTMODE
70
1
9
$TEXTSIZE
40
0.2
9
$TRACEWID
40
0.05
9
$TEXTSTYLE
7
Standard
9
$CLAYER
8
0
9
$CELTYPE
6
ByLayer
9
$CECOLOR
62
256
9
$CELTSCALE
40
1.0
9
$DISPSILH
70
0
9
$DIMSCALE
40
1.0
9
$DIMASZ
40
2.5
9
$DIMEXO
40
0.625
9
$DIMDLI
40
0.38
9
$DIMRND
40
0.0
9
$DIMDLE
40
0.0
9
$DIMEXE
40
1.25
9
$DIMTP
40
0.0
9
$DIMTM
40
0.000000001
9
$DIMTXT
40
2.5
9
$DIMCEN
40
0.09
9
$DIMTSZ
40
0.0
9
$DIMTOL
70
1
9
$DIMLIM
70
0
9
$DIMTIH
70
0
9
$DIMTOH
70
0
9
$DIMSE1
70
0
9
$DIMSE2
70
0
9
$DIMTAD
70
1
9
$DIMZIN
70
0
9
$DIMBLK
1
VDDIM_DEFAULT
9
$DIMASO
70
1
9
$DIMSHO
70
1
9
$DIMPOST
1

9
$DIMAPOST
1

9
$DIMALT
70
0
9
$DIMALTD
70
2
9
$DIMALTF
40
25.4
9
$DIMLFAC
40
1.00000000000000
9
$DIMTOFL
70
0
9
$DIMTVP
40
0.0
9
$DIMTIX
70
0
9
$DIMSOXD
70
0
9
$DIMSAH
70
0
9
$DIMBLK1
1

9
$DIMBLK2
1

9
$DIMSTYLE
2
BEM-ISBE
9
$DIMCLRD
70
0
9
$DIMCLRE
70
0
9
$DIMCLRT
70
0
9
$DIMTFAC
40
0.5
9
$DIMGAP
40
0.625
9
$DIMJUST
70
0
9
$DIMSD1
70
0
9
$DIMSD2
70
0
9
$DIMTOLJ
70
1
9
$DIMTZIN
70
0
9
$DIMALTZ
70
0
9
$DIMALTTZ
70
0
9
$DIMUPT
70
0
9
$DIMDEC
70
3
9
$DIMTDEC
70
3
9
$DIMALTU
70
2
9
$DIMALTTD
70
2
9
$DIMTXSTY
7
Standard
9
$DIMAUNIT
70
0
9
$DIMADEC
70
3
9
$DIMALTRND
40
0.0
9
$DIMAZIN
70
0
9
$DIMDSEP
70
46
9
$DIMATFIT
70
3
9
$DIMFRAC
70
0
9
$DIMLDRBLK
1

9
$DIMLUNIT
70
2
9
$DIMLWD
70
-2
9
$DIMLWE
70
-2
9
$DIMTMOVE
70
0
9
$LUNITS
70
2
9
$LUPREC
70
4
9
$SKETCHINC
40
0.1
9
$FILLETRAD
40
0.5
9
$AUNITS
70
0
9
$AUPREC
70
0
9
$MENU
1
.
9
$ELEVATION
40
0.0
9
$PELEVATION
40
0.0
9
$THICKNESS
40
0.0
9
$LIMCHECK
70
0
9
$CHAMFERA
40
0.5
9
$CHAMFERB
40
0.5
9
$CHAMFERC
40
1.0
9
$CHAMFERD
40
0.0
9
$SKPOLY
70
0
9
$TDCREATE
40
0.0
9
$TDUCREATE
40
0.0
9
$TDUPDATE
40
0.0
9
$TDUUPDATE
40
0.0
9
$TDINDWG
40
0.0
9
$TDUSRTIMER
40
0.0
9
$USRTIMER
70
1
9
$ANGBASE
50
0.0
9
$ANGDIR
70
0
9
$PDMODE
70
0
9
$PDSIZE
40
0.0
9
$PLINEWID
40
0.0
9
$SPLFRAME
70
0
9
$SPLINETYPE
70
6
9
$SPLINESEGS
70
8
9
$HANDSEED
5
10AB
9
$SURFTAB1
70
6
9
$SURFTAB2
70
6
9
$SURFTYPE
70
6
9
$SURFU
70
6
9
$SURFV
70
6
9
$UCSBASE
2

9
$UCSNAME
2

9
$UCSORG
10
0.0
20
0.0
30
0.0
9
$UCSXDIR
10
1.0
20
0.0
30
0.0
9
$UCSYDIR
10
0.0
20
1.0
30
0.0
9
$UCSORTHOREF
2

9
$UCSORTHOVIEW
70
0
9
$UCSORGTOP
10
0.0
20
0.0
30
0.0
9
$UCSORGBOTTOM
10
0.0
20
0.0
30
0.0
9
$UCSORGLEFT
10
0.0
20
0.0
30
0.0
9
$UCSORGRIGHT
10
0.0
20
0.0
30
0.0
9
$UCSORGFRONT
10
0.0
20
0.0
30
0.0
9
$UCSORGBACK
10
0.0
20
0.0
30
0.0
9
$PUCSBASE
2

9
$PUCSNAME
2

9
$PUCSORG
10
0.0
20
0.0
30
0.0
9
$PUCSXDIR
10
1.0
20
0.0
30
0.0
9
$PUCSYDIR
10
0.0
20
1.0
30
0.0
9
$PUCSORTHOREF
2

9
$PUCSORTHOVIEW
70
0
9
$PUCSORGTOP
10
0.0
20
0.0
30
0.0
9
$PUCSORGBOTTOM
10
0.0
20
0.0
30
0.0
9
$PUCSORGLEFT
10
0.0
20
0.0
30
0.0
9
$PUCSORGRIGHT
10
0.0
20
0.0
30
0.0
9
$PUCSORGFRONT
10
0.0
20
0.0
30
0.0
9
$PUCSORGBACK
10
0.0
20
0.0
30
0.0
9
$USERI1
70
0
9
$USERI2
70
0
9
$USERI3
70
0
9
$USERI4
70
0
9
$USERI5
70
0
9
$USERR1
40
0.0
9
$USERR2
40
0.0
9
$USERR3
40
0.0
9
$USERR4
40
0.0
9
$USERR5
40
0.0
9
$WORLDVIEW
70
1
9
$SHADEDGE
70
3
9
$SHADEDIF
70
70
9
$TILEMODE
70
1
9
$MAXACTVP
70
64
9
$PINSBASE
10
0.0
20
0.0
30
0.0
9
$PLIMCHECK
70
0
9
$PEXTMIN
10
1.000000000000000E+20
20
1.000000000000000E+20
30
1.000000000000000E+20
9
$PEXTMAX
10
-1.000000000000000E+20
20
-1.000000000000000E+20
30
-1.000000000000000E+20
9
$PLIMMIN
10
0.0
20
0.0
9
$PLIMMAX
10
12.0
20
9.0
9
$UNITMODE
70
0
9
$VISRETAIN
70
1
9
$PLINEGEN
70
0
9
$PSLTSCALE
70
1
9
$TREEDEPTH
70
3020
9
$CMLSTYLE
2
Standard
9
$CMLJUST
70
0
9
$CMLSCALE
40
1.0
9
$PROXYGRAPHICS
70
1
9
$MEASUREMENT
70
0
9
$CELWEIGHT
370
-1
9
$ENDCAPS
280
0
9
$JOINSTYLE
280
0
9
$LWDISPLAY
290
0
9
$INSUNITS
70
4
9
$HYPERLINKBASE
1

9
$STYLESHEET
1

9
$XEDIT
290
1
9
$CEPSNTYPE
380
0
9
$PSTYLEMODE
290
0
9
$FINGERPRINTGUID
2
{FAEB1C30-E019-11D5-929B-00C0DF256EC4}
9
$VERSIONGUID
2
{04C5C4E4-4947-4D90-8812-D401569E61F7}
9
$EXTNAMES
290
1
9
$PSVPSCALE
40
0.0
9
$OLESTARTUP
290
0
0
ENDSEC
0
SECTION
2
CLASSES
0
CLASS
1
ACDBDICTIONARYWDFLT
2
AcDbDictionaryWithDefault
3
ObjectDBX Classes
90
0
280
0
281
0
0
CLASS
1
ACDBPLACEHOLDER
2
AcDbPlaceHolder
3
ObjectDBX Classes
90
0
280
0
281
0
0
CLASS
1
LAYOUT
2
AcDbLayout
3
ObjectDBX Classes
90
0
280
0
281
0
0
CLASS
1
MATERIAL
2
AcDbMaterial
3
ObjectDBX Classes
90
1153
280
0
281
0
0
CLASS
1
VISUALSTYLE
2
AcDbVisualStyle
3
ObjectDBX Classes
90
4095
280
0
281
0
0
CLASS
1
TABLESTYLE
2
AcDbTableStyle
3
ObjectDBX Classes
90
4095
280
0
281
0
0
CLASS
1
SCALE
2
AcDbScale
3
ObjectDBX Classes
90
1153
280
0
281
0
0
CLASS
1
MLEADERSTYLE
2
AcDbMLeaderStyle
3
ACDB_MLEADERSTYLE_CLASS
90
4095
280
0
281
0
0
CLASS
1
DICTIONARYVAR
2
AcDbDictionaryVar
3
ObjectDBX Classes
90
0
280
0
281
0
0
CLASS
1
CELLSTYLEMAP
2
AcDbCellStyleMap
3
ObjectDBX Classes
90
1152
280
0
281
0
0
ENDSEC
0
SECTION
2
TABLES
0
TABLE
2
VPORT
5
24A
330
0
100
AcDbSymbolTable
70
1
0
VPORT
5
26B
330
24A
100
AcDbSymbolTableRecord
100
AcDbViewportTableRecord
2
*Active
70
0
10
0.0
20
0.0
11
1.0
21
1.0
12
0.000000000000000
22
0.000000000000000
13
0.0
23
0.0
14
10.0
24
10.0
15
10.0
25
10.0
16
0.0
26
0.0
36
1.0
17
0.0
27
0.0
37
0.0
40
210.000000000000
41
1.42857142857143
42
1.0
43
0.0
44
0.0
50
0.0
51
0.0000000000007958
71
0
72
100
73
1
74
3
75
0
76
0
77
0
78
1
281
0
65
1
110
0.0
120
0.0
130
0.0
111
1.0
121
0.0
131
0.0
112
0.0
122
1.0
132
0.0
79
0
146
0.0
0
ENDTAB
0
TABLE
2
LTYPE
5
247
330
0
100
AcDbSymbolTable
70
25
0
LTYPE
5
256
330
247
100
AcDbSymbolTableRecord
100
AcDbLinetypeTableRecord
2
ByBlock
70
0
3

72
65
73
0
40
0.0
0
LTYPE
5
257
330
247
100
AcDbSymbolTableRecord
100
AcDbLinetypeTableRecord
2
ByLayer
70
0
3

72
65
73
0
40
0.0
0
LTYPE
5
258
330
247
100
AcDbSymbolTableRecord
100
AcDbLinetypeTableRecord
2
Continuous
70
0
3
Solid line
72
65
73
0
40
0.0
0
LTYPE
5
273
330
247
100
AcDbSymbolTableRecord
100
AcDbLinetypeTableRecord
2
CENTER
70
0
3
Center ____ _ ____ _ ____ _ ____ _ ____ _ ____
72
65
73
4
40
2.0
49
1.25
74
0
49
-0.25
74
0
49
0.25
74
0
49
-0.25
74
0
0
LTYPE
5
274
330
247
100
AcDbSymbolTableRecord
100
AcDbLinetypeTableRecord
2
DASHDOT
70
0
3
Dashdot __ . __ . __ . __ . __ . __ . __ . __
72
65
73
4
40
1.0
49
0.5
74
0
49
-0.25
74
0
49
0.0
74
0
49
-0.25
74
0
0
LTYPE
5
275
330
247
100
AcDbSymbolTableRecord
100
AcDbLinetypeTableRecord
2
DASHED
70
0
3
Dashed __ __ __ __ __ __ __ __ __ __ __ __ __ _
72
65
73
2
40
0.75
49
0.5
74
0
49
-0.25
74
0
0
LTYPE
5
276
330
247
100
AcDbSymbolTableRecord
100
AcDbLinetypeTableRecord
2
HIDDEN
70
0
3
Hidden __ __ __ __ __ __ __ __ __ __ __ __ __ __
72
65
73
2
40
0.375
49
0.25
74
0
49
-0.125
74
0
0
LTYPE
5
277
330
247
100
AcDbSymbolTableRecord
100
AcDbLinetypeTableRecord
2
HIDDEN2
70
0
3
Hidden2 _ _ _ _ _ _ _ _ _ _ _ _ _ _ _ _ _
72
65
73
2
40
0.1875
49
0.125
74
0
49
-0.0625
74
0
0
LTYPE
5
278
330
247
100
AcDbSymbolTableRecord
100
AcDbLinetypeTableRecord
2
BORDER
70
0
3
Border __ __ . __ __ . __ __ . __ __ . __ __ .
72
65
73
6
40
1.75
49
0.5
74
0
49
-0.25
74
0
49
0.5
74
0
49
-0.25
74
0
49
0.0
74
0
49
-0.25
74
0
0
LTYPE
5
279
330
247
100
AcDbSymbolTableRecord
100
AcDbLinetypeTableRecord
2
BORDER2
70
0
3
Border2 __.__.__.__.__.__.__.__.__.__.__.
72
65
73
6
40
0.875
49
0.25
74
0
49
-0.125
74
0
49
0.25
74
0
49
-0.125
74
0
49
0.0
74
0
49
-0.125
74
0
0
LTYPE
5
27A
330
247
100
AcDbSymbolTableRecord
100
AcDbLinetypeTableRecord
2
BORDERX2
70
0
3
Borderx2  ____  ____  .  ____  ____  .  ___
72
65
73
6
40
3.5
49
1.0
74
0
49
-0.5
74
0
49
1.0
74
0
49
-0.5
74
0
49
0.0
74
0
49
-0.5
74
0
0
LTYPE
5
27B
330
247
100
AcDbSymbolTableRecord
100
AcDbLinetypeTableRecord
2
CENTER2
70
0
3
Center2  ___ _ ___ _ ___ _ ___ _ ___ _ ___
72
65
73
4
40
1.125
49
0.75
74
0
49
-0.125
74
0
49
0.125
74
0
49
-0.125
74
0
0
LTYPE
5
27C
330
247
100
AcDbSymbolTableRecord
100
AcDbLinetypeTableRecord
2
CENTERX2
70
0
3
Centerx2  ________  __  ________  __  _____
72
65
73
4
40
4.0
49
2.5
74
0
49
-0.5
74
0
49
0.5
74
0
49
-0.5
74
0
0
LTYPE
5
27D
330
247
100
AcDbSymbolTableRecord
100
AcDbLinetypeTableRecord
2
DASHDOT2
70
0
3
Dashdot2  _._._._._._._._._._._._._._._.
72
65
73
4
40
0.5
49
0.25
74
0
49
-0.125
74
0
49
0.0
74
0
49
-0.125
74
0
0
LTYPE
5
27E
330
247
100
AcDbSymbolTableRecord
100
AcDbLinetypeTableRecord
2
DASHDOTX2
70
0
3
Dashdotx2 ____  .  ____  .  ____  .  ___
72
65
73
4
40
2.0
49
1.0
74
0
49
-0.5
74
0
49
0.0
74
0
49
-0.5
74
0
0
LTYPE
5
27F
330
247
100
AcDbSymbolTableRecord
100
AcDbLinetypeTableRecord
2
DASHED2
70
0
3
Dashed2 _ _ _ _ _ _ _ _ _ _ _ _ _ _ _ _ _
72
65
73
2
40
0.375
49
0.25
74
0
49
-0.125
74
0
0
LTYPE
5
280
330
247
100
AcDbSymbolTableRecord
100
AcDbLinetypeTableRecord
2
DASHEDX2
70
0
3
Dashedx2 ____  ____  ____  ____  ____  ___
72
65
73
2
40
1.5
49
1.0
74
0
49
-0.5
74
0
0
LTYPE
5
281
330
247
100
AcDbSymbolTableRecord
100
AcDbLinetypeTableRecord
2
DIVIDE
70
0
3
Divide ____ . . ____ . . ____ . . ____ . . ____
72
65
73
6
40
1.25
49
0.5
74
0
49
-0.25
74
0
49
0.0
74
0
49
-0.25
74
0
49
0.0
74
0
49
-0.25
74
0
0
LTYPE
5
282
330
247
100
AcDbSymbolTableRecord
100
AcDbLinetypeTableRecord
2
DIVIDE2
70
0
3
Divide2 __..__..__..__..__..__..__..__.._
72
65
73
6
40
0.625
49
0.25
74
0
49
-0.125
74
0
49
0.0
74
0
49
-0.125
74
0
49
0.0
74
0
49
-0.125
74
0
0
LTYPE
5
283
330
247
100
AcDbSymbolTableRecord
100
AcDbLinetypeTableRecord
2
DIVIDEX2
70
0
3
Dividex2 ________  .  .  ________  .  .  _
72
65
73
6
40
2.5
49
1.0
74
0
49
-0.5
74
0
49
0.0
74
0
49
-0.5
74
0
49
0.0
74
0
49
-0.5
74
0
0
LTYPE
5
284
330
247
100
AcDbSymbolTableRecord
100
AcDbLinetypeTableRecord
2
DOT
70
0
3
Dot . . . . . . . . . . . . . . . . . . . . . . . .
72
65
73
2
40
0.25
49
0.0
74
0
49
-0.25
74
0
0
LTYPE
5
285
330
247
100
AcDbSymbolTableRecord
100
AcDbLinetypeTableRecord
2
DOT2
70
0
3
Dot2 ........................................
72
65
73
2
40
0.125
49
0.0
74
0
49
-0.125
74
0
0
LTYPE
5
286
330
247
100
AcDbSymbolTableRecord
100
AcDbLinetypeTableRecord
2
DOTX2
70
0
3
Dotx2 .  .  .  .  .  .  .  .  .  .  .  .  .  .
72
65
73
2
40
0.5
49
0.0
74
0
49
-0.5
74
0
0
LTYPE
5
287
330
247
100
AcDbSymbolTableRecord
100
AcDbLinetypeTableRecord
2
HIDDENX2
70
0
3
Hiddenx2 ____ ____ ____ ____ ____ ____ ____
72
65
73
2
40
0.75
49
0.5
74
0
49
-0.25
74
0
0
LTYPE
5
288
330
247
100
AcDbSymbolTableRecord
100
AcDbLinetypeTableRecord
2
PHANTOM
70
0
3
Phantom ______  __  __  ______  __  __  ______
72
65
73
6
40
2.5
49
1.25
74
0
49
-0.25
74
0
49
0.25
74
0
49
-0.25
74
0
49
0.25
74
0
49
-0.25
74
0
0
LTYPE
5
289
330
247
100
AcDbSymbolTableRecord
100
AcDbLinetypeTableRecord
2
PHANTOM2
70
0
3
Phantom2 ___ _ _ ___ _ _ ___ _ _ ___ _ _
72
65
73
6
40
1.25
49
0.625
74
0
49
-0.125
74
0
49
0.125
74
0
49
-0.125
74
0
49
0.125
74
0
49
-0.125
74
0
0
LTYPE
5
28A
330
247
100
AcDbSymbolTableRecord
100
AcDbLinetypeTableRecord
2
PHANTOMX2
70
0
3
Phantomx2 ____________    ____    ____   _
72
65
73
6
40
5.0
49
2.5
74
0
49
-0.5
74
0
49
0.5
74
0
49
-0.5
74
0
49
0.5
74
0
49
-0.5
74
0
0
ENDTAB
0
TABLE
2
LAYER
5
244
330
0
100
AcDbSymbolTable
70
6
0
LAYER
5
252
330
244
100
AcDbSymbolTableRecord
100
AcDbLayerTableRecord
2
0
70
0
62
7
6
Continuous
370
0
390
251
0
LAYER
5
23F
330
244
100
AcDbSymbolTableRecord
100
AcDbLayerTableRecord
2
Bemassung
70
0
 62
   7
6
Continuous
370
0
390
251
0
LAYER
5
240
330
244
100
AcDbSymbolTableRecord
100
AcDbLayerTableRecord
2
Rahmen
70
0
 62
   7
6
Continuous
370
0
390
251
0
LAYER
5
241
330
244
100
AcDbSymbolTableRecord
100
AcDbLayerTableRecord
2
Geo
70
0
 62
   7
6
Continuous
370
0
390
251
0
LAYER
5
33A
330
244
100
AcDbSymbolTableRecord
100
AcDbLayerTableRecord
2
Defpoints
70
0
62
7
6
Continuous
290
0
370
-3
390
251
0
LAYER
5
57E
330
244
100
AcDbSymbolTableRecord
100
AcDbLayerTableRecord
2
Text
70
0
 62
   7
6
Continuous
370
0
390
251
1001
AcAecLayerStandard
1000

1000

0
ENDTAB
0
TABLE
2
STYLE
5
245
330
0
100
AcDbSymbolTable
70
2
0
STYLE
5
253
330
245
100
AcDbSymbolTableRecord
100
AcDbTextStyleTableRecord
2
Standard
70
0
40
0.0
41
1.0
50
0.0
71
0
42
0.2
3
Arial
4

1001
ACAD
1000
Arial
1071
0
0
STYLE
5
132
330
245
100
AcDbSymbolTableRecord
100
AcDbTextStyleTableRecord
2
Beschriftung
70
0
40
0.0
41
1.0
50
0.0
71
0
42
0.2
3
Arial
4

1001
ACAD
1000
Arial
1071
0
1001
AcadAnnotative
1000
AnnotativeData
1070
1
1070
1
0
ENDTAB
0
TABLE
2
VIEW
5
248
330
0
100
AcDbSymbolTable
70
0
0
ENDTAB
0
TABLE
2
UCS
5
249
330
0
100
AcDbSymbolTable
70
0
0
ENDTAB
0
TABLE
2
APPID
5
24B
330
0
100
AcDbSymbolTable
70
13
0
APPID
5
254
330
24B
100
AcDbSymbolTableRecord
100
AcDbRegAppTableRecord
2
ACAD
70
0
0
APPID
5
26C
330
24B
100
AcDbSymbolTableRecord
100
AcDbRegAppTableRecord
2
VD_INVISIBLE_NOT_FOR_READ
70
0
0
APPID
5
26D
330
24B
100
AcDbSymbolTableRecord
100
AcDbRegAppTableRecord
2
VD_TEMPHATCH
70
0
0
APPID
5
26E
330
24B
100
AcDbSymbolTableRecord
100
AcDbRegAppTableRecord
2
VDEXTRAPARAM
70
0
0
APPID
5
26F
330
24B
100
AcDbSymbolTableRecord
100
AcDbRegAppTableRecord
2
PE_URL
70
0
0
APPID
5
270
330
24B
100
AcDbSymbolTableRecord
100
AcDbRegAppTableRecord
2
VD_UNKNOWN
70
0
0
APPID
5
28F
330
24B
100
AcDbSymbolTableRecord
100
AcDbRegAppTableRecord
2
AcadAnnotative
70
0
0
APPID
5
290
330
24B
100
AcDbSymbolTableRecord
100
AcDbRegAppTableRecord
2
ACAD_DSTYLE_DIMJAG
70
0
0
APPID
5
291
330
24B
100
AcDbSymbolTableRecord
100
AcDbRegAppTableRecord
2
ACAD_DSTYLE_DIMTALN
70
0
0
APPID
5
293
330
24B
100
AcDbSymbolTableRecord
100
AcDbRegAppTableRecord
2
ACAD_PSEXT
70
0
0
APPID
5
42A
330
24B
100
AcDbSymbolTableRecord
100
AcDbRegAppTableRecord
2
ACAD_MLEADERVER
70
0
0
APPID
5
532
330
24B
100
AcDbSymbolTableRecord
100
AcDbRegAppTableRecord
2
ACAD_EXEMPT_FROM_CAD_STANDARDS
70
0
0
APPID
5
57F
330
24B
100
AcDbSymbolTableRecord
100
AcDbRegAppTableRecord
2
AcAecLayerStandard
70
0
0
ENDTAB
0
TABLE
2
DIMSTYLE
5
24C
330
0
100
AcDbSymbolTable
70
3
100
AcDbDimStyleTable
71
2
340
27
340
269
0
DIMSTYLE
105
269
330
24C
100
AcDbSymbolTableRecord
100
AcDbDimStyleTableRecord
2
Standard
70
0
172
1
174
1
288
1
340
253
342
23C
0
DIMSTYLE
105
137
330
24C
100
AcDbSymbolTableRecord
100
AcDbDimStyleTableRecord
2
Beschriftung
70
0
41
2.5
42
0.625
44
1.25
73
0
74
0
77
1
140
2.5
147
0.625
172
1
174
1
271
2
288
1
340
253
342
23C
1001
AcadAnnotative
1000
AnnotativeData
1070
1
1070
1
1001
ACAD_DSTYLE_DIMJAG
1070
388
1040
1.5
1001
ACAD_DSTYLE_DIMTALN
1070
392
1070
0
0
DIMSTYLE
105
27
102
{ACAD_REACTORS
330
F1000D
330
F10017
330
F1001C
330
F10008
330
F10003
330
F10012
102
}
330
24C
100
AcDbSymbolTableRecord
100
AcDbDimStyleTableRecord
2
BEM-ISBE
70
0
41
2.5
42
0.625
44
1.25
48
0.000000001
71
1
73
0
74
0
77
1
140
2.5
144
1.00000000000000
146
0.5
147
0.625
171
 3
172
 1
179
 3
271
 3
272
 3
274
 3
340
253
342
23C
1001
ACAD_DSTYLE_DIMJAG
1070
388
1040
1.5
1001
ACAD_DSTYLE_DIMTALN
1070
392
1070
1
0
ENDTAB
0
TABLE
2
BLOCK_RECORD
5
243
330
0
100
AcDbSymbolTable
70
5
0
BLOCK_RECORD
5
261
330
243
100
AcDbSymbolTableRecord
100
AcDbBlockTableRecord
2
*Model_Space
340
FD0
0
BLOCK_RECORD
5
25D
330
243
100
AcDbSymbolTableRecord
100
AcDbBlockTableRecord
2
*Paper_Space
340
FD1
0
BLOCK_RECORD
5
265
330
243
100
AcDbSymbolTableRecord
100
AcDbBlockTableRecord
2
*Paper_Space0
340
0
0
BLOCK_RECORD
5
23C
330
243
100
AcDbSymbolTableRecord
100
AcDbBlockTableRecord
2
VDDIM_DEFAULT
340
0
102
{BLKREFS
102
}
0
BLOCK_RECORD
5
23E
330
243
100
AcDbSymbolTableRecord
100
AcDbBlockTableRecord
2
VDDIM_NONE
340
0
0
BLOCK_RECORD
5
F1000C
330
243
100
AcDbSymbolTableRecord
100
AcDbBlockTableRecord
2
*D5
340
0
0
BLOCK_RECORD
5
F10016
330
243
100
AcDbSymbolTableRecord
100
AcDbBlockTableRecord
2
*D7
340
0
0
BLOCK_RECORD
5
F1001B
330
243
100
AcDbSymbolTableRecord
100
AcDbBlockTableRecord
2
*D8
340
0
0
BLOCK_RECORD
5
F10007
330
243
100
AcDbSymbolTableRecord
100
AcDbBlockTableRecord
2
*D4
340
0
0
BLOCK_RECORD
5
F10002
330
243
100
AcDbSymbolTableRecord
100
AcDbBlockTableRecord
2
*D3
340
0
0
BLOCK_RECORD
5
F10011
330
243
100
AcDbSymbolTableRecord
100
AcDbBlockTableRecord
2
*D6
340
0
0
ENDTAB
0
ENDSEC
0
SECTION
2
BLOCKS
0
BLOCK
5
262
330
261
100
AcDbEntity
8
0
100
AcDbBlockBegin
2
*Model_Space
70
0
10
0.0
20
0.0
30
0.0
3
*Model_Space
1

0
ENDBLK
5
263
330
261
100
AcDbEntity
8
0
100
AcDbBlockEnd
0
BLOCK
5
25E
330
25D
100
AcDbEntity
67
1
8
0
100
AcDbBlockBegin
2
*Paper_Space
70
0
10
0.0
20
0.0
30
0.0
3
*Paper_Space
1

0
ENDBLK
5
25F
330
25D
100
AcDbEntity
67
1
8
0
100
AcDbBlockEnd
0
BLOCK
5
266
330
265
100
AcDbEntity
8
0
100
AcDbBlockBegin
2
*Paper_Space0
70
0
10
0.0
20
0.0
30
0.0
3
*Paper_Space0
1

0
VIEWPORT
5
296
102
{ACAD_XDICTIONARY
360
58E
102
}
330
265
100
AcDbEntity
8
0
60
1
100
AcDbViewport
10
0.0
20
0.0
30
0.0
40
10.0
41
10.0
69
0
12
0.0
22
0.0
13
0.0
23
0.0
14
1.0
24
1.0
15
0.0
25
0.0
16
0.0
26
0.0
36
1.0
17
0.0
27
0.0
37
0.0
42
0.0
43
0.0
44
0.0
45
10.0
50
0.0
51
0.0000000000007958
72
100
90
163872
1

281
0
71
0
74
0
110
0.0
120
0.0
130
0.0
111
1.0
121
0.0
131
0.0
112
0.0
122
1.0
132
0.0
79
0
146
0.0
1001
VD_INVISIBLE_NOT_FOR_READ
1000
VD_INVISIBLE_NOT_FOR_READ
0
VIEWPORT
5
297
102
{ACAD_XDICTIONARY
360
590
102
}
330
265
100
AcDbEntity
8
0
60
1
100
AcDbViewport
10
0.0
20
0.0
30
0.0
40
10.0
41
10.0
69
0
12
0.0
22
0.0
13
0.0
23
0.0
14
1.0
24
1.0
15
0.0
25
0.0
16
0.0
26
0.0
36
1.0
17
0.0
27
0.0
37
0.0
42
0.0
43
0.0
44
0.0
45
10.0
50
0.0
51
0.0000000000007958
72
100
90
163872
1

281
0
71
0
74
0
110
0.0
120
0.0
130
0.0
111
1.0
121
0.0
131
0.0
112
0.0
122
1.0
132
0.0
79
0
146
0.0
1001
VD_INVISIBLE_NOT_FOR_READ
1000
VD_INVISIBLE_NOT_FOR_READ
0
ENDBLK
5
267
330
265
100
AcDbEntity
8
0
100
AcDbBlockEnd
0
BLOCK
5
28B
330
23C
100
AcDbEntity
8
0
100
AcDbBlockBegin
2
VDDIM_DEFAULT
70
0
10
0.0
20
0.0
30
0.0
3
VDDIM_DEFAULT
1

0
LWPOLYLINE
5
23D
330
23C
100
AcDbEntity
8
0
6
Continuous
62
0
100
AcDbPolyline
90
4
70
0
43
0.0
10
0.0
20
0.0
10
-1.0
20
-0.1665
10
-1.0
20
0.1665
10
0.0
20
0.0
1001
VDEXTRAPARAM
1071
1
1071
0
1071
0
1040
1.0
1000

1000

1040
0.0
1040
0.0
0
HATCH
5
292
330
23C
100
AcDbEntity
8
0
6
Continuous
62
0
100
AcDbHatch
10
0.0
20
0.0
30
0.0
210
0.0
220
0.0
230
1.0
2
SOLID
70
1
71
0
91
1
92
2
72
0
73
1
93
3
10
0.0
20
0.0
10
-1.0
20
-0.1665
10
-1.0
20
0.1665
97
0
75
0
76
1
98
1
10
0.0
20
0.0
1001
VDEXTRAPARAM
1071
1
1071
0
1071
0
1040
1.0
1000

1000

1040
0.0
1040
0.0
1001
VD_TEMPHATCH
1000
VD_TEMPHATCH
0
ENDBLK
5
28C
330
23C
100
AcDbEntity
8
0
100
AcDbBlockEnd
0
BLOCK
5
28D
330
23E
100
AcDbEntity
8
0
100
AcDbBlockBegin
2
VDDIM_NONE
70
0
10
0.0
20
0.0
30
0.0
3
VDDIM_NONE
1

0
ENDBLK
5
28E
330
23E
100
AcDbEntity
8
0
100
AcDbBlockEnd
  0
BLOCK
  5
F10020
330
F1000C
100
AcDbEntity
  8
0
100
AcDbBlockBegin
  2
*D5
 70
     1
 10
0.0
 20
0.0
 30
0.0
  3
*D5
  1

  0
LINE
  5
F10021
330
F1000C
100
AcDbEntity
  8
Bemassung
 62
     0
370
    -2
100
AcDbLine
10
-20.7456575682382
20
12.3796526054591
30
0.000000000000000
11
-20.7456575682382
21
24.3796526054591
31
0.000000000000000
  0
LINE
  5
F10022
330
F1000C
100
AcDbEntity
  8
Bemassung
 62
     0
370
    -2
100
AcDbLine
10
85.2543424317618
20
12.1796526054591
30
0.000000000000000
11
85.2543424317618
21
29.3796526054591
31
0.000000000000000
  0
LINE
  5
F10023
330
F1000C
100
AcDbEntity
  8
Bemassung
 62
     0
370
    -2
100
AcDbLine
10
-20.7456575682382
20
22.3796526054591
30
0.000000000000000
11
85.2543424317618
21
22.3796526054591
31
0.000000000000000
  0
INSERT
  5
F10024
330
F1000C
100
AcDbEntity
  8
Bemassung
 62
     0
370
    -2
100
AcDbBlockReference
  2
VDDIM_DEFAULT
10
-20.7456575682382
20
22.3796526054591
30
0.000000000000000
 41
2.50000000000000
 42
2.50000000000000
 43
2.50000000000000
 50
180.000000000000
  0
INSERT
  5
F10025
330
F1000C
100
AcDbEntity
  8
Bemassung
 62
     0
370
    -2
100
AcDbBlockReference
  2
VDDIM_DEFAULT
10
85.2543424317618
20
22.3796526054591
30
0.000000000000000
 41
2.50000000000000
 42
2.50000000000000
 43
2.50000000000000
  0
MTEXT
  5
F10026
102
{ACAD_XDICTIONARY
360
F1000F
102
}
330
F1000C
100
AcDbEntity
  8
Bemassung
 62
     0
100
AcDbMText
10
32.2543424317618
20
23.0463192721257
30
0.000000000000000
 40
2.50000000000000
 41
0.0
 71
     8
 72
     1
  1
\A1;106
 11
1.00000000000000
 21
0.000000000000000
 31
0.0
 73
     1
 44
1.0
1001
ACAD
1000
MTEXTBEGIN
1070
73
1070
1
1070
44
1040
1.0
1070
74
1070
0
1000
MTEXTEND
  0
POINT
  5
F10027
330
F1000C
100
AcDbEntity
  8
Bemassung
 62
     0
100
AcDbPoint
10
-20.7456575682382
20
12.3796526054591
30
0.000000000000000
  0
POINT
  5
F10028
330
F1000C
100
AcDbEntity
  8
Bemassung
 62
     0
100
AcDbPoint
10
85.2543424317618
20
12.1796526054591
30
0.000000000000000
  0
ENDBLK
  5
F10029
330
F1000C
100
AcDbEntity
  8
0
100
AcDbBlockEnd
  0
BLOCK
  5
F1002A
330
F10016
100
AcDbEntity
  8
0
100
AcDbBlockBegin
  2
*D7
 70
     1
 10
0.0
 20
0.0
 30
0.0
  3
*D7
  1

  0
LINE
  5
F1002B
330
F10016
100
AcDbEntity
  8
Bemassung
 62
     0
370
    -2
100
AcDbLine
10
-22.7456575682382
20
6.38015260545907
30
0.000000000000000
11
-22.7456575682382
21
-5.62034739454093
31
0.000000000000000
  0
LINE
  5
F1002C
330
F10016
100
AcDbEntity
  8
Bemassung
 62
     0
370
    -2
100
AcDbLine
10
-64.7456575682382
20
-5.62034739454093
30
0.000000000000000
11
-64.7456575682382
21
29.3796526054591
31
0.000000000000000
  0
LINE
  5
F1002D
330
F10016
100
AcDbEntity
  8
Bemassung
 62
     0
370
    -2
100
AcDbLine
10
-22.7456575682382
20
-3.62034739454093
30
0.000000000000000
11
-64.7456575682382
21
-3.62034739454093
31
0.000000000000000
  0
INSERT
  5
F1002E
330
F10016
100
AcDbEntity
  8
Bemassung
 62
     0
370
    -2
100
AcDbBlockReference
  2
VDDIM_DEFAULT
10
-22.7456575682382
20
-3.62034739454093
30
0.000000000000000
 41
2.50000000000000
 42
2.50000000000000
 43
2.50000000000000
  0
INSERT
  5
F1002F
330
F10016
100
AcDbEntity
  8
Bemassung
 62
     0
370
    -2
100
AcDbBlockReference
  2
VDDIM_DEFAULT
10
-64.7456575682382
20
-3.62034739454093
30
0.000000000000000
 41
2.50000000000000
 42
2.50000000000000
 43
2.50000000000000
 50
180.000000000000
  0
MTEXT
  5
F10030
102
{ACAD_XDICTIONARY
360
F10019
102
}
330
F10016
100
AcDbEntity
  8
Bemassung
 62
     0
100
AcDbMText
10
-43.7456575682382
20
-2.95368072787426
30
0.000000000000000
 40
2.50000000000000
 41
0.0
 71
     8
 72
     1
  1
\A1;42
 11
1.00000000000000
 21
0.000000000000000
 31
0.0
 73
     1
 44
1.0
1001
ACAD
1000
MTEXTBEGIN
1070
73
1070
1
1070
44
1040
1.0
1070
74
1070
0
1000
MTEXTEND
  0
POINT
  5
F10031
330
F10016
100
AcDbEntity
  8
Bemassung
 62
     0
100
AcDbPoint
10
-22.7456575682382
20
6.38015260545907
30
0.000000000000000
  0
POINT
  5
F10032
330
F10016
100
AcDbEntity
  8
Bemassung
 62
     0
100
AcDbPoint
10
-64.7456575682382
20
-5.62034739454093
30
0.000000000000000
  0
ENDBLK
  5
F10033
330
F10016
100
AcDbEntity
  8
0
100
AcDbBlockEnd
  0
BLOCK
  5
F10034
330
F1001B
100
AcDbEntity
  8
0
100
AcDbBlockBegin
  2
*D8
 70
     1
 10
0.0
 20
0.0
 30
0.0
  3
*D8
  1

  0
LINE
  5
F10035
330
F1001B
100
AcDbEntity
  8
Bemassung
 62
     0
370
    -2
100
AcDbLine
10
85.2543424317618
20
12.1796526054591
30
0.000000000000000
11
85.2543424317618
21
29.3796526054591
31
0.000000000000000
  0
LINE
  5
F10036
330
F1001B
100
AcDbEntity
  8
Bemassung
 62
     0
370
    -2
100
AcDbLine
10
-64.7456575682382
20
-5.62034739454093
30
0.000000000000000
11
-64.7456575682382
21
29.3796526054591
31
0.000000000000000
  0
LINE
  5
F10037
330
F1001B
100
AcDbEntity
  8
Bemassung
 62
     0
370
    -2
100
AcDbLine
10
85.2543424317618
20
27.3796526054591
30
0.000000000000000
11
-64.7456575682382
21
27.3796526054591
31
0.000000000000000
  0
INSERT
  5
F10038
330
F1001B
100
AcDbEntity
  8
Bemassung
 62
     0
370
    -2
100
AcDbBlockReference
  2
VDDIM_DEFAULT
10
85.2543424317618
20
27.3796526054591
30
0.000000000000000
 41
2.50000000000000
 42
2.50000000000000
 43
2.50000000000000
  0
INSERT
  5
F10039
330
F1001B
100
AcDbEntity
  8
Bemassung
 62
     0
370
    -2
100
AcDbBlockReference
  2
VDDIM_DEFAULT
10
-64.7456575682382
20
27.3796526054591
30
0.000000000000000
 41
2.50000000000000
 42
2.50000000000000
 43
2.50000000000000
 50
180.000000000000
  0
MTEXT
  5
F1003A
102
{ACAD_XDICTIONARY
360
F1001E
102
}
330
F1001B
100
AcDbEntity
  8
Bemassung
 62
     0
100
AcDbMText
10
10.2543424317618
20
28.0463192721257
30
0.000000000000000
 40
2.50000000000000
 41
0.0
 71
     8
 72
     1
  1
\A1;150
 11
1.00000000000000
 21
0.000000000000000
 31
0.0
 73
     1
 44
1.0
1001
ACAD
1000
MTEXTBEGIN
1070
73
1070
1
1070
44
1040
1.0
1070
74
1070
0
1000
MTEXTEND
  0
POINT
  5
F1003B
330
F1001B
100
AcDbEntity
  8
Bemassung
 62
     0
100
AcDbPoint
10
85.2543424317618
20
12.1796526054591
30
0.000000000000000
  0
POINT
  5
F1003C
330
F1001B
100
AcDbEntity
  8
Bemassung
 62
     0
100
AcDbPoint
10
-64.7456575682382
20
-5.62034739454093
30
0.000000000000000
  0
ENDBLK
  5
F1003D
330
F1001B
100
AcDbEntity
  8
0
100
AcDbBlockEnd
  0
BLOCK
  5
F1003E
330
F10007
100
AcDbEntity
  8
0
100
AcDbBlockBegin
  2
*D4
 70
     1
 10
0.0
 20
0.0
 30
0.0
  3
*D4
  1

  0
LINE
  5
F1003F
330
F10007
100
AcDbEntity
  8
Bemassung
 62
     0
370
    -2
100
AcDbLine
10
-63.0568611357662
20
12.0779382101536
30
0.000000000000000
11
-77.6671270120150
21
23.5610945479774
31
0.000000000000000
  0
INSERT
  5
F10040
330
F10007
100
AcDbEntity
  8
Bemassung
 62
     0
370
    -2
100
AcDbBlockReference
  2
VDDIM_DEFAULT
10
-63.0568611357662
20
12.0779382101536
30
0.000000000000000
 41
2.50000000000000
 42
2.50000000000000
 43
2.50000000000000
 50
321.833895851575
  0
MTEXT
  5
F10041
102
{ACAD_XDICTIONARY
360
F1000A
102
}
330
F10007
100
AcDbEntity
  8
Bemassung
 62
     0
100
AcDbMText
10
-74.2509427479530
20
20.8760935825391
30
0.000000000000000
 40
2.50000000000000
 41
0.0
 71
     8
 72
     1
  1
\A1;R3
 11
0.786222602463317
 21
-0.617943378778193
 31
0.0
 73
     1
 44
1.0
1001
ACAD
1000
MTEXTBEGIN
1070
73
1070
1
1070
44
1040
1.0
1070
74
1070
0
1000
MTEXTEND
  0
POINT
  5
F10042
330
F10007
100
AcDbEntity
  8
Bemassung
 62
     0
100
AcDbPoint
10
-63.0568611357662
20
12.0779382101536
30
0.000000000000000
  0
POINT
  5
F10043
330
F10007
100
AcDbEntity
  8
Bemassung
 62
     0
100
AcDbPoint
10
-61.7456575682382
20
9.37965260545907
30
0.000000000000000
  0
ENDBLK
  5
F10044
330
F10007
100
AcDbEntity
  8
0
100
AcDbBlockEnd
  0
BLOCK
  5
F10045
330
F10002
100
AcDbEntity
  8
0
100
AcDbBlockBegin
  2
*D3
 70
     1
 10
0.0
 20
0.0
 30
0.0
  3
*D3
  1

  0
LINE
  5
F10046
330
F10002
100
AcDbEntity
  8
Bemassung
 62
     0
370
    -2
100
AcDbLine
10
-61.7456575682382
20
6.37965260545907
30
0.000000000000000
11
-76.7456575682382
21
6.37965260545907
31
0.000000000000000
  0
LINE
  5
F10047
330
F10002
100
AcDbEntity
  8
Bemassung
 62
     0
370
    -2
100
AcDbLine
10
-61.7456575682382
20
12.3796526054591
30
0.000000000000000
11
-76.7456575682382
21
12.3796526054591
31
0.000000000000000
  0
LINE
  5
F10048
330
F10002
100
AcDbEntity
  8
Bemassung
 62
     0
370
    -2
100
AcDbLine
10
-74.7456575682382
20
6.37965260545907
30
0.000000000000000
11
-74.7456575682382
21
12.3796526054591
31
0.000000000000000
  0
INSERT
  5
F10049
330
F10002
100
AcDbEntity
  8
Bemassung
 62
     0
370
    -2
100
AcDbBlockReference
  2
VDDIM_DEFAULT
10
-74.7456575682382
20
6.37965260545907
30
0.000000000000000
 41
2.50000000000000
 42
2.50000000000000
 43
2.50000000000000
 50
90.0000000000000
  0
INSERT
  5
F1004A
330
F10002
100
AcDbEntity
  8
Bemassung
 62
     0
370
    -2
100
AcDbBlockReference
  2
VDDIM_DEFAULT
10
-74.7456575682382
20
12.3796526054591
30
0.000000000000000
 41
2.50000000000000
 42
2.50000000000000
 43
2.50000000000000
 50
270.000000000000
  0
MTEXT
  5
F1004B
102
{ACAD_XDICTIONARY
360
F10005
102
}
330
F10002
100
AcDbEntity
  8
Bemassung
 62
     0
100
AcDbMText
10
-75.4123242349049
20
9.37965260545907
30
0.000000000000000
 40
2.50000000000000
 41
0.0
 71
     8
 72
     1
  1
\A1;6
 11
6.12323399573677e-017
 21
1.00000000000000
 31
0.0
 73
     1
 44
1.0
1001
ACAD
1000
MTEXTBEGIN
1070
73
1070
1
1070
44
1040
1.0
1070
74
1070
0
1000
MTEXTEND
  0
POINT
  5
F1004C
330
F10002
100
AcDbEntity
  8
Bemassung
 62
     0
100
AcDbPoint
10
-61.7456575682382
20
6.37965260545907
30
0.000000000000000
  0
POINT
  5
F1004D
330
F10002
100
AcDbEntity
  8
Bemassung
 62
     0
100
AcDbPoint
10
-61.7456575682382
20
12.3796526054591
30
0.000000000000000
  0
ENDBLK
  5
F1004E
330
F10002
100
AcDbEntity
  8
0
100
AcDbBlockEnd
  0
BLOCK
  5
F1004F
330
F10011
100
AcDbEntity
  8
0
100
AcDbBlockBegin
  2
*D6
 70
     1
 10
0.0
 20
0.0
 30
0.0
  3
*D6
  1

  0
LINE
  5
F10050
330
F10011
100
AcDbEntity
  8
Bemassung
 62
     0
370
    -2
100
AcDbLine
10
85.0543424317618
20
6.37965260545907
30
0.000000000000000
11
99.2543424317618
21
6.37965260545907
31
0.000000000000000
  0
LINE
  5
F10051
330
F10011
100
AcDbEntity
  8
Bemassung
 62
     0
370
    -2
100
AcDbLine
10
85.0543424317618
20
12.3796526054591
30
0.000000000000000
11
99.2543424317618
21
12.3796526054591
31
0.000000000000000
  0
LINE
  5
F10052
330
F10011
100
AcDbEntity
  8
Bemassung
 62
     0
370
    -2
100
AcDbLine
10
97.2543424317618
20
-2.86600496277916
30
0.000000000000000
11
97.2543424317618
21
12.3796526054591
31
0.000000000000000
  0
INSERT
  5
F10053
330
F10011
100
AcDbEntity
  8
Bemassung
 62
     0
370
    -2
100
AcDbBlockReference
  2
VDDIM_DEFAULT
10
97.2543424317618
20
6.37965260545907
30
0.000000000000000
 41
2.50000000000000
 42
2.50000000000000
 43
2.50000000000000
 50
90.0000000000000
  0
INSERT
  5
F10054
330
F10011
100
AcDbEntity
  8
Bemassung
 62
     0
370
    -2
100
AcDbBlockReference
  2
VDDIM_DEFAULT
10
97.2543424317618
20
12.3796526054591
30
0.000000000000000
 41
2.50000000000000
 42
2.50000000000000
 43
2.50000000000000
 50
270.000000000000
  0
MTEXT
  5
F10055
330
F10011
100
AcDbEntity
  8
Bemassung
 62
     0
100
AcDbMText
10
96.5876757650951
20
3.90818858560795
30
0.000000000000000
 40
2.50000000000000
 41
0.0
 71
     8
 72
     1
  1
\A1;6 h5
 11
6.12323399573677e-017
 21
1.00000000000000
 31
0.0
 73
     1
 44
1.0
  0
POINT
  5
F10056
330
F10011
100
AcDbEntity
  8
Bemassung
 62
     0
100
AcDbPoint
10
85.0543424317618
20
6.37965260545907
30
0.000000000000000
  0
POINT
  5
F10057
330
F10011
100
AcDbEntity
  8
Bemassung
 62
     0
100
AcDbPoint
10
85.0543424317618
20
12.3796526054591
30
0.000000000000000
  0
ENDBLK
  5
F10058
330
F10011
100
AcDbEntity
  8
0
100
AcDbBlockEnd
0
ENDSEC
0
SECTION
2
ENTITIES
  0
DIMENSION
  5
F1000D
330
261
100
AcDbEntity
  8
Bemassung
100
AcDbDimension
  2
*D5
10
85.2543424317618
20
22.3796526054591
30
0.000000000000000
11
32.2543424317618
21
23.0463192721257
31
0.000000000000000
 70
32
 1
<>
 71
     8
  3
BEM-ISBE
100
AcDbAlignedDimension
13
-20.7456575682382
23
12.3796526054591
33
0.000000000000000
14
85.2543424317618
24
12.1796526054591
34
0.000000000000000
100
AcDbRotatedDimension
1001
ACAD
1000
DSTYLE
1002
{
1070
284
1070
8
1070
78
1070
8
1070
144
1040
1.00000000000000
1070
147
1040
0.625
1070
 72
1070
 0
1070
 71
1070
 0
1002
}
  0
DIMENSION
  5
F10017
330
261
100
AcDbEntity
  8
Bemassung
100
AcDbDimension
  2
*D7
10
-64.7456575682382
20
-3.62034739454093
30
0.000000000000000
11
-43.7456575682382
21
-2.95368072787426
31
0.000000000000000
 70
32
 1
<>
 71
     8
  3
BEM-ISBE
100
AcDbAlignedDimension
13
-22.7456575682382
23
6.38015260545907
33
0.000000000000000
14
-64.7456575682382
24
-5.62034739454093
34
0.000000000000000
100
AcDbRotatedDimension
1001
ACAD
1000
DSTYLE
1002
{
1070
284
1070
8
1070
78
1070
8
1070
144
1040
1.00000000000000
1070
147
1040
0.625
1070
 72
1070
 0
1070
 71
1070
 0
1002
}
  0
DIMENSION
  5
F1001C
330
261
100
AcDbEntity
  8
Bemassung
100
AcDbDimension
  2
*D8
10
-64.7456575682382
20
27.3796526054591
30
0.000000000000000
11
10.2543424317618
21
28.0463192721257
31
0.000000000000000
 70
32
 1
<>
 71
     8
  3
BEM-ISBE
100
AcDbAlignedDimension
13
85.2543424317618
23
12.1796526054591
33
0.000000000000000
14
-64.7456575682382
24
-5.62034739454093
34
0.000000000000000
100
AcDbRotatedDimension
1001
ACAD
1000
DSTYLE
1002
{
1070
284
1070
8
1070
78
1070
8
1070
144
1040
1.00000000000000
1070
147
1040
0.625
1070
 72
1070
 0
1070
 71
1070
 0
1002
}
  0
DIMENSION
  5
F10008
330
261
100
AcDbEntity
  8
Bemassung
100
AcDbDimension
  2
*D4
10
-61.7456575682382
20
9.37965260545907
30
0.000000000000000
11
-74.2509427479530
21
20.8760935825391
31
0.000000000000000
 70
164
 1
<>
 71
     8
  3
BEM-ISBE
100
AcDbRadialDimension
15
-63.0568611357662
25
12.0779382101536
35
0.000000000000000
40
0.0
1001
ACAD
1000
DSTYLE
1002
{
1070
284
1070
8
1070
78
1070
8
1070
144
1040
1.00000000000000
1070
147
1040
0.625
1070
 72
1070
 0
1070
 71
1070
 0
1002
}
  0
DIMENSION
  5
F10003
330
261
100
AcDbEntity
  8
Bemassung
100
AcDbDimension
  2
*D3
10
-74.7456575682382
20
12.3796526054591
30
0.000000000000000
11
-75.4123242349049
21
9.37965260545907
31
0.000000000000000
 70
32
 1
Ø<>
 71
     8
  3
BEM-ISBE
100
AcDbAlignedDimension
13
-61.7456575682382
23
6.37965260545907
33
0.000000000000000
14
-61.7456575682382
24
12.3796526054591
34
0.000000000000000
50
90.0000000000000
100
AcDbRotatedDimension
1001
ACAD
1000
DSTYLE
1002
{
1070
284
1070
8
1070
78
1070
8
1070
144
1040
1.00000000000000
1070
147
1040
0.625
1070
 72
1070
 0
1070
 71
1070
 0
1002
}
  0
DIMENSION
  5
F10012
330
261
100
AcDbEntity
  8
Bemassung
100
AcDbDimension
  2
*D6
10
97.2543424317618
20
12.3796526054591
30
0.000000000000000
11
96.5876757650951
21
3.90818858560795
31
0.000000000000000
 70
32
 1
Ø<> h5
 71
     8
  3
BEM-ISBE
100
AcDbAlignedDimension
13
85.0543424317618
23
6.37965260545907
33
0.000000000000000
14
85.0543424317618
24
12.3796526054591
34
0.000000000000000
50
90.0000000000000
100
AcDbRotatedDimension
1001
ACAD
1000
DSTYLE
1002
{
1070
284
1070
8
1070
78
1070
8
1070
144
1040
1.00000000000000
1070
147
1040
0.625
1070
 72
1070
 0
1070
 71
1070
 0
1002
}
  0
ARC
  5
F10059
330
F1005A
100
AcDbEntity
8
Geo
100
AcDbCircle
10
-61.7456575682382
20
9.37965260545907
30
0.000000000000000
 40
3.00000000000000
100
AcDbArc
 50
90.0000000000000
 51
180.000000000000
  0
LINE
  5
F1005B
330
F1005C
100
AcDbEntity
8
Geo
100
AcDbLine
10
-61.7456575682382
20
12.3796526054591
30
0.000000000000000
11
-22.7456575682382
21
12.3796526054591
31
0.000000000000000
  0
LINE
  5
F1005D
330
F1005E
100
AcDbEntity
8
Geo
100
AcDbLine
10
-22.7456575682382
20
12.3796526054591
30
0.000000000000000
11
-22.7456575682382
21
12.3791526054591
31
0.000000000000000
  0
LINE
  5
F1005F
330
F10060
100
AcDbEntity
8
Geo
100
AcDbLine
10
-22.7456575682382
20
12.3791526054591
30
0.000000000000000
11
-20.7456575682382
21
12.3791526054591
31
0.000000000000000
  0
LINE
  5
F10061
330
F10062
100
AcDbEntity
8
Geo
100
AcDbLine
10
-20.7456575682382
20
12.3791526054591
30
0.000000000000000
11
-20.7456575682382
21
12.3796526054591
31
0.000000000000000
  0
LINE
  5
F10063
330
F10064
100
AcDbEntity
8
Geo
100
AcDbLine
10
-20.7456575682382
20
12.3796526054591
30
0.000000000000000
11
85.0543424317618
21
12.3796526054591
31
0.000000000000000
  0
LINE
  5
F10065
330
F10066
100
AcDbEntity
8
Geo
100
AcDbLine
10
85.0543424317618
20
12.3796526054591
30
0.000000000000000
11
85.2543424317618
21
12.1796526054591
31
0.000000000000000
  0
LINE
  5
F10067
330
F10068
100
AcDbEntity
8
Geo
100
AcDbLine
10
-50.2456575682383
20
12.3796466024480
30
0.000000000000000
11
-50.1456575682382
21
12.3792065569873
31
0.000000000000000
  0
LINE
  5
F10069
330
F1006A
100
AcDbEntity
8
Geo
100
AcDbLine
10
-50.1456575682382
20
12.3792065569873
30
0.000000000000000
11
-50.0456575682383
21
12.3776555999065
31
0.000000000000000
  0
LINE
  5
F1006B
330
F1006C
100
AcDbEntity
8
Geo
100
AcDbLine
10
-50.0456575682383
20
12.3776555999065
30
0.000000000000000
11
-49.9456575682383
21
12.3749943056167
31
0.000000000000000
  0
LINE
  5
F1006D
330
F1006E
100
AcDbEntity
8
Geo
100
AcDbLine
10
-49.9456575682383
20
12.3749943056167
30
0.000000000000000
11
-49.8456575682383
21
12.3712236597518
31
0.000000000000000
  0
LINE
  5
F1006F
330
F10070
100
AcDbEntity
8
Geo
100
AcDbLine
10
-49.8456575682383
20
12.3712236597518
30
0.000000000000000
11
-49.7456575682383
21
12.3663450588044
31
0.000000000000000
  0
LINE
  5
F10071
330
F10072
100
AcDbEntity
8
Geo
100
AcDbLine
10
-49.7456575682383
20
12.3663450588044
30
0.000000000000000
11
-49.6456575682382
21
12.3603603096078
31
0.000000000000000
  0
LINE
  5
F10073
330
F10074
100
AcDbEntity
8
Geo
100
AcDbLine
10
-49.6456575682382
20
12.3603603096078
30
0.000000000000000
11
-49.5456575682383
21
12.3532716286675
31
0.000000000000000
  0
LINE
  5
F10075
330
F10076
100
AcDbEntity
8
Geo
100
AcDbLine
10
-49.5456575682383
20
12.3532716286675
30
0.000000000000000
11
-49.4456575682383
21
12.3450816413398
31
0.000000000000000
  0
LINE
  5
F10077
330
F10078
100
AcDbEntity
8
Geo
100
AcDbLine
10
-49.4456575682383
20
12.3450816413398
30
0.000000000000000
11
-49.3456575682383
21
12.3357933808598
31
0.000000000000000
  0
LINE
  5
F10079
330
F1007A
100
AcDbEntity
8
Geo
100
AcDbLine
10
-49.3456575682383
20
12.3357933808598
30
0.000000000000000
11
-49.2456575682383
21
12.3254102872176
31
0.000000000000000
  0
LINE
  5
F1007B
330
F1007C
100
AcDbEntity
8
Geo
100
AcDbLine
10
-49.2456575682383
20
12.3254102872176
30
0.000000000000000
11
-49.1456575682383
21
12.3139362058849
31
0.000000000000000
  0
LINE
  5
F1007D
330
F1007E
100
AcDbEntity
8
Geo
100
AcDbLine
10
-49.1456575682383
20
12.3139362058849
30
0.000000000000000
11
-49.0456575682383
21
12.3013753863903
31
0.000000000000000
  0
LINE
  5
F1007F
330
F10080
100
AcDbEntity
8
Geo
100
AcDbLine
10
-49.0456575682383
20
12.3013753863903
30
0.000000000000000
11
-48.9456575682383
21
12.2877324807455
31
0.000000000000000
  0
LINE
  5
F10081
330
F10082
100
AcDbEntity
8
Geo
100
AcDbLine
10
-48.9456575682383
20
12.2877324807455
30
0.000000000000000
11
-48.8456575682383
21
12.2730125417226
31
0.000000000000000
  0
LINE
  5
F10083
330
F10084
100
AcDbEntity
8
Geo
100
AcDbLine
10
-48.8456575682383
20
12.2730125417226
30
0.000000000000000
11
-48.7456575682383
21
12.2572210209826
31
0.000000000000000
  0
LINE
  5
F10085
330
F10086
100
AcDbEntity
8
Geo
100
AcDbLine
10
-48.7456575682383
20
12.2572210209826
30
0.000000000000000
11
-48.6456575682383
21
12.2403637670565
31
0.000000000000000
  0
LINE
  5
F10087
330
F10088
100
AcDbEntity
8
Geo
100
AcDbLine
10
-48.6456575682383
20
12.2403637670565
30
0.000000000000000
11
-48.5456575682383
21
12.2224470231787
31
0.000000000000000
  0
LINE
  5
F10089
330
F1008A
100
AcDbEntity
8
Geo
100
AcDbLine
10
-48.5456575682383
20
12.2224470231787
30
0.000000000000000
11
-48.4456575682383
21
12.2034774249758
31
0.000000000000000
  0
LINE
  5
F1008B
330
F1008C
100
AcDbEntity
8
Geo
100
AcDbLine
10
-48.4456575682383
20
12.2034774249758
30
0.000000000000000
11
-48.3456575682383
21
12.1834619980078
31
0.000000000000000
  0
LINE
  5
F1008D
330
F1008E
100
AcDbEntity
8
Geo
100
AcDbLine
10
-48.3456575682383
20
12.1834619980078
30
0.000000000000000
11
-48.2456575682383
21
12.1624081551671
31
0.000000000000000
  0
LINE
  5
F1008F
330
F10090
100
AcDbEntity
8
Geo
100
AcDbLine
10
-48.2456575682383
20
12.1624081551671
30
0.000000000000000
11
-48.1456575682382
21
12.1403236939326
31
0.000000000000000
  0
LINE
  5
F10091
330
F10092
100
AcDbEntity
8
Geo
100
AcDbLine
10
-48.1456575682382
20
12.1403236939326
30
0.000000000000000
11
-48.0456575682382
21
12.1172167934820
31
0.000000000000000
  0
LINE
  5
F10093
330
F10094
100
AcDbEntity
8
Geo
100
AcDbLine
10
-48.0456575682382
20
12.1172167934820
30
0.000000000000000
11
-47.9456575682382
21
12.0930960116623
31
0.000000000000000
  0
LINE
  5
F10095
330
F10096
100
AcDbEntity
8
Geo
100
AcDbLine
10
-47.9456575682382
20
12.0930960116623
30
0.000000000000000
11
-47.8456575682382
21
12.0679702818208
31
0.000000000000000
  0
LINE
  5
F10097
330
F10098
100
AcDbEntity
8
Geo
100
AcDbLine
10
-47.8456575682382
20
12.0679702818208
30
0.000000000000000
11
-47.7456575682382
21
12.0418489094961
31
0.000000000000000
  0
LINE
  5
F10099
330
F1009A
100
AcDbEntity
8
Geo
100
AcDbLine
10
-47.7456575682382
20
12.0418489094961
30
0.000000000000000
11
-47.6456575682382
21
12.0147415689720
31
0.000000000000000
  0
LINE
  5
F1009B
330
F1009C
100
AcDbEntity
8
Geo
100
AcDbLine
10
-47.6456575682382
20
12.0147415689720
30
0.000000000000000
11
-47.5456575682382
21
11.9866582996943
31
0.000000000000000
  0
LINE
  5
F1009D
330
F1009E
100
AcDbEntity
8
Geo
100
AcDbLine
10
-47.5456575682382
20
11.9866582996943
30
0.000000000000000
11
-47.4456575682382
21
11.9576095025529
31
0.000000000000000
  0
LINE
  5
F1009F
330
F100A0
100
AcDbEntity
8
Geo
100
AcDbLine
10
-47.4456575682382
20
11.9576095025529
30
0.000000000000000
11
-47.3456575682382
21
11.9276059360294
31
0.000000000000000
  0
LINE
  5
F100A1
330
F100A2
100
AcDbEntity
8
Geo
100
AcDbLine
10
-47.3456575682382
20
11.9276059360294
30
0.000000000000000
11
-47.2456575682382
21
11.8966587122130
31
0.000000000000000
  0
LINE
  5
F100A3
330
F100A4
100
AcDbEntity
8
Geo
100
AcDbLine
10
-47.2456575682382
20
11.8966587122130
30
0.000000000000000
11
-47.1456575682382
21
11.8647792926845
31
0.000000000000000
  0
LINE
  5
F100A5
330
F100A6
100
AcDbEntity
8
Geo
100
AcDbLine
10
-47.1456575682382
20
11.8647792926845
30
0.000000000000000
11
-47.0456575682382
21
11.8319794842722
31
0.000000000000000
  0
LINE
  5
F100A7
330
F100A8
100
AcDbEntity
8
Geo
100
AcDbLine
10
-47.0456575682382
20
11.8319794842722
30
0.000000000000000
11
-46.9456575682382
21
11.7982714346780
31
0.000000000000000
  0
LINE
  5
F100A9
330
F100AA
100
AcDbEntity
8
Geo
100
AcDbLine
10
-46.9456575682382
20
11.7982714346780
30
0.000000000000000
11
-46.8456575682382
21
11.7636676279797
31
0.000000000000000
  0
LINE
  5
F100AB
330
F100AC
100
AcDbEntity
8
Geo
100
AcDbLine
10
-46.8456575682382
20
11.7636676279797
30
0.000000000000000
11
-46.7456575682382
21
11.7281808800063
31
0.000000000000000
  0
LINE
  5
F100AD
330
F100AE
100
AcDbEntity
8
Geo
100
AcDbLine
10
-46.7456575682382
20
11.7281808800063
30
0.000000000000000
11
-46.6456575682382
21
11.6918243335921
31
0.000000000000000
  0
LINE
  5
F100AF
330
F100B0
100
AcDbEntity
8
Geo
100
AcDbLine
10
-46.6456575682382
20
11.6918243335921
30
0.000000000000000
11
-46.5456575682382
21
11.6546114537092
31
0.000000000000000
  0
LINE
  5
F100B1
330
F100B2
100
AcDbEntity
8
Geo
100
AcDbLine
10
-46.5456575682382
20
11.6546114537092
30
0.000000000000000
11
-46.4456575682382
21
11.6165560224802
31
0.000000000000000
  0
LINE
  5
F100B3
330
F100B4
100
AcDbEntity
8
Geo
100
AcDbLine
10
-46.4456575682382
20
11.6165560224802
30
0.000000000000000
11
-46.3456575682382
21
11.5776721340743
31
0.000000000000000
  0
LINE
  5
F100B5
330
F100B6
100
AcDbEntity
8
Geo
100
AcDbLine
10
-46.3456575682382
20
11.5776721340743
30
0.000000000000000
11
-46.2456575682382
21
11.5379741894872
31
0.000000000000000
  0
LINE
  5
F100B7
330
F100B8
100
AcDbEntity
8
Geo
100
AcDbLine
10
-46.2456575682382
20
11.5379741894872
30
0.000000000000000
11
-46.1456575682382
21
11.4974768912075
31
0.000000000000000
  0
LINE
  5
F100B9
330
F100BA
100
AcDbEntity
8
Geo
100
AcDbLine
10
-46.1456575682382
20
11.4974768912075
30
0.000000000000000
11
-46.0456575682382
21
11.4561952377716
31
0.000000000000000
  0
LINE
  5
F100BB
330
F100BC
100
AcDbEntity
8
Geo
100
AcDbLine
10
-46.0456575682382
20
11.4561952377716
30
0.000000000000000
11
-45.9456575682382
21
11.4141445182090
31
0.000000000000000
  0
LINE
  5
F100BD
330
F100BE
100
AcDbEntity
8
Geo
100
AcDbLine
10
-45.9456575682382
20
11.4141445182090
30
0.000000000000000
11
-45.8456575682382
21
11.3713403063795
31
0.000000000000000
  0
LINE
  5
F100BF
330
F100C0
100
AcDbEntity
8
Geo
100
AcDbLine
10
-45.8456575682382
20
11.3713403063795
30
0.000000000000000
11
-45.7456575682382
21
11.3277984552056
31
0.000000000000000
  0
LINE
  5
F100C1
330
F100C2
100
AcDbEntity
8
Geo
100
AcDbLine
10
-45.7456575682382
20
11.3277984552056
30
0.000000000000000
11
-45.6456575682382
21
11.2835350908011
31
0.000000000000000
  0
LINE
  5
F100C3
330
F100C4
100
AcDbEntity
8
Geo
100
AcDbLine
10
-45.6456575682382
20
11.2835350908011
30
0.000000000000000
11
-45.5456575682382
21
11.2385666064987
31
0.000000000000000
  0
LINE
  5
F100C5
330
F100C6
100
AcDbEntity
8
Geo
100
AcDbLine
10
-45.5456575682382
20
11.2385666064987
30
0.000000000000000
11
-45.4456575682382
21
11.1929096567787
31
0.000000000000000
  0
LINE
  5
F100C7
330
F100C8
100
AcDbEntity
8
Geo
100
AcDbLine
10
-45.4456575682382
20
11.1929096567787
30
0.000000000000000
11
-45.3456575682382
21
11.1465811511004
31
0.000000000000000
  0
LINE
  5
F100C9
330
F100CA
100
AcDbEntity
8
Geo
100
AcDbLine
10
-45.3456575682382
20
11.1465811511004
30
0.000000000000000
11
-45.2456575682382
21
11.0995982476400
31
0.000000000000000
  0
LINE
  5
F100CB
330
F100CC
100
AcDbEntity
8
Geo
100
AcDbLine
10
-45.2456575682382
20
11.0995982476400
30
0.000000000000000
11
-45.1456575682382
21
11.0519783469359
31
0.000000000000000
  0
LINE
  5
F100CD
330
F100CE
100
AcDbEntity
8
Geo
100
AcDbLine
10
-45.1456575682382
20
11.0519783469359
30
0.000000000000000
11
-45.0456575682382
21
11.0037390854440
31
0.000000000000000
  0
LINE
  5
F100CF
330
F100D0
100
AcDbEntity
8
Geo
100
AcDbLine
10
-45.0456575682382
20
11.0037390854440
30
0.000000000000000
11
-44.9456575682382
21
10.9548983290060
31
0.000000000000000
  0
LINE
  5
F100D1
330
F100D2
100
AcDbEntity
8
Geo
100
AcDbLine
10
-44.9456575682382
20
10.9548983290060
30
0.000000000000000
11
-44.8456575682382
21
10.9054741662326
31
0.000000000000000
  0
LINE
  5
F100D3
330
F100D4
100
AcDbEntity
8
Geo
100
AcDbLine
10
-44.8456575682382
20
10.9054741662326
30
0.000000000000000
11
-44.7456575682382
21
10.8554849018044
31
0.000000000000000
  0
LINE
  5
F100D5
330
F100D6
100
AcDbEntity
8
Geo
100
AcDbLine
10
-44.7456575682382
20
10.8554849018044
30
0.000000000000000
11
-44.6456575682382
21
10.8049490496923
31
0.000000000000000
  0
LINE
  5
F100D7
330
F100D8
100
AcDbEntity
8
Geo
100
AcDbLine
10
-44.6456575682382
20
10.8049490496923
30
0.000000000000000
11
-44.5456575682382
21
10.7538853263009
31
0.000000000000000
  0
LINE
  5
F100D9
330
F100DA
100
AcDbEntity
8
Geo
100
AcDbLine
10
-44.5456575682382
20
10.7538853263009
30
0.000000000000000
11
-44.4456575682382
21
10.7023126435365
31
0.000000000000000
  0
LINE
  5
F100DB
330
F100DC
100
AcDbEntity
8
Geo
100
AcDbLine
10
-44.4456575682382
20
10.7023126435365
30
0.000000000000000
11
-44.3456575682382
21
10.6502501018034
31
0.000000000000000
  0
LINE
  5
F100DD
330
F100DE
100
AcDbEntity
8
Geo
100
AcDbLine
10
-44.3456575682382
20
10.6502501018034
30
0.000000000000000
11
-44.2456575682382
21
10.5977169829293
31
0.000000000000000
  0
LINE
  5
F100DF
330
F100E0
100
AcDbEntity
8
Geo
100
AcDbLine
10
-44.2456575682382
20
10.5977169829293
30
0.000000000000000
11
-44.1456575682382
21
10.5447327430242
31
0.000000000000000
  0
LINE
  5
F100E1
330
F100E2
100
AcDbEntity
8
Geo
100
AcDbLine
10
-44.1456575682382
20
10.5447327430242
30
0.000000000000000
11
-44.0456575682382
21
10.4913170052752
31
0.000000000000000
  0
LINE
  5
F100E3
330
F100E4
100
AcDbEntity
8
Geo
100
AcDbLine
10
-44.0456575682382
20
10.4913170052752
30
0.000000000000000
11
-43.9456575682382
21
10.4374895526782
31
0.000000000000000
  0
LINE
  5
F100E5
330
F100E6
100
AcDbEntity
8
Geo
100
AcDbLine
10
-43.9456575682382
20
10.4374895526782
30
0.000000000000000
11
-43.8456575682382
21
10.3832703207114
31
0.000000000000000
  0
LINE
  5
F100E7
330
F100E8
100
AcDbEntity
8
Geo
100
AcDbLine
10
-43.8456575682382
20
10.3832703207114
30
0.000000000000000
11
-43.7456575682382
21
10.3286793899522
31
0.000000000000000
  0
LINE
  5
F100E9
330
F100EA
100
AcDbEntity
8
Geo
100
AcDbLine
10
-43.7456575682382
20
10.3286793899522
30
0.000000000000000
11
-43.6456575682382
21
10.2737369786396
31
0.000000000000000
  0
LINE
  5
F100EB
330
F100EC
100
AcDbEntity
8
Geo
100
AcDbLine
10
-43.6456575682382
20
10.2737369786396
30
0.000000000000000
11
-43.5456575682382
21
10.2184634351869
31
0.000000000000000
  0
LINE
  5
F100ED
330
F100EE
100
AcDbEntity
8
Geo
100
AcDbLine
10
-43.5456575682382
20
10.2184634351869
30
0.000000000000000
11
-43.4456575682382
21
10.1628792306450
31
0.000000000000000
  0
LINE
  5
F100EF
330
F100F0
100
AcDbEntity
8
Geo
100
AcDbLine
10
-43.4456575682382
20
10.1628792306450
30
0.000000000000000
11
-43.3456575682382
21
10.1070049511209
31
0.000000000000000
  0
LINE
  5
F100F1
330
F100F2
100
AcDbEntity
8
Geo
100
AcDbLine
10
-43.3456575682382
20
10.1070049511209
30
0.000000000000000
11
-43.2456575682382
21
10.0508612901536
31
0.000000000000000
  0
LINE
  5
F100F3
330
F100F4
100
AcDbEntity
8
Geo
100
AcDbLine
10
-43.2456575682382
20
10.0508612901536
30
0.000000000000000
11
-43.1456575682382
21
9.99446904104980
31
0.000000000000000
  0
LINE
  5
F100F5
330
F100F6
100
AcDbEntity
8
Geo
100
AcDbLine
10
-43.1456575682382
20
9.99446904104980
30
0.000000000000000
11
-43.0456575682382
21
9.93784908918299
31
0.000000000000000
  0
LINE
  5
F100F7
330
F100F8
100
AcDbEntity
8
Geo
100
AcDbLine
10
-43.0456575682382
20
9.93784908918299
30
0.000000000000000
11
-42.9456575682382
21
9.88102240425854
31
0.000000000000000
  0
LINE
  5
F100F9
330
F100FA
100
AcDbEntity
8
Geo
100
AcDbLine
10
-42.9456575682382
20
9.88102240425854
30
0.000000000000000
11
-42.8456575682382
21
9.82401003254719
31
0.000000000000000
  0
LINE
  5
F100FB
330
F100FC
100
AcDbEntity
8
Geo
100
AcDbLine
10
-42.8456575682382
20
9.82401003254719
30
0.000000000000000
11
-42.7456575682382
21
9.76683308909047
31
0.000000000000000
  0
LINE
  5
F100FD
330
F100FE
100
AcDbEntity
8
Geo
100
AcDbLine
10
-42.7456575682382
20
9.76683308909047
30
0.000000000000000
11
-42.6456575682382
21
9.70951274988050
31
0.000000000000000
  0
LINE
  5
F100FF
330
F10100
100
AcDbEntity
8
Geo
100
AcDbLine
10
-42.6456575682382
20
9.70951274988050
30
0.000000000000000
11
-42.5456575682382
21
9.65207024401731
31
0.000000000000000
  0
LINE
  5
F10101
330
F10102
100
AcDbEntity
8
Geo
100
AcDbLine
10
-42.5456575682382
20
9.65207024401731
30
0.000000000000000
11
-42.4456575682382
21
9.59452684584646
31
0.000000000000000
  0
LINE
  5
F10103
330
F10104
100
AcDbEntity
8
Geo
100
AcDbLine
10
-42.4456575682382
20
9.59452684584646
30
0.000000000000000
11
-42.3456575682382
21
9.53690386707984
31
0.000000000000000
  0
LINE
  5
F10105
330
F10106
100
AcDbEntity
8
Geo
100
AcDbLine
10
-42.3456575682382
20
9.53690386707984
30
0.000000000000000
11
-42.2456575682382
21
9.47922264890276
31
0.000000000000000
  0
LINE
  5
F10107
330
F10108
100
AcDbEntity
8
Geo
100
AcDbLine
10
-42.2456575682382
20
9.47922264890276
30
0.000000000000000
11
-42.1456575682382
21
9.42150455407001
31
0.000000000000000
  0
LINE
  5
F10109
330
F1010A
100
AcDbEntity
8
Geo
100
AcDbLine
10
-42.1456575682382
20
9.42150455407001
30
0.000000000000000
11
-42.0456575682382
21
9.36377095899396
31
0.000000000000000
  0
LINE
  5
F1010B
330
F1010C
100
AcDbEntity
8
Geo
100
AcDbLine
10
-42.0456575682382
20
9.36377095899396
30
0.000000000000000
11
-41.9456575682382
21
9.30604324582765
31
0.000000000000000
  0
LINE
  5
F1010D
330
F1010E
100
AcDbEntity
8
Geo
100
AcDbLine
10
-41.9456575682382
20
9.30604324582765
30
0.000000000000000
11
-41.8456575682382
21
9.24834279454570
31
0.000000000000000
  0
LINE
  5
F1010F
330
F10110
100
AcDbEntity
8
Geo
100
AcDbLine
10
-41.8456575682382
20
9.24834279454570
30
0.000000000000000
11
-41.7456575682382
21
9.19069097502604
31
0.000000000000000
  0
LINE
  5
F10111
330
F10112
100
AcDbEntity
8
Geo
100
AcDbLine
10
-41.7456575682382
20
9.19069097502604
30
0.000000000000000
11
-41.6456575682382
21
9.13310913913540
31
0.000000000000000
  0
LINE
  5
F10113
330
F10114
100
AcDbEntity
8
Geo
100
AcDbLine
10
-41.6456575682382
20
9.13310913913540
30
0.000000000000000
11
-41.5456575682382
21
9.07561861282144
31
0.000000000000000
  0
LINE
  5
F10115
330
F10116
100
AcDbEntity
8
Geo
100
AcDbLine
10
-41.5456575682382
20
9.07561861282144
30
0.000000000000000
11
-41.4456575682382
21
9.01824068821452
31
0.000000000000000
  0
LINE
  5
F10117
330
F10118
100
AcDbEntity
8
Geo
100
AcDbLine
10
-41.4456575682382
20
9.01824068821452
30
0.000000000000000
11
-41.3456575682382
21
8.96099661574193
31
0.000000000000000
  0
LINE
  5
F10119
330
F1011A
100
AcDbEntity
8
Geo
100
AcDbLine
10
-41.3456575682382
20
8.96099661574193
30
0.000000000000000
11
-41.2456575682382
21
8.90390759625763
31
0.000000000000000
  0
LINE
  5
F1011B
330
F1011C
100
AcDbEntity
8
Geo
100
AcDbLine
10
-41.2456575682382
20
8.90390759625763
30
0.000000000000000
11
-41.1456575682382
21
8.84699477319034
31
0.000000000000000
  0
LINE
  5
F1011D
330
F1011E
100
AcDbEntity
8
Geo
100
AcDbLine
10
-41.1456575682382
20
8.84699477319034
30
0.000000000000000
11
-41.0456575682381
21
8.79027922471282
31
0.000000000000000
  0
LINE
  5
F1011F
330
F10120
100
AcDbEntity
8
Geo
100
AcDbLine
10
-41.0456575682381
20
8.79027922471282
30
0.000000000000000
11
-40.9456575682381
21
8.73378195593547
31
0.000000000000000
  0
LINE
  5
F10121
330
F10122
100
AcDbEntity
8
Geo
100
AcDbLine
10
-40.9456575682381
20
8.73378195593547
30
0.000000000000000
11
-40.8456575682381
21
8.67752389112681
31
0.000000000000000
  0
LINE
  5
F10123
330
F10124
100
AcDbEntity
8
Geo
100
AcDbLine
10
-40.8456575682381
20
8.67752389112681
30
0.000000000000000
11
-40.7456575682381
21
8.62152586596407
31
0.000000000000000
  0
LINE
  5
F10125
330
F10126
100
AcDbEntity
8
Geo
100
AcDbLine
10
-40.7456575682381
20
8.62152586596407
30
0.000000000000000
11
-40.6456575682381
21
8.56580861981644
31
0.000000000000000
  0
LINE
  5
F10127
330
F10128
100
AcDbEntity
8
Geo
100
AcDbLine
10
-40.6456575682381
20
8.56580861981644
30
0.000000000000000
11
-40.5456575682381
21
8.51039278806412
31
0.000000000000000
  0
LINE
  5
F10129
330
F1012A
100
AcDbEntity
8
Geo
100
AcDbLine
10
-40.5456575682381
20
8.51039278806412
30
0.000000000000000
11
-40.4456575682381
21
8.45529889445576
31
0.000000000000000
  0
LINE
  5
F1012B
330
F1012C
100
AcDbEntity
8
Geo
100
AcDbLine
10
-40.4456575682381
20
8.45529889445576
30
0.000000000000000
11
-40.3456575682381
21
8.40054734350738
31
0.000000000000000
  0
LINE
  5
F1012D
330
F1012E
100
AcDbEntity
8
Geo
100
AcDbLine
10
-40.3456575682381
20
8.40054734350738
30
0.000000000000000
11
-40.2456575682381
21
8.34615841294530
31
0.000000000000000
  0
LINE
  5
F1012F
330
F10130
100
AcDbEntity
8
Geo
100
AcDbLine
10
-40.2456575682381
20
8.34615841294530
30
0.000000000000000
11
-40.1456575682381
21
8.29215224619616
31
0.000000000000000
  0
LINE
  5
F10131
330
F10132
100
AcDbEntity
8
Geo
100
AcDbLine
10
-40.1456575682381
20
8.29215224619616
30
0.000000000000000
11
-40.0456575682381
21
8.23854884492659
31
0.000000000000000
  0
LINE
  5
F10133
330
F10134
100
AcDbEntity
8
Geo
100
AcDbLine
10
-40.0456575682381
20
8.23854884492659
30
0.000000000000000
11
-39.9456575682381
21
8.18536806163544
31
0.000000000000000
  0
LINE
  5
F10135
330
F10136
100
AcDbEntity
8
Geo
100
AcDbLine
10
-39.9456575682381
20
8.18536806163544
30
0.000000000000000
11
-39.8456575682381
21
8.13262959230119
31
0.000000000000000
  0
LINE
  5
F10137
330
F10138
100
AcDbEntity
8
Geo
100
AcDbLine
10
-39.8456575682381
20
8.13262959230119
30
0.000000000000000
11
-39.7456575682381
21
8.08035296908741
31
0.000000000000000
  0
LINE
  5
F10139
330
F1013A
100
AcDbEntity
8
Geo
100
AcDbLine
10
-39.7456575682381
20
8.08035296908741
30
0.000000000000000
11
-39.6456575682381
21
8.02855755310883
31
0.000000000000000
  0
LINE
  5
F1013B
330
F1013C
100
AcDbEntity
8
Geo
100
AcDbLine
10
-39.6456575682381
20
8.02855755310883
30
0.000000000000000
11
-39.5456575682381
21
7.97726252726077
31
0.000000000000000
  0
LINE
  5
F1013D
330
F1013E
100
AcDbEntity
8
Geo
100
AcDbLine
10
-39.5456575682381
20
7.97726252726077
30
0.000000000000000
11
-39.4456575682381
21
7.92648688911459
31
0.000000000000000
  0
LINE
  5
F1013F
330
F10140
100
AcDbEntity
8
Geo
100
AcDbLine
10
-39.4456575682381
20
7.92648688911459
30
0.000000000000000
11
-39.3456575682381
21
7.87624944388179
31
0.000000000000000
  0
LINE
  5
F10141
330
F10142
100
AcDbEntity
8
Geo
100
AcDbLine
10
-39.3456575682381
20
7.87624944388179
30
0.000000000000000
11
-39.2456575682381
21
7.82656879744928
31
0.000000000000000
  0
LINE
  5
F10143
330
F10144
100
AcDbEntity
8
Geo
100
AcDbLine
10
-39.2456575682381
20
7.82656879744928
30
0.000000000000000
11
-39.1456575682381
21
7.77746334948860
31
0.000000000000000
  0
LINE
  5
F10145
330
F10146
100
AcDbEntity
8
Geo
100
AcDbLine
10
-39.1456575682381
20
7.77746334948860
30
0.000000000000000
11
-39.0456575682381
21
7.72895128664136
31
0.000000000000000
  0
LINE
  5
F10147
330
F10148
100
AcDbEntity
8
Geo
100
AcDbLine
10
-39.0456575682381
20
7.72895128664136
30
0.000000000000000
11
-38.9456575682381
21
7.68105057578370
31
0.000000000000000
  0
LINE
  5
F10149
330
F1014A
100
AcDbEntity
8
Geo
100
AcDbLine
10
-38.9456575682381
20
7.68105057578370
30
0.000000000000000
11
-38.8456575682381
21
7.63377895737210
31
0.000000000000000
  0
LINE
  5
F1014B
330
F1014C
100
AcDbEntity
8
Geo
100
AcDbLine
10
-38.8456575682381
20
7.63377895737210
30
0.000000000000000
11
-38.7456575682381
21
7.58715393887299
31
0.000000000000000
  0
LINE
  5
F1014D
330
F1014E
100
AcDbEntity
8
Geo
100
AcDbLine
10
-38.7456575682381
20
7.58715393887299
30
0.000000000000000
11
-38.6456575682381
21
7.54119278827879
31
0.000000000000000
  0
LINE
  5
F1014F
330
F10150
100
AcDbEntity
8
Geo
100
AcDbLine
10
-38.6456575682381
20
7.54119278827879
30
0.000000000000000
11
-38.5456575682381
21
7.49591252771248
31
0.000000000000000
  0
LINE
  5
F10151
330
F10152
100
AcDbEntity
8
Geo
100
AcDbLine
10
-38.5456575682381
20
7.49591252771248
30
0.000000000000000
11
-38.4456575682381
21
7.45132992712333
31
0.000000000000000
  0
LINE
  5
F10153
330
F10154
100
AcDbEntity
8
Geo
100
AcDbLine
10
-38.4456575682381
20
7.45132992712333
30
0.000000000000000
11
-38.3456575682381
21
7.40746149807601
31
0.000000000000000
  0
LINE
  5
F10155
330
F10156
100
AcDbEntity
8
Geo
100
AcDbLine
10
-38.3456575682381
20
7.40746149807601
30
0.000000000000000
11
-38.2456575682381
21
7.36432348763537
31
0.000000000000000
  0
LINE
  5
F10157
330
F10158
100
AcDbEntity
8
Geo
100
AcDbLine
10
-38.2456575682381
20
7.36432348763537
30
0.000000000000000
11
-38.1456575682381
21
7.32193187234920
31
0.000000000000000
  0
LINE
  5
F10159
330
F1015A
100
AcDbEntity
8
Geo
100
AcDbLine
10
-38.1456575682381
20
7.32193187234920
30
0.000000000000000
11
-38.0456575682381
21
7.28030235233118
31
0.000000000000000
  0
LINE
  5
F1015B
330
F1015C
100
AcDbEntity
8
Geo
100
AcDbLine
10
-38.0456575682381
20
7.28030235233118
30
0.000000000000000
11
-37.9456575682381
21
7.23945034544618
31
0.000000000000000
  0
LINE
  5
F1015D
330
F1015E
100
AcDbEntity
8
Geo
100
AcDbLine
10
-37.9456575682381
20
7.23945034544618
30
0.000000000000000
11
-37.8456575682381
21
7.19939098160015
31
0.000000000000000
  0
LINE
  5
F1015F
330
F10160
100
AcDbEntity
8
Geo
100
AcDbLine
10
-37.8456575682381
20
7.19939098160015
30
0.000000000000000
11
-37.7456575682381
21
7.16013909713658
31
0.000000000000000
  0
LINE
  5
F10161
330
F10162
100
AcDbEntity
8
Geo
100
AcDbLine
10
-37.7456575682381
20
7.16013909713658
30
0.000000000000000
11
-37.6456575682381
21
7.12170922934178
31
0.000000000000000
  0
LINE
  5
F10163
330
F10164
100
AcDbEntity
8
Geo
100
AcDbLine
10
-37.6456575682381
20
7.12170922934178
30
0.000000000000000
11
-37.5456575682381
21
7.08411561106082
31
0.000000000000000
  0
LINE
  5
F10165
330
F10166
100
AcDbEntity
8
Geo
100
AcDbLine
10
-37.5456575682381
20
7.08411561106082
30
0.000000000000000
11
-37.4456575682381
21
7.04737216542629
31
0.000000000000000
  0
LINE
  5
F10167
330
F10168
100
AcDbEntity
8
Geo
100
AcDbLine
10
-37.4456575682381
20
7.04737216542629
30
0.000000000000000
11
-37.3456575682381
21
7.01149250070175
31
0.000000000000000
  0
LINE
  5
F10169
330
F1016A
100
AcDbEntity
8
Geo
100
AcDbLine
10
-37.3456575682381
20
7.01149250070175
30
0.000000000000000
11
-37.2456575682381
21
6.97648990524176
31
0.000000000000000
  0
LINE
  5
F1016B
330
F1016C
100
AcDbEntity
8
Geo
100
AcDbLine
10
-37.2456575682381
20
6.97648990524176
30
0.000000000000000
11
-37.1456575682381
21
6.94237734257045
31
0.000000000000000
  0
LINE
  5
F1016D
330
F1016E
100
AcDbEntity
8
Geo
100
AcDbLine
10
-37.1456575682381
20
6.94237734257045
30
0.000000000000000
11
-37.0456575682381
21
6.90916744658036
31
0.000000000000000
  0
LINE
  5
F1016F
330
F10170
100
AcDbEntity
8
Geo
100
AcDbLine
10
-37.0456575682381
20
6.90916744658036
30
0.000000000000000
11
-36.9456575682381
21
6.87687251685333
31
0.000000000000000
  0
LINE
  5
F10171
330
F10172
100
AcDbEntity
8
Geo
100
AcDbLine
10
-36.9456575682381
20
6.87687251685333
30
0.000000000000000
11
-36.8456575682381
21
6.84550451410529
31
0.000000000000000
  0
LINE
  5
F10173
330
F10174
100
AcDbEntity
8
Geo
100
AcDbLine
10
-36.8456575682381
20
6.84550451410529
30
0.000000000000000
11
-36.7456575682381
21
6.81507505575646
31
0.000000000000000
  0
LINE
  5
F10175
330
F10176
100
AcDbEntity
8
Geo
100
AcDbLine
10
-36.7456575682381
20
6.81507505575646
30
0.000000000000000
11
-36.6456575682381
21
6.78559541162876
31
0.000000000000000
  0
LINE
  5
F10177
330
F10178
100
AcDbEntity
8
Geo
100
AcDbLine
10
-36.6456575682381
20
6.78559541162876
30
0.000000000000000
11
-36.5456575682381
21
6.75707649977192
31
0.000000000000000
  0
LINE
  5
F10179
330
F1017A
100
AcDbEntity
8
Geo
100
AcDbLine
10
-36.5456575682381
20
6.75707649977192
30
0.000000000000000
11
-36.4456575682381
21
6.72952888241989
31
0.000000000000000
  0
LINE
  5
F1017B
330
F1017C
100
AcDbEntity
8
Geo
100
AcDbLine
10
-36.4456575682381
20
6.72952888241989
30
0.000000000000000
11
-36.3456575682381
21
6.70296276207901
31
0.000000000000000
  0
LINE
  5
F1017D
330
F1017E
100
AcDbEntity
8
Geo
100
AcDbLine
10
-36.3456575682381
20
6.70296276207901
30
0.000000000000000
11
-36.2456575682381
21
6.67738797774943
31
0.000000000000000
  0
LINE
  5
F1017F
330
F10180
100
AcDbEntity
8
Geo
100
AcDbLine
10
-36.2456575682381
20
6.67738797774943
30
0.000000000000000
11
-36.1456575682381
21
6.65281400128115
31
0.000000000000000
  0
LINE
  5
F10181
330
F10182
100
AcDbEntity
8
Geo
100
AcDbLine
10
-36.1456575682381
20
6.65281400128115
30
0.000000000000000
11
-36.0456575682381
21
6.62924993386603
31
0.000000000000000
  0
LINE
  5
F10183
330
F10184
100
AcDbEntity
8
Geo
100
AcDbLine
10
-36.0456575682381
20
6.62924993386603
30
0.000000000000000
11
-35.9456575682381
21
6.60670450266708
31
0.000000000000000
  0
LINE
  5
F10185
330
F10186
100
AcDbEntity
8
Geo
100
AcDbLine
10
-35.9456575682381
20
6.60670450266708
30
0.000000000000000
11
-35.8456575682381
21
6.58518605758630
31
0.000000000000000
  0
LINE
  5
F10187
330
F10188
100
AcDbEntity
8
Geo
100
AcDbLine
10
-35.8456575682381
20
6.58518605758630
30
0.000000000000000
11
-35.7456575682381
21
6.56470256817217
31
0.000000000000000
  0
LINE
  5
F10189
330
F1018A
100
AcDbEntity
8
Geo
100
AcDbLine
10
-35.7456575682381
20
6.56470256817217
30
0.000000000000000
11
-35.6456575682381
21
6.54526162066811
31
0.000000000000000
  0
LINE
  5
F1018B
330
F1018C
100
AcDbEntity
8
Geo
100
AcDbLine
10
-35.6456575682381
20
6.54526162066811
30
0.000000000000000
11
-35.5456575682381
21
6.52687041520281
31
0.000000000000000
  0
LINE
  5
F1018D
330
F1018E
100
AcDbEntity
8
Geo
100
AcDbLine
10
-35.5456575682381
20
6.52687041520281
30
0.000000000000000
11
-35.4456575682381
21
6.50953576312363
31
0.000000000000000
  0
LINE
  5
F1018F
330
F10190
100
AcDbEntity
8
Geo
100
AcDbLine
10
-35.4456575682381
20
6.50953576312363
30
0.000000000000000
11
-35.3456575682381
21
6.49326408447392
31
0.000000000000000
  0
LINE
  5
F10191
330
F10192
100
AcDbEntity
8
Geo
100
AcDbLine
10
-35.3456575682381
20
6.49326408447392
30
0.000000000000000
11
-35.2456575682381
21
6.47806140561533
31
0.000000000000000
  0
LINE
  5
F10193
330
F10194
100
AcDbEntity
8
Geo
100
AcDbLine
10
-35.2456575682381
20
6.47806140561533
30
0.000000000000000
11
-35.1456575682381
21
6.46393335699588
31
0.000000000000000
  0
LINE
  5
F10195
330
F10196
100
AcDbEntity
8
Geo
100
AcDbLine
10
-35.1456575682381
20
6.46393335699588
30
0.000000000000000
11
-35.0456575682381
21
6.45088517106466
31
0.000000000000000
  0
LINE
  5
F10197
330
F10198
100
AcDbEntity
8
Geo
100
AcDbLine
10
-35.0456575682381
20
6.45088517106466
30
0.000000000000000
11
-34.9456575682381
21
6.43892168033398
31
0.000000000000000
  0
LINE
  5
F10199
330
F1019A
100
AcDbEntity
8
Geo
100
AcDbLine
10
-34.9456575682381
20
6.43892168033398
30
0.000000000000000
11
-34.8456575682381
21
6.42804731558958
31
0.000000000000000
  0
LINE
  5
F1019B
330
F1019C
100
AcDbEntity
8
Geo
100
AcDbLine
10
-34.8456575682381
20
6.42804731558958
30
0.000000000000000
11
-34.7456575682381
21
6.41826610424965
31
0.000000000000000
  0
LINE
  5
F1019D
330
F1019E
100
AcDbEntity
8
Geo
100
AcDbLine
10
-34.7456575682381
20
6.41826610424965
30
0.000000000000000
11
-34.6456575682381
21
6.40958166887324
31
0.000000000000000
  0
LINE
  5
F1019F
330
F101A0
100
AcDbEntity
8
Geo
100
AcDbLine
10
-34.6456575682381
20
6.40958166887324
30
0.000000000000000
11
-34.5456575682381
21
6.40199722581863
31
0.000000000000000
  0
LINE
  5
F101A1
330
F101A2
100
AcDbEntity
8
Geo
100
AcDbLine
10
-34.5456575682381
20
6.40199722581863
30
0.000000000000000
11
-34.4456575682381
21
6.39551558405211
31
0.000000000000000
  0
LINE
  5
F101A3
330
F101A4
100
AcDbEntity
8
Geo
100
AcDbLine
10
-34.4456575682381
20
6.39551558405211
30
0.000000000000000
11
-34.3456575682381
21
6.39013914410764
31
0.000000000000000
  0
LINE
  5
F101A5
330
F101A6
100
AcDbEntity
8
Geo
100
AcDbLine
10
-34.3456575682381
20
6.39013914410764
30
0.000000000000000
11
-34.2456575682381
21
6.38586989719783
31
0.000000000000000
  0
LINE
  5
F101A7
330
F101A8
100
AcDbEntity
8
Geo
100
AcDbLine
10
-34.2456575682381
20
6.38586989719783
30
0.000000000000000
11
-34.1456575682381
21
6.38270942447642
31
0.000000000000000
  0
LINE
  5
F101A9
330
F101AA
100
AcDbEntity
8
Geo
100
AcDbLine
10
-34.1456575682381
20
6.38270942447642
30
0.000000000000000
11
-34.0456575682380
21
6.38065889645274
31
0.000000000000000
  0
LINE
  5
F101AB
330
F101AC
100
AcDbEntity
8
Geo
100
AcDbLine
10
-34.0456575682380
20
6.38065889645274
30
0.000000000000000
11
-33.9456575682380
21
6.37971907255818
31
0.000000000000000
  0
LINE
  5
F101AD
330
F101AE
100
AcDbEntity
8
Geo
100
AcDbLine
10
-21.7456575682382
20
12.3791526054591
30
0.000000000000000
11
-21.6456575682382
21
12.3790816449323
31
0.000000000000000
  0
LINE
  5
F101AF
330
F101B0
100
AcDbEntity
8
Geo
100
AcDbLine
10
-21.6456575682382
20
12.3790816449323
30
0.000000000000000
11
-21.5456575682382
21
12.3480486393787
31
0.000000000000000
  0
LINE
  5
F101B1
330
F101B2
100
AcDbEntity
8
Geo
100
AcDbLine
10
-21.5456575682382
20
12.3480486393787
30
0.000000000000000
11
-21.4456575682382
21
12.2546551094497
31
0.000000000000000
  0
LINE
  5
F101B3
330
F101B4
100
AcDbEntity
8
Geo
100
AcDbLine
10
-21.4456575682382
20
12.2546551094497
30
0.000000000000000
11
-21.3456575682382
21
12.0910978994645
31
0.000000000000000
  0
LINE
  5
F101B5
330
F101B6
100
AcDbEntity
8
Geo
100
AcDbLine
10
-21.3456575682382
20
12.0910978994645
30
0.000000000000000
11
-21.2456575682382
21
11.8513647551810
31
0.000000000000000
  0
LINE
  5
F101B7
330
F101B8
100
AcDbEntity
8
Geo
100
AcDbLine
10
-21.2456575682382
20
11.8513647551810
30
0.000000000000000
11
-21.1456575682382
21
11.5320552258618
31
0.000000000000000
  0
LINE
  5
F101B9
330
F101BA
100
AcDbEntity
8
Geo
100
AcDbLine
10
-21.1456575682382
20
11.5320552258618
30
0.000000000000000
11
-21.0456575682382
21
11.1332547518770
31
0.000000000000000
  0
LINE
  5
F101BB
330
F101BC
100
AcDbEntity
8
Geo
100
AcDbLine
10
-21.0456575682382
20
11.1332547518770
30
0.000000000000000
11
-20.9456575682382
21
10.6594022400625
31
0.000000000000000
  0
LINE
  5
F101BD
330
F101BE
100
AcDbEntity
8
Geo
100
AcDbLine
10
-20.9456575682382
20
10.6594022400625
30
0.000000000000000
11
-20.8456575682382
21
10.1200701118560
31
0.000000000000000
  0
LINE
  5
F101BF
330
F101C0
100
AcDbEntity
8
Geo
100
AcDbLine
10
-20.8456575682382
20
10.1200701118560
30
0.000000000000000
11
-20.7456575682382
21
9.53058050269046
31
0.000000000000000
  0
LINE
  5
F101C1
330
F101C2
100
AcDbEntity
8
Geo
100
AcDbLine
10
-64.7456575682382
20
9.37965260545907
30
0.000000000000000
11
-64.6456575682382
21
10.1476249411963
31
0.000000000000000
  0
LINE
  5
F101C3
330
F101C4
100
AcDbEntity
8
Geo
100
AcDbLine
10
-64.6456575682382
20
10.1476249411963
30
0.000000000000000
11
-64.5456575682382
21
10.4558878631816
31
0.000000000000000
  0
LINE
  5
F101C5
330
F101C6
100
AcDbEntity
8
Geo
100
AcDbLine
10
-64.5456575682382
20
10.4558878631816
30
0.000000000000000
11
-64.4456575682382
21
10.6851434443849
31
0.000000000000000
  0
LINE
  5
F101C7
330
F101C8
100
AcDbEntity
8
Geo
100
AcDbLine
10
-64.4456575682382
20
10.6851434443849
30
0.000000000000000
11
-64.3456575682382
21
10.8718831927379
31
0.000000000000000
  0
LINE
  5
F101C9
330
F101CA
100
AcDbEntity
8
Geo
100
AcDbLine
10
-64.3456575682382
20
10.8718831927379
30
0.000000000000000
11
-64.2456575682382
21
11.0302935505071
31
0.000000000000000
  0
LINE
  5
F101CB
330
F101CC
100
AcDbEntity
8
Geo
100
AcDbLine
10
-64.2456575682382
20
11.0302935505071
30
0.000000000000000
11
-64.1456575682382
21
11.1676659328679
31
0.000000000000000
  0
LINE
  5
F101CD
330
F101CE
100
AcDbEntity
8
Geo
100
AcDbLine
10
-64.1456575682382
20
11.1676659328679
30
0.000000000000000
11
-64.0456575682382
21
11.2883371495293
31
0.000000000000000
  0
LINE
  5
F101CF
330
F101D0
100
AcDbEntity
8
Geo
100
AcDbLine
10
-64.0456575682382
20
11.2883371495293
30
0.000000000000000
11
-63.9456575682382
21
11.3951349930300
31
0.000000000000000
  0
LINE
  5
F101D1
330
F101D2
100
AcDbEntity
8
Geo
100
AcDbLine
10
-63.9456575682382
20
11.3951349930300
30
0.000000000000000
11
-63.8456575682382
21
11.4900249668653
31
0.000000000000000
  0
LINE
  5
F101D3
330
F101D4
100
AcDbEntity
8
Geo
100
AcDbLine
10
-63.8456575682382
20
11.4900249668653
30
0.000000000000000
11
-63.7456575682382
21
11.5744395635553
31
0.000000000000000
  0
LINE
  5
F101D5
330
F101D6
100
AcDbEntity
8
Geo
100
AcDbLine
10
-63.7456575682382
20
11.5744395635553
30
0.000000000000000
11
-63.6456575682382
21
11.6494620739148
31
0.000000000000000
  0
LINE
  5
F101D7
330
F101D8
100
AcDbEntity
8
Geo
100
AcDbLine
10
-63.6456575682382
20
11.6494620739148
30
0.000000000000000
11
-63.5456575682382
21
11.7159365447058
31
0.000000000000000
  0
LINE
  5
F101D9
330
F101DA
100
AcDbEntity
8
Geo
100
AcDbLine
10
-63.5456575682382
20
11.7159365447058
30
0.000000000000000
11
-63.4456575682382
21
11.7745372128013
31
0.000000000000000
  0
LINE
  5
F101DB
330
F101DC
100
AcDbEntity
8
Geo
100
AcDbLine
10
-63.4456575682382
20
11.7745372128013
30
0.000000000000000
11
-63.3456575682382
21
11.8258142996653
31
0.000000000000000
  0
LINE
  5
F101DD
330
F101DE
100
AcDbEntity
8
Geo
100
AcDbLine
10
-63.3456575682382
20
11.8258142996653
30
0.000000000000000
11
-63.2456575682382
21
11.8702253143898
31
0.000000000000000
  0
LINE
  5
F101DF
330
F101E0
100
AcDbEntity
8
Geo
100
AcDbLine
10
-63.2456575682382
20
11.8702253143898
30
0.000000000000000
11
-63.1456575682382
21
11.9081571010419
31
0.000000000000000
  0
LINE
  5
F101E1
330
F101E2
100
AcDbEntity
8
Geo
100
AcDbLine
10
-63.1456575682382
20
11.9081571010419
30
0.000000000000000
11
-63.0456575682382
21
11.9399417663665
31
0.000000000000000
  0
LINE
  5
F101E3
330
F101E4
100
AcDbEntity
8
Geo
100
AcDbLine
10
-63.0456575682382
20
11.9399417663665
30
0.000000000000000
11
-62.9456575682382
21
11.9658684398770
31
0.000000000000000
  0
LINE
  5
F101E5
330
F101E6
100
AcDbEntity
8
Geo
100
AcDbLine
10
-62.9456575682382
20
11.9658684398770
30
0.000000000000000
11
-62.8456575682382
21
11.9861921220839
31
0.000000000000000
  0
LINE
  5
F101E7
330
F101E8
100
AcDbEntity
8
Geo
100
AcDbLine
10
-62.8456575682382
20
11.9861921220839
30
0.000000000000000
11
-62.7456575682382
21
12.0011404520794
31
0.000000000000000
  0
LINE
  5
F101E9
330
F101EA
100
AcDbEntity
8
Geo
100
AcDbLine
10
-62.7456575682382
20
12.0011404520794
30
0.000000000000000
11
-62.6456575682382
21
12.0109189585965
31
0.000000000000000
  0
LINE
  5
F101EB
330
F101EC
100
AcDbEntity
8
Geo
100
AcDbLine
10
-62.6456575682382
20
12.0109189585965
30
0.000000000000000
11
-62.5456575682382
21
12.0157151858883
31
0.000000000000000
  0
LINE
  5
F101ED
330
F101EE
100
AcDbEntity
8
Geo
100
AcDbLine
10
-62.5456575682382
20
12.0157151858883
30
0.000000000000000
11
-62.4456575682382
21
12.0157019712482
31
0.000000000000000
  0
LINE
  5
F101EF
330
F101F0
100
AcDbEntity
8
Geo
100
AcDbLine
10
-62.4456575682382
20
12.0157019712482
30
0.000000000000000
11
-62.3456575682382
21
12.0110400733780
31
0.000000000000000
  0
LINE
  5
F101F1
330
F101F2
100
AcDbEntity
8
Geo
100
AcDbLine
10
-62.3456575682382
20
12.0110400733780
30
0.000000000000000
11
-62.2456575682382
21
12.0018802971585
31
0.000000000000000
  0
LINE
  5
F101F3
330
F101F4
100
AcDbEntity
8
Geo
100
AcDbLine
10
-62.2456575682382
20
12.0018802971585
30
0.000000000000000
11
-62.1456575682382
21
11.9883652225916
31
0.000000000000000
  0
LINE
  5
F101F5
330
F101F6
100
AcDbEntity
8
Geo
100
AcDbLine
10
-62.1456575682382
20
11.9883652225916
30
0.000000000000000
11
-62.0456575682382
21
11.9706306186217
31
0.000000000000000
  0
LINE
  5
F101F7
330
F101F8
100
AcDbEntity
8
Geo
100
AcDbLine
10
-62.0456575682382
20
11.9706306186217
30
0.000000000000000
11
-61.9456575682382
21
11.9488066028258
31
0.000000000000000
  0
LINE
  5
F101F9
330
F101FA
100
AcDbEntity
8
Geo
100
AcDbLine
10
-61.9456575682382
20
11.9488066028258
30
0.000000000000000
11
-61.8456575682382
21
11.9230185933607
31
0.000000000000000
  0
LINE
  5
F101FB
330
F101FC
100
AcDbEntity
8
Geo
100
AcDbLine
10
-61.8456575682382
20
11.9230185933607
30
0.000000000000000
11
-61.7456575682382
21
11.8933880885441
31
0.000000000000000
  0
LINE
  5
F101FD
330
F101FE
100
AcDbEntity
8
Geo
100
AcDbLine
10
-61.7456575682382
20
11.8933880885441
30
0.000000000000000
11
-61.6456575682382
21
11.8614124396402
31
0.000000000000000
  0
LINE
  5
F101FF
330
F10200
100
AcDbEntity
8
Geo
100
AcDbLine
10
-61.6456575682382
20
11.8614124396402
30
0.000000000000000
11
-61.5456575682382
21
11.8285176487965
31
0.000000000000000
  0
LINE
  5
F10201
330
F10202
100
AcDbEntity
8
Geo
100
AcDbLine
10
-61.5456575682382
20
11.8285176487965
30
0.000000000000000
11
-61.4456575682382
21
11.7947158988928
31
0.000000000000000
  0
LINE
  5
F10203
330
F10204
100
AcDbEntity
8
Geo
100
AcDbLine
10
-61.4456575682382
20
11.7947158988928
30
0.000000000000000
11
-61.3456575682382
21
11.7600197087093
31
0.000000000000000
  0
LINE
  5
F10205
330
F10206
100
AcDbEntity
8
Geo
100
AcDbLine
10
-61.3456575682382
20
11.7600197087093
30
0.000000000000000
11
-61.2456575682382
21
11.7244419282902
31
0.000000000000000
  0
LINE
  5
F10207
330
F10208
100
AcDbEntity
8
Geo
100
AcDbLine
10
-61.2456575682382
20
11.7244419282902
30
0.000000000000000
11
-61.1456575682382
21
11.6879957341846
31
0.000000000000000
  0
LINE
  5
F10209
330
F1020A
100
AcDbEntity
8
Geo
100
AcDbLine
10
-61.1456575682382
20
11.6879957341846
30
0.000000000000000
11
-61.0456575682382
21
11.6506946245663
31
0.000000000000000
  0
LINE
  5
F1020B
330
F1020C
100
AcDbEntity
8
Geo
100
AcDbLine
10
-61.0456575682382
20
11.6506946245663
30
0.000000000000000
11
-60.9456575682382
21
11.6125524142345
31
0.000000000000000
  0
LINE
  5
F1020D
330
F1020E
100
AcDbEntity
8
Geo
100
AcDbLine
10
-60.9456575682382
20
11.6125524142345
30
0.000000000000000
11
-60.8456575682382
21
11.5735832294980
31
0.000000000000000
  0
LINE
  5
F1020F
330
F10210
100
AcDbEntity
8
Geo
100
AcDbLine
10
-60.8456575682382
20
11.5735832294980
30
0.000000000000000
11
-60.7456575682382
21
11.5338015029426
31
0.000000000000000
  0
LINE
  5
F10211
330
F10212
100
AcDbEntity
8
Geo
100
AcDbLine
10
-60.7456575682382
20
11.5338015029426
30
0.000000000000000
11
-60.6456575682382
21
11.4932219680864
31
0.000000000000000
  0
LINE
  5
F10213
330
F10214
100
AcDbEntity
8
Geo
100
AcDbLine
10
-60.6456575682382
20
11.4932219680864
30
0.000000000000000
11
-60.5456575682382
21
11.4518596539228
31
0.000000000000000
  0
LINE
  5
F10215
330
F10216
100
AcDbEntity
8
Geo
100
AcDbLine
10
-60.5456575682382
20
11.4518596539228
30
0.000000000000000
11
-60.4456575682382
21
11.4097298793547
31
0.000000000000000
  0
LINE
  5
F10217
330
F10218
100
AcDbEntity
8
Geo
100
AcDbLine
10
-60.4456575682382
20
11.4097298793547
30
0.000000000000000
11
-60.3456575682382
21
11.3668482475207
31
0.000000000000000
  0
LINE
  5
F10219
330
F1021A
100
AcDbEntity
8
Geo
100
AcDbLine
10
-60.3456575682382
20
11.3668482475207
30
0.000000000000000
11
-60.2456575682382
21
11.3232306400164
31
0.000000000000000
  0
LINE
  5
F1021B
330
F1021C
100
AcDbEntity
8
Geo
100
AcDbLine
10
-60.2456575682382
20
11.3232306400164
30
0.000000000000000
11
-60.1456575682382
21
11.2788932110128
31
0.000000000000000
  0
LINE
  5
F1021D
330
F1021E
100
AcDbEntity
8
Geo
100
AcDbLine
10
-60.1456575682382
20
11.2788932110128
30
0.000000000000000
11
-60.0456575682382
21
11.2338523812730
31
0.000000000000000
  0
LINE
  5
F1021F
330
F10220
100
AcDbEntity
8
Geo
100
AcDbLine
10
-60.0456575682382
20
11.2338523812730
30
0.000000000000000
11
-59.9456575682382
21
11.1881248320709
31
0.000000000000000
  0
LINE
  5
F10221
330
F10222
100
AcDbEntity
8
Geo
100
AcDbLine
10
-59.9456575682382
20
11.1881248320709
30
0.000000000000000
11
-59.8456575682382
21
11.1417274990132
31
0.000000000000000
  0
LINE
  5
F10223
330
F10224
100
AcDbEntity
8
Geo
100
AcDbLine
10
-59.8456575682382
20
11.1417274990132
30
0.000000000000000
11
-59.7456575682382
21
11.0946775657668
31
0.000000000000000
  0
LINE
  5
F10225
330
F10226
100
AcDbEntity
8
Geo
100
AcDbLine
10
-59.7456575682382
20
11.0946775657668
30
0.000000000000000
11
-59.6456575682382
21
11.0469924576953
31
0.000000000000000
  0
LINE
  5
F10227
330
F10228
100
AcDbEntity
8
Geo
100
AcDbLine
10
-59.6456575682382
20
11.0469924576953
30
0.000000000000000
11
-59.5456575682382
21
10.9986898354045
31
0.000000000000000
  0
LINE
  5
F10229
330
F1022A
100
AcDbEntity
8
Geo
100
AcDbLine
10
-59.5456575682382
20
10.9986898354045
30
0.000000000000000
11
-59.4456575682382
21
10.9497875882026
31
0.000000000000000
  0
LINE
  5
F1022B
330
F1022C
100
AcDbEntity
8
Geo
100
AcDbLine
10
-59.4456575682382
20
10.9497875882026
30
0.000000000000000
11
-59.3456575682382
21
10.9003038274739
31
0.000000000000000
  0
LINE
  5
F1022D
330
F1022E
100
AcDbEntity
8
Geo
100
AcDbLine
10
-59.3456575682382
20
10.9003038274739
30
0.000000000000000
11
-59.2456575682382
21
10.8502568799714
31
0.000000000000000
  0
LINE
  5
F1022F
330
F10230
100
AcDbEntity
8
Geo
100
AcDbLine
10
-59.2456575682382
20
10.8502568799714
30
0.000000000000000
11
-59.1456575682382
21
10.7996652810297
31
0.000000000000000
  0
LINE
  5
F10231
330
F10232
100
AcDbEntity
8
Geo
100
AcDbLine
10
-59.1456575682382
20
10.7996652810297
30
0.000000000000000
11
-59.0456575682382
21
10.7485477676997
31
0.000000000000000
  0
LINE
  5
F10233
330
F10234
100
AcDbEntity
8
Geo
100
AcDbLine
10
-59.0456575682382
20
10.7485477676997
30
0.000000000000000
11
-58.9456575682382
21
10.6969232718093
31
0.000000000000000
  0
LINE
  5
F10235
330
F10236
100
AcDbEntity
8
Geo
100
AcDbLine
10
-58.9456575682382
20
10.6969232718093
30
0.000000000000000
11
-58.8456575682382
21
10.6448109129521
31
0.000000000000000
  0
LINE
  5
F10237
330
F10238
100
AcDbEntity
8
Geo
100
AcDbLine
10
-58.8456575682382
20
10.6448109129521
30
0.000000000000000
11
-58.7456575682382
21
10.5922299914061
31
0.000000000000000
  0
LINE
  5
F10239
330
F1023A
100
AcDbEntity
8
Geo
100
AcDbLine
10
-58.7456575682382
20
10.5922299914061
30
0.000000000000000
11
-58.6456575682382
21
10.5391999809855
31
0.000000000000000
  0
LINE
  5
F1023B
330
F1023C
100
AcDbEntity
8
Geo
100
AcDbLine
10
-58.6456575682382
20
10.5391999809855
30
0.000000000000000
11
-58.5456575682382
21
10.4857405218289
31
0.000000000000000
  0
LINE
  5
F1023D
330
F1023E
100
AcDbEntity
8
Geo
100
AcDbLine
10
-58.5456575682382
20
10.4857405218289
30
0.000000000000000
11
-58.4456575682382
21
10.4318714131247
31
0.000000000000000
  0
LINE
  5
F1023F
330
F10240
100
AcDbEntity
8
Geo
100
AcDbLine
10
-58.4456575682382
20
10.4318714131247
30
0.000000000000000
11
-58.3456575682382
21
10.3776126057790
31
0.000000000000000
  0
LINE
  5
F10241
330
F10242
100
AcDbEntity
8
Geo
100
AcDbLine
10
-58.3456575682382
20
10.3776126057790
30
0.000000000000000
11
-58.2456575682382
21
10.3229841950261
31
0.000000000000000
  0
LINE
  5
F10243
330
F10244
100
AcDbEntity
8
Geo
100
AcDbLine
10
-58.2456575682382
20
10.3229841950261
30
0.000000000000000
11
-58.1456575682382
21
10.2680064129862
31
0.000000000000000
  0
LINE
  5
F10245
330
F10246
100
AcDbEntity
8
Geo
100
AcDbLine
10
-58.1456575682382
20
10.2680064129862
30
0.000000000000000
11
-58.0456575682382
21
10.2126996211725
31
0.000000000000000
  0
LINE
  5
F10247
330
F10248
100
AcDbEntity
8
Geo
100
AcDbLine
10
-58.0456575682382
20
10.2126996211725
30
0.000000000000000
11
-57.9456575682382
21
10.1570843029496
31
0.000000000000000
  0
LINE
  5
F10249
330
F1024A
100
AcDbEntity
8
Geo
100
AcDbLine
10
-57.9456575682382
20
10.1570843029496
30
0.000000000000000
11
-57.8456575682382
21
10.1011810559478
31
0.000000000000000
  0
LINE
  5
F1024B
330
F1024C
100
AcDbEntity
8
Geo
100
AcDbLine
10
-57.8456575682382
20
10.1011810559478
30
0.000000000000000
11
-57.7456575682382
21
10.0450105844344
31
0.000000000000000
  0
LINE
  5
F1024D
330
F1024E
100
AcDbEntity
8
Geo
100
AcDbLine
10
-57.7456575682382
20
10.0450105844344
30
0.000000000000000
11
-57.6456575682382
21
9.98859369164559
31
0.000000000000000
  0
LINE
  5
F1024F
330
F10250
100
AcDbEntity
8
Geo
100
AcDbLine
10
-57.6456575682382
20
9.98859369164559
30
0.000000000000000
11
-57.5456575682382
21
9.93195127208202
31
0.000000000000000
  0
LINE
  5
F10251
330
F10252
100
AcDbEntity
8
Geo
100
AcDbLine
10
-57.5456575682382
20
9.93195127208202
30
0.000000000000000
11
-57.4456575682382
21
9.87510430377009
31
0.000000000000000
  0
LINE
  5
F10253
330
F10254
100
AcDbEntity
8
Geo
100
AcDbLine
10
-57.4456575682382
20
9.87510430377009
30
0.000000000000000
11
-57.3456575682382
21
9.81807384049269
31
0.000000000000000
  0
LINE
  5
F10255
330
F10256
100
AcDbEntity
8
Geo
100
AcDbLine
10
-57.3456575682382
20
9.81807384049269
30
0.000000000000000
11
-57.2456575682382
21
9.76088100399170
31
0.000000000000000
  0
LINE
  5
F10257
330
F10258
100
AcDbEntity
8
Geo
100
AcDbLine
10
-57.2456575682382
20
9.76088100399170
30
0.000000000000000
11
-57.1456575682382
21
9.70354697614539
31
0.000000000000000
  0
LINE
  5
F10259
330
F1025A
100
AcDbEntity
8
Geo
100
AcDbLine
10
-57.1456575682382
20
9.70354697614539
30
0.000000000000000
11
-57.0456575682382
21
9.64609299112349
31
0.000000000000000
  0
LINE
  5
F1025B
330
F1025C
100
AcDbEntity
8
Geo
100
AcDbLine
10
-57.0456575682382
20
9.64609299112349
30
0.000000000000000
11
-56.9456575682382
21
9.58854032752297
31
0.000000000000000
  0
LINE
  5
F1025D
330
F1025E
100
AcDbEntity
8
Geo
100
AcDbLine
10
-56.9456575682382
20
9.58854032752297
30
0.000000000000000
11
-56.8456575682382
21
9.53091030048726
31
0.000000000000000
  0
LINE
  5
F1025F
330
F10260
100
AcDbEntity
8
Geo
100
AcDbLine
10
-56.8456575682382
20
9.53091030048726
30
0.000000000000000
11
-56.7456575682382
21
9.47322425381206
31
0.000000000000000
  0
LINE
  5
F10261
330
F10262
100
AcDbEntity
8
Geo
100
AcDbLine
10
-56.7456575682382
20
9.47322425381206
30
0.000000000000000
11
-56.6456575682382
21
9.41550355204043
31
0.000000000000000
  0
LINE
  5
F10263
330
F10264
100
AcDbEntity
8
Geo
100
AcDbLine
10
-56.6456575682382
20
9.41550355204043
30
0.000000000000000
11
-56.5456575682382
21
9.35776957255024
31
0.000000000000000
  0
LINE
  5
F10265
330
F10266
100
AcDbEntity
8
Geo
100
AcDbLine
10
-56.5456575682382
20
9.35776957255024
30
0.000000000000000
11
-56.4456575682382
21
9.30004369763692
31
0.000000000000000
  0
LINE
  5
F10267
330
F10268
100
AcDbEntity
8
Geo
100
AcDbLine
10
-56.4456575682382
20
9.30004369763692
30
0.000000000000000
11
-56.3456575682382
21
9.24234730659425
31
0.000000000000000
  0
LINE
  5
F10269
330
F1026A
100
AcDbEntity
8
Geo
100
AcDbLine
10
-56.3456575682382
20
9.24234730659425
30
0.000000000000000
11
-56.2456575682382
21
9.18470176779644
31
0.000000000000000
  0
LINE
  5
F1026B
330
F1026C
100
AcDbEntity
8
Geo
100
AcDbLine
10
-56.2456575682382
20
9.18470176779644
30
0.000000000000000
11
-56.1456575682382
21
9.12712843078408
31
0.000000000000000
  0
LINE
  5
F1026D
330
F1026E
100
AcDbEntity
8
Geo
100
AcDbLine
10
-56.1456575682382
20
9.12712843078408
30
0.000000000000000
11
-56.0456575682382
21
9.06964861835721
31
0.000000000000000
  0
LINE
  5
F1026F
330
F10270
100
AcDbEntity
8
Geo
100
AcDbLine
10
-56.0456575682382
20
9.06964861835721
30
0.000000000000000
11
-55.9456575682382
21
9.01228361867819
31
0.000000000000000
  0
LINE
  5
F10271
330
F10272
100
AcDbEntity
8
Geo
100
AcDbLine
10
-55.9456575682382
20
9.01228361867819
30
0.000000000000000
11
-55.8456575682382
21
8.95505467738746
31
0.000000000000000
  0
LINE
  5
F10273
330
F10274
100
AcDbEntity
8
Geo
100
AcDbLine
10
-55.8456575682382
20
8.95505467738746
30
0.000000000000000
11
-55.7456575682382
21
8.89798298973501
31
0.000000000000000
  0
LINE
  5
F10275
330
F10276
100
AcDbEntity
8
Geo
100
AcDbLine
10
-55.7456575682382
20
8.89798298973501
30
0.000000000000000
11
-55.6456575682382
21
8.84108969273054
31
0.000000000000000
  0
LINE
  5
F10277
330
F10278
100
AcDbEntity
8
Geo
100
AcDbLine
10
-55.6456575682382
20
8.84108969273054
30
0.000000000000000
11
-55.5456575682382
21
8.78439585731519
31
0.000000000000000
  0
LINE
  5
F10279
330
F1027A
100
AcDbEntity
8
Geo
100
AcDbLine
10
-55.5456575682382
20
8.78439585731519
30
0.000000000000000
11
-55.4456575682382
21
8.72792248055772
31
0.000000000000000
  0
LINE
  5
F1027B
330
F1027C
100
AcDbEntity
8
Geo
100
AcDbLine
10
-55.4456575682382
20
8.72792248055772
30
0.000000000000000
11
-55.3456575682382
21
8.67169047787802
31
0.000000000000000
  0
LINE
  5
F1027D
330
F1027E
100
AcDbEntity
8
Geo
100
AcDbLine
10
-55.3456575682382
20
8.67169047787802
30
0.000000000000000
11
-55.2456575682382
21
8.61572067530099
31
0.000000000000000
  0
LINE
  5
F1027F
330
F10280
100
AcDbEntity
8
Geo
100
AcDbLine
10
-55.2456575682382
20
8.61572067530099
30
0.000000000000000
11
-55.1456575682382
21
8.56003380174332
31
0.000000000000000
  0
LINE
  5
F10281
330
F10282
100
AcDbEntity
8
Geo
100
AcDbLine
10
-55.1456575682382
20
8.56003380174332
30
0.000000000000000
11
-55.0456575682382
21
8.50465048133646
31
0.000000000000000
  0
LINE
  5
F10283
330
F10284
100
AcDbEntity
8
Geo
100
AcDbLine
10
-55.0456575682382
20
8.50465048133646
30
0.000000000000000
11
-54.9456575682382
21
8.44959122578819
31
0.000000000000000
  0
LINE
  5
F10285
330
F10286
100
AcDbEntity
8
Geo
100
AcDbLine
10
-54.9456575682382
20
8.44959122578819
30
0.000000000000000
11
-54.8456575682382
21
8.39487642678600
31
0.000000000000000
  0
LINE
  5
F10287
330
F10288
100
AcDbEntity
8
Geo
100
AcDbLine
10
-54.8456575682382
20
8.39487642678600
30
0.000000000000000
11
-54.7456575682382
21
8.34052634844482
31
0.000000000000000
  0
LINE
  5
F10289
330
F1028A
100
AcDbEntity
8
Geo
100
AcDbLine
10
-54.7456575682382
20
8.34052634844482
30
0.000000000000000
11
-54.6456575682382
21
8.28656111980202
31
0.000000000000000
  0
LINE
  5
F1028B
330
F1028C
100
AcDbEntity
8
Geo
100
AcDbLine
10
-54.6456575682382
20
8.28656111980202
30
0.000000000000000
11
-54.5456575682382
21
8.23300072736244
31
0.000000000000000
  0
LINE
  5
F1028D
330
F1028E
100
AcDbEntity
8
Geo
100
AcDbLine
10
-54.5456575682382
20
8.23300072736244
30
0.000000000000000
11
-54.4456575682382
21
8.17986500769620
31
0.000000000000000
  0
LINE
  5
F1028F
330
F10290
100
AcDbEntity
8
Geo
100
AcDbLine
10
-54.4456575682382
20
8.17986500769620
30
0.000000000000000
11
-54.3456575682382
21
8.12717364009209
31
0.000000000000000
  0
LINE
  5
F10291
330
F10292
100
AcDbEntity
8
Geo
100
AcDbLine
10
-54.3456575682382
20
8.12717364009209
30
0.000000000000000
11
-54.2456575682382
21
8.07494613926912
31
0.000000000000000
  0
LINE
  5
F10293
330
F10294
100
AcDbEntity
8
Geo
100
AcDbLine
10
-54.2456575682382
20
8.07494613926912
30
0.000000000000000
11
-54.1456575682382
21
8.02320184814910
31
0.000000000000000
  0
LINE
  5
F10295
330
F10296
100
AcDbEntity
8
Geo
100
AcDbLine
10
-54.1456575682382
20
8.02320184814910
30
0.000000000000000
11
-54.0456575682382
21
7.97195993069281
31
0.000000000000000
  0
LINE
  5
F10297
330
F10298
100
AcDbEntity
8
Geo
100
AcDbLine
10
-54.0456575682382
20
7.97195993069281
30
0.000000000000000
11
-53.9456575682382
21
7.92123936480245
31
0.000000000000000
  0
LINE
  5
F10299
330
F1029A
100
AcDbEntity
8
Geo
100
AcDbLine
10
-53.9456575682382
20
7.92123936480245
30
0.000000000000000
11
-53.8456575682382
21
7.87105893529299
31
0.000000000000000
  0
LINE
  5
F1029B
330
F1029C
100
AcDbEntity
8
Geo
100
AcDbLine
10
-53.8456575682382
20
7.87105893529299
30
0.000000000000000
11
-53.7456575682382
21
7.82143722693510
31
0.000000000000000
  0
LINE
  5
F1029D
330
F1029E
100
AcDbEntity
8
Geo
100
AcDbLine
10
-53.7456575682382
20
7.82143722693510
30
0.000000000000000
11
-53.6456575682382
21
7.77239261757203
31
0.000000000000000
  0
LINE
  5
F1029F
330
F102A0
100
AcDbEntity
8
Geo
100
AcDbLine
10
-53.6456575682382
20
7.77239261757203
30
0.000000000000000
11
-53.5456575682382
21
7.72394327131331
31
0.000000000000000
  0
LINE
  5
F102A1
330
F102A2
100
AcDbEntity
8
Geo
100
AcDbLine
10
-53.5456575682382
20
7.72394327131331
30
0.000000000000000
11
-53.4456575682382
21
7.67610713180741
31
0.000000000000000
  0
LINE
  5
F102A3
330
F102A4
100
AcDbEntity
8
Geo
100
AcDbLine
10
-53.4456575682382
20
7.67610713180741
30
0.000000000000000
11
-53.3456575682382
21
7.62890191559623
31
0.000000000000000
  0
LINE
  5
F102A5
330
F102A6
100
AcDbEntity
8
Geo
100
AcDbLine
10
-53.3456575682382
20
7.62890191559623
30
0.000000000000000
11
-53.2456575682382
21
7.58234510555357
31
0.000000000000000
  0
LINE
  5
F102A7
330
F102A8
100
AcDbEntity
8
Geo
100
AcDbLine
10
-53.2456575682382
20
7.58234510555357
30
0.000000000000000
11
-53.1456575682382
21
7.53645394441023
31
0.000000000000000
  0
LINE
  5
F102A9
330
F102AA
100
AcDbEntity
8
Geo
100
AcDbLine
10
-53.1456575682382
20
7.53645394441023
30
0.000000000000000
11
-53.0456575682382
21
7.49124542836796
31
0.000000000000000
  0
LINE
  5
F102AB
330
F102AC
100
AcDbEntity
8
Geo
100
AcDbLine
10
-53.0456575682382
20
7.49124542836796
30
0.000000000000000
11
-52.9456575682382
21
7.44673630080481
31
0.000000000000000
  0
LINE
  5
F102AD
330
F102AE
100
AcDbEntity
8
Geo
100
AcDbLine
10
-52.9456575682382
20
7.44673630080481
30
0.000000000000000
11
-52.8456575682382
21
7.40294304607407
31
0.000000000000000
  0
LINE
  5
F102AF
330
F102B0
100
AcDbEntity
8
Geo
100
AcDbLine
10
-52.8456575682382
20
7.40294304607407
30
0.000000000000000
11
-52.7456575682382
21
7.35988188339909
31
0.000000000000000
  0
LINE
  5
F102B1
330
F102B2
100
AcDbEntity
8
Geo
100
AcDbLine
10
-52.7456575682382
20
7.35988188339909
30
0.000000000000000
11
-52.6456575682382
21
7.31756876086643
31
0.000000000000000
  0
LINE
  5
F102B3
330
F102B4
100
AcDbEntity
8
Geo
100
AcDbLine
10
-52.6456575682382
20
7.31756876086643
30
0.000000000000000
11
-52.5456575682382
21
7.27601934951925
31
0.000000000000000
  0
LINE
  5
F102B5
330
F102B6
100
AcDbEntity
8
Geo
100
AcDbLine
10
-52.5456575682382
20
7.27601934951925
30
0.000000000000000
11
-52.4456575682382
21
7.23524903755347
31
0.000000000000000
  0
LINE
  5
F102B7
330
F102B8
100
AcDbEntity
8
Geo
100
AcDbLine
10
-52.4456575682382
20
7.23524903755347
30
0.000000000000000
11
-52.3456575682382
21
7.19527292461859
31
0.000000000000000
  0
LINE
  5
F102B9
330
F102BA
100
AcDbEntity
8
Geo
100
AcDbLine
10
-52.3456575682382
20
7.19527292461859
30
0.000000000000000
11
-52.2456575682382
21
7.15610581622540
31
0.000000000000000
  0
LINE
  5
F102BB
330
F102BC
100
AcDbEntity
8
Geo
100
AcDbLine
10
-52.2456575682382
20
7.15610581622540
30
0.000000000000000
11
-52.1456575682382
21
7.11776221826261
31
0.000000000000000
  0
LINE
  5
F102BD
330
F102BE
100
AcDbEntity
8
Geo
100
AcDbLine
10
-52.1456575682382
20
7.11776221826261
30
0.000000000000000
11
-52.0456575682382
21
7.08025633162450
31
0.000000000000000
  0
LINE
  5
F102BF
330
F102C0
100
AcDbEntity
8
Geo
100
AcDbLine
10
-52.0456575682382
20
7.08025633162450
30
0.000000000000000
11
-51.9456575682382
21
7.04360204695146
31
0.000000000000000
  0
LINE
  5
F102C1
330
F102C2
100
AcDbEntity
8
Geo
100
AcDbLine
10
-51.9456575682382
20
7.04360204695146
30
0.000000000000000
11
-51.8456575682382
21
7.00781293948548
31
0.000000000000000
  0
LINE
  5
F102C3
330
F102C4
100
AcDbEntity
8
Geo
100
AcDbLine
10
-51.8456575682382
20
7.00781293948548
30
0.000000000000000
11
-51.7456575682382
21
6.97290226404244
31
0.000000000000000
  0
LINE
  5
F102C5
330
F102C6
100
AcDbEntity
8
Geo
100
AcDbLine
10
-51.7456575682382
20
6.97290226404244
30
0.000000000000000
11
-51.6456575682382
21
6.93888295010308
31
0.000000000000000
  0
LINE
  5
F102C7
330
F102C8
100
AcDbEntity
8
Geo
100
AcDbLine
10
-51.6456575682382
20
6.93888295010308
30
0.000000000000000
11
-51.5456575682382
21
6.90576759702442
31
0.000000000000000
  0
LINE
  5
F102C9
330
F102CA
100
AcDbEntity
8
Geo
100
AcDbLine
10
-51.5456575682382
20
6.90576759702442
30
0.000000000000000
11
-51.4456575682382
21
6.87356846937350
31
0.000000000000000
  0
LINE
  5
F102CB
330
F102CC
100
AcDbEntity
8
Geo
100
AcDbLine
10
-51.4456575682382
20
6.87356846937350
30
0.000000000000000
11
-51.3456575682382
21
6.84229749238508
31
0.000000000000000
  0
LINE
  5
F102CD
330
F102CE
100
AcDbEntity
8
Geo
100
AcDbLine
10
-51.3456575682382
20
6.84229749238508
30
0.000000000000000
11
-51.2456575682382
21
6.81196624754504
31
0.000000000000000
  0
LINE
  5
F102CF
330
F102D0
100
AcDbEntity
8
Geo
100
AcDbLine
10
-51.2456575682382
20
6.81196624754504
30
0.000000000000000
11
-51.1456575682382
21
6.78258596830105
31
0.000000000000000
  0
LINE
  5
F102D1
330
F102D2
100
AcDbEntity
8
Geo
100
AcDbLine
10
-51.1456575682382
20
6.78258596830105
30
0.000000000000000
11
-51.0456575682382
21
6.75416753590215
31
0.000000000000000
  0
LINE
  5
F102D3
330
F102D4
100
AcDbEntity
8
Geo
100
AcDbLine
10
-51.0456575682382
20
6.75416753590215
30
0.000000000000000
11
-50.9456575682382
21
6.72672147536883
31
0.000000000000000
  0
LINE
  5
F102D5
330
F102D6
100
AcDbEntity
8
Geo
100
AcDbLine
10
-50.9456575682382
20
6.72672147536883
30
0.000000000000000
11
-50.8456575682383
21
6.70025795159496
31
0.000000000000000
  0
LINE
  5
F102D7
330
F102D8
100
AcDbEntity
8
Geo
100
AcDbLine
10
-50.8456575682383
20
6.70025795159496
30
0.000000000000000
11
-50.7456575682383
21
6.67478676558314
31
0.000000000000000
  0
LINE
  5
F102D9
330
F102DA
100
AcDbEntity
8
Geo
100
AcDbLine
10
-50.7456575682383
20
6.67478676558314
30
0.000000000000000
11
-50.6456575682382
21
6.65031735081479
31
0.000000000000000
  0
LINE
  5
F102DB
330
F102DC
100
AcDbEntity
8
Geo
100
AcDbLine
10
-50.6456575682382
20
6.65031735081479
30
0.000000000000000
11
-50.5456575682382
21
6.62685876975642
31
0.000000000000000
  0
LINE
  5
F102DD
330
F102DE
100
AcDbEntity
8
Geo
100
AcDbLine
10
-50.5456575682382
20
6.62685876975642
30
0.000000000000000
11
-50.4456575682382
21
6.60441971050323
31
0.000000000000000
  0
LINE
  5
F102DF
330
F102E0
100
AcDbEntity
8
Geo
100
AcDbLine
10
-50.4456575682382
20
6.60441971050323
30
0.000000000000000
11
-50.3456575682383
21
6.58300848356140
31
0.000000000000000
  0
LINE
  5
F102E1
330
F102E2
100
AcDbEntity
8
Geo
100
AcDbLine
10
-50.3456575682383
20
6.58300848356140
30
0.000000000000000
11
-50.2456575682383
21
6.56263301877024
31
0.000000000000000
  0
LINE
  5
F102E3
330
F102E4
100
AcDbEntity
8
Geo
100
AcDbLine
10
-50.2456575682383
20
6.56263301877024
30
0.000000000000000
11
-50.1456575682382
21
6.54330086236526
31
0.000000000000000
  0
LINE
  5
F102E5
330
F102E6
100
AcDbEntity
8
Geo
100
AcDbLine
10
-50.1456575682382
20
6.54330086236526
30
0.000000000000000
11
-50.0456575682383
21
6.52501917418341
31
0.000000000000000
  0
LINE
  5
F102E7
330
F102E8
100
AcDbEntity
8
Geo
100
AcDbLine
10
-50.0456575682383
20
6.52501917418341
30
0.000000000000000
11
-49.9456575682383
21
6.50779472501134
31
0.000000000000000
  0
LINE
  5
F102E9
330
F102EA
100
AcDbEntity
8
Geo
100
AcDbLine
10
-49.9456575682383
20
6.50779472501134
30
0.000000000000000
11
-49.8456575682383
21
6.49163389407777
31
0.000000000000000
  0
LINE
  5
F102EB
330
F102EC
100
AcDbEntity
8
Geo
100
AcDbLine
10
-49.8456575682383
20
6.49163389407777
30
0.000000000000000
11
-49.7456575682383
21
6.47654266669091
31
0.000000000000000
  0
LINE
  5
F102ED
330
F102EE
100
AcDbEntity
8
Geo
100
AcDbLine
10
-49.7456575682383
20
6.47654266669091
30
0.000000000000000
11
-49.6456575682382
21
6.46252663202172
31
0.000000000000000
  0
LINE
  5
F102EF
330
F102F0
100
AcDbEntity
8
Geo
100
AcDbLine
10
-49.6456575682382
20
6.46252663202172
30
0.000000000000000
11
-49.5456575682383
21
6.44959098103393
31
0.000000000000000
  0
LINE
  5
F102F1
330
F102F2
100
AcDbEntity
8
Geo
100
AcDbLine
10
-49.5456575682383
20
6.44959098103393
30
0.000000000000000
11
-49.4456575682383
21
6.43774050456153
31
0.000000000000000
  0
LINE
  5
F102F3
330
F102F4
100
AcDbEntity
8
Geo
100
AcDbLine
10
-49.4456575682383
20
6.43774050456153
30
0.000000000000000
11
-49.3456575682383
21
6.42697959153441
31
0.000000000000000
  0
LINE
  5
F102F5
330
F102F6
100
AcDbEntity
8
Geo
100
AcDbLine
10
-49.3456575682383
20
6.42697959153441
30
0.000000000000000
11
-49.2456575682383
21
6.41731222735291
31
0.000000000000000
  0
LINE
  5
F102F7
330
F102F8
100
AcDbEntity
8
Geo
100
AcDbLine
10
-49.2456575682383
20
6.41731222735291
30
0.000000000000000
11
-49.1456575682383
21
6.40874199241177
31
0.000000000000000
  0
LINE
  5
F102F9
330
F102FA
100
AcDbEntity
8
Geo
100
AcDbLine
10
-49.1456575682383
20
6.40874199241177
30
0.000000000000000
11
-49.0456575682383
21
6.40127206077411
31
0.000000000000000
  0
LINE
  5
F102FB
330
F102FC
100
AcDbEntity
8
Geo
100
AcDbLine
10
-49.0456575682383
20
6.40127206077411
30
0.000000000000000
11
-48.9456575682383
21
6.39490519899590
31
0.000000000000000
  0
LINE
  5
F102FD
330
F102FE
100
AcDbEntity
8
Geo
100
AcDbLine
10
-48.9456575682383
20
6.39490519899590
30
0.000000000000000
11
-48.8456575682383
21
6.38964376510130
31
0.000000000000000
  0
LINE
  5
F102FF
330
F10300
100
AcDbEntity
8
Geo
100
AcDbLine
10
-48.8456575682383
20
6.38964376510130
30
0.000000000000000
11
-48.7456575682383
21
6.38548970770940
31
0.000000000000000
  0
LINE
  5
F10301
330
F10302
100
AcDbEntity
8
Geo
100
AcDbLine
10
-48.7456575682383
20
6.38548970770940
30
0.000000000000000
11
-48.6456575682383
21
6.38244456531248
31
0.000000000000000
  0
LINE
  5
F10303
330
F10304
100
AcDbEntity
8
Geo
100
AcDbLine
10
-48.6456575682383
20
6.38244456531248
30
0.000000000000000
11
-48.5456575682383
21
6.38050946570626
31
0.000000000000000
  0
LINE
  5
F10305
330
F10306
100
AcDbEntity
8
Geo
100
AcDbLine
10
-48.5456575682383
20
6.38050946570626
30
0.000000000000000
11
-48.4456575682383
21
6.37968512557216
31
0.000000000000000
  0
LINE
  5
F10307
330
F10308
100
AcDbEntity
8
Geo
100
AcDbLine
10
-32.1456575682380
20
12.3795225257118
30
0.000000000000000
11
-32.0456575682380
21
12.3795046210574
31
0.000000000000000
  0
LINE
  5
F10309
330
F1030A
100
AcDbEntity
8
Geo
100
AcDbLine
10
-32.0456575682380
20
12.3795046210574
30
0.000000000000000
11
-31.9456575682380
21
12.3783756943924
31
0.000000000000000
  0
LINE
  5
F1030B
330
F1030C
100
AcDbEntity
8
Geo
100
AcDbLine
10
-31.9456575682380
20
12.3783756943924
30
0.000000000000000
11
-31.8456575682380
21
12.3761361638249
31
0.000000000000000
  0
LINE
  5
F1030D
330
F1030E
100
AcDbEntity
8
Geo
100
AcDbLine
10
-31.8456575682380
20
12.3761361638249
30
0.000000000000000
11
-31.7456575682380
21
12.3727868587850
31
0.000000000000000
  0
LINE
  5
F1030F
330
F10310
100
AcDbEntity
8
Geo
100
AcDbLine
10
-31.7456575682380
20
12.3727868587850
30
0.000000000000000
11
-31.6456575682380
21
12.3683290197177
31
0.000000000000000
  0
LINE
  5
F10311
330
F10312
100
AcDbEntity
8
Geo
100
AcDbLine
10
-31.6456575682380
20
12.3683290197177
30
0.000000000000000
11
-31.5456575682380
21
12.3627642976237
31
0.000000000000000
  0
LINE
  5
F10313
330
F10314
100
AcDbEntity
8
Geo
100
AcDbLine
10
-31.5456575682380
20
12.3627642976237
30
0.000000000000000
11
-31.4456575682380
21
12.3560947534475
31
0.000000000000000
  0
LINE
  5
F10315
330
F10316
100
AcDbEntity
8
Geo
100
AcDbLine
10
-31.4456575682380
20
12.3560947534475
30
0.000000000000000
11
-31.3456575682380
21
12.3483228573144
31
0.000000000000000
  0
LINE
  5
F10317
330
F10318
100
AcDbEntity
8
Geo
100
AcDbLine
10
-31.3456575682380
20
12.3483228573144
30
0.000000000000000
11
-31.2456575682380
21
12.3394514876156
31
0.000000000000000
  0
LINE
  5
F10319
330
F1031A
100
AcDbEntity
8
Geo
100
AcDbLine
10
-31.2456575682380
20
12.3394514876156
30
0.000000000000000
11
-31.1456575682380
21
12.3294839299421
31
0.000000000000000
  0
LINE
  5
F1031B
330
F1031C
100
AcDbEntity
8
Geo
100
AcDbLine
10
-31.1456575682380
20
12.3294839299421
30
0.000000000000000
11
-31.0456575682380
21
12.3184238758682
31
0.000000000000000
  0
LINE
  5
F1031D
330
F1031E
100
AcDbEntity
8
Geo
100
AcDbLine
10
-31.0456575682380
20
12.3184238758682
30
0.000000000000000
11
-30.9456575682380
21
12.3062754215836
31
0.000000000000000
  0
LINE
  5
F1031F
330
F10320
100
AcDbEntity
8
Geo
100
AcDbLine
10
-30.9456575682380
20
12.3062754215836
30
0.000000000000000
11
-30.8456575682380
21
12.2930430663770
31
0.000000000000000
  0
LINE
  5
F10321
330
F10322
100
AcDbEntity
8
Geo
100
AcDbLine
10
-30.8456575682380
20
12.2930430663770
30
0.000000000000000
11
-30.7456575682380
21
12.2787317109695
31
0.000000000000000
  0
LINE
  5
F10323
330
F10324
100
AcDbEntity
8
Geo
100
AcDbLine
10
-30.7456575682380
20
12.2787317109695
30
0.000000000000000
11
-30.6456575682380
21
12.2633466556994
31
0.000000000000000
  0
LINE
  5
F10325
330
F10326
100
AcDbEntity
8
Geo
100
AcDbLine
10
-30.6456575682380
20
12.2633466556994
30
0.000000000000000
11
-30.5456575682380
21
12.2468935985595
31
0.000000000000000
  0
LINE
  5
F10327
330
F10328
100
AcDbEntity
8
Geo
100
AcDbLine
10
-30.5456575682380
20
12.2468935985595
30
0.000000000000000
11
-30.4456575682380
21
12.2293786330866
31
0.000000000000000
  0
LINE
  5
F10329
330
F1032A
100
AcDbEntity
8
Geo
100
AcDbLine
10
-30.4456575682380
20
12.2293786330866
30
0.000000000000000
11
-30.3456575682380
21
12.2108082461048
31
0.000000000000000
  0
LINE
  5
F1032B
330
F1032C
100
AcDbEntity
8
Geo
100
AcDbLine
10
-30.3456575682380
20
12.2108082461048
30
0.000000000000000
11
-30.2456575682380
21
12.1911893153228
31
0.000000000000000
  0
LINE
  5
F1032D
330
F1032E
100
AcDbEntity
8
Geo
100
AcDbLine
10
-30.2456575682380
20
12.1911893153228
30
0.000000000000000
11
-30.1456575682380
21
12.1705291067871
31
0.000000000000000
  0
LINE
  5
F1032F
330
F10330
100
AcDbEntity
8
Geo
100
AcDbLine
10
-30.1456575682380
20
12.1705291067871
30
0.000000000000000
11
-30.0456575682380
21
12.1488352721906
31
0.000000000000000
  0
LINE
  5
F10331
330
F10332
100
AcDbEntity
8
Geo
100
AcDbLine
10
-30.0456575682380
20
12.1488352721906
30
0.000000000000000
11
-29.9456575682380
21
12.1261158460388
31
0.000000000000000
  0
LINE
  5
F10333
330
F10334
100
AcDbEntity
8
Geo
100
AcDbLine
10
-29.9456575682380
20
12.1261158460388
30
0.000000000000000
11
-29.8456575682380
21
12.1023792426743
31
0.000000000000000
  0
LINE
  5
F10335
330
F10336
100
AcDbEntity
8
Geo
100
AcDbLine
10
-29.8456575682380
20
12.1023792426743
30
0.000000000000000
11
-29.7456575682380
21
12.0776342531604
31
0.000000000000000
  0
LINE
  5
F10337
330
F10338
100
AcDbEntity
8
Geo
100
AcDbLine
10
-29.7456575682380
20
12.0776342531604
30
0.000000000000000
11
-29.6456575682380
21
12.0518900420251
31
0.000000000000000
  0
LINE
  5
F10339
330
F1033A
100
AcDbEntity
8
Geo
100
AcDbLine
10
-29.6456575682380
20
12.0518900420251
30
0.000000000000000
11
-29.5456575682380
21
12.0251561438672
31
0.000000000000000
  0
LINE
  5
F1033B
330
F1033C
100
AcDbEntity
8
Geo
100
AcDbLine
10
-29.5456575682380
20
12.0251561438672
30
0.000000000000000
11
-29.4456575682380
21
11.9974424598248
31
0.000000000000000
  0
LINE
  5
F1033D
330
F1033E
100
AcDbEntity
8
Geo
100
AcDbLine
10
-29.4456575682380
20
11.9974424598248
30
0.000000000000000
11
-29.3456575682380
21
11.9687592539085
31
0.000000000000000
  0
LINE
  5
F1033F
330
F10340
100
AcDbEntity
8
Geo
100
AcDbLine
10
-29.3456575682380
20
11.9687592539085
30
0.000000000000000
11
-29.2456575682380
21
11.9391171492002
31
0.000000000000000
  0
LINE
  5
F10341
330
F10342
100
AcDbEntity
8
Geo
100
AcDbLine
10
-29.2456575682380
20
11.9391171492002
30
0.000000000000000
11
-29.1456575682380
21
11.9085271239181
31
0.000000000000000
  0
LINE
  5
F10343
330
F10344
100
AcDbEntity
8
Geo
100
AcDbLine
10
-29.1456575682380
20
11.9085271239181
30
0.000000000000000
11
-29.0456575682380
21
11.8770005073518
31
0.000000000000000
  0
LINE
  5
F10345
330
F10346
100
AcDbEntity
8
Geo
100
AcDbLine
10
-29.0456575682380
20
11.8770005073518
30
0.000000000000000
11
-28.9456575682380
21
11.8445489756653
31
0.000000000000000
  0
LINE
  5
F10347
330
F10348
100
AcDbEntity
8
Geo
100
AcDbLine
10
-28.9456575682380
20
11.8445489756653
30
0.000000000000000
11
-28.8456575682380
21
11.8111845475736
31
0.000000000000000
  0
LINE
  5
F10349
330
F1034A
100
AcDbEntity
8
Geo
100
AcDbLine
10
-28.8456575682380
20
11.8111845475736
30
0.000000000000000
11
-28.7456575682380
21
11.7769195798909
31
0.000000000000000
  0
LINE
  5
F1034B
330
F1034C
100
AcDbEntity
8
Geo
100
AcDbLine
10
-28.7456575682380
20
11.7769195798909
30
0.000000000000000
11
-28.6456575682380
21
11.7417667629543
31
0.000000000000000
  0
LINE
  5
F1034D
330
F1034E
100
AcDbEntity
8
Geo
100
AcDbLine
10
-28.6456575682380
20
11.7417667629543
30
0.000000000000000
11
-28.5456575682380
21
11.7057391159237
31
0.000000000000000
  0
LINE
  5
F1034F
330
F10350
100
AcDbEntity
8
Geo
100
AcDbLine
10
-28.5456575682380
20
11.7057391159237
30
0.000000000000000
11
-28.4456575682380
21
11.6688499819604
31
0.000000000000000
  0
LINE
  5
F10351
330
F10352
100
AcDbEntity
8
Geo
100
AcDbLine
10
-28.4456575682380
20
11.6688499819604
30
0.000000000000000
11
-28.3456575682380
21
11.6311130232847
31
0.000000000000000
  0
LINE
  5
F10353
330
F10354
100
AcDbEntity
8
Geo
100
AcDbLine
10
-28.3456575682380
20
11.6311130232847
30
0.000000000000000
11
-28.2456575682380
21
11.5925422161168
31
0.000000000000000
  0
LINE
  5
F10355
330
F10356
100
AcDbEntity
8
Geo
100
AcDbLine
10
-28.2456575682380
20
11.5925422161168
30
0.000000000000000
11
-28.1456575682380
21
11.5531518454998
31
0.000000000000000
  0
LINE
  5
F10357
330
F10358
100
AcDbEntity
8
Geo
100
AcDbLine
10
-28.1456575682380
20
11.5531518454998
30
0.000000000000000
11
-28.0456575682380
21
11.5129565000097
31
0.000000000000000
  0
LINE
  5
F10359
330
F1035A
100
AcDbEntity
8
Geo
100
AcDbLine
10
-28.0456575682380
20
11.5129565000097
30
0.000000000000000
11
-27.9456575682380
21
11.4719710663519
31
0.000000000000000
  0
LINE
  5
F1035B
330
F1035C
100
AcDbEntity
8
Geo
100
AcDbLine
10
-27.9456575682380
20
11.4719710663519
30
0.000000000000000
11
-27.8456575682380
21
11.4302107238482
31
0.000000000000000
  0
LINE
  5
F1035D
330
F1035E
100
AcDbEntity
8
Geo
100
AcDbLine
10
-27.8456575682380
20
11.4302107238482
30
0.000000000000000
11
-27.7456575682380
21
11.3876909388147
31
0.000000000000000
  0
LINE
  5
F1035F
330
F10360
100
AcDbEntity
8
Geo
100
AcDbLine
10
-27.7456575682380
20
11.3876909388147
30
0.000000000000000
11
-27.6456575682380
21
11.3444274588340
31
0.000000000000000
  0
LINE
  5
F10361
330
F10362
100
AcDbEntity
8
Geo
100
AcDbLine
10
-27.6456575682380
20
11.3444274588340
30
0.000000000000000
11
-27.5456575682380
21
11.3004363069225
31
0.000000000000000
  0
LINE
  5
F10363
330
F10364
100
AcDbEntity
8
Geo
100
AcDbLine
10
-27.5456575682380
20
11.3004363069225
30
0.000000000000000
11
-27.4456575682380
21
11.2557337755967
31
0.000000000000000
  0
LINE
  5
F10365
330
F10366
100
AcDbEntity
8
Geo
100
AcDbLine
10
-27.4456575682380
20
11.2557337755967
30
0.000000000000000
11
-27.3456575682380
21
11.2103364208387
31
0.000000000000000
  0
LINE
  5
F10367
330
F10368
100
AcDbEntity
8
Geo
100
AcDbLine
10
-27.3456575682380
20
11.2103364208387
30
0.000000000000000
11
-27.2456575682380
21
11.1642610559645
31
0.000000000000000
  0
LINE
  5
F10369
330
F1036A
100
AcDbEntity
8
Geo
100
AcDbLine
10
-27.2456575682380
20
11.1642610559645
30
0.000000000000000
11
-27.1456575682380
21
11.1175247453975
31
0.000000000000000
  0
LINE
  5
F1036B
330
F1036C
100
AcDbEntity
8
Geo
100
AcDbLine
10
-27.1456575682380
20
11.1175247453975
30
0.000000000000000
11
-27.0456575682379
21
11.0701447983481
31
0.000000000000000
  0
LINE
  5
F1036D
330
F1036E
100
AcDbEntity
8
Geo
100
AcDbLine
10
-27.0456575682379
20
11.0701447983481
30
0.000000000000000
11
-26.9456575682379
21
11.0221387624031
31
0.000000000000000
  0
LINE
  5
F1036F
330
F10370
100
AcDbEntity
8
Geo
100
AcDbLine
10
-26.9456575682379
20
11.0221387624031
30
0.000000000000000
11
-26.8456575682379
21
10.9735244170272
31
0.000000000000000
  0
LINE
  5
F10371
330
F10372
100
AcDbEntity
8
Geo
100
AcDbLine
10
-26.8456575682379
20
10.9735244170272
30
0.000000000000000
11
-26.7456575682379
21
10.9243197669778
31
0.000000000000000
  0
LINE
  5
F10373
330
F10374
100
AcDbEntity
8
Geo
100
AcDbLine
10
-26.7456575682379
20
10.9243197669778
30
0.000000000000000
11
-26.6456575682379
21
10.8745430356368
31
0.000000000000000
  0
LINE
  5
F10375
330
F10376
100
AcDbEntity
8
Geo
100
AcDbLine
10
-26.6456575682379
20
10.8745430356368
30
0.000000000000000
11
-26.5456575682379
21
10.8242126582617
31
0.000000000000000
  0
LINE
  5
F10377
330
F10378
100
AcDbEntity
8
Geo
100
AcDbLine
10
-26.5456575682379
20
10.8242126582617
30
0.000000000000000
11
-26.4456575682379
21
10.7733472751576
31
0.000000000000000
  0
LINE
  5
F10379
330
F1037A
100
AcDbEntity
8
Geo
100
AcDbLine
10
-26.4456575682379
20
10.7733472751576
30
0.000000000000000
11
-26.3456575682379
21
10.7219657247739
31
0.000000000000000
  0
LINE
  5
F1037B
330
F1037C
100
AcDbEntity
8
Geo
100
AcDbLine
10
-26.3456575682379
20
10.7219657247739
30
0.000000000000000
11
-26.2456575682379
21
10.6700870367271
31
0.000000000000000
  0
LINE
  5
F1037D
330
F1037E
100
AcDbEntity
8
Geo
100
AcDbLine
10
-26.2456575682379
20
10.6700870367271
30
0.000000000000000
11
-26.1456575682379
21
10.6177304247530
31
0.000000000000000
  0
LINE
  5
F1037F
330
F10380
100
AcDbEntity
8
Geo
100
AcDbLine
10
-26.1456575682379
20
10.6177304247530
30
0.000000000000000
11
-26.0456575682379
21
10.5649152795910
31
0.000000000000000
  0
LINE
  5
F10381
330
F10382
100
AcDbEntity
8
Geo
100
AcDbLine
10
-26.0456575682379
20
10.5649152795910
30
0.000000000000000
11
-25.9456575682379
21
10.5116611618022
31
0.000000000000000
  0
LINE
  5
F10383
330
F10384
100
AcDbEntity
8
Geo
100
AcDbLine
10
-25.9456575682379
20
10.5116611618022
30
0.000000000000000
11
-25.8456575682379
21
10.4579877945252
31
0.000000000000000
  0
LINE
  5
F10385
330
F10386
100
AcDbEntity
8
Geo
100
AcDbLine
10
-25.8456575682379
20
10.4579877945252
30
0.000000000000000
11
-25.7456575682379
21
10.4039150561712
31
0.000000000000000
  0
LINE
  5
F10387
330
F10388
100
AcDbEntity
8
Geo
100
AcDbLine
10
-25.7456575682379
20
10.4039150561712
30
0.000000000000000
11
-25.6456575682379
21
10.3494629730625
31
0.000000000000000
  0
LINE
  5
F10389
330
F1038A
100
AcDbEntity
8
Geo
100
AcDbLine
10
-25.6456575682379
20
10.3494629730625
30
0.000000000000000
11
-25.5456575682379
21
10.2946517120146
31
0.000000000000000
  0
LINE
  5
F1038B
330
F1038C
100
AcDbEntity
8
Geo
100
AcDbLine
10
-25.5456575682379
20
10.2946517120146
30
0.000000000000000
11
-25.4456575682379
21
10.2395015728682
31
0.000000000000000
  0
LINE
  5
F1038D
330
F1038E
100
AcDbEntity
8
Geo
100
AcDbLine
10
-25.4456575682379
20
10.2395015728682
30
0.000000000000000
11
-25.3456575682379
21
10.1840329809702
31
0.000000000000000
  0
LINE
  5
F1038F
330
F10390
100
AcDbEntity
8
Geo
100
AcDbLine
10
-25.3456575682379
20
10.1840329809702
30
0.000000000000000
11
-25.2456575682379
21
10.1282664796095
31
0.000000000000000
  0
LINE
  5
F10391
330
F10392
100
AcDbEntity
8
Geo
100
AcDbLine
10
-25.2456575682379
20
10.1282664796095
30
0.000000000000000
11
-25.1456575682379
21
10.0722227224084
31
0.000000000000000
  0
LINE
  5
F10393
330
F10394
100
AcDbEntity
8
Geo
100
AcDbLine
10
-25.1456575682379
20
10.0722227224084
30
0.000000000000000
11
-25.0456575682379
21
10.0159224656734
31
0.000000000000000
  0
LINE
  5
F10395
330
F10396
100
AcDbEntity
8
Geo
100
AcDbLine
10
-25.0456575682379
20
10.0159224656734
30
0.000000000000000
11
-24.9456575682379
21
9.95938656070788
31
0.000000000000000
  0
LINE
  5
F10397
330
F10398
100
AcDbEntity
8
Geo
100
AcDbLine
10
-24.9456575682379
20
9.95938656070788
30
0.000000000000000
11
-24.8456575682379
21
9.90263594608957
31
0.000000000000000
  0
LINE
  5
F10399
330
F1039A
100
AcDbEntity
8
Geo
100
AcDbLine
10
-24.8456575682379
20
9.90263594608957
30
0.000000000000000
11
-24.7456575682379
21
9.84569163991593
31
0.000000000000000
  0
LINE
  5
F1039B
330
F1039C
100
AcDbEntity
8
Geo
100
AcDbLine
10
-24.7456575682379
20
9.84569163991593
30
0.000000000000000
11
-24.6456575682379
21
9.78857473201981
31
0.000000000000000
  0
LINE
  5
F1039D
330
F1039E
100
AcDbEntity
8
Geo
100
AcDbLine
10
-24.6456575682379
20
9.78857473201981
30
0.000000000000000
11
-24.5456575682379
21
9.73130637615863
31
0.000000000000000
  0
LINE
  5
F1039F
330
F103A0
100
AcDbEntity
8
Geo
100
AcDbLine
10
-24.5456575682379
20
9.73130637615863
30
0.000000000000000
11
-24.4456575682379
21
9.67390778217992
31
0.000000000000000
  0
LINE
  5
F103A1
330
F103A2
100
AcDbEntity
8
Geo
100
AcDbLine
10
-24.4456575682379
20
9.67390778217992
30
0.000000000000000
11
-24.3456575682379
21
9.61640020816607
31
0.000000000000000
  0
LINE
  5
F103A3
330
F103A4
100
AcDbEntity
8
Geo
100
AcDbLine
10
-24.3456575682379
20
9.61640020816607
30
0.000000000000000
11
-24.2456575682379
21
9.55880495256119
31
0.000000000000000
  0
LINE
  5
F103A5
330
F103A6
100
AcDbEntity
8
Geo
100
AcDbLine
10
-24.2456575682379
20
9.55880495256119
30
0.000000000000000
11
-24.1456575682379
21
9.50114334628307
31
0.000000000000000
  0
LINE
  5
F103A7
330
F103A8
100
AcDbEntity
8
Geo
100
AcDbLine
10
-24.1456575682379
20
9.50114334628307
30
0.000000000000000
11
-24.0456575682379
21
9.44343674482303
31
0.000000000000000
  0
LINE
  5
F103A9
330
F103AA
100
AcDbEntity
8
Geo
100
AcDbLine
10
-24.0456575682379
20
9.44343674482303
30
0.000000000000000
11
-23.9456575682379
21
9.38570652033679
31
0.000000000000000
  0
LINE
  5
F103AB
330
F103AC
100
AcDbEntity
8
Geo
100
AcDbLine
10
-23.9456575682379
20
9.38570652033679
30
0.000000000000000
11
-23.8456575682379
21
9.32797405372906
31
0.000000000000000
  0
LINE
  5
F103AD
330
F103AE
100
AcDbEntity
8
Geo
100
AcDbLine
10
-23.8456575682379
20
9.32797405372906
30
0.000000000000000
11
-23.7456575682379
21
9.27026072673493
31
0.000000000000000
  0
LINE
  5
F103AF
330
F103B0
100
AcDbEntity
8
Geo
100
AcDbLine
10
-23.7456575682379
20
9.27026072673493
30
0.000000000000000
11
-23.6456575682379
21
9.21258791400098
31
0.000000000000000
  0
LINE
  5
F103B1
330
F103B2
100
AcDbEntity
8
Geo
100
AcDbLine
10
-23.6456575682379
20
9.21258791400098
30
0.000000000000000
11
-23.5456575682379
21
9.15497697516896
31
0.000000000000000
  0
LINE
  5
F103B3
330
F103B4
100
AcDbEntity
8
Geo
100
AcDbLine
10
-23.5456575682379
20
9.15497697516896
30
0.000000000000000
11
-23.4456575682379
21
9.09744924696506
31
0.000000000000000
  0
LINE
  5
F103B5
330
F103B6
100
AcDbEntity
8
Geo
100
AcDbLine
10
-23.4456575682379
20
9.09744924696506
30
0.000000000000000
11
-23.3456575682379
21
9.04002603529769
31
0.000000000000000
  0
LINE
  5
F103B7
330
F103B8
100
AcDbEntity
8
Geo
100
AcDbLine
10
-23.3456575682379
20
9.04002603529769
30
0.000000000000000
11
-23.2456575682379
21
8.98272860736661
31
0.000000000000000
  0
LINE
  5
F103B9
330
F103BA
100
AcDbEntity
8
Geo
100
AcDbLine
10
-23.2456575682379
20
8.98272860736661
30
0.000000000000000
11
-23.1456575682379
21
8.92557818378646
31
0.000000000000000
  0
LINE
  5
F103BB
330
F103BC
100
AcDbEntity
8
Geo
100
AcDbLine
10
-23.1456575682379
20
8.92557818378646
30
0.000000000000000
11
-23.0456575682379
21
8.86859593072749
31
0.000000000000000
  0
LINE
  5
F103BD
330
F103BE
100
AcDbEntity
8
Geo
100
AcDbLine
10
-23.0456575682379
20
8.86859593072749
30
0.000000000000000
11
-22.9456575682379
21
8.81180295207652
31
0.000000000000000
  0
LINE
  5
F103BF
330
F103C0
100
AcDbEntity
8
Geo
100
AcDbLine
10
-22.9456575682379
20
8.81180295207652
30
0.000000000000000
11
-22.8456575682379
21
8.75522028162087
31
0.000000000000000
  0
LINE
  5
F103C1
330
F103C2
100
AcDbEntity
8
Geo
100
AcDbLine
10
-22.8456575682379
20
8.75522028162087
30
0.000000000000000
11
-22.7456575682382
21
8.69886887525854
31
0.000000000000000
  0
LINE
  5
F103C3
330
F103C4
100
AcDbEntity
8
Geo
100
AcDbLine
10
-22.7456575682382
20
8.69886887525854
30
0.000000000000000
11
-22.6456575682382
21
8.71594758036149
31
0.000000000000000
  0
LINE
  5
F103C5
330
F103C6
100
AcDbEntity
8
Geo
100
AcDbLine
10
-22.6456575682382
20
8.71594758036149
30
0.000000000000000
11
-22.5456575682382
21
8.73545091942927
31
0.000000000000000
  0
LINE
  5
F103C7
330
F103C8
100
AcDbEntity
8
Geo
100
AcDbLine
10
-22.5456575682382
20
8.73545091942927
30
0.000000000000000
11
-22.4456575682382
21
8.75750269478211
31
0.000000000000000
  0
LINE
  5
F103C9
330
F103CA
100
AcDbEntity
8
Geo
100
AcDbLine
10
-22.4456575682382
20
8.75750269478211
30
0.000000000000000
11
-22.3456575682382
21
8.78211390460987
31
0.000000000000000
  0
LINE
  5
F103CB
330
F103CC
100
AcDbEntity
8
Geo
100
AcDbLine
10
-22.3456575682382
20
8.78211390460987
30
0.000000000000000
11
-22.2456575682382
21
8.80929596065854
31
0.000000000000000
  0
LINE
  5
F103CD
330
F103CE
100
AcDbEntity
8
Geo
100
AcDbLine
10
-22.2456575682382
20
8.80929596065854
30
0.000000000000000
11
-22.1456575682382
21
8.83906041292865
31
0.000000000000000
  0
LINE
  5
F103CF
330
F103D0
100
AcDbEntity
8
Geo
100
AcDbLine
10
-22.1456575682382
20
8.83906041292865
30
0.000000000000000
11
-22.0456575682382
21
8.87141864513867
31
0.000000000000000
  0
LINE
  5
F103D1
330
F103D2
100
AcDbEntity
8
Geo
100
AcDbLine
10
-22.0456575682382
20
8.87141864513867
30
0.000000000000000
11
-21.9456575682382
21
8.90638154077889
31
0.000000000000000
  0
LINE
  5
F103D3
330
F103D4
100
AcDbEntity
8
Geo
100
AcDbLine
10
-21.9456575682382
20
8.90638154077889
30
0.000000000000000
11
-21.8456575682382
21
8.94395911962296
31
0.000000000000000
  0
LINE
  5
F103D5
330
F103D6
100
AcDbEntity
8
Geo
100
AcDbLine
10
-21.8456575682382
20
8.94395911962296
30
0.000000000000000
11
-21.7456575682382
21
8.98416014462217
31
0.000000000000000
  0
LINE
  5
F103D7
330
F103D8
100
AcDbEntity
8
Geo
100
AcDbLine
10
-21.7456575682382
20
8.98416014462217
30
0.000000000000000
11
-21.6456575682382
21
9.02699169918165
31
0.000000000000000
  0
LINE
  5
F103D9
330
F103DA
100
AcDbEntity
8
Geo
100
AcDbLine
10
-21.6456575682382
20
9.02699169918165
30
0.000000000000000
11
-21.5456575682382
21
9.07245873491099
31
0.000000000000000
  0
LINE
  5
F103DB
330
F103DC
100
AcDbEntity
8
Geo
100
AcDbLine
10
-21.5456575682382
20
9.07245873491099
30
0.000000000000000
11
-21.4456575682382
21
9.12056359005440
31
0.000000000000000
  0
LINE
  5
F103DD
330
F103DE
100
AcDbEntity
8
Geo
100
AcDbLine
10
-21.4456575682382
20
9.12056359005440
30
0.000000000000000
11
-21.3456575682382
21
9.17130547893936
31
0.000000000000000
  0
LINE
  5
F103DF
330
F103E0
100
AcDbEntity
8
Geo
100
AcDbLine
10
-21.3456575682382
20
9.17130547893936
30
0.000000000000000
11
-21.2456575682382
21
9.22467995293910
31
0.000000000000000
  0
LINE
  5
F103E1
330
F103E2
100
AcDbEntity
8
Geo
100
AcDbLine
10
-21.2456575682382
20
9.22467995293910
30
0.000000000000000
11
-21.1456575682382
21
9.28067833362391
31
0.000000000000000
  0
LINE
  5
F103E3
330
F103E4
100
AcDbEntity
8
Geo
100
AcDbLine
10
-21.1456575682382
20
9.28067833362391
30
0.000000000000000
11
-21.0456575682382
21
9.33928711898084
31
0.000000000000000
  0
LINE
  5
F103E5
330
F103E6
100
AcDbEntity
8
Geo
100
AcDbLine
10
-21.0456575682382
20
9.33928711898084
30
0.000000000000000
11
-20.9456575682382
21
9.40048736381206
31
0.000000000000000
  0
LINE
  5
F103E7
330
F103E8
100
AcDbEntity
8
Geo
100
AcDbLine
10
-20.9456575682382
20
9.40048736381206
30
0.000000000000000
11
-20.8456575682382
21
9.46425403567853
31
0.000000000000000
  0
LINE
  5
F103E9
330
F103EA
100
AcDbEntity
8
Geo
100
AcDbLine
10
-20.8456575682382
20
9.46425403567853
30
0.000000000000000
11
-20.7456575682382
21
9.53058050269046
31
0.000000000000000
  0
LINE
  5
F103EB
330
F103EC
100
AcDbEntity
8
Geo
100
AcDbLine
10
-64.7456575682382
20
9.37965260545907
30
0.000000000000000
11
-64.6456575682382
21
10.0962549854535
31
0.000000000000000
  0
LINE
  5
F103ED
330
F103EE
100
AcDbEntity
8
Geo
100
AcDbLine
10
-64.6456575682382
20
10.0962549854535
30
0.000000000000000
11
-64.5456575682382
21
10.3768079847607
31
0.000000000000000
  0
LINE
  5
F103EF
330
F103F0
100
AcDbEntity
8
Geo
100
AcDbLine
10
-64.5456575682382
20
10.3768079847607
30
0.000000000000000
11
-64.4456575682382
21
10.5806051018845
31
0.000000000000000
  0
LINE
  5
F103F1
330
F103F2
100
AcDbEntity
8
Geo
100
AcDbLine
10
-64.4456575682382
20
10.5806051018845
30
0.000000000000000
11
-64.3456575682382
21
10.7425243598235
31
0.000000000000000
  0
LINE
  5
F103F3
330
F103F4
100
AcDbEntity
8
Geo
100
AcDbLine
10
-64.3456575682382
20
10.7425243598235
30
0.000000000000000
11
-64.2456575682382
21
10.8762553457533
31
0.000000000000000
  0
LINE
  5
F103F5
330
F103F6
100
AcDbEntity
8
Geo
100
AcDbLine
10
-64.2456575682382
20
10.8762553457533
30
0.000000000000000
11
-64.1456575682382
21
10.9889058502937
31
0.000000000000000
  0
LINE
  5
F103F7
330
F103F8
100
AcDbEntity
8
Geo
100
AcDbLine
10
-64.1456575682382
20
10.9889058502937
30
0.000000000000000
11
-64.0456575682382
21
11.0847503483206
31
0.000000000000000
  0
LINE
  5
F103F9
330
F103FA
100
AcDbEntity
8
Geo
100
AcDbLine
10
-64.0456575682382
20
11.0847503483206
30
0.000000000000000
11
-63.9456575682382
21
11.1666097907100
31
0.000000000000000
  0
LINE
  5
F103FB
330
F103FC
100
AcDbEntity
8
Geo
100
AcDbLine
10
-63.9456575682382
20
11.1666097907100
30
0.000000000000000
11
-63.8456575682382
21
11.2364709067854
31
0.000000000000000
  0
LINE
  5
F103FD
330
F103FE
100
AcDbEntity
8
Geo
100
AcDbLine
10
-63.8456575682382
20
11.2364709067854
30
0.000000000000000
11
-63.7456575682382
21
11.2958025288172
31
0.000000000000000
  0
LINE
  5
F103FF
330
F10400
100
AcDbEntity
8
Geo
100
AcDbLine
10
-63.7456575682382
20
11.2958025288172
30
0.000000000000000
11
-63.6456575682382
21
11.3457327305555
31
0.000000000000000
  0
LINE
  5
F10401
330
F10402
100
AcDbEntity
8
Geo
100
AcDbLine
10
-63.6456575682382
20
11.3457327305555
30
0.000000000000000
11
-63.5456575682382
21
11.3871551288177
31
0.000000000000000
  0
LINE
  5
F10403
330
F10404
100
AcDbEntity
8
Geo
100
AcDbLine
10
-63.5456575682382
20
11.3871551288177
30
0.000000000000000
11
-63.4456575682382
21
11.4207962207322
31
0.000000000000000
  0
LINE
  5
F10405
330
F10406
100
AcDbEntity
8
Geo
100
AcDbLine
10
-63.4456575682382
20
11.4207962207322
30
0.000000000000000
11
-63.3456575682382
21
11.4472599360186
31
0.000000000000000
  0
LINE
  5
F10407
330
F10408
100
AcDbEntity
8
Geo
100
AcDbLine
10
-63.3456575682382
20
11.4472599360186
30
0.000000000000000
11
-63.2456575682382
21
11.4670581886994
31
0.000000000000000
  0
LINE
  5
F10409
330
F1040A
100
AcDbEntity
8
Geo
100
AcDbLine
10
-63.2456575682382
20
11.4670581886994
30
0.000000000000000
11
-63.1456575682382
21
11.4806324660096
31
0.000000000000000
  0
LINE
  5
F1040B
330
F1040C
100
AcDbEntity
8
Geo
100
AcDbLine
10
-63.1456575682382
20
11.4806324660096
30
0.000000000000000
11
-63.0456575682382
21
11.4883694781692
31
0.000000000000000
  0
LINE
  5
F1040D
330
F1040E
100
AcDbEntity
8
Geo
100
AcDbLine
10
-63.0456575682382
20
11.4883694781692
30
0.000000000000000
11
-62.9456575682382
21
11.4906127550411
31
0.000000000000000
  0
LINE
  5
F1040F
330
F10410
100
AcDbEntity
8
Geo
100
AcDbLine
10
-62.9456575682382
20
11.4906127550411
30
0.000000000000000
11
-62.8456575682382
21
11.4876714055752
31
0.000000000000000
  0
LINE
  5
F10411
330
F10412
100
AcDbEntity
8
Geo
100
AcDbLine
10
-62.8456575682382
20
11.4876714055752
30
0.000000000000000
11
-62.7456575682382
21
11.4798268467115
31
0.000000000000000
  0
LINE
  5
F10413
330
F10414
100
AcDbEntity
8
Geo
100
AcDbLine
10
-62.7456575682382
20
11.4798268467115
30
0.000000000000000
11
-62.6456575682382
21
11.4673380505354
31
0.000000000000000
  0
LINE
  5
F10415
330
F10416
100
AcDbEntity
8
Geo
100
AcDbLine
10
-62.6456575682382
20
11.4673380505354
30
0.000000000000000
11
-62.5456575682382
21
11.4504456914489
31
0.000000000000000
  0
LINE
  5
F10417
330
F10418
100
AcDbEntity
8
Geo
100
AcDbLine
10
-62.5456575682382
20
11.4504456914489
30
0.000000000000000
11
-62.4456575682382
21
11.4293754642571
31
0.000000000000000
  0
LINE
  5
F10419
330
F1041A
100
AcDbEntity
8
Geo
100
AcDbLine
10
-62.4456575682382
20
11.4293754642571
30
0.000000000000000
11
-62.3456575682382
21
11.4043407688832
31
0.000000000000000
  0
LINE
  5
F1041B
330
F1041C
100
AcDbEntity
8
Geo
100
AcDbLine
10
-62.3456575682382
20
11.4043407688832
30
0.000000000000000
11
-62.2456575682382
21
11.3755449054287
31
0.000000000000000
  0
LINE
  5
F1041D
330
F1041E
100
AcDbEntity
8
Geo
100
AcDbLine
10
-62.2456575682382
20
11.3755449054287
30
0.000000000000000
11
-62.1456575682382
21
11.3431828867127
31
0.000000000000000
  0
LINE
  5
F1041F
330
F10420
100
AcDbEntity
8
Geo
100
AcDbLine
10
-62.1456575682382
20
11.3431828867127
30
0.000000000000000
11
-62.0456575682382
21
11.3074429492760
31
0.000000000000000
  0
LINE
  5
F10421
330
F10422
100
AcDbEntity
8
Geo
100
AcDbLine
10
-62.0456575682382
20
11.3074429492760
30
0.000000000000000
11
-61.9456575682382
21
11.2685078248893
31
0.000000000000000
  0
LINE
  5
F10423
330
F10424
100
AcDbEntity
8
Geo
100
AcDbLine
10
-61.9456575682382
20
11.2685078248893
30
0.000000000000000
11
-61.8456575682382
21
11.2265558206999
31
0.000000000000000
  0
LINE
  5
F10425
330
F10426
100
AcDbEntity
8
Geo
100
AcDbLine
10
-61.8456575682382
20
11.2265558206999
30
0.000000000000000
11
-61.7456575682382
21
11.1817617458462
31
0.000000000000000
  0
LINE
  5
F10427
330
F10428
100
AcDbEntity
8
Geo
100
AcDbLine
10
-61.7456575682382
20
11.1817617458462
30
0.000000000000000
11
-61.6456575682382
21
11.1352733305807
31
0.000000000000000
  0
LINE
  5
F10429
330
F1042A
100
AcDbEntity
8
Geo
100
AcDbLine
10
-61.6456575682382
20
11.1352733305807
30
0.000000000000000
11
-61.5456575682382
21
11.0881347054856
31
0.000000000000000
  0
LINE
  5
F1042B
330
F1042C
100
AcDbEntity
8
Geo
100
AcDbLine
10
-61.5456575682382
20
11.0881347054856
30
0.000000000000000
11
-61.4456575682382
21
11.0403633287720
31
0.000000000000000
  0
LINE
  5
F1042D
330
F1042E
100
AcDbEntity
8
Geo
100
AcDbLine
10
-61.4456575682382
20
11.0403633287720
30
0.000000000000000
11
-61.3456575682382
21
10.9919768929965
31
0.000000000000000
  0
LINE
  5
F1042F
330
F10430
100
AcDbEntity
8
Geo
100
AcDbLine
10
-61.3456575682382
20
10.9919768929965
30
0.000000000000000
11
-61.2456575682382
21
10.9429933185079
31
0.000000000000000
  0
LINE
  5
F10431
330
F10432
100
AcDbEntity
8
Geo
100
AcDbLine
10
-61.2456575682382
20
10.9429933185079
30
0.000000000000000
11
-61.1456575682382
21
10.8934307468111
31
0.000000000000000
  0
LINE
  5
F10433
330
F10434
100
AcDbEntity
8
Geo
100
AcDbLine
10
-61.1456575682382
20
10.8934307468111
30
0.000000000000000
11
-61.0456575682382
21
10.8433075338474
31
0.000000000000000
  0
LINE
  5
F10435
330
F10436
100
AcDbEntity
8
Geo
100
AcDbLine
10
-61.0456575682382
20
10.8433075338474
30
0.000000000000000
11
-60.9456575682382
21
10.7926422431969
31
0.000000000000000
  0
LINE
  5
F10437
330
F10438
100
AcDbEntity
8
Geo
100
AcDbLine
10
-60.9456575682382
20
10.7926422431969
30
0.000000000000000
11
-60.8456575682382
21
10.7414536392030
31
0.000000000000000
  0
LINE
  5
F10439
330
F1043A
100
AcDbEntity
8
Geo
100
AcDbLine
10
-60.8456575682382
20
10.7414536392030
30
0.000000000000000
11
-60.7456575682382
21
10.6897606800225
31
0.000000000000000
  0
LINE
  5
F1043B
330
F1043C
100
AcDbEntity
8
Geo
100
AcDbLine
10
-60.7456575682382
20
10.6897606800225
30
0.000000000000000
11
-60.6456575682382
21
10.6375825106052
31
0.000000000000000
  0
LINE
  5
F1043D
330
F1043E
100
AcDbEntity
8
Geo
100
AcDbLine
10
-60.6456575682382
20
10.6375825106052
30
0.000000000000000
11
-60.5456575682382
21
10.5849384556025
31
0.000000000000000
  0
LINE
  5
F1043F
330
F10440
100
AcDbEntity
8
Geo
100
AcDbLine
10
-60.5456575682382
20
10.5849384556025
30
0.000000000000000
11
-60.4456575682382
21
10.5318480122107
31
0.000000000000000
  0
LINE
  5
F10441
330
F10442
100
AcDbEntity
8
Geo
100
AcDbLine
10
-60.4456575682382
20
10.5318480122107
30
0.000000000000000
11
-60.3456575682382
21
10.4783308429502
31
0.000000000000000
  0
LINE
  5
F10443
330
F10444
100
AcDbEntity
8
Geo
100
AcDbLine
10
-60.3456575682382
20
10.4783308429502
30
0.000000000000000
11
-60.2456575682382
21
10.4244067683829
31
0.000000000000000
  0
LINE
  5
F10445
330
F10446
100
AcDbEntity
8
Geo
100
AcDbLine
10
-60.2456575682382
20
10.4244067683829
30
0.000000000000000
11
-60.1456575682382
21
10.3700957597721
31
0.000000000000000
  0
LINE
  5
F10447
330
F10448
100
AcDbEntity
8
Geo
100
AcDbLine
10
-60.1456575682382
20
10.3700957597721
30
0.000000000000000
11
-60.0456575682382
21
10.3154179316851
31
0.000000000000000
  0
LINE
  5
F10449
330
F1044A
100
AcDbEntity
8
Geo
100
AcDbLine
10
-60.0456575682382
20
10.3154179316851
30
0.000000000000000
11
-59.9456575682382
21
10.2603935345445
31
0.000000000000000
  0
LINE
  5
F1044B
330
F1044C
100
AcDbEntity
8
Geo
100
AcDbLine
10
-59.9456575682382
20
10.2603935345445
30
0.000000000000000
11
-59.8456575682382
21
10.2050429471275
31
0.000000000000000
  0
LINE
  5
F1044D
330
F1044E
100
AcDbEntity
8
Geo
100
AcDbLine
10
-59.8456575682382
20
10.2050429471275
30
0.000000000000000
11
-59.7456575682382
21
10.1493866690191
31
0.000000000000000
  0
LINE
  5
F1044F
330
F10450
100
AcDbEntity
8
Geo
100
AcDbLine
10
-59.7456575682382
20
10.1493866690191
30
0.000000000000000
11
-59.6456575682382
21
10.0934453130193
31
0.000000000000000
  0
LINE
  5
F10451
330
F10452
100
AcDbEntity
8
Geo
100
AcDbLine
10
-59.6456575682382
20
10.0934453130193
30
0.000000000000000
11
-59.5456575682382
21
10.0372395975095
31
0.000000000000000
  0
LINE
  5
F10453
330
F10454
100
AcDbEntity
8
Geo
100
AcDbLine
10
-59.5456575682382
20
10.0372395975095
30
0.000000000000000
11
-59.4456575682382
21
9.98079033877877
31
0.000000000000000
  0
LINE
  5
F10455
330
F10456
100
AcDbEntity
8
Geo
100
AcDbLine
10
-59.4456575682382
20
9.98079033877877
30
0.000000000000000
11
-59.3456575682382
21
9.92411844331473
31
0.000000000000000
  0
LINE
  5
F10457
330
F10458
100
AcDbEntity
8
Geo
100
AcDbLine
10
-59.3456575682382
20
9.92411844331473
30
0.000000000000000
11
-59.2456575682382
21
9.86724490006049
31
0.000000000000000
  0
LINE
  5
F10459
330
F1045A
100
AcDbEntity
8
Geo
100
AcDbLine
10
-59.2456575682382
20
9.86724490006049
30
0.000000000000000
11
-59.1456575682382
21
9.81019077264119
31
0.000000000000000
  0
LINE
  5
F1045B
330
F1045C
100
AcDbEntity
8
Geo
100
AcDbLine
10
-59.1456575682382
20
9.81019077264119
30
0.000000000000000
11
-59.0456575682382
21
9.75297719156296
31
0.000000000000000
  0
LINE
  5
F1045D
330
F1045E
100
AcDbEntity
8
Geo
100
AcDbLine
10
-59.0456575682382
20
9.75297719156296
30
0.000000000000000
11
-58.9456575682382
21
9.69562534638699
31
0.000000000000000
  0
LINE
  5
F1045F
330
F10460
100
AcDbEntity
8
Geo
100
AcDbLine
10
-58.9456575682382
20
9.69562534638699
30
0.000000000000000
11
-58.8456575682382
21
9.63815647788184
31
0.000000000000000
  0
LINE
  5
F10461
330
F10462
100
AcDbEntity
8
Geo
100
AcDbLine
10
-58.8456575682382
20
9.63815647788184
30
0.000000000000000
11
-58.7456575682382
21
9.58059187015668
31
0.000000000000000
  0
LINE
  5
F10463
330
F10464
100
AcDbEntity
8
Geo
100
AcDbLine
10
-58.7456575682382
20
9.58059187015668
30
0.000000000000000
11
-58.6456575682382
21
9.52295284277858
31
0.000000000000000
  0
LINE
  5
F10465
330
F10466
100
AcDbEntity
8
Geo
100
AcDbLine
10
-58.6456575682382
20
9.52295284277858
30
0.000000000000000
11
-58.5456575682382
21
9.46526074287659
31
0.000000000000000
  0
LINE
  5
F10467
330
F10468
100
AcDbEntity
8
Geo
100
AcDbLine
10
-58.5456575682382
20
9.46526074287659
30
0.000000000000000
11
-58.4456575682382
21
9.40753693723562
31
0.000000000000000
  0
LINE
  5
F10469
330
F1046A
100
AcDbEntity
8
Geo
100
AcDbLine
10
-58.4456575682382
20
9.40753693723562
30
0.000000000000000
11
-58.3456575682382
21
9.34980280438311
31
0.000000000000000
  0
LINE
  5
F1046B
330
F1046C
100
AcDbEntity
8
Geo
100
AcDbLine
10
-58.3456575682382
20
9.34980280438311
30
0.000000000000000
11
-58.2456575682382
21
9.29207972667126
31
0.000000000000000
  0
LINE
  5
F1046D
330
F1046E
100
AcDbEntity
8
Geo
100
AcDbLine
10
-58.2456575682382
20
9.29207972667126
30
0.000000000000000
11
-58.1456575682382
21
9.23438908235792
31
0.000000000000000
  0
LINE
  5
F1046F
330
F10470
100
AcDbEntity
8
Geo
100
AcDbLine
10
-58.1456575682382
20
9.23438908235792
30
0.000000000000000
11
-58.0456575682382
21
9.17675223768891
31
0.000000000000000
  0
LINE
  5
F10471
330
F10472
100
AcDbEntity
8
Geo
100
AcDbLine
10
-58.0456575682382
20
9.17675223768891
30
0.000000000000000
11
-57.9456575682382
21
9.11919053898491
31
0.000000000000000
  0
LINE
  5
F10473
330
F10474
100
AcDbEntity
8
Geo
100
AcDbLine
10
-57.9456575682382
20
9.11919053898491
30
0.000000000000000
11
-57.8456575682382
21
9.06172530473557
31
0.000000000000000
  0
LINE
  5
F10475
330
F10476
100
AcDbEntity
8
Geo
100
AcDbLine
10
-57.8456575682382
20
9.06172530473557
30
0.000000000000000
11
-57.7456575682382
21
9.00437781770412
31
0.000000000000000
  0
LINE
  5
F10477
330
F10478
100
AcDbEntity
8
Geo
100
AcDbLine
10
-57.7456575682382
20
9.00437781770412
30
0.000000000000000
11
-57.6456575682382
21
8.94716931704501
31
0.000000000000000
  0
LINE
  5
F10479
330
F1047A
100
AcDbEntity
8
Geo
100
AcDbLine
10
-57.6456575682382
20
8.94716931704501
30
0.000000000000000
11
-57.5456575682382
21
8.89012099043788
31
0.000000000000000
  0
LINE
  5
F1047B
330
F1047C
100
AcDbEntity
8
Geo
100
AcDbLine
10
-57.5456575682382
20
8.89012099043788
30
0.000000000000000
11
-57.4456575682382
21
8.83325396624046
31
0.000000000000000
  0
LINE
  5
F1047D
330
F1047E
100
AcDbEntity
8
Geo
100
AcDbLine
10
-57.4456575682382
20
8.83325396624046
30
0.000000000000000
11
-57.3456575682382
21
8.77658930566350
31
0.000000000000000
  0
LINE
  5
F1047F
330
F10480
100
AcDbEntity
8
Geo
100
AcDbLine
10
-57.3456575682382
20
8.77658930566350
30
0.000000000000000
11
-57.2456575682382
21
8.72014799497061
31
0.000000000000000
  0
LINE
  5
F10481
330
F10482
100
AcDbEntity
8
Geo
100
AcDbLine
10
-57.2456575682382
20
8.72014799497061
30
0.000000000000000
11
-57.1456575682382
21
8.66395093770574
31
0.000000000000000
  0
LINE
  5
F10483
330
F10484
100
AcDbEntity
8
Geo
100
AcDbLine
10
-57.1456575682382
20
8.66395093770574
30
0.000000000000000
11
-57.0456575682382
21
8.60801894695141
31
0.000000000000000
  0
LINE
  5
F10485
330
F10486
100
AcDbEntity
8
Geo
100
AcDbLine
10
-57.0456575682382
20
8.60801894695141
30
0.000000000000000
11
-56.9456575682382
21
8.55237273762039
31
0.000000000000000
  0
LINE
  5
F10487
330
F10488
100
AcDbEntity
8
Geo
100
AcDbLine
10
-56.9456575682382
20
8.55237273762039
30
0.000000000000000
11
-56.8456575682382
21
8.49703291878376
31
0.000000000000000
  0
LINE
  5
F10489
330
F1048A
100
AcDbEntity
8
Geo
100
AcDbLine
10
-56.8456575682382
20
8.49703291878376
30
0.000000000000000
11
-56.7456575682382
21
8.44201998603811
31
0.000000000000000
  0
LINE
  5
F1048B
330
F1048C
100
AcDbEntity
8
Geo
100
AcDbLine
10
-56.7456575682382
20
8.44201998603811
30
0.000000000000000
11
-56.6456575682382
21
8.38735431391487
31
0.000000000000000
  0
LINE
  5
F1048D
330
F1048E
100
AcDbEntity
8
Geo
100
AcDbLine
10
-56.6456575682382
20
8.38735431391487
30
0.000000000000000
11
-56.5456575682382
21
8.33305614833438
31
0.000000000000000
  0
LINE
  5
F1048F
330
F10490
100
AcDbEntity
8
Geo
100
AcDbLine
10
-56.5456575682382
20
8.33305614833438
30
0.000000000000000
11
-56.4456575682382
21
8.27914559910765
31
0.000000000000000
  0
LINE
  5
F10491
330
F10492
100
AcDbEntity
8
Geo
100
AcDbLine
10
-56.4456575682382
20
8.27914559910765
30
0.000000000000000
11
-56.3456575682382
21
8.22564263248852
31
0.000000000000000
  0
LINE
  5
F10493
330
F10494
100
AcDbEntity
8
Geo
100
AcDbLine
10
-56.3456575682382
20
8.22564263248852
30
0.000000000000000
11
-56.2456575682382
21
8.17256706377896
31
0.000000000000000
  0
LINE
  5
F10495
330
F10496
100
AcDbEntity
8
Geo
100
AcDbLine
10
-56.2456575682382
20
8.17256706377896
30
0.000000000000000
11
-56.1456575682382
21
8.11993854999028
31
0.000000000000000
  0
LINE
  5
F10497
330
F10498
100
AcDbEntity
8
Geo
100
AcDbLine
10
-56.1456575682382
20
8.11993854999028
30
0.000000000000000
11
-56.0456575682382
21
8.06777658256305
31
0.000000000000000
  0
LINE
  5
F10499
330
F1049A
100
AcDbEntity
8
Geo
100
AcDbLine
10
-56.0456575682382
20
8.06777658256305
30
0.000000000000000
11
-55.9456575682382
21
8.01610048014818
31
0.000000000000000
  0
LINE
  5
F1049B
330
F1049C
100
AcDbEntity
8
Geo
100
AcDbLine
10
-55.9456575682382
20
8.01610048014818
30
0.000000000000000
11
-55.8456575682382
21
7.96492938145216
31
0.000000000000000
  0
LINE
  5
F1049D
330
F1049E
100
AcDbEntity
8
Geo
100
AcDbLine
10
-55.8456575682382
20
7.96492938145216
30
0.000000000000000
11
-55.7456575682382
21
7.91428223814883
31
0.000000000000000
  0
LINE
  5
F1049F
330
F104A0
100
AcDbEntity
8
Geo
100
AcDbLine
10
-55.7456575682382
20
7.91428223814883
30
0.000000000000000
11
-55.6456575682382
21
7.86417780786045
31
0.000000000000000
  0
LINE
  5
F104A1
330
F104A2
100
AcDbEntity
8
Geo
100
AcDbLine
10
-55.6456575682382
20
7.86417780786045
30
0.000000000000000
11
-55.5456575682382
21
7.81463464721069
31
0.000000000000000
  0
LINE
  5
F104A3
330
F104A4
100
AcDbEntity
8
Geo
100
AcDbLine
10
-55.5456575682382
20
7.81463464721069
30
0.000000000000000
11
-55.4456575682382
21
7.76567110495198
31
0.000000000000000
  0
LINE
  5
F104A5
330
F104A6
100
AcDbEntity
8
Geo
100
AcDbLine
10
-55.4456575682382
20
7.76567110495198
30
0.000000000000000
11
-55.3456575682382
21
7.71730531516988
31
0.000000000000000
  0
LINE
  5
F104A7
330
F104A8
100
AcDbEntity
8
Geo
100
AcDbLine
10
-55.3456575682382
20
7.71730531516988
30
0.000000000000000
11
-55.2456575682382
21
7.66955519056702
31
0.000000000000000
  0
LINE
  5
F104A9
330
F104AA
100
AcDbEntity
8
Geo
100
AcDbLine
10
-55.2456575682382
20
7.66955519056702
30
0.000000000000000
11
-55.1456575682382
21
7.62243841582887
31
0.000000000000000
  0
LINE
  5
F104AB
330
F104AC
100
AcDbEntity
8
Geo
100
AcDbLine
10
-55.1456575682382
20
7.62243841582887
30
0.000000000000000
11
-55.0456575682382
21
7.57597244107417
31
0.000000000000000
  0
LINE
  5
F104AD
330
F104AE
100
AcDbEntity
8
Geo
100
AcDbLine
10
-55.0456575682382
20
7.57597244107417
30
0.000000000000000
11
-54.9456575682382
21
7.53017447539204
31
0.000000000000000
  0
LINE
  5
F104AF
330
F104B0
100
AcDbEntity
8
Geo
100
AcDbLine
10
-54.9456575682382
20
7.53017447539204
30
0.000000000000000
11
-54.8456575682382
21
7.48506148046847
31
0.000000000000000
  0
LINE
  5
F104B1
330
F104B2
100
AcDbEntity
8
Geo
100
AcDbLine
10
-54.8456575682382
20
7.48506148046847
30
0.000000000000000
11
-54.7456575682382
21
7.44065016430441
31
0.000000000000000
  0
LINE
  5
F104B3
330
F104B4
100
AcDbEntity
8
Geo
100
AcDbLine
10
-54.7456575682382
20
7.44065016430441
30
0.000000000000000
11
-54.6456575682382
21
7.39695697502780
31
0.000000000000000
  0
LINE
  5
F104B5
330
F104B6
100
AcDbEntity
8
Geo
100
AcDbLine
10
-54.6456575682382
20
7.39695697502780
30
0.000000000000000
11
-54.5456575682382
21
7.35399809480189
31
0.000000000000000
  0
LINE
  5
F104B7
330
F104B8
100
AcDbEntity
8
Geo
100
AcDbLine
10
-54.5456575682382
20
7.35399809480189
30
0.000000000000000
11
-54.4456575682382
21
7.31178943383200
31
0.000000000000000
  0
LINE
  5
F104B9
330
F104BA
100
AcDbEntity
8
Geo
100
AcDbLine
10
-54.4456575682382
20
7.31178943383200
30
0.000000000000000
11
-54.3456575682382
21
7.27034662447302
31
0.000000000000000
  0
LINE
  5
F104BB
330
F104BC
100
AcDbEntity
8
Geo
100
AcDbLine
10
-54.3456575682382
20
7.27034662447302
30
0.000000000000000
11
-54.2456575682382
21
7.22968501543987
31
0.000000000000000
  0
LINE
  5
F104BD
330
F104BE
100
AcDbEntity
8
Geo
100
AcDbLine
10
-54.2456575682382
20
7.22968501543987
30
0.000000000000000
11
-54.1456575682382
21
7.18981966612295
31
0.000000000000000
  0
LINE
  5
F104BF
330
F104C0
100
AcDbEntity
8
Geo
100
AcDbLine
10
-54.1456575682382
20
7.18981966612295
30
0.000000000000000
11
-54.0456575682382
21
7.15076534101075
31
0.000000000000000
  0
LINE
  5
F104C1
330
F104C2
100
AcDbEntity
8
Geo
100
AcDbLine
10
-54.0456575682382
20
7.15076534101075
30
0.000000000000000
11
-53.9456575682382
21
7.11253650422169
31
0.000000000000000
  0
LINE
  5
F104C3
330
F104C4
100
AcDbEntity
8
Geo
100
AcDbLine
10
-53.9456575682382
20
7.11253650422169
30
0.000000000000000
11
-53.8456575682382
21
7.07514731414721
31
0.000000000000000
  0
LINE
  5
F104C5
330
F104C6
100
AcDbEntity
8
Geo
100
AcDbLine
10
-53.8456575682382
20
7.07514731414721
30
0.000000000000000
11
-53.7456575682382
21
7.03861161820810
31
0.000000000000000
  0
LINE
  5
F104C7
330
F104C8
100
AcDbEntity
8
Geo
100
AcDbLine
10
-53.7456575682382
20
7.03861161820810
30
0.000000000000000
11
-53.6456575682382
21
7.00294294772595
31
0.000000000000000
  0
LINE
  5
F104C9
330
F104CA
100
AcDbEntity
8
Geo
100
AcDbLine
10
-53.6456575682382
20
7.00294294772595
30
0.000000000000000
11
-53.5456575682382
21
6.96815451291173
31
0.000000000000000
  0
LINE
  5
F104CB
330
F104CC
100
AcDbEntity
8
Geo
100
AcDbLine
10
-53.5456575682382
20
6.96815451291173
30
0.000000000000000
11
-53.4456575682382
21
6.93425919797325
31
0.000000000000000
  0
LINE
  5
F104CD
330
F104CE
100
AcDbEntity
8
Geo
100
AcDbLine
10
-53.4456575682382
20
6.93425919797325
30
0.000000000000000
11
-53.3456575682382
21
6.90126955634341
31
0.000000000000000
  0
LINE
  5
F104CF
330
F104D0
100
AcDbEntity
8
Geo
100
AcDbLine
10
-53.3456575682382
20
6.90126955634341
30
0.000000000000000
11
-53.2456575682382
21
6.86919780603088
31
0.000000000000000
  0
LINE
  5
F104D1
330
F104D2
100
AcDbEntity
8
Geo
100
AcDbLine
10
-53.2456575682382
20
6.86919780603088
30
0.000000000000000
11
-53.1456575682382
21
6.83805582509510
31
0.000000000000000
  0
LINE
  5
F104D3
330
F104D4
100
AcDbEntity
8
Geo
100
AcDbLine
10
-53.1456575682382
20
6.83805582509510
30
0.000000000000000
11
-53.0456575682382
21
6.80785514724709
31
0.000000000000000
  0
LINE
  5
F104D5
330
F104D6
100
AcDbEntity
8
Geo
100
AcDbLine
10
-53.0456575682382
20
6.80785514724709
30
0.000000000000000
11
-52.9456575682382
21
6.77860695757787
31
0.000000000000000
  0
LINE
  5
F104D7
330
F104D8
100
AcDbEntity
8
Geo
100
AcDbLine
10
-52.9456575682382
20
6.77860695757787
30
0.000000000000000
11
-52.8456575682382
21
6.75032208841594
31
0.000000000000000
  0
LINE
  5
F104D9
330
F104DA
100
AcDbEntity
8
Geo
100
AcDbLine
10
-52.8456575682382
20
6.75032208841594
30
0.000000000000000
11
-52.7456575682382
21
6.72301101531544
31
0.000000000000000
  0
LINE
  5
F104DB
330
F104DC
100
AcDbEntity
8
Geo
100
AcDbLine
10
-52.7456575682382
20
6.72301101531544
30
0.000000000000000
11
-52.6456575682382
21
6.69668385317644
31
0.000000000000000
  0
LINE
  5
F104DD
330
F104DE
100
AcDbEntity
8
Geo
100
AcDbLine
10
-52.6456575682382
20
6.69668385317644
30
0.000000000000000
11
-52.5456575682382
21
6.67135035249878
31
0.000000000000000
  0
LINE
  5
F104DF
330
F104E0
100
AcDbEntity
8
Geo
100
AcDbLine
10
-52.5456575682382
20
6.67135035249878
30
0.000000000000000
11
-52.4456575682382
21
6.64701989577091
31
0.000000000000000
  0
LINE
  5
F104E1
330
F104E2
100
AcDbEntity
8
Geo
100
AcDbLine
10
-52.4456575682382
20
6.64701989577091
30
0.000000000000000
11
-52.3456575682382
21
6.62370149399497
31
0.000000000000000
  0
LINE
  5
F104E3
330
F104E4
100
AcDbEntity
8
Geo
100
AcDbLine
10
-52.3456575682382
20
6.62370149399497
30
0.000000000000000
11
-52.2456575682382
21
6.60140378334951
31
0.000000000000000
  0
LINE
  5
F104E5
330
F104E6
100
AcDbEntity
8
Geo
100
AcDbLine
10
-52.2456575682382
20
6.60140378334951
30
0.000000000000000
11
-52.1456575682382
21
6.58013502199099
31
0.000000000000000
  0
LINE
  5
F104E7
330
F104E8
100
AcDbEntity
8
Geo
100
AcDbLine
10
-52.1456575682382
20
6.58013502199099
30
0.000000000000000
11
-52.0456575682382
21
6.55990308699532
31
0.000000000000000
  0
LINE
  5
F104E9
330
F104EA
100
AcDbEntity
8
Geo
100
AcDbLine
10
-52.0456575682382
20
6.55990308699532
30
0.000000000000000
11
-51.9456575682382
21
6.54071547144046
31
0.000000000000000
  0
LINE
  5
F104EB
330
F104EC
100
AcDbEntity
8
Geo
100
AcDbLine
10
-51.9456575682382
20
6.54071547144046
30
0.000000000000000
11
-51.8456575682382
21
6.52257928163139
31
0.000000000000000
  0
LINE
  5
F104ED
330
F104EE
100
AcDbEntity
8
Geo
100
AcDbLine
10
-51.8456575682382
20
6.52257928163139
30
0.000000000000000
11
-51.7456575682382
21
6.50550123446810
31
0.000000000000000
  0
LINE
  5
F104EF
330
F104F0
100
AcDbEntity
8
Geo
100
AcDbLine
10
-51.7456575682382
20
6.50550123446810
30
0.000000000000000
11
-51.6456575682382
21
6.48948765495804
31
0.000000000000000
  0
LINE
  5
F104F1
330
F104F2
100
AcDbEntity
8
Geo
100
AcDbLine
10
-51.6456575682382
20
6.48948765495804
30
0.000000000000000
11
-51.5456575682382
21
6.47454447387353
31
0.000000000000000
  0
LINE
  5
F104F3
330
F104F4
100
AcDbEntity
8
Geo
100
AcDbLine
10
-51.5456575682382
20
6.47454447387353
30
0.000000000000000
11
-51.4456575682382
21
6.46067722555527
31
0.000000000000000
  0
LINE
  5
F104F5
330
F104F6
100
AcDbEntity
8
Geo
100
AcDbLine
10
-51.4456575682382
20
6.46067722555527
30
0.000000000000000
11
-51.3456575682382
21
6.44789104586262
31
0.000000000000000
  0
LINE
  5
F104F7
330
F104F8
100
AcDbEntity
8
Geo
100
AcDbLine
10
-51.3456575682382
20
6.44789104586262
30
0.000000000000000
11
-51.2456575682382
21
6.43619067027155
31
0.000000000000000
  0
LINE
  5
F104F9
330
F104FA
100
AcDbEntity
8
Geo
100
AcDbLine
10
-51.2456575682382
20
6.43619067027155
30
0.000000000000000
11
-51.1456575682382
21
6.42558043212075
31
0.000000000000000
  0
LINE
  5
F104FB
330
F104FC
100
AcDbEntity
8
Geo
100
AcDbLine
10
-51.1456575682382
20
6.42558043212075
30
0.000000000000000
11
-51.0456575682382
21
6.41606426100676
31
0.000000000000000
  0
LINE
  5
F104FD
330
F104FE
100
AcDbEntity
8
Geo
100
AcDbLine
10
-51.0456575682382
20
6.41606426100676
30
0.000000000000000
11
-50.9456575682382
21
6.40764568132862
31
0.000000000000000
  0
LINE
  5
F104FF
330
F10500
100
AcDbEntity
8
Geo
100
AcDbLine
10
-50.9456575682382
20
6.40764568132862
30
0.000000000000000
11
-50.8456575682383
21
6.40032781098258
31
0.000000000000000
  0
LINE
  5
F10501
330
F10502
100
AcDbEntity
8
Geo
100
AcDbLine
10
-50.8456575682383
20
6.40032781098258
30
0.000000000000000
11
-50.7456575682383
21
6.39411336020733
31
0.000000000000000
  0
LINE
  5
F10503
330
F10504
100
AcDbEntity
8
Geo
100
AcDbLine
10
-50.7456575682383
20
6.39411336020733
30
0.000000000000000
11
-50.6456575682382
21
6.38900463058027
31
0.000000000000000
  0
LINE
  5
F10505
330
F10506
100
AcDbEntity
8
Geo
100
AcDbLine
10
-50.6456575682382
20
6.38900463058027
30
0.000000000000000
11
-50.5456575682382
21
6.38500351416509
31
0.000000000000000
  0
LINE
  5
F10507
330
F10508
100
AcDbEntity
8
Geo
100
AcDbLine
10
-50.5456575682382
20
6.38500351416509
30
0.000000000000000
11
-50.4456575682382
21
6.38211149281102
31
0.000000000000000
  0
LINE
  5
F10509
330
F1050A
100
AcDbEntity
8
Geo
100
AcDbLine
10
-50.4456575682382
20
6.38211149281102
30
0.000000000000000
11
-50.3456575682383
21
6.38032963760402
31
0.000000000000000
  0
LINE
  5
F1050B
330
F1050C
100
AcDbEntity
8
Geo
100
AcDbLine
10
-50.3456575682383
20
6.38032963760402
30
0.000000000000000
11
-50.2456575682383
21
6.37965860847009
31
0.000000000000000
  0
LINE
  5
F1050D
330
F1050E
100
AcDbEntity
8
Geo
100
AcDbLine
10
-33.9456575682380
20
12.3795861383600
30
0.000000000000000
11
-33.8456575682380
21
12.3794149100532
31
0.000000000000000
  0
LINE
  5
F1050F
330
F10510
100
AcDbEntity
8
Geo
100
AcDbLine
10
-33.8456575682380
20
12.3794149100532
30
0.000000000000000
11
-33.7456575682380
21
12.3781326929611
31
0.000000000000000
  0
LINE
  5
F10511
330
F10512
100
AcDbEntity
8
Geo
100
AcDbLine
10
-33.7456575682380
20
12.3781326929611
30
0.000000000000000
11
-33.6456575682380
21
12.3757399619642
31
0.000000000000000
  0
LINE
  5
F10513
330
F10514
100
AcDbEntity
8
Geo
100
AcDbLine
10
-33.6456575682380
20
12.3757399619642
30
0.000000000000000
11
-33.5456575682380
21
12.3722376032318
31
0.000000000000000
  0
LINE
  5
F10515
330
F10516
100
AcDbEntity
8
Geo
100
AcDbLine
10
-33.5456575682380
20
12.3722376032318
30
0.000000000000000
11
-33.4456575682380
21
12.3676269138938
31
0.000000000000000
  0
LINE
  5
F10517
330
F10518
100
AcDbEntity
8
Geo
100
AcDbLine
10
-33.4456575682380
20
12.3676269138938
30
0.000000000000000
11
-33.3456575682380
21
12.3619096015602
31
0.000000000000000
  0
LINE
  5
F10519
330
F1051A
100
AcDbEntity
8
Geo
100
AcDbLine
10
-33.3456575682380
20
12.3619096015602
30
0.000000000000000
11
-33.2456575682380
21
12.3550877836887
31
0.000000000000000
  0
LINE
  5
F1051B
330
F1051C
100
AcDbEntity
8
Geo
100
AcDbLine
10
-33.2456575682380
20
12.3550877836887
30
0.000000000000000
11
-33.1456575682380
21
12.3471639868006
31
0.000000000000000
  0
LINE
  5
F1051D
330
F1051E
100
AcDbEntity
8
Geo
100
AcDbLine
10
-33.1456575682380
20
12.3471639868006
30
0.000000000000000
11
-33.0456575682380
21
12.3381411455448
31
0.000000000000000
  0
LINE
  5
F1051F
330
F10520
100
AcDbEntity
8
Geo
100
AcDbLine
10
-33.0456575682380
20
12.3381411455448
30
0.000000000000000
11
-32.9456575682380
21
12.3280226016113
31
0.000000000000000
  0
LINE
  5
F10521
330
F10522
100
AcDbEntity
8
Geo
100
AcDbLine
10
-32.9456575682380
20
12.3280226016113
30
0.000000000000000
11
-32.8456575682380
21
12.3168121024933
31
0.000000000000000
  0
LINE
  5
F10523
330
F10524
100
AcDbEntity
8
Geo
100
AcDbLine
10
-32.8456575682380
20
12.3168121024933
30
0.000000000000000
11
-32.7456575682380
21
12.3045138000993
31
0.000000000000000
  0
LINE
  5
F10525
330
F10526
100
AcDbEntity
8
Geo
100
AcDbLine
10
-32.7456575682380
20
12.3045138000993
30
0.000000000000000
11
-32.6456575682380
21
12.2911322492156
31
0.000000000000000
  0
LINE
  5
F10527
330
F10528
100
AcDbEntity
8
Geo
100
AcDbLine
10
-32.6456575682380
20
12.2911322492156
30
0.000000000000000
11
-32.5456575682380
21
12.2766724058192
31
0.000000000000000
  0
LINE
  5
F10529
330
F1052A
100
AcDbEntity
8
Geo
100
AcDbLine
10
-32.5456575682380
20
12.2766724058192
30
0.000000000000000
11
-32.4456575682380
21
12.2611396252423
31
0.000000000000000
  0
LINE
  5
F1052B
330
F1052C
100
AcDbEntity
8
Geo
100
AcDbLine
10
-32.4456575682380
20
12.2611396252423
30
0.000000000000000
11
-32.3456575682380
21
12.2445396601890
31
0.000000000000000
  0
LINE
  5
F1052D
330
F1052E
100
AcDbEntity
8
Geo
100
AcDbLine
10
-32.3456575682380
20
12.2445396601890
30
0.000000000000000
11
-32.2456575682380
21
12.2268786586049
31
0.000000000000000
  0
LINE
  5
F1052F
330
F10530
100
AcDbEntity
8
Geo
100
AcDbLine
10
-32.2456575682380
20
12.2268786586049
30
0.000000000000000
11
-32.1456575682380
21
12.2081631613997
31
0.000000000000000
  0
LINE
  5
F10531
330
F10532
100
AcDbEntity
8
Geo
100
AcDbLine
10
-32.1456575682380
20
12.2081631613997
30
0.000000000000000
11
-32.0456575682380
21
12.1884001000251
31
0.000000000000000
  0
LINE
  5
F10533
330
F10534
100
AcDbEntity
8
Geo
100
AcDbLine
10
-32.0456575682380
20
12.1884001000251
30
0.000000000000000
11
-31.9456575682380
21
12.1675967939077
31
0.000000000000000
  0
LINE
  5
F10535
330
F10536
100
AcDbEntity
8
Geo
100
AcDbLine
10
-31.9456575682380
20
12.1675967939077
30
0.000000000000000
11
-31.8456575682380
21
12.1457609477376
31
0.000000000000000
  0
LINE
  5
F10537
330
F10538
100
AcDbEntity
8
Geo
100
AcDbLine
10
-31.8456575682380
20
12.1457609477376
30
0.000000000000000
11
-31.7456575682380
21
12.1229006486159
31
0.000000000000000
  0
LINE
  5
F10539
330
F1053A
100
AcDbEntity
8
Geo
100
AcDbLine
10
-31.7456575682380
20
12.1229006486159
30
0.000000000000000
11
-31.6456575682380
21
12.0990243630586
31
0.000000000000000
  0
LINE
  5
F1053B
330
F1053C
100
AcDbEntity
8
Geo
100
AcDbLine
10
-31.6456575682380
20
12.0990243630586
30
0.000000000000000
11
-31.5456575682380
21
12.0741409338615
31
0.000000000000000
  0
LINE
  5
F1053D
330
F1053E
100
AcDbEntity
8
Geo
100
AcDbLine
10
-31.5456575682380
20
12.0741409338615
30
0.000000000000000
11
-31.4456575682380
21
12.0482595768251
31
0.000000000000000
  0
LINE
  5
F1053F
330
F10540
100
AcDbEntity
8
Geo
100
AcDbLine
10
-31.4456575682380
20
12.0482595768251
30
0.000000000000000
11
-31.3456575682380
21
12.0213898773413
31
0.000000000000000
  0
LINE
  5
F10541
330
F10542
100
AcDbEntity
8
Geo
100
AcDbLine
10
-31.3456575682380
20
12.0213898773413
30
0.000000000000000
11
-31.2456575682380
21
11.9935417868434
31
0.000000000000000
  0
LINE
  5
F10543
330
F10544
100
AcDbEntity
8
Geo
100
AcDbLine
10
-31.2456575682380
20
11.9935417868434
30
0.000000000000000
11
-31.1456575682380
21
11.9647256191209
31
0.000000000000000
  0
LINE
  5
F10545
330
F10546
100
AcDbEntity
8
Geo
100
AcDbLine
10
-31.1456575682380
20
11.9647256191209
30
0.000000000000000
11
-31.0456575682380
21
11.9349520464989
31
0.000000000000000
  0
LINE
  5
F10547
330
F10548
100
AcDbEntity
8
Geo
100
AcDbLine
10
-31.0456575682380
20
11.9349520464989
30
0.000000000000000
11
-30.9456575682380
21
11.9042320958863
31
0.000000000000000
  0
LINE
  5
F10549
330
F1054A
100
AcDbEntity
8
Geo
100
AcDbLine
10
-30.9456575682380
20
11.9042320958863
30
0.000000000000000
11
-30.8456575682380
21
11.8725771446913
31
0.000000000000000
  0
LINE
  5
F1054B
330
F1054C
100
AcDbEntity
8
Geo
100
AcDbLine
10
-30.8456575682380
20
11.8725771446913
30
0.000000000000000
11
-30.7456575682380
21
11.8399989166082
31
0.000000000000000
  0
LINE
  5
F1054D
330
F1054E
100
AcDbEntity
8
Geo
100
AcDbLine
10
-30.7456575682380
20
11.8399989166082
30
0.000000000000000
11
-30.6456575682380
21
11.8065094772749
31
0.000000000000000
  0
LINE
  5
F1054F
330
F10550
100
AcDbEntity
8
Geo
100
AcDbLine
10
-30.6456575682380
20
11.8065094772749
30
0.000000000000000
11
-30.5456575682380
21
11.7721212298047
31
0.000000000000000
  0
LINE
  5
F10551
330
F10552
100
AcDbEntity
8
Geo
100
AcDbLine
10
-30.5456575682380
20
11.7721212298047
30
0.000000000000000
11
-30.4456575682380
21
11.7368469101923
31
0.000000000000000
  0
LINE
  5
F10553
330
F10554
100
AcDbEntity
8
Geo
100
AcDbLine
10
-30.4456575682380
20
11.7368469101923
30
0.000000000000000
11
-30.3456575682380
21
11.7006995825975
31
0.000000000000000
  0
LINE
  5
F10555
330
F10556
100
AcDbEntity
8
Geo
100
AcDbLine
10
-30.3456575682380
20
11.7006995825975
30
0.000000000000000
11
-30.2456575682380
21
11.6636926345061
31
0.000000000000000
  0
LINE
  5
F10557
330
F10558
100
AcDbEntity
8
Geo
100
AcDbLine
10
-30.2456575682380
20
11.6636926345061
30
0.000000000000000
11
-30.1456575682380
21
11.6258397717722
31
0.000000000000000
  0
LINE
  5
F10559
330
F1055A
100
AcDbEntity
8
Geo
100
AcDbLine
10
-30.1456575682380
20
11.6258397717722
30
0.000000000000000
11
-30.0456575682380
21
11.5871550135418
31
0.000000000000000
  0
LINE
  5
F1055B
330
F1055C
100
AcDbEntity
8
Geo
100
AcDbLine
10
-30.0456575682380
20
11.5871550135418
30
0.000000000000000
11
-29.9456575682380
21
11.5476526870610
31
0.000000000000000
  0
LINE
  5
F1055D
330
F1055E
100
AcDbEntity
8
Geo
100
AcDbLine
10
-29.9456575682380
20
11.5476526870610
30
0.000000000000000
11
-29.8456575682380
21
11.5073474223695
31
0.000000000000000
  0
LINE
  5
F1055F
330
F10560
100
AcDbEntity
8
Geo
100
AcDbLine
10
-29.8456575682380
20
11.5073474223695
30
0.000000000000000
11
-29.7456575682380
21
11.4662541468824
31
0.000000000000000
  0
LINE
  5
F10561
330
F10562
100
AcDbEntity
8
Geo
100
AcDbLine
10
-29.7456575682380
20
11.4662541468824
30
0.000000000000000
11
-29.6456575682380
21
11.4243880798617
31
0.000000000000000
  0
LINE
  5
F10563
330
F10564
100
AcDbEntity
8
Geo
100
AcDbLine
10
-29.6456575682380
20
11.4243880798617
30
0.000000000000000
11
-29.5456575682380
21
11.3817647267794
31
0.000000000000000
  0
LINE
  5
F10565
330
F10566
100
AcDbEntity
8
Geo
100
AcDbLine
10
-29.5456575682380
20
11.3817647267794
30
0.000000000000000
11
-29.4456575682380
21
11.3383998735754
31
0.000000000000000
  0
LINE
  5
F10567
330
F10568
100
AcDbEntity
8
Geo
100
AcDbLine
10
-29.4456575682380
20
11.3383998735754
30
0.000000000000000
11
-29.3456575682380
21
11.2943095808109
31
0.000000000000000
  0
LINE
  5
F10569
330
F1056A
100
AcDbEntity
8
Geo
100
AcDbLine
10
-29.3456575682380
20
11.2943095808109
30
0.000000000000000
11
-29.2456575682380
21
11.2495101777197
31
0.000000000000000
  0
LINE
  5
F1056B
330
F1056C
100
AcDbEntity
8
Geo
100
AcDbLine
10
-29.2456575682380
20
11.2495101777197
30
0.000000000000000
11
-29.1456575682380
21
11.2040182561615
31
0.000000000000000
  0
LINE
  5
F1056D
330
F1056E
100
AcDbEntity
8
Geo
100
AcDbLine
10
-29.1456575682380
20
11.2040182561615
30
0.000000000000000
11
-29.0456575682380
21
11.1578506644758
31
0.000000000000000
  0
LINE
  5
F1056F
330
F10570
100
AcDbEntity
8
Geo
100
AcDbLine
10
-29.0456575682380
20
11.1578506644758
30
0.000000000000000
11
-28.9456575682380
21
11.1110245012431
31
0.000000000000000
  0
LINE
  5
F10571
330
F10572
100
AcDbEntity
8
Geo
100
AcDbLine
10
-28.9456575682380
20
11.1110245012431
30
0.000000000000000
11
-28.8456575682380
21
11.0635571089516
31
0.000000000000000
  0
LINE
  5
F10573
330
F10574
100
AcDbEntity
8
Geo
100
AcDbLine
10
-28.8456575682380
20
11.0635571089516
30
0.000000000000000
11
-28.7456575682380
21
11.0154660675741
31
0.000000000000000
  0
LINE
  5
F10575
330
F10576
100
AcDbEntity
8
Geo
100
AcDbLine
10
-28.7456575682380
20
11.0154660675741
30
0.000000000000000
11
-28.6456575682380
21
10.9667691880579
31
0.000000000000000
  0
LINE
  5
F10577
330
F10578
100
AcDbEntity
8
Geo
100
AcDbLine
10
-28.6456575682380
20
10.9667691880579
30
0.000000000000000
11
-28.5456575682380
21
10.9174845057276
31
0.000000000000000
  0
LINE
  5
F10579
330
F1057A
100
AcDbEntity
8
Geo
100
AcDbLine
10
-28.5456575682380
20
10.9174845057276
30
0.000000000000000
11
-28.4456575682380
21
10.8676302736059
31
0.000000000000000
  0
LINE
  5
F1057B
330
F1057C
100
AcDbEntity
8
Geo
100
AcDbLine
10
-28.4456575682380
20
10.8676302736059
30
0.000000000000000
11
-28.3456575682380
21
10.8172249556532
31
0.000000000000000
  0
LINE
  5
F1057D
330
F1057E
100
AcDbEntity
8
Geo
100
AcDbLine
10
-28.3456575682380
20
10.8172249556532
30
0.000000000000000
11
-28.2456575682380
21
10.7662872199297
31
0.000000000000000
  0
LINE
  5
F1057F
330
F10580
100
AcDbEntity
8
Geo
100
AcDbLine
10
-28.2456575682380
20
10.7662872199297
30
0.000000000000000
11
-28.1456575682380
21
10.7148359316811
31
0.000000000000000
  0
LINE
  5
F10581
330
F10582
100
AcDbEntity
8
Geo
100
AcDbLine
10
-28.1456575682380
20
10.7148359316811
30
0.000000000000000
11
-28.0456575682380
21
10.6628901463521
31
0.000000000000000
  0
LINE
  5
F10583
330
F10584
100
AcDbEntity
8
Geo
100
AcDbLine
10
-28.0456575682380
20
10.6628901463521
30
0.000000000000000
11
-27.9456575682380
21
10.6104691025285
31
0.000000000000000
  0
LINE
  5
F10585
330
F10586
100
AcDbEntity
8
Geo
100
AcDbLine
10
-27.9456575682380
20
10.6104691025285
30
0.000000000000000
11
-27.8456575682380
21
10.5575922148125
31
0.000000000000000
  0
LINE
  5
F10587
330
F10588
100
AcDbEntity
8
Geo
100
AcDbLine
10
-27.8456575682380
20
10.5575922148125
30
0.000000000000000
11
-27.7456575682380
21
10.5042790666322
31
0.000000000000000
  0
LINE
  5
F10589
330
F1058A
100
AcDbEntity
8
Geo
100
AcDbLine
10
-27.7456575682380
20
10.5042790666322
30
0.000000000000000
11
-27.6456575682380
21
10.4505494029886
31
0.000000000000000
  0
LINE
  5
F1058B
330
F1058C
100
AcDbEntity
8
Geo
100
AcDbLine
10
-27.6456575682380
20
10.4505494029886
30
0.000000000000000
11
-27.5456575682380
21
10.3964231231430
31
0.000000000000000
  0
LINE
  5
F1058D
330
F1058E
100
AcDbEntity
8
Geo
100
AcDbLine
10
-27.5456575682380
20
10.3964231231430
30
0.000000000000000
11
-27.4456575682380
21
10.3419202732469
31
0.000000000000000
  0
LINE
  5
F1058F
330
F10590
100
AcDbEntity
8
Geo
100
AcDbLine
10
-27.4456575682380
20
10.3419202732469
30
0.000000000000000
11
-27.3456575682380
21
10.2870610389180
31
0.000000000000000
  0
LINE
  5
F10591
330
F10592
100
AcDbEntity
8
Geo
100
AcDbLine
10
-27.3456575682380
20
10.2870610389180
30
0.000000000000000
11
-27.2456575682380
21
10.2318657377641
31
0.000000000000000
  0
LINE
  5
F10593
330
F10594
100
AcDbEntity
8
Geo
100
AcDbLine
10
-27.2456575682380
20
10.2318657377641
30
0.000000000000000
11
-27.1456575682380
21
10.1763548118585
31
0.000000000000000
  0
LINE
  5
F10595
330
F10596
100
AcDbEntity
8
Geo
100
AcDbLine
10
-27.1456575682380
20
10.1763548118585
30
0.000000000000000
11
-27.0456575682379
21
10.1205488201688
31
0.000000000000000
  0
LINE
  5
F10597
330
F10598
100
AcDbEntity
8
Geo
100
AcDbLine
10
-27.0456575682379
20
10.1205488201688
30
0.000000000000000
11
-26.9456575682379
21
10.0644684309428
31
0.000000000000000
  0
LINE
  5
F10599
330
F1059A
100
AcDbEntity
8
Geo
100
AcDbLine
10
-26.9456575682379
20
10.0644684309428
30
0.000000000000000
11
-26.8456575682379
21
10.0081344140541
31
0.000000000000000
  0
LINE
  5
F1059B
330
F1059C
100
AcDbEntity
8
Geo
100
AcDbLine
10
-26.8456575682379
20
10.0081344140541
30
0.000000000000000
11
-26.7456575682379
21
9.95156763330931
31
0.000000000000000
  0
LINE
  5
F1059D
330
F1059E
100
AcDbEntity
8
Geo
100
AcDbLine
10
-26.7456575682379
20
9.95156763330931
30
0.000000000000000
11
-26.6456575682379
21
9.89478903872147
31
0.000000000000000
  0
LINE
  5
F1059F
330
F105A0
100
AcDbEntity
8
Geo
100
AcDbLine
10
-26.6456575682379
20
9.89478903872147
30
0.000000000000000
11
-26.5456575682379
21
9.83781965875059
31
0.000000000000000
  0
LINE
  5
F105A1
330
F105A2
100
AcDbEntity
8
Geo
100
AcDbLine
10
-26.5456575682379
20
9.83781965875059
30
0.000000000000000
11
-26.4456575682379
21
9.78068059251581
31
0.000000000000000
  0
LINE
  5
F105A3
330
F105A4
100
AcDbEntity
8
Geo
100
AcDbLine
10
-26.4456575682379
20
9.78068059251581
30
0.000000000000000
11
-26.3456575682379
21
9.72339300198112
31
0.000000000000000
  0
LINE
  5
F105A5
330
F105A6
100
AcDbEntity
8
Geo
100
AcDbLine
10
-26.3456575682379
20
9.72339300198112
30
0.000000000000000
11
-26.2456575682379
21
9.66597810411776
31
0.000000000000000
  0
LINE
  5
F105A7
330
F105A8
100
AcDbEntity
8
Geo
100
AcDbLine
10
-26.2456575682379
20
9.66597810411776
30
0.000000000000000
11
-26.1456575682379
21
9.60845716304642
31
0.000000000000000
  0
LINE
  5
F105A9
330
F105AA
100
AcDbEntity
8
Geo
100
AcDbLine
10
-26.1456575682379
20
9.60845716304642
30
0.000000000000000
11
-26.0456575682379
21
9.55085148216181
31
0.000000000000000
  0
LINE
  5
F105AB
330
F105AC
100
AcDbEntity
8
Geo
100
AcDbLine
10
-26.0456575682379
20
9.55085148216181
30
0.000000000000000
11
-25.9456575682379
21
9.49318239624281
31
0.000000000000000
  0
LINE
  5
F105AD
330
F105AE
100
AcDbEntity
8
Geo
100
AcDbLine
10
-25.9456575682379
20
9.49318239624281
30
0.000000000000000
11
-25.8456575682379
21
9.43547126355092
31
0.000000000000000
  0
LINE
  5
F105AF
330
F105B0
100
AcDbEntity
8
Geo
100
AcDbLine
10
-25.8456575682379
20
9.43547126355092
30
0.000000000000000
11
-25.7456575682379
21
9.37773945792003
31
0.000000000000000
  0
LINE
  5
F105B1
330
F105B2
100
AcDbEntity
8
Geo
100
AcDbLine
10
-25.7456575682379
20
9.37773945792003
30
0.000000000000000
11
-25.6456575682379
21
9.32000836084043
31
0.000000000000000
  0
LINE
  5
F105B3
330
F105B4
100
AcDbEntity
8
Geo
100
AcDbLine
10
-25.6456575682379
20
9.32000836084043
30
0.000000000000000
11
-25.5456575682379
21
9.26229935354000
31
0.000000000000000
  0
LINE
  5
F105B5
330
F105B6
100
AcDbEntity
8
Geo
100
AcDbLine
10
-25.5456575682379
20
9.26229935354000
30
0.000000000000000
11
-25.4456575682379
21
9.20463380906547
31
0.000000000000000
  0
LINE
  5
F105B7
330
F105B8
100
AcDbEntity
8
Geo
100
AcDbLine
10
-25.4456575682379
20
9.20463380906547
30
0.000000000000000
11
-25.3456575682379
21
9.14703308436675
31
0.000000000000000
  0
LINE
  5
F105B9
330
F105BA
100
AcDbEntity
8
Geo
100
AcDbLine
10
-25.3456575682379
20
9.14703308436675
30
0.000000000000000
11
-25.2456575682379
21
9.08951851238712
31
0.000000000000000
  0
LINE
  5
F105BB
330
F105BC
100
AcDbEntity
8
Geo
100
AcDbLine
10
-25.2456575682379
20
9.08951851238712
30
0.000000000000000
11
-25.1456575682379
21
9.03211139416246
31
0.000000000000000
  0
LINE
  5
F105BD
330
F105BE
100
AcDbEntity
8
Geo
100
AcDbLine
10
-25.1456575682379
20
9.03211139416246
30
0.000000000000000
11
-25.0456575682379
21
8.97483299093219
31
0.000000000000000
  0
LINE
  5
F105BF
330
F105C0
100
AcDbEntity
8
Geo
100
AcDbLine
10
-25.0456575682379
20
8.97483299093219
30
0.000000000000000
11
-24.9456575682379
21
8.91770451626498
31
0.000000000000000
  0
LINE
  5
F105C1
330
F105C2
100
AcDbEntity
8
Geo
100
AcDbLine
10
-24.9456575682379
20
8.91770451626498
30
0.000000000000000
11
-24.8456575682379
21
8.86074712820210
31
0.000000000000000
  0
LINE
  5
F105C3
330
F105C4
100
AcDbEntity
8
Geo
100
AcDbLine
10
-24.8456575682379
20
8.86074712820210
30
0.000000000000000
11
-24.7456575682379
21
8.80398192142140
31
0.000000000000000
  0
LINE
  5
F105C5
330
F105C6
100
AcDbEntity
8
Geo
100
AcDbLine
10
-24.7456575682379
20
8.80398192142140
30
0.000000000000000
11
-24.6456575682379
21
8.74742991942464
31
0.000000000000000
  0
LINE
  5
F105C7
330
F105C8
100
AcDbEntity
8
Geo
100
AcDbLine
10
-24.6456575682379
20
8.74742991942464
30
0.000000000000000
11
-24.5456575682379
21
8.69111206675129
31
0.000000000000000
  0
LINE
  5
F105C9
330
F105CA
100
AcDbEntity
8
Geo
100
AcDbLine
10
-24.5456575682379
20
8.69111206675129
30
0.000000000000000
11
-24.4456575682379
21
8.63504922122154
31
0.000000000000000
  0
LINE
  5
F105CB
330
F105CC
100
AcDbEntity
8
Geo
100
AcDbLine
10
-24.4456575682379
20
8.63504922122154
30
0.000000000000000
11
-24.3456575682379
21
8.57926214621140
31
0.000000000000000
  0
LINE
  5
F105CD
330
F105CE
100
AcDbEntity
8
Geo
100
AcDbLine
10
-24.3456575682379
20
8.57926214621140
30
0.000000000000000
11
-24.2456575682379
21
8.52377150296280
31
0.000000000000000
  0
LINE
  5
F105CF
330
F105D0
100
AcDbEntity
8
Geo
100
AcDbLine
10
-24.2456575682379
20
8.52377150296280
30
0.000000000000000
11
-24.1456575682379
21
8.46859784293150
31
0.000000000000000
  0
LINE
  5
F105D1
330
F105D2
100
AcDbEntity
8
Geo
100
AcDbLine
10
-24.1456575682379
20
8.46859784293150
30
0.000000000000000
11
-24.0456575682379
21
8.41376160017572
31
0.000000000000000
  0
LINE
  5
F105D3
330
F105D4
100
AcDbEntity
8
Geo
100
AcDbLine
10
-24.0456575682379
20
8.41376160017572
30
0.000000000000000
11
-23.9456575682379
21
8.35928308378817
31
0.000000000000000
  0
LINE
  5
F105D5
330
F105D6
100
AcDbEntity
8
Geo
100
AcDbLine
10
-23.9456575682379
20
8.35928308378817
30
0.000000000000000
11
-23.8456575682379
21
8.30518247037438
31
0.000000000000000
  0
LINE
  5
F105D7
330
F105D8
100
AcDbEntity
8
Geo
100
AcDbLine
10
-23.8456575682379
20
8.30518247037438
30
0.000000000000000
11
-23.7456575682379
21
8.25147979658017
31
0.000000000000000
  0
LINE
  5
F105D9
330
F105DA
100
AcDbEntity
8
Geo
100
AcDbLine
10
-23.7456575682379
20
8.25147979658017
30
0.000000000000000
11
-23.6456575682379
21
8.19819495167082
31
0.000000000000000
  0
LINE
  5
F105DB
330
F105DC
100
AcDbEntity
8
Geo
100
AcDbLine
10
-23.6456575682379
20
8.19819495167082
30
0.000000000000000
11
-23.5456575682379
21
8.14534767016499
31
0.000000000000000
  0
LINE
  5
F105DD
330
F105DE
100
AcDbEntity
8
Geo
100
AcDbLine
10
-23.5456575682379
20
8.14534767016499
30
0.000000000000000
11
-23.4456575682379
21
8.09295752452581
31
0.000000000000000
  0
LINE
  5
F105DF
330
F105E0
100
AcDbEntity
8
Geo
100
AcDbLine
10
-23.4456575682379
20
8.09295752452581
30
0.000000000000000
11
-23.3456575682379
21
8.04104391791204
31
0.000000000000000
  0
LINE
  5
F105E1
330
F105E2
100
AcDbEntity
8
Geo
100
AcDbLine
10
-23.3456575682379
20
8.04104391791204
30
0.000000000000000
11
-23.2456575682379
21
7.98962607699196
31
0.000000000000000
  0
LINE
  5
F105E3
330
F105E4
100
AcDbEntity
8
Geo
100
AcDbLine
10
-23.2456575682379
20
7.98962607699196
30
0.000000000000000
11
-23.1456575682379
21
7.93872304482260
31
0.000000000000000
  0
LINE
  5
F105E5
330
F105E6
100
AcDbEntity
8
Geo
100
AcDbLine
10
-23.1456575682379
20
7.93872304482260
30
0.000000000000000
11
-23.0456575682379
21
7.88835367379696
31
0.000000000000000
  0
LINE
  5
F105E7
330
F105E8
100
AcDbEntity
8
Geo
100
AcDbLine
10
-23.0456575682379
20
7.88835367379696
30
0.000000000000000
11
-22.9456575682379
21
7.83853661866188
31
0.000000000000000
  0
LINE
  5
F105E9
330
F105EA
100
AcDbEntity
8
Geo
100
AcDbLine
10
-22.9456575682379
20
7.83853661866188
30
0.000000000000000
11
-22.8456575682379
21
7.78929032960904
31
0.000000000000000
  0
LINE
  5
F105EB
330
F105EC
100
AcDbEntity
8
Geo
100
AcDbLine
10
-22.8456575682379
20
7.78929032960904
30
0.000000000000000
11
-22.7456575682382
21
7.74063304544199
31
0.000000000000000
  0
LINE
  5
F105ED
330
F105EE
100
AcDbEntity
8
Geo
100
AcDbLine
10
-22.7456575682382
20
7.74063304544199
30
0.000000000000000
11
-22.6456575682382
21
7.61197790966879
31
0.000000000000000
  0
LINE
  5
F105EF
330
F105F0
100
AcDbEntity
8
Geo
100
AcDbLine
10
-22.6456575682382
20
7.61197790966879
30
0.000000000000000
11
-22.5456575682382
21
7.46993579429847
31
0.000000000000000
  0
LINE
  5
F105F1
330
F105F2
100
AcDbEntity
8
Geo
100
AcDbLine
10
-22.5456575682382
20
7.46993579429847
30
0.000000000000000
11
-22.4456575682382
21
7.31785743145061
31
0.000000000000000
  0
LINE
  5
F105F3
330
F105F4
100
AcDbEntity
8
Geo
100
AcDbLine
10
-22.4456575682382
20
7.31785743145061
30
0.000000000000000
11
-22.3456575682382
21
7.15956643356125
31
0.000000000000000
  0
LINE
  5
F105F5
330
F105F6
100
AcDbEntity
8
Geo
100
AcDbLine
10
-22.3456575682382
20
7.15956643356125
30
0.000000000000000
11
-22.2456575682382
21
6.99971594441554
31
0.000000000000000
  0
LINE
  5
F105F7
330
F105F8
100
AcDbEntity
8
Geo
100
AcDbLine
10
-22.2456575682382
20
6.99971594441554
30
0.000000000000000
11
-22.1456575682382
21
6.84385193867655
31
0.000000000000000
  0
LINE
  5
F105F9
330
F105FA
100
AcDbEntity
8
Geo
100
AcDbLine
10
-22.1456575682382
20
6.84385193867655
30
0.000000000000000
11
-22.0456575682382
21
6.69844376788832
31
0.000000000000000
  0
LINE
  5
F105FB
330
F105FC
100
AcDbEntity
8
Geo
100
AcDbLine
10
-22.0456575682382
20
6.69844376788832
30
0.000000000000000
11
-21.9456575682382
21
6.57086738800110
31
0.000000000000000
  0
LINE
  5
F105FD
330
F105FE
100
AcDbEntity
8
Geo
100
AcDbLine
10
-21.9456575682382
20
6.57086738800110
30
0.000000000000000
11
-21.8456575682382
21
6.46932512842033
31
0.000000000000000
  0
LINE
  5
F105FF
330
F10600
100
AcDbEntity
8
Geo
100
AcDbLine
10
-21.8456575682382
20
6.46932512842033
30
0.000000000000000
11
-21.7456575682382
21
6.40268507252959
31
0.000000000000000
  0
LINE
  5
F10601
330
F10602
100
AcDbEntity
8
Geo
100
AcDbLine
10
-21.7456575682382
20
6.40268507252959
30
0.000000000000000
11
-21.6456575682382
21
6.38015260545907
31
0.000000000000000
  0
LINE
  5
F10603
330
F10604
100
AcDbEntity
8
Geo
100
AcDbLine
10
-48.4456575682383
20
12.3796200853460
30
0.000000000000000
11
-48.3456575682383
21
12.3793333607062
31
0.000000000000000
  0
LINE
  5
F10605
330
F10606
100
AcDbEntity
8
Geo
100
AcDbLine
10
-48.3456575682383
20
12.3793333607062
30
0.000000000000000
11
-48.2456575682383
21
12.3779356774836
31
0.000000000000000
  0
LINE
  5
F10607
330
F10608
100
AcDbEntity
8
Geo
100
AcDbLine
10
-48.2456575682383
20
12.3779356774836
30
0.000000000000000
11
-48.1456575682382
21
12.3754275533226
31
0.000000000000000
  0
LINE
  5
F10609
330
F1060A
100
AcDbEntity
8
Geo
100
AcDbLine
10
-48.1456575682382
20
12.3754275533226
30
0.000000000000000
11
-48.0456575682382
21
12.3718099171295
31
0.000000000000000
  0
LINE
  5
F1060B
330
F1060C
100
AcDbEntity
8
Geo
100
AcDbLine
10
-48.0456575682382
20
12.3718099171295
30
0.000000000000000
11
-47.9456575682382
21
12.3670841087282
31
0.000000000000000
  0
LINE
  5
F1060D
330
F1060E
100
AcDbEntity
8
Geo
100
AcDbLine
10
-47.9456575682382
20
12.3670841087282
30
0.000000000000000
11
-47.8456575682382
21
12.3612518783639
31
0.000000000000000
  0
LINE
  5
F1060F
330
F10610
100
AcDbEntity
8
Geo
100
AcDbLine
10
-47.8456575682382
20
12.3612518783639
30
0.000000000000000
11
-47.7456575682382
21
12.3543153860555
31
0.000000000000000
  0
LINE
  5
F10611
330
F10612
100
AcDbEntity
8
Geo
100
AcDbLine
10
-47.7456575682382
20
12.3543153860555
30
0.000000000000000
11
-47.6456575682382
21
12.3462772007948
31
0.000000000000000
  0
LINE
  5
F10613
330
F10614
100
AcDbEntity
8
Geo
100
AcDbLine
10
-47.6456575682382
20
12.3462772007948
30
0.000000000000000
11
-47.5456575682382
21
12.3371402995956
31
0.000000000000000
  0
LINE
  5
F10615
330
F10616
100
AcDbEntity
8
Geo
100
AcDbLine
10
-47.5456575682382
20
12.3371402995956
30
0.000000000000000
11
-47.4456575682382
21
12.3269080663908
31
0.000000000000000
  0
LINE
  5
F10617
330
F10618
100
AcDbEntity
8
Geo
100
AcDbLine
10
-47.4456575682382
20
12.3269080663908
30
0.000000000000000
11
-47.3456575682382
21
12.3155842907797
31
0.000000000000000
  0
LINE
  5
F10619
330
F1061A
100
AcDbEntity
8
Geo
100
AcDbLine
10
-47.3456575682382
20
12.3155842907797
30
0.000000000000000
11
-47.2456575682382
21
12.3031731666237
31
0.000000000000000
  0
LINE
  5
F1061B
330
F1061C
100
AcDbEntity
8
Geo
100
AcDbLine
10
-47.2456575682382
20
12.3031731666237
30
0.000000000000000
11
-47.1456575682382
21
12.2896792904935
31
0.000000000000000
  0
LINE
  5
F1061D
330
F1061E
100
AcDbEntity
8
Geo
100
AcDbLine
10
-47.1456575682382
20
12.2896792904935
30
0.000000000000000
11
-47.0456575682382
21
12.2751076599668
31
0.000000000000000
  0
LINE
  5
F1061F
330
F10620
100
AcDbEntity
8
Geo
100
AcDbLine
10
-47.0456575682382
20
12.2751076599668
30
0.000000000000000
11
-46.9456575682382
21
12.2594636717773
31
0.000000000000000
  0
LINE
  5
F10621
330
F10622
100
AcDbEntity
8
Geo
100
AcDbLine
10
-46.9456575682382
20
12.2594636717773
30
0.000000000000000
11
-46.8456575682382
21
12.2427531198158
31
0.000000000000000
  0
LINE
  5
F10623
330
F10624
100
AcDbEntity
8
Geo
100
AcDbLine
10
-46.8456575682382
20
12.2427531198158
30
0.000000000000000
11
-46.7456575682382
21
12.2249821929846
31
0.000000000000000
  0
LINE
  5
F10625
330
F10626
100
AcDbEntity
8
Geo
100
AcDbLine
10
-46.7456575682382
20
12.2249821929846
30
0.000000000000000
11
-46.6456575682382
21
12.2061574729053
31
0.000000000000000
  0
LINE
  5
F10627
330
F10628
100
AcDbEntity
8
Geo
100
AcDbLine
10
-46.6456575682382
20
12.2061574729053
30
0.000000000000000
11
-46.5456575682382
21
12.1862859314813
31
0.000000000000000
  0
LINE
  5
F10629
330
F1062A
100
AcDbEntity
8
Geo
100
AcDbLine
10
-46.5456575682382
20
12.1862859314813
30
0.000000000000000
11
-46.4456575682382
21
12.1653749283156
31
0.000000000000000
  0
LINE
  5
F1062B
330
F1062C
100
AcDbEntity
8
Geo
100
AcDbLine
10
-46.4456575682382
20
12.1653749283156
30
0.000000000000000
11
-46.3456575682382
21
12.1434322079852
31
0.000000000000000
  0
LINE
  5
F1062D
330
F1062E
100
AcDbEntity
8
Geo
100
AcDbLine
10
-46.3456575682382
20
12.1434322079852
30
0.000000000000000
11
-46.2456575682382
21
12.1204658971726
31
0.000000000000000
  0
LINE
  5
F1062F
330
F10630
100
AcDbEntity
8
Geo
100
AcDbLine
10
-46.2456575682382
20
12.1204658971726
30
0.000000000000000
11
-46.1456575682382
21
12.0964845016564
31
0.000000000000000
  0
LINE
  5
F10631
330
F10632
100
AcDbEntity
8
Geo
100
AcDbLine
10
-46.1456575682382
20
12.0964845016564
30
0.000000000000000
11
-46.0456575682382
21
12.0714969031609
31
0.000000000000000
  0
LINE
  5
F10633
330
F10634
100
AcDbEntity
8
Geo
100
AcDbLine
10
-46.0456575682382
20
12.0714969031609
30
0.000000000000000
11
-45.9456575682382
21
12.0455123560663
31
0.000000000000000
  0
LINE
  5
F10635
330
F10636
100
AcDbEntity
8
Geo
100
AcDbLine
10
-45.9456575682382
20
12.0455123560663
30
0.000000000000000
11
-45.8456575682382
21
12.0185404839822
31
0.000000000000000
  0
LINE
  5
F10637
330
F10638
100
AcDbEntity
8
Geo
100
AcDbLine
10
-45.8456575682382
20
12.0185404839822
30
0.000000000000000
11
-45.7456575682382
21
11.9905912761824
31
0.000000000000000
  0
LINE
  5
F10639
330
F1063A
100
AcDbEntity
8
Geo
100
AcDbLine
10
-45.7456575682382
20
11.9905912761824
30
0.000000000000000
11
-45.6456575682382
21
11.9616750839058
31
0.000000000000000
  0
LINE
  5
F1063B
330
F1063C
100
AcDbEntity
8
Geo
100
AcDbLine
10
-45.6456575682382
20
11.9616750839058
30
0.000000000000000
11
-45.5456575682382
21
11.9318026165228
31
0.000000000000000
  0
LINE
  5
F1063D
330
F1063E
100
AcDbEntity
8
Geo
100
AcDbLine
10
-45.5456575682382
20
11.9318026165228
30
0.000000000000000
11
-45.4456575682382
21
11.9009849375687
31
0.000000000000000
  0
LINE
  5
F1063F
330
F10640
100
AcDbEntity
8
Geo
100
AcDbLine
10
-45.4456575682382
20
11.9009849375687
30
0.000000000000000
11
-45.3456575682382
21
11.8692334606463
31
0.000000000000000
  0
LINE
  5
F10641
330
F10642
100
AcDbEntity
8
Geo
100
AcDbLine
10
-45.3456575682382
20
11.8692334606463
30
0.000000000000000
11
-45.2456575682382
21
11.8365599451991
31
0.000000000000000
  0
LINE
  5
F10643
330
F10644
100
AcDbEntity
8
Geo
100
AcDbLine
10
-45.2456575682382
20
11.8365599451991
30
0.000000000000000
11
-45.1456575682382
21
11.8029764921555
31
0.000000000000000
  0
LINE
  5
F10645
330
F10646
100
AcDbEntity
8
Geo
100
AcDbLine
10
-45.1456575682382
20
11.8029764921555
30
0.000000000000000
11
-45.0456575682382
21
11.7684955394476
31
0.000000000000000
  0
LINE
  5
F10647
330
F10648
100
AcDbEntity
8
Geo
100
AcDbLine
10
-45.0456575682382
20
11.7684955394476
30
0.000000000000000
11
-44.9456575682382
21
11.7331298574044
31
0.000000000000000
  0
LINE
  5
F10649
330
F1064A
100
AcDbEntity
8
Geo
100
AcDbLine
10
-44.9456575682382
20
11.7331298574044
30
0.000000000000000
11
-44.8456575682382
21
11.6968925440225
31
0.000000000000000
  0
LINE
  5
F1064B
330
F1064C
100
AcDbEntity
8
Geo
100
AcDbLine
10
-44.8456575682382
20
11.6968925440225
30
0.000000000000000
11
-44.7456575682382
21
11.6597970201148
31
0.000000000000000
  0
LINE
  5
F1064D
330
F1064E
100
AcDbEntity
8
Geo
100
AcDbLine
10
-44.7456575682382
20
11.6597970201148
30
0.000000000000000
11
-44.6456575682382
21
11.6218570243401
31
0.000000000000000
  0
LINE
  5
F1064F
330
F10650
100
AcDbEntity
8
Geo
100
AcDbLine
10
-44.6456575682382
20
11.6218570243401
30
0.000000000000000
11
-44.5456575682382
21
11.5830866081151
31
0.000000000000000
  0
LINE
  5
F10651
330
F10652
100
AcDbEntity
8
Geo
100
AcDbLine
10
-44.5456575682382
20
11.5830866081151
30
0.000000000000000
11
-44.4456575682382
21
11.5435001304100
31
0.000000000000000
  0
LINE
  5
F10653
330
F10654
100
AcDbEntity
8
Geo
100
AcDbLine
10
-44.4456575682382
20
11.5435001304100
30
0.000000000000000
11
-44.3456575682382
21
11.5031122524307
31
0.000000000000000
  0
LINE
  5
F10655
330
F10656
100
AcDbEntity
8
Geo
100
AcDbLine
10
-44.3456575682382
20
11.5031122524307
30
0.000000000000000
11
-44.2456575682382
21
11.4619379321888
31
0.000000000000000
  0
LINE
  5
F10657
330
F10658
100
AcDbEntity
8
Geo
100
AcDbLine
10
-44.2456575682382
20
11.4619379321888
30
0.000000000000000
11
-44.1456575682382
21
11.4199924189620
31
0.000000000000000
  0
LINE
  5
F10659
330
F1065A
100
AcDbEntity
8
Geo
100
AcDbLine
10
-44.1456575682382
20
11.4199924189620
30
0.000000000000000
11
-44.0456575682382
21
11.3772912476459
31
0.000000000000000
  0
LINE
  5
F1065B
330
F1065C
100
AcDbEntity
8
Geo
100
AcDbLine
10
-44.0456575682382
20
11.3772912476459
30
0.000000000000000
11
-43.9456575682382
21
11.3338502330012
31
0.000000000000000
  0
LINE
  5
F1065D
330
F1065E
100
AcDbEntity
8
Geo
100
AcDbLine
10
-43.9456575682382
20
11.3338502330012
30
0.000000000000000
11
-43.8456575682382
21
11.2896854637959
31
0.000000000000000
  0
LINE
  5
F1065F
330
F10660
100
AcDbEntity
8
Geo
100
AcDbLine
10
-43.8456575682382
20
11.2896854637959
30
0.000000000000000
11
-43.7456575682382
21
11.2448132968471
31
0.000000000000000
  0
LINE
  5
F10661
330
F10662
100
AcDbEntity
8
Geo
100
AcDbLine
10
-43.7456575682382
20
11.2448132968471
30
0.000000000000000
11
-43.6456575682382
21
11.1992503509630
31
0.000000000000000
  0
LINE
  5
F10663
330
F10664
100
AcDbEntity
8
Geo
100
AcDbLine
10
-43.6456575682382
20
11.1992503509630
30
0.000000000000000
11
-43.5456575682382
21
11.1530135007879
31
0.000000000000000
  0
LINE
  5
F10665
330
F10666
100
AcDbEntity
8
Geo
100
AcDbLine
10
-43.5456575682382
20
11.1530135007879
30
0.000000000000000
11
-43.4456575682382
21
11.1061198705525
31
0.000000000000000
  0
LINE
  5
F10667
330
F10668
100
AcDbEntity
8
Geo
100
AcDbLine
10
-43.4456575682382
20
11.1061198705525
30
0.000000000000000
11
-43.3456575682382
21
11.0585868277320
31
0.000000000000000
  0
LINE
  5
F10669
330
F1066A
100
AcDbEntity
8
Geo
100
AcDbLine
10
-43.3456575682382
20
11.0585868277320
30
0.000000000000000
11
-43.2456575682382
21
11.0104319766137
31
0.000000000000000
  0
LINE
  5
F1066B
330
F1066C
100
AcDbEntity
8
Geo
100
AcDbLine
10
-43.2456575682382
20
11.0104319766137
30
0.000000000000000
11
-43.1456575682382
21
10.9616731517773
31
0.000000000000000
  0
LINE
  5
F1066D
330
F1066E
100
AcDbEntity
8
Geo
100
AcDbLine
10
-43.1456575682382
20
10.9616731517773
30
0.000000000000000
11
-43.0456575682382
21
10.9123284114894
31
0.000000000000000
  0
LINE
  5
F1066F
330
F10670
100
AcDbEntity
8
Geo
100
AcDbLine
10
-43.0456575682382
20
10.9123284114894
30
0.000000000000000
11
-42.9456575682382
21
10.8624160310156
31
0.000000000000000
  0
LINE
  5
F10671
330
F10672
100
AcDbEntity
8
Geo
100
AcDbLine
10
-42.9456575682382
20
10.8624160310156
30
0.000000000000000
11
-42.8456575682382
21
10.8119544958522
31
0.000000000000000
  0
LINE
  5
F10673
330
F10674
100
AcDbEntity
8
Geo
100
AcDbLine
10
-42.8456575682382
20
10.8119544958522
30
0.000000000000000
11
-42.7456575682382
21
10.7609624948800
31
0.000000000000000
  0
LINE
  5
F10675
330
F10676
100
AcDbEntity
8
Geo
100
AcDbLine
10
-42.7456575682382
20
10.7609624948800
30
0.000000000000000
11
-42.6456575682382
21
10.7094589134421
31
0.000000000000000
  0
LINE
  5
F10677
330
F10678
100
AcDbEntity
8
Geo
100
AcDbLine
10
-42.6456575682382
20
10.7094589134421
30
0.000000000000000
11
-42.5456575682382
21
10.6574628263506
31
0.000000000000000
  0
LINE
  5
F10679
330
F1067A
100
AcDbEntity
8
Geo
100
AcDbLine
10
-42.5456575682382
20
10.6574628263506
30
0.000000000000000
11
-42.4456575682382
21
10.6049934908210
31
0.000000000000000
  0
LINE
  5
F1067B
330
F1067C
100
AcDbEntity
8
Geo
100
AcDbLine
10
-42.4456575682382
20
10.6049934908210
30
0.000000000000000
11
-42.3456575682382
21
10.5520703393408
31
0.000000000000000
  0
LINE
  5
F1067D
330
F1067E
100
AcDbEntity
8
Geo
100
AcDbLine
10
-42.3456575682382
20
10.5520703393408
30
0.000000000000000
11
-42.2456575682382
21
10.4987129724722
31
0.000000000000000
  0
LINE
  5
F1067F
330
F10680
100
AcDbEntity
8
Geo
100
AcDbLine
10
-42.2456575682382
20
10.4987129724722
30
0.000000000000000
11
-42.1456575682382
21
10.4449411515930
31
0.000000000000000
  0
LINE
  5
F10681
330
F10682
100
AcDbEntity
8
Geo
100
AcDbLine
10
-42.1456575682382
20
10.4449411515930
30
0.000000000000000
11
-42.0456575682382
21
10.3907747915778
31
0.000000000000000
  0
LINE
  5
F10683
330
F10684
100
AcDbEntity
8
Geo
100
AcDbLine
10
-42.0456575682382
20
10.3907747915778
30
0.000000000000000
11
-41.9456575682382
21
10.3362339534222
31
0.000000000000000
  0
LINE
  5
F10685
330
F10686
100
AcDbEntity
8
Geo
100
AcDbLine
10
-41.9456575682382
20
10.3362339534222
30
0.000000000000000
11
-41.8456575682382
21
10.2813388368132
31
0.000000000000000
  0
LINE
  5
F10687
330
F10688
100
AcDbEntity
8
Geo
100
AcDbLine
10
-41.8456575682382
20
10.2813388368132
30
0.000000000000000
11
-41.7456575682382
21
10.2261097726480
31
0.000000000000000
  0
LINE
  5
F10689
330
F1068A
100
AcDbEntity
8
Geo
100
AcDbLine
10
-41.7456575682382
20
10.2261097726480
30
0.000000000000000
11
-41.6456575682382
21
10.1705672155041
31
0.000000000000000
  0
LINE
  5
F1068B
330
F1068C
100
AcDbEntity
8
Geo
100
AcDbLine
10
-41.6456575682382
20
10.1705672155041
30
0.000000000000000
11
-41.5456575682382
21
10.1147317360642
31
0.000000000000000
  0
LINE
  5
F1068D
330
F1068E
100
AcDbEntity
8
Geo
100
AcDbLine
10
-41.5456575682382
20
10.1147317360642
30
0.000000000000000
11
-41.4456575682382
21
10.0586240134971
31
0.000000000000000
  0
LINE
  5
F1068F
330
F10690
100
AcDbEntity
8
Geo
100
AcDbLine
10
-41.4456575682382
20
10.0586240134971
30
0.000000000000000
11
-41.3456575682382
21
10.0022648277995
31
0.000000000000000
  0
LINE
  5
F10691
330
F10692
100
AcDbEntity
8
Geo
100
AcDbLine
10
-41.3456575682382
20
10.0022648277995
30
0.000000000000000
11
-41.2456575682382
21
9.94567505209967
31
0.000000000000000
  0
LINE
  5
F10693
330
F10694
100
AcDbEntity
8
Geo
100
AcDbLine
10
-41.2456575682382
20
9.94567505209967
30
0.000000000000000
11
-41.1456575682382
21
9.88887564492683
31
0.000000000000000
  0
LINE
  5
F10695
330
F10696
100
AcDbEntity
8
Geo
100
AcDbLine
10
-41.1456575682382
20
9.88887564492683
30
0.000000000000000
11
-41.0456575682381
21
9.83188764244921
31
0.000000000000000
  0
LINE
  5
F10697
330
F10698
100
AcDbEntity
8
Geo
100
AcDbLine
10
-41.0456575682381
20
9.83188764244921
30
0.000000000000000
11
-40.9456575682381
21
9.77473215068297
31
0.000000000000000
  0
LINE
  5
F10699
330
F1069A
100
AcDbEntity
8
Geo
100
AcDbLine
10
-40.9456575682381
20
9.77473215068297
30
0.000000000000000
11
-40.8456575682381
21
9.71743033767541
31
0.000000000000000
  0
LINE
  5
F1069B
330
F1069C
100
AcDbEntity
8
Geo
100
AcDbLine
10
-40.8456575682381
20
9.71743033767541
30
0.000000000000000
11
-40.7456575682381
21
9.66000342566522
31
0.000000000000000
  0
LINE
  5
F1069D
330
F1069E
100
AcDbEntity
8
Geo
100
AcDbLine
10
-40.7456575682381
20
9.66000342566522
30
0.000000000000000
11
-40.6456575682381
21
9.60247268322262
31
0.000000000000000
  0
LINE
  5
F1069F
330
F106A0
100
AcDbEntity
8
Geo
100
AcDbLine
10
-40.6456575682381
20
9.60247268322262
30
0.000000000000000
11
-40.5456575682381
21
9.54485941737235
31
0.000000000000000
  0
LINE
  5
F106A1
330
F106A2
100
AcDbEntity
8
Geo
100
AcDbLine
10
-40.5456575682381
20
9.54485941737235
30
0.000000000000000
11
-40.4456575682381
21
9.48718496570246
31
0.000000000000000
  0
LINE
  5
F106A3
330
F106A4
100
AcDbEntity
8
Geo
100
AcDbLine
10
-40.4456575682381
20
9.48718496570246
30
0.000000000000000
11
-40.3456575682381
21
9.42947068846168
31
0.000000000000000
  0
LINE
  5
F106A5
330
F106A6
100
AcDbEntity
8
Geo
100
AcDbLine
10
-40.3456575682381
20
9.42947068846168
30
0.000000000000000
11
-40.2456575682381
21
9.37173796064852
31
0.000000000000000
  0
LINE
  5
F106A7
330
F106A8
100
AcDbEntity
8
Geo
100
AcDbLine
10
-40.2456575682381
20
9.37173796064852
30
0.000000000000000
11
-40.1456575682381
21
9.31400816409482
31
0.000000000000000
  0
LINE
  5
F106A9
330
F106AA
100
AcDbEntity
8
Geo
100
AcDbLine
10
-40.1456575682381
20
9.31400816409482
30
0.000000000000000
11
-40.0456575682381
21
9.25630267954680
31
0.000000000000000
  0
LINE
  5
F106AB
330
F106AC
100
AcDbEntity
8
Geo
100
AcDbLine
10
-40.0456575682381
20
9.25630267954680
30
0.000000000000000
11
-39.9456575682381
21
9.19864287874650
31
0.000000000000000
  0
LINE
  5
F106AD
330
F106AE
100
AcDbEntity
8
Geo
100
AcDbLine
10
-39.9456575682381
20
9.19864287874650
30
0.000000000000000
11
-39.8456575682381
21
9.14105011651659
31
0.000000000000000
  0
LINE
  5
F106AF
330
F106B0
100
AcDbEntity
8
Geo
100
AcDbLine
10
-39.8456575682381
20
9.14105011651659
30
0.000000000000000
11
-39.7456575682381
21
9.08354572285141
31
0.000000000000000
  0
LINE
  5
F106B1
330
F106B2
100
AcDbEntity
8
Geo
100
AcDbLine
10
-39.7456575682381
20
9.08354572285141
30
0.000000000000000
11
-39.6456575682381
21
9.02615099501721
31
0.000000000000000
  0
LINE
  5
F106B3
330
F106B4
100
AcDbEntity
8
Geo
100
AcDbLine
10
-39.6456575682381
20
9.02615099501721
30
0.000000000000000
11
-39.5456575682381
21
8.96888718966449
31
0.000000000000000
  0
LINE
  5
F106B5
330
F106B6
100
AcDbEntity
8
Geo
100
AcDbLine
10
-39.5456575682381
20
8.96888718966449
30
0.000000000000000
11
-39.4456575682381
21
8.91177551495548
31
0.000000000000000
  0
LINE
  5
F106B7
330
F106B8
100
AcDbEntity
8
Geo
100
AcDbLine
10
-39.4456575682381
20
8.91177551495548
30
0.000000000000000
11
-39.3456575682381
21
8.85483712270945
31
0.000000000000000
  0
LINE
  5
F106B9
330
F106BA
100
AcDbEntity
8
Geo
100
AcDbLine
10
-39.3456575682381
20
8.85483712270945
30
0.000000000000000
11
-39.2456575682381
21
8.79809310056895
31
0.000000000000000
  0
LINE
  5
F106BB
330
F106BC
100
AcDbEntity
8
Geo
100
AcDbLine
10
-39.2456575682381
20
8.79809310056895
30
0.000000000000000
11
-39.1456575682381
21
8.74156446418984
31
0.000000000000000
  0
LINE
  5
F106BD
330
F106BE
100
AcDbEntity
8
Geo
100
AcDbLine
10
-39.1456575682381
20
8.74156446418984
30
0.000000000000000
11
-39.0456575682381
21
8.68527214945792
31
0.000000000000000
  0
LINE
  5
F106BF
330
F106C0
100
AcDbEntity
8
Geo
100
AcDbLine
10
-39.0456575682381
20
8.68527214945792
30
0.000000000000000
11
-38.9456575682381
21
8.62923700473517
31
0.000000000000000
  0
LINE
  5
F106C1
330
F106C2
100
AcDbEntity
8
Geo
100
AcDbLine
10
-38.9456575682381
20
8.62923700473517
30
0.000000000000000
11
-38.8456575682381
21
8.57347978313837
31
0.000000000000000
  0
LINE
  5
F106C3
330
F106C4
100
AcDbEntity
8
Geo
100
AcDbLine
10
-38.8456575682381
20
8.57347978313837
30
0.000000000000000
11
-38.7456575682381
21
8.51802113485295
31
0.000000000000000
  0
LINE
  5
F106C5
330
F106C6
100
AcDbEntity
8
Geo
100
AcDbLine
10
-38.7456575682381
20
8.51802113485295
30
0.000000000000000
11
-38.6456575682381
21
8.46288159948509
31
0.000000000000000
  0
LINE
  5
F106C7
330
F106C8
100
AcDbEntity
8
Geo
100
AcDbLine
10
-38.6456575682381
20
8.46288159948509
30
0.000000000000000
11
-38.5456575682381
21
8.40808159845459
31
0.000000000000000
  0
LINE
  5
F106C9
330
F106CA
100
AcDbEntity
8
Geo
100
AcDbLine
10
-38.5456575682381
20
8.40808159845459
30
0.000000000000000
11
-38.4456575682381
21
8.35364142743174
31
0.000000000000000
  0
LINE
  5
F106CB
330
F106CC
100
AcDbEntity
8
Geo
100
AcDbLine
10
-38.4456575682381
20
8.35364142743174
30
0.000000000000000
11
-38.3456575682381
21
8.29958124882052
31
0.000000000000000
  0
LINE
  5
F106CD
330
F106CE
100
AcDbEntity
8
Geo
100
AcDbLine
10
-38.3456575682381
20
8.29958124882052
30
0.000000000000000
11
-38.2456575682381
21
8.24592108429134
31
0.000000000000000
  0
LINE
  5
F106CF
330
F106D0
100
AcDbEntity
8
Geo
100
AcDbLine
10
-38.2456575682381
20
8.24592108429134
30
0.000000000000000
11
-38.1456575682381
21
8.19268080736582
31
0.000000000000000
  0
LINE
  5
F106D1
330
F106D2
100
AcDbEntity
8
Geo
100
AcDbLine
10
-38.1456575682381
20
8.19268080736582
30
0.000000000000000
11
-38.0456575682381
21
8.13988013605645
31
0.000000000000000
  0
LINE
  5
F106D3
330
F106D4
100
AcDbEntity
8
Geo
100
AcDbLine
10
-38.0456575682381
20
8.13988013605645
30
0.000000000000000
11
-37.9456575682381
21
8.08753862556386
31
0.000000000000000
  0
LINE
  5
F106D5
330
F106D6
100
AcDbEntity
8
Geo
100
AcDbLine
10
-37.9456575682381
20
8.08753862556386
30
0.000000000000000
11
-37.8456575682381
21
8.03567566103434
31
0.000000000000000
  0
LINE
  5
F106D7
330
F106D8
100
AcDbEntity
8
Geo
100
AcDbLine
10
-37.8456575682381
20
8.03567566103434
30
0.000000000000000
11
-37.7456575682381
21
7.98431045038046
31
0.000000000000000
  0
LINE
  5
F106D9
330
F106DA
100
AcDbEntity
8
Geo
100
AcDbLine
10
-37.7456575682381
20
7.98431045038046
30
0.000000000000000
11
-37.6456575682381
21
7.93346201716712
31
0.000000000000000
  0
LINE
  5
F106DB
330
F106DC
100
AcDbEntity
8
Geo
100
AcDbLine
10
-37.6456575682381
20
7.93346201716712
30
0.000000000000000
11
-37.5456575682381
21
7.88314919356613
31
0.000000000000000
  0
LINE
  5
F106DD
330
F106DE
100
AcDbEntity
8
Geo
100
AcDbLine
10
-37.5456575682381
20
7.88314919356613
30
0.000000000000000
11
-37.4456575682381
21
7.83339061338147
31
0.000000000000000
  0
LINE
  5
F106DF
330
F106E0
100
AcDbEntity
8
Geo
100
AcDbLine
10
-37.4456575682381
20
7.83339061338147
30
0.000000000000000
11
-37.3456575682381
21
7.78420470514811
31
0.000000000000000
  0
LINE
  5
F106E1
330
F106E2
100
AcDbEntity
8
Geo
100
AcDbLine
10
-37.3456575682381
20
7.78420470514811
30
0.000000000000000
11
-37.2456575682381
21
7.73560968530687
31
0.000000000000000
  0
LINE
  5
F106E3
330
F106E4
100
AcDbEntity
8
Geo
100
AcDbLine
10
-37.2456575682381
20
7.73560968530687
30
0.000000000000000
11
-37.1456575682381
21
7.68762355145773
31
0.000000000000000
  0
LINE
  5
F106E5
330
F106E6
100
AcDbEntity
8
Geo
100
AcDbLine
10
-37.1456575682381
20
7.68762355145773
30
0.000000000000000
11
-37.0456575682381
21
7.64026407569436
31
0.000000000000000
  0
LINE
  5
F106E7
330
F106E8
100
AcDbEntity
8
Geo
100
AcDbLine
10
-37.0456575682381
20
7.64026407569436
30
0.000000000000000
11
-36.9456575682381
21
7.59354879802194
31
0.000000000000000
  0
LINE
  5
F106E9
330
F106EA
100
AcDbEntity
8
Geo
100
AcDbLine
10
-36.9456575682381
20
7.59354879802194
30
0.000000000000000
11
-36.8456575682381
21
7.54749501986117
31
0.000000000000000
  0
LINE
  5
F106EB
330
F106EC
100
AcDbEntity
8
Geo
100
AcDbLine
10
-36.8456575682381
20
7.54749501986117
30
0.000000000000000
11
-36.7456575682381
21
7.50211979764049
31
0.000000000000000
  0
LINE
  5
F106ED
330
F106EE
100
AcDbEntity
8
Geo
100
AcDbLine
10
-36.7456575682381
20
7.50211979764049
30
0.000000000000000
11
-36.6456575682381
21
7.45743993647906
31
0.000000000000000
  0
LINE
  5
F106EF
330
F106F0
100
AcDbEntity
8
Geo
100
AcDbLine
10
-36.6456575682381
20
7.45743993647906
30
0.000000000000000
11
-36.5456575682381
21
7.41347198396288
31
0.000000000000000
  0
LINE
  5
F106F1
330
F106F2
100
AcDbEntity
8
Geo
100
AcDbLine
10
-36.5456575682381
20
7.41347198396288
30
0.000000000000000
11
-36.4456575682381
21
7.37023222401620
31
0.000000000000000
  0
LINE
  5
F106F3
330
F106F4
100
AcDbEntity
8
Geo
100
AcDbLine
10
-36.4456575682381
20
7.37023222401620
30
0.000000000000000
11
-36.3456575682381
21
7.32773667087066
31
0.000000000000000
  0
LINE
  5
F106F5
330
F106F6
100
AcDbEntity
8
Geo
100
AcDbLine
10
-36.3456575682381
20
7.32773667087066
30
0.000000000000000
11
-36.2456575682381
21
7.28600106313423
31
0.000000000000000
  0
LINE
  5
F106F7
330
F106F8
100
AcDbEntity
8
Geo
100
AcDbLine
10
-36.2456575682381
20
7.28600106313423
30
0.000000000000000
11
-36.1456575682381
21
7.24504085796235
31
0.000000000000000
  0
LINE
  5
F106F9
330
F106FA
100
AcDbEntity
8
Geo
100
AcDbLine
10
-36.1456575682381
20
7.24504085796235
30
0.000000000000000
11
-36.0456575682381
21
7.20487122533313
31
0.000000000000000
  0
LINE
  5
F106FB
330
F106FC
100
AcDbEntity
8
Geo
100
AcDbLine
10
-36.0456575682381
20
7.20487122533313
30
0.000000000000000
11
-35.9456575682381
21
7.16550704242914
31
0.000000000000000
  0
LINE
  5
F106FD
330
F106FE
100
AcDbEntity
8
Geo
100
AcDbLine
10
-35.9456575682381
20
7.16550704242914
30
0.000000000000000
11
-35.8456575682381
21
7.12696288812738
31
0.000000000000000
  0
LINE
  5
F106FF
330
F10700
100
AcDbEntity
8
Geo
100
AcDbLine
10
-35.8456575682381
20
7.12696288812738
30
0.000000000000000
11
-35.7456575682381
21
7.08925303759997
31
0.000000000000000
  0
LINE
  5
F10701
330
F10702
100
AcDbEntity
8
Geo
100
AcDbLine
10
-35.7456575682381
20
7.08925303759997
30
0.000000000000000
11
-35.6456575682381
21
7.05239145702715
31
0.000000000000000
  0
LINE
  5
F10703
330
F10704
100
AcDbEntity
8
Geo
100
AcDbLine
10
-35.6456575682381
20
7.05239145702715
30
0.000000000000000
11
-35.5456575682381
21
7.01639179842479
31
0.000000000000000
  0
LINE
  5
F10705
330
F10706
100
AcDbEntity
8
Geo
100
AcDbLine
10
-35.5456575682381
20
7.01639179842479
30
0.000000000000000
11
-35.4456575682381
21
6.98126739458829
31
0.000000000000000
  0
LINE
  5
F10707
330
F10708
100
AcDbEntity
8
Geo
100
AcDbLine
10
-35.4456575682381
20
6.98126739458829
30
0.000000000000000
11
-35.3456575682381
21
6.94703125415457
31
0.000000000000000
  0
LINE
  5
F10709
330
F1070A
100
AcDbEntity
8
Geo
100
AcDbLine
10
-35.3456575682381
20
6.94703125415457
30
0.000000000000000
11
-35.2456575682381
21
6.91369605678432
31
0.000000000000000
  0
LINE
  5
F1070B
330
F1070C
100
AcDbEntity
8
Geo
100
AcDbLine
10
-35.2456575682381
20
6.91369605678432
30
0.000000000000000
11
-35.1456575682381
21
6.88127414846585
31
0.000000000000000
  0
LINE
  5
F1070D
330
F1070E
100
AcDbEntity
8
Geo
100
AcDbLine
10
-35.1456575682381
20
6.88127414846585
30
0.000000000000000
11
-35.0456575682381
21
6.84977753694276
31
0.000000000000000
  0
LINE
  5
F1070F
330
F10710
100
AcDbEntity
8
Geo
100
AcDbLine
10
-35.0456575682381
20
6.84977753694276
30
0.000000000000000
11
-34.9456575682381
21
6.81921788726668
31
0.000000000000000
  0
LINE
  5
F10711
330
F10712
100
AcDbEntity
8
Geo
100
AcDbLine
10
-34.9456575682381
20
6.81921788726668
30
0.000000000000000
11
-34.8456575682381
21
6.78960651747704
31
0.000000000000000
  0
LINE
  5
F10713
330
F10714
100
AcDbEntity
8
Geo
100
AcDbLine
10
-34.8456575682381
20
6.78960651747704
30
0.000000000000000
11
-34.7456575682381
21
6.76095439440935
31
0.000000000000000
  0
LINE
  5
F10715
330
F10716
100
AcDbEntity
8
Geo
100
AcDbLine
10
-34.7456575682381
20
6.76095439440935
30
0.000000000000000
11
-34.6456575682381
21
6.73327212963353
31
0.000000000000000
  0
LINE
  5
F10717
330
F10718
100
AcDbEntity
8
Geo
100
AcDbLine
10
-34.6456575682381
20
6.73327212963353
30
0.000000000000000
11
-34.5456575682381
21
6.70656997552379
31
0.000000000000000
  0
LINE
  5
F10719
330
F1071A
100
AcDbEntity
8
Geo
100
AcDbLine
10
-34.5456575682381
20
6.70656997552379
30
0.000000000000000
11
-34.4456575682381
21
6.68085782146160
31
0.000000000000000
  0
LINE
  5
F1071B
330
F1071C
100
AcDbEntity
8
Geo
100
AcDbLine
10
-34.4456575682381
20
6.68085782146160
30
0.000000000000000
11
-34.3456575682381
21
6.65614519017308
31
0.000000000000000
  0
LINE
  5
F1071D
330
F1071E
100
AcDbEntity
8
Geo
100
AcDbLine
10
-34.3456575682381
20
6.65614519017308
30
0.000000000000000
11
-34.2456575682381
21
6.63244123420214
31
0.000000000000000
  0
LINE
  5
F1071F
330
F10720
100
AcDbEntity
8
Geo
100
AcDbLine
10
-34.2456575682381
20
6.63244123420214
30
0.000000000000000
11
-34.1456575682381
21
6.60975473252076
31
0.000000000000000
  0
LINE
  5
F10721
330
F10722
100
AcDbEntity
8
Geo
100
AcDbLine
10
-34.1456575682381
20
6.60975473252076
30
0.000000000000000
11
-34.0456575682380
21
6.58809408727764
31
0.000000000000000
  0
LINE
  5
F10723
330
F10724
100
AcDbEntity
8
Geo
100
AcDbLine
10
-34.0456575682380
20
6.58809408727764
30
0.000000000000000
11
-33.9456575682380
21
6.56746732068640
31
0.000000000000000
  0
LINE
  5
F10725
330
F10726
100
AcDbEntity
8
Geo
100
AcDbLine
10
-33.9456575682380
20
6.56746732068640
30
0.000000000000000
11
-33.8456575682380
21
6.54788207205441
31
0.000000000000000
  0
LINE
  5
F10727
330
F10728
100
AcDbEntity
8
Geo
100
AcDbLine
10
-33.8456575682380
20
6.54788207205441
30
0.000000000000000
11
-33.7456575682380
21
6.52934559495359
31
0.000000000000000
  0
LINE
  5
F10729
330
F1072A
100
AcDbEntity
8
Geo
100
AcDbLine
10
-33.7456575682380
20
6.52934559495359
30
0.000000000000000
11
-33.6456575682380
21
6.51186475453394
31
0.000000000000000
  0
LINE
  5
F1072B
330
F1072C
100
AcDbEntity
8
Geo
100
AcDbLine
10
-33.6456575682380
20
6.51186475453394
30
0.000000000000000
11
-33.5456575682380
21
6.49544602498097
31
0.000000000000000
  0
LINE
  5
F1072D
330
F1072E
100
AcDbEntity
8
Geo
100
AcDbLine
10
-33.5456575682380
20
6.49544602498097
30
0.000000000000000
11
-33.4456575682380
21
6.48009548711795
31
0.000000000000000
  0
LINE
  5
F1072F
330
F10730
100
AcDbEntity
8
Geo
100
AcDbLine
10
-33.4456575682380
20
6.48009548711795
30
0.000000000000000
11
-33.3456575682380
21
6.46581882615379
31
0.000000000000000
  0
LINE
  5
F10731
330
F10732
100
AcDbEntity
8
Geo
100
AcDbLine
10
-33.3456575682380
20
6.46581882615379
30
0.000000000000000
11
-33.2456575682380
21
6.45262132957752
31
0.000000000000000
  0
LINE
  5
F10733
330
F10734
100
AcDbEntity
8
Geo
100
AcDbLine
10
-33.2456575682380
20
6.45262132957752
30
0.000000000000000
11
-33.1456575682380
21
6.44050788519996
31
0.000000000000000
  0
LINE
  5
F10735
330
F10736
100
AcDbEntity
8
Geo
100
AcDbLine
10
-33.1456575682380
20
6.44050788519996
30
0.000000000000000
11
-33.0456575682380
21
6.42948297934352
31
0.000000000000000
  0
LINE
  5
F10737
330
F10738
100
AcDbEntity
8
Geo
100
AcDbLine
10
-33.0456575682380
20
6.42948297934352
30
0.000000000000000
11
-32.9456575682380
21
6.41955069518065
31
0.000000000000000
  0
LINE
  5
F10739
330
F1073A
100
AcDbEntity
8
Geo
100
AcDbLine
10
-32.9456575682380
20
6.41955069518065
30
0.000000000000000
11
-32.8456575682380
21
6.41071471122157
31
0.000000000000000
  0
LINE
  5
F1073B
330
F1073C
100
AcDbEntity
8
Geo
100
AcDbLine
10
-32.8456575682380
20
6.41071471122157
30
0.000000000000000
11
-32.7456575682380
21
6.40297829995193
31
0.000000000000000
  0
LINE
  5
F1073D
330
F1073E
100
AcDbEntity
8
Geo
100
AcDbLine
10
-32.7456575682380
20
6.40297829995193
30
0.000000000000000
11
-32.6456575682380
21
6.39634432662079
31
0.000000000000000
  0
LINE
  5
F1073F
330
F10740
100
AcDbEntity
8
Geo
100
AcDbLine
10
-32.6456575682380
20
6.39634432662079
30
0.000000000000000
11
-32.5456575682380
21
6.39081524817950
31
0.000000000000000
  0
LINE
  5
F10741
330
F10742
100
AcDbEntity
8
Geo
100
AcDbLine
10
-32.5456575682380
20
6.39081524817950
30
0.000000000000000
11
-32.4456575682380
21
6.38639311237166
31
0.000000000000000
  0
LINE
  5
F10743
330
F10744
100
AcDbEntity
8
Geo
100
AcDbLine
10
-32.4456575682380
20
6.38639311237166
30
0.000000000000000
11
-32.3456575682380
21
6.38307955697482
31
0.000000000000000
  0
LINE
  5
F10745
330
F10746
100
AcDbEntity
8
Geo
100
AcDbLine
10
-32.3456575682380
20
6.38307955697482
30
0.000000000000000
11
-32.2456575682380
21
6.38087580919383
31
0.000000000000000
  0
LINE
  5
F10747
330
F10748
100
AcDbEntity
8
Geo
100
AcDbLine
10
-32.2456575682380
20
6.38087580919383
30
0.000000000000000
11
-32.1456575682380
21
6.37978268520639
31
0.000000000000000
  0
LINE
  5
F10749
330
F1074A
100
AcDbEntity
8
Geo
100
AcDbLine
10
-64.6456575682382
20
10.0898546954747
30
0.000000000000000
11
-64.5456575682382
21
10.4023028241410
31
0.000000000000000
  0
LINE
  5
F1074B
330
F1074C
100
AcDbEntity
8
Geo
100
AcDbLine
10
-64.5456575682382
20
10.3924632207653
30
0.000000000000000
11
-64.4456575682382
21
10.6160878951572
31
0.000000000000000
  0
LINE
  5
F1074D
330
F1074E
100
AcDbEntity
8
Geo
100
AcDbLine
10
-64.4456575682382
20
10.6160878951572
30
0.000000000000000
11
-64.3456575682382
21
10.7972223120389
31
0.000000000000000
  0
LINE
  5
F1074F
330
F10750
100
AcDbEntity
8
Geo
100
AcDbLine
10
-64.3456575682382
20
10.7972223120389
30
0.000000000000000
11
-64.2456575682382
21
10.9500549896613
31
0.000000000000000
  0
LINE
  5
F10751
330
F10752
100
AcDbEntity
8
Geo
100
AcDbLine
10
-64.2456575682382
20
10.9500549896613
30
0.000000000000000
11
-64.1456575682382
21
11.0818794089435
31
0.000000000000000
  0
LINE
  5
F10753
330
F10754
100
AcDbEntity
8
Geo
100
AcDbLine
10
-64.1456575682382
20
11.0818794089435
30
0.000000000000000
11
-64.0456575682382
21
11.1970344343325
31
0.000000000000000
  0
LINE
  5
F10755
330
F10756
100
AcDbEntity
8
Geo
100
AcDbLine
10
-64.0456575682382
20
11.1970344343325
30
0.000000000000000
11
-63.9456575682382
21
11.2983499013374
31
0.000000000000000
  0
LINE
  5
F10757
330
F10758
100
AcDbEntity
8
Geo
100
AcDbLine
10
-63.9456575682382
20
11.2983499013374
30
0.000000000000000
11
-63.8456575682382
21
11.3877933439008
31
0.000000000000000
  0
LINE
  5
F10759
330
F1075A
100
AcDbEntity
8
Geo
100
AcDbLine
10
-63.8456575682382
20
11.3877933439008
30
0.000000000000000
11
-63.7456575682382
21
11.4667992717144
31
0.000000000000000
  0
LINE
  5
F1075B
330
F1075C
100
AcDbEntity
8
Geo
100
AcDbLine
10
-63.7456575682382
20
11.4667992717144
30
0.000000000000000
11
-63.6456575682382
21
11.5364529787419
31
0.000000000000000
  0
LINE
  5
F1075D
330
F1075E
100
AcDbEntity
8
Geo
100
AcDbLine
10
-63.6456575682382
20
11.5364529787419
30
0.000000000000000
11
-63.5456575682382
21
11.5976005001294
31
0.000000000000000
  0
LINE
  5
F1075F
330
F10760
100
AcDbEntity
8
Geo
100
AcDbLine
10
-63.5456575682382
20
11.5976005001294
30
0.000000000000000
11
-63.4456575682382
21
11.6509180456334
31
0.000000000000000
  0
LINE
  5
F10761
330
F10762
100
AcDbEntity
8
Geo
100
AcDbLine
10
-63.4456575682382
20
11.6509180456334
30
0.000000000000000
11
-63.3456575682382
21
11.6969577933695
31
0.000000000000000
  0
LINE
  5
F10763
330
F10764
100
AcDbEntity
8
Geo
100
AcDbLine
10
-63.3456575682382
20
11.6969577933695
30
0.000000000000000
11
-63.2456575682382
21
11.7361791921251
31
0.000000000000000
  0
LINE
  5
F10765
330
F10766
100
AcDbEntity
8
Geo
100
AcDbLine
10
-63.2456575682382
20
11.7361791921251
30
0.000000000000000
11
-63.1456575682382
21
11.7689710079880
31
0.000000000000000
  0
LINE
  5
F10767
330
F10768
100
AcDbEntity
8
Geo
100
AcDbLine
10
-63.1456575682382
20
11.7689710079880
30
0.000000000000000
11
-63.0456575682382
21
11.7956672513372
31
0.000000000000000
  0
LINE
  5
F10769
330
F1076A
100
AcDbEntity
8
Geo
100
AcDbLine
10
-63.0456575682382
20
11.7956672513372
30
0.000000000000000
11
-62.9456575682382
21
11.8165589362287
31
0.000000000000000
  0
LINE
  5
F1076B
330
F1076C
100
AcDbEntity
8
Geo
100
AcDbLine
10
-62.9456575682382
20
11.8165589362287
30
0.000000000000000
11
-62.8456575682382
21
11.8319029279259
31
0.000000000000000
  0
LINE
  5
F1076D
330
F1076E
100
AcDbEntity
8
Geo
100
AcDbLine
10
-62.8456575682382
20
11.8319029279259
30
0.000000000000000
11
-62.7456575682382
21
11.8419287097940
31
0.000000000000000
  0
LINE
  5
F1076F
330
F10770
100
AcDbEntity
8
Geo
100
AcDbLine
10
-62.7456575682382
20
11.8419287097940
30
0.000000000000000
11
-62.6456575682382
21
11.8468436336757
31
0.000000000000000
  0
LINE
  5
F10771
330
F10772
100
AcDbEntity
8
Geo
100
AcDbLine
10
-62.6456575682382
20
11.8468436336757
30
0.000000000000000
11
-62.5456575682382
21
11.8468370450955
31
0.000000000000000
  0
LINE
  5
F10773
330
F10774
100
AcDbEntity
8
Geo
100
AcDbLine
10
-62.5456575682382
20
11.8468370450955
30
0.000000000000000
11
-62.4456575682382
21
11.8420835601124
31
0.000000000000000
  0
LINE
  5
F10775
330
F10776
100
AcDbEntity
8
Geo
100
AcDbLine
10
-62.4456575682382
20
11.8420835601124
30
0.000000000000000
11
-62.3456575682382
21
11.8327456930299
31
0.000000000000000
  0
LINE
  5
F10777
330
F10778
100
AcDbEntity
8
Geo
100
AcDbLine
10
-62.3456575682382
20
11.8327456930299
30
0.000000000000000
11
-62.2456575682382
21
11.8189759805156
31
0.000000000000000
  0
LINE
  5
F10779
330
F1077A
100
AcDbEntity
8
Geo
100
AcDbLine
10
-62.2456575682382
20
11.8189759805156
30
0.000000000000000
11
-62.1456575682382
21
11.8009187099026
31
0.000000000000000
  0
LINE
  5
F1077B
330
F1077C
100
AcDbEntity
8
Geo
100
AcDbLine
10
-62.1456575682382
20
11.8009187099026
30
0.000000000000000
11
-62.0456575682382
21
11.7787113323783
31
0.000000000000000
  0
LINE
  5
F1077D
330
F1077E
100
AcDbEntity
8
Geo
100
AcDbLine
10
-62.0456575682382
20
11.7787113323783
30
0.000000000000000
11
-61.9456575682382
21
11.7524856220513
31
0.000000000000000
  0
LINE
  5
F1077F
330
F10780
100
AcDbEntity
8
Geo
100
AcDbLine
10
-61.9456575682382
20
11.7524856220513
30
0.000000000000000
11
-61.8456575682382
21
11.7223686272852
31
0.000000000000000
  0
LINE
  5
F10781
330
F10782
100
AcDbEntity
8
Geo
100
AcDbLine
10
-61.8456575682382
20
11.7223686272852
30
0.000000000000000
11
-61.7456575682382
21
11.6884834496763
31
0.000000000000000
  0
LINE
  5
F10783
330
F10784
100
AcDbEntity
8
Geo
100
AcDbLine
10
-61.7456575682382
20
11.6884834496763
30
0.000000000000000
11
-61.6456575682382
21
11.6523290162448
31
0.000000000000000
  0
LINE
  5
F10785
330
F10786
100
AcDbEntity
8
Geo
100
AcDbLine
10
-61.6456575682382
20
11.6523290162448
30
0.000000000000000
11
-61.5456575682382
21
11.6153328767884
31
0.000000000000000
  0
LINE
  5
F10787
330
F10788
100
AcDbEntity
8
Geo
100
AcDbLine
10
-61.5456575682382
20
11.6153328767884
30
0.000000000000000
11
-61.4456575682382
21
11.5775087331580
31
0.000000000000000
  0
LINE
  5
F10789
330
F1078A
100
AcDbEntity
8
Geo
100
AcDbLine
10
-61.4456575682382
20
11.5775087331580
30
0.000000000000000
11
-61.3456575682382
21
11.5388705938634
31
0.000000000000000
  0
LINE
  5
F1078B
330
F1078C
100
AcDbEntity
8
Geo
100
AcDbLine
10
-61.3456575682382
20
11.5388705938634
30
0.000000000000000
11
-61.2456575682382
21
11.4994327688848
31
0.000000000000000
  0
LINE
  5
F1078D
330
F1078E
100
AcDbEntity
8
Geo
100
AcDbLine
10
-61.2456575682382
20
11.4994327688848
30
0.000000000000000
11
-61.1456575682382
21
11.4592098643733
31
0.000000000000000
  0
LINE
  5
F1078F
330
F10790
100
AcDbEntity
8
Geo
100
AcDbLine
10
-61.1456575682382
20
11.4592098643733
30
0.000000000000000
11
-61.0456575682382
21
11.4182167772411
31
0.000000000000000
  0
LINE
  5
F10791
330
F10792
100
AcDbEntity
8
Geo
100
AcDbLine
10
-61.0456575682382
20
11.4182167772411
30
0.000000000000000
11
-60.9456575682382
21
11.3764686896445
31
0.000000000000000
  0
LINE
  5
F10793
330
F10794
100
AcDbEntity
8
Geo
100
AcDbLine
10
-60.9456575682382
20
11.3764686896445
30
0.000000000000000
11
-60.8456575682382
21
11.3339810633609
31
0.000000000000000
  0
LINE
  5
F10795
330
F10796
100
AcDbEntity
8
Geo
100
AcDbLine
10
-60.8456575682382
20
11.3339810633609
30
0.000000000000000
11
-60.7456575682382
21
11.2907696340626
31
0.000000000000000
  0
LINE
  5
F10797
330
F10798
100
AcDbEntity
8
Geo
100
AcDbLine
10
-60.7456575682382
20
11.2907696340626
30
0.000000000000000
11
-60.6456575682382
21
11.2468504054886
31
0.000000000000000
  0
LINE
  5
F10799
330
F1079A
100
AcDbEntity
8
Geo
100
AcDbLine
10
-60.6456575682382
20
11.2468504054886
30
0.000000000000000
11
-60.5456575682382
21
11.2022396435179
31
0.000000000000000
  0
LINE
  5
F1079B
330
F1079C
100
AcDbEntity
8
Geo
100
AcDbLine
10
-60.5456575682382
20
11.2022396435179
30
0.000000000000000
11
-60.4456575682382
21
11.1569538701449
31
0.000000000000000
  0
LINE
  5
F1079D
330
F1079E
100
AcDbEntity
8
Geo
100
AcDbLine
10
-60.4456575682382
20
11.1569538701449
30
0.000000000000000
11
-60.3456575682382
21
11.1110098573607
31
0.000000000000000
  0
LINE
  5
F1079F
330
F107A0
100
AcDbEntity
8
Geo
100
AcDbLine
10
-60.3456575682382
20
11.1110098573607
30
0.000000000000000
11
-60.2456575682382
21
11.0644246209410
31
0.000000000000000
  0
LINE
  5
F107A1
330
F107A2
100
AcDbEntity
8
Geo
100
AcDbLine
10
-60.2456575682382
20
11.0644246209410
30
0.000000000000000
11
-60.1456575682382
21
11.0172154141448
31
0.000000000000000
  0
LINE
  5
F107A3
330
F107A4
100
AcDbEntity
8
Geo
100
AcDbLine
10
-60.1456575682382
20
11.0172154141448
30
0.000000000000000
11
-60.0456575682382
21
10.9693997213236
31
0.000000000000000
  0
LINE
  5
F107A5
330
F107A6
100
AcDbEntity
8
Geo
100
AcDbLine
10
-60.0456575682382
20
10.9693997213236
30
0.000000000000000
11
-59.9456575682382
21
10.9209952514467
31
0.000000000000000
  0
LINE
  5
F107A7
330
F107A8
100
AcDbEntity
8
Geo
100
AcDbLine
10
-59.9456575682382
20
10.9209952514467
30
0.000000000000000
11
-59.8456575682382
21
10.8720199315424
31
0.000000000000000
  0
LINE
  5
F107A9
330
F107AA
100
AcDbEntity
8
Geo
100
AcDbLine
10
-59.8456575682382
20
10.8720199315424
30
0.000000000000000
11
-59.7456575682382
21
10.8224919000581
31
0.000000000000000
  0
LINE
  5
F107AB
330
F107AC
100
AcDbEntity
8
Geo
100
AcDbLine
10
-59.7456575682382
20
10.8224919000581
30
0.000000000000000
11
-59.6456575682382
21
10.7724295001430
31
0.000000000000000
  0
LINE
  5
F107AD
330
F107AE
100
AcDbEntity
8
Geo
100
AcDbLine
10
-59.6456575682382
20
10.7724295001430
30
0.000000000000000
11
-59.5456575682382
21
10.7218512728545
31
0.000000000000000
  0
LINE
  5
F107AF
330
F107B0
100
AcDbEntity
8
Geo
100
AcDbLine
10
-59.5456575682382
20
10.7218512728545
30
0.000000000000000
11
-59.4456575682382
21
10.6707759502911
31
0.000000000000000
  0
LINE
  5
F107B1
330
F107B2
100
AcDbEntity
8
Geo
100
AcDbLine
10
-59.4456575682382
20
10.6707759502911
30
0.000000000000000
11
-59.3456575682382
21
10.6192224486553
31
0.000000000000000
  0
LINE
  5
F107B3
330
F107B4
100
AcDbEntity
8
Geo
100
AcDbLine
10
-59.3456575682382
20
10.6192224486553
30
0.000000000000000
11
-59.2456575682382
21
10.5672098612470
31
0.000000000000000
  0
LINE
  5
F107B5
330
F107B6
100
AcDbEntity
8
Geo
100
AcDbLine
10
-59.2456575682382
20
10.5672098612470
30
0.000000000000000
11
-59.1456575682382
21
10.5147574513932
31
0.000000000000000
  0
LINE
  5
F107B7
330
F107B8
100
AcDbEntity
8
Geo
100
AcDbLine
10
-59.1456575682382
20
10.5147574513932
30
0.000000000000000
11
-59.0456575682382
21
10.4618846453126
31
0.000000000000000
  0
LINE
  5
F107B9
330
F107BA
100
AcDbEntity
8
Geo
100
AcDbLine
10
-59.0456575682382
20
10.4618846453126
30
0.000000000000000
11
-58.9456575682382
21
10.4086110249215
31
0.000000000000000
  0
LINE
  5
F107BB
330
F107BC
100
AcDbEntity
8
Geo
100
AcDbLine
10
-58.9456575682382
20
10.4086110249215
30
0.000000000000000
11
-58.8456575682382
21
10.3549563205817
31
0.000000000000000
  0
LINE
  5
F107BD
330
F107BE
100
AcDbEntity
8
Geo
100
AcDbLine
10
-58.8456575682382
20
10.3549563205817
30
0.000000000000000
11
-58.7456575682382
21
10.3009404037924
31
0.000000000000000
  0
LINE
  5
F107BF
330
F107C0
100
AcDbEntity
8
Geo
100
AcDbLine
10
-58.7456575682382
20
10.3009404037924
30
0.000000000000000
11
-58.6456575682382
21
10.2465832798312
31
0.000000000000000
  0
LINE
  5
F107C1
330
F107C2
100
AcDbEntity
8
Geo
100
AcDbLine
10
-58.6456575682382
20
10.2465832798312
30
0.000000000000000
11
-58.5456575682382
21
10.1919050803451
31
0.000000000000000
  0
LINE
  5
F107C3
330
F107C4
100
AcDbEntity
8
Geo
100
AcDbLine
10
-58.5456575682382
20
10.1919050803451
30
0.000000000000000
11
-58.4456575682382
21
10.1369260558939
31
0.000000000000000
  0
LINE
  5
F107C5
330
F107C6
100
AcDbEntity
8
Geo
100
AcDbLine
10
-58.4456575682382
20
10.1369260558939
30
0.000000000000000
11
-58.3456575682382
21
10.0816665684508
31
0.000000000000000
  0
LINE
  5
F107C7
330
F107C8
100
AcDbEntity
8
Geo
100
AcDbLine
10
-58.3456575682382
20
10.0816665684508
30
0.000000000000000
11
-58.2456575682382
21
10.0261470838610
31
0.000000000000000
  0
LINE
  5
F107C9
330
F107CA
100
AcDbEntity
8
Geo
100
AcDbLine
10
-58.2456575682382
20
10.0261470838610
30
0.000000000000000
11
-58.1456575682382
21
9.97038816426183
31
0.000000000000000
  0
LINE
  5
F107CB
330
F107CC
100
AcDbEntity
8
Geo
100
AcDbLine
10
-58.1456575682382
20
9.97038816426183
30
0.000000000000000
11
-58.0456575682382
21
9.91441046046772
31
0.000000000000000
  0
LINE
  5
F107CD
330
F107CE
100
AcDbEntity
8
Geo
100
AcDbLine
10
-58.0456575682382
20
9.91441046046772
30
0.000000000000000
11
-57.9456575682382
21
9.85823470432164
31
0.000000000000000
  0
LINE
  5
F107CF
330
F107D0
100
AcDbEntity
8
Geo
100
AcDbLine
10
-57.9456575682382
20
9.85823470432164
30
0.000000000000000
11
-57.8456575682382
21
9.80188170101704
31
0.000000000000000
  0
LINE
  5
F107D1
330
F107D2
100
AcDbEntity
8
Geo
100
AcDbLine
10
-57.8456575682382
20
9.80188170101704
30
0.000000000000000
11
-57.7456575682382
21
9.74537232139245
31
0.000000000000000
  0
LINE
  5
F107D3
330
F107D4
100
AcDbEntity
8
Geo
100
AcDbLine
10
-57.7456575682382
20
9.74537232139245
30
0.000000000000000
11
-57.6456575682382
21
9.68872749420178
31
0.000000000000000
  0
LINE
  5
F107D5
330
F107D6
100
AcDbEntity
8
Geo
100
AcDbLine
10
-57.6456575682382
20
9.68872749420178
30
0.000000000000000
11
-57.5456575682382
21
9.63196819836315
31
0.000000000000000
  0
LINE
  5
F107D7
330
F107D8
100
AcDbEntity
8
Geo
100
AcDbLine
10
-57.5456575682382
20
9.63196819836315
30
0.000000000000000
11
-57.4456575682382
21
9.57511545518915
31
0.000000000000000
  0
LINE
  5
F107D9
330
F107DA
100
AcDbEntity
8
Geo
100
AcDbLine
10
-57.4456575682382
20
9.57511545518915
30
0.000000000000000
11
-57.3456575682382
21
9.51819032060144
31
0.000000000000000
  0
LINE
  5
F107DB
330
F107DC
100
AcDbEntity
8
Geo
100
AcDbLine
10
-57.3456575682382
20
9.51819032060144
30
0.000000000000000
11
-57.2456575682382
21
9.46121387733250
31
0.000000000000000
  0
LINE
  5
F107DD
330
F107DE
100
AcDbEntity
8
Geo
100
AcDbLine
10
-57.2456575682382
20
9.46121387733250
30
0.000000000000000
11
-57.1456575682382
21
9.40420722711742
31
0.000000000000000
  0
LINE
  5
F107DF
330
F107E0
100
AcDbEntity
8
Geo
100
AcDbLine
10
-57.1456575682382
20
9.40420722711742
30
0.000000000000000
11
-57.0456575682382
21
9.34719148287870
31
0.000000000000000
  0
LINE
  5
F107E1
330
F107E2
100
AcDbEntity
8
Geo
100
AcDbLine
10
-57.0456575682382
20
9.34719148287870
30
0.000000000000000
11
-56.9456575682382
21
9.29018776090691
31
0.000000000000000
  0
LINE
  5
F107E3
330
F107E4
100
AcDbEntity
8
Geo
100
AcDbLine
10
-56.9456575682382
20
9.29018776090691
30
0.000000000000000
11
-56.8456575682382
21
9.23321717304006
31
0.000000000000000
  0
LINE
  5
F107E5
330
F107E6
100
AcDbEntity
8
Geo
100
AcDbLine
10
-56.8456575682382
20
9.23321717304006
30
0.000000000000000
11
-56.7456575682382
21
9.17630081884464
31
0.000000000000000
  0
LINE
  5
F107E7
330
F107E8
100
AcDbEntity
8
Geo
100
AcDbLine
10
-56.7456575682382
20
9.17630081884464
30
0.000000000000000
11
-56.6456575682382
21
9.11945977780122
31
0.000000000000000
  0
LINE
  5
F107E9
330
F107EA
100
AcDbEntity
8
Geo
100
AcDbLine
10
-56.6456575682382
20
9.11945977780122
30
0.000000000000000
11
-56.5456575682382
21
9.06271510149747
31
0.000000000000000
  0
LINE
  5
F107EB
330
F107EC
100
AcDbEntity
8
Geo
100
AcDbLine
10
-56.5456575682382
20
9.06271510149747
30
0.000000000000000
11
-56.4456575682382
21
9.00608780583153
31
0.000000000000000
  0
LINE
  5
F107ED
330
F107EE
100
AcDbEntity
8
Geo
100
AcDbLine
10
-56.4456575682382
20
9.00608780583153
30
0.000000000000000
11
-56.3456575682382
21
8.94959886322854
31
0.000000000000000
  0
LINE
  5
F107EF
330
F107F0
100
AcDbEntity
8
Geo
100
AcDbLine
10
-56.3456575682382
20
8.94959886322854
30
0.000000000000000
11
-56.2456575682382
21
8.89326919487337
31
0.000000000000000
  0
LINE
  5
F107F1
330
F107F2
100
AcDbEntity
8
Geo
100
AcDbLine
10
-56.2456575682382
20
8.89326919487337
30
0.000000000000000
11
-56.1456575682382
21
8.83711966296226
31
0.000000000000000
  0
LINE
  5
F107F3
330
F107F4
100
AcDbEntity
8
Geo
100
AcDbLine
10
-56.1456575682382
20
8.83711966296226
30
0.000000000000000
11
-56.0456575682382
21
8.78117106297628
31
0.000000000000000
  0
LINE
  5
F107F5
330
F107F6
100
AcDbEntity
8
Geo
100
AcDbLine
10
-56.0456575682382
20
8.78117106297628
30
0.000000000000000
11
-55.9456575682382
21
8.72544411597959
31
0.000000000000000
  0
LINE
  5
F107F7
330
F107F8
100
AcDbEntity
8
Geo
100
AcDbLine
10
-55.9456575682382
20
8.72544411597959
30
0.000000000000000
11
-55.8456575682382
21
8.66995946094515
31
0.000000000000000
  0
LINE
  5
F107F9
330
F107FA
100
AcDbEntity
8
Geo
100
AcDbLine
10
-55.8456575682382
20
8.66995946094515
30
0.000000000000000
11
-55.7456575682382
21
8.61473764711097
31
0.000000000000000
  0
LINE
  5
F107FB
330
F107FC
100
AcDbEntity
8
Geo
100
AcDbLine
10
-55.7456575682382
20
8.61473764711097
30
0.000000000000000
11
-55.6456575682382
21
8.55979912636943
31
0.000000000000000
  0
LINE
  5
F107FD
330
F107FE
100
AcDbEntity
8
Geo
100
AcDbLine
10
-55.6456575682382
20
8.55979912636943
30
0.000000000000000
11
-55.5456575682382
21
8.50516424569282
31
0.000000000000000
  0
LINE
  5
F107FF
330
F10800
100
AcDbEntity
8
Geo
100
AcDbLine
10
-55.5456575682382
20
8.50516424569282
30
0.000000000000000
11
-55.4456575682382
21
8.45085323959758
31
0.000000000000000
  0
LINE
  5
F10801
330
F10802
100
AcDbEntity
8
Geo
100
AcDbLine
10
-55.4456575682382
20
8.45085323959758
30
0.000000000000000
11
-55.3456575682382
21
8.39688622265033
31
0.000000000000000
  0
LINE
  5
F10803
330
F10804
100
AcDbEntity
8
Geo
100
AcDbLine
10
-55.3456575682382
20
8.39688622265033
30
0.000000000000000
11
-55.2456575682382
21
8.34328318201822
31
0.000000000000000
  0
LINE
  5
F10805
330
F10806
100
AcDbEntity
8
Geo
100
AcDbLine
10
-55.2456575682382
20
8.34328318201822
30
0.000000000000000
11
-55.1456575682382
21
8.29006397006653
31
0.000000000000000
  0
LINE
  5
F10807
330
F10808
100
AcDbEntity
8
Geo
100
AcDbLine
10
-55.1456575682382
20
8.29006397006653
30
0.000000000000000
11
-55.0456575682382
21
8.23724829700615
31
0.000000000000000
  0
LINE
  5
F10809
330
F1080A
100
AcDbEntity
8
Geo
100
AcDbLine
10
-55.0456575682382
20
8.23724829700615
30
0.000000000000000
11
-54.9456575682382
21
8.18485572359373
31
0.000000000000000
  0
LINE
  5
F1080B
330
F1080C
100
AcDbEntity
8
Geo
100
AcDbLine
10
-54.9456575682382
20
8.18485572359373
30
0.000000000000000
11
-54.8456575682382
21
8.13290565388718
31
0.000000000000000
  0
LINE
  5
F1080D
330
F1080E
100
AcDbEntity
8
Geo
100
AcDbLine
10
-54.8456575682382
20
8.13290565388718
30
0.000000000000000
11
-54.7456575682382
21
8.08141732805923
31
0.000000000000000
  0
LINE
  5
F1080F
330
F10810
100
AcDbEntity
8
Geo
100
AcDbLine
10
-54.7456575682382
20
8.08141732805923
30
0.000000000000000
11
-54.6456575682382
21
8.03040981527162
31
0.000000000000000
  0
LINE
  5
F10811
330
F10812
100
AcDbEntity
8
Geo
100
AcDbLine
10
-54.6456575682382
20
8.03040981527162
30
0.000000000000000
11
-54.5456575682382
21
7.97990200661267
31
0.000000000000000
  0
LINE
  5
F10813
330
F10814
100
AcDbEntity
8
Geo
100
AcDbLine
10
-54.5456575682382
20
7.97990200661267
30
0.000000000000000
11
-54.4456575682382
21
7.92991260810084
31
0.000000000000000
  0
LINE
  5
F10815
330
F10816
100
AcDbEntity
8
Geo
100
AcDbLine
10
-54.4456575682382
20
7.92991260810084
30
0.000000000000000
11
-54.3456575682382
21
7.88046013375673
31
0.000000000000000
  0
LINE
  5
F10817
330
F10818
100
AcDbEntity
8
Geo
100
AcDbLine
10
-54.3456575682382
20
7.88046013375673
30
0.000000000000000
11
-54.2456575682382
21
7.83156289874628
31
0.000000000000000
  0
LINE
  5
F10819
330
F1081A
100
AcDbEntity
8
Geo
100
AcDbLine
10
-54.2456575682382
20
7.83156289874628
30
0.000000000000000
11
-54.1456575682382
21
7.78323901259760
31
0.000000000000000
  0
LINE
  5
F1081B
330
F1081C
100
AcDbEntity
8
Geo
100
AcDbLine
10
-54.1456575682382
20
7.78323901259760
30
0.000000000000000
11
-54.0456575682382
21
7.73550637249389
31
0.000000000000000
  0
LINE
  5
F1081D
330
F1081E
100
AcDbEntity
8
Geo
100
AcDbLine
10
-54.0456575682382
20
7.73550637249389
30
0.000000000000000
11
-53.9456575682382
21
7.68838265664513
31
0.000000000000000
  0
LINE
  5
F1081F
330
F10820
100
AcDbEntity
8
Geo
100
AcDbLine
10
-53.9456575682382
20
7.68838265664513
30
0.000000000000000
11
-53.8456575682382
21
7.64188531774072
31
0.000000000000000
  0
LINE
  5
F10821
330
F10822
100
AcDbEntity
8
Geo
100
AcDbLine
10
-53.8456575682382
20
7.64188531774072
30
0.000000000000000
11
-53.7456575682382
21
7.59603157648580
31
0.000000000000000
  0
LINE
  5
F10823
330
F10824
100
AcDbEntity
8
Geo
100
AcDbLine
10
-53.7456575682382
20
7.59603157648580
30
0.000000000000000
11
-53.6456575682382
21
7.55083841522332
31
0.000000000000000
  0
LINE
  5
F10825
330
F10826
100
AcDbEntity
8
Geo
100
AcDbLine
10
-53.6456575682382
20
7.55083841522332
30
0.000000000000000
11
-53.5456575682382
21
7.50632257164457
31
0.000000000000000
  0
LINE
  5
F10827
330
F10828
100
AcDbEntity
8
Geo
100
AcDbLine
10
-53.5456575682382
20
7.50632257164457
30
0.000000000000000
11
-53.4456575682382
21
7.46250053259015
31
0.000000000000000
  0
LINE
  5
F10829
330
F1082A
100
AcDbEntity
8
Geo
100
AcDbLine
10
-53.4456575682382
20
7.46250053259015
30
0.000000000000000
11
-53.3456575682382
21
7.41938852794396
31
0.000000000000000
  0
LINE
  5
F1082B
330
F1082C
100
AcDbEntity
8
Geo
100
AcDbLine
10
-53.3456575682382
20
7.41938852794396
30
0.000000000000000
11
-53.2456575682382
21
7.37700252462233
31
0.000000000000000
  0
LINE
  5
F1082D
330
F1082E
100
AcDbEntity
8
Geo
100
AcDbLine
10
-53.2456575682382
20
7.37700252462233
30
0.000000000000000
11
-53.1456575682382
21
7.33535822066048
31
0.000000000000000
  0
LINE
  5
F1082F
330
F10830
100
AcDbEntity
8
Geo
100
AcDbLine
10
-53.1456575682382
20
7.33535822066048
30
0.000000000000000
11
-53.0456575682382
21
7.29447103939865
31
0.000000000000000
  0
LINE
  5
F10831
330
F10832
100
AcDbEntity
8
Geo
100
AcDbLine
10
-53.0456575682382
20
7.29447103939865
30
0.000000000000000
11
-52.9456575682382
21
7.25435612376994
31
0.000000000000000
  0
LINE
  5
F10833
330
F10834
100
AcDbEntity
8
Geo
100
AcDbLine
10
-52.9456575682382
20
7.25435612376994
30
0.000000000000000
11
-52.8456575682382
21
7.21502833069194
31
0.000000000000000
  0
LINE
  5
F10835
330
F10836
100
AcDbEntity
8
Geo
100
AcDbLine
10
-52.8456575682382
20
7.21502833069194
30
0.000000000000000
11
-52.7456575682382
21
7.17650222556438
31
0.000000000000000
  0
LINE
  5
F10837
330
F10838
100
AcDbEntity
8
Geo
100
AcDbLine
10
-52.7456575682382
20
7.17650222556438
30
0.000000000000000
11
-52.6456575682382
21
7.13879207687470
31
0.000000000000000
  0
LINE
  5
F10839
330
F1083A
100
AcDbEntity
8
Geo
100
AcDbLine
10
-52.6456575682382
20
7.13879207687470
30
0.000000000000000
11
-52.5456575682382
21
7.10191185091357
31
0.000000000000000
  0
LINE
  5
F1083B
330
F1083C
100
AcDbEntity
8
Geo
100
AcDbLine
10
-52.5456575682382
20
7.10191185091357
30
0.000000000000000
11
-52.4456575682382
21
7.06587520660235
31
0.000000000000000
  0
LINE
  5
F1083D
330
F1083E
100
AcDbEntity
8
Geo
100
AcDbLine
10
-52.4456575682382
20
7.06587520660235
30
0.000000000000000
11
-52.3456575682382
21
7.03069549043442
31
0.000000000000000
  0
LINE
  5
F1083F
330
F10840
100
AcDbEntity
8
Geo
100
AcDbLine
10
-52.3456575682382
20
7.03069549043442
30
0.000000000000000
11
-52.2456575682382
21
6.99638573153212
31
0.000000000000000
  0
LINE
  5
F10841
330
F10842
100
AcDbEntity
8
Geo
100
AcDbLine
10
-52.2456575682382
20
6.99638573153212
30
0.000000000000000
11
-52.1456575682382
21
6.96295863682140
31
0.000000000000000
  0
LINE
  5
F10843
330
F10844
100
AcDbEntity
8
Geo
100
AcDbLine
10
-52.1456575682382
20
6.96295863682140
30
0.000000000000000
11
-52.0456575682382
21
6.93042658632557
31
0.000000000000000
  0
LINE
  5
F10845
330
F10846
100
AcDbEntity
8
Geo
100
AcDbLine
10
-52.0456575682382
20
6.93042658632557
30
0.000000000000000
11
-51.9456575682382
21
6.89880162858036
31
0.000000000000000
  0
LINE
  5
F10847
330
F10848
100
AcDbEntity
8
Geo
100
AcDbLine
10
-51.9456575682382
20
6.89880162858036
30
0.000000000000000
11
-51.8456575682382
21
6.86809547617158
31
0.000000000000000
  0
LINE
  5
F10849
330
F1084A
100
AcDbEntity
8
Geo
100
AcDbLine
10
-51.8456575682382
20
6.86809547617158
30
0.000000000000000
11
-51.7456575682382
21
6.83831950139726
31
0.000000000000000
  0
LINE
  5
F1084B
330
F1084C
100
AcDbEntity
8
Geo
100
AcDbLine
10
-51.7456575682382
20
6.83831950139726
30
0.000000000000000
11
-51.6456575682382
21
6.80948473205584
31
0.000000000000000
  0
LINE
  5
F1084D
330
F1084E
100
AcDbEntity
8
Geo
100
AcDbLine
10
-51.6456575682382
20
6.80948473205584
30
0.000000000000000
11
-51.5456575682382
21
6.78160184736190
31
0.000000000000000
  0
LINE
  5
F1084F
330
F10850
100
AcDbEntity
8
Geo
100
AcDbLine
10
-51.5456575682382
20
6.78160184736190
30
0.000000000000000
11
-51.4456575682382
21
6.75468117399105
31
0.000000000000000
  0
LINE
  5
F10851
330
F10852
100
AcDbEntity
8
Geo
100
AcDbLine
10
-51.4456575682382
20
6.75468117399105
30
0.000000000000000
11
-51.3456575682382
21
6.72873268225533
31
0.000000000000000
  0
LINE
  5
F10853
330
F10854
100
AcDbEntity
8
Geo
100
AcDbLine
10
-51.3456575682382
20
6.72873268225533
30
0.000000000000000
11
-51.2456575682382
21
6.70376598241060
31
0.000000000000000
  0
LINE
  5
F10855
330
F10856
100
AcDbEntity
8
Geo
100
AcDbLine
10
-51.2456575682382
20
6.70376598241060
30
0.000000000000000
11
-51.1456575682382
21
6.67979032109735
31
0.000000000000000
  0
LINE
  5
F10857
330
F10858
100
AcDbEntity
8
Geo
100
AcDbLine
10
-51.1456575682382
20
6.67979032109735
30
0.000000000000000
11
-51.0456575682382
21
6.65681457791606
31
0.000000000000000
  0
LINE
  5
F10859
330
F1085A
100
AcDbEntity
8
Geo
100
AcDbLine
10
-51.0456575682382
20
6.65681457791606
30
0.000000000000000
11
-50.9456575682382
21
6.63484726213861
31
0.000000000000000
  0
LINE
  5
F1085B
330
F1085C
100
AcDbEntity
8
Geo
100
AcDbLine
10
-50.9456575682382
20
6.63484726213861
30
0.000000000000000
11
-50.8456575682383
21
6.61389650955678
31
0.000000000000000
  0
LINE
  5
F1085D
330
F1085E
100
AcDbEntity
8
Geo
100
AcDbLine
10
-50.8456575682383
20
6.61389650955678
30
0.000000000000000
11
-50.7456575682383
21
6.59397007946906
31
0.000000000000000
  0
LINE
  5
F1085F
330
F10860
100
AcDbEntity
8
Geo
100
AcDbLine
10
-50.7456575682383
20
6.59397007946906
30
0.000000000000000
11
-50.6456575682382
21
6.57507535180696
31
0.000000000000000
  0
LINE
  5
F10861
330
F10862
100
AcDbEntity
8
Geo
100
AcDbLine
10
-50.6456575682382
20
6.57507535180696
30
0.000000000000000
11
-50.5456575682382
21
6.55721932440180
31
0.000000000000000
  0
LINE
  5
F10863
330
F10864
100
AcDbEntity
8
Geo
100
AcDbLine
10
-50.5456575682382
20
6.55721932440180
30
0.000000000000000
11
-50.4456575682382
21
6.54040861039292
31
0.000000000000000
  0
LINE
  5
F10865
330
F10866
100
AcDbEntity
8
Geo
100
AcDbLine
10
-50.4456575682382
20
6.54040861039292
30
0.000000000000000
11
-50.3456575682383
21
6.52464943577855
31
0.000000000000000
  0
LINE
  5
F10867
330
F10868
100
AcDbEntity
8
Geo
100
AcDbLine
10
-50.3456575682383
20
6.52464943577855
30
0.000000000000000
11
-50.2456575682383
21
6.50994763710988
31
0.000000000000000
  0
LINE
  5
F10869
330
F1086A
100
AcDbEntity
8
Geo
100
AcDbLine
10
-50.2456575682383
20
6.50994763710988
30
0.000000000000000
11
-50.1456575682382
21
6.49630865932947
31
0.000000000000000
  0
LINE
  5
F1086B
330
F1086C
100
AcDbEntity
8
Geo
100
AcDbLine
10
-50.1456575682382
20
6.49630865932947
30
0.000000000000000
11
-50.0456575682383
21
6.48373755375466
31
0.000000000000000
  0
LINE
  5
F1086D
330
F1086E
100
AcDbEntity
8
Geo
100
AcDbLine
10
-50.0456575682383
20
6.48373755375466
30
0.000000000000000
11
-49.9456575682383
21
6.47223897620679
31
0.000000000000000
  0
LINE
  5
F1086F
330
F10870
100
AcDbEntity
8
Geo
100
AcDbLine
10
-49.9456575682383
20
6.47223897620679
30
0.000000000000000
11
-49.8456575682383
21
6.46181718528683
31
0.000000000000000
  0
LINE
  5
F10871
330
F10872
100
AcDbEntity
8
Geo
100
AcDbLine
10
-49.8456575682383
20
6.46181718528683
30
0.000000000000000
11
-49.7456575682383
21
6.45247604079821
31
0.000000000000000
  0
LINE
  5
F10873
330
F10874
100
AcDbEntity
8
Geo
100
AcDbLine
10
-49.7456575682383
20
6.45247604079821
30
0.000000000000000
11
-49.6456575682382
21
6.44421900231731
31
0.000000000000000
  0
LINE
  5
F10875
330
F10876
100
AcDbEntity
8
Geo
100
AcDbLine
10
-49.6456575682382
20
6.44421900231731
30
0.000000000000000
11
-49.5456575682383
21
6.43704912791213
31
0.000000000000000
  0
LINE
  5
F10877
330
F10878
100
AcDbEntity
8
Geo
100
AcDbLine
10
-49.5456575682383
20
6.43704912791213
30
0.000000000000000
11
-49.4456575682383
21
6.43096907300976
31
0.000000000000000
  0
LINE
  5
F10879
330
F1087A
100
AcDbEntity
8
Geo
100
AcDbLine
10
-49.4456575682383
20
6.43096907300976
30
0.000000000000000
11
-49.3456575682383
21
6.42598108941288
31
0.000000000000000
  0
LINE
  5
F1087B
330
F1087C
100
AcDbEntity
8
Geo
100
AcDbLine
10
-49.3456575682383
20
6.42598108941288
30
0.000000000000000
11
-49.2456575682383
21
6.42208702446580
31
0.000000000000000
  0
LINE
  5
F1087D
330
F1087E
100
AcDbEntity
8
Geo
100
AcDbLine
10
-49.2456575682383
20
6.42208702446580
30
0.000000000000000
11
-49.1456575682383
21
6.41928832037028
31
0.000000000000000
  0
LINE
  5
F1087F
330
F10880
100
AcDbEntity
8
Geo
100
AcDbLine
10
-49.1456575682383
20
6.41928832037028
30
0.000000000000000
11
-49.0456575682383
21
6.41758601365142
31
0.000000000000000
  0
LINE
  5
F10881
330
F10882
100
AcDbEntity
8
Geo
100
AcDbLine
10
-49.0456575682383
20
6.41758601365142
30
0.000000000000000
11
-48.9456575682383
21
6.41698073477371
31
0.000000000000000
  0
LINE
  5
F10883
330
F10884
100
AcDbEntity
8
Geo
100
AcDbLine
10
-48.8456575682383
20
12.3418325030105
30
0.000000000000000
11
-48.7456575682383
21
12.3402434600717
31
0.000000000000000
  0
LINE
  5
F10885
330
F10886
100
AcDbEntity
8
Geo
100
AcDbLine
10
-48.7456575682383
20
12.3402434600717
30
0.000000000000000
11
-48.6456575682383
21
12.3375579358441
31
0.000000000000000
  0
LINE
  5
F10887
330
F10888
100
AcDbEntity
8
Geo
100
AcDbLine
10
-48.6456575682383
20
12.3375579358441
30
0.000000000000000
11
-48.5456575682383
21
12.3337769249358
31
0.000000000000000
  0
LINE
  5
F10889
330
F1088A
100
AcDbEntity
8
Geo
100
AcDbLine
10
-48.5456575682383
20
12.3337769249358
30
0.000000000000000
11
-48.4456575682383
21
12.3289018276779
31
0.000000000000000
  0
LINE
  5
F1088B
330
F1088C
100
AcDbEntity
8
Geo
100
AcDbLine
10
-48.4456575682383
20
12.3289018276779
30
0.000000000000000
11
-48.3456575682383
21
12.3229344496062
31
0.000000000000000
  0
LINE
  5
F1088D
330
F1088E
100
AcDbEntity
8
Geo
100
AcDbLine
10
-48.3456575682383
20
12.3229344496062
30
0.000000000000000
11
-48.2456575682383
21
12.3158770007925
31
0.000000000000000
  0
LINE
  5
F1088F
330
F10890
100
AcDbEntity
8
Geo
100
AcDbLine
10
-48.2456575682383
20
12.3158770007925
30
0.000000000000000
11
-48.1456575682382
21
12.3077320950262
31
0.000000000000000
  0
LINE
  5
F10891
330
F10892
100
AcDbEntity
8
Geo
100
AcDbLine
10
-48.1456575682382
20
12.3077320950262
30
0.000000000000000
11
-48.0456575682382
21
12.2985027488459
31
0.000000000000000
  0
LINE
  5
F10893
330
F10894
100
AcDbEntity
8
Geo
100
AcDbLine
10
-48.0456575682382
20
12.2985027488459
30
0.000000000000000
11
-47.9456575682382
21
12.2881923804224
31
0.000000000000000
  0
LINE
  5
F10895
330
F10896
100
AcDbEntity
8
Geo
100
AcDbLine
10
-47.9456575682382
20
12.2881923804224
30
0.000000000000000
11
-47.8456575682382
21
12.2768048082929
31
0.000000000000000
  0
LINE
  5
F10897
330
F10898
100
AcDbEntity
8
Geo
100
AcDbLine
10
-47.8456575682382
20
12.2768048082929
30
0.000000000000000
11
-47.7456575682382
21
12.2643442499464
31
0.000000000000000
  0
LINE
  5
F10899
330
F1089A
100
AcDbEntity
8
Geo
100
AcDbLine
10
-47.7456575682382
20
12.2643442499464
30
0.000000000000000
11
-47.6456575682382
21
12.2508153202622
31
0.000000000000000
  0
LINE
  5
F1089B
330
F1089C
100
AcDbEntity
8
Geo
100
AcDbLine
10
-47.6456575682382
20
12.2508153202622
30
0.000000000000000
11
-47.5456575682382
21
12.2362230298003
31
0.000000000000000
  0
LINE
  5
F1089D
330
F1089E
100
AcDbEntity
8
Geo
100
AcDbLine
10
-47.5456575682382
20
12.2362230298003
30
0.000000000000000
11
-47.4456575682382
21
12.2205727829460
31
0.000000000000000
  0
LINE
  5
F1089F
330
F108A0
100
AcDbEntity
8
Geo
100
AcDbLine
10
-47.4456575682382
20
12.2205727829460
30
0.000000000000000
11
-47.3456575682382
21
12.2038703759080
31
0.000000000000000
  0
LINE
  5
F108A1
330
F108A2
100
AcDbEntity
8
Geo
100
AcDbLine
10
-47.3456575682382
20
12.2038703759080
30
0.000000000000000
11
-47.2456575682382
21
12.1861219945721
31
0.000000000000000
  0
LINE
  5
F108A3
330
F108A4
100
AcDbEntity
8
Geo
100
AcDbLine
10
-47.2456575682382
20
12.1861219945721
30
0.000000000000000
11
-47.1456575682382
21
12.1673342122100
31
0.000000000000000
  0
LINE
  5
F108A5
330
F108A6
100
AcDbEntity
8
Geo
100
AcDbLine
10
-47.1456575682382
20
12.1673342122100
30
0.000000000000000
11
-47.0456575682382
21
12.1475139870448
31
0.000000000000000
  0
LINE
  5
F108A7
330
F108A8
100
AcDbEntity
8
Geo
100
AcDbLine
10
-47.0456575682382
20
12.1475139870448
30
0.000000000000000
11
-46.9456575682382
21
12.1266686596742
31
0.000000000000000
  0
LINE
  5
F108A9
330
F108AA
100
AcDbEntity
8
Geo
100
AcDbLine
10
-46.9456575682382
20
12.1266686596742
30
0.000000000000000
11
-46.8456575682382
21
12.1048059503514
31
0.000000000000000
  0
LINE
  5
F108AB
330
F108AC
100
AcDbEntity
8
Geo
100
AcDbLine
10
-46.8456575682382
20
12.1048059503514
30
0.000000000000000
11
-46.7456575682382
21
12.0819339561262
31
0.000000000000000
  0
LINE
  5
F108AD
330
F108AE
100
AcDbEntity
8
Geo
100
AcDbLine
10
-46.7456575682382
20
12.0819339561262
30
0.000000000000000
11
-46.6456575682382
21
12.0580611478463
31
0.000000000000000
  0
LINE
  5
F108AF
330
F108B0
100
AcDbEntity
8
Geo
100
AcDbLine
10
-46.6456575682382
20
12.0580611478463
30
0.000000000000000
11
-46.5456575682382
21
12.0331963670196
31
0.000000000000000
  0
LINE
  5
F108B1
330
F108B2
100
AcDbEntity
8
Geo
100
AcDbLine
10
-46.5456575682382
20
12.0331963670196
30
0.000000000000000
11
-46.4456575682382
21
12.0073488225398
31
0.000000000000000
  0
LINE
  5
F108B3
330
F108B4
100
AcDbEntity
8
Geo
100
AcDbLine
10
-46.4456575682382
20
12.0073488225398
30
0.000000000000000
11
-46.3456575682382
21
11.9805280872762
31
0.000000000000000
  0
LINE
  5
F108B5
330
F108B6
100
AcDbEntity
8
Geo
100
AcDbLine
10
-46.3456575682382
20
11.9805280872762
30
0.000000000000000
11
-46.2456575682382
21
11.9527440945279
31
0.000000000000000
  0
LINE
  5
F108B7
330
F108B8
100
AcDbEntity
8
Geo
100
AcDbLine
10
-46.2456575682382
20
11.9527440945279
30
0.000000000000000
11
-46.1456575682382
21
11.9240071343448
31
0.000000000000000
  0
LINE
  5
F108B9
330
F108BA
100
AcDbEntity
8
Geo
100
AcDbLine
10
-46.1456575682382
20
11.9240071343448
30
0.000000000000000
11
-46.0456575682382
21
11.8943278497172
31
0.000000000000000
  0
LINE
  5
F108BB
330
F108BC
100
AcDbEntity
8
Geo
100
AcDbLine
10
-46.0456575682382
20
11.8943278497172
30
0.000000000000000
11
-45.9456575682382
21
11.8637172326334
31
0.000000000000000
  0
LINE
  5
F108BD
330
F108BE
100
AcDbEntity
8
Geo
100
AcDbLine
10
-45.9456575682382
20
11.8637172326334
30
0.000000000000000
11
-45.8456575682382
21
11.8321866200090
31
0.000000000000000
  0
LINE
  5
F108BF
330
F108C0
100
AcDbEntity
8
Geo
100
AcDbLine
10
-45.8456575682382
20
11.8321866200090
30
0.000000000000000
11
-45.7456575682382
21
11.7997476894883
31
0.000000000000000
  0
LINE
  5
F108C1
330
F108C2
100
AcDbEntity
8
Geo
100
AcDbLine
10
-45.7456575682382
20
11.7997476894883
30
0.000000000000000
11
-45.6456575682382
21
11.7664124551193
31
0.000000000000000
  0
LINE
  5
F108C3
330
F108C4
100
AcDbEntity
8
Geo
100
AcDbLine
10
-45.6456575682382
20
11.7664124551193
30
0.000000000000000
11
-45.5456575682382
21
11.7321932629038
31
0.000000000000000
  0
LINE
  5
F108C5
330
F108C6
100
AcDbEntity
8
Geo
100
AcDbLine
10
-45.5456575682382
20
11.7321932629038
30
0.000000000000000
11
-45.4456575682382
21
11.6971027862258
31
0.000000000000000
  0
LINE
  5
F108C7
330
F108C8
100
AcDbEntity
8
Geo
100
AcDbLine
10
-45.4456575682382
20
11.6971027862258
30
0.000000000000000
11
-45.3456575682382
21
11.6611540211569
31
0.000000000000000
  0
LINE
  5
F108C9
330
F108CA
100
AcDbEntity
8
Geo
100
AcDbLine
10
-45.3456575682382
20
11.6611540211569
30
0.000000000000000
11
-45.2456575682382
21
11.6243602816436
31
0.000000000000000
  0
LINE
  5
F108CB
330
F108CC
100
AcDbEntity
8
Geo
100
AcDbLine
10
-45.2456575682382
20
11.6243602816436
30
0.000000000000000
11
-45.1456575682382
21
11.5867351945762
31
0.000000000000000
  0
LINE
  5
F108CD
330
F108CE
100
AcDbEntity
8
Geo
100
AcDbLine
10
-45.1456575682382
20
11.5867351945762
30
0.000000000000000
11
-45.0456575682382
21
11.5482926947421
31
0.000000000000000
  0
LINE
  5
F108CF
330
F108D0
100
AcDbEntity
8
Geo
100
AcDbLine
10
-45.0456575682382
20
11.5482926947421
30
0.000000000000000
11
-44.9456575682382
21
11.5090470196648
31
0.000000000000000
  0
LINE
  5
F108D1
330
F108D2
100
AcDbEntity
8
Geo
100
AcDbLine
10
-44.9456575682382
20
11.5090470196648
30
0.000000000000000
11
-44.8456575682382
21
11.4690127043308
31
0.000000000000000
  0
LINE
  5
F108D3
330
F108D4
100
AcDbEntity
8
Geo
100
AcDbLine
10
-44.8456575682382
20
11.4690127043308
30
0.000000000000000
11
-44.7456575682382
21
11.4282045758067
31
0.000000000000000
  0
LINE
  5
F108D5
330
F108D6
100
AcDbEntity
8
Geo
100
AcDbLine
10
-44.7456575682382
20
11.4282045758067
30
0.000000000000000
11
-44.6456575682382
21
11.3866377477478
31
0.000000000000000
  0
LINE
  5
F108D7
330
F108D8
100
AcDbEntity
8
Geo
100
AcDbLine
10
-44.6456575682382
20
11.3866377477478
30
0.000000000000000
11
-44.5456575682382
21
11.3443276148003
31
0.000000000000000
  0
LINE
  5
F108D9
330
F108DA
100
AcDbEntity
8
Geo
100
AcDbLine
10
-44.5456575682382
20
11.3443276148003
30
0.000000000000000
11
-44.4456575682382
21
11.3012898469002
31
0.000000000000000
  0
LINE
  5
F108DB
330
F108DC
100
AcDbEntity
8
Geo
100
AcDbLine
10
-44.4456575682382
20
11.3012898469002
30
0.000000000000000
11
-44.3456575682382
21
11.2575403834696
31
0.000000000000000
  0
LINE
  5
F108DD
330
F108DE
100
AcDbEntity
8
Geo
100
AcDbLine
10
-44.3456575682382
20
11.2575403834696
30
0.000000000000000
11
-44.2456575682382
21
11.2130954275133
31
0.000000000000000
  0
LINE
  5
F108DF
330
F108E0
100
AcDbEntity
8
Geo
100
AcDbLine
10
-44.2456575682382
20
11.2130954275133
30
0.000000000000000
11
-44.1456575682382
21
11.1679714396182
31
0.000000000000000
  0
LINE
  5
F108E1
330
F108E2
100
AcDbEntity
8
Geo
100
AcDbLine
10
-44.1456575682382
20
11.1679714396182
30
0.000000000000000
11
-44.0456575682382
21
11.1221851318564
31
0.000000000000000
  0
LINE
  5
F108E3
330
F108E4
100
AcDbEntity
8
Geo
100
AcDbLine
10
-44.0456575682382
20
11.1221851318564
30
0.000000000000000
11
-43.9456575682382
21
11.0757534615965
31
0.000000000000000
  0
LINE
  5
F108E5
330
F108E6
100
AcDbEntity
8
Geo
100
AcDbLine
10
-43.9456575682382
20
11.0757534615965
30
0.000000000000000
11
-43.8456575682382
21
11.0286936252225
31
0.000000000000000
  0
LINE
  5
F108E7
330
F108E8
100
AcDbEntity
8
Geo
100
AcDbLine
10
-43.8456575682382
20
11.0286936252225
30
0.000000000000000
11
-43.7456575682382
21
10.9810230517654
31
0.000000000000000
  0
LINE
  5
F108E9
330
F108EA
100
AcDbEntity
8
Geo
100
AcDbLine
10
-43.7456575682382
20
10.9810230517654
30
0.000000000000000
11
-43.6456575682382
21
10.9327593964485
31
0.000000000000000
  0
LINE
  5
F108EB
330
F108EC
100
AcDbEntity
8
Geo
100
AcDbLine
10
-43.6456575682382
20
10.9327593964485
30
0.000000000000000
11
-43.5456575682382
21
10.8839205341477
31
0.000000000000000
  0
LINE
  5
F108ED
330
F108EE
100
AcDbEntity
8
Geo
100
AcDbLine
10
-43.5456575682382
20
10.8839205341477
30
0.000000000000000
11
-43.4456575682382
21
10.8345245527724
31
0.000000000000000
  0
LINE
  5
F108EF
330
F108F0
100
AcDbEntity
8
Geo
100
AcDbLine
10
-43.4456575682382
20
10.8345245527724
30
0.000000000000000
11
-43.3456575682382
21
10.7845897465659
31
0.000000000000000
  0
LINE
  5
F108F1
330
F108F2
100
AcDbEntity
8
Geo
100
AcDbLine
10
-43.3456575682382
20
10.7845897465659
30
0.000000000000000
11
-43.2456575682382
21
10.7341346093299
31
0.000000000000000
  0
LINE
  5
F108F3
330
F108F4
100
AcDbEntity
8
Geo
100
AcDbLine
10
-43.2456575682382
20
10.7341346093299
30
0.000000000000000
11
-43.1456575682382
21
10.6831778275757
31
0.000000000000000
  0
LINE
  5
F108F5
330
F108F6
100
AcDbEntity
8
Geo
100
AcDbLine
10
-43.1456575682382
20
10.6831778275757
30
0.000000000000000
11
-43.0456575682382
21
10.6317382736028
31
0.000000000000000
  0
LINE
  5
F108F7
330
F108F8
100
AcDbEntity
8
Geo
100
AcDbLine
10
-43.0456575682382
20
10.6317382736028
30
0.000000000000000
11
-42.9456575682382
21
10.5798349985099
31
0.000000000000000
  0
LINE
  5
F108F9
330
F108FA
100
AcDbEntity
8
Geo
100
AcDbLine
10
-42.9456575682382
20
10.5798349985099
30
0.000000000000000
11
-42.8456575682382
21
10.5274872251389
31
0.000000000000000
  0
LINE
  5
F108FB
330
F108FC
100
AcDbEntity
8
Geo
100
AcDbLine
10
-42.8456575682382
20
10.5274872251389
30
0.000000000000000
11
-42.7456575682382
21
10.4747143409557
31
0.000000000000000
  0
LINE
  5
F108FD
330
F108FE
100
AcDbEntity
8
Geo
100
AcDbLine
10
-42.7456575682382
20
10.4747143409557
30
0.000000000000000
11
-42.6456575682382
21
10.4215358908696
31
0.000000000000000
  0
LINE
  5
F108FF
330
F10900
100
AcDbEntity
8
Geo
100
AcDbLine
10
-42.6456575682382
20
10.4215358908696
30
0.000000000000000
11
-42.5456575682382
21
10.3679715699950
31
0.000000000000000
  0
LINE
  5
F10901
330
F10902
100
AcDbEntity
8
Geo
100
AcDbLine
10
-42.5456575682382
20
10.3679715699950
30
0.000000000000000
11
-42.4456575682382
21
10.3140412163570
31
0.000000000000000
  0
LINE
  5
F10903
330
F10904
100
AcDbEntity
8
Geo
100
AcDbLine
10
-42.4456575682382
20
10.3140412163570
30
0.000000000000000
11
-42.3456575682382
21
10.2597648035441
31
0.000000000000000
  0
LINE
  5
F10905
330
F10906
100
AcDbEntity
8
Geo
100
AcDbLine
10
-42.3456575682382
20
10.2597648035441
30
0.000000000000000
11
-42.2456575682382
21
10.2051624333111
31
0.000000000000000
  0
LINE
  5
F10907
330
F10908
100
AcDbEntity
8
Geo
100
AcDbLine
10
-42.2456575682382
20
10.2051624333111
30
0.000000000000000
11
-42.1456575682382
21
10.1502543281338
31
0.000000000000000
  0
LINE
  5
F10909
330
F1090A
100
AcDbEntity
8
Geo
100
AcDbLine
10
-42.1456575682382
20
10.1502543281338
30
0.000000000000000
11
-42.0456575682382
21
10.0950608237198
31
0.000000000000000
  0
LINE
  5
F1090B
330
F1090C
100
AcDbEntity
8
Geo
100
AcDbLine
10
-42.0456575682382
20
10.0950608237198
30
0.000000000000000
11
-41.9456575682382
21
10.0396023614770
31
0.000000000000000
  0
LINE
  5
F1090D
330
F1090E
100
AcDbEntity
8
Geo
100
AcDbLine
10
-41.9456575682382
20
10.0396023614770
30
0.000000000000000
11
-41.8456575682382
21
9.98389948094251
31
0.000000000000000
  0
LINE
  5
F1090F
330
F10910
100
AcDbEntity
8
Geo
100
AcDbLine
10
-41.8456575682382
20
9.98389948094251
30
0.000000000000000
11
-41.7456575682382
21
9.92797281217612
31
0.000000000000000
  0
LINE
  5
F10911
330
F10912
100
AcDbEntity
8
Geo
100
AcDbLine
10
-41.7456575682382
20
9.92797281217612
30
0.000000000000000
11
-41.6456575682382
21
9.87184306811957
31
0.000000000000000
  0
LINE
  5
F10913
330
F10914
100
AcDbEntity
8
Geo
100
AcDbLine
10
-41.6456575682382
20
9.87184306811957
30
0.000000000000000
11
-41.5456575682382
21
9.81553103692531
31
0.000000000000000
  0
LINE
  5
F10915
330
F10916
100
AcDbEntity
8
Geo
100
AcDbLine
10
-41.5456575682382
20
9.81553103692531
30
0.000000000000000
11
-41.4456575682382
21
9.75905757425750
31
0.000000000000000
  0
LINE
  5
F10917
330
F10918
100
AcDbEntity
8
Geo
100
AcDbLine
10
-41.4456575682382
20
9.75905757425750
30
0.000000000000000
11
-41.3456575682382
21
9.70244359556788
31
0.000000000000000
  0
LINE
  5
F10919
330
F1091A
100
AcDbEntity
8
Geo
100
AcDbLine
10
-41.3456575682382
20
9.70244359556788
30
0.000000000000000
11
-41.2456575682382
21
9.64571006834953
31
0.000000000000000
  0
LINE
  5
F1091B
330
F1091C
100
AcDbEntity
8
Geo
100
AcDbLine
10
-41.2456575682382
20
9.64571006834953
30
0.000000000000000
11
-41.1456575682382
21
9.58887800437143
31
0.000000000000000
  0
LINE
  5
F1091D
330
F1091E
100
AcDbEntity
8
Geo
100
AcDbLine
10
-41.1456575682382
20
9.58887800437143
30
0.000000000000000
11
-41.0456575682381
21
9.53196845189650
31
0.000000000000000
  0
LINE
  5
F1091F
330
F10920
100
AcDbEntity
8
Geo
100
AcDbLine
10
-41.0456575682381
20
9.53196845189650
30
0.000000000000000
11
-40.9456575682381
21
9.47500248788625
31
0.000000000000000
  0
LINE
  5
F10921
330
F10922
100
AcDbEntity
8
Geo
100
AcDbLine
10
-40.9456575682381
20
9.47500248788625
30
0.000000000000000
11
-40.8456575682381
21
9.41800121019467
31
0.000000000000000
  0
LINE
  5
F10923
330
F10924
100
AcDbEntity
8
Geo
100
AcDbLine
10
-40.8456575682381
20
9.41800121019467
30
0.000000000000000
11
-40.7456575682381
21
9.36098572975452
31
0.000000000000000
  0
LINE
  5
F10925
330
F10926
100
AcDbEntity
8
Geo
100
AcDbLine
10
-40.7456575682381
20
9.36098572975452
30
0.000000000000000
11
-40.6456575682381
21
9.30397716275866
31
0.000000000000000
  0
LINE
  5
F10927
330
F10928
100
AcDbEntity
8
Geo
100
AcDbLine
10
-40.6456575682381
20
9.30397716275866
30
0.000000000000000
11
-40.5456575682381
21
9.24699662283948
31
0.000000000000000
  0
LINE
  5
F10929
330
F1092A
100
AcDbEntity
8
Geo
100
AcDbLine
10
-40.5456575682381
20
9.24699662283948
30
0.000000000000000
11
-40.4456575682381
21
9.19006521324933
31
0.000000000000000
  0
LINE
  5
F1092B
330
F1092C
100
AcDbEntity
8
Geo
100
AcDbLine
10
-40.4456575682381
20
9.19006521324933
30
0.000000000000000
11
-40.3456575682381
21
9.13320401904467
31
0.000000000000000
  0
LINE
  5
F1092D
330
F1092E
100
AcDbEntity
8
Geo
100
AcDbLine
10
-40.3456575682381
20
9.13320401904467
30
0.000000000000000
11
-40.2456575682381
21
9.07643409927707
31
0.000000000000000
  0
LINE
  5
F1092F
330
F10930
100
AcDbEntity
8
Geo
100
AcDbLine
10
-40.2456575682381
20
9.07643409927707
30
0.000000000000000
11
-40.1456575682381
21
9.01977647919380
31
0.000000000000000
  0
LINE
  5
F10931
330
F10932
100
AcDbEntity
8
Geo
100
AcDbLine
10
-40.1456575682381
20
9.01977647919380
30
0.000000000000000
11
-40.0456575682381
21
8.96325214245094
31
0.000000000000000
  0
LINE
  5
F10933
330
F10934
100
AcDbEntity
8
Geo
100
AcDbLine
10
-40.0456575682381
20
8.96325214245094
30
0.000000000000000
11
-39.9456575682381
21
8.90688202334190
31
0.000000000000000
  0
LINE
  5
F10935
330
F10936
100
AcDbEntity
8
Geo
100
AcDbLine
10
-39.9456575682381
20
8.90688202334190
30
0.000000000000000
11
-39.8456575682381
21
8.85068699904420
31
0.000000000000000
  0
LINE
  5
F10937
330
F10938
100
AcDbEntity
8
Geo
100
AcDbLine
10
-39.8456575682381
20
8.85068699904420
30
0.000000000000000
11
-39.7456575682381
21
8.79468788188743
31
0.000000000000000
  0
LINE
  5
F10939
330
F1093A
100
AcDbEntity
8
Geo
100
AcDbLine
10
-39.7456575682381
20
8.79468788188743
30
0.000000000000000
11
-39.6456575682381
21
8.73890541164523
31
0.000000000000000
  0
LINE
  5
F1093B
330
F1093C
100
AcDbEntity
8
Geo
100
AcDbLine
10
-39.6456575682381
20
8.73890541164523
30
0.000000000000000
11
-39.5456575682381
21
8.68336024785410
31
0.000000000000000
  0
LINE
  5
F1093D
330
F1093E
100
AcDbEntity
8
Geo
100
AcDbLine
10
-39.5456575682381
20
8.68336024785410
30
0.000000000000000
11
-39.4456575682381
21
8.62807296216200
31
0.000000000000000
  0
LINE
  5
F1093F
330
F10940
100
AcDbEntity
8
Geo
100
AcDbLine
10
-39.4456575682381
20
8.62807296216200
30
0.000000000000000
11
-39.3456575682381
21
8.57306403070941
31
0.000000000000000
  0
LINE
  5
F10941
330
F10942
100
AcDbEntity
8
Geo
100
AcDbLine
10
-39.3456575682381
20
8.57306403070941
30
0.000000000000000
11
-39.2456575682381
21
8.51835382654584
31
0.000000000000000
  0
LINE
  5
F10943
330
F10944
100
AcDbEntity
8
Geo
100
AcDbLine
10
-39.2456575682381
20
8.51835382654584
30
0.000000000000000
11
-39.1456575682381
21
8.46396261208447
31
0.000000000000000
  0
LINE
  5
F10945
330
F10946
100
AcDbEntity
8
Geo
100
AcDbLine
10
-39.1456575682381
20
8.46396261208447
30
0.000000000000000
11
-39.0456575682381
21
8.40991053159780
31
0.000000000000000
  0
LINE
  5
F10947
330
F10948
100
AcDbEntity
8
Geo
100
AcDbLine
10
-39.0456575682381
20
8.40991053159780
30
0.000000000000000
11
-38.9456575682381
21
8.35621760375702
31
0.000000000000000
  0
LINE
  5
F10949
330
F1094A
100
AcDbEntity
8
Geo
100
AcDbLine
10
-38.9456575682381
20
8.35621760375702
30
0.000000000000000
11
-38.8456575682381
21
8.30290371421795
31
0.000000000000000
  0
LINE
  5
F1094B
330
F1094C
100
AcDbEntity
8
Geo
100
AcDbLine
10
-38.8456575682381
20
8.30290371421795
30
0.000000000000000
11
-38.7456575682381
21
8.24998860825615
31
0.000000000000000
  0
LINE
  5
F1094D
330
F1094E
100
AcDbEntity
8
Geo
100
AcDbLine
10
-38.7456575682381
20
8.24998860825615
30
0.000000000000000
11
-38.6456575682381
21
8.19749188345416
31
0.000000000000000
  0
LINE
  5
F1094F
330
F10950
100
AcDbEntity
8
Geo
100
AcDbLine
10
-38.6456575682381
20
8.19749188345416
30
0.000000000000000
11
-38.5456575682381
21
8.14543298244329
31
0.000000000000000
  0
LINE
  5
F10951
330
F10952
100
AcDbEntity
8
Geo
100
AcDbLine
10
-38.5456575682381
20
8.14543298244329
30
0.000000000000000
11
-38.4456575682381
21
8.09383118570289
31
0.000000000000000
  0
LINE
  5
F10953
330
F10954
100
AcDbEntity
8
Geo
100
AcDbLine
10
-38.4456575682381
20
8.09383118570289
30
0.000000000000000
11
-38.3456575682381
21
8.04270560441967
31
0.000000000000000
  0
LINE
  5
F10955
330
F10956
100
AcDbEntity
8
Geo
100
AcDbLine
10
-38.3456575682381
20
8.04270560441967
30
0.000000000000000
11
-38.2456575682381
21
7.99207517340970
31
0.000000000000000
  0
LINE
  5
F10957
330
F10958
100
AcDbEntity
8
Geo
100
AcDbLine
10
-38.2456575682381
20
7.99207517340970
30
0.000000000000000
11
-38.1456575682381
21
7.94195864410569
31
0.000000000000000
  0
LINE
  5
F10959
330
F1095A
100
AcDbEntity
8
Geo
100
AcDbLine
10
-38.1456575682381
20
7.94195864410569
30
0.000000000000000
11
-38.0456575682381
21
7.89237457761229
31
0.000000000000000
  0
LINE
  5
F1095B
330
F1095C
100
AcDbEntity
8
Geo
100
AcDbLine
10
-38.0456575682381
20
7.89237457761229
30
0.000000000000000
11
-37.9456575682381
21
7.84334133783177
31
0.000000000000000
  0
LINE
  5
F1095D
330
F1095E
100
AcDbEntity
8
Geo
100
AcDbLine
10
-37.9456575682381
20
7.84334133783177
30
0.000000000000000
11
-37.8456575682381
21
7.79487708466280
31
0.000000000000000
  0
LINE
  5
F1095F
330
F10960
100
AcDbEntity
8
Geo
100
AcDbLine
10
-37.8456575682381
20
7.79487708466280
30
0.000000000000000
11
-37.7456575682381
21
7.74699976727479
31
0.000000000000000
  0
LINE
  5
F10961
330
F10962
100
AcDbEntity
8
Geo
100
AcDbLine
10
-37.7456575682381
20
7.74699976727479
30
0.000000000000000
11
-37.6456575682381
21
7.69972711746022
31
0.000000000000000
  0
LINE
  5
F10963
330
F10964
100
AcDbEntity
8
Geo
100
AcDbLine
10
-37.6456575682381
20
7.69972711746022
30
0.000000000000000
11
-37.5456575682381
21
7.65307664306753
31
0.000000000000000
  0
LINE
  5
F10965
330
F10966
100
AcDbEntity
8
Geo
100
AcDbLine
10
-37.5456575682381
20
7.65307664306753
30
0.000000000000000
11
-37.4456575682381
21
7.60706562151693
31
0.000000000000000
  0
LINE
  5
F10967
330
F10968
100
AcDbEntity
8
Geo
100
AcDbLine
10
-37.4456575682381
20
7.60706562151693
30
0.000000000000000
11
-37.3456575682381
21
7.56171109340158
31
0.000000000000000
  0
LINE
  5
F10969
330
F1096A
100
AcDbEntity
8
Geo
100
AcDbLine
10
-37.3456575682381
20
7.56171109340158
30
0.000000000000000
11
-37.2456575682381
21
7.51702985617639
31
0.000000000000000
  0
LINE
  5
F1096B
330
F1096C
100
AcDbEntity
8
Geo
100
AcDbLine
10
-37.2456575682381
20
7.51702985617639
30
0.000000000000000
11
-37.1456575682381
21
7.47303845793700
31
0.000000000000000
  0
LINE
  5
F1096D
330
F1096E
100
AcDbEntity
8
Geo
100
AcDbLine
10
-37.1456575682381
20
7.47303845793700
30
0.000000000000000
11
-37.0456575682381
21
7.42975319129098
31
0.000000000000000
  0
LINE
  5
F1096F
330
F10970
100
AcDbEntity
8
Geo
100
AcDbLine
10
-37.0456575682381
20
7.42975319129098
30
0.000000000000000
11
-36.9456575682381
21
7.38719008732379
31
0.000000000000000
  0
LINE
  5
F10971
330
F10972
100
AcDbEntity
8
Geo
100
AcDbLine
10
-36.9456575682381
20
7.38719008732379
30
0.000000000000000
11
-36.8456575682381
21
7.34536490966147
31
0.000000000000000
  0
LINE
  5
F10973
330
F10974
100
AcDbEntity
8
Geo
100
AcDbLine
10
-36.8456575682381
20
7.34536490966147
30
0.000000000000000
11
-36.7456575682381
21
7.30429314863245
31
0.000000000000000
  0
LINE
  5
F10975
330
F10976
100
AcDbEntity
8
Geo
100
AcDbLine
10
-36.7456575682381
20
7.30429314863245
30
0.000000000000000
11
-36.6456575682381
21
7.26399001553058
31
0.000000000000000
  0
LINE
  5
F10977
330
F10978
100
AcDbEntity
8
Geo
100
AcDbLine
10
-36.6456575682381
20
7.26399001553058
30
0.000000000000000
11
-36.5456575682381
21
7.22447043698150
31
0.000000000000000
  0
LINE
  5
F10979
330
F1097A
100
AcDbEntity
8
Geo
100
AcDbLine
10
-36.5456575682381
20
7.22447043698150
30
0.000000000000000
11
-36.4456575682381
21
7.18574904941438
31
0.000000000000000
  0
LINE
  5
F1097B
330
F1097C
100
AcDbEntity
8
Geo
100
AcDbLine
10
-36.4456575682381
20
7.18574904941438
30
0.000000000000000
11
-36.3456575682381
21
7.14784019364127
31
0.000000000000000
  0
LINE
  5
F1097D
330
F1097E
100
AcDbEntity
8
Geo
100
AcDbLine
10
-36.3456575682381
20
7.14784019364127
30
0.000000000000000
11
-36.2456575682381
21
7.11075790954578
31
0.000000000000000
  0
LINE
  5
F1097F
330
F10980
100
AcDbEntity
8
Geo
100
AcDbLine
10
-36.2456575682381
20
7.11075790954578
30
0.000000000000000
11
-36.1456575682381
21
7.07451593088332
31
0.000000000000000
  0
LINE
  5
F10981
330
F10982
100
AcDbEntity
8
Geo
100
AcDbLine
10
-36.1456575682381
20
7.07451593088332
30
0.000000000000000
11
-36.0456575682381
21
7.03912768019465
31
0.000000000000000
  0
LINE
  5
F10983
330
F10984
100
AcDbEntity
8
Geo
100
AcDbLine
10
-36.0456575682381
20
7.03912768019465
30
0.000000000000000
11
-35.9456575682381
21
7.00460626383477
31
0.000000000000000
  0
LINE
  5
F10985
330
F10986
100
AcDbEntity
8
Geo
100
AcDbLine
10
-35.9456575682381
20
7.00460626383477
30
0.000000000000000
11
-35.8456575682381
21
6.97096446711883
31
0.000000000000000
  0
LINE
  5
F10987
330
F10988
100
AcDbEntity
8
Geo
100
AcDbLine
10
-35.8456575682381
20
6.97096446711883
30
0.000000000000000
11
-35.7456575682381
21
6.93821474958697
31
0.000000000000000
  0
LINE
  5
F10989
330
F1098A
100
AcDbEntity
8
Geo
100
AcDbLine
10
-35.7456575682381
20
6.93821474958697
30
0.000000000000000
11
-35.6456575682381
21
6.90636924038985
31
0.000000000000000
  0
LINE
  5
F1098B
330
F1098C
100
AcDbEntity
8
Geo
100
AcDbLine
10
-35.6456575682381
20
6.90636924038985
30
0.000000000000000
11
-35.5456575682381
21
6.87543973379647
31
0.000000000000000
  0
LINE
  5
F1098D
330
F1098E
100
AcDbEntity
8
Geo
100
AcDbLine
10
-35.5456575682381
20
6.87543973379647
30
0.000000000000000
11
-35.4456575682381
21
6.84543768482609
31
0.000000000000000
  0
LINE
  5
F1098F
330
F10990
100
AcDbEntity
8
Geo
100
AcDbLine
10
-35.4456575682381
20
6.84543768482609
30
0.000000000000000
11
-35.3456575682381
21
6.81637420500575
31
0.000000000000000
  0
LINE
  5
F10991
330
F10992
100
AcDbEntity
8
Geo
100
AcDbLine
10
-35.3456575682381
20
6.81637420500575
30
0.000000000000000
11
-35.2456575682381
21
6.78826005825499
31
0.000000000000000
  0
LINE
  5
F10993
330
F10994
100
AcDbEntity
8
Geo
100
AcDbLine
10
-35.2456575682381
20
6.78826005825499
30
0.000000000000000
11
-35.1456575682381
21
6.76110565689940
31
0.000000000000000
  0
LINE
  5
F10995
330
F10996
100
AcDbEntity
8
Geo
100
AcDbLine
10
-35.1456575682381
20
6.76110565689940
30
0.000000000000000
11
-35.0456575682381
21
6.73492105781426
31
0.000000000000000
  0
LINE
  5
F10997
330
F10998
100
AcDbEntity
8
Geo
100
AcDbLine
10
-35.0456575682381
20
6.73492105781426
30
0.000000000000000
11
-34.9456575682381
21
6.70971595869990
31
0.000000000000000
  0
LINE
  5
F10999
330
F1099A
100
AcDbEntity
8
Geo
100
AcDbLine
10
-34.9456575682381
20
6.70971595869990
30
0.000000000000000
11
-34.8456575682381
21
6.68549969449011
31
0.000000000000000
  0
LINE
  5
F1099B
330
F1099C
100
AcDbEntity
8
Geo
100
AcDbLine
10
-34.8456575682381
20
6.68549969449011
30
0.000000000000000
11
-34.7456575682381
21
6.66228123389482
31
0.000000000000000
  0
LINE
  5
F1099D
330
F1099E
100
AcDbEntity
8
Geo
100
AcDbLine
10
-34.7456575682381
20
6.66228123389482
30
0.000000000000000
11
-34.6456575682381
21
6.64006917607845
31
0.000000000000000
  0
LINE
  5
F1099F
330
F109A0
100
AcDbEntity
8
Geo
100
AcDbLine
10
-34.6456575682381
20
6.64006917607845
30
0.000000000000000
11
-34.5456575682381
21
6.61887174747519
31
0.000000000000000
  0
LINE
  5
F109A1
330
F109A2
100
AcDbEntity
8
Geo
100
AcDbLine
10
-34.5456575682381
20
6.61887174747519
30
0.000000000000000
11
-34.4456575682381
21
6.59869679874221
31
0.000000000000000
  0
LINE
  5
F109A3
330
F109A4
100
AcDbEntity
8
Geo
100
AcDbLine
10
-34.4456575682381
20
6.59869679874221
30
0.000000000000000
11
-34.3456575682381
21
6.57955180185211
31
0.000000000000000
  0
LINE
  5
F109A5
330
F109A6
100
AcDbEntity
8
Geo
100
AcDbLine
10
-34.3456575682381
20
6.57955180185211
30
0.000000000000000
11
-34.2456575682381
21
6.56144384732565
31
0.000000000000000
  0
LINE
  5
F109A7
330
F109A8
100
AcDbEntity
8
Geo
100
AcDbLine
10
-34.2456575682381
20
6.56144384732565
30
0.000000000000000
11
-34.1456575682381
21
6.54437964160566
31
0.000000000000000
  0
LINE
  5
F109A9
330
F109AA
100
AcDbEntity
8
Geo
100
AcDbLine
10
-34.1456575682381
20
6.54437964160566
30
0.000000000000000
11
-34.0456575682380
21
6.52836550457326
31
0.000000000000000
  0
LINE
  5
F109AB
330
F109AC
100
AcDbEntity
8
Geo
100
AcDbLine
10
-34.0456575682380
20
6.52836550457326
30
0.000000000000000
11
-33.9456575682380
21
6.51340736720726
31
0.000000000000000
  0
LINE
  5
F109AD
330
F109AE
100
AcDbEntity
8
Geo
100
AcDbLine
10
-33.9456575682380
20
6.51340736720726
30
0.000000000000000
11
-33.8456575682380
21
6.49951076938756
31
0.000000000000000
  0
LINE
  5
F109AF
330
F109B0
100
AcDbEntity
8
Geo
100
AcDbLine
10
-33.8456575682380
20
6.49951076938756
30
0.000000000000000
11
-33.7456575682380
21
6.48668085784337
31
0.000000000000000
  0
LINE
  5
F109B1
330
F109B2
100
AcDbEntity
8
Geo
100
AcDbLine
10
-33.7456575682380
20
6.48668085784337
30
0.000000000000000
11
-33.6456575682380
21
6.47492238424713
31
0.000000000000000
  0
LINE
  5
F109B3
330
F109B4
100
AcDbEntity
8
Geo
100
AcDbLine
10
-33.6456575682380
20
6.47492238424713
30
0.000000000000000
11
-33.5456575682380
21
6.46423970345466
31
0.000000000000000
  0
LINE
  5
F109B5
330
F109B6
100
AcDbEntity
8
Geo
100
AcDbLine
10
-33.5456575682380
20
6.46423970345466
30
0.000000000000000
11
-33.4456575682380
21
6.45463677189227
31
0.000000000000000
  0
LINE
  5
F109B7
330
F109B8
100
AcDbEntity
8
Geo
100
AcDbLine
10
-33.4456575682380
20
6.45463677189227
30
0.000000000000000
11
-33.3456575682380
21
6.44611714609151
31
0.000000000000000
  0
LINE
  5
F109B9
330
F109BA
100
AcDbEntity
8
Geo
100
AcDbLine
10
-33.3456575682380
20
6.44611714609151
30
0.000000000000000
11
-33.2456575682380
21
6.43868398137197
31
0.000000000000000
  0
LINE
  5
F109BB
330
F109BC
100
AcDbEntity
8
Geo
100
AcDbLine
10
-33.2456575682380
20
6.43868398137197
30
0.000000000000000
11
-33.1456575682380
21
6.43234003067264
31
0.000000000000000
  0
LINE
  5
F109BD
330
F109BE
100
AcDbEntity
8
Geo
100
AcDbLine
10
-33.1456575682380
20
6.43234003067264
30
0.000000000000000
11
-33.0456575682380
21
6.42708764353237
31
0.000000000000000
  0
LINE
  5
F109BF
330
F109C0
100
AcDbEntity
8
Geo
100
AcDbLine
10
-33.0456575682380
20
6.42708764353237
30
0.000000000000000
11
-32.9456575682380
21
6.42292876521969
31
0.000000000000000
  0
LINE
  5
F109C1
330
F109C2
100
AcDbEntity
8
Geo
100
AcDbLine
10
-32.9456575682380
20
6.42292876521969
30
0.000000000000000
11
-32.8456575682380
21
6.41986493601237
31
0.000000000000000
  0
LINE
  5
F109C3
330
F109C4
100
AcDbEntity
8
Geo
100
AcDbLine
10
-32.8456575682380
20
6.41986493601237
30
0.000000000000000
11
-32.7456575682380
21
6.41789729062694
31
0.000000000000000
  0
LINE
  5
F109C5
330
F109C6
100
AcDbEntity
8
Geo
100
AcDbLine
10
-32.7456575682380
20
6.41789729062694
30
0.000000000000000
11
-32.6456575682380
21
6.41702655779846
31
0.000000000000000
  0
LINE
  5
F109C7
330
F109C8
100
AcDbEntity
8
Geo
100
AcDbLine
10
-32.5456575682380
20
12.3420521509075
30
0.000000000000000
11
-32.4456575682380
21
12.3407284975419
31
0.000000000000000
  0
LINE
  5
F109C9
330
F109CA
100
AcDbEntity
8
Geo
100
AcDbLine
10
-32.4456575682380
20
12.3407284975419
30
0.000000000000000
11
-32.3456575682380
21
12.3383081832495
31
0.000000000000000
  0
LINE
  5
F109CB
330
F109CC
100
AcDbEntity
8
Geo
100
AcDbLine
10
-32.3456575682380
20
12.3383081832495
30
0.000000000000000
11
-32.2456575682380
21
12.3347921044156
31
0.000000000000000
  0
LINE
  5
F109CD
330
F109CE
100
AcDbEntity
8
Geo
100
AcDbLine
10
-32.2456575682380
20
12.3347921044156
30
0.000000000000000
11
-32.1456575682380
21
12.3301815632512
31
0.000000000000000
  0
LINE
  5
F109CF
330
F109D0
100
AcDbEntity
8
Geo
100
AcDbLine
10
-32.1456575682380
20
12.3301815632512
30
0.000000000000000
11
-32.0456575682380
21
12.3244782673116
31
0.000000000000000
  0
LINE
  5
F109D1
330
F109D2
100
AcDbEntity
8
Geo
100
AcDbLine
10
-32.0456575682380
20
12.3244782673116
30
0.000000000000000
11
-31.9456575682380
21
12.3176843288634
31
0.000000000000000
  0
LINE
  5
F109D3
330
F109D4
100
AcDbEntity
8
Geo
100
AcDbLine
10
-31.9456575682380
20
12.3176843288634
30
0.000000000000000
11
-31.8456575682380
21
12.3098022641023
31
0.000000000000000
  0
LINE
  5
F109D5
330
F109D6
100
AcDbEntity
8
Geo
100
AcDbLine
10
-31.8456575682380
20
12.3098022641023
30
0.000000000000000
11
-31.7456575682380
21
12.3008349922217
31
0.000000000000000
  0
LINE
  5
F109D7
330
F109D8
100
AcDbEntity
8
Geo
100
AcDbLine
10
-31.7456575682380
20
12.3008349922217
30
0.000000000000000
11
-31.6456575682380
21
12.2907858343307
31
0.000000000000000
  0
LINE
  5
F109D9
330
F109DA
100
AcDbEntity
8
Geo
100
AcDbLine
10
-31.6456575682380
20
12.2907858343307
30
0.000000000000000
11
-31.5456575682380
21
12.2796585122247
31
0.000000000000000
  0
LINE
  5
F109DB
330
F109DC
100
AcDbEntity
8
Geo
100
AcDbLine
10
-31.5456575682380
20
12.2796585122247
30
0.000000000000000
11
-31.4456575682380
21
12.2674571470072
31
0.000000000000000
  0
LINE
  5
F109DD
330
F109DE
100
AcDbEntity
8
Geo
100
AcDbLine
10
-31.4456575682380
20
12.2674571470072
30
0.000000000000000
11
-31.3456575682380
21
12.2541862575626
31
0.000000000000000
  0
LINE
  5
F109DF
330
F109E0
100
AcDbEntity
8
Geo
100
AcDbLine
10
-31.3456575682380
20
12.2541862575626
30
0.000000000000000
11
-31.2456575682380
21
12.2398507588836
31
0.000000000000000
  0
LINE
  5
F109E1
330
F109E2
100
AcDbEntity
8
Geo
100
AcDbLine
10
-31.2456575682380
20
12.2398507588836
30
0.000000000000000
11
-31.1456575682380
21
12.2244559602502
31
0.000000000000000
  0
LINE
  5
F109E3
330
F109E4
100
AcDbEntity
8
Geo
100
AcDbLine
10
-31.1456575682380
20
12.2244559602502
30
0.000000000000000
11
-31.0456575682380
21
12.2080075632637
31
0.000000000000000
  0
LINE
  5
F109E5
330
F109E6
100
AcDbEntity
8
Geo
100
AcDbLine
10
-31.0456575682380
20
12.2080075632637
30
0.000000000000000
11
-30.9456575682380
21
12.1905116597351
31
0.000000000000000
  0
LINE
  5
F109E7
330
F109E8
100
AcDbEntity
8
Geo
100
AcDbLine
10
-30.9456575682380
20
12.1905116597351
30
0.000000000000000
11
-30.8456575682380
21
12.1719747294284
31
0.000000000000000
  0
LINE
  5
F109E9
330
F109EA
100
AcDbEntity
8
Geo
100
AcDbLine
10
-30.8456575682380
20
12.1719747294284
30
0.000000000000000
11
-30.7456575682380
21
12.1524036376617
31
0.000000000000000
  0
LINE
  5
F109EB
330
F109EC
100
AcDbEntity
8
Geo
100
AcDbLine
10
-30.7456575682380
20
12.1524036376617
30
0.000000000000000
11
-30.6456575682380
21
12.1318056327637
31
0.000000000000000
  0
LINE
  5
F109ED
330
F109EE
100
AcDbEntity
8
Geo
100
AcDbLine
10
-30.6456575682380
20
12.1318056327637
30
0.000000000000000
11
-30.5456575682380
21
12.1101883433896
31
0.000000000000000
  0
LINE
  5
F109EF
330
F109F0
100
AcDbEntity
8
Geo
100
AcDbLine
10
-30.5456575682380
20
12.1101883433896
30
0.000000000000000
11
-30.4456575682380
21
12.0875597756959
31
0.000000000000000
  0
LINE
  5
F109F1
330
F109F2
100
AcDbEntity
8
Geo
100
AcDbLine
10
-30.4456575682380
20
12.0875597756959
30
0.000000000000000
11
-30.3456575682380
21
12.0639283103747
31
0.000000000000000
  0
LINE
  5
F109F3
330
F109F4
100
AcDbEntity
8
Geo
100
AcDbLine
10
-30.3456575682380
20
12.0639283103747
30
0.000000000000000
11
-30.2456575682380
21
12.0393026995507
31
0.000000000000000
  0
LINE
  5
F109F5
330
F109F6
100
AcDbEntity
8
Geo
100
AcDbLine
10
-30.2456575682380
20
12.0393026995507
30
0.000000000000000
11
-30.1456575682380
21
12.0136920635388
31
0.000000000000000
  0
LINE
  5
F109F7
330
F109F8
100
AcDbEntity
8
Geo
100
AcDbLine
10
-30.1456575682380
20
12.0136920635388
30
0.000000000000000
11
-30.0456575682380
21
11.9871058874670
31
0.000000000000000
  0
LINE
  5
F109F9
330
F109FA
100
AcDbEntity
8
Geo
100
AcDbLine
10
-30.0456575682380
20
11.9871058874670
30
0.000000000000000
11
-29.9456575682380
21
11.9595540177634
31
0.000000000000000
  0
LINE
  5
F109FB
330
F109FC
100
AcDbEntity
8
Geo
100
AcDbLine
10
-29.9456575682380
20
11.9595540177634
30
0.000000000000000
11
-29.8456575682380
21
11.9310466585092
31
0.000000000000000
  0
LINE
  5
F109FD
330
F109FE
100
AcDbEntity
8
Geo
100
AcDbLine
10
-29.8456575682380
20
11.9310466585092
30
0.000000000000000
11
-29.7456575682380
21
11.9015943676596
31
0.000000000000000
  0
LINE
  5
F109FF
330
F10A00
100
AcDbEntity
8
Geo
100
AcDbLine
10
-29.7456575682380
20
11.9015943676596
30
0.000000000000000
11
-29.6456575682380
21
11.8712080531340
31
0.000000000000000
  0
LINE
  5
F10A01
330
F10A02
100
AcDbEntity
8
Geo
100
AcDbLine
10
-29.6456575682380
20
11.8712080531340
30
0.000000000000000
11
-29.5456575682380
21
11.8398989687755
31
0.000000000000000
  0
LINE
  5
F10A03
330
F10A04
100
AcDbEntity
8
Geo
100
AcDbLine
10
-29.5456575682380
20
11.8398989687755
30
0.000000000000000
11
-29.4456575682380
21
11.8076787101834
31
0.000000000000000
  0
LINE
  5
F10A05
330
F10A06
100
AcDbEntity
8
Geo
100
AcDbLine
10
-29.4456575682380
20
11.8076787101834
30
0.000000000000000
11
-29.3456575682380
21
11.7745592104185
31
0.000000000000000
  0
LINE
  5
F10A07
330
F10A08
100
AcDbEntity
8
Geo
100
AcDbLine
10
-29.3456575682380
20
11.7745592104185
30
0.000000000000000
11
-29.2456575682380
21
11.7405527355836
31
0.000000000000000
  0
LINE
  5
F10A09
330
F10A0A
100
AcDbEntity
8
Geo
100
AcDbLine
10
-29.2456575682380
20
11.7405527355836
30
0.000000000000000
11
-29.1456575682380
21
11.7056718802806
31
0.000000000000000
  0
LINE
  5
F10A0B
330
F10A0C
100
AcDbEntity
8
Geo
100
AcDbLine
10
-29.1456575682380
20
11.7056718802806
30
0.000000000000000
11
-29.0456575682380
21
11.6699295629462
31
0.000000000000000
  0
LINE
  5
F10A0D
330
F10A0E
100
AcDbEntity
8
Geo
100
AcDbLine
10
-29.0456575682380
20
11.6699295629462
30
0.000000000000000
11
-28.9456575682380
21
11.6333390210670
31
0.000000000000000
  0
LINE
  5
F10A0F
330
F10A10
100
AcDbEntity
8
Geo
100
AcDbLine
10
-28.9456575682380
20
11.6333390210670
30
0.000000000000000
11
-28.8456575682380
21
11.5959138062774
31
0.000000000000000
  0
LINE
  5
F10A11
330
F10A12
100
AcDbEntity
8
Geo
100
AcDbLine
10
-28.8456575682380
20
11.5959138062774
30
0.000000000000000
11
-28.7456575682380
21
11.5576677793401
31
0.000000000000000
  0
LINE
  5
F10A13
330
F10A14
100
AcDbEntity
8
Geo
100
AcDbLine
10
-28.7456575682380
20
11.5576677793401
30
0.000000000000000
11
-28.6456575682380
21
11.5186151050132
31
0.000000000000000
  0
LINE
  5
F10A15
330
F10A16
100
AcDbEntity
8
Geo
100
AcDbLine
10
-28.6456575682380
20
11.5186151050132
30
0.000000000000000
11
-28.5456575682380
21
11.4787702468038
31
0.000000000000000
  0
LINE
  5
F10A17
330
F10A18
100
AcDbEntity
8
Geo
100
AcDbLine
10
-28.5456575682380
20
11.4787702468038
30
0.000000000000000
11
-28.4456575682380
21
11.4381479616111
31
0.000000000000000
  0
LINE
  5
F10A19
330
F10A1A
100
AcDbEntity
8
Geo
100
AcDbLine
10
-28.4456575682380
20
11.4381479616111
30
0.000000000000000
11
-28.3456575682380
21
11.3967632942618
31
0.000000000000000
  0
LINE
  5
F10A1B
330
F10A1C
100
AcDbEntity
8
Geo
100
AcDbLine
10
-28.3456575682380
20
11.3967632942618
30
0.000000000000000
11
-28.2456575682380
21
11.3546315719372
31
0.000000000000000
  0
LINE
  5
F10A1D
330
F10A1E
100
AcDbEntity
8
Geo
100
AcDbLine
10
-28.2456575682380
20
11.3546315719372
30
0.000000000000000
11
-28.1456575682380
21
11.3117683984974
31
0.000000000000000
  0
LINE
  5
F10A1F
330
F10A20
100
AcDbEntity
8
Geo
100
AcDbLine
10
-28.1456575682380
20
11.3117683984974
30
0.000000000000000
11
-28.0456575682380
21
11.2681896487018
31
0.000000000000000
  0
LINE
  5
F10A21
330
F10A22
100
AcDbEntity
8
Geo
100
AcDbLine
10
-28.0456575682380
20
11.2681896487018
30
0.000000000000000
11
-27.9456575682380
21
11.2239114623301
31
0.000000000000000
  0
LINE
  5
F10A23
330
F10A24
100
AcDbEntity
8
Geo
100
AcDbLine
10
-27.9456575682380
20
11.2239114623301
30
0.000000000000000
11
-27.8456575682380
21
11.1789502382042
31
0.000000000000000
  0
LINE
  5
F10A25
330
F10A26
100
AcDbEntity
8
Geo
100
AcDbLine
10
-27.8456575682380
20
11.1789502382042
30
0.000000000000000
11
-27.7456575682380
21
11.1333226281156
31
0.000000000000000
  0
LINE
  5
F10A27
330
F10A28
100
AcDbEntity
8
Geo
100
AcDbLine
10
-27.7456575682380
20
11.1333226281156
30
0.000000000000000
11
-27.6456575682380
21
11.0870455306574
31
0.000000000000000
  0
LINE
  5
F10A29
330
F10A2A
100
AcDbEntity
8
Geo
100
AcDbLine
10
-27.6456575682380
20
11.0870455306574
30
0.000000000000000
11
-27.5456575682380
21
11.0401360849664
31
0.000000000000000
  0
LINE
  5
F10A2B
330
F10A2C
100
AcDbEntity
8
Geo
100
AcDbLine
10
-27.5456575682380
20
11.0401360849664
30
0.000000000000000
11
-27.4456575682380
21
10.9926116643752
31
0.000000000000000
  0
LINE
  5
F10A2D
330
F10A2E
100
AcDbEntity
8
Geo
100
AcDbLine
10
-27.4456575682380
20
10.9926116643752
30
0.000000000000000
11
-27.3456575682380
21
10.9444898699778
31
0.000000000000000
  0
LINE
  5
F10A2F
330
F10A30
100
AcDbEntity
8
Geo
100
AcDbLine
10
-27.3456575682380
20
10.9444898699778
30
0.000000000000000
11
-27.2456575682380
21
10.8957885241108
31
0.000000000000000
  0
LINE
  5
F10A31
330
F10A32
100
AcDbEntity
8
Geo
100
AcDbLine
10
-27.2456575682380
20
10.8957885241108
30
0.000000000000000
11
-27.1456575682380
21
10.8465256637532
31
0.000000000000000
  0
LINE
  5
F10A33
330
F10A34
100
AcDbEntity
8
Geo
100
AcDbLine
10
-27.1456575682380
20
10.8465256637532
30
0.000000000000000
11
-27.0456575682379
21
10.7967195338455
31
0.000000000000000
  0
LINE
  5
F10A35
330
F10A36
100
AcDbEntity
8
Geo
100
AcDbLine
10
-27.0456575682379
20
10.7967195338455
30
0.000000000000000
11
-26.9456575682379
21
10.7463885805333
31
0.000000000000000
  0
LINE
  5
F10A37
330
F10A38
100
AcDbEntity
8
Geo
100
AcDbLine
10
-26.9456575682379
20
10.7463885805333
30
0.000000000000000
11
-26.8456575682379
21
10.6955514443350
31
0.000000000000000
  0
LINE
  5
F10A39
330
F10A3A
100
AcDbEntity
8
Geo
100
AcDbLine
10
-26.8456575682379
20
10.6955514443350
30
0.000000000000000
11
-26.7456575682379
21
10.6442269532385
31
0.000000000000000
  0
LINE
  5
F10A3B
330
F10A3C
100
AcDbEntity
8
Geo
100
AcDbLine
10
-26.7456575682379
20
10.6442269532385
30
0.000000000000000
11
-26.6456575682379
21
10.5924341157279
31
0.000000000000000
  0
LINE
  5
F10A3D
330
F10A3E
100
AcDbEntity
8
Geo
100
AcDbLine
10
-26.6456575682379
20
10.5924341157279
30
0.000000000000000
11
-26.5456575682379
21
10.5401921137435
31
0.000000000000000
  0
LINE
  5
F10A3F
330
F10A40
100
AcDbEntity
8
Geo
100
AcDbLine
10
-26.5456575682379
20
10.5401921137435
30
0.000000000000000
11
-26.4456575682379
21
10.4875202955777
31
0.000000000000000
  0
LINE
  5
F10A41
330
F10A42
100
AcDbEntity
8
Geo
100
AcDbLine
10
-26.4456575682379
20
10.4875202955777
30
0.000000000000000
11
-26.3456575682379
21
10.4344381687093
31
0.000000000000000
  0
LINE
  5
F10A43
330
F10A44
100
AcDbEntity
8
Geo
100
AcDbLine
10
-26.3456575682379
20
10.4344381687093
30
0.000000000000000
11
-26.2456575682379
21
10.3809653925785
31
0.000000000000000
  0
LINE
  5
F10A45
330
F10A46
100
AcDbEntity
8
Geo
100
AcDbLine
10
-26.2456575682379
20
10.3809653925785
30
0.000000000000000
11
-26.1456575682379
21
10.3271217713059
31
0.000000000000000
  0
LINE
  5
F10A47
330
F10A48
100
AcDbEntity
8
Geo
100
AcDbLine
10
-26.1456575682379
20
10.3271217713059
30
0.000000000000000
11
-26.0456575682379
21
10.2729272463580
31
0.000000000000000
  0
LINE
  5
F10A49
330
F10A4A
100
AcDbEntity
8
Geo
100
AcDbLine
10
-26.0456575682379
20
10.2729272463580
30
0.000000000000000
11
-25.9456575682379
21
10.2184018891616
31
0.000000000000000
  0
LINE
  5
F10A4B
330
F10A4C
100
AcDbEntity
8
Geo
100
AcDbLine
10
-25.9456575682379
20
10.2184018891616
30
0.000000000000000
11
-25.8456575682379
21
10.1635658936701
31
0.000000000000000
  0
LINE
  5
F10A4D
330
F10A4E
100
AcDbEntity
8
Geo
100
AcDbLine
10
-25.8456575682379
20
10.1635658936701
30
0.000000000000000
11
-25.7456575682379
21
10.1084395688847
31
0.000000000000000
  0
LINE
  5
F10A4F
330
F10A50
100
AcDbEntity
8
Geo
100
AcDbLine
10
-25.7456575682379
20
10.1084395688847
30
0.000000000000000
11
-25.6456575682379
21
10.0530433313325
31
0.000000000000000
  0
LINE
  5
F10A51
330
F10A52
100
AcDbEntity
8
Geo
100
AcDbLine
10
-25.6456575682379
20
10.0530433313325
30
0.000000000000000
11
-25.5456575682379
21
9.99739769750525
31
0.000000000000000
  0
LINE
  5
F10A53
330
F10A54
100
AcDbEntity
8
Geo
100
AcDbLine
10
-25.5456575682379
20
9.99739769750525
30
0.000000000000000
11
-25.4456575682379
21
9.94152327626099
31
0.000000000000000
  0
LINE
  5
F10A55
330
F10A56
100
AcDbEntity
8
Geo
100
AcDbLine
10
-25.4456575682379
20
9.94152327626099
30
0.000000000000000
11
-25.3456575682379
21
9.88544076119105
31
0.000000000000000
  0
LINE
  5
F10A57
330
F10A58
100
AcDbEntity
8
Geo
100
AcDbLine
10
-25.3456575682379
20
9.88544076119105
30
0.000000000000000
11
-25.2456575682379
21
9.82917092295622
31
0.000000000000000
  0
LINE
  5
F10A59
330
F10A5A
100
AcDbEntity
8
Geo
100
AcDbLine
10
-25.2456575682379
20
9.82917092295622
30
0.000000000000000
11
-25.1456575682379
21
9.77273460159412
31
0.000000000000000
  0
LINE
  5
F10A5B
330
F10A5C
100
AcDbEntity
8
Geo
100
AcDbLine
10
-25.1456575682379
20
9.77273460159412
30
0.000000000000000
11
-25.0456575682379
21
9.71615269880086
31
0.000000000000000
  0
LINE
  5
F10A5D
330
F10A5E
100
AcDbEntity
8
Geo
100
AcDbLine
10
-25.0456575682379
20
9.71615269880086
30
0.000000000000000
11
-24.9456575682379
21
9.65944617018995
31
0.000000000000000
  0
LINE
  5
F10A5F
330
F10A60
100
AcDbEntity
8
Geo
100
AcDbLine
10
-24.9456575682379
20
9.65944617018995
30
0.000000000000000
11
-24.8456575682379
21
9.60263601753118
31
0.000000000000000
  0
LINE
  5
F10A61
330
F10A62
100
AcDbEntity
8
Geo
100
AcDbLine
10
-24.8456575682379
20
9.60263601753118
30
0.000000000000000
11
-24.7456575682379
21
9.54574328097242
31
0.000000000000000
  0
LINE
  5
F10A63
330
F10A64
100
AcDbEntity
8
Geo
100
AcDbLine
10
-24.7456575682379
20
9.54574328097242
30
0.000000000000000
11
-24.6456575682379
21
9.48878903124725
31
0.000000000000000
  0
LINE
  5
F10A65
330
F10A66
100
AcDbEntity
8
Geo
100
AcDbLine
10
-24.6456575682379
20
9.48878903124725
30
0.000000000000000
11
-24.5456575682379
21
9.43179436187118
31
0.000000000000000
  0
LINE
  5
F10A67
330
F10A68
100
AcDbEntity
8
Geo
100
AcDbLine
10
-24.5456575682379
20
9.43179436187118
30
0.000000000000000
11
-24.4456575682379
21
9.37478038132951
31
0.000000000000000
  0
LINE
  5
F10A69
330
F10A6A
100
AcDbEntity
8
Geo
100
AcDbLine
10
-24.4456575682379
20
9.37478038132951
30
0.000000000000000
11
-24.3456575682379
21
9.31776820525960
31
0.000000000000000
  0
LINE
  5
F10A6B
330
F10A6C
100
AcDbEntity
8
Geo
100
AcDbLine
10
-24.3456575682379
20
9.31776820525960
30
0.000000000000000
11
-24.2456575682379
21
9.26077894863051
31
0.000000000000000
  0
LINE
  5
F10A6D
330
F10A6E
100
AcDbEntity
8
Geo
100
AcDbLine
10
-24.2456575682379
20
9.26077894863051
30
0.000000000000000
11
-24.1456575682379
21
9.20383371792288
31
0.000000000000000
  0
LINE
  5
F10A6F
330
F10A70
100
AcDbEntity
8
Geo
100
AcDbLine
10
-24.1456575682379
20
9.20383371792288
30
0.000000000000000
11
-24.0456575682379
21
9.14695360331195
31
0.000000000000000
  0
LINE
  5
F10A71
330
F10A72
100
AcDbEntity
8
Geo
100
AcDbLine
10
-24.0456575682379
20
9.14695360331195
30
0.000000000000000
11
-23.9456575682379
21
9.09015967085664
31
0.000000000000000
  0
LINE
  5
F10A73
330
F10A74
100
AcDbEntity
8
Geo
100
AcDbLine
10
-23.9456575682379
20
9.09015967085664
30
0.000000000000000
11
-23.8456575682379
21
9.03347295469752
31
0.000000000000000
  0
LINE
  5
F10A75
330
F10A76
100
AcDbEntity
8
Geo
100
AcDbLine
10
-23.8456575682379
20
9.03347295469752
30
0.000000000000000
11
-23.7456575682379
21
8.97691444926669
31
0.000000000000000
  0
LINE
  5
F10A77
330
F10A78
100
AcDbEntity
8
Geo
100
AcDbLine
10
-23.7456575682379
20
8.97691444926669
30
0.000000000000000
11
-23.6456575682379
21
8.92050510151220
31
0.000000000000000
  0
LINE
  5
F10A79
330
F10A7A
100
AcDbEntity
8
Geo
100
AcDbLine
10
-23.6456575682379
20
8.92050510151220
30
0.000000000000000
11
-23.5456575682379
21
8.86426580314027
31
0.000000000000000
  0
LINE
  5
F10A7B
330
F10A7C
100
AcDbEntity
8
Geo
100
AcDbLine
10
-23.5456575682379
20
8.86426580314027
30
0.000000000000000
11
-23.4456575682379
21
8.80821738287779
31
0.000000000000000
  0
LINE
  5
F10A7D
330
F10A7E
100
AcDbEntity
8
Geo
100
AcDbLine
10
-23.4456575682379
20
8.80821738287779
30
0.000000000000000
11
-23.3456575682379
21
8.75238059875825
31
0.000000000000000
  0
LINE
  5
F10A7F
330
F10A80
100
AcDbEntity
8
Geo
100
AcDbLine
10
-23.3456575682379
20
8.75238059875825
30
0.000000000000000
11
-23.2456575682379
21
8.69677613043377
31
0.000000000000000
  0
LINE
  5
F10A81
330
F10A82
100
AcDbEntity
8
Geo
100
AcDbLine
10
-23.2456575682379
20
8.69677613043377
30
0.000000000000000
11
-23.1456575682379
21
8.64142457151628
31
0.000000000000000
  0
LINE
  5
F10A83
330
F10A84
100
AcDbEntity
8
Geo
100
AcDbLine
10
-23.1456575682379
20
8.64142457151628
30
0.000000000000000
11
-23.0456575682379
21
8.58634642195041
31
0.000000000000000
  0
LINE
  5
F10A85
330
F10A86
100
AcDbEntity
8
Geo
100
AcDbLine
10
-23.0456575682379
20
8.58634642195041
30
0.000000000000000
11
-22.9456575682379
21
8.53156208042123
31
0.000000000000000
  0
LINE
  5
F10A87
330
F10A88
100
AcDbEntity
8
Geo
100
AcDbLine
10
-22.9456575682379
20
8.53156208042123
30
0.000000000000000
11
-22.8456575682379
21
8.47709183679936
31
0.000000000000000
  0
LINE
  5
F10A89
330
F10A8A
100
AcDbEntity
8
Geo
100
AcDbLine
10
-64.7456575682382
20
9.37965260545907
30
0.000000000000000
11
-64.7456575682382
21
9.37965260545907
31
0.000000000000000
  0
LINE
  5
F10A8B
330
F10A8C
100
AcDbEntity
8
Geo
100
AcDbLine
10
-64.7456575682382
20
9.37965260545907
30
0.000000000000000
11
-64.7456575682382
21
9.37965260545907
31
0.000000000000000
  0
LINE
  5
F10A8D
330
F10A8E
100
AcDbEntity
8
Geo
100
AcDbLine
10
85.2543424317618
20
12.1796526054591
30
0.000000000000000
11
85.2543424317618
21
9.37965260545907
31
0.000000000000000
  0
ARC
  5
F10A8F
330
F10A90
100
AcDbEntity
8
Geo
100
AcDbCircle
10
-61.7456575682382
20
9.37965260545907
30
0.000000000000000
 40
3.00000000000000
100
AcDbArc
 50
180.000000000000
 51
270.000000000000
  0
LINE
  5
F10A91
330
F10A92
100
AcDbEntity
8
Geo
100
AcDbLine
10
-61.7456575682382
20
6.37965260545907
30
0.000000000000000
11
-22.7456575682382
21
6.37965260545907
31
0.000000000000000
  0
LINE
  5
F10A93
330
F10A94
100
AcDbEntity
8
Geo
100
AcDbLine
10
-22.7456575682382
20
6.37965260545907
30
0.000000000000000
11
-22.7456575682382
21
6.38015260545907
31
0.000000000000000
  0
LINE
  5
F10A95
330
F10A96
100
AcDbEntity
8
Geo
100
AcDbLine
10
-22.7456575682382
20
6.38015260545907
30
0.000000000000000
11
-20.7456575682382
21
6.38015260545907
31
0.000000000000000
  0
LINE
  5
F10A97
330
F10A98
100
AcDbEntity
8
Geo
100
AcDbLine
10
-20.7456575682382
20
6.38015260545907
30
0.000000000000000
11
-20.7456575682382
21
6.37965260545907
31
0.000000000000000
  0
LINE
  5
F10A99
330
F10A9A
100
AcDbEntity
8
Geo
100
AcDbLine
10
-20.7456575682382
20
6.37965260545907
30
0.000000000000000
11
85.0543424317618
21
6.37965260545907
31
0.000000000000000
  0
LINE
  5
F10A9B
330
F10A9C
100
AcDbEntity
8
Geo
100
AcDbLine
10
85.0543424317618
20
6.37965260545907
30
0.000000000000000
11
85.2543424317618
21
6.57965260545907
31
0.000000000000000
  0
LINE
  5
F10A9D
330
F10A9E
100
AcDbEntity
8
Geo
100
AcDbLine
10
-61.7456575682382
20
12.3796526054591
30
0.000000000000000
11
-61.7456575682382
21
6.37965260545907
31
0.000000000000000
  0
LINE
  5
F10A9F
330
F10AA0
100
AcDbEntity
8
Geo
100
AcDbLine
10
-22.7456575682382
20
12.3796526054591
30
0.000000000000000
11
-22.7456575682382
21
6.37965260545907
31
0.000000000000000
  0
LINE
  5
F10AA1
330
F10AA2
100
AcDbEntity
8
Geo
100
AcDbLine
10
-22.7456575682382
20
12.3791526054591
30
0.000000000000000
11
-22.7456575682382
21
6.38015260545907
31
0.000000000000000
  0
LINE
  5
F10AA3
330
F10AA4
100
AcDbEntity
8
Geo
100
AcDbLine
10
-20.7456575682382
20
12.3791526054591
30
0.000000000000000
11
-20.7456575682382
21
6.38015260545907
31
0.000000000000000
  0
LINE
  5
F10AA5
330
F10AA6
100
AcDbEntity
8
Geo
100
AcDbLine
10
85.0543424317618
20
12.3796526054591
30
0.000000000000000
11
85.0543424317618
21
6.37965260545907
31
0.000000000000000
  0
LINE
  5
F10AA7
330
F10AA8
100
AcDbEntity
8
Geo
100
AcDbLine
10
85.2543424317618
20
12.1796526054591
30
0.000000000000000
11
85.2543424317618
21
6.57965260545907
31
0.000000000000000
  0
LWPOLYLINE
  5
F10AA9
330
F10AAA
100
AcDbEntity
8
Rahmen
100
AcDbPolyline
90
   4
70
   1
43
   0.0
 10
-166.488833746898
 20
105.000000000000
 10
-166.488833746898
 20
105.000000000000
 10
-166.488833746898
 20
105.000000000000
 10
-166.488833746898
 20
105.000000000000
  0
TEXT
  5
F10AAB
330
F10AAC
 100
AcDbEntity
8
Text
100
AcDbText
10
-166.488833746898
20
105.500000000000
30
0.000000000000000
40
1.00000000000000
1
 -       
100
AcDbText
  0
LWPOLYLINE
  5
F10AAD
330
F10AAE
100
AcDbEntity
8
Rahmen
100
AcDbPolyline
90
   4
70
   1
43
   0.0
 10
-134.702233250620
 20
99.7890818858561
 10
143.300248138958
 20
99.7890818858561
 10
143.300248138958
 20
-100.049627791563
 10
-134.702233250620
 20
-100.049627791563
  0
TEXT
  5
F10AAF
330
F10AB0
 100
AcDbEntity
8
Text
100
AcDbText
10
-133.660049627792
20
-99.5496277915633
30
0.000000000000000
40
1.00000000000000
1
ISBESketcher - ©ISBE GmbH      Licensed for: Van Hoorn Hardmetaal BV
100
AcDbText
  0
LWPOLYLINE
  5
F10AB1
330
F10AB2
100
AcDbEntity
8
Rahmen
100
AcDbPolyline
90
   4
70
   1
43
   0.0
 10
103.436724565757
 20
-97.1836228287841
 10
143.300248138958
 20
-97.1836228287841
 10
143.300248138958
 20
-100.049627791563
 10
103.436724565757
 20
-100.049627791563
  0
TEXT
  5
F10AB3
330
F10AB4
 100
AcDbEntity
8
Text
100
AcDbText
10
104.478908188586
20
-98.1836228287841
30
0.000000000000000
40
0.750000000000000
1
Created by:
100
AcDbText
  0
TEXT
  5
F10AB5
330
F10AB6
 100
AcDbEntity
8
Text
100
AcDbText
10
131.315136476427
20
-99.4863523573201
30
0.000000000000000
40
0.750000000000000
1

100
AcDbText
  0
LWPOLYLINE
  5
F10AB7
330
F10AB8
100
AcDbEntity
8
Rahmen
100
AcDbPolyline
90
   4
70
   1
43
   0.0
 10
63.3126550868486
 20
-97.1836228287841
 10
103.436724565757
 20
-97.1836228287841
 10
103.436724565757
 20
-100.049627791563
 10
63.3126550868486
 20
-100.049627791563
  0
TEXT
  5
F10AB9
330
F10ABA
 100
AcDbEntity
8
Text
100
AcDbText
10
64.3548387096774
20
-98.1836228287841
30
0.000000000000000
40
0.750000000000000
1
Created for:
100
AcDbText
  0
TEXT
  5
F10ABB
330
F10ABC
 100
AcDbEntity
8
Text
100
AcDbText
10
91.4516129032258
20
-99.4863523573201
30
0.000000000000000
40
0.750000000000000
1

100
AcDbText
  0
LWPOLYLINE
  5
F10ABD
330
F10ABE
100
AcDbEntity
8
Rahmen
100
AcDbPolyline
90
   4
70
   1
43
   0.0
 10
130.012406947891
 20
-94.0570719602978
 10
143.300248138958
 20
-94.0570719602978
 10
143.300248138958
 20
-97.1836228287841
 10
130.012406947891
 20
-97.1836228287841
  0
TEXT
  5
F10ABF
330
F10AC0
 100
AcDbEntity
8
Text
100
AcDbText
10
131.054590570720
20
-95.0570719602978
30
0.000000000000000
40
0.750000000000000
1
Pages
100
AcDbText
  0
TEXT
  5
F10AC1
330
F10AC2
 100
AcDbEntity
8
Text
100
AcDbText
10
141.215880893300
20
-96.3598014888337
30
0.000000000000000
40
0.750000000000000
1

100
AcDbText
  0
LWPOLYLINE
  5
F10AC3
330
F10AC4
100
AcDbEntity
8
Rahmen
100
AcDbPolyline
90
   4
70
   1
43
   0.0
 10
130.012406947891
 20
-91.1910669975186
 10
143.300248138958
 20
-91.1910669975186
 10
143.300248138958
 20
-94.0570719602978
 10
130.012406947891
 20
-94.0570719602978
  0
TEXT
  5
F10AC5
330
F10AC6
 100
AcDbEntity
8
Text
100
AcDbText
10
131.054590570720
20
-92.1910669975186
30
0.000000000000000
40
0.750000000000000
1
Page
100
AcDbText
  0
TEXT
  5
F10AC7
330
F10AC8
 100
AcDbEntity
8
Text
100
AcDbText
10
141.215880893300
20
-93.4937965260546
30
0.000000000000000
40
0.750000000000000
1

100
AcDbText
  0
LWPOLYLINE
  5
F10AC9
330
F10ACA
100
AcDbEntity
8
Rahmen
100
AcDbPolyline
90
   4
70
   1
43
   0.0
 10
63.3126550868486
 20
-91.1910669975186
 10
130.012406947891
 20
-91.1910669975186
 10
130.012406947891
 20
-97.1836228287841
 10
63.3126550868486
 20
-97.1836228287841
  0
TEXT
  5
F10ACB
330
F10ACC
 100
AcDbEntity
8
Text
100
AcDbText
10
64.3548387096774
20
-92.1910669975186
30
0.000000000000000
40
0.750000000000000
1
Date:
100
AcDbText
  0
TEXT
  5
F10ACD
330
F10ACE
 100
AcDbEntity
8
Text
100
AcDbText
10
90.4094292803970
20
-95.0570719602978
30
0.000000000000000
40
0.750000000000000
1
21.09.2016
100
AcDbText
  0
LWPOLYLINE
  5
F10ACF
330
F10AD0
100
AcDbEntity
8
Rahmen
100
AcDbPolyline
90
   4
70
   1
43
   0.0
 10
63.3126550868486
 20
-85.1985111662531
 10
143.300248138958
 20
-85.1985111662531
 10
143.300248138958
 20
-91.1910669975186
 10
63.3126550868486
 20
-91.1910669975186
  0
TEXT
  5
F10AD1
330
F10AD2
 100
AcDbEntity
8
Text
100
AcDbText
10
-166.488833746898
20
103.000000000000
30
0.000000000000000
40
1.50000000000000
1

100
AcDbText
  0
TEXT
  5
F10AD3
330
F10AD4
 100
AcDbEntity
8
Text
100
AcDbText
10
83.1141439205955
20
-89.0529363110008
30
0.000000000000000
40
2.50000000000000
1
VHGKF20601500602
100
AcDbText
  0
LWPOLYLINE
  5
F10AD5
330
F10AD6
100
AcDbEntity
8
Rahmen
100
AcDbPolyline
90
   4
70
   1
43
   0.0
 10
103.436724565757
 20
-79.2059553349876
 10
143.300248138958
 20
-79.2059553349876
 10
143.300248138958
 20
-85.1985111662531
 10
103.436724565757
 20
-85.1985111662531
  0
TEXT
  5
F10AD7
330
F10AD8
 100
AcDbEntity
8
Text
100
AcDbText
10
104.478908188586
20
-80.2059553349876
30
0.000000000000000
40
0.750000000000000
1
Work piece material:
100
AcDbText
  0
TEXT
  5
F10AD9
330
F10ADA
 100
AcDbEntity
8
Text
100
AcDbText
10
123.238213399504
20
-84.3746898263027
30
0.000000000000000
40
0.750000000000000
1

100
AcDbText
  0
LWPOLYLINE
  5
F10ADB
330
F10ADC
100
AcDbEntity
8
Rahmen
100
AcDbPolyline
90
   4
70
   1
43
   0.0
 10
63.3126550868486
 20
-79.2059553349876
 10
103.436724565757
 20
-79.2059553349876
 10
103.436724565757
 20
-85.1985111662531
 10
63.3126550868486
 20
-85.1985111662531
  0
TEXT
  5
F10ADD
330
F10ADE
 100
AcDbEntity
8
Text
100
AcDbText
10
64.3548387096774
20
-80.2059553349876
30
0.000000000000000
40
0.750000000000000
1
Tool material:
100
AcDbText
  0
TEXT
  5
F10ADF
330
F10AE0
 100
AcDbEntity
8
Text
100
AcDbText
10
83.1141439205955
20
-84.3746898263027
30
0.000000000000000
40
0.750000000000000
1

100
AcDbText
  0
LWPOLYLINE
  5
F10AE1
330
F10AE2
100
AcDbEntity
8
Rahmen
100
AcDbPolyline
90
   4
70
   1
43
   0.0
 10
103.436724565757
 20
-76.0794044665012
 10
143.300248138958
 20
-76.0794044665012
 10
143.300248138958
 20
-79.2059553349876
 10
103.436724565757
 20
-79.2059553349876
  0
TEXT
  5
F10AE3
330
F10AE4
 100
AcDbEntity
8
Text
100
AcDbText
10
-166.488833746898
20
103.000000000000
30
0.000000000000000
40
1.50000000000000
1

100
AcDbText
  0
TEXT
  5
F10AE5
330
F10AE6
 100
AcDbEntity
8
Text
100
AcDbText
10
123.238213399504
20
-78.3821339950372
30
0.000000000000000
40
0.750000000000000
1

100
AcDbText
  0
LWPOLYLINE
  5
F10AE7
330
F10AE8
100
AcDbEntity
8
Rahmen
100
AcDbPolyline
90
   4
70
   1
43
   0.0
 10
63.3126550868486
 20
-76.0794044665012
 10
103.436724565757
 20
-76.0794044665012
 10
103.436724565757
 20
-79.2059553349876
 10
63.3126550868486
 20
-79.2059553349876
  0
TEXT
  5
F10AE9
330
F10AEA
 100
AcDbEntity
8
Text
100
AcDbText
10
64.3548387096774
20
-77.0794044665012
30
0.000000000000000
40
0.750000000000000
1
Scale:
100
AcDbText
  0
TEXT
  5
F10AEB
330
F10AEC
 100
AcDbEntity
8
Text
100
AcDbText
10
88.8461538461538
20
-77.0794044665012
30
0.000000000000000
40
0.750000000000000
1
1 : 1
100
AcDbText
0
VIEWPORT
5
294
102
{ACAD_XDICTIONARY
360
58A
102
}
330
25D
100
AcDbEntity
67
1
8
0
60
1
100
AcDbViewport
10
0.0
20
0.0
30
0.0
40
10.0
41
10.0
68
-1
69
1
12
0.0
22
0.0
13
0.0
23
0.0
14
1.0
24
1.0
15
0.0
25
0.0
16
0.0
26
0.0
36
1.0
17
0.0
27
0.0
37
0.0
42
0.0
43
0.0
44
0.0
45
10.0
50
0.0
51
0.0000000000007958
72
100
90
32800
1

281
0
71
0
74
0
110
0.0
120
0.0
130
0.0
111
1.0
121
0.0
131
0.0
112
0.0
122
1.0
132
0.0
79
0
146
0.0
1001
VD_INVISIBLE_NOT_FOR_READ
1000
VD_INVISIBLE_NOT_FOR_READ
0
VIEWPORT
5
295
102
{ACAD_XDICTIONARY
360
58C
102
}
330
25D
100
AcDbEntity
67
1
8
0
60
1
100
AcDbViewport
10
0.0
20
0.0
30
0.0
40
10.0
41
10.0
68
0
69
2
12
0.0
22
0.0
13
0.0
23
0.0
14
1.0
24
1.0
15
0.0
25
0.0
16
0.0
26
0.0
36
1.0
17
0.0
27
0.0
37
0.0
42
0.0
43
0.0
44
0.0
45
10.0
50
0.0
51
0.0000000000007958
72
100
90
163872
1

281
0
71
0
74
0
110
0.0
120
0.0
130
0.0
111
1.0
121
0.0
131
0.0
112
0.0
122
1.0
132
0.0
79
0
146
0.0
1001
VD_INVISIBLE_NOT_FOR_READ
1000
VD_INVISIBLE_NOT_FOR_READ
0
ENDSEC
0
SECTION
2
OBJECTS
0
DICTIONARY
5
13
330
0
100
AcDbDictionary
281
1
3
ACAD_COLOR
350
FA7
3
ACAD_GROUP
350
14
3
ACAD_LAYOUT
350
FCF
3
ACAD_MATERIAL
350
F7A
3
ACAD_MLEADERSTYLE
350
FCD
3
ACAD_MLINESTYLE
350
16
3
ACAD_PLOTSETTINGS
350
17
3
ACAD_PLOTSTYLENAME
350
18
3
ACAD_SCALELIST
350
FAB
3
ACAD_TABLESTYLE
350
FA8
3
ACAD_VISUALSTYLE
350
F93
3
ACDB_RECOMPOSE_DATA
350
107E
3
AcDbVariableDictionary
350
FF0
3
DWGPROPS
350
107F
0
DICTIONARY
5
F1000F
330
F1000E
100
AcDbDictionary
280
1
281
1
3
ACAD_MTEXT_2008_RT
360
F10010
0
DICTIONARY
5
F10019
330
F10018
100
AcDbDictionary
280
1
281
1
3
ACAD_MTEXT_2008_RT
360
F1001A
0
DICTIONARY
5
F1001E
330
F1001D
100
AcDbDictionary
280
1
281
1
3
ACAD_MTEXT_2008_RT
360
F1001F
0
DICTIONARY
5
F1000A
330
F10009
100
AcDbDictionary
280
1
281
1
3
ACAD_MTEXT_2008_RT
360
F1000B
0
DICTIONARY
5
F10005
330
F10004
100
AcDbDictionary
280
1
281
1
3
ACAD_MTEXT_2008_RT
360
F10006
0
DICTIONARY
5
F10014
330
F10013
100
AcDbDictionary
280
1
281
1
3
ACAD_MTEXT_2008_RT
360
F10015
0
DICTIONARY
5
FA7
102
{ACAD_REACTORS
330
13
102
}
330
13
100
AcDbDictionary
281
1
0
DICTIONARY
5
14
330
13
100
AcDbDictionary
281
1
0
DICTIONARY
5
FCF
102
{ACAD_REACTORS
330
13
102
}
330
13
100
AcDbDictionary
281
1
3
Layout1
350
FD1
3
Model
350
FD0
0
DICTIONARY
5
F7A
102
{ACAD_REACTORS
330
13
102
}
330
13
100
AcDbDictionary
281
1
3
ByBlock
350
F83
3
ByLayer
350
F7B
3
Global
350
F8B
0
DICTIONARY
5
FCD
102
{ACAD_REACTORS
330
13
102
}
330
13
100
AcDbDictionary
281
1
3
Standard
350
FCE
0
DICTIONARY
5
16
330
13
100
AcDbDictionary
281
1
3
Standard
350
FAA
0
DICTIONARY
5
17
102
{ACAD_REACTORS
330
13
102
}
330
13
100
AcDbDictionary
281
1
0
ACDBDICTIONARYWDFLT
5
18
102
{ACAD_REACTORS
330
13
102
}
330
13
100
AcDbDictionary
281
1
3
Normal
350
19
100
AcDbDictionaryWithDefault
340
19
0
DICTIONARY
5
FAB
102
{ACAD_REACTORS
330
13
102
}
330
13
100
AcDbDictionary
281
1
3
A0
350
FAC
3
A1
350
FAD
3
A2
350
FAE
3
A3
350
FAF
3
A4
350
FB0
3
A5
350
FB1
3
A6
350
FB2
3
A7
350
FB3
3
A8
350
FB4
3
A9
350
FB5
3
B0
350
FB6
3
B1
350
FB7
3
B2
350
FB8
3
B3
350
FB9
3
B4
350
FBA
3
B5
350
FBB
3
B6
350
FBC
3
B7
350
FBD
3
B8
350
FBE
3
B9
350
FBF
3
C0
350
FC0
3
C1
350
FC1
3
C2
350
FC2
3
C3
350
FC3
3
C4
350
FC4
3
C5
350
FC5
3
C6
350
FC6
3
C7
350
FC7
3
C8
350
FC8
3
C9
350
FC9
3
D0
350
FCA
3
D1
350
FCB
3
D2
350
FCC
0
DICTIONARY
5
FA8
102
{ACAD_REACTORS
330
13
102
}
330
13
100
AcDbDictionary
281
1
3
Standard
350
FA9
0
DICTIONARY
5
F93
102
{ACAD_REACTORS
330
13
102
}
330
13
100
AcDbDictionary
281
1
3
2dWireframe
350
F99
3
3D Hidden
350
F9B
3
3dWireframe
350
F9A
3
Basic
350
F98
3
Brighten
350
F9F
3
ColorChange
350
FA3
3
Conceptual
350
F9C
3
Dim
350
F9E
3
EdgeColorOff
350
FA6
3
Facepattern
350
FA2
3
Flat
350
F94
3
FlatWithEdges
350
F95
3
Gouraud
350
F96
3
GouraudWithEdges
350
F97
3
JitterOff
350
FA4
3
Linepattern
350
FA1
3
OverhangOff
350
FA5
3
Realistic
350
F9D
3
Thicken
350
FA0
0
XRECORD
5
107E
102
{ACAD_REACTORS
330
13
102
}
330
13
100
AcDbXrecord
280
1
90
1
330
FA9
330
F1000E
330
F10018
330
F1001D
330
F10009
330
F10004
330
F10013
0
DICTIONARY
5
FF0
102
{ACAD_REACTORS
330
13
102
}
330
13
100
AcDbDictionary
281
1
3
CANNOSCALE
350
FF3
3
CMLEADERSTYLE
350
FF2
3
CTABLESTYLE
350
FF1
3
DIMASSOC
350
FF6
3
INDEXCTL
350
FF5
3
SORTENTS
350
FF4
3
XCLIPFRAME
350
1078
0
XRECORD
5
107F
102
{ACAD_REACTORS
330
13
102
}
330
13
100
AcDbXrecord
280
1
1
DWGPROPS COOKIE
2

3

4

6

7

8

9

300
=
301
=
302
=
303
=
304
=
305
=
306
=
307
=
308
=
309
=
40
0.0
41
0.0
42
0.0
1

90
0
0
XRECORD
5
F10010
102
{ACAD_REACTORS
330
F1000F
102
}
330
F1000F
100
AcDbXrecord
280
1
40
48458.0
1
\A1;106
0
XRECORD
5
F1001A
102
{ACAD_REACTORS
330
F10019
102
}
330
F10019
100
AcDbXrecord
280
1
40
48458.0
1
\A1;42
0
XRECORD
5
F1001F
102
{ACAD_REACTORS
330
F1001E
102
}
330
F1001E
100
AcDbXrecord
280
1
40
48458.0
1
\A1;150
0
XRECORD
5
F1000B
102
{ACAD_REACTORS
330
F1000A
102
}
330
F1000A
100
AcDbXrecord
280
1
40
48458.0
1
\A1;R3
0
XRECORD
5
F10006
102
{ACAD_REACTORS
330
F10005
102
}
330
F10005
100
AcDbXrecord
280
1
40
48458.0
1
\A1;6
0
LAYOUT
5
FD1
102
{ACAD_XDICTIONARY
360
10A9
102
}
102
{ACAD_REACTORS
330
FCF
102
}
330
FCF
100
AcDbPlotSettings
1

2
Microsoft XPS Document Writer
4

6

40
0.0
41
0.0
42
0.0
43
0.0
44
0.0
45
0.0
46
0.0
47
0.0
48
0.0
49
0.0
140
0.0
141
0.0
142
1.0
143
1.0
70
688
72
0
73
0
74
5
7

75
16
147
1.0
148
0.0
149
0.0
100
AcDbLayout
1
Layout1
70
1
71
1
10
0.0
20
0.0
11
12.0
21
9.0
12
0.0
22
0.0
32
0.0
14
1.000000000000000E+20
24
1.000000000000000E+20
34
1.000000000000000E+20
15
-1.000000000000000E+20
25
-1.000000000000000E+20
35
-1.000000000000000E+20
146
0.0
13
0.0
23
0.0
33
0.0
16
1.0
26
0.0
36
0.0
17
0.0
27
1.0
37
0.0
76
0
330
25D
0
LAYOUT
5
FD0
102
{ACAD_XDICTIONARY
360
10A7
102
}
102
{ACAD_REACTORS
330
FCF
102
}
330
FCF
100
AcDbPlotSettings
1

2
Microsoft XPS Document Writer
4

6

40
0.0
41
0.0
42
0.0
43
0.0
44
0.0
45
0.0
46
0.0
47
0.0
48
0.0
49
0.0
140
0.0
141
0.0
142
1.0
143
1.0
70
1712
72
0
73
0
74
0
7

75
0
147
1.0
148
0.0
149
0.0
100
AcDbLayout
1
Model
70
1
71
0
10
0.0
20
0.0
11
12.0
21
9.0
12
0.0
22
0.0
32
0.0
14
0.0
24
0.0
34
0.0
15
0.0
25
0.0
35
0.0
146
0.0
13
0.0
23
0.0
33
0.0
16
1.0
26
0.0
36
0.0
17
0.0
27
1.0
37
0.0
76
0
330
261
331
26B
0
MATERIAL
5
F83
102
{ACAD_XDICTIONARY
360
F84
102
}
102
{ACAD_REACTORS
330
F7A
102
}
330
F7A
100
AcDbMaterial
1
ByBlock
72
0
43
0.0208333333333333
43
0.0
43
0.0
43
0.0
43
0.0
43
0.0208333333333333
43
0.0
43
0.0
43
0.0
43
0.0
43
1.0
43
0.0
43
0.0
43
0.0
43
0.0
43
1.0
77
0
47
0.0208333333333333
47
0.0
47
0.0
47
0.0
47
0.0
47
0.0208333333333333
47
0.0
47
0.0
47
0.0
47
0.0
47
1.0
47
0.0
47
0.0
47
0.0
47
0.0
47
1.0
171
0
49
0.0208333333333333
49
0.0
49
0.0
49
0.0
49
0.0
49
0.0208333333333333
49
0.0
49
0.0
49
0.0
49
0.0
49
1.0
49
0.0
49
0.0
49
0.0
49
0.0
49
1.0
175
0
142
0.0208333333333333
142
0.0
142
0.0
142
0.0
142
0.0
142
0.0208333333333333
142
0.0
142
0.0
142
0.0
142
0.0
142
1.0
142
0.0
142
0.0
142
0.0
142
0.0
142
1.0
179
0
144
0.0208333333333333
144
0.0
144
0.0
144
0.0
144
0.0
144
0.0208333333333333
144
0.0
144
0.0
144
0.0
144
0.0
144
1.0
144
0.0
144
0.0
144
0.0
144
0.0
144
1.0
147
0.0208333333333333
147
0.0
147
0.0
147
0.0
147
0.0
147
0.0208333333333333
147
0.0
147
0.0
147
0.0
147
0.0
147
1.0
147
0.0
147
0.0
147
0.0
147
0.0
147
1.0
0
MATERIAL
5
F7B
102
{ACAD_XDICTIONARY
360
F7C
102
}
102
{ACAD_REACTORS
330
F7A
102
}
330
F7A
100
AcDbMaterial
1
ByLayer
72
0
43
0.0208333333333333
43
0.0
43
0.0
43
0.0
43
0.0
43
0.0208333333333333
43
0.0
43
0.0
43
0.0
43
0.0
43
1.0
43
0.0
43
0.0
43
0.0
43
0.0
43
1.0
77
0
47
0.0208333333333333
47
0.0
47
0.0
47
0.0
47
0.0
47
0.0208333333333333
47
0.0
47
0.0
47
0.0
47
0.0
47
1.0
47
0.0
47
0.0
47
0.0
47
0.0
47
1.0
171
0
49
0.0208333333333333
49
0.0
49
0.0
49
0.0
49
0.0
49
0.0208333333333333
49
0.0
49
0.0
49
0.0
49
0.0
49
1.0
49
0.0
49
0.0
49
0.0
49
0.0
49
1.0
175
0
142
0.0208333333333333
142
0.0
142
0.0
142
0.0
142
0.0
142
0.0208333333333333
142
0.0
142
0.0
142
0.0
142
0.0
142
1.0
142
0.0
142
0.0
142
0.0
142
0.0
142
1.0
179
0
144
0.0208333333333333
144
0.0
144
0.0
144
0.0
144
0.0
144
0.0208333333333333
144
0.0
144
0.0
144
0.0
144
0.0
144
1.0
144
0.0
144
0.0
144
0.0
144
0.0
144
1.0
147
0.0208333333333333
147
0.0
147
0.0
147
0.0
147
0.0
147
0.0208333333333333
147
0.0
147
0.0
147
0.0
147
0.0
147
1.0
147
0.0
147
0.0
147
0.0
147
0.0
147
1.0
0
MATERIAL
5
F8B
102
{ACAD_XDICTIONARY
360
F8C
102
}
102
{ACAD_REACTORS
330
F7A
102
}
330
F7A
100
AcDbMaterial
1
Global
72
0
43
0.0208333333333333
43
0.0
43
0.0
43
0.0
43
0.0
43
0.0208333333333333
43
0.0
43
0.0
43
0.0
43
0.0
43
1.0
43
0.0
43
0.0
43
0.0
43
0.0
43
1.0
77
0
47
0.0208333333333333
47
0.0
47
0.0
47
0.0
47
0.0
47
0.0208333333333333
47
0.0
47
0.0
47
0.0
47
0.0
47
1.0
47
0.0
47
0.0
47
0.0
47
0.0
47
1.0
171
0
49
0.0208333333333333
49
0.0
49
0.0
49
0.0
49
0.0
49
0.0208333333333333
49
0.0
49
0.0
49
0.0
49
0.0
49
1.0
49
0.0
49
0.0
49
0.0
49
0.0
49
1.0
175
0
142
0.0208333333333333
142
0.0
142
0.0
142
0.0
142
0.0
142
0.0208333333333333
142
0.0
142
0.0
142
0.0
142
0.0
142
1.0
142
0.0
142
0.0
142
0.0
142
0.0
142
1.0
179
0
144
0.0208333333333333
144
0.0
144
0.0
144
0.0
144
0.0
144
0.0208333333333333
144
0.0
144
0.0
144
0.0
144
0.0
144
1.0
144
0.0
144
0.0
144
0.0
144
0.0
144
1.0
147
0.0208333333333333
147
0.0
147
0.0
147
0.0
147
0.0
147
0.0208333333333333
147
0.0
147
0.0
147
0.0
147
0.0
147
1.0
147
0.0
147
0.0
147
0.0
147
0.0
147
1.0
0
MLEADERSTYLE
5
FCE
102
{ACAD_REACTORS
330
FCD
102
}
330
FCD
100
AcDbMLeaderStyle
170
2
171
1
172
0
90
2
40
0.0
41
0.0
173
1
91
-1056964608
340
256
92
-2
290
1
42
0.09
291
1
43
0.36
3
Standard
44
0.18
300

342
253
174
1
178
6
175
1
176
0
93
-1056964608
45
0.18
292
0
297
0
46
0.18
94
-1056964608
47
1.0
49
1.0
140
1.0
293
1
141
0.0
294
1
177
0
142
1.0
295
0
296
0
143
0.125
1001
ACAD_MLEADERVER
1070
2
0
MLINESTYLE
5
FAA
102
{ACAD_REACTORS
330
16
102
}
330
16
100
AcDbMlineStyle
2
STANDARD
70
0
3

62
256
51
90.0
52
90.0
71
2
49
0.5
62
256
6
BYLAYER
49
-0.5
62
256
6
BYLAYER
0
ACDBPLACEHOLDER
5
19
102
{ACAD_REACTORS
330
18
102
}
330
18
0
SCALE
5
FAC
102
{ACAD_REACTORS
330
FAB
102
}
330
FAB
100
AcDbScale
70
0
300
1:1
140
1.0
141
1.0
290
1
0
SCALE
5
FAD
102
{ACAD_REACTORS
330
FAB
102
}
330
FAB
100
AcDbScale
70
0
300
1:2
140
1.0
141
2.0
290
0
0
SCALE
5
FAE
102
{ACAD_REACTORS
330
FAB
102
}
330
FAB
100
AcDbScale
70
0
300
1:4
140
1.0
141
4.0
290
0
0
SCALE
5
FAF
102
{ACAD_REACTORS
330
FAB
102
}
330
FAB
100
AcDbScale
70
0
300
1:5
140
1.0
141
5.0
290
0
0
SCALE
5
FB0
102
{ACAD_REACTORS
330
FAB
102
}
330
FAB
100
AcDbScale
70
0
300
1:8
140
1.0
141
8.0
290
0
0
SCALE
5
FB1
102
{ACAD_REACTORS
330
FAB
102
}
330
FAB
100
AcDbScale
70
0
300
1:10
140
1.0
141
10.0
290
0
0
SCALE
5
FB2
102
{ACAD_REACTORS
330
FAB
102
}
330
FAB
100
AcDbScale
70
0
300
1:16
140
1.0
141
16.0
290
0
0
SCALE
5
FB3
102
{ACAD_REACTORS
330
FAB
102
}
330
FAB
100
AcDbScale
70
0
300
1:20
140
1.0
141
20.0
290
0
0
SCALE
5
FB4
102
{ACAD_REACTORS
330
FAB
102
}
330
FAB
100
AcDbScale
70
0
300
1:30
140
1.0
141
30.0
290
0
0
SCALE
5
FB5
102
{ACAD_REACTORS
330
FAB
102
}
330
FAB
100
AcDbScale
70
0
300
1:40
140
1.0
141
40.0
290
0
0
SCALE
5
FB6
102
{ACAD_REACTORS
330
FAB
102
}
330
FAB
100
AcDbScale
70
0
300
1:50
140
1.0
141
50.0
290
0
0
SCALE
5
FB7
102
{ACAD_REACTORS
330
FAB
102
}
330
FAB
100
AcDbScale
70
0
300
1:100
140
1.0
141
100.0
290
0
0
SCALE
5
FB8
102
{ACAD_REACTORS
330
FAB
102
}
330
FAB
100
AcDbScale
70
0
300
2:1
140
2.0
141
1.0
290
0
0
SCALE
5
FB9
102
{ACAD_REACTORS
330
FAB
102
}
330
FAB
100
AcDbScale
70
0
300
4:1
140
4.0
141
1.0
290
0
0
SCALE
5
FBA
102
{ACAD_REACTORS
330
FAB
102
}
330
FAB
100
AcDbScale
70
0
300
8:1
140
8.0
141
1.0
290
0
0
SCALE
5
FBB
102
{ACAD_REACTORS
330
FAB
102
}
330
FAB
100
AcDbScale
70
0
300
10:1
140
10.0
141
1.0
290
0
0
SCALE
5
FBC
102
{ACAD_REACTORS
330
FAB
102
}
330
FAB
100
AcDbScale
70
0
300
100:1
140
100.0
141
1.0
290
0
0
SCALE
5
FBD
102
{ACAD_REACTORS
330
FAB
102
}
330
FAB
100
AcDbScale
70
0
300
1/128" = 1'-0"
140
0.0078125
141
12.0
290
0
0
SCALE
5
FBE
102
{ACAD_REACTORS
330
FAB
102
}
330
FAB
100
AcDbScale
70
0
300
1/64" = 1'-0"
140
0.015625
141
12.0
290
0
0
SCALE
5
FBF
102
{ACAD_REACTORS
330
FAB
102
}
330
FAB
100
AcDbScale
70
0
300
1/32" = 1'-0"
140
0.03125
141
12.0
290
0
0
SCALE
5
FC0
102
{ACAD_REACTORS
330
FAB
102
}
330
FAB
100
AcDbScale
70
0
300
1/16" = 1'-0"
140
0.0625
141
12.0
290
0
0
SCALE
5
FC1
102
{ACAD_REACTORS
330
FAB
102
}
330
FAB
100
AcDbScale
70
0
300
3/32" = 1'-0"
140
0.09375
141
12.0
290
0
0
SCALE
5
FC2
102
{ACAD_REACTORS
330
FAB
102
}
330
FAB
100
AcDbScale
70
0
300
1/8" = 1'-0"
140
0.125
141
12.0
290
0
0
SCALE
5
FC3
102
{ACAD_REACTORS
330
FAB
102
}
330
FAB
100
AcDbScale
70
0
300
3/16" = 1'-0"
140
0.1875
141
12.0
290
0
0
SCALE
5
FC4
102
{ACAD_REACTORS
330
FAB
102
}
330
FAB
100
AcDbScale
70
0
300
1/4" = 1'-0"
140
0.25
141
12.0
290
0
0
SCALE
5
FC5
102
{ACAD_REACTORS
330
FAB
102
}
330
FAB
100
AcDbScale
70
0
300
3/8" = 1'-0"
140
0.375
141
12.0
290
0
0
SCALE
5
FC6
102
{ACAD_REACTORS
330
FAB
102
}
330
FAB
100
AcDbScale
70
0
300
1/2" = 1'-0"
140
0.5
141
12.0
290
0
0
SCALE
5
FC7
102
{ACAD_REACTORS
330
FAB
102
}
330
FAB
100
AcDbScale
70
0
300
3/4" = 1'-0"
140
0.75
141
12.0
290
0
0
SCALE
5
FC8
102
{ACAD_REACTORS
330
FAB
102
}
330
FAB
100
AcDbScale
70
0
300
1" = 1'-0"
140
1.0
141
12.0
290
0
0
SCALE
5
FC9
102
{ACAD_REACTORS
330
FAB
102
}
330
FAB
100
AcDbScale
70
0
300
1-1/2" = 1'-0"
140
1.5
141
12.0
290
0
0
SCALE
5
FCA
102
{ACAD_REACTORS
330
FAB
102
}
330
FAB
100
AcDbScale
70
0
300
3" = 1'-0"
140
3.0
141
12.0
290
0
0
SCALE
5
FCB
102
{ACAD_REACTORS
330
FAB
102
}
330
FAB
100
AcDbScale
70
0
300
6" = 1'-0"
140
6.0
141
12.0
290
0
0
SCALE
5
FCC
102
{ACAD_REACTORS
330
FAB
102
}
330
FAB
100
AcDbScale
70
0
300
1'-0" = 1'-0"
140
12.0
141
12.0
290
0
0
TABLESTYLE
5
FA9
102
{ACAD_XDICTIONARY
360
FF8
102
}
102
{ACAD_REACTORS
330
FA8
102
}
330
FA8
100
AcDbTableStyle
3
Standard
70
0
71
0
40
0.06
41
0.06
280
0
281
0
7
Standard
140
0.18
170
2
62
0
63
7
283
0
274
-2
284
1
64
0
275
-2
285
1
65
0
276
-2
286
1
66
0
277
-2
287
1
67
0
278
-2
288
1
68
0
279
-2
289
1
69
0
7
Standard
140
0.25
170
5
62
0
63
7
283
0
274
-2
284
1
64
0
275
-2
285
1
65
0
276
-2
286
1
66
0
277
-2
287
1
67
0
278
-2
288
1
68
0
279
-2
289
1
69
0
7
Standard
140
0.18
170
5
62
0
63
7
283
0
274
-2
284
1
64
0
275
-2
285
1
65
0
276
-2
286
1
66
0
277
-2
287
1
67
0
278
-2
288
1
68
0
279
-2
289
1
69
0
0
VISUALSTYLE
5
F99
102
{ACAD_XDICTIONARY
360
108A
102
}
102
{ACAD_REACTORS
330
F93
102
}
330
F93
100
AcDbVisualStyle
2

70
4
71
0
72
2
73
0
90
0
40
-0.6
41
-30.0
62
5
63
7
74
1
91
4
64
7
65
257
75
1
175
1
42
1.0
92
0
66
257
43
1.0
76
1
77
6
78
2
67
7
79
5
170
0
171
0
290
0
174
0
93
1
44
0.0
173
0
291
0
45
0.0
1001
ACAD
1000
AcDbSavedByObjectVersion
1070
0
0
VISUALSTYLE
5
F9B
102
{ACAD_XDICTIONARY
360
108E
102
}
102
{ACAD_REACTORS
330
F93
102
}
330
F93
100
AcDbVisualStyle
2

70
6
71
1
72
2
73
2
90
0
40
-0.6
41
-30.0
62
5
63
7
74
2
91
2
64
7
65
257
75
2
175
1
42
179.0
92
0
66
257
43
1.0
76
1
77
6
78
2
67
7
79
3
170
0
171
0
290
0
174
0
93
1
44
0.0
173
0
291
0
45
0.0
1001
ACAD
1000
AcDbSavedByObjectVersion
1070
0
0
VISUALSTYLE
5
F9A
102
{ACAD_XDICTIONARY
360
108C
102
}
102
{ACAD_REACTORS
330
F93
102
}
330
F93
100
AcDbVisualStyle
2

70
5
71
0
72
2
73
0
90
0
40
-0.6
41
-30.0
62
5
63
7
74
1
91
4
64
7
65
257
75
1
175
1
42
1.0
92
0
66
257
43
1.0
76
1
77
6
78
2
67
7
79
5
170
0
171
0
290
0
174
0
93
1
44
0.0
173
0
291
0
45
0.0
1001
ACAD
1000
AcDbSavedByObjectVersion
1070
0
0
VISUALSTYLE
5
F98
102
{ACAD_XDICTIONARY
360
1088
102
}
102
{ACAD_REACTORS
330
F93
102
}
330
F93
100
AcDbVisualStyle
2

70
7
71
1
72
0
73
1
90
0
40
-0.6
41
-30.0
62
5
63
7
74
0
91
4
64
7
65
257
75
1
175
1
42
1.0
92
8
66
7
43
1.0
76
1
77
6
78
2
67
7
79
5
170
0
171
0
290
0
174
0
93
1
44
0.0
173
0
291
1
45
0.0
1001
ACAD
1000
AcDbSavedByObjectVersion
1070
0
0
VISUALSTYLE
5
F9F
102
{ACAD_XDICTIONARY
360
1096
102
}
102
{ACAD_REACTORS
330
F93
102
}
330
F93
100
AcDbVisualStyle
2

70
12
71
2
72
2
73
0
90
0
40
-0.6
41
-30.0
62
5
63
7
74
1
91
4
64
7
65
257
75
1
175
1
42
1.0
92
8
66
7
43
1.0
76
1
77
6
78
2
67
7
79
5
170
0
171
0
290
0
174
0
93
1
44
50.0
173
0
291
1
45
0.0
1001
ACAD
1000
AcDbSavedByObjectVersion
1070
0
0
VISUALSTYLE
5
FA3
102
{ACAD_XDICTIONARY
360
109E
102
}
102
{ACAD_REACTORS
330
F93
102
}
330
F93
100
AcDbVisualStyle
2

70
16
71
2
72
2
73
3
90
0
40
-0.6
41
-30.0
62
5
63
8
74
1
91
4
64
7
65
257
75
1
175
1
42
1.0
92
8
66
8
43
1.0
76
1
77
6
78
2
67
7
79
5
170
0
171
0
290
0
174
0
93
1
44
0.0
173
0
291
1
45
0.0
1001
ACAD
1000
AcDbSavedByObjectVersion
1070
0
0
VISUALSTYLE
5
F9C
102
{ACAD_XDICTIONARY
360
1090
102
}
102
{ACAD_REACTORS
330
F93
102
}
330
F93
100
AcDbVisualStyle
2

70
9
71
3
72
2
73
0
90
0
40
-0.6
41
-30.0
62
5
63
7
74
2
91
2
64
7
65
257
75
1
175
1
42
179.0
92
8
66
7
43
1.0
76
1
77
6
78
2
67
7
79
3
170
0
171
0
290
0
174
0
93
1
44
0.0
173
0
291
0
45
0.0
1001
ACAD
1000
AcDbSavedByObjectVersion
1070
0
0
VISUALSTYLE
5
F9E
102
{ACAD_XDICTIONARY
360
1094
102
}
102
{ACAD_REACTORS
330
F93
102
}
330
F93
100
AcDbVisualStyle
2

70
11
71
2
72
2
73
0
90
0
40
-0.6
41
-30.0
62
5
63
7
74
1
91
4
64
7
65
257
75
1
175
1
42
1.0
92
8
66
7
43
1.0
76
1
77
6
78
2
67
7
79
5
170
0
171
0
290
0
174
0
93
1
44
-50.0
173
0
291
1
45
0.0
1001
ACAD
1000
AcDbSavedByObjectVersion
1070
0
0
VISUALSTYLE
5
FA6
102
{ACAD_XDICTIONARY
360
10A4
102
}
102
{ACAD_REACTORS
330
F93
102
}
330
F93
100
AcDbVisualStyle
2

70
22
71
2
72
2
73
0
90
0
40
-0.6
41
-30.0
62
5
63
7
74
1
91
4
64
7
65
257
75
1
175
1
42
1.0
92
8
66
7
43
1.0
76
1
77
6
78
2
67
7
79
5
170
0
171
0
290
0
174
0
93
1
44
0.0
173
0
291
1
45
0.0
1001
ACAD
1000
AcDbSavedByObjectVersion
1070
0
0
VISUALSTYLE
5
FA2
102
{ACAD_XDICTIONARY
360
109C
102
}
102
{ACAD_REACTORS
330
F93
102
}
330
F93
100
AcDbVisualStyle
2

70
15
71
2
72
2
73
0
90
0
40
-0.6
41
-30.0
62
5
63
7
74
1
91
4
64
7
65
257
75
1
175
1
42
1.0
92
8
66
7
43
1.0
76
1
77
6
78
2
67
7
79
5
170
0
171
0
290
0
174
0
93
1
44
0.0
173
0
291
1
45
0.0
1001
ACAD
1000
AcDbSavedByObjectVersion
1070
0
0
VISUALSTYLE
5
F94
102
{ACAD_XDICTIONARY
360
1080
102
}
102
{ACAD_REACTORS
330
F93
102
}
330
F93
100
AcDbVisualStyle
2

70
0
71
2
72
1
73
1
90
2
40
-0.6
41
30.0
62
5
63
7
74
0
91
4
64
7
65
257
75
1
175
1
42
1.0
92
8
66
7
43
1.0
76
1
77
6
78
2
67
7
79
5
170
0
171
0
290
0
174
0
93
13
44
0.0
173
0
291
1
45
0.0
1001
ACAD
1000
AcDbSavedByObjectVersion
1070
0
0
VISUALSTYLE
5
F95
102
{ACAD_XDICTIONARY
360
1082
102
}
102
{ACAD_REACTORS
330
F93
102
}
330
F93
100
AcDbVisualStyle
2

70
1
71
2
72
1
73
1
90
2
40
-0.6
41
30.0
62
5
63
7
74
1
91
4
64
7
65
257
75
1
175
1
42
1.0
92
0
66
257
43
1.0
76
1
77
6
78
2
67
7
79
5
170
0
171
0
290
0
174
0
93
13
44
0.0
173
0
291
1
45
0.0
1001
ACAD
1000
AcDbSavedByObjectVersion
1070
0
0
VISUALSTYLE
5
F96
102
{ACAD_XDICTIONARY
360
1084
102
}
102
{ACAD_REACTORS
330
F93
102
}
330
F93
100
AcDbVisualStyle
2

70
2
71
2
72
2
73
1
90
2
40
-0.6
41
30.0
62
5
63
7
74
0
91
4
64
7
65
257
75
1
175
1
42
1.0
92
0
66
7
43
1.0
76
1
77
6
78
2
67
7
79
5
170
0
171
0
290
0
174
0
93
13
44
0.0
173
0
291
1
45
0.0
1001
ACAD
1000
AcDbSavedByObjectVersion
1070
0
0
VISUALSTYLE
5
F97
102
{ACAD_XDICTIONARY
360
1086
102
}
102
{ACAD_REACTORS
330
F93
102
}
330
F93
100
AcDbVisualStyle
2

70
3
71
2
72
2
73
1
90
2
40
-0.6
41
30.0
62
5
63
7
74
1
91
4
64
7
65
257
75
1
175
1
42
1.0
92
0
66
257
43
1.0
76
1
77
6
78
2
67
7
79
5
170
0
171
0
290
0
174
0
93
13
44
0.0
173
0
291
1
45
0.0
1001
ACAD
1000
AcDbSavedByObjectVersion
1070
0
0
VISUALSTYLE
5
FA4
102
{ACAD_XDICTIONARY
360
10A0
102
}
102
{ACAD_REACTORS
330
F93
102
}
330
F93
100
AcDbVisualStyle
2

70
20
71
2
72
2
73
0
90
0
40
-0.6
41
-30.0
62
5
63
7
74
1
91
4
64
7
65
257
75
1
175
1
42
1.0
92
10
66
7
43
1.0
76
1
77
6
78
2
67
7
79
5
170
0
171
0
290
0
174
0
93
1
44
0.0
173
0
291
1
45
0.0
1001
ACAD
1000
AcDbSavedByObjectVersion
1070
0
0
VISUALSTYLE
5
FA1
102
{ACAD_XDICTIONARY
360
109A
102
}
102
{ACAD_REACTORS
330
F93
102
}
330
F93
100
AcDbVisualStyle
2

70
14
71
2
72
2
73
0
90
0
40
-0.6
41
-30.0
62
5
63
7
74
1
91
4
64
7
65
257
75
7
175
7
42
1.0
92
8
66
7
43
1.0
76
1
77
6
78
2
67
7
79
5
170
0
171
0
290
0
174
0
93
1
44
0.0
173
0
291
1
45
0.0
1001
ACAD
1000
AcDbSavedByObjectVersion
1070
0
0
VISUALSTYLE
5
FA5
102
{ACAD_XDICTIONARY
360
10A2
102
}
102
{ACAD_REACTORS
330
F93
102
}
330
F93
100
AcDbVisualStyle
2

70
21
71
2
72
2
73
0
90
0
40
-0.6
41
-30.0
62
5
63
7
74
1
91
4
64
7
65
257
75
1
175
1
42
1.0
92
9
66
7
43
1.0
76
1
77
6
78
2
67
7
79
5
170
0
171
0
290
0
174
0
93
1
44
0.0
173
0
291
1
45
0.0
1001
ACAD
1000
AcDbSavedByObjectVersion
1070
0
0
VISUALSTYLE
5
F9D
102
{ACAD_XDICTIONARY
360
1092
102
}
102
{ACAD_REACTORS
330
F93
102
}
330
F93
100
AcDbVisualStyle
2

70
8
71
2
72
2
73
0
90
0
40
-0.6
41
-30.0
62
5
63
7
74
1
91
0
64
7
65
257
75
1
175
1
42
1.0
92
8
66
8
43
1.0
76
1
77
6
78
2
67
7
79
5
170
0
171
0
290
0
174
0
93
13
44
0.0
173
0
291
0
45
0.0
1001
ACAD
1000
AcDbSavedByObjectVersion
1070
0
0
VISUALSTYLE
5
FA0
102
{ACAD_XDICTIONARY
360
1098
102
}
102
{ACAD_REACTORS
330
F93
102
}
330
F93
100
AcDbVisualStyle
2

70
13
71
2
72
2
73
0
90
0
40
-0.6
41
-30.0
62
5
63
7
74
1
91
4
64
7
65
257
75
1
175
1
42
1.0
92
12
66
7
43
1.0
76
1
77
6
78
2
67
7
79
5
170
0
171
0
290
0
174
0
93
1
44
0.0
173
0
291
1
45
0.0
1001
ACAD
1000
AcDbSavedByObjectVersion
1070
0
0
DICTIONARYVAR
5
FF3
102
{ACAD_REACTORS
330
FF0
102
}
330
FF0
100
DictionaryVariables
280
0
1
1:1
0
DICTIONARYVAR
5
FF2
102
{ACAD_REACTORS
330
FF0
102
}
330
FF0
100
DictionaryVariables
280
0
1
STANDARD
0
DICTIONARYVAR
5
FF1
102
{ACAD_REACTORS
330
FF0
102
}
330
FF0
100
DictionaryVariables
280
0
1
STANDARD
0
DICTIONARYVAR
5
FF6
102
{ACAD_REACTORS
330
FF0
102
}
330
FF0
100
DictionaryVariables
280
0
1
1
0
DICTIONARYVAR
5
FF5
102
{ACAD_REACTORS
330
FF0
102
}
330
FF0
100
DictionaryVariables
280
0
1
0
0
DICTIONARYVAR
5
FF4
102
{ACAD_REACTORS
330
FF0
102
}
330
FF0
100
DictionaryVariables
280
0
1
127
0
DICTIONARYVAR
5
1078
102
{ACAD_REACTORS
330
FF0
102
}
330
FF0
100
DictionaryVariables
280
0
1
2
0
DICTIONARY
5
10A9
330
FD1
100
AcDbDictionary
280
1
281
1
3
ACAD_XREC_ROUNDTRIP
360
10AA
0
DICTIONARY
5
10A7
330
FD0
100
AcDbDictionary
280
1
281
1
3
ACAD_XREC_ROUNDTRIP
360
10A8
0
DICTIONARY
5
F84
330
F83
100
AcDbDictionary
280
1
281
1
3
ACAD_XREC_ROUNDTRIP
360
FFF
3
BUMPTILE
360
F86
3
DIFFUSETILE
360
F85
3
OPACITYTILE
360
F89
3
REFLECTIONTILE
360
F88
3
REFRACTIONTILE
360
F8A
3
SPECULARTILE
360
F87
0
DICTIONARY
5
F7C
330
F7B
100
AcDbDictionary
280
1
281
1
3
ACAD_XREC_ROUNDTRIP
360
FFE
3
BUMPTILE
360
F7E
3
DIFFUSETILE
360
F7D
3
OPACITYTILE
360
F81
3
REFLECTIONTILE
360
F80
3
REFRACTIONTILE
360
F82
3
SPECULARTILE
360
F7F
0
DICTIONARY
5
F8C
330
F8B
100
AcDbDictionary
280
1
281
1
3
ACAD_XREC_ROUNDTRIP
360
1000
3
BUMPTILE
360
F8E
3
DIFFUSETILE
360
F8D
3
OPACITYTILE
360
F91
3
REFLECTIONTILE
360
F90
3
REFRACTIONTILE
360
F92
3
SPECULARTILE
360
F8F
0
DICTIONARY
5
FF8
330
FA9
100
AcDbDictionary
280
1
281
1
3
ACAD_ROUNDTRIP_2008_TABLESTYLE_CELLSTYLEMAP
360
1079
3
ACAD_XREC_ROUNDTRIP
360
10A6
0
DICTIONARY
5
108A
330
F99
100
AcDbDictionary
280
1
281
1
3
ACAD_XREC_ROUNDTRIP
360
108B
0
DICTIONARY
5
108E
330
F9B
100
AcDbDictionary
280
1
281
1
3
ACAD_XREC_ROUNDTRIP
360
108F
0
DICTIONARY
5
108C
330
F9A
100
AcDbDictionary
280
1
281
1
3
ACAD_XREC_ROUNDTRIP
360
108D
0
DICTIONARY
5
1088
330
F98
100
AcDbDictionary
280
1
281
1
3
ACAD_XREC_ROUNDTRIP
360
1089
0
DICTIONARY
5
1096
330
F9F
100
AcDbDictionary
280
1
281
1
3
ACAD_XREC_ROUNDTRIP
360
1097
0
DICTIONARY
5
109E
330
FA3
100
AcDbDictionary
280
1
281
1
3
ACAD_XREC_ROUNDTRIP
360
109F
0
DICTIONARY
5
1090
330
F9C
100
AcDbDictionary
280
1
281
1
3
ACAD_XREC_ROUNDTRIP
360
1091
0
DICTIONARY
5
1094
330
F9E
100
AcDbDictionary
280
1
281
1
3
ACAD_XREC_ROUNDTRIP
360
1095
0
DICTIONARY
5
10A4
330
FA6
100
AcDbDictionary
280
1
281
1
3
ACAD_XREC_ROUNDTRIP
360
10A5
0
DICTIONARY
5
109C
330
FA2
100
AcDbDictionary
280
1
281
1
3
ACAD_XREC_ROUNDTRIP
360
109D
0
DICTIONARY
5
1080
330
F94
100
AcDbDictionary
280
1
281
1
3
ACAD_XREC_ROUNDTRIP
360
1081
0
DICTIONARY
5
1082
330
F95
100
AcDbDictionary
280
1
281
1
3
ACAD_XREC_ROUNDTRIP
360
1083
0
DICTIONARY
5
1084
330
F96
100
AcDbDictionary
280
1
281
1
3
ACAD_XREC_ROUNDTRIP
360
1085
0
DICTIONARY
5
1086
330
F97
100
AcDbDictionary
280
1
281
1
3
ACAD_XREC_ROUNDTRIP
360
1087
0
DICTIONARY
5
10A0
330
FA4
100
AcDbDictionary
280
1
281
1
3
ACAD_XREC_ROUNDTRIP
360
10A1
0
DICTIONARY
5
109A
330
FA1
100
AcDbDictionary
280
1
281
1
3
ACAD_XREC_ROUNDTRIP
360
109B
0
DICTIONARY
5
10A2
330
FA5
100
AcDbDictionary
280
1
281
1
3
ACAD_XREC_ROUNDTRIP
360
10A3
0
DICTIONARY
5
1092
330
F9D
100
AcDbDictionary
280
1
281
1
3
ACAD_XREC_ROUNDTRIP
360
1093
0
DICTIONARY
5
1098
330
FA0
100
AcDbDictionary
280
1
281
1
3
ACAD_XREC_ROUNDTRIP
360
1099
0
XRECORD
5
10AA
102
{ACAD_REACTORS
330
10A9
102
}
330
10A9
100
AcDbXrecord
280
1
102
SHADEPLOT
70
0
102
SHADEPLOTRESLEVEL
70
2
102
SHADEPLOTCUSTOMDPI
70
300
0
XRECORD
5
10A8
102
{ACAD_REACTORS
330
10A7
102
}
330
10A7
100
AcDbXrecord
280
1
102
SHADEPLOT
70
0
102
SHADEPLOTRESLEVEL
70
2
102
SHADEPLOTCUSTOMDPI
70
300
0
XRECORD
5
FFF
102
{ACAD_REACTORS
330
F84
102
}
330
F84
100
AcDbXrecord
280
1
102
MATERIAL
148
0.0
149
0.0
149
0.0
93
0
94
127
282
0
72
0
77
0
171
0
175
0
179
0
273
0
0
XRECORD
5
F86
102
{ACAD_REACTORS
330
F84
102
}
330
F84
100
AcDbXrecord
280
1
270
1
271
1
0
XRECORD
5
F85
102
{ACAD_REACTORS
330
F84
102
}
330
F84
100
AcDbXrecord
280
1
270
1
271
1
0
XRECORD
5
F89
102
{ACAD_REACTORS
330
F84
102
}
330
F84
100
AcDbXrecord
280
1
270
1
271
1
0
XRECORD
5
F88
102
{ACAD_REACTORS
330
F84
102
}
330
F84
100
AcDbXrecord
280
1
270
1
271
1
0
XRECORD
5
F8A
102
{ACAD_REACTORS
330
F84
102
}
330
F84
100
AcDbXrecord
280
1
270
1
271
1
0
XRECORD
5
F87
102
{ACAD_REACTORS
330
F84
102
}
330
F84
100
AcDbXrecord
280
1
270
1
271
1
0
XRECORD
5
FFE
102
{ACAD_REACTORS
330
F7C
102
}
330
F7C
100
AcDbXrecord
280
1
102
MATERIAL
148
0.0
149
0.0
149
0.0
93
0
94
127
282
0
72
0
77
0
171
0
175
0
179
0
273
0
0
XRECORD
5
F7E
102
{ACAD_REACTORS
330
F7C
102
}
330
F7C
100
AcDbXrecord
280
1
270
1
271
1
0
XRECORD
5
F7D
102
{ACAD_REACTORS
330
F7C
102
}
330
F7C
100
AcDbXrecord
280
1
270
1
271
1
0
XRECORD
5
F81
102
{ACAD_REACTORS
330
F7C
102
}
330
F7C
100
AcDbXrecord
280
1
270
1
271
1
0
XRECORD
5
F80
102
{ACAD_REACTORS
330
F7C
102
}
330
F7C
100
AcDbXrecord
280
1
270
1
271
1
0
XRECORD
5
F82
102
{ACAD_REACTORS
330
F7C
102
}
330
F7C
100
AcDbXrecord
280
1
270
1
271
1
0
XRECORD
5
F7F
102
{ACAD_REACTORS
330
F7C
102
}
330
F7C
100
AcDbXrecord
280
1
270
1
271
1
0
XRECORD
5
1000
102
{ACAD_REACTORS
330
F8C
102
}
330
F8C
100
AcDbXrecord
280
1
102
MATERIAL
148
0.0
149
0.0
149
0.0
93
0
94
127
282
0
72
0
77
0
171
0
175
0
179
0
273
0
0
XRECORD
5
F8E
102
{ACAD_REACTORS
330
F8C
102
}
330
F8C
100
AcDbXrecord
280
1
270
1
271
1
0
XRECORD
5
F8D
102
{ACAD_REACTORS
330
F8C
102
}
330
F8C
100
AcDbXrecord
280
1
270
1
271
1
0
XRECORD
5
F91
102
{ACAD_REACTORS
330
F8C
102
}
330
F8C
100
AcDbXrecord
280
1
270
1
271
1
0
XRECORD
5
F90
102
{ACAD_REACTORS
330
F8C
102
}
330
F8C
100
AcDbXrecord
280
1
270
1
271
1
0
XRECORD
5
F92
102
{ACAD_REACTORS
330
F8C
102
}
330
F8C
100
AcDbXrecord
280
1
270
1
271
1
0
XRECORD
5
F8F
102
{ACAD_REACTORS
330
F8C
102
}
330
F8C
100
AcDbXrecord
280
1
270
1
271
1
0
CELLSTYLEMAP
5
1079
102
{ACAD_REACTORS
330
FF8
102
}
330
FF8
100
AcDbCellStyleMap
90
3
300
CELLSTYLE
1
TABLEFORMAT_BEGIN
90
5
170
1
91
0
92
32768
62
257
93
1
300
CONTENTFORMAT
1
CONTENTFORMAT_BEGIN
90
0
91
0
92
512
93
0
300

40
0.0
140
1.0
94
5
62
0
340
253
144
0.25
309
CONTENTFORMAT_END
171
1
301
MARGIN
1
CELLMARGIN_BEGIN
40
0.06
40
0.06
40
0.06
40
0.06
40
0.18
40
0.18
309
CELLMARGIN_END
94
6
95
1
302
GRIDFORMAT
1
GRIDFORMAT_BEGIN
90
0
91
1
62
0
92
-2
340
0
93
0
40
0.045
309
GRIDFORMAT_END
95
2
302
GRIDFORMAT
1
GRIDFORMAT_BEGIN
90
0
91
1
62
0
92
-2
340
0
93
0
40
0.045
309
GRIDFORMAT_END
95
4
302
GRIDFORMAT
1
GRIDFORMAT_BEGIN
90
0
91
1
62
0
92
-2
340
0
93
0
40
0.045
309
GRIDFORMAT_END
95
8
302
GRIDFORMAT
1
GRIDFORMAT_BEGIN
90
0
91
1
62
0
92
-2
340
0
93
0
40
0.045
309
GRIDFORMAT_END
95
16
302
GRIDFORMAT
1
GRIDFORMAT_BEGIN
90
0
91
1
62
0
92
-2
340
0
93
0
40
0.045
309
GRIDFORMAT_END
95
32
302
GRIDFORMAT
1
GRIDFORMAT_BEGIN
90
0
91
1
62
0
92
-2
340
0
93
0
40
0.045
309
GRIDFORMAT_END
309
TABLEFORMAT_END
1
CELLSTYLE_BEGIN
90
1
91
1
300
_TITLE
309
CELLSTYLE_END
300
CELLSTYLE
1
TABLEFORMAT_BEGIN
90
5
170
1
91
0
92
0
62
257
93
1
300
CONTENTFORMAT
1
CONTENTFORMAT_BEGIN
90
0
91
0
92
512
93
0
300

40
0.0
140
1.0
94
5
62
0
340
253
144
0.18
309
CONTENTFORMAT_END
171
1
301
MARGIN
1
CELLMARGIN_BEGIN
40
0.06
40
0.06
40
0.06
40
0.06
40
0.18
40
0.18
309
CELLMARGIN_END
94
6
95
1
302
GRIDFORMAT
1
GRIDFORMAT_BEGIN
90
0
91
1
62
0
92
-2
340
0
93
0
40
0.045
309
GRIDFORMAT_END
95
2
302
GRIDFORMAT
1
GRIDFORMAT_BEGIN
90
0
91
1
62
0
92
-2
340
0
93
0
40
0.045
309
GRIDFORMAT_END
95
4
302
GRIDFORMAT
1
GRIDFORMAT_BEGIN
90
0
91
1
62
0
92
-2
340
0
93
0
40
0.045
309
GRIDFORMAT_END
95
8
302
GRIDFORMAT
1
GRIDFORMAT_BEGIN
90
0
91
1
62
0
92
-2
340
0
93
0
40
0.045
309
GRIDFORMAT_END
95
16
302
GRIDFORMAT
1
GRIDFORMAT_BEGIN
90
0
91
1
62
0
92
-2
340
0
93
0
40
0.045
309
GRIDFORMAT_END
95
32
302
GRIDFORMAT
1
GRIDFORMAT_BEGIN
90
0
91
1
62
0
92
-2
340
0
93
0
40
0.045
309
GRIDFORMAT_END
309
TABLEFORMAT_END
1
CELLSTYLE_BEGIN
90
2
91
1
300
_HEADER
309
CELLSTYLE_END
300
CELLSTYLE
1
TABLEFORMAT_BEGIN
90
5
170
1
91
0
92
0
62
257
93
1
300
CONTENTFORMAT
1
CONTENTFORMAT_BEGIN
90
0
91
0
92
512
93
0
300

40
0.0
140
1.0
94
2
62
0
340
253
144
0.18
309
CONTENTFORMAT_END
171
1
301
MARGIN
1
CELLMARGIN_BEGIN
40
0.06
40
0.06
40
0.06
40
0.06
40
0.18
40
0.18
309
CELLMARGIN_END
94
6
95
1
302
GRIDFORMAT
1
GRIDFORMAT_BEGIN
90
0
91
1
62
0
92
-2
340
0
93
0
40
0.045
309
GRIDFORMAT_END
95
2
302
GRIDFORMAT
1
GRIDFORMAT_BEGIN
90
0
91
1
62
0
92
-2
340
0
93
0
40
0.045
309
GRIDFORMAT_END
95
4
302
GRIDFORMAT
1
GRIDFORMAT_BEGIN
90
0
91
1
62
0
92
-2
340
0
93
0
40
0.045
309
GRIDFORMAT_END
95
8
302
GRIDFORMAT
1
GRIDFORMAT_BEGIN
90
0
91
1
62
0
92
-2
340
0
93
0
40
0.045
309
GRIDFORMAT_END
95
16
302
GRIDFORMAT
1
GRIDFORMAT_BEGIN
90
0
91
1
62
0
92
-2
340
0
93
0
40
0.045
309
GRIDFORMAT_END
95
32
302
GRIDFORMAT
1
GRIDFORMAT_BEGIN
90
0
91
1
62
0
92
-2
340
0
93
0
40
0.045
309
GRIDFORMAT_END
309
TABLEFORMAT_END
1
CELLSTYLE_BEGIN
90
3
91
2
300
_DATA
309
CELLSTYLE_END
0
XRECORD
5
10A6
102
{ACAD_REACTORS
330
FF8
102
}
330
FF8
100
AcDbXrecord
280
1
102
ACAD_ROUNDTRIP_PRE2007_TABLESTYLE
90
512
91
0
1

92
512
93
0
2

94
512
95
0
3

0
XRECORD
5
108B
102
{ACAD_REACTORS
330
108A
102
}
330
108A
100
AcDbXrecord
280
1
102
RTVSPropertyOp0
70
1
102
RTVSPropertyOp1
70
1
102
RTVSPropertyOp2
70
1
102
RTVSPropertyOp3
70
1
102
RTVSPropertyOp4
70
1
102
RTVSPropertyOp5
70
1
102
RTVSPropertyOp6
70
1
102
RTVSPropertyOp7
70
1
102
RTVSPropertyOp8
70
1
102
RTVSPropertyOp9
70
1
102
RTVSPropertyOp10
70
1
102
RTVSPropertyOp11
70
1
102
RTVSPropertyOp12
70
1
102
RTVSPropertyOp13
70
1
102
RTVSPropertyOp14
70
1
102
RTVSPropertyOp15
70
1
102
RTVSPropertyOp16
70
1
102
RTVSPropertyOp17
70
1
102
RTVSPropertyOp18
70
1
102
RTVSPropertyOp19
70
1
102
RTVSPropertyOp20
70
1
102
RTVSPropertyOp21
70
1
102
RTVSPropertyOp22
70
1
102
RTVSPropertyOp23
70
1
102
RTVSPropertyOp24
70
1
102
RTVSPropertyOp25
70
1
102
RTVSPropertyOp26
70
1
102
RTVSPropertyOp27
70
1
0
XRECORD
5
108F
102
{ACAD_REACTORS
330
108E
102
}
330
108E
100
AcDbXrecord
280
1
102
RTVSPropertyOp0
70
1
102
RTVSPropertyOp1
70
1
102
RTVSPropertyOp2
70
1
102
RTVSPropertyOp3
70
1
102
RTVSPropertyOp4
70
1
102
RTVSPropertyOp5
70
1
102
RTVSPropertyOp6
70
1
102
RTVSPropertyOp7
70
1
102
RTVSPropertyOp8
70
1
102
RTVSPropertyOp9
70
1
102
RTVSPropertyOp10
70
1
102
RTVSPropertyOp11
70
1
102
RTVSPropertyOp12
70
1
102
RTVSPropertyOp13
70
1
102
RTVSPropertyOp14
70
1
102
RTVSPropertyOp15
70
1
102
RTVSPropertyOp16
70
1
102
RTVSPropertyOp17
70
1
102
RTVSPropertyOp18
70
1
102
RTVSPropertyOp19
70
1
102
RTVSPropertyOp20
70
1
102
RTVSPropertyOp21
70
1
102
RTVSPropertyOp22
70
1
102
RTVSPropertyOp23
70
1
102
RTVSPropertyOp24
70
1
102
RTVSPropertyOp25
70
1
102
RTVSPropertyOp26
70
1
102
RTVSPropertyOp27
70
1
0
XRECORD
5
108D
102
{ACAD_REACTORS
330
108C
102
}
330
108C
100
AcDbXrecord
280
1
102
RTVSPropertyOp0
70
1
102
RTVSPropertyOp1
70
1
102
RTVSPropertyOp2
70
1
102
RTVSPropertyOp3
70
1
102
RTVSPropertyOp4
70
1
102
RTVSPropertyOp5
70
1
102
RTVSPropertyOp6
70
1
102
RTVSPropertyOp7
70
1
102
RTVSPropertyOp8
70
1
102
RTVSPropertyOp9
70
1
102
RTVSPropertyOp10
70
1
102
RTVSPropertyOp11
70
1
102
RTVSPropertyOp12
70
1
102
RTVSPropertyOp13
70
1
102
RTVSPropertyOp14
70
1
102
RTVSPropertyOp15
70
1
102
RTVSPropertyOp16
70
1
102
RTVSPropertyOp17
70
1
102
RTVSPropertyOp18
70
1
102
RTVSPropertyOp19
70
1
102
RTVSPropertyOp20
70
1
102
RTVSPropertyOp21
70
1
102
RTVSPropertyOp22
70
1
102
RTVSPropertyOp23
70
1
102
RTVSPropertyOp24
70
1
102
RTVSPropertyOp25
70
1
102
RTVSPropertyOp26
70
1
102
RTVSPropertyOp27
70
1
0
XRECORD
5
1089
102
{ACAD_REACTORS
330
1088
102
}
330
1088
100
AcDbXrecord
280
1
102
RTVSPropertyOp0
70
1
102
RTVSPropertyOp1
70
1
102
RTVSPropertyOp2
70
1
102
RTVSPropertyOp3
70
1
102
RTVSPropertyOp4
70
1
102
RTVSPropertyOp5
70
1
102
RTVSPropertyOp6
70
1
102
RTVSPropertyOp7
70
1
102
RTVSPropertyOp8
70
1
102
RTVSPropertyOp9
70
1
102
RTVSPropertyOp10
70
1
102
RTVSPropertyOp11
70
1
102
RTVSPropertyOp12
70
1
102
RTVSPropertyOp13
70
1
102
RTVSPropertyOp14
70
1
102
RTVSPropertyOp15
70
1
102
RTVSPropertyOp16
70
1
102
RTVSPropertyOp17
70
1
102
RTVSPropertyOp18
70
1
102
RTVSPropertyOp19
70
1
102
RTVSPropertyOp20
70
1
102
RTVSPropertyOp21
70
1
102
RTVSPropertyOp22
70
1
102
RTVSPropertyOp23
70
1
102
RTVSPropertyOp24
70
1
102
RTVSPropertyOp25
70
1
102
RTVSPropertyOp26
70
1
102
RTVSPropertyOp27
70
1
0
XRECORD
5
1097
102
{ACAD_REACTORS
330
1096
102
}
330
1096
100
AcDbXrecord
280
1
102
RTVSPropertyOp0
70
1
102
RTVSPropertyOp1
70
1
102
RTVSPropertyOp2
70
1
102
RTVSPropertyOp3
70
1
102
RTVSPropertyOp4
70
1
102
RTVSPropertyOp5
70
1
102
RTVSPropertyOp6
70
1
102
RTVSPropertyOp7
70
1
102
RTVSPropertyOp8
70
1
102
RTVSPropertyOp9
70
1
102
RTVSPropertyOp10
70
1
102
RTVSPropertyOp11
70
1
102
RTVSPropertyOp12
70
1
102
RTVSPropertyOp13
70
1
102
RTVSPropertyOp14
70
1
102
RTVSPropertyOp15
70
1
102
RTVSPropertyOp16
70
1
102
RTVSPropertyOp17
70
1
102
RTVSPropertyOp18
70
1
102
RTVSPropertyOp19
70
1
102
RTVSPropertyOp20
70
1
102
RTVSPropertyOp21
70
1
102
RTVSPropertyOp22
70
1
102
RTVSPropertyOp23
70
1
102
RTVSPropertyOp24
70
1
102
RTVSPropertyOp25
70
1
102
RTVSPropertyOp26
70
1
102
RTVSPropertyOp27
70
1
0
XRECORD
5
109F
102
{ACAD_REACTORS
330
109E
102
}
330
109E
100
AcDbXrecord
280
1
102
RTVSPropertyOp0
70
1
102
RTVSPropertyOp1
70
1
102
RTVSPropertyOp2
70
1
102
RTVSPropertyOp3
70
1
102
RTVSPropertyOp4
70
1
102
RTVSPropertyOp5
70
1
102
RTVSPropertyOp6
70
1
102
RTVSPropertyOp7
70
1
102
RTVSPropertyOp8
70
1
102
RTVSPropertyOp9
70
1
102
RTVSPropertyOp10
70
1
102
RTVSPropertyOp11
70
1
102
RTVSPropertyOp12
70
1
102
RTVSPropertyOp13
70
1
102
RTVSPropertyOp14
70
1
102
RTVSPropertyOp15
70
1
102
RTVSPropertyOp16
70
1
102
RTVSPropertyOp17
70
1
102
RTVSPropertyOp18
70
1
102
RTVSPropertyOp19
70
1
102
RTVSPropertyOp20
70
1
102
RTVSPropertyOp21
70
1
102
RTVSPropertyOp22
70
1
102
RTVSPropertyOp23
70
1
102
RTVSPropertyOp24
70
1
102
RTVSPropertyOp25
70
1
102
RTVSPropertyOp26
70
1
102
RTVSPropertyOp27
70
1
0
XRECORD
5
1091
102
{ACAD_REACTORS
330
1090
102
}
330
1090
100
AcDbXrecord
280
1
102
RTVSPropertyOp0
70
1
102
RTVSPropertyOp1
70
1
102
RTVSPropertyOp2
70
1
102
RTVSPropertyOp3
70
1
102
RTVSPropertyOp4
70
1
102
RTVSPropertyOp5
70
1
102
RTVSPropertyOp6
70
1
102
RTVSPropertyOp7
70
1
102
RTVSPropertyOp8
70
1
102
RTVSPropertyOp9
70
1
102
RTVSPropertyOp10
70
1
102
RTVSPropertyOp11
70
1
102
RTVSPropertyOp12
70
1
102
RTVSPropertyOp13
70
1
102
RTVSPropertyOp14
70
1
102
RTVSPropertyOp15
70
1
102
RTVSPropertyOp16
70
1
102
RTVSPropertyOp17
70
1
102
RTVSPropertyOp18
70
1
102
RTVSPropertyOp19
70
1
102
RTVSPropertyOp20
70
1
102
RTVSPropertyOp21
70
1
102
RTVSPropertyOp22
70
1
102
RTVSPropertyOp23
70
1
102
RTVSPropertyOp24
70
1
102
RTVSPropertyOp25
70
1
102
RTVSPropertyOp26
70
1
102
RTVSPropertyOp27
70
1
0
XRECORD
5
1095
102
{ACAD_REACTORS
330
1094
102
}
330
1094
100
AcDbXrecord
280
1
102
RTVSPropertyOp0
70
1
102
RTVSPropertyOp1
70
1
102
RTVSPropertyOp2
70
1
102
RTVSPropertyOp3
70
1
102
RTVSPropertyOp4
70
1
102
RTVSPropertyOp5
70
1
102
RTVSPropertyOp6
70
1
102
RTVSPropertyOp7
70
1
102
RTVSPropertyOp8
70
1
102
RTVSPropertyOp9
70
1
102
RTVSPropertyOp10
70
1
102
RTVSPropertyOp11
70
1
102
RTVSPropertyOp12
70
1
102
RTVSPropertyOp13
70
1
102
RTVSPropertyOp14
70
1
102
RTVSPropertyOp15
70
1
102
RTVSPropertyOp16
70
1
102
RTVSPropertyOp17
70
1
102
RTVSPropertyOp18
70
1
102
RTVSPropertyOp19
70
1
102
RTVSPropertyOp20
70
1
102
RTVSPropertyOp21
70
1
102
RTVSPropertyOp22
70
1
102
RTVSPropertyOp23
70
1
102
RTVSPropertyOp24
70
1
102
RTVSPropertyOp25
70
1
102
RTVSPropertyOp26
70
1
102
RTVSPropertyOp27
70
1
0
XRECORD
5
10A5
102
{ACAD_REACTORS
330
10A4
102
}
330
10A4
100
AcDbXrecord
280
1
102
RTVSPropertyOp0
70
0
102
RTVSPropertyOp1
70
0
102
RTVSPropertyOp2
70
0
102
RTVSPropertyOp3
70
0
102
RTVSPropertyOp4
70
0
102
RTVSPropertyOp5
70
0
102
RTVSPropertyOp6
70
0
102
RTVSPropertyOp7
70
0
102
RTVSPropertyOp8
70
0
102
RTVSPropertyOp9
70
0
102
RTVSPropertyOp10
70
0
102
RTVSPropertyOp11
70
0
102
RTVSPropertyOp12
70
0
102
RTVSPropertyOp13
70
0
102
RTVSPropertyOp14
70
2
102
RTVSPropertyOp15
70
0
102
RTVSPropertyOp16
70
0
102
RTVSPropertyOp17
70
0
102
RTVSPropertyOp18
70
0
102
RTVSPropertyOp19
70
0
102
RTVSPropertyOp20
70
0
102
RTVSPropertyOp21
70
0
102
RTVSPropertyOp22
70
0
102
RTVSPropertyOp23
70
0
102
RTVSPropertyOp24
70
0
102
RTVSPropertyOp25
70
0
102
RTVSPropertyOp26
70
0
102
RTVSPropertyOp27
70
0
0
XRECORD
5
109D
102
{ACAD_REACTORS
330
109C
102
}
330
109C
100
AcDbXrecord
280
1
102
RTVSPropertyOp0
70
1
102
RTVSPropertyOp1
70
1
102
RTVSPropertyOp2
70
1
102
RTVSPropertyOp3
70
1
102
RTVSPropertyOp4
70
1
102
RTVSPropertyOp5
70
1
102
RTVSPropertyOp6
70
1
102
RTVSPropertyOp7
70
1
102
RTVSPropertyOp8
70
1
102
RTVSPropertyOp9
70
1
102
RTVSPropertyOp10
70
1
102
RTVSPropertyOp11
70
1
102
RTVSPropertyOp12
70
1
102
RTVSPropertyOp13
70
1
102
RTVSPropertyOp14
70
1
102
RTVSPropertyOp15
70
1
102
RTVSPropertyOp16
70
1
102
RTVSPropertyOp17
70
1
102
RTVSPropertyOp18
70
1
102
RTVSPropertyOp19
70
1
102
RTVSPropertyOp20
70
1
102
RTVSPropertyOp21
70
1
102
RTVSPropertyOp22
70
1
102
RTVSPropertyOp23
70
1
102
RTVSPropertyOp24
70
1
102
RTVSPropertyOp25
70
1
102
RTVSPropertyOp26
70
1
102
RTVSPropertyOp27
70
1
0
XRECORD
5
1081
102
{ACAD_REACTORS
330
1080
102
}
330
1080
100
AcDbXrecord
280
1
102
RTVSPropertyOp0
70
1
102
RTVSPropertyOp1
70
1
102
RTVSPropertyOp2
70
1
102
RTVSPropertyOp3
70
1
102
RTVSPropertyOp4
70
1
102
RTVSPropertyOp5
70
1
102
RTVSPropertyOp6
70
1
102
RTVSPropertyOp7
70
1
102
RTVSPropertyOp8
70
1
102
RTVSPropertyOp9
70
1
102
RTVSPropertyOp10
70
1
102
RTVSPropertyOp11
70
1
102
RTVSPropertyOp12
70
1
102
RTVSPropertyOp13
70
1
102
RTVSPropertyOp14
70
1
102
RTVSPropertyOp15
70
1
102
RTVSPropertyOp16
70
1
102
RTVSPropertyOp17
70
1
102
RTVSPropertyOp18
70
1
102
RTVSPropertyOp19
70
1
102
RTVSPropertyOp20
70
1
102
RTVSPropertyOp21
70
1
102
RTVSPropertyOp22
70
1
102
RTVSPropertyOp23
70
1
102
RTVSPropertyOp24
70
1
102
RTVSPropertyOp25
70
1
102
RTVSPropertyOp26
70
1
102
RTVSPropertyOp27
70
1
0
XRECORD
5
1083
102
{ACAD_REACTORS
330
1082
102
}
330
1082
100
AcDbXrecord
280
1
102
RTVSPropertyOp0
70
1
102
RTVSPropertyOp1
70
1
102
RTVSPropertyOp2
70
1
102
RTVSPropertyOp3
70
1
102
RTVSPropertyOp4
70
1
102
RTVSPropertyOp5
70
1
102
RTVSPropertyOp6
70
1
102
RTVSPropertyOp7
70
1
102
RTVSPropertyOp8
70
1
102
RTVSPropertyOp9
70
1
102
RTVSPropertyOp10
70
1
102
RTVSPropertyOp11
70
1
102
RTVSPropertyOp12
70
1
102
RTVSPropertyOp13
70
1
102
RTVSPropertyOp14
70
1
102
RTVSPropertyOp15
70
1
102
RTVSPropertyOp16
70
1
102
RTVSPropertyOp17
70
1
102
RTVSPropertyOp18
70
1
102
RTVSPropertyOp19
70
1
102
RTVSPropertyOp20
70
1
102
RTVSPropertyOp21
70
1
102
RTVSPropertyOp22
70
1
102
RTVSPropertyOp23
70
1
102
RTVSPropertyOp24
70
1
102
RTVSPropertyOp25
70
1
102
RTVSPropertyOp26
70
1
102
RTVSPropertyOp27
70
1
0
XRECORD
5
1085
102
{ACAD_REACTORS
330
1084
102
}
330
1084
100
AcDbXrecord
280
1
102
RTVSPropertyOp0
70
1
102
RTVSPropertyOp1
70
1
102
RTVSPropertyOp2
70
1
102
RTVSPropertyOp3
70
1
102
RTVSPropertyOp4
70
1
102
RTVSPropertyOp5
70
1
102
RTVSPropertyOp6
70
1
102
RTVSPropertyOp7
70
1
102
RTVSPropertyOp8
70
1
102
RTVSPropertyOp9
70
1
102
RTVSPropertyOp10
70
1
102
RTVSPropertyOp11
70
1
102
RTVSPropertyOp12
70
1
102
RTVSPropertyOp13
70
1
102
RTVSPropertyOp14
70
1
102
RTVSPropertyOp15
70
1
102
RTVSPropertyOp16
70
1
102
RTVSPropertyOp17
70
1
102
RTVSPropertyOp18
70
1
102
RTVSPropertyOp19
70
1
102
RTVSPropertyOp20
70
1
102
RTVSPropertyOp21
70
1
102
RTVSPropertyOp22
70
1
102
RTVSPropertyOp23
70
1
102
RTVSPropertyOp24
70
1
102
RTVSPropertyOp25
70
1
102
RTVSPropertyOp26
70
1
102
RTVSPropertyOp27
70
1
0
XRECORD
5
1087
102
{ACAD_REACTORS
330
1086
102
}
330
1086
100
AcDbXrecord
280
1
102
RTVSPropertyOp0
70
1
102
RTVSPropertyOp1
70
1
102
RTVSPropertyOp2
70
1
102
RTVSPropertyOp3
70
1
102
RTVSPropertyOp4
70
1
102
RTVSPropertyOp5
70
1
102
RTVSPropertyOp6
70
1
102
RTVSPropertyOp7
70
1
102
RTVSPropertyOp8
70
1
102
RTVSPropertyOp9
70
1
102
RTVSPropertyOp10
70
1
102
RTVSPropertyOp11
70
1
102
RTVSPropertyOp12
70
1
102
RTVSPropertyOp13
70
1
102
RTVSPropertyOp14
70
1
102
RTVSPropertyOp15
70
1
102
RTVSPropertyOp16
70
1
102
RTVSPropertyOp17
70
1
102
RTVSPropertyOp18
70
1
102
RTVSPropertyOp19
70
1
102
RTVSPropertyOp20
70
1
102
RTVSPropertyOp21
70
1
102
RTVSPropertyOp22
70
1
102
RTVSPropertyOp23
70
1
102
RTVSPropertyOp24
70
1
102
RTVSPropertyOp25
70
1
102
RTVSPropertyOp26
70
1
102
RTVSPropertyOp27
70
1
0
XRECORD
5
10A1
102
{ACAD_REACTORS
330
10A0
102
}
330
10A0
100
AcDbXrecord
280
1
102
RTVSPropertyOp0
70
0
102
RTVSPropertyOp1
70
0
102
RTVSPropertyOp2
70
0
102
RTVSPropertyOp3
70
0
102
RTVSPropertyOp4
70
0
102
RTVSPropertyOp5
70
0
102
RTVSPropertyOp6
70
0
102
RTVSPropertyOp7
70
0
102
RTVSPropertyOp8
70
0
102
RTVSPropertyOp9
70
0
102
RTVSPropertyOp10
70
0
102
RTVSPropertyOp11
70
0
102
RTVSPropertyOp12
70
0
102
RTVSPropertyOp13
70
0
102
RTVSPropertyOp14
70
2
102
RTVSPropertyOp15
70
0
102
RTVSPropertyOp16
70
0
102
RTVSPropertyOp17
70
0
102
RTVSPropertyOp18
70
0
102
RTVSPropertyOp19
70
0
102
RTVSPropertyOp20
70
0
102
RTVSPropertyOp21
70
0
102
RTVSPropertyOp22
70
0
102
RTVSPropertyOp23
70
0
102
RTVSPropertyOp24
70
0
102
RTVSPropertyOp25
70
0
102
RTVSPropertyOp26
70
0
102
RTVSPropertyOp27
70
0
0
XRECORD
5
109B
102
{ACAD_REACTORS
330
109A
102
}
330
109A
100
AcDbXrecord
280
1
102
RTVSPropertyOp0
70
1
102
RTVSPropertyOp1
70
1
102
RTVSPropertyOp2
70
1
102
RTVSPropertyOp3
70
1
102
RTVSPropertyOp4
70
1
102
RTVSPropertyOp5
70
1
102
RTVSPropertyOp6
70
1
102
RTVSPropertyOp7
70
1
102
RTVSPropertyOp8
70
1
102
RTVSPropertyOp9
70
1
102
RTVSPropertyOp10
70
1
102
RTVSPropertyOp11
70
1
102
RTVSPropertyOp12
70
1
102
RTVSPropertyOp13
70
1
102
RTVSPropertyOp14
70
1
102
RTVSPropertyOp15
70
1
102
RTVSPropertyOp16
70
1
102
RTVSPropertyOp17
70
1
102
RTVSPropertyOp18
70
1
102
RTVSPropertyOp19
70
1
102
RTVSPropertyOp20
70
1
102
RTVSPropertyOp21
70
1
102
RTVSPropertyOp22
70
1
102
RTVSPropertyOp23
70
1
102
RTVSPropertyOp24
70
1
102
RTVSPropertyOp25
70
1
102
RTVSPropertyOp26
70
1
102
RTVSPropertyOp27
70
1
0
XRECORD
5
10A3
102
{ACAD_REACTORS
330
10A2
102
}
330
10A2
100
AcDbXrecord
280
1
102
RTVSPropertyOp0
70
0
102
RTVSPropertyOp1
70
0
102
RTVSPropertyOp2
70
0
102
RTVSPropertyOp3
70
0
102
RTVSPropertyOp4
70
0
102
RTVSPropertyOp5
70
0
102
RTVSPropertyOp6
70
0
102
RTVSPropertyOp7
70
0
102
RTVSPropertyOp8
70
0
102
RTVSPropertyOp9
70
0
102
RTVSPropertyOp10
70
0
102
RTVSPropertyOp11
70
0
102
RTVSPropertyOp12
70
0
102
RTVSPropertyOp13
70
0
102
RTVSPropertyOp14
70
2
102
RTVSPropertyOp15
70
0
102
RTVSPropertyOp16
70
0
102
RTVSPropertyOp17
70
0
102
RTVSPropertyOp18
70
0
102
RTVSPropertyOp19
70
0
102
RTVSPropertyOp20
70
0
102
RTVSPropertyOp21
70
0
102
RTVSPropertyOp22
70
0
102
RTVSPropertyOp23
70
0
102
RTVSPropertyOp24
70
0
102
RTVSPropertyOp25
70
0
102
RTVSPropertyOp26
70
0
102
RTVSPropertyOp27
70
0
0
XRECORD
5
1093
102
{ACAD_REACTORS
330
1092
102
}
330
1092
100
AcDbXrecord
280
1
102
RTVSPropertyOp0
70
1
102
RTVSPropertyOp1
70
1
102
RTVSPropertyOp2
70
1
102
RTVSPropertyOp3
70
1
102
RTVSPropertyOp4
70
1
102
RTVSPropertyOp5
70
1
102
RTVSPropertyOp6
70
1
102
RTVSPropertyOp7
70
1
102
RTVSPropertyOp8
70
1
102
RTVSPropertyOp9
70
1
102
RTVSPropertyOp10
70
1
102
RTVSPropertyOp11
70
1
102
RTVSPropertyOp12
70
1
102
RTVSPropertyOp13
70
1
102
RTVSPropertyOp14
70
1
102
RTVSPropertyOp15
70
1
102
RTVSPropertyOp16
70
1
102
RTVSPropertyOp17
70
1
102
RTVSPropertyOp18
70
1
102
RTVSPropertyOp19
70
1
102
RTVSPropertyOp20
70
1
102
RTVSPropertyOp21
70
1
102
RTVSPropertyOp22
70
1
102
RTVSPropertyOp23
70
1
102
RTVSPropertyOp24
70
1
102
RTVSPropertyOp25
70
1
102
RTVSPropertyOp26
70
1
102
RTVSPropertyOp27
70
1
0
XRECORD
5
1099
102
{ACAD_REACTORS
330
1098
102
}
330
1098
100
AcDbXrecord
280
1
102
RTVSPropertyOp0
70
1
102
RTVSPropertyOp1
70
1
102
RTVSPropertyOp2
70
1
102
RTVSPropertyOp3
70
1
102
RTVSPropertyOp4
70
1
102
RTVSPropertyOp5
70
1
102
RTVSPropertyOp6
70
1
102
RTVSPropertyOp7
70
1
102
RTVSPropertyOp8
70
1
102
RTVSPropertyOp9
70
1
102
RTVSPropertyOp10
70
1
102
RTVSPropertyOp11
70
1
102
RTVSPropertyOp12
70
1
102
RTVSPropertyOp13
70
1
102
RTVSPropertyOp14
70
1
102
RTVSPropertyOp15
70
1
102
RTVSPropertyOp16
70
1
102
RTVSPropertyOp17
70
1
102
RTVSPropertyOp18
70
1
102
RTVSPropertyOp19
70
1
102
RTVSPropertyOp20
70
1
102
RTVSPropertyOp21
70
1
102
RTVSPropertyOp22
70
1
102
RTVSPropertyOp23
70
1
102
RTVSPropertyOp24
70
1
102
RTVSPropertyOp25
70
1
102
RTVSPropertyOp26
70
1
102
RTVSPropertyOp27
70
1
0
ENDSEC
0
EOF
