0
SECTION
2
HEADER
9
$ACADVER
1
AC1015
9
$ACADMAINTVER
70
20
9
$DWGCODEPAGE
3
ANSI_1252
9
$INSBASE
10
0.0
20
0.0
30
0.0
9
$EXTMIN
10
-150.000000000000
20
-105.000000000000
30
0.0
9
$EXTMAX
10
150.000000000000
20
105.000000000000
30
0.0
9
$LIMMIN
10
0.0
20
0.0
9
$LIMMAX
10
12.0
20
9.0
9
$ORTHOMODE
70
0
9
$REGENMODE
70
1
9
$FILLMODE
70
1
9
$QTEXTMODE
70
0
9
$MIRRTEXT
70
1
9
$LTSCALE
40
1.0
9
$ATTMODE
70
1
9
$TEXTSIZE
40
0.2
9
$TRACEWID
40
0.05
9
$TEXTSTYLE
7
Standard
9
$CLAYER
8
0
9
$CELTYPE
6
ByLayer
9
$CECOLOR
62
256
9
$CELTSCALE
40
1.0
9
$DISPSILH
70
0
9
$DIMSCALE
40
1.0
9
$DIMASZ
40
2.5
9
$DIMEXO
40
0.625
9
$DIMDLI
40
0.38
9
$DIMRND
40
0.0
9
$DIMDLE
40
0.0
9
$DIMEXE
40
1.25
9
$DIMTP
40
0.0
9
$DIMTM
40
0.000000001
9
$DIMTXT
40
2.5
9
$DIMCEN
40
0.09
9
$DIMTSZ
40
0.0
9
$DIMTOL
70
1
9
$DIMLIM
70
0
9
$DIMTIH
70
0
9
$DIMTOH
70
0
9
$DIMSE1
70
0
9
$DIMSE2
70
0
9
$DIMTAD
70
1
9
$DIMZIN
70
0
9
$DIMBLK
1
VDDIM_DEFAULT
9
$DIMASO
70
1
9
$DIMSHO
70
1
9
$DIMPOST
1

9
$DIMAPOST
1

9
$DIMALT
70
0
9
$DIMALTD
70
2
9
$DIMALTF
40
25.4
9
$DIMLFAC
40
1.00000000000000
9
$DIMTOFL
70
0
9
$DIMTVP
40
0.0
9
$DIMTIX
70
0
9
$DIMSOXD
70
0
9
$DIMSAH
70
0
9
$DIMBLK1
1

9
$DIMBLK2
1

9
$DIMSTYLE
2
BEM-ISBE
9
$DIMCLRD
70
0
9
$DIMCLRE
70
0
9
$DIMCLRT
70
0
9
$DIMTFAC
40
0.5
9
$DIMGAP
40
0.625
9
$DIMJUST
70
0
9
$DIMSD1
70
0
9
$DIMSD2
70
0
9
$DIMTOLJ
70
1
9
$DIMTZIN
70
0
9
$DIMALTZ
70
0
9
$DIMALTTZ
70
0
9
$DIMUPT
70
0
9
$DIMDEC
70
3
9
$DIMTDEC
70
3
9
$DIMALTU
70
2
9
$DIMALTTD
70
2
9
$DIMTXSTY
7
Standard
9
$DIMAUNIT
70
0
9
$DIMADEC
70
3
9
$DIMALTRND
40
0.0
9
$DIMAZIN
70
0
9
$DIMDSEP
70
46
9
$DIMATFIT
70
3
9
$DIMFRAC
70
0
9
$DIMLDRBLK
1

9
$DIMLUNIT
70
2
9
$DIMLWD
70
-2
9
$DIMLWE
70
-2
9
$DIMTMOVE
70
0
9
$LUNITS
70
2
9
$LUPREC
70
4
9
$SKETCHINC
40
0.1
9
$FILLETRAD
40
0.5
9
$AUNITS
70
0
9
$AUPREC
70
0
9
$MENU
1
.
9
$ELEVATION
40
0.0
9
$PELEVATION
40
0.0
9
$THICKNESS
40
0.0
9
$LIMCHECK
70
0
9
$CHAMFERA
40
0.5
9
$CHAMFERB
40
0.5
9
$CHAMFERC
40
1.0
9
$CHAMFERD
40
0.0
9
$SKPOLY
70
0
9
$TDCREATE
40
0.0
9
$TDUCREATE
40
0.0
9
$TDUPDATE
40
0.0
9
$TDUUPDATE
40
0.0
9
$TDINDWG
40
0.0
9
$TDUSRTIMER
40
0.0
9
$USRTIMER
70
1
9
$ANGBASE
50
0.0
9
$ANGDIR
70
0
9
$PDMODE
70
0
9
$PDSIZE
40
0.0
9
$PLINEWID
40
0.0
9
$SPLFRAME
70
0
9
$SPLINETYPE
70
6
9
$SPLINESEGS
70
8
9
$HANDSEED
5
10AB
9
$SURFTAB1
70
6
9
$SURFTAB2
70
6
9
$SURFTYPE
70
6
9
$SURFU
70
6
9
$SURFV
70
6
9
$UCSBASE
2

9
$UCSNAME
2

9
$UCSORG
10
0.0
20
0.0
30
0.0
9
$UCSXDIR
10
1.0
20
0.0
30
0.0
9
$UCSYDIR
10
0.0
20
1.0
30
0.0
9
$UCSORTHOREF
2

9
$UCSORTHOVIEW
70
0
9
$UCSORGTOP
10
0.0
20
0.0
30
0.0
9
$UCSORGBOTTOM
10
0.0
20
0.0
30
0.0
9
$UCSORGLEFT
10
0.0
20
0.0
30
0.0
9
$UCSORGRIGHT
10
0.0
20
0.0
30
0.0
9
$UCSORGFRONT
10
0.0
20
0.0
30
0.0
9
$UCSORGBACK
10
0.0
20
0.0
30
0.0
9
$PUCSBASE
2

9
$PUCSNAME
2

9
$PUCSORG
10
0.0
20
0.0
30
0.0
9
$PUCSXDIR
10
1.0
20
0.0
30
0.0
9
$PUCSYDIR
10
0.0
20
1.0
30
0.0
9
$PUCSORTHOREF
2

9
$PUCSORTHOVIEW
70
0
9
$PUCSORGTOP
10
0.0
20
0.0
30
0.0
9
$PUCSORGBOTTOM
10
0.0
20
0.0
30
0.0
9
$PUCSORGLEFT
10
0.0
20
0.0
30
0.0
9
$PUCSORGRIGHT
10
0.0
20
0.0
30
0.0
9
$PUCSORGFRONT
10
0.0
20
0.0
30
0.0
9
$PUCSORGBACK
10
0.0
20
0.0
30
0.0
9
$USERI1
70
0
9
$USERI2
70
0
9
$USERI3
70
0
9
$USERI4
70
0
9
$USERI5
70
0
9
$USERR1
40
0.0
9
$USERR2
40
0.0
9
$USERR3
40
0.0
9
$USERR4
40
0.0
9
$USERR5
40
0.0
9
$WORLDVIEW
70
1
9
$SHADEDGE
70
3
9
$SHADEDIF
70
70
9
$TILEMODE
70
1
9
$MAXACTVP
70
64
9
$PINSBASE
10
0.0
20
0.0
30
0.0
9
$PLIMCHECK
70
0
9
$PEXTMIN
10
1.000000000000000E+20
20
1.000000000000000E+20
30
1.000000000000000E+20
9
$PEXTMAX
10
-1.000000000000000E+20
20
-1.000000000000000E+20
30
-1.000000000000000E+20
9
$PLIMMIN
10
0.0
20
0.0
9
$PLIMMAX
10
12.0
20
9.0
9
$UNITMODE
70
0
9
$VISRETAIN
70
1
9
$PLINEGEN
70
0
9
$PSLTSCALE
70
1
9
$TREEDEPTH
70
3020
9
$CMLSTYLE
2
Standard
9
$CMLJUST
70
0
9
$CMLSCALE
40
1.0
9
$PROXYGRAPHICS
70
1
9
$MEASUREMENT
70
0
9
$CELWEIGHT
370
-1
9
$ENDCAPS
280
0
9
$JOINSTYLE
280
0
9
$LWDISPLAY
290
0
9
$INSUNITS
70
4
9
$HYPERLINKBASE
1

9
$STYLESHEET
1

9
$XEDIT
290
1
9
$CEPSNTYPE
380
0
9
$PSTYLEMODE
290
0
9
$FINGERPRINTGUID
2
{FAEB1C30-E019-11D5-929B-00C0DF256EC4}
9
$VERSIONGUID
2
{04C5C4E4-4947-4D90-8812-D401569E61F7}
9
$EXTNAMES
290
1
9
$PSVPSCALE
40
0.0
9
$OLESTARTUP
290
0
0
ENDSEC
0
SECTION
2
TABLES
0
TABLE
2
VPORT
5
24A
330
0
100
AcDbSymbolTable
70
1
0
VPORT
5
26B
330
24A
100
AcDbSymbolTableRecord
100
AcDbViewportTableRecord
2
*Active
70
0
10
0.0
20
0.0
11
1.0
21
1.0
12
0.000000000000000
22
0.000000000000000
13
0.0
23
0.0
14
10.0
24
10.0
15
10.0
25
10.0
16
0.0
26
0.0
36
1.0
17
0.0
27
0.0
37
0.0
40
210.000000000000
41
1.42857142857143
42
1.0
43
0.0
44
0.0
50
0.0
51
0.0000000000007958
71
0
72
100
73
1
74
3
75
0
76
0
77
0
78
1
281
0
65
1
110
0.0
120
0.0
130
0.0
111
1.0
121
0.0
131
0.0
112
0.0
122
1.0
132
0.0
79
0
146
0.0
0
ENDTAB
0
TABLE
2
LTYPE
5
247
330
0
100
AcDbSymbolTable
70
25
0
LTYPE
5
256
330
247
100
AcDbSymbolTableRecord
100
AcDbLinetypeTableRecord
2
ByBlock
70
0
3

72
65
73
0
40
0.0
0
LTYPE
5
257
330
247
100
AcDbSymbolTableRecord
100
AcDbLinetypeTableRecord
2
ByLayer
70
0
3

72
65
73
0
40
0.0
0
LTYPE
5
258
330
247
100
AcDbSymbolTableRecord
100
AcDbLinetypeTableRecord
2
Continuous
70
0
3
Solid line
72
65
73
0
40
0.0
0
LTYPE
5
273
330
247
100
AcDbSymbolTableRecord
100
AcDbLinetypeTableRecord
2
CENTER
70
0
3
Center ____ _ ____ _ ____ _ ____ _ ____ _ ____
72
65
73
4
40
2.0
49
1.25
74
0
49
-0.25
74
0
49
0.25
74
0
49
-0.25
74
0
0
LTYPE
5
274
330
247
100
AcDbSymbolTableRecord
100
AcDbLinetypeTableRecord
2
DASHDOT
70
0
3
Dashdot __ . __ . __ . __ . __ . __ . __ . __
72
65
73
4
40
1.0
49
0.5
74
0
49
-0.25
74
0
49
0.0
74
0
49
-0.25
74
0
0
LTYPE
5
275
330
247
100
AcDbSymbolTableRecord
100
AcDbLinetypeTableRecord
2
DASHED
70
0
3
Dashed __ __ __ __ __ __ __ __ __ __ __ __ __ _
72
65
73
2
40
0.75
49
0.5
74
0
49
-0.25
74
0
0
LTYPE
5
276
330
247
100
AcDbSymbolTableRecord
100
AcDbLinetypeTableRecord
2
HIDDEN
70
0
3
Hidden __ __ __ __ __ __ __ __ __ __ __ __ __ __
72
65
73
2
40
0.375
49
0.25
74
0
49
-0.125
74
0
0
LTYPE
5
277
330
247
100
AcDbSymbolTableRecord
100
AcDbLinetypeTableRecord
2
HIDDEN2
70
0
3
Hidden2 _ _ _ _ _ _ _ _ _ _ _ _ _ _ _ _ _
72
65
73
2
40
0.1875
49
0.125
74
0
49
-0.0625
74
0
0
LTYPE
5
278
330
247
100
AcDbSymbolTableRecord
100
AcDbLinetypeTableRecord
2
BORDER
70
0
3
Border __ __ . __ __ . __ __ . __ __ . __ __ .
72
65
73
6
40
1.75
49
0.5
74
0
49
-0.25
74
0
49
0.5
74
0
49
-0.25
74
0
49
0.0
74
0
49
-0.25
74
0
0
LTYPE
5
279
330
247
100
AcDbSymbolTableRecord
100
AcDbLinetypeTableRecord
2
BORDER2
70
0
3
Border2 __.__.__.__.__.__.__.__.__.__.__.
72
65
73
6
40
0.875
49
0.25
74
0
49
-0.125
74
0
49
0.25
74
0
49
-0.125
74
0
49
0.0
74
0
49
-0.125
74
0
0
LTYPE
5
27A
330
247
100
AcDbSymbolTableRecord
100
AcDbLinetypeTableRecord
2
BORDERX2
70
0
3
Borderx2  ____  ____  .  ____  ____  .  ___
72
65
73
6
40
3.5
49
1.0
74
0
49
-0.5
74
0
49
1.0
74
0
49
-0.5
74
0
49
0.0
74
0
49
-0.5
74
0
0
LTYPE
5
27B
330
247
100
AcDbSymbolTableRecord
100
AcDbLinetypeTableRecord
2
CENTER2
70
0
3
Center2  ___ _ ___ _ ___ _ ___ _ ___ _ ___
72
65
73
4
40
1.125
49
0.75
74
0
49
-0.125
74
0
49
0.125
74
0
49
-0.125
74
0
0
LTYPE
5
27C
330
247
100
AcDbSymbolTableRecord
100
AcDbLinetypeTableRecord
2
CENTERX2
70
0
3
Centerx2  ________  __  ________  __  _____
72
65
73
4
40
4.0
49
2.5
74
0
49
-0.5
74
0
49
0.5
74
0
49
-0.5
74
0
0
LTYPE
5
27D
330
247
100
AcDbSymbolTableRecord
100
AcDbLinetypeTableRecord
2
DASHDOT2
70
0
3
Dashdot2  _._._._._._._._._._._._._._._.
72
65
73
4
40
0.5
49
0.25
74
0
49
-0.125
74
0
49
0.0
74
0
49
-0.125
74
0
0
LTYPE
5
27E
330
247
100
AcDbSymbolTableRecord
100
AcDbLinetypeTableRecord
2
DASHDOTX2
70
0
3
Dashdotx2 ____  .  ____  .  ____  .  ___
72
65
73
4
40
2.0
49
1.0
74
0
49
-0.5
74
0
49
0.0
74
0
49
-0.5
74
0
0
LTYPE
5
27F
330
247
100
AcDbSymbolTableRecord
100
AcDbLinetypeTableRecord
2
DASHED2
70
0
3
Dashed2 _ _ _ _ _ _ _ _ _ _ _ _ _ _ _ _ _
72
65
73
2
40
0.375
49
0.25
74
0
49
-0.125
74
0
0
LTYPE
5
280
330
247
100
AcDbSymbolTableRecord
100
AcDbLinetypeTableRecord
2
DASHEDX2
70
0
3
Dashedx2 ____  ____  ____  ____  ____  ___
72
65
73
2
40
1.5
49
1.0
74
0
49
-0.5
74
0
0
LTYPE
5
281
330
247
100
AcDbSymbolTableRecord
100
AcDbLinetypeTableRecord
2
DIVIDE
70
0
3
Divide ____ . . ____ . . ____ . . ____ . . ____
72
65
73
6
40
1.25
49
0.5
74
0
49
-0.25
74
0
49
0.0
74
0
49
-0.25
74
0
49
0.0
74
0
49
-0.25
74
0
0
LTYPE
5
282
330
247
100
AcDbSymbolTableRecord
100
AcDbLinetypeTableRecord
2
DIVIDE2
70
0
3
Divide2 __..__..__..__..__..__..__..__.._
72
65
73
6
40
0.625
49
0.25
74
0
49
-0.125
74
0
49
0.0
74
0
49
-0.125
74
0
49
0.0
74
0
49
-0.125
74
0
0
LTYPE
5
283
330
247
100
AcDbSymbolTableRecord
100
AcDbLinetypeTableRecord
2
DIVIDEX2
70
0
3
Dividex2 ________  .  .  ________  .  .  _
72
65
73
6
40
2.5
49
1.0
74
0
49
-0.5
74
0
49
0.0
74
0
49
-0.5
74
0
49
0.0
74
0
49
-0.5
74
0
0
LTYPE
5
284
330
247
100
AcDbSymbolTableRecord
100
AcDbLinetypeTableRecord
2
DOT
70
0
3
Dot . . . . . . . . . . . . . . . . . . . . . . . .
72
65
73
2
40
0.25
49
0.0
74
0
49
-0.25
74
0
0
LTYPE
5
285
330
247
100
AcDbSymbolTableRecord
100
AcDbLinetypeTableRecord
2
DOT2
70
0
3
Dot2 ........................................
72
65
73
2
40
0.125
49
0.0
74
0
49
-0.125
74
0
0
LTYPE
5
286
330
247
100
AcDbSymbolTableRecord
100
AcDbLinetypeTableRecord
2
DOTX2
70
0
3
Dotx2 .  .  .  .  .  .  .  .  .  .  .  .  .  .
72
65
73
2
40
0.5
49
0.0
74
0
49
-0.5
74
0
0
LTYPE
5
287
330
247
100
AcDbSymbolTableRecord
100
AcDbLinetypeTableRecord
2
HIDDENX2
70
0
3
Hiddenx2 ____ ____ ____ ____ ____ ____ ____
72
65
73
2
40
0.75
49
0.5
74
0
49
-0.25
74
0
0
LTYPE
5
288
330
247
100
AcDbSymbolTableRecord
100
AcDbLinetypeTableRecord
2
PHANTOM
70
0
3
Phantom ______  __  __  ______  __  __  ______
72
65
73
6
40
2.5
49
1.25
74
0
49
-0.25
74
0
49
0.25
74
0
49
-0.25
74
0
49
0.25
74
0
49
-0.25
74
0
0
LTYPE
5
289
330
247
100
AcDbSymbolTableRecord
100
AcDbLinetypeTableRecord
2
PHANTOM2
70
0
3
Phantom2 ___ _ _ ___ _ _ ___ _ _ ___ _ _
72
65
73
6
40
1.25
49
0.625
74
0
49
-0.125
74
0
49
0.125
74
0
49
-0.125
74
0
49
0.125
74
0
49
-0.125
74
0
0
LTYPE
5
28A
330
247
100
AcDbSymbolTableRecord
100
AcDbLinetypeTableRecord
2
PHANTOMX2
70
0
3
Phantomx2 ____________    ____    ____   _
72
65
73
6
40
5.0
49
2.5
74
0
49
-0.5
74
0
49
0.5
74
0
49
-0.5
74
0
49
0.5
74
0
49
-0.5
74
0
0
ENDTAB
0
TABLE
2
LAYER
5
244
330
0
100
AcDbSymbolTable
70
6
0
LAYER
5
252
330
244
100
AcDbSymbolTableRecord
100
AcDbLayerTableRecord
2
0
70
0
62
7
6
Continuous
370
0
390
251
0
LAYER
5
23F
330
244
100
AcDbSymbolTableRecord
100
AcDbLayerTableRecord
2
Bemassung
70
0
 62
   7
6
Continuous
370
0
390
251
0
LAYER
5
240
330
244
100
AcDbSymbolTableRecord
100
AcDbLayerTableRecord
2
Rahmen
70
0
 62
   7
6
Continuous
370
0
390
251
0
LAYER
5
241
330
244
100
AcDbSymbolTableRecord
100
AcDbLayerTableRecord
2
Geo
70
0
 62
   7
6
Continuous
370
0
390
251
0
LAYER
5
33A
330
244
100
AcDbSymbolTableRecord
100
AcDbLayerTableRecord
2
Defpoints
70
0
62
7
6
Continuous
290
0
370
-3
390
251
0
LAYER
5
57E
330
244
100
AcDbSymbolTableRecord
100
AcDbLayerTableRecord
2
Text
70
0
 62
   7
6
Continuous
370
0
390
251
1001
AcAecLayerStandard
1000

1000

0
ENDTAB
0
TABLE
2
STYLE
5
245
330
0
100
AcDbSymbolTable
70
2
0
STYLE
5
253
330
245
100
AcDbSymbolTableRecord
100
AcDbTextStyleTableRecord
2
Standard
70
0
40
0.0
41
1.0
50
0.0
71
0
42
0.2
3
Arial
4

1001
ACAD
1000
Arial
1071
0
0
STYLE
5
132
330
245
100
AcDbSymbolTableRecord
100
AcDbTextStyleTableRecord
2
Beschriftung
70
0
40
0.0
41
1.0
50
0.0
71
0
42
0.2
3
Arial
4

1001
ACAD
1000
Arial
1071
0
1001
AcadAnnotative
1000
AnnotativeData
1070
1
1070
1
0
ENDTAB
0
TABLE
2
VIEW
5
248
330
0
100
AcDbSymbolTable
70
0
0
ENDTAB
0
TABLE
2
UCS
5
249
330
0
100
AcDbSymbolTable
70
0
0
ENDTAB
0
TABLE
2
APPID
5
24B
330
0
100
AcDbSymbolTable
70
13
0
APPID
5
254
330
24B
100
AcDbSymbolTableRecord
100
AcDbRegAppTableRecord
2
ACAD
70
0
0
APPID
5
26C
330
24B
100
AcDbSymbolTableRecord
100
AcDbRegAppTableRecord
2
VD_INVISIBLE_NOT_FOR_READ
70
0
0
APPID
5
26D
330
24B
100
AcDbSymbolTableRecord
100
AcDbRegAppTableRecord
2
VD_TEMPHATCH
70
0
0
APPID
5
26E
330
24B
100
AcDbSymbolTableRecord
100
AcDbRegAppTableRecord
2
VDEXTRAPARAM
70
0
0
APPID
5
26F
330
24B
100
AcDbSymbolTableRecord
100
AcDbRegAppTableRecord
2
PE_URL
70
0
0
APPID
5
270
330
24B
100
AcDbSymbolTableRecord
100
AcDbRegAppTableRecord
2
VD_UNKNOWN
70
0
0
APPID
5
28F
330
24B
100
AcDbSymbolTableRecord
100
AcDbRegAppTableRecord
2
AcadAnnotative
70
0
0
APPID
5
290
330
24B
100
AcDbSymbolTableRecord
100
AcDbRegAppTableRecord
2
ACAD_DSTYLE_DIMJAG
70
0
0
APPID
5
291
330
24B
100
AcDbSymbolTableRecord
100
AcDbRegAppTableRecord
2
ACAD_DSTYLE_DIMTALN
70
0
0
APPID
5
293
330
24B
100
AcDbSymbolTableRecord
100
AcDbRegAppTableRecord
2
ACAD_PSEXT
70
0
0
APPID
5
42A
330
24B
100
AcDbSymbolTableRecord
100
AcDbRegAppTableRecord
2
ACAD_MLEADERVER
70
0
0
APPID
5
532
330
24B
100
AcDbSymbolTableRecord
100
AcDbRegAppTableRecord
2
ACAD_EXEMPT_FROM_CAD_STANDARDS
70
0
0
APPID
5
57F
330
24B
100
AcDbSymbolTableRecord
100
AcDbRegAppTableRecord
2
AcAecLayerStandard
70
0
0
ENDTAB
0
TABLE
2
DIMSTYLE
5
24C
330
0
100
AcDbSymbolTable
70
3
100
AcDbDimStyleTable
71
2
340
27
340
269
0
DIMSTYLE
105
269
330
24C
100
AcDbSymbolTableRecord
100
AcDbDimStyleTableRecord
2
Standard
70
0
172
1
174
1
288
1
340
253
342
23C
0
DIMSTYLE
105
137
330
24C
100
AcDbSymbolTableRecord
100
AcDbDimStyleTableRecord
2
Beschriftung
70
0
41
2.5
42
0.625
44
1.25
73
0
74
0
77
1
140
2.5
147
0.625
172
1
174
1
271
2
288
1
340
253
342
23C
1001
AcadAnnotative
1000
AnnotativeData
1070
1
1070
1
1001
ACAD_DSTYLE_DIMJAG
1070
388
1040
1.5
1001
ACAD_DSTYLE_DIMTALN
1070
392
1070
0
0
DIMSTYLE
105
27
102
{ACAD_REACTORS
330
F10008
330
F10012
330
F1001C
330
F10021
330
F10026
330
F10003
330
F1000D
330
F10017
102
}
330
24C
100
AcDbSymbolTableRecord
100
AcDbDimStyleTableRecord
2
BEM-ISBE
70
0
41
2.5
42
0.625
44
1.25
48
0.000000001
71
1
73
0
74
0
77
1
140
2.5
144
1.00000000000000
146
0.5
147
0.625
171
 3
172
 1
179
 3
271
 3
272
 3
274
 3
340
253
342
23C
1001
ACAD_DSTYLE_DIMJAG
1070
388
1040
1.5
1001
ACAD_DSTYLE_DIMTALN
1070
392
1070
1
0
ENDTAB
0
TABLE
2
BLOCK_RECORD
5
243
330
0
100
AcDbSymbolTable
70
5
0
BLOCK_RECORD
5
261
330
243
100
AcDbSymbolTableRecord
100
AcDbBlockTableRecord
2
*Model_Space
340
FD0
0
BLOCK_RECORD
5
25D
330
243
100
AcDbSymbolTableRecord
100
AcDbBlockTableRecord
2
*Paper_Space
340
FD1
0
BLOCK_RECORD
5
265
330
243
100
AcDbSymbolTableRecord
100
AcDbBlockTableRecord
2
*Paper_Space0
340
0
0
BLOCK_RECORD
5
23C
330
243
100
AcDbSymbolTableRecord
100
AcDbBlockTableRecord
2
VDDIM_DEFAULT
340
0
102
{BLKREFS
102
}
0
BLOCK_RECORD
5
23E
330
243
100
AcDbSymbolTableRecord
100
AcDbBlockTableRecord
2
VDDIM_NONE
340
0
0
BLOCK_RECORD
5
F10007
330
243
100
AcDbSymbolTableRecord
100
AcDbBlockTableRecord
2
*D4
340
0
0
BLOCK_RECORD
5
F10011
330
243
100
AcDbSymbolTableRecord
100
AcDbBlockTableRecord
2
*D6
340
0
0
BLOCK_RECORD
5
F1001B
330
243
100
AcDbSymbolTableRecord
100
AcDbBlockTableRecord
2
*D8
340
0
0
BLOCK_RECORD
5
F10020
330
243
100
AcDbSymbolTableRecord
100
AcDbBlockTableRecord
2
*D9
340
0
0
BLOCK_RECORD
5
F10025
330
243
100
AcDbSymbolTableRecord
100
AcDbBlockTableRecord
2
*D10
340
0
0
BLOCK_RECORD
5
F10002
330
243
100
AcDbSymbolTableRecord
100
AcDbBlockTableRecord
2
*D3
340
0
0
BLOCK_RECORD
5
F1000C
330
243
100
AcDbSymbolTableRecord
100
AcDbBlockTableRecord
2
*D5
340
0
0
BLOCK_RECORD
5
F10016
330
243
100
AcDbSymbolTableRecord
100
AcDbBlockTableRecord
2
*D7
340
0
0
ENDTAB
0
ENDSEC
0
SECTION
2
BLOCKS
0
BLOCK
5
262
330
261
100
AcDbEntity
8
0
100
AcDbBlockBegin
2
*Model_Space
70
0
10
0.0
20
0.0
30
0.0
3
*Model_Space
1

0
ENDBLK
5
263
330
261
100
AcDbEntity
8
0
100
AcDbBlockEnd
0
BLOCK
5
25E
330
25D
100
AcDbEntity
67
1
8
0
100
AcDbBlockBegin
2
*Paper_Space
70
0
10
0.0
20
0.0
30
0.0
3
*Paper_Space
1

0
ENDBLK
5
25F
330
25D
100
AcDbEntity
67
1
8
0
100
AcDbBlockEnd
0
BLOCK
5
266
330
265
100
AcDbEntity
8
0
100
AcDbBlockBegin
2
*Paper_Space0
70
0
10
0.0
20
0.0
30
0.0
3
*Paper_Space0
1

0
VIEWPORT
5
296
102
{ACAD_XDICTIONARY
360
58E
102
}
330
265
100
AcDbEntity
8
0
60
1
100
AcDbViewport
10
0.0
20
0.0
30
0.0
40
10.0
41
10.0
69
0
12
0.0
22
0.0
13
0.0
23
0.0
14
1.0
24
1.0
15
0.0
25
0.0
16
0.0
26
0.0
36
1.0
17
0.0
27
0.0
37
0.0
42
0.0
43
0.0
44
0.0
45
10.0
50
0.0
51
0.0000000000007958
72
100
90
163872
1

281
0
71
0
74
0
110
0.0
120
0.0
130
0.0
111
1.0
121
0.0
131
0.0
112
0.0
122
1.0
132
0.0
79
0
146
0.0
1001
VD_INVISIBLE_NOT_FOR_READ
1000
VD_INVISIBLE_NOT_FOR_READ
0
VIEWPORT
5
297
102
{ACAD_XDICTIONARY
360
590
102
}
330
265
100
AcDbEntity
8
0
60
1
100
AcDbViewport
10
0.0
20
0.0
30
0.0
40
10.0
41
10.0
69
0
12
0.0
22
0.0
13
0.0
23
0.0
14
1.0
24
1.0
15
0.0
25
0.0
16
0.0
26
0.0
36
1.0
17
0.0
27
0.0
37
0.0
42
0.0
43
0.0
44
0.0
45
10.0
50
0.0
51
0.0000000000007958
72
100
90
163872
1

281
0
71
0
74
0
110
0.0
120
0.0
130
0.0
111
1.0
121
0.0
131
0.0
112
0.0
122
1.0
132
0.0
79
0
146
0.0
1001
VD_INVISIBLE_NOT_FOR_READ
1000
VD_INVISIBLE_NOT_FOR_READ
0
ENDBLK
5
267
330
265
100
AcDbEntity
8
0
100
AcDbBlockEnd
0
BLOCK
5
28B
330
23C
100
AcDbEntity
8
0
100
AcDbBlockBegin
2
VDDIM_DEFAULT
70
0
10
0.0
20
0.0
30
0.0
3
VDDIM_DEFAULT
1

0
LWPOLYLINE
5
23D
330
23C
100
AcDbEntity
8
0
6
Continuous
62
0
100
AcDbPolyline
90
4
70
0
43
0.0
10
0.0
20
0.0
10
-1.0
20
-0.1665
10
-1.0
20
0.1665
10
0.0
20
0.0
1001
VDEXTRAPARAM
1071
1
1071
0
1071
0
1040
1.0
1000

1000

1040
0.0
1040
0.0
0
HATCH
5
292
330
23C
100
AcDbEntity
8
0
6
Continuous
62
0
100
AcDbHatch
10
0.0
20
0.0
30
0.0
210
0.0
220
0.0
230
1.0
2
SOLID
70
1
71
0
91
1
92
2
72
0
73
1
93
3
10
0.0
20
0.0
10
-1.0
20
-0.1665
10
-1.0
20
0.1665
97
0
75
0
76
1
98
1
10
0.0
20
0.0
1001
VDEXTRAPARAM
1071
1
1071
0
1071
0
1040
1.0
1000

1000

1040
0.0
1040
0.0
1001
VD_TEMPHATCH
1000
VD_TEMPHATCH
0
ENDBLK
5
28C
330
23C
100
AcDbEntity
8
0
100
AcDbBlockEnd
0
BLOCK
5
28D
330
23E
100
AcDbEntity
8
0
100
AcDbBlockBegin
2
VDDIM_NONE
70
0
10
0.0
20
0.0
30
0.0
3
VDDIM_NONE
1

0
ENDBLK
5
28E
330
23E
100
AcDbEntity
8
0
100
AcDbBlockEnd
  0
BLOCK
  5
F1002A
330
F10007
100
AcDbEntity
  8
0
100
AcDbBlockBegin
  2
*D4
 70
     1
 10
0.0
 20
0.0
 30
0.0
  3
*D4
  1

  0
LINE
  5
F1002B
330
F10007
100
AcDbEntity
  8
Bemassung
 62
     0
370
    -2
100
AcDbLine
10
-69.8387470997679
20
-8.72157772621807
30
0.000000000000000
11
-69.8387470997679
21
38.2784222737819
31
0.000000000000000
  0
LINE
  5
F1002C
330
F10007
100
AcDbEntity
  8
Bemassung
 62
     0
370
    -2
100
AcDbLine
10
-69.3387470997679
20
16.2784222737819
30
0.000000000000000
11
-69.3387470997679
21
24.2784222737819
31
0.000000000000000
  0
LINE
  5
F1002D
330
F10007
100
AcDbEntity
  8
Bemassung
 62
     0
370
    -2
100
AcDbLine
10
-92.5263452222156
20
22.2784222737819
30
0.000000000000000
11
-69.3387470997679
21
22.2784222737819
31
0.000000000000000
  0
INSERT
  5
F1002E
330
F10007
100
AcDbEntity
  8
Bemassung
 62
     0
370
    -2
100
AcDbBlockReference
  2
VDDIM_DEFAULT
10
-69.8387470997679
20
22.2784222737819
30
0.000000000000000
 41
2.50000000000000
 42
2.50000000000000
 43
2.50000000000000
  0
INSERT
  5
F1002F
330
F10007
100
AcDbEntity
  8
Bemassung
 62
     0
370
    -2
100
AcDbBlockReference
  2
VDDIM_DEFAULT
10
-69.3387470997679
20
22.2784222737819
30
0.000000000000000
 41
2.50000000000000
 42
2.50000000000000
 43
2.50000000000000
 50
180.000000000000
  0
MTEXT
  5
F10030
330
F10007
100
AcDbEntity
  8
Bemassung
 62
     0
100
AcDbMText
10
-74.5031562694041
20
22.9450889404486
30
0.000000000000000
 40
2.50000000000000
 41
0.0
 71
     8
 72
     1
  1
0.5 x 45°
 11
1.00000000000000
 21
0.000000000000000
 31
0.0
 73
     1
 44
1.0
1001
ACAD
1000
MTEXTBEGIN
1070
73
1070
1
1070
44
1040
1.0
1070
74
1070
0
1000
MTEXTEND
  0
POINT
  5
F10031
330
F10007
100
AcDbEntity
  8
Bemassung
 62
     0
100
AcDbPoint
10
-69.8387470997679
20
-8.72157772621807
30
0.000000000000000
  0
POINT
  5
F10032
330
F10007
100
AcDbEntity
  8
Bemassung
 62
     0
100
AcDbPoint
10
-69.3387470997679
20
16.2784222737819
30
0.000000000000000
  0
ENDBLK
  5
F10033
330
F10007
100
AcDbEntity
  8
0
100
AcDbBlockEnd
  0
BLOCK
  5
F10034
330
F10011
100
AcDbEntity
  8
0
100
AcDbBlockBegin
  2
*D6
 70
     1
 10
0.0
 20
0.0
 30
0.0
  3
*D6
  1

  0
LINE
  5
F10035
330
F10011
100
AcDbEntity
  8
Bemassung
 62
     0
370
    -2
100
AcDbLine
10
-49.8387470997679
20
16.2784222737819
30
0.000000000000000
11
-49.8387470997679
21
33.2784222737819
31
0.000000000000000
  0
LINE
  5
F10036
330
F10011
100
AcDbEntity
  8
Bemassung
 62
     0
370
    -2
100
AcDbLine
10
-5.83874709976789
20
15.7784222737819
30
0.000000000000000
11
-5.83874709976789
21
38.2784222737819
31
0.000000000000000
  0
LINE
  5
F10037
330
F10011
100
AcDbEntity
  8
Bemassung
 62
     0
370
    -2
100
AcDbLine
10
-49.8387470997679
20
31.2784222737819
30
0.000000000000000
11
15.9155141941481
21
31.2784222737819
31
0.000000000000000
  0
INSERT
  5
F10038
330
F10011
100
AcDbEntity
  8
Bemassung
 62
     0
370
    -2
100
AcDbBlockReference
  2
VDDIM_DEFAULT
10
-49.8387470997679
20
31.2784222737819
30
0.000000000000000
 41
2.50000000000000
 42
2.50000000000000
 43
2.50000000000000
 50
180.000000000000
  0
INSERT
  5
F10039
330
F10011
100
AcDbEntity
  8
Bemassung
 62
     0
370
    -2
100
AcDbBlockReference
  2
VDDIM_DEFAULT
10
-5.83874709976789
20
31.2784222737819
30
0.000000000000000
 41
2.50000000000000
 42
2.50000000000000
 43
2.50000000000000
  0
MTEXT
  5
F1003A
330
F10011
100
AcDbEntity
  8
Bemassung
 62
     0
100
AcDbMText
10
-27.8387470997679
20
31.9450889404486
30
0.000000000000000
 40
2.50000000000000
 41
0.0
 71
     8
 72
     1
  1
44
 11
1.00000000000000
 21
0.000000000000000
 31
0.0
 73
     1
 44
1.0
1001
ACAD
1000
MTEXTBEGIN
1070
73
1070
1
1070
44
1040
1.0
1070
74
1070
0
1000
MTEXTEND
  0
POINT
  5
F1003B
330
F10011
100
AcDbEntity
  8
Bemassung
 62
     0
100
AcDbPoint
10
-49.8387470997679
20
16.2784222737819
30
0.000000000000000
  0
POINT
  5
F1003C
330
F10011
100
AcDbEntity
  8
Bemassung
 62
     0
100
AcDbPoint
10
-5.83874709976789
20
15.7784222737819
30
0.000000000000000
  0
ENDBLK
  5
F1003D
330
F10011
100
AcDbEntity
  8
0
100
AcDbBlockEnd
  0
BLOCK
  5
F1003E
330
F1001B
100
AcDbEntity
  8
0
100
AcDbBlockBegin
  2
*D8
 70
     1
 10
0.0
 20
0.0
 30
0.0
  3
*D8
  1

  0
LINE
  5
F1003F
330
F1001B
100
AcDbEntity
  8
Bemassung
 62
     0
370
    -2
100
AcDbLine
10
-49.8387470997679
20
8.27842227378193
30
0.000000000000000
11
-49.8387470997679
21
-3.72157772621807
31
0.000000000000000
  0
LINE
  5
F10040
330
F1001B
100
AcDbEntity
  8
Bemassung
 62
     0
370
    -2
100
AcDbLine
10
-69.8387470997679
20
-8.72157772621807
30
0.000000000000000
11
-69.8387470997679
21
38.2784222737819
31
0.000000000000000
  0
LINE
  5
F10041
330
F1001B
100
AcDbEntity
  8
Bemassung
 62
     0
370
    -2
100
AcDbLine
10
-48.0494666499968
20
-1.72157772621807
30
0.000000000000000
11
-69.8387470997679
21
-1.72157772621807
31
0.000000000000000
  0
INSERT
  5
F10042
330
F1001B
100
AcDbEntity
  8
Bemassung
 62
     0
370
    -2
100
AcDbBlockReference
  2
VDDIM_DEFAULT
10
-49.8387470997679
20
-1.72157772621807
30
0.000000000000000
 41
2.50000000000000
 42
2.50000000000000
 43
2.50000000000000
  0
INSERT
  5
F10043
330
F1001B
100
AcDbEntity
  8
Bemassung
 62
     0
370
    -2
100
AcDbBlockReference
  2
VDDIM_DEFAULT
10
-69.8387470997679
20
-1.72157772621807
30
0.000000000000000
 41
2.50000000000000
 42
2.50000000000000
 43
2.50000000000000
 50
180.000000000000
  0
MTEXT
  5
F10044
330
F1001B
100
AcDbEntity
  8
Bemassung
 62
     0
100
AcDbMText
10
-59.8387470997679
20
-1.05491105955141
30
0.000000000000000
 40
2.50000000000000
 41
0.0
 71
     8
 72
     1
  1
20
 11
1.00000000000000
 21
0.000000000000000
 31
0.0
 73
     1
 44
1.0
1001
ACAD
1000
MTEXTBEGIN
1070
73
1070
1
1070
44
1040
1.0
1070
74
1070
0
1000
MTEXTEND
  0
POINT
  5
F10045
330
F1001B
100
AcDbEntity
  8
Bemassung
 62
     0
100
AcDbPoint
10
-49.8387470997679
20
8.27842227378193
30
0.000000000000000
  0
POINT
  5
F10046
330
F1001B
100
AcDbEntity
  8
Bemassung
 62
     0
100
AcDbPoint
10
-69.8387470997679
20
-8.72157772621807
30
0.000000000000000
  0
ENDBLK
  5
F10047
330
F1001B
100
AcDbEntity
  8
0
100
AcDbBlockEnd
  0
BLOCK
  5
F10048
330
F10020
100
AcDbEntity
  8
0
100
AcDbBlockBegin
  2
*D9
 70
     1
 10
0.0
 20
0.0
 30
0.0
  3
*D9
  1

  0
LINE
  5
F10049
330
F10020
100
AcDbEntity
  8
Bemassung
 62
     0
370
    -2
100
AcDbLine
10
-48.8387470997679
20
8.27842227378193
30
0.000000000000000
11
-48.8387470997679
21
-8.72157772621807
31
0.000000000000000
  0
LINE
  5
F1004A
330
F10020
100
AcDbEntity
  8
Bemassung
 62
     0
370
    -2
100
AcDbLine
10
-69.8387470997679
20
-8.72157772621807
30
0.000000000000000
11
-69.8387470997679
21
38.2784222737819
31
0.000000000000000
  0
LINE
  5
F1004B
330
F10020
100
AcDbEntity
  8
Bemassung
 62
     0
370
    -2
100
AcDbLine
10
-47.1064939594198
20
-6.72157772621807
30
0.000000000000000
11
-69.8387470997679
21
-6.72157772621807
31
0.000000000000000
  0
INSERT
  5
F1004C
330
F10020
100
AcDbEntity
  8
Bemassung
 62
     0
370
    -2
100
AcDbBlockReference
  2
VDDIM_DEFAULT
10
-48.8387470997679
20
-6.72157772621807
30
0.000000000000000
 41
2.50000000000000
 42
2.50000000000000
 43
2.50000000000000
  0
INSERT
  5
F1004D
330
F10020
100
AcDbEntity
  8
Bemassung
 62
     0
370
    -2
100
AcDbBlockReference
  2
VDDIM_DEFAULT
10
-69.8387470997679
20
-6.72157772621807
30
0.000000000000000
 41
2.50000000000000
 42
2.50000000000000
 43
2.50000000000000
 50
180.000000000000
  0
MTEXT
  5
F1004E
330
F10020
100
AcDbEntity
  8
Bemassung
 62
     0
100
AcDbMText
10
-59.3387470997679
20
-6.05491105955141
30
0.000000000000000
 40
2.50000000000000
 41
0.0
 71
     8
 72
     1
  1
21
 11
1.00000000000000
 21
0.000000000000000
 31
0.0
 73
     1
 44
1.0
1001
ACAD
1000
MTEXTBEGIN
1070
73
1070
1
1070
44
1040
1.0
1070
74
1070
0
1000
MTEXTEND
  0
POINT
  5
F1004F
330
F10020
100
AcDbEntity
  8
Bemassung
 62
     0
100
AcDbPoint
10
-48.8387470997679
20
8.27842227378193
30
0.000000000000000
  0
POINT
  5
F10050
330
F10020
100
AcDbEntity
  8
Bemassung
 62
     0
100
AcDbPoint
10
-69.8387470997679
20
-8.72157772621807
30
0.000000000000000
  0
ENDBLK
  5
F10051
330
F10020
100
AcDbEntity
  8
0
100
AcDbBlockEnd
  0
BLOCK
  5
F10052
330
F10025
100
AcDbEntity
  8
0
100
AcDbBlockBegin
  2
*D10
 70
     1
 10
0.0
 20
0.0
 30
0.0
  3
*D10
  1

  0
LINE
  5
F10053
330
F10025
100
AcDbEntity
  8
Bemassung
 62
     0
370
    -2
100
AcDbLine
10
-5.83874709976789
20
15.7784222737819
30
0.000000000000000
11
-5.83874709976789
21
38.2784222737819
31
0.000000000000000
  0
LINE
  5
F10054
330
F10025
100
AcDbEntity
  8
Bemassung
 62
     0
370
    -2
100
AcDbLine
10
-69.8387470997679
20
-8.72157772621807
30
0.000000000000000
11
-69.8387470997679
21
38.2784222737819
31
0.000000000000000
  0
LINE
  5
F10055
330
F10025
100
AcDbEntity
  8
Bemassung
 62
     0
370
    -2
100
AcDbLine
10
-4.04407442306663
20
36.2784222737819
30
0.000000000000000
11
-69.8387470997679
21
36.2784222737819
31
0.000000000000000
  0
INSERT
  5
F10056
330
F10025
100
AcDbEntity
  8
Bemassung
 62
     0
370
    -2
100
AcDbBlockReference
  2
VDDIM_DEFAULT
10
-5.83874709976789
20
36.2784222737819
30
0.000000000000000
 41
2.50000000000000
 42
2.50000000000000
 43
2.50000000000000
  0
INSERT
  5
F10057
330
F10025
100
AcDbEntity
  8
Bemassung
 62
     0
370
    -2
100
AcDbBlockReference
  2
VDDIM_DEFAULT
10
-69.8387470997679
20
36.2784222737819
30
0.000000000000000
 41
2.50000000000000
 42
2.50000000000000
 43
2.50000000000000
 50
180.000000000000
  0
MTEXT
  5
F10058
330
F10025
100
AcDbEntity
  8
Bemassung
 62
     0
100
AcDbMText
10
-37.8387470997679
20
36.9450889404486
30
0.000000000000000
 40
2.50000000000000
 41
0.0
 71
     8
 72
     1
  1
64
 11
1.00000000000000
 21
0.000000000000000
 31
0.0
 73
     1
 44
1.0
1001
ACAD
1000
MTEXTBEGIN
1070
73
1070
1
1070
44
1040
1.0
1070
74
1070
0
1000
MTEXTEND
  0
POINT
  5
F10059
330
F10025
100
AcDbEntity
  8
Bemassung
 62
     0
100
AcDbPoint
10
-5.83874709976789
20
15.7784222737819
30
0.000000000000000
  0
POINT
  5
F1005A
330
F10025
100
AcDbEntity
  8
Bemassung
 62
     0
100
AcDbPoint
10
-69.8387470997679
20
-8.72157772621807
30
0.000000000000000
  0
ENDBLK
  5
F1005B
330
F10025
100
AcDbEntity
  8
0
100
AcDbBlockEnd
  0
BLOCK
  5
F1005C
330
F10002
100
AcDbEntity
  8
0
100
AcDbBlockBegin
  2
*D3
 70
     1
 10
0.0
 20
0.0
 30
0.0
  3
*D3
  1

 0
ARC
  5
F1005D
330
F10002
100
AcDbEntity
  8
Bemassung
 62
     0
370
   -2
100
AcDbCircle
10
-69.8387470997679
20
15.7784222737819
30
0.000000000000000
 40
15.0566551361940
100
AcDbArc
 50
90.0000000000000
 51
111.682269455088
  0
LINE
  5
F1005E
330
F10002
100
AcDbEntity
  8
Bemassung
 62
     0
370
    -2
100
AcDbLine
10
-69.8387470997679
20
15.7784222737819
30
0.000000000000000
11
-69.8387470997679
21
32.8350774099759
31
0.000000000000000
  0
LINE
  5
F1005F
330
F10002
100
AcDbEntity
  8
Bemassung
 62
     0
370
    -2
100
AcDbLine
10
-69.8387470997679
20
15.7784222737819
30
0.000000000000000
11
-70.4340157794492
21
32.8246869565223
31
0.000000000000000
  0
INSERT
  5
F10060
330
F10002
100
AcDbEntity
  8
Bemassung
 62
     0
370
    -2
100
AcDbBlockReference
  2
VDDIM_DEFAULT
10
-69.8387470997679
20
30.8350774099759
30
0.000000000000000
 41
2.50000000000000
 42
2.50000000000000
 43
2.50000000000000
 50
179.809732359871
  0
INSERT
  5
F10061
330
F10002
100
AcDbEntity
  8
Bemassung
 62
     0
370
    -2
100
AcDbBlockReference
  2
VDDIM_DEFAULT
10
-70.3642167860442
20
30.8259053024841
30
0.000000000000000
 41
2.50000000000000
 42
2.50000000000000
 43
2.50000000000000
 50
2.19026764007020
  0
MTEXT
  5
F10062
330
F10002
100
AcDbEntity
  8
Bemassung
 62
     0
100
AcDbMText
10
-75.0314144261522
20
29.9113296154359
30
0.000000000000000
 40
2.50000000000000
 41
0.0
 71
     8
 72
     1
  1
2°
 11
0.938876315886609
 21
0.344254649158423
 31
0.0
 73
     1
 44
1.0
1001
ACAD
1000
MTEXTBEGIN
1070
73
1070
1
1070
44
1040
1.0
1070
74
1070
0
1000
MTEXTEND
  0
POINT
  5
F10063
330
F10002
100
AcDbEntity
  8
Bemassung
 62
     0
100
AcDbPoint
10
-69.8387470997679
20
15.7784222737819
30
0.000000000000000
  0
POINT
  5
F10064
330
F10002
100
AcDbEntity
  8
Bemassung
 62
     0
100
AcDbPoint
10
-69.8387470997679
20
30.8350774099759
30
0.000000000000000
  0
POINT
  5
F10065
330
F10002
100
AcDbEntity
  8
Bemassung
 62
     0
100
AcDbPoint
10
-70.3642167860442
20
30.8259053024841
30
0.000000000000000
  0
POINT
  5
F10066
330
F10002
100
AcDbEntity
  8
Bemassung
 62
     0
100
AcDbPoint
10
-70.1015219647908
20
30.8327842084701
30
0.000000000000000
  0
ENDBLK
  5
F10067
330
F10002
100
AcDbEntity
  8
0
100
AcDbBlockEnd
  0
BLOCK
  5
F10068
330
F1000C
100
AcDbEntity
  8
0
100
AcDbBlockBegin
  2
*D5
 70
     1
 10
0.0
 20
0.0
 30
0.0
  3
*D5
  1

  0
LINE
  5
F10069
330
F1000C
100
AcDbEntity
  8
Bemassung
 62
     0
370
    -2
100
AcDbLine
10
-69.3387470997679
20
8.27842227378193
30
0.000000000000000
11
-81.8387470997679
21
8.27842227378193
31
0.000000000000000
  0
LINE
  5
F1006A
330
F1000C
100
AcDbEntity
  8
Bemassung
 62
     0
370
    -2
100
AcDbLine
10
-69.3387470997679
20
16.2784222737819
30
0.000000000000000
11
-81.8387470997679
21
16.2784222737819
31
0.000000000000000
  0
LINE
  5
F1006B
330
F1000C
100
AcDbEntity
  8
Bemassung
 62
     0
370
    -2
100
AcDbLine
10
-79.8387470997679
20
8.27842227378193
30
0.000000000000000
11
-79.8387470997679
21
16.2784222737819
31
0.000000000000000
  0
INSERT
  5
F1006C
330
F1000C
100
AcDbEntity
  8
Bemassung
 62
     0
370
    -2
100
AcDbBlockReference
  2
VDDIM_DEFAULT
10
-79.8387470997679
20
8.27842227378193
30
0.000000000000000
 41
2.50000000000000
 42
2.50000000000000
 43
2.50000000000000
 50
270.000000000000
  0
INSERT
  5
F1006D
330
F1000C
100
AcDbEntity
  8
Bemassung
 62
     0
370
    -2
100
AcDbBlockReference
  2
VDDIM_DEFAULT
10
-79.8387470997679
20
16.2784222737819
30
0.000000000000000
 41
2.50000000000000
 42
2.50000000000000
 43
2.50000000000000
 50
90.0000000000000
  0
MTEXT
  5
F1006E
330
F1000C
100
AcDbEntity
  8
Bemassung
 62
     0
100
AcDbMText
10
-79.1720804331012
20
12.2784222737819
30
0.000000000000000
 40
2.50000000000000
 41
0.0
 71
     8
 72
     1
  1
8
 11
6.12323399573677e-017
 21
1.00000000000000
 31
0.0
 73
     1
 44
1.0
1001
ACAD
1000
MTEXTBEGIN
1070
73
1070
1
1070
44
1040
1.0
1070
74
1070
0
1000
MTEXTEND
  0
POINT
  5
F1006F
330
F1000C
100
AcDbEntity
  8
Bemassung
 62
     0
100
AcDbPoint
10
-69.3387470997679
20
8.27842227378193
30
0.000000000000000
  0
POINT
  5
F10070
330
F1000C
100
AcDbEntity
  8
Bemassung
 62
     0
100
AcDbPoint
10
-69.3387470997679
20
16.2784222737819
30
0.000000000000000
  0
ENDBLK
  5
F10071
330
F1000C
100
AcDbEntity
  8
0
100
AcDbBlockEnd
  0
BLOCK
  5
F10072
330
F10016
100
AcDbEntity
  8
0
100
AcDbBlockBegin
  2
*D7
 70
     1
 10
0.0
 20
0.0
 30
0.0
  3
*D7
  1

  0
LINE
  5
F10073
330
F10016
100
AcDbEntity
  8
Bemassung
 62
     0
370
    -2
100
AcDbLine
10
-6.33874709976789
20
8.27842227378193
30
0.000000000000000
11
6.16125290023211
21
8.27842227378193
31
0.000000000000000
  0
LINE
  5
F10074
330
F10016
100
AcDbEntity
  8
Bemassung
 62
     0
370
    -2
100
AcDbLine
10
-6.33874709976789
20
16.2784222737819
30
0.000000000000000
11
6.16125290023211
21
16.2784222737819
31
0.000000000000000
  0
LINE
  5
F10075
330
F10016
100
AcDbEntity
  8
Bemassung
 62
     0
370
    -2
100
AcDbLine
10
4.16125290023211
20
8.27842227378193
30
0.000000000000000
11
4.16125290023211
21
16.2784222737819
31
0.000000000000000
  0
INSERT
  5
F10076
330
F10016
100
AcDbEntity
  8
Bemassung
 62
     0
370
    -2
100
AcDbBlockReference
  2
VDDIM_DEFAULT
10
4.16125290023211
20
8.27842227378193
30
0.000000000000000
 41
2.50000000000000
 42
2.50000000000000
 43
2.50000000000000
 50
270.000000000000
  0
INSERT
  5
F10077
330
F10016
100
AcDbEntity
  8
Bemassung
 62
     0
370
    -2
100
AcDbBlockReference
  2
VDDIM_DEFAULT
10
4.16125290023211
20
16.2784222737819
30
0.000000000000000
 41
2.50000000000000
 42
2.50000000000000
 43
2.50000000000000
 50
90.0000000000000
  0
MTEXT
  5
F10078
330
F10016
100
AcDbEntity
  8
Bemassung
 62
     0
100
AcDbMText
10
4.82791956689878
20
12.2784222737819
30
0.000000000000000
 40
2.50000000000000
 41
0.0
 71
     8
 72
     1
  1
8h5
 11
6.12323399573677e-017
 21
1.00000000000000
 31
0.0
 73
     1
 44
1.0
  0
POINT
  5
F10079
330
F10016
100
AcDbEntity
  8
Bemassung
 62
     0
100
AcDbPoint
10
-6.33874709976789
20
8.27842227378193
30
0.000000000000000
  0
POINT
  5
F1007A
330
F10016
100
AcDbEntity
  8
Bemassung
 62
     0
100
AcDbPoint
10
-6.33874709976789
20
16.2784222737819
30
0.000000000000000
  0
ENDBLK
  5
F1007B
330
F10016
100
AcDbEntity
  8
0
100
AcDbBlockEnd
0
ENDSEC
0
SECTION
2
ENTITIES
  0
DIMENSION
  5
F10008
330
261
100
AcDbEntity
  8
Bemassung
100
AcDbDimension
  2
*D4
10
-69.3387470997679
20
22.2784222737819
30
0.000000000000000
11
-74.5031562694041
21
22.9450889404486
31
0.000000000000000
 70
32
 1
0.5 x 45°
 71
     8
  3
BEM-ISBE
100
AcDbAlignedDimension
13
-69.8387470997679
23
-8.72157772621807
33
0.000000000000000
14
-69.3387470997679
24
16.2784222737819
34
0.000000000000000
100
AcDbRotatedDimension
1001
ACAD
1000
DSTYLE
1002
{
1070
284
1070
8
1070
78
1070
8
1070
144
1040
1.00000000000000
1070
147
1040
0.625
1070
 72
1070
 0
1070
 71
1070
 0
1002
}
  0
DIMENSION
  5
F10012
330
261
100
AcDbEntity
  8
Bemassung
100
AcDbDimension
  2
*D6
10
-5.83874709976789
20
31.2784222737819
30
0.000000000000000
11
-27.8387470997679
21
31.9450889404486
31
0.000000000000000
 70
32
 1
44
 71
     8
  3
BEM-ISBE
100
AcDbAlignedDimension
13
-49.8387470997679
23
16.2784222737819
33
0.000000000000000
14
-5.83874709976789
24
15.7784222737819
34
0.000000000000000
100
AcDbRotatedDimension
1001
ACAD
1000
DSTYLE
1002
{
1070
284
1070
8
1070
78
1070
8
1070
144
1040
1.00000000000000
1070
147
1040
0.625
1070
 72
1070
 0
1070
 71
1070
 0
1002
}
  0
DIMENSION
  5
F1001C
330
261
100
AcDbEntity
  8
Bemassung
100
AcDbDimension
  2
*D8
10
-69.8387470997679
20
-1.72157772621807
30
0.000000000000000
11
-59.8387470997679
21
-1.05491105955141
31
0.000000000000000
 70
32
 1
20
 71
     8
  3
BEM-ISBE
100
AcDbAlignedDimension
13
-49.8387470997679
23
8.27842227378193
33
0.000000000000000
14
-69.8387470997679
24
-8.72157772621807
34
0.000000000000000
100
AcDbRotatedDimension
1001
ACAD
1000
DSTYLE
1002
{
1070
284
1070
8
1070
78
1070
8
1070
144
1040
1.00000000000000
1070
147
1040
0.625
1070
 72
1070
 0
1070
 71
1070
 0
1002
}
  0
DIMENSION
  5
F10021
330
261
100
AcDbEntity
  8
Bemassung
100
AcDbDimension
  2
*D9
10
-69.8387470997679
20
-6.72157772621807
30
0.000000000000000
11
-59.3387470997679
21
-6.05491105955141
31
0.000000000000000
 70
32
 1
21
 71
     8
  3
BEM-ISBE
100
AcDbAlignedDimension
13
-48.8387470997679
23
8.27842227378193
33
0.000000000000000
14
-69.8387470997679
24
-8.72157772621807
34
0.000000000000000
100
AcDbRotatedDimension
1001
ACAD
1000
DSTYLE
1002
{
1070
284
1070
8
1070
78
1070
8
1070
144
1040
1.00000000000000
1070
147
1040
0.625
1070
 72
1070
 0
1070
 71
1070
 0
1002
}
  0
DIMENSION
  5
F10026
330
261
100
AcDbEntity
  8
Bemassung
100
AcDbDimension
  2
*D10
10
-69.8387470997679
20
36.2784222737819
30
0.000000000000000
11
-37.8387470997679
21
36.9450889404486
31
0.000000000000000
 70
32
 1
64
 71
     8
  3
BEM-ISBE
100
AcDbAlignedDimension
13
-5.83874709976789
23
15.7784222737819
33
0.000000000000000
14
-69.8387470997679
24
-8.72157772621807
34
0.000000000000000
100
AcDbRotatedDimension
1001
ACAD
1000
DSTYLE
1002
{
1070
284
1070
8
1070
78
1070
8
1070
144
1040
1.00000000000000
1070
147
1040
0.625
1070
 72
1070
 0
1070
 71
1070
 0
1002
}
  0
DIMENSION
  5
F10003
330
261
100
AcDbEntity
  8
Bemassung
100
AcDbDimension
  2
*D3
10
-69.8387470997679
20
15.7784222737819
30
0.000000000000000
11
-75.0314144261522
21
29.9113296154359
31
0.000000000000000
 70
34
 1
2°
 71
     8
  3
BEM-ISBE
100
AcDb2LineAngularDimension
13
-69.8387470997679
23
15.7784222737819
33
0.000000000000000
14
-75.4015670653177
24
29.7697730992440
34
0.000000000000000
15
-69.8387470997679
25
30.8350774099759
35
0.000000000000000
16
-70.1015219647908
26
30.8327842084701
36
0.000000000000000
1001
ACAD
1000
DSTYLE
1002
{
1070
284
1070
8
1070
79
1070
2
1070
147
1040
0.625
1070
 72
1070
 0
1070
 71
1070
 0
1002
}
  0
DIMENSION
  5
F1000D
330
261
100
AcDbEntity
  8
Bemassung
100
AcDbDimension
  2
*D5
10
-79.8387470997679
20
16.2784222737819
30
0.000000000000000
11
-79.1720804331012
21
12.2784222737819
31
0.000000000000000
 70
32
 1
8
 71
     8
  3
BEM-ISBE
100
AcDbAlignedDimension
13
-69.3387470997679
23
8.27842227378193
33
0.000000000000000
14
-69.3387470997679
24
16.2784222737819
34
0.000000000000000
50
90.0000000000000
100
AcDbRotatedDimension
1001
ACAD
1000
DSTYLE
1002
{
1070
284
1070
8
1070
78
1070
8
1070
144
1040
1.00000000000000
1070
147
1040
0.625
1070
 72
1070
 0
1070
 71
1070
 0
1002
}
  0
DIMENSION
  5
F10017
330
261
100
AcDbEntity
  8
Bemassung
100
AcDbDimension
  2
*D7
10
4.16125290023211
20
16.2784222737819
30
0.000000000000000
11
4.82791956689878
21
12.2784222737819
31
0.000000000000000
 70
32
 1
8h5
 71
     8
  3
BEM-ISBE
100
AcDbAlignedDimension
13
-6.33874709976789
23
8.27842227378193
33
0.000000000000000
14
-6.33874709976789
24
16.2784222737819
34
0.000000000000000
50
90.0000000000000
100
AcDbRotatedDimension
1001
ACAD
1000
DSTYLE
1002
{
1070
284
1070
8
1070
78
1070
8
1070
144
1040
1.00000000000000
1070
147
1040
0.625
1070
 72
1070
 0
1070
 71
1070
 0
1002
}
  0
LINE
  5
F1007C
330
F1007D
100
AcDbEntity
8
Geo
100
AcDbLine
10
-69.7165244065468
20
12.2784222737819
30
0.000000000000000
11
-69.8387470997679
21
15.7784222737819
31
0.000000000000000
  0
LINE
  5
F1007E
330
F1007F
100
AcDbEntity
8
Geo
100
AcDbLine
10
-69.8387470997679
20
15.7784222737819
30
0.000000000000000
11
-69.3387470997679
21
16.2784222737819
31
0.000000000000000
  0
LINE
  5
F10080
330
F10081
100
AcDbEntity
8
Geo
100
AcDbLine
10
-69.3387470997679
20
16.2784222737819
30
0.000000000000000
11
-49.8387470997679
21
16.2784222737819
31
0.000000000000000
  0
LINE
  5
F10082
330
F10083
100
AcDbEntity
8
Geo
100
AcDbLine
10
-49.8387470997679
20
16.2784222737819
30
0.000000000000000
11
-27.6887470997679
21
16.2784222737819
31
0.000000000000000
  0
LINE
  5
F10084
330
F10085
100
AcDbEntity
8
Geo
100
AcDbLine
10
-27.6887470997679
20
16.2784222737819
30
0.000000000000000
11
-26.5887470997679
21
15.1784222737819
31
0.000000000000000
  0
LINE
  5
F10086
330
F10087
100
AcDbEntity
8
Geo
100
AcDbLine
10
-26.5887470997679
20
15.1784222737819
30
0.000000000000000
11
-21.0887470997679
21
15.1784222737819
31
0.000000000000000
  0
LINE
  5
F10088
330
F10089
100
AcDbEntity
8
Geo
100
AcDbLine
10
-21.0887470997679
20
15.1784222737819
30
0.000000000000000
11
-19.9887470997679
21
16.2784222737819
31
0.000000000000000
  0
LINE
  5
F1008A
330
F1008B
100
AcDbEntity
8
Geo
100
AcDbLine
10
-19.9887470997679
20
16.2784222737819
30
0.000000000000000
11
-6.33874709976789
21
16.2784222737819
31
0.000000000000000
  0
LINE
  5
F1008C
330
F1008D
100
AcDbEntity
8
Geo
100
AcDbLine
10
-6.33874709976789
20
16.2784222737819
30
0.000000000000000
11
-5.83874709976789
21
15.7784222737819
31
0.000000000000000
  0
LINE
  5
F1008E
330
F1008F
100
AcDbEntity
8
Geo
100
AcDbLine
10
-66.6387470997679
20
16.2771766859295
30
0.000000000000000
11
-66.5387470997679
21
16.2780559664621
31
0.000000000000000
  0
LINE
  5
F10090
330
F10091
100
AcDbEntity
8
Geo
100
AcDbLine
10
-66.5387470997679
20
16.2780559664621
30
0.000000000000000
11
-66.4387470997679
21
16.2730105952390
31
0.000000000000000
  0
LINE
  5
F10092
330
F10093
100
AcDbEntity
8
Geo
100
AcDbLine
10
-66.4387470997679
20
16.2730105952390
30
0.000000000000000
11
-66.3387470997679
21
16.2620480459615
31
0.000000000000000
  0
LINE
  5
F10094
330
F10095
100
AcDbEntity
8
Geo
100
AcDbLine
10
-66.3387470997679
20
16.2620480459615
30
0.000000000000000
11
-66.2387470997679
21
16.2451845574383
31
0.000000000000000
  0
LINE
  5
F10096
330
F10097
100
AcDbEntity
8
Geo
100
AcDbLine
10
-66.2387470997679
20
16.2451845574383
30
0.000000000000000
11
-66.1387470997679
21
16.2224451095313
31
0.000000000000000
  0
LINE
  5
F10098
330
F10099
100
AcDbEntity
8
Geo
100
AcDbLine
10
-66.1387470997679
20
16.2224451095313
30
0.000000000000000
11
-66.0387470997679
21
16.1938633861525
31
0.000000000000000
  0
LINE
  5
F1009A
330
F1009B
100
AcDbEntity
8
Geo
100
AcDbLine
10
-66.0387470997679
20
16.1938633861525
30
0.000000000000000
11
-65.9387470997679
21
16.1594817253687
31
0.000000000000000
  0
LINE
  5
F1009C
330
F1009D
100
AcDbEntity
8
Geo
100
AcDbLine
10
-65.9387470997679
20
16.1594817253687
30
0.000000000000000
11
-65.8387470997679
21
16.1193510566854
31
0.000000000000000
  0
LINE
  5
F1009E
330
F1009F
100
AcDbEntity
8
Geo
100
AcDbLine
10
-65.8387470997679
20
16.1193510566854
30
0.000000000000000
11
-65.7387470997679
21
16.0735308256057
31
0.000000000000000
  0
LINE
  5
F100A0
330
F100A1
100
AcDbEntity
8
Geo
100
AcDbLine
10
-65.7387470997679
20
16.0735308256057
30
0.000000000000000
11
-65.6387470997679
21
16.0220889055734
31
0.000000000000000
  0
LINE
  5
F100A2
330
F100A3
100
AcDbEntity
8
Geo
100
AcDbLine
10
-65.6387470997679
20
16.0220889055734
30
0.000000000000000
11
-65.5387470997679
21
15.9651014974321
31
0.000000000000000
  0
LINE
  5
F100A4
330
F100A5
100
AcDbEntity
8
Geo
100
AcDbLine
10
-65.5387470997679
20
15.9651014974321
30
0.000000000000000
11
-65.4387470997679
21
15.9026530165492
31
0.000000000000000
  0
LINE
  5
F100A6
330
F100A7
100
AcDbEntity
8
Geo
100
AcDbLine
10
-65.4387470997679
20
15.9026530165492
30
0.000000000000000
11
-65.3387470997679
21
15.8348359677716
31
0.000000000000000
  0
LINE
  5
F100A8
330
F100A9
100
AcDbEntity
8
Geo
100
AcDbLine
10
-65.3387470997679
20
15.8348359677716
30
0.000000000000000
11
-65.2387470997679
21
15.7617508083981
31
0.000000000000000
  0
LINE
  5
F100AA
330
F100AB
100
AcDbEntity
8
Geo
100
AcDbLine
10
-65.2387470997679
20
15.7617508083981
30
0.000000000000000
11
-65.1387470997679
21
15.6835057993723
31
0.000000000000000
  0
LINE
  5
F100AC
330
F100AD
100
AcDbEntity
8
Geo
100
AcDbLine
10
-65.1387470997679
20
15.6835057993723
30
0.000000000000000
11
-65.0387470997679
21
15.6002168449158
31
0.000000000000000
  0
LINE
  5
F100AE
330
F100AF
100
AcDbEntity
8
Geo
100
AcDbLine
10
-65.0387470997679
20
15.6002168449158
30
0.000000000000000
11
-64.9387470997679
21
15.5120073208397
31
0.000000000000000
  0
LINE
  5
F100B0
330
F100B1
100
AcDbEntity
8
Geo
100
AcDbLine
10
-64.9387470997679
20
15.5120073208397
30
0.000000000000000
11
-64.8387470997679
21
15.4190078917876
31
0.000000000000000
  0
LINE
  5
F100B2
330
F100B3
100
AcDbEntity
8
Geo
100
AcDbLine
10
-64.8387470997679
20
15.4190078917876
30
0.000000000000000
11
-64.7387470997679
21
15.3213563176830
31
0.000000000000000
  0
LINE
  5
F100B4
330
F100B5
100
AcDbEntity
8
Geo
100
AcDbLine
10
-64.7387470997679
20
15.3213563176830
30
0.000000000000000
11
-64.6387470997679
21
15.2191972496648
31
0.000000000000000
  0
LINE
  5
F100B6
330
F100B7
100
AcDbEntity
8
Geo
100
AcDbLine
10
-64.6387470997679
20
15.2191972496648
30
0.000000000000000
11
-64.5387470997679
21
15.1126820158168
31
0.000000000000000
  0
LINE
  5
F100B8
330
F100B9
100
AcDbEntity
8
Geo
100
AcDbLine
10
-64.5387470997679
20
15.1126820158168
30
0.000000000000000
11
-64.4387470997679
21
15.0019683970048
31
0.000000000000000
  0
LINE
  5
F100BA
330
F100BB
100
AcDbEntity
8
Geo
100
AcDbLine
10
-64.4387470997679
20
15.0019683970048
30
0.000000000000000
11
-64.3387470997679
21
14.8872203931563
31
0.000000000000000
  0
LINE
  5
F100BC
330
F100BD
100
AcDbEntity
8
Geo
100
AcDbLine
10
-64.3387470997679
20
14.8872203931563
30
0.000000000000000
11
-64.2387470997679
21
14.7686079803280
31
0.000000000000000
  0
LINE
  5
F100BE
330
F100BF
100
AcDbEntity
8
Geo
100
AcDbLine
10
-64.2387470997679
20
14.7686079803280
30
0.000000000000000
11
-64.1387470997679
21
14.6463068589198
31
0.000000000000000
  0
LINE
  5
F100C0
330
F100C1
100
AcDbEntity
8
Geo
100
AcDbLine
10
-64.1387470997679
20
14.6463068589198
30
0.000000000000000
11
-64.0387470997679
21
14.5204981934107
31
0.000000000000000
  0
LINE
  5
F100C2
330
F100C3
100
AcDbEntity
8
Geo
100
AcDbLine
10
-64.0387470997679
20
14.5204981934107
30
0.000000000000000
11
-63.9387470997679
21
14.3913683439997
31
0.000000000000000
  0
LINE
  5
F100C4
330
F100C5
100
AcDbEntity
8
Geo
100
AcDbLine
10
-63.9387470997679
20
14.3913683439997
30
0.000000000000000
11
-63.8387470997679
21
14.2591085905507
31
0.000000000000000
  0
LINE
  5
F100C6
330
F100C7
100
AcDbEntity
8
Geo
100
AcDbLine
10
-63.8387470997679
20
14.2591085905507
30
0.000000000000000
11
-63.7387470997679
21
14.1239148492505
31
0.000000000000000
  0
LINE
  5
F100C8
330
F100C9
100
AcDbEntity
8
Geo
100
AcDbLine
10
-63.7387470997679
20
14.1239148492505
30
0.000000000000000
11
-63.6387470997679
21
13.9859873823974
31
0.000000000000000
  0
LINE
  5
F100CA
330
F100CB
100
AcDbEntity
8
Geo
100
AcDbLine
10
-63.6387470997679
20
13.9859873823974
30
0.000000000000000
11
-63.5387470997679
21
13.8455305017539
31
0.000000000000000
  0
LINE
  5
F100CC
330
F100CD
100
AcDbEntity
8
Geo
100
AcDbLine
10
-63.5387470997679
20
13.8455305017539
30
0.000000000000000
11
-63.4387470997679
21
13.7027522658995
31
0.000000000000000
  0
LINE
  5
F100CE
330
F100CF
100
AcDbEntity
8
Geo
100
AcDbLine
10
-63.4387470997679
20
13.7027522658995
30
0.000000000000000
11
-63.3387470997679
21
13.5578641720339
31
0.000000000000000
  0
LINE
  5
F100D0
330
F100D1
100
AcDbEntity
8
Geo
100
AcDbLine
10
-63.3387470997679
20
13.5578641720339
30
0.000000000000000
11
-63.2387470997679
21
13.4110808426864
31
0.000000000000000
  0
LINE
  5
F100D2
330
F100D3
100
AcDbEntity
8
Geo
100
AcDbLine
10
-63.2387470997679
20
13.4110808426864
30
0.000000000000000
11
-63.1387470997679
21
13.2626197077961
31
0.000000000000000
  0
LINE
  5
F100D4
330
F100D5
100
AcDbEntity
8
Geo
100
AcDbLine
10
-63.1387470997679
20
13.2626197077961
30
0.000000000000000
11
-63.0387470997679
21
13.1127006826329
31
0.000000000000000
  0
LINE
  5
F100D6
330
F100D7
100
AcDbEntity
8
Geo
100
AcDbLine
10
-63.0387470997679
20
13.1127006826329
30
0.000000000000000
11
-62.9387470997679
21
12.9615458420377
31
0.000000000000000
  0
LINE
  5
F100D8
330
F100D9
100
AcDbEntity
8
Geo
100
AcDbLine
10
-62.9387470997679
20
12.9615458420377
30
0.000000000000000
11
-62.8387470997679
21
12.8093790914630
31
0.000000000000000
  0
LINE
  5
F100DA
330
F100DB
100
AcDbEntity
8
Geo
100
AcDbLine
10
-62.8387470997679
20
12.8093790914630
30
0.000000000000000
11
-62.7387470997679
21
12.6564258353021
31
0.000000000000000
  0
LINE
  5
F100DC
330
F100DD
100
AcDbEntity
8
Geo
100
AcDbLine
10
-62.7387470997679
20
12.6564258353021
30
0.000000000000000
11
-62.6387470997679
21
12.5029126429979
31
0.000000000000000
  0
LINE
  5
F100DE
330
F100DF
100
AcDbEntity
8
Geo
100
AcDbLine
10
-62.6387470997679
20
12.5029126429979
30
0.000000000000000
11
-62.5387470997679
21
12.3490669134260
31
0.000000000000000
  0
LINE
  5
F100E0
330
F100E1
100
AcDbEntity
8
Geo
100
AcDbLine
10
-62.5387470997679
20
12.3490669134260
30
0.000000000000000
11
-62.4387470997679
21
12.1951165380488
31
0.000000000000000
  0
LINE
  5
F100E2
330
F100E3
100
AcDbEntity
8
Geo
100
AcDbLine
10
-62.4387470997679
20
12.1951165380488
30
0.000000000000000
11
-62.3387470997679
21
12.0412895633407
31
0.000000000000000
  0
LINE
  5
F100E4
330
F100E5
100
AcDbEntity
8
Geo
100
AcDbLine
10
-62.3387470997679
20
12.0412895633407
30
0.000000000000000
11
-62.2387470997679
21
11.8878138529825
31
0.000000000000000
  0
LINE
  5
F100E6
330
F100E7
100
AcDbEntity
8
Geo
100
AcDbLine
10
-62.2387470997679
20
11.8878138529825
30
0.000000000000000
11
-62.1387470997679
21
11.7349167503280
31
0.000000000000000
  0
LINE
  5
F100E8
330
F100E9
100
AcDbEntity
8
Geo
100
AcDbLine
10
-62.1387470997679
20
11.7349167503280
30
0.000000000000000
11
-62.0387470997679
21
11.5828247416398
31
0.000000000000000
  0
LINE
  5
F100EA
330
F100EB
100
AcDbEntity
8
Geo
100
AcDbLine
10
-62.0387470997679
20
11.5828247416398
30
0.000000000000000
11
-61.9387470997679
21
11.4317631205963
31
0.000000000000000
  0
LINE
  5
F100EC
330
F100ED
100
AcDbEntity
8
Geo
100
AcDbLine
10
-61.9387470997679
20
11.4317631205963
30
0.000000000000000
11
-61.8387470997679
21
11.2819556545640
31
0.000000000000000
  0
LINE
  5
F100EE
330
F100EF
100
AcDbEntity
8
Geo
100
AcDbLine
10
-61.8387470997679
20
11.2819556545640
30
0.000000000000000
11
-61.7387470997679
21
11.1336242531312
31
0.000000000000000
  0
LINE
  5
F100F0
330
F100F1
100
AcDbEntity
8
Geo
100
AcDbLine
10
-61.7387470997679
20
11.1336242531312
30
0.000000000000000
11
-61.6387470997679
21
10.9869886393940
31
0.000000000000000
  0
LINE
  5
F100F2
330
F100F3
100
AcDbEntity
8
Geo
100
AcDbLine
10
-61.6387470997679
20
10.9869886393940
30
0.000000000000000
11
-61.5387470997679
21
10.8422660244806
31
0.000000000000000
  0
LINE
  5
F100F4
330
F100F5
100
AcDbEntity
8
Geo
100
AcDbLine
10
-61.5387470997679
20
10.8422660244806
30
0.000000000000000
11
-61.4387470997679
21
10.6996707857965
31
0.000000000000000
  0
LINE
  5
F100F6
330
F100F7
100
AcDbEntity
8
Geo
100
AcDbLine
10
-61.4387470997679
20
10.6996707857965
30
0.000000000000000
11
-61.3387470997679
21
10.5594141494681
31
0.000000000000000
  0
LINE
  5
F100F8
330
F100F9
100
AcDbEntity
8
Geo
100
AcDbLine
10
-61.3387470997679
20
10.5594141494681
30
0.000000000000000
11
-61.2387470997679
21
10.4217038774530
31
0.000000000000000
  0
LINE
  5
F100FA
330
F100FB
100
AcDbEntity
8
Geo
100
AcDbLine
10
-61.2387470997679
20
10.4217038774530
30
0.000000000000000
11
-61.1387470997679
21
10.2867439597834
31
0.000000000000000
  0
LINE
  5
F100FC
330
F100FD
100
AcDbEntity
8
Geo
100
AcDbLine
10
-61.1387470997679
20
10.2867439597834
30
0.000000000000000
11
-61.0387470997679
21
10.1547343123951
31
0.000000000000000
  0
LINE
  5
F100FE
330
F100FF
100
AcDbEntity
8
Geo
100
AcDbLine
10
-61.0387470997679
20
10.1547343123951
30
0.000000000000000
11
-60.9387470997679
21
10.0258704809930
31
0.000000000000000
  0
LINE
  5
F10100
330
F10101
100
AcDbEntity
8
Geo
100
AcDbLine
10
-60.9387470997679
20
10.0258704809930
30
0.000000000000000
11
-60.8387470997679
21
9.90034335138892
31
0.000000000000000
  0
LINE
  5
F10102
330
F10103
100
AcDbEntity
8
Geo
100
AcDbLine
10
-60.8387470997679
20
9.90034335138892
30
0.000000000000000
11
-60.7387470997679
21
9.77833886674325
31
0.000000000000000
  0
LINE
  5
F10104
330
F10105
100
AcDbEntity
8
Geo
100
AcDbLine
10
-60.7387470997679
20
9.77833886674325
30
0.000000000000000
11
-60.6387470997679
21
9.66003775212721
31
0.000000000000000
  0
LINE
  5
F10106
330
F10107
100
AcDbEntity
8
Geo
100
AcDbLine
10
-60.6387470997679
20
9.66003775212721
30
0.000000000000000
11
-60.5387470997679
21
9.54561524681527
31
0.000000000000000
  0
LINE
  5
F10108
330
F10109
100
AcDbEntity
8
Geo
100
AcDbLine
10
-60.5387470997679
20
9.54561524681527
30
0.000000000000000
11
-60.4387470997679
21
9.43524084470340
31
0.000000000000000
  0
LINE
  5
F1010A
330
F1010B
100
AcDbEntity
8
Geo
100
AcDbLine
10
-60.4387470997679
20
9.43524084470340
30
0.000000000000000
11
-60.3387470997679
21
9.32907804323799
31
0.000000000000000
  0
LINE
  5
F1010C
330
F1010D
100
AcDbEntity
8
Geo
100
AcDbLine
10
-60.3387470997679
20
9.32907804323799
30
0.000000000000000
11
-60.2387470997679
21
9.22728410122732
31
0.000000000000000
  0
LINE
  5
F1010E
330
F1010F
100
AcDbEntity
8
Geo
100
AcDbLine
10
-60.2387470997679
20
9.22728410122732
30
0.000000000000000
11
-60.1387470997679
21
9.13000980589433
31
0.000000000000000
  0
LINE
  5
F10110
330
F10111
100
AcDbEntity
8
Geo
100
AcDbLine
10
-60.1387470997679
20
9.13000980589433
30
0.000000000000000
11
-60.0387470997679
21
9.03739924951568
31
0.000000000000000
  0
LINE
  5
F10112
330
F10113
100
AcDbEntity
8
Geo
100
AcDbLine
10
-60.0387470997679
20
9.03739924951568
30
0.000000000000000
11
-59.9387470997679
21
8.94958961597811
31
0.000000000000000
  0
LINE
  5
F10114
330
F10115
100
AcDbEntity
8
Geo
100
AcDbLine
10
-59.9387470997679
20
8.94958961597811
30
0.000000000000000
11
-59.8387470997679
21
8.86671097756810
31
0.000000000000000
  0
LINE
  5
F10116
330
F10117
100
AcDbEntity
8
Geo
100
AcDbLine
10
-59.8387470997679
20
8.86671097756810
30
0.000000000000000
11
-59.7387470997679
21
8.78888610229600
31
0.000000000000000
  0
LINE
  5
F10118
330
F10119
100
AcDbEntity
8
Geo
100
AcDbLine
10
-59.7387470997679
20
8.78888610229600
30
0.000000000000000
11
-59.6387470997679
21
8.71623027203993
31
0.000000000000000
  0
LINE
  5
F1011A
330
F1011B
100
AcDbEntity
8
Geo
100
AcDbLine
10
-59.6387470997679
20
8.71623027203993
30
0.000000000000000
11
-59.5387470997679
21
8.64885111177893
31
0.000000000000000
  0
LINE
  5
F1011C
330
F1011D
100
AcDbEntity
8
Geo
100
AcDbLine
10
-59.5387470997679
20
8.64885111177893
30
0.000000000000000
11
-59.4387470997679
21
8.58684843016819
31
0.000000000000000
  0
LINE
  5
F1011E
330
F1011F
100
AcDbEntity
8
Geo
100
AcDbLine
10
-59.4387470997679
20
8.58684843016819
30
0.000000000000000
11
-59.3387470997679
21
8.53031407169265
31
0.000000000000000
  0
LINE
  5
F10120
330
F10121
100
AcDbEntity
8
Geo
100
AcDbLine
10
-59.3387470997679
20
8.53031407169265
30
0.000000000000000
11
-59.2387470997679
21
8.47933178061790
31
0.000000000000000
  0
LINE
  5
F10122
330
F10123
100
AcDbEntity
8
Geo
100
AcDbLine
10
-59.2387470997679
20
8.47933178061790
30
0.000000000000000
11
-59.1387470997679
21
8.43397707693990
31
0.000000000000000
  0
LINE
  5
F10124
330
F10125
100
AcDbEntity
8
Geo
100
AcDbLine
10
-59.1387470997679
20
8.43397707693990
30
0.000000000000000
11
-59.0387470997679
21
8.39431714451734
31
0.000000000000000
  0
LINE
  5
F10126
330
F10127
100
AcDbEntity
8
Geo
100
AcDbLine
10
-59.0387470997679
20
8.39431714451734
30
0.000000000000000
11
-58.9387470997679
21
8.36041073155224
31
0.000000000000000
  0
LINE
  5
F10128
330
F10129
100
AcDbEntity
8
Geo
100
AcDbLine
10
-58.9387470997679
20
8.36041073155224
30
0.000000000000000
11
-58.8387470997679
21
8.33230806356638
31
0.000000000000000
  0
LINE
  5
F1012A
330
F1012B
100
AcDbEntity
8
Geo
100
AcDbLine
10
-58.8387470997679
20
8.33230806356638
30
0.000000000000000
11
-58.7387470997679
21
8.31005076900227
31
0.000000000000000
  0
LINE
  5
F1012C
330
F1012D
100
AcDbEntity
8
Geo
100
AcDbLine
10
-58.7387470997679
20
8.31005076900227
30
0.000000000000000
11
-58.6387470997679
21
8.29367181755899
31
0.000000000000000
  0
LINE
  5
F1012E
330
F1012F
100
AcDbEntity
8
Geo
100
AcDbLine
10
-58.6387470997679
20
8.29367181755899
30
0.000000000000000
11
-58.5387470997679
21
8.28319547135426
31
0.000000000000000
  0
LINE
  5
F10130
330
F10131
100
AcDbEntity
8
Geo
100
AcDbLine
10
-58.5387470997679
20
8.28319547135426
30
0.000000000000000
11
-58.4387470997679
21
8.27863724898494
31
0.000000000000000
  0
LINE
  5
F10132
330
F10133
100
AcDbEntity
8
Geo
100
AcDbLine
10
-50.3387470997679
20
16.2760737928390
30
0.000000000000000
11
-50.2387470997679
21
16.2783866376405
31
0.000000000000000
  0
LINE
  5
F10134
330
F10135
100
AcDbEntity
8
Geo
100
AcDbLine
10
-50.2387470997679
20
16.2783866376405
30
0.000000000000000
11
-50.1387470997679
21
16.2747743408636
31
0.000000000000000
  0
LINE
  5
F10136
330
F10137
100
AcDbEntity
8
Geo
100
AcDbLine
10
-50.1387470997679
20
16.2747743408636
30
0.000000000000000
11
-50.0387470997679
21
16.2652422533982
31
0.000000000000000
  0
LINE
  5
F10138
330
F10139
100
AcDbEntity
8
Geo
100
AcDbLine
10
-50.0387470997679
20
16.2652422533982
30
0.000000000000000
11
-49.9387470997679
21
16.2498044951123
31
0.000000000000000
  0
LINE
  5
F1013A
330
F1013B
100
AcDbEntity
8
Geo
100
AcDbLine
10
-49.9387470997679
20
16.2498044951123
30
0.000000000000000
11
-49.8387470997679
21
16.2284839339353
31
0.000000000000000
  0
LINE
  5
F1013C
330
F1013D
100
AcDbEntity
8
Geo
100
AcDbLine
10
-49.8387470997679
20
16.2284839339353
30
0.000000000000000
11
-49.7387470997679
21
16.1916522906713
31
0.000000000000000
  0
LINE
  5
F1013E
330
F1013F
100
AcDbEntity
8
Geo
100
AcDbLine
10
-49.7387470997679
20
16.1916522906713
30
0.000000000000000
11
-49.6387470997679
21
16.1302121811284
31
0.000000000000000
  0
LINE
  5
F10140
330
F10141
100
AcDbEntity
8
Geo
100
AcDbLine
10
-49.6387470997679
20
16.1302121811284
30
0.000000000000000
11
-49.5387470997679
21
16.0340108173500
31
0.000000000000000
  0
LINE
  5
F10142
330
F10143
100
AcDbEntity
8
Geo
100
AcDbLine
10
-49.5387470997679
20
16.0340108173500
30
0.000000000000000
11
-49.4387470997679
21
15.8912517008923
31
0.000000000000000
  0
LINE
  5
F10144
330
F10145
100
AcDbEntity
8
Geo
100
AcDbLine
10
-49.4387470997679
20
15.8912517008923
30
0.000000000000000
11
-49.3387470997679
21
15.6890376735020
31
0.000000000000000
  0
LINE
  5
F10146
330
F10147
100
AcDbEntity
8
Geo
100
AcDbLine
10
-49.3387470997679
20
15.6890376735020
30
0.000000000000000
11
-49.2387470997679
21
15.4141895916298
31
0.000000000000000
  0
LINE
  5
F10148
330
F10149
100
AcDbEntity
8
Geo
100
AcDbLine
10
-49.2387470997679
20
15.4141895916298
30
0.000000000000000
11
-49.1387470997679
21
15.0544010832572
31
0.000000000000000
  0
LINE
  5
F1014A
330
F1014B
100
AcDbEntity
8
Geo
100
AcDbLine
10
-49.1387470997679
20
15.0544010832572
30
0.000000000000000
11
-49.0387470997679
21
14.5997696874478
31
0.000000000000000
  0
LINE
  5
F1014C
330
F1014D
100
AcDbEntity
8
Geo
100
AcDbLine
10
-49.0387470997679
20
14.5997696874478
30
0.000000000000000
11
-48.9387470997679
21
14.0447053761074
31
0.000000000000000
  0
LINE
  5
F1014E
330
F1014F
100
AcDbEntity
8
Geo
100
AcDbLine
10
-48.9387470997679
20
14.0447053761074
30
0.000000000000000
11
-48.8387470997679
21
13.3901546300672
31
0.000000000000000
  0
LINE
  5
F10150
330
F10151
100
AcDbEntity
8
Geo
100
AcDbLine
10
-69.8387470997679
20
15.7784222737819
30
0.000000000000000
11
-69.7387470997679
21
15.8757559363171
31
0.000000000000000
  0
LINE
  5
F10152
330
F10153
100
AcDbEntity
8
Geo
100
AcDbLine
10
-69.7387470997679
20
15.8757559363171
30
0.000000000000000
11
-69.6387470997679
21
15.9674647235586
31
0.000000000000000
  0
LINE
  5
F10154
330
F10155
100
AcDbEntity
8
Geo
100
AcDbLine
10
-69.6387470997679
20
15.9674647235586
30
0.000000000000000
11
-69.5387470997679
21
16.0531170760894
31
0.000000000000000
  0
LINE
  5
F10156
330
F10157
100
AcDbEntity
8
Geo
100
AcDbLine
10
-69.5387470997679
20
16.0531170760894
30
0.000000000000000
11
-69.4387470997679
21
16.1322912826045
31
0.000000000000000
  0
LINE
  5
F10158
330
F10159
100
AcDbEntity
8
Geo
100
AcDbLine
10
-69.4387470997679
20
16.1322912826045
30
0.000000000000000
11
-69.3387470997679
21
16.2045765413284
31
0.000000000000000
  0
LINE
  5
F1015A
330
F1015B
100
AcDbEntity
8
Geo
100
AcDbLine
10
-69.3387470997679
20
16.2045765413284
30
0.000000000000000
11
-69.2387470997679
21
16.1722288391932
31
0.000000000000000
  0
LINE
  5
F1015C
330
F1015D
100
AcDbEntity
8
Geo
100
AcDbLine
10
-69.2387470997679
20
16.1722288391932
30
0.000000000000000
11
-69.1387470997679
21
16.1341132468768
31
0.000000000000000
  0
LINE
  5
F1015E
330
F1015F
100
AcDbEntity
8
Geo
100
AcDbLine
10
-69.1387470997679
20
16.1341132468768
30
0.000000000000000
11
-69.0387470997679
21
16.0902862249524
31
0.000000000000000
  0
LINE
  5
F10160
330
F10161
100
AcDbEntity
8
Geo
100
AcDbLine
10
-69.0387470997679
20
16.0902862249524
30
0.000000000000000
11
-68.9387470997679
21
16.0408126943260
31
0.000000000000000
  0
LINE
  5
F10162
330
F10163
100
AcDbEntity
8
Geo
100
AcDbLine
10
-68.9387470997679
20
16.0408126943260
30
0.000000000000000
11
-68.8387470997679
21
15.9857659400686
31
0.000000000000000
  0
LINE
  5
F10164
330
F10165
100
AcDbEntity
8
Geo
100
AcDbLine
10
-68.8387470997679
20
15.9857659400686
30
0.000000000000000
11
-68.7387470997679
21
15.9252275028600
31
0.000000000000000
  0
LINE
  5
F10166
330
F10167
100
AcDbEntity
8
Geo
100
AcDbLine
10
-68.7387470997679
20
15.9252275028600
30
0.000000000000000
11
-68.6387470997679
21
15.8592870582018
31
0.000000000000000
  0
LINE
  5
F10168
330
F10169
100
AcDbEntity
8
Geo
100
AcDbLine
10
-68.6387470997679
20
15.8592870582018
30
0.000000000000000
11
-68.5387470997679
21
15.7880422835818
31
0.000000000000000
  0
LINE
  5
F1016A
330
F1016B
100
AcDbEntity
8
Geo
100
AcDbLine
10
-68.5387470997679
20
15.7880422835818
30
0.000000000000000
11
-68.4387470997679
21
15.7115987137845
31
0.000000000000000
  0
LINE
  5
F1016C
330
F1016D
100
AcDbEntity
8
Geo
100
AcDbLine
10
-68.4387470997679
20
15.7115987137845
30
0.000000000000000
11
-68.3387470997679
21
15.6300695845619
31
0.000000000000000
  0
LINE
  5
F1016E
330
F1016F
100
AcDbEntity
8
Geo
100
AcDbLine
10
-68.3387470997679
20
15.6300695845619
30
0.000000000000000
11
-68.2387470997679
21
15.5435756648985
31
0.000000000000000
  0
LINE
  5
F10170
330
F10171
100
AcDbEntity
8
Geo
100
AcDbLine
10
-68.2387470997679
20
15.5435756648985
30
0.000000000000000
11
-68.1387470997679
21
15.4522450781155
31
0.000000000000000
  0
LINE
  5
F10172
330
F10173
100
AcDbEntity
8
Geo
100
AcDbLine
10
-68.1387470997679
20
15.4522450781155
30
0.000000000000000
11
-68.0387470997679
21
15.3562131120826
31
0.000000000000000
  0
LINE
  5
F10174
330
F10175
100
AcDbEntity
8
Geo
100
AcDbLine
10
-68.0387470997679
20
15.3562131120826
30
0.000000000000000
11
-67.9387470997679
21
15.2556220188159
31
0.000000000000000
  0
LINE
  5
F10176
330
F10177
100
AcDbEntity
8
Geo
100
AcDbLine
10
-67.9387470997679
20
15.2556220188159
30
0.000000000000000
11
-67.8387470997679
21
15.1506208037600
31
0.000000000000000
  0
LINE
  5
F10178
330
F10179
100
AcDbEntity
8
Geo
100
AcDbLine
10
-67.8387470997679
20
15.1506208037600
30
0.000000000000000
11
-67.7387470997679
21
15.0413650050669
31
0.000000000000000
  0
LINE
  5
F1017A
330
F1017B
100
AcDbEntity
8
Geo
100
AcDbLine
10
-67.7387470997679
20
15.0413650050669
30
0.000000000000000
11
-67.6387470997679
21
14.9280164631974
31
0.000000000000000
  0
LINE
  5
F1017C
330
F1017D
100
AcDbEntity
8
Geo
100
AcDbLine
10
-67.6387470997679
20
14.9280164631974
30
0.000000000000000
11
-67.5387470997679
21
14.8107430811869
31
0.000000000000000
  0
LINE
  5
F1017E
330
F1017F
100
AcDbEntity
8
Geo
100
AcDbLine
10
-67.5387470997679
20
14.8107430811869
30
0.000000000000000
11
-67.4387470997679
21
14.6897185759310
31
0.000000000000000
  0
LINE
  5
F10180
330
F10181
100
AcDbEntity
8
Geo
100
AcDbLine
10
-67.4387470997679
20
14.6897185759310
30
0.000000000000000
11
-67.3387470997679
21
14.5651222208589
31
0.000000000000000
  0
LINE
  5
F10182
330
F10183
100
AcDbEntity
8
Geo
100
AcDbLine
10
-67.3387470997679
20
14.5651222208589
30
0.000000000000000
11
-67.2387470997679
21
14.4371385803759
31
0.000000000000000
  0
LINE
  5
F10184
330
F10185
100
AcDbEntity
8
Geo
100
AcDbLine
10
-67.2387470997679
20
14.4371385803759
30
0.000000000000000
11
-67.1387470997679
21
14.3059572364683
31
0.000000000000000
  0
LINE
  5
F10186
330
F10187
100
AcDbEntity
8
Geo
100
AcDbLine
10
-67.1387470997679
20
14.3059572364683
30
0.000000000000000
11
-67.0387470997679
21
14.1717725078761
31
0.000000000000000
  0
LINE
  5
F10188
330
F10189
100
AcDbEntity
8
Geo
100
AcDbLine
10
-67.0387470997679
20
14.1717725078761
30
0.000000000000000
11
-66.9387470997679
21
14.0347831622489
31
0.000000000000000
  0
LINE
  5
F1018A
330
F1018B
100
AcDbEntity
8
Geo
100
AcDbLine
10
-66.9387470997679
20
14.0347831622489
30
0.000000000000000
11
-66.8387470997679
21
13.8951921217112
31
0.000000000000000
  0
LINE
  5
F1018C
330
F1018D
100
AcDbEntity
8
Geo
100
AcDbLine
10
-66.8387470997679
20
13.8951921217112
30
0.000000000000000
11
-66.7387470997679
21
13.7532061622750
31
0.000000000000000
  0
LINE
  5
F1018E
330
F1018F
100
AcDbEntity
8
Geo
100
AcDbLine
10
-66.7387470997679
20
13.7532061622750
30
0.000000000000000
11
-66.6387470997679
21
13.6090356075418
31
0.000000000000000
  0
LINE
  5
F10190
330
F10191
100
AcDbEntity
8
Geo
100
AcDbLine
10
-66.6387470997679
20
13.6090356075418
30
0.000000000000000
11
-66.5387470997679
21
13.4628940171515
31
0.000000000000000
  0
LINE
  5
F10192
330
F10193
100
AcDbEntity
8
Geo
100
AcDbLine
10
-66.5387470997679
20
13.4628940171515
30
0.000000000000000
11
-66.4387470997679
21
13.3149978704359
31
0.000000000000000
  0
LINE
  5
F10194
330
F10195
100
AcDbEntity
8
Geo
100
AcDbLine
10
-66.4387470997679
20
13.3149978704359
30
0.000000000000000
11
-66.3387470997679
21
13.1655662457490
31
0.000000000000000
  0
LINE
  5
F10196
330
F10197
100
AcDbEntity
8
Geo
100
AcDbLine
10
-66.3387470997679
20
13.1655662457490
30
0.000000000000000
11
-66.2387470997679
21
13.0148204959459
31
0.000000000000000
  0
LINE
  5
F10198
330
F10199
100
AcDbEntity
8
Geo
100
AcDbLine
10
-66.2387470997679
20
13.0148204959459
30
0.000000000000000
11
-66.1387470997679
21
12.8629839204934
31
0.000000000000000
  0
LINE
  5
F1019A
330
F1019B
100
AcDbEntity
8
Geo
100
AcDbLine
10
-66.1387470997679
20
12.8629839204934
30
0.000000000000000
11
-66.0387470997679
21
12.7102814346970
31
0.000000000000000
  0
LINE
  5
F1019C
330
F1019D
100
AcDbEntity
8
Geo
100
AcDbLine
10
-66.0387470997679
20
12.7102814346970
30
0.000000000000000
11
-65.9387470997679
21
12.5569392365338
31
0.000000000000000
  0
LINE
  5
F1019E
330
F1019F
100
AcDbEntity
8
Geo
100
AcDbLine
10
-65.9387470997679
20
12.5569392365338
30
0.000000000000000
11
-65.8387470997679
21
12.4031844715859
31
0.000000000000000
  0
LINE
  5
F101A0
330
F101A1
100
AcDbEntity
8
Geo
100
AcDbLine
10
-65.8387470997679
20
12.4031844715859
30
0.000000000000000
11
-65.7387470997679
21
12.2492448965701
31
0.000000000000000
  0
LINE
  5
F101A2
330
F101A3
100
AcDbEntity
8
Geo
100
AcDbLine
10
-65.7387470997679
20
12.2492448965701
30
0.000000000000000
11
-65.6387470997679
21
12.0953485419622
31
0.000000000000000
  0
LINE
  5
F101A4
330
F101A5
100
AcDbEntity
8
Geo
100
AcDbLine
10
-65.6387470997679
20
12.0953485419622
30
0.000000000000000
11
-65.5387470997679
21
11.9417233742153
31
0.000000000000000
  0
LINE
  5
F101A6
330
F101A7
100
AcDbEntity
8
Geo
100
AcDbLine
10
-65.5387470997679
20
11.9417233742153
30
0.000000000000000
11
-65.4387470997679
21
11.7885969580741
31
0.000000000000000
  0
LINE
  5
F101A8
330
F101A9
100
AcDbEntity
8
Geo
100
AcDbLine
10
-65.4387470997679
20
11.7885969580741
30
0.000000000000000
11
-65.3387470997679
21
11.6361961194832
31
0.000000000000000
  0
LINE
  5
F101AA
330
F101AB
100
AcDbEntity
8
Geo
100
AcDbLine
10
-65.3387470997679
20
11.6361961194832
30
0.000000000000000
11
-65.2387470997679
21
11.4847466095901
31
0.000000000000000
  0
LINE
  5
F101AC
330
F101AD
100
AcDbEntity
8
Geo
100
AcDbLine
10
-65.2387470997679
20
11.4847466095901
30
0.000000000000000
11
-65.1387470997679
21
11.3344727703405
31
0.000000000000000
  0
LINE
  5
F101AE
330
F101AF
100
AcDbEntity
8
Geo
100
AcDbLine
10
-65.1387470997679
20
11.3344727703405
30
0.000000000000000
11
-65.0387470997679
21
11.1855972021609
31
0.000000000000000
  0
LINE
  5
F101B0
330
F101B1
100
AcDbEntity
8
Geo
100
AcDbLine
10
-65.0387470997679
20
11.1855972021609
30
0.000000000000000
11
-64.9387470997679
21
11.0383404342207
31
0.000000000000000
  0
LINE
  5
F101B2
330
F101B3
100
AcDbEntity
8
Geo
100
AcDbLine
10
-64.9387470997679
20
11.0383404342207
30
0.000000000000000
11
-64.8387470997679
21
10.8929205977629
31
0.000000000000000
  0
LINE
  5
F101B4
330
F101B5
100
AcDbEntity
8
Geo
100
AcDbLine
10
-64.8387470997679
20
10.8929205977629
30
0.000000000000000
11
-64.7387470997679
21
10.7495531029864
31
0.000000000000000
  0
LINE
  5
F101B6
330
F101B7
100
AcDbEntity
8
Geo
100
AcDbLine
10
-64.7387470997679
20
10.7495531029864
30
0.000000000000000
11
-64.6387470997679
21
10.6084503199593
31
0.000000000000000
  0
LINE
  5
F101B8
330
F101B9
100
AcDbEntity
8
Geo
100
AcDbLine
10
-64.6387470997679
20
10.6084503199593
30
0.000000000000000
11
-64.5387470997679
21
10.4698212640353
31
0.000000000000000
  0
LINE
  5
F101BA
330
F101BB
100
AcDbEntity
8
Geo
100
AcDbLine
10
-64.5387470997679
20
10.4698212640353
30
0.000000000000000
11
-64.4387470997679
21
10.3338712862398
31
0.000000000000000
  0
LINE
  5
F101BC
330
F101BD
100
AcDbEntity
8
Geo
100
AcDbLine
10
-64.4387470997679
20
10.3338712862398
30
0.000000000000000
11
-64.3387470997679
21
10.2008017690833
31
0.000000000000000
  0
LINE
  5
F101BE
330
F101BF
100
AcDbEntity
8
Geo
100
AcDbLine
10
-64.3387470997679
20
10.2008017690833
30
0.000000000000000
11
-64.2387470997679
21
10.0708098282542
31
0.000000000000000
  0
LINE
  5
F101C0
330
F101C1
100
AcDbEntity
8
Geo
100
AcDbLine
10
-64.2387470997679
20
10.0708098282542
30
0.000000000000000
11
-64.1387470997679
21
9.94408802063146
31
0.000000000000000
  0
LINE
  5
F101C2
330
F101C3
100
AcDbEntity
8
Geo
100
AcDbLine
10
-64.1387470997679
20
9.94408802063146
30
0.000000000000000
11
-64.0387470997679
21
9.82082405905013
31
0.000000000000000
  0
LINE
  5
F101C4
330
F101C5
100
AcDbEntity
8
Geo
100
AcDbLine
10
-64.0387470997679
20
9.82082405905013
30
0.000000000000000
11
-63.9387470997679
21
9.70120053424291
31
0.000000000000000
  0
LINE
  5
F101C6
330
F101C7
100
AcDbEntity
8
Geo
100
AcDbLine
10
-63.9387470997679
20
9.70120053424291
30
0.000000000000000
11
-63.8387470997679
21
9.58539464436861
31
0.000000000000000
  0
LINE
  5
F101C8
330
F101C9
100
AcDbEntity
8
Geo
100
AcDbLine
10
-63.8387470997679
20
9.58539464436861
30
0.000000000000000
11
-63.7387470997679
21
9.47357793252882
31
0.000000000000000
  0
LINE
  5
F101CA
330
F101CB
100
AcDbEntity
8
Geo
100
AcDbLine
10
-63.7387470997679
20
9.47357793252882
30
0.000000000000000
11
-63.6387470997679
21
9.36591603266128
31
0.000000000000000
  0
LINE
  5
F101CC
330
F101CD
100
AcDbEntity
8
Geo
100
AcDbLine
10
-63.6387470997679
20
9.36591603266128
30
0.000000000000000
11
-63.5387470997679
21
9.26256842418664
31
0.000000000000000
  0
LINE
  5
F101CE
330
F101CF
100
AcDbEntity
8
Geo
100
AcDbLine
10
-63.5387470997679
20
9.26256842418664
30
0.000000000000000
11
-63.4387470997679
21
9.16368819577177
31
0.000000000000000
  0
LINE
  5
F101D0
330
F101D1
100
AcDbEntity
8
Geo
100
AcDbLine
10
-63.4387470997679
20
9.16368819577177
30
0.000000000000000
11
-63.3387470997679
21
9.06942181855975
31
0.000000000000000
  0
LINE
  5
F101D2
330
F101D3
100
AcDbEntity
8
Geo
100
AcDbLine
10
-63.3387470997679
20
9.06942181855975
30
0.000000000000000
11
-63.2387470997679
21
8.97990892920239
31
0.000000000000000
  0
LINE
  5
F101D4
330
F101D5
100
AcDbEntity
8
Geo
100
AcDbLine
10
-63.2387470997679
20
8.97990892920239
30
0.000000000000000
11
-63.1387470997679
21
8.89528212301660
31
0.000000000000000
  0
LINE
  5
F101D6
330
F101D7
100
AcDbEntity
8
Geo
100
AcDbLine
10
-63.1387470997679
20
8.89528212301660
30
0.000000000000000
11
-63.0387470997679
21
8.81566675757122
31
0.000000000000000
  0
LINE
  5
F101D8
330
F101D9
100
AcDbEntity
8
Geo
100
AcDbLine
10
-63.0387470997679
20
8.81566675757122
30
0.000000000000000
11
-62.9387470997679
21
8.74118076699493
31
0.000000000000000
  0
LINE
  5
F101DA
330
F101DB
100
AcDbEntity
8
Geo
100
AcDbLine
10
-62.9387470997679
20
8.74118076699493
30
0.000000000000000
11
-62.8387470997679
21
8.67193448728067
31
0.000000000000000
  0
LINE
  5
F101DC
330
F101DD
100
AcDbEntity
8
Geo
100
AcDbLine
10
-62.8387470997679
20
8.67193448728067
30
0.000000000000000
11
-62.7387470997679
21
8.60803049284506
31
0.000000000000000
  0
LINE
  5
F101DE
330
F101DF
100
AcDbEntity
8
Geo
100
AcDbLine
10
-62.7387470997679
20
8.60803049284506
30
0.000000000000000
11
-62.6387470997679
21
8.54956344458503
31
0.000000000000000
  0
LINE
  5
F101E0
330
F101E1
100
AcDbEntity
8
Geo
100
AcDbLine
10
-62.6387470997679
20
8.54956344458503
30
0.000000000000000
11
-62.5387470997679
21
8.49661994965684
31
0.000000000000000
  0
LINE
  5
F101E2
330
F101E3
100
AcDbEntity
8
Geo
100
AcDbLine
10
-62.5387470997679
20
8.49661994965684
30
0.000000000000000
11
-62.4387470997679
21
8.44927843318495
31
0.000000000000000
  0
LINE
  5
F101E4
330
F101E5
100
AcDbEntity
8
Geo
100
AcDbLine
10
-62.4387470997679
20
8.44927843318495
30
0.000000000000000
11
-62.3387470997679
21
8.40760902209104
31
0.000000000000000
  0
LINE
  5
F101E6
330
F101E7
100
AcDbEntity
8
Geo
100
AcDbLine
10
-62.3387470997679
20
8.40760902209104
30
0.000000000000000
11
-62.2387470997679
21
8.37167344121507
31
0.000000000000000
  0
LINE
  5
F101E8
330
F101E9
100
AcDbEntity
8
Geo
100
AcDbLine
10
-62.2387470997679
20
8.37167344121507
30
0.000000000000000
11
-62.1387470997679
21
8.34152492188238
31
0.000000000000000
  0
LINE
  5
F101EA
330
F101EB
100
AcDbEntity
8
Geo
100
AcDbLine
10
-62.1387470997679
20
8.34152492188238
30
0.000000000000000
11
-62.0387470997679
21
8.31720812305219
31
0.000000000000000
  0
LINE
  5
F101EC
330
F101ED
100
AcDbEntity
8
Geo
100
AcDbLine
10
-62.0387470997679
20
8.31720812305219
30
0.000000000000000
11
-61.9387470997679
21
8.29875906516437
31
0.000000000000000
  0
LINE
  5
F101EE
330
F101EF
100
AcDbEntity
8
Geo
100
AcDbLine
10
-61.9387470997679
20
8.29875906516437
30
0.000000000000000
11
-61.8387470997679
21
8.28620507678237
31
0.000000000000000
  0
LINE
  5
F101F0
330
F101F1
100
AcDbEntity
8
Geo
100
AcDbLine
10
-61.8387470997679
20
8.28620507678237
30
0.000000000000000
11
-61.7387470997679
21
8.27956475411151
31
0.000000000000000
  0
LINE
  5
F101F2
330
F101F3
100
AcDbEntity
8
Geo
100
AcDbLine
10
-53.5387470997679
20
16.2782488341188
30
0.000000000000000
11
-53.4387470997679
21
16.2767197256931
31
0.000000000000000
  0
LINE
  5
F101F4
330
F101F5
100
AcDbEntity
8
Geo
100
AcDbLine
10
-53.4387470997679
20
16.2767197256931
30
0.000000000000000
11
-53.3387470997679
21
16.2692679448832
31
0.000000000000000
  0
LINE
  5
F101F6
330
F101F7
100
AcDbEntity
8
Geo
100
AcDbLine
10
-53.3387470997679
20
16.2692679448832
30
0.000000000000000
11
-53.2387470997679
21
16.2559045300015
31
0.000000000000000
  0
LINE
  5
F101F8
330
F101F9
100
AcDbEntity
8
Geo
100
AcDbLine
10
-53.2387470997679
20
16.2559045300015
30
0.000000000000000
11
-53.1387470997679
21
16.2366492762557
31
0.000000000000000
  0
LINE
  5
F101FA
330
F101FB
100
AcDbEntity
8
Geo
100
AcDbLine
10
-53.1387470997679
20
16.2366492762557
30
0.000000000000000
11
-53.0387470997679
21
16.2115307064261
31
0.000000000000000
  0
LINE
  5
F101FC
330
F101FD
100
AcDbEntity
8
Geo
100
AcDbLine
10
-53.0387470997679
20
16.2115307064261
30
0.000000000000000
11
-52.9387470997679
21
16.1805860286147
31
0.000000000000000
  0
LINE
  5
F101FE
330
F101FF
100
AcDbEntity
8
Geo
100
AcDbLine
10
-52.9387470997679
20
16.1805860286147
30
0.000000000000000
11
-52.8387470997679
21
16.1438610811292
31
0.000000000000000
  0
LINE
  5
F10200
330
F10201
100
AcDbEntity
8
Geo
100
AcDbLine
10
-52.8387470997679
20
16.1438610811292
30
0.000000000000000
11
-52.7387470997679
21
16.1014102645826
31
0.000000000000000
  0
LINE
  5
F10202
330
F10203
100
AcDbEntity
8
Geo
100
AcDbLine
10
-52.7387470997679
20
16.1014102645826
30
0.000000000000000
11
-52.6387470997679
21
16.0532964613097
31
0.000000000000000
  0
LINE
  5
F10204
330
F10205
100
AcDbEntity
8
Geo
100
AcDbLine
10
-52.6387470997679
20
16.0532964613097
30
0.000000000000000
11
-52.5387470997679
21
15.9995909422194
31
0.000000000000000
  0
LINE
  5
F10206
330
F10207
100
AcDbEntity
8
Geo
100
AcDbLine
10
-52.5387470997679
20
15.9995909422194
30
0.000000000000000
11
-52.4387470997679
21
15.9403732612216
31
0.000000000000000
  0
LINE
  5
F10208
330
F10209
100
AcDbEntity
8
Geo
100
AcDbLine
10
-52.4387470997679
20
15.9403732612216
30
0.000000000000000
11
-52.3387470997679
21
15.8757311373838
31
0.000000000000000
  0
LINE
  5
F1020A
330
F1020B
100
AcDbEntity
8
Geo
100
AcDbLine
10
-52.3387470997679
20
15.8757311373838
30
0.000000000000000
11
-52.2387470997679
21
15.8057603249928
31
0.000000000000000
  0
LINE
  5
F1020C
330
F1020D
100
AcDbEntity
8
Geo
100
AcDbLine
10
-52.2387470997679
20
15.8057603249928
30
0.000000000000000
11
-52.1387470997679
21
15.7305644717146
31
0.000000000000000
  0
LINE
  5
F1020E
330
F1020F
100
AcDbEntity
8
Geo
100
AcDbLine
10
-52.1387470997679
20
15.7305644717146
30
0.000000000000000
11
-52.0387470997679
21
15.6502549650608
31
0.000000000000000
  0
LINE
  5
F10210
330
F10211
100
AcDbEntity
8
Geo
100
AcDbLine
10
-52.0387470997679
20
15.6502549650608
30
0.000000000000000
11
-51.9387470997679
21
15.5649507673904
31
0.000000000000000
  0
LINE
  5
F10212
330
F10213
100
AcDbEntity
8
Geo
100
AcDbLine
10
-51.9387470997679
20
15.5649507673904
30
0.000000000000000
11
-51.8387470997679
21
15.4747782396912
31
0.000000000000000
  0
LINE
  5
F10214
330
F10215
100
AcDbEntity
8
Geo
100
AcDbLine
10
-51.8387470997679
20
15.4747782396912
30
0.000000000000000
11
-51.7387470997679
21
15.3798709544016
31
0.000000000000000
  0
LINE
  5
F10216
330
F10217
100
AcDbEntity
8
Geo
100
AcDbLine
10
-51.7387470997679
20
15.3798709544016
30
0.000000000000000
11
-51.6387470997679
21
15.2803694975496
31
0.000000000000000
  0
LINE
  5
F10218
330
F10219
100
AcDbEntity
8
Geo
100
AcDbLine
10
-51.6387470997679
20
15.2803694975496
30
0.000000000000000
11
-51.5387470997679
21
15.1764212605031
31
0.000000000000000
  0
LINE
  5
F1021A
330
F1021B
100
AcDbEntity
8
Geo
100
AcDbLine
10
-51.5387470997679
20
15.1764212605031
30
0.000000000000000
11
-51.4387470997679
21
15.0681802216392
31
0.000000000000000
  0
LINE
  5
F1021C
330
F1021D
100
AcDbEntity
8
Geo
100
AcDbLine
10
-51.4387470997679
20
15.0681802216392
30
0.000000000000000
11
-51.3387470997679
21
14.9558067182563
31
0.000000000000000
  0
LINE
  5
F1021E
330
F1021F
100
AcDbEntity
8
Geo
100
AcDbLine
10
-51.3387470997679
20
14.9558067182563
30
0.000000000000000
11
-51.2387470997679
21
14.8394672090667
31
0.000000000000000
  0
LINE
  5
F10220
330
F10221
100
AcDbEntity
8
Geo
100
AcDbLine
10
-51.2387470997679
20
14.8394672090667
30
0.000000000000000
11
-51.1387470997679
21
14.7193340276216
31
0.000000000000000
  0
LINE
  5
F10222
330
F10223
100
AcDbEntity
8
Geo
100
AcDbLine
10
-51.1387470997679
20
14.7193340276216
30
0.000000000000000
11
-51.0387470997679
21
14.5955851270334
31
0.000000000000000
  0
LINE
  5
F10224
330
F10225
100
AcDbEntity
8
Geo
100
AcDbLine
10
-51.0387470997679
20
14.5955851270334
30
0.000000000000000
11
-50.9387470997679
21
14.4684038163742
31
0.000000000000000
  0
LINE
  5
F10226
330
F10227
100
AcDbEntity
8
Geo
100
AcDbLine
10
-50.9387470997679
20
14.4684038163742
30
0.000000000000000
11
-50.8387470997679
21
14.3379784891404
31
0.000000000000000
  0
LINE
  5
F10228
330
F10229
100
AcDbEntity
8
Geo
100
AcDbLine
10
-50.8387470997679
20
14.3379784891404
30
0.000000000000000
11
-50.7387470997679
21
14.2045023441856
31
0.000000000000000
  0
LINE
  5
F1022A
330
F1022B
100
AcDbEntity
8
Geo
100
AcDbLine
10
-50.7387470997679
20
14.2045023441856
30
0.000000000000000
11
-50.6387470997679
21
14.0681730995352
31
0.000000000000000
  0
LINE
  5
F1022C
330
F1022D
100
AcDbEntity
8
Geo
100
AcDbLine
10
-50.6387470997679
20
14.0681730995352
30
0.000000000000000
11
-50.5387470997679
21
13.9291926995074
31
0.000000000000000
  0
LINE
  5
F1022E
330
F1022F
100
AcDbEntity
8
Geo
100
AcDbLine
10
-50.5387470997679
20
13.9291926995074
30
0.000000000000000
11
-50.4387470997679
21
13.7877670155730
31
0.000000000000000
  0
LINE
  5
F10230
330
F10231
100
AcDbEntity
8
Geo
100
AcDbLine
10
-50.4387470997679
20
13.7877670155730
30
0.000000000000000
11
-50.3387470997679
21
13.6441055413983
31
0.000000000000000
  0
LINE
  5
F10232
330
F10233
100
AcDbEntity
8
Geo
100
AcDbLine
10
-50.3387470997679
20
13.6441055413983
30
0.000000000000000
11
-50.2387470997679
21
13.4984210825229
31
0.000000000000000
  0
LINE
  5
F10234
330
F10235
100
AcDbEntity
8
Geo
100
AcDbLine
10
-50.2387470997679
20
13.4984210825229
30
0.000000000000000
11
-50.1387470997679
21
13.3509294411303
31
0.000000000000000
  0
LINE
  5
F10236
330
F10237
100
AcDbEntity
8
Geo
100
AcDbLine
10
-50.1387470997679
20
13.3509294411303
30
0.000000000000000
11
-50.0387470997679
21
13.2018490963813
31
0.000000000000000
  0
LINE
  5
F10238
330
F10239
100
AcDbEntity
8
Geo
100
AcDbLine
10
-50.0387470997679
20
13.2018490963813
30
0.000000000000000
11
-49.9387470997679
21
13.0514008807805
31
0.000000000000000
  0
LINE
  5
F1023A
330
F1023B
100
AcDbEntity
8
Geo
100
AcDbLine
10
-49.9387470997679
20
13.0514008807805
30
0.000000000000000
11
-49.8387470997679
21
12.8998076530580
31
0.000000000000000
  0
LINE
  5
F1023C
330
F1023D
100
AcDbEntity
8
Geo
100
AcDbLine
10
-49.8387470997679
20
12.8998076530580
30
0.000000000000000
11
-49.7387470997679
21
12.9219643734534
31
0.000000000000000
  0
LINE
  5
F1023E
330
F1023F
100
AcDbEntity
8
Geo
100
AcDbLine
10
-49.7387470997679
20
12.9219643734534
30
0.000000000000000
11
-49.6387470997679
21
12.9501974710445
31
0.000000000000000
  0
LINE
  5
F10240
330
F10241
100
AcDbEntity
8
Geo
100
AcDbLine
10
-49.6387470997679
20
12.9501974710445
30
0.000000000000000
11
-49.5387470997679
21
12.9844835741152
31
0.000000000000000
  0
LINE
  5
F10242
330
F10243
100
AcDbEntity
8
Geo
100
AcDbLine
10
-49.5387470997679
20
12.9844835741152
30
0.000000000000000
11
-49.4387470997679
21
13.0247921624648
31
0.000000000000000
  0
LINE
  5
F10244
330
F10245
100
AcDbEntity
8
Geo
100
AcDbLine
10
-49.4387470997679
20
13.0247921624648
30
0.000000000000000
11
-49.3387470997679
21
13.0710843461109
31
0.000000000000000
  0
LINE
  5
F10246
330
F10247
100
AcDbEntity
8
Geo
100
AcDbLine
10
-49.3387470997679
20
13.0710843461109
30
0.000000000000000
11
-49.2387470997679
21
13.1233114335974
31
0.000000000000000
  0
LINE
  5
F10248
330
F10249
100
AcDbEntity
8
Geo
100
AcDbLine
10
-49.2387470997679
20
13.1233114335974
30
0.000000000000000
11
-49.1387470997679
21
13.1814132939125
31
0.000000000000000
  0
LINE
  5
F1024A
330
F1024B
100
AcDbEntity
8
Geo
100
AcDbLine
10
-49.1387470997679
20
13.1814132939125
30
0.000000000000000
11
-49.0387470997679
21
13.2453165172158
31
0.000000000000000
  0
LINE
  5
F1024C
330
F1024D
100
AcDbEntity
8
Geo
100
AcDbLine
10
-49.0387470997679
20
13.2453165172158
30
0.000000000000000
11
-48.9387470997679
21
13.3149323810059
31
0.000000000000000
  0
LINE
  5
F1024E
330
F1024F
100
AcDbEntity
8
Geo
100
AcDbLine
10
-48.9387470997679
20
13.3149323810059
30
0.000000000000000
11
-48.8387470997679
21
13.3901546300672
31
0.000000000000000
  0
LINE
  5
F10250
330
F10251
100
AcDbEntity
8
Geo
100
AcDbLine
10
-69.8387470997679
20
15.6071200808150
30
0.000000000000000
11
-69.7387470997679
21
15.6568818157744
31
0.000000000000000
  0
LINE
  5
F10252
330
F10253
100
AcDbEntity
8
Geo
100
AcDbLine
10
-69.7387470997679
20
15.6568818157744
30
0.000000000000000
11
-69.6387470997679
21
15.6989809227976
31
0.000000000000000
  0
LINE
  5
F10254
330
F10255
100
AcDbEntity
8
Geo
100
AcDbLine
10
-69.6387470997679
20
15.6989809227976
30
0.000000000000000
11
-69.5387470997679
21
15.7330790840456
31
0.000000000000000
  0
LINE
  5
F10256
330
F10257
100
AcDbEntity
8
Geo
100
AcDbLine
10
-69.5387470997679
20
15.7330790840456
30
0.000000000000000
11
-69.4387470997679
21
15.7588541797137
31
0.000000000000000
  0
LINE
  5
F10258
330
F10259
100
AcDbEntity
8
Geo
100
AcDbLine
10
-69.4387470997679
20
15.7588541797137
30
0.000000000000000
11
-69.3387470997679
21
15.7760011675222
31
0.000000000000000
  0
LINE
  5
F1025A
330
F1025B
100
AcDbEntity
8
Geo
100
AcDbLine
10
-69.3387470997679
20
15.7760011675222
30
0.000000000000000
11
-69.2387470997679
21
15.6987253528998
31
0.000000000000000
  0
LINE
  5
F1025C
330
F1025D
100
AcDbEntity
8
Geo
100
AcDbLine
10
-69.2387470997679
20
15.6987253528998
30
0.000000000000000
11
-69.1387470997679
21
15.6163830481435
31
0.000000000000000
  0
LINE
  5
F1025E
330
F1025F
100
AcDbEntity
8
Geo
100
AcDbLine
10
-69.1387470997679
20
15.6163830481435
30
0.000000000000000
11
-69.0387470997679
21
15.5290962267934
31
0.000000000000000
  0
LINE
  5
F10260
330
F10261
100
AcDbEntity
8
Geo
100
AcDbLine
10
-69.0387470997679
20
15.5290962267934
30
0.000000000000000
11
-68.9387470997679
21
15.4369941866951
31
0.000000000000000
  0
LINE
  5
F10262
330
F10263
100
AcDbEntity
8
Geo
100
AcDbLine
10
-68.9387470997679
20
15.4369941866951
30
0.000000000000000
11
-68.8387470997679
21
15.3402133584708
31
0.000000000000000
  0
LINE
  5
F10264
330
F10265
100
AcDbEntity
8
Geo
100
AcDbLine
10
-68.8387470997679
20
15.3402133584708
30
0.000000000000000
11
-68.7387470997679
21
15.2388971034252
31
0.000000000000000
  0
LINE
  5
F10266
330
F10267
100
AcDbEntity
8
Geo
100
AcDbLine
10
-68.7387470997679
20
15.2388971034252
30
0.000000000000000
11
-68.6387470997679
21
15.1331955011840
31
0.000000000000000
  0
LINE
  5
F10268
330
F10269
100
AcDbEntity
8
Geo
100
AcDbLine
10
-68.6387470997679
20
15.1331955011840
30
0.000000000000000
11
-68.5387470997679
21
15.0232651273818
31
0.000000000000000
  0
LINE
  5
F1026A
330
F1026B
100
AcDbEntity
8
Geo
100
AcDbLine
10
-68.5387470997679
20
15.0232651273818
30
0.000000000000000
11
-68.4387470997679
21
14.9092688217265
31
0.000000000000000
  0
LINE
  5
F1026C
330
F1026D
100
AcDbEntity
8
Geo
100
AcDbLine
10
-68.4387470997679
20
14.9092688217265
30
0.000000000000000
11
-68.3387470997679
21
14.7913754467852
31
0.000000000000000
  0
LINE
  5
F1026E
330
F1026F
100
AcDbEntity
8
Geo
100
AcDbLine
10
-68.3387470997679
20
14.7913754467852
30
0.000000000000000
11
-68.2387470997679
21
14.6697596378479
31
0.000000000000000
  0
LINE
  5
F10270
330
F10271
100
AcDbEntity
8
Geo
100
AcDbLine
10
-68.2387470997679
20
14.6697596378479
30
0.000000000000000
11
-68.1387470997679
21
14.5446015442414
31
0.000000000000000
  0
LINE
  5
F10272
330
F10273
100
AcDbEntity
8
Geo
100
AcDbLine
10
-68.1387470997679
20
14.5446015442414
30
0.000000000000000
11
-68.0387470997679
21
14.4160865624733
31
0.000000000000000
  0
LINE
  5
F10274
330
F10275
100
AcDbEntity
8
Geo
100
AcDbLine
10
-68.0387470997679
20
14.4160865624733
30
0.000000000000000
11
-67.9387470997679
21
14.2844050616051
31
0.000000000000000
  0
LINE
  5
F10276
330
F10277
100
AcDbEntity
8
Geo
100
AcDbLine
10
-67.9387470997679
20
14.2844050616051
30
0.000000000000000
11
-67.8387470997679
21
14.1497521012586
31
0.000000000000000
  0
LINE
  5
F10278
330
F10279
100
AcDbEntity
8
Geo
100
AcDbLine
10
-67.8387470997679
20
14.1497521012586
30
0.000000000000000
11
-67.7387470997679
21
14.0123271426743
31
0.000000000000000
  0
LINE
  5
F1027A
330
F1027B
100
AcDbEntity
8
Geo
100
AcDbLine
10
-67.7387470997679
20
14.0123271426743
30
0.000000000000000
11
-67.6387470997679
21
13.8723337532498
31
0.000000000000000
  0
LINE
  5
F1027C
330
F1027D
100
AcDbEntity
8
Geo
100
AcDbLine
10
-67.6387470997679
20
13.8723337532498
30
0.000000000000000
11
-67.5387470997679
21
13.7299793049956
31
0.000000000000000
  0
LINE
  5
F1027E
330
F1027F
100
AcDbEntity
8
Geo
100
AcDbLine
10
-67.5387470997679
20
13.7299793049956
30
0.000000000000000
11
-67.4387470997679
21
13.5854746673556
31
0.000000000000000
  0
LINE
  5
F10280
330
F10281
100
AcDbEntity
8
Geo
100
AcDbLine
10
-67.4387470997679
20
13.5854746673556
30
0.000000000000000
11
-67.3387470997679
21
13.4390338948459
31
0.000000000000000
  0
LINE
  5
F10282
330
F10283
100
AcDbEntity
8
Geo
100
AcDbLine
10
-67.3387470997679
20
13.4390338948459
30
0.000000000000000
11
-67.2387470997679
21
13.2908739099765
31
0.000000000000000
  0
LINE
  5
F10284
330
F10285
100
AcDbEntity
8
Geo
100
AcDbLine
10
-67.2387470997679
20
13.2908739099765
30
0.000000000000000
11
-67.1387470997679
21
13.1412141819244
31
0.000000000000000
  0
LINE
  5
F10286
330
F10287
100
AcDbEntity
8
Geo
100
AcDbLine
10
-67.1387470997679
20
13.1412141819244
30
0.000000000000000
11
-67.0387470997679
21
12.9902764014340
31
0.000000000000000
  0
LINE
  5
F10288
330
F10289
100
AcDbEntity
8
Geo
100
AcDbLine
10
-67.0387470997679
20
12.9902764014340
30
0.000000000000000
11
-66.9387470997679
21
12.8382841524269
31
0.000000000000000
  0
LINE
  5
F1028A
330
F1028B
100
AcDbEntity
8
Geo
100
AcDbLine
10
-66.9387470997679
20
12.8382841524269
30
0.000000000000000
11
-66.8387470997679
21
12.6854625808074
31
0.000000000000000
  0
LINE
  5
F1028C
330
F1028D
100
AcDbEntity
8
Geo
100
AcDbLine
10
-66.8387470997679
20
12.6854625808074
30
0.000000000000000
11
-66.7387470997679
21
12.5320380609545
31
0.000000000000000
  0
LINE
  5
F1028E
330
F1028F
100
AcDbEntity
8
Geo
100
AcDbLine
10
-66.7387470997679
20
12.5320380609545
30
0.000000000000000
11
-66.6387470997679
21
12.3782378603932
31
0.000000000000000
  0
LINE
  5
F10290
330
F10291
100
AcDbEntity
8
Geo
100
AcDbLine
10
-66.6387470997679
20
12.3782378603932
30
0.000000000000000
11
-66.5387470997679
21
12.2242898031441
31
0.000000000000000
  0
LINE
  5
F10292
330
F10293
100
AcDbEntity
8
Geo
100
AcDbLine
10
-66.5387470997679
20
12.2242898031441
30
0.000000000000000
11
-66.4387470997679
21
12.0704219322475
31
0.000000000000000
  0
LINE
  5
F10294
330
F10295
100
AcDbEntity
8
Geo
100
AcDbLine
10
-66.4387470997679
20
12.0704219322475
30
0.000000000000000
11
-66.3387470997679
21
11.9168621719638
31
0.000000000000000
  0
LINE
  5
F10296
330
F10297
100
AcDbEntity
8
Geo
100
AcDbLine
10
-66.3387470997679
20
11.9168621719638
30
0.000000000000000
11
-66.2387470997679
21
11.7638379901497
31
0.000000000000000
  0
LINE
  5
F10298
330
F10299
100
AcDbEntity
8
Geo
100
AcDbLine
10
-66.2387470997679
20
11.7638379901497
30
0.000000000000000
11
-66.1387470997679
21
11.6115760613102
31
0.000000000000000
  0
LINE
  5
F1029A
330
F1029B
100
AcDbEntity
8
Geo
100
AcDbLine
10
-66.1387470997679
20
11.6115760613102
30
0.000000000000000
11
-66.0387470997679
21
11.4603019308261
31
0.000000000000000
  0
LINE
  5
F1029C
330
F1029D
100
AcDbEntity
8
Geo
100
AcDbLine
10
-66.0387470997679
20
11.4603019308261
30
0.000000000000000
11
-65.9387470997679
21
11.3102396808537
31
0.000000000000000
  0
LINE
  5
F1029E
330
F1029F
100
AcDbEntity
8
Geo
100
AcDbLine
10
-65.9387470997679
20
11.3102396808537
30
0.000000000000000
11
-65.8387470997679
21
11.1616115983925
31
0.000000000000000
  0
LINE
  5
F102A0
330
F102A1
100
AcDbEntity
8
Geo
100
AcDbLine
10
-65.8387470997679
20
11.1616115983925
30
0.000000000000000
11
-65.7387470997679
21
11.0146378460119
31
0.000000000000000
  0
LINE
  5
F102A2
330
F102A3
100
AcDbEntity
8
Geo
100
AcDbLine
10
-65.7387470997679
20
11.0146378460119
30
0.000000000000000
11
-65.6387470997679
21
10.8695361357242
31
0.000000000000000
  0
LINE
  5
F102A4
330
F102A5
100
AcDbEntity
8
Geo
100
AcDbLine
10
-65.6387470997679
20
10.8695361357242
30
0.000000000000000
11
-65.5387470997679
21
10.7265214064884
31
0.000000000000000
  0
LINE
  5
F102A6
330
F102A7
100
AcDbEntity
8
Geo
100
AcDbLine
10
-65.5387470997679
20
10.7265214064884
30
0.000000000000000
11
-65.4387470997679
21
10.5858055058216
31
0.000000000000000
  0
LINE
  5
F102A8
330
F102A9
100
AcDbEntity
8
Geo
100
AcDbLine
10
-65.4387470997679
20
10.5858055058216
30
0.000000000000000
11
-65.3387470997679
21
10.4475968759893
31
0.000000000000000
  0
LINE
  5
F102AA
330
F102AB
100
AcDbEntity
8
Geo
100
AcDbLine
10
-65.3387470997679
20
10.4475968759893
30
0.000000000000000
11
-65.2387470997679
21
10.3121002452401
31
0.000000000000000
  0
LINE
  5
F102AC
330
F102AD
100
AcDbEntity
8
Geo
100
AcDbLine
10
-65.2387470997679
20
10.3121002452401
30
0.000000000000000
11
-65.1387470997679
21
10.1795163245423
31
0.000000000000000
  0
LINE
  5
F102AE
330
F102AF
100
AcDbEntity
8
Geo
100
AcDbLine
10
-65.1387470997679
20
10.1795163245423
30
0.000000000000000
11
-65.0387470997679
21
10.0500415102710
31
0.000000000000000
  0
LINE
  5
F102B0
330
F102B1
100
AcDbEntity
8
Geo
100
AcDbLine
10
-65.0387470997679
20
10.0500415102710
30
0.000000000000000
11
-64.9387470997679
21
9.92386759328615
31
0.000000000000000
  0
LINE
  5
F102B2
330
F102B3
100
AcDbEntity
8
Geo
100
AcDbLine
10
-64.9387470997679
20
9.92386759328615
30
0.000000000000000
11
-64.8387470997679
21
9.80118147483327
31
0.000000000000000
  0
LINE
  5
F102B4
330
F102B5
100
AcDbEntity
8
Geo
100
AcDbLine
10
-64.8387470997679
20
9.80118147483327
30
0.000000000000000
11
-64.7387470997679
21
9.68216488968685
31
0.000000000000000
  0
LINE
  5
F102B6
330
F102B7
100
AcDbEntity
8
Geo
100
AcDbLine
10
-64.7387470997679
20
9.68216488968685
30
0.000000000000000
11
-64.6387470997679
21
9.56699413694682
31
0.000000000000000
  0
LINE
  5
F102B8
330
F102B9
100
AcDbEntity
8
Geo
100
AcDbLine
10
-64.6387470997679
20
9.56699413694682
30
0.000000000000000
11
-64.5387470997679
21
9.45583981888702
31
0.000000000000000
  0
LINE
  5
F102BA
330
F102BB
100
AcDbEntity
8
Geo
100
AcDbLine
10
-64.5387470997679
20
9.45583981888702
30
0.000000000000000
11
-64.4387470997679
21
9.34886658824223
31
0.000000000000000
  0
LINE
  5
F102BC
330
F102BD
100
AcDbEntity
8
Geo
100
AcDbLine
10
-64.4387470997679
20
9.34886658824223
30
0.000000000000000
11
-64.3387470997679
21
9.24623290430834
31
0.000000000000000
  0
LINE
  5
F102BE
330
F102BF
100
AcDbEntity
8
Geo
100
AcDbLine
10
-64.3387470997679
20
9.24623290430834
30
0.000000000000000
11
-64.2387470997679
21
9.14809079821681
31
0.000000000000000
  0
LINE
  5
F102C0
330
F102C1
100
AcDbEntity
8
Geo
100
AcDbLine
10
-64.2387470997679
20
9.14809079821681
30
0.000000000000000
11
-64.1387470997679
21
9.05458564773117
31
0.000000000000000
  0
LINE
  5
F102C2
330
F102C3
100
AcDbEntity
8
Geo
100
AcDbLine
10
-64.1387470997679
20
9.05458564773117
30
0.000000000000000
11
-64.0387470997679
21
8.96585596189913
31
0.000000000000000
  0
LINE
  5
F102C4
330
F102C5
100
AcDbEntity
8
Geo
100
AcDbLine
10
-64.0387470997679
20
8.96585596189913
30
0.000000000000000
11
-63.9387470997679
21
8.88203317587935
31
0.000000000000000
  0
LINE
  5
F102C6
330
F102C7
100
AcDbEntity
8
Geo
100
AcDbLine
10
-63.9387470997679
20
8.88203317587935
30
0.000000000000000
11
-63.8387470997679
21
8.80324145624670
31
0.000000000000000
  0
LINE
  5
F102C8
330
F102C9
100
AcDbEntity
8
Geo
100
AcDbLine
10
-63.8387470997679
20
8.80324145624670
30
0.000000000000000
11
-63.7387470997679
21
8.72959751706449
31
0.000000000000000
  0
LINE
  5
F102CA
330
F102CB
100
AcDbEntity
8
Geo
100
AcDbLine
10
-63.7387470997679
20
8.72959751706449
30
0.000000000000000
11
-63.6387470997679
21
8.66121044699612
31
0.000000000000000
  0
LINE
  5
F102CC
330
F102CD
100
AcDbEntity
8
Geo
100
AcDbLine
10
-63.6387470997679
20
8.66121044699612
30
0.000000000000000
11
-63.5387470997679
21
8.59818154771217
31
0.000000000000000
  0
LINE
  5
F102CE
330
F102CF
100
AcDbEntity
8
Geo
100
AcDbLine
10
-63.5387470997679
20
8.59818154771217
30
0.000000000000000
11
-63.4387470997679
21
8.54060418383236
31
0.000000000000000
  0
LINE
  5
F102D0
330
F102D1
100
AcDbEntity
8
Geo
100
AcDbLine
10
-63.4387470997679
20
8.54060418383236
30
0.000000000000000
11
-63.3387470997679
21
8.48856364462471
31
0.000000000000000
  0
LINE
  5
F102D2
330
F102D3
100
AcDbEntity
8
Geo
100
AcDbLine
10
-63.3387470997679
20
8.48856364462471
30
0.000000000000000
11
-63.2387470997679
21
8.44213701766667
31
0.000000000000000
  0
LINE
  5
F102D4
330
F102D5
100
AcDbEntity
8
Geo
100
AcDbLine
10
-63.2387470997679
20
8.44213701766667
30
0.000000000000000
11
-63.1387470997679
21
8.40139307465536
31
0.000000000000000
  0
LINE
  5
F102D6
330
F102D7
100
AcDbEntity
8
Geo
100
AcDbLine
10
-63.1387470997679
20
8.40139307465536
30
0.000000000000000
11
-63.0387470997679
21
8.36639216953616
31
0.000000000000000
  0
LINE
  5
F102D8
330
F102D9
100
AcDbEntity
8
Geo
100
AcDbLine
10
-63.0387470997679
20
8.36639216953616
30
0.000000000000000
11
-62.9387470997679
21
8.33718614910055
31
0.000000000000000
  0
LINE
  5
F102DA
330
F102DB
100
AcDbEntity
8
Geo
100
AcDbLine
10
-62.9387470997679
20
8.33718614910055
30
0.000000000000000
11
-62.8387470997679
21
8.31381827618545
31
0.000000000000000
  0
LINE
  5
F102DC
330
F102DD
100
AcDbEntity
8
Geo
100
AcDbLine
10
-62.8387470997679
20
8.31381827618545
30
0.000000000000000
11
-62.7387470997679
21
8.29632316558810
31
0.000000000000000
  0
LINE
  5
F102DE
330
F102DF
100
AcDbEntity
8
Geo
100
AcDbLine
10
-62.7387470997679
20
8.29632316558810
30
0.000000000000000
11
-62.6387470997679
21
8.28472673279119
31
0.000000000000000
  0
LINE
  5
F102E0
330
F102E1
100
AcDbEntity
8
Geo
100
AcDbLine
10
-62.6387470997679
20
8.28472673279119
30
0.000000000000000
11
-62.5387470997679
21
8.27904615557429
31
0.000000000000000
  0
LINE
  5
F102E2
330
F102E3
100
AcDbEntity
8
Geo
100
AcDbLine
10
-54.3387470997679
20
16.2784033839404
30
0.000000000000000
11
-54.2387470997679
21
16.2759138425427
31
0.000000000000000
  0
LINE
  5
F102E4
330
F102E5
100
AcDbEntity
8
Geo
100
AcDbLine
10
-54.2387470997679
20
16.2759138425427
30
0.000000000000000
11
-54.1387470997679
21
16.2675028225144
31
0.000000000000000
  0
LINE
  5
F102E6
330
F102E7
100
AcDbEntity
8
Geo
100
AcDbLine
10
-54.1387470997679
20
16.2675028225144
30
0.000000000000000
11
-54.0387470997679
21
16.2531827830876
31
0.000000000000000
  0
LINE
  5
F102E8
330
F102E9
100
AcDbEntity
8
Geo
100
AcDbLine
10
-54.0387470997679
20
16.2531827830876
30
0.000000000000000
11
-53.9387470997679
21
16.2329749365166
31
0.000000000000000
  0
LINE
  5
F102EA
330
F102EB
100
AcDbEntity
8
Geo
100
AcDbLine
10
-53.9387470997679
20
16.2329749365166
30
0.000000000000000
11
-53.8387470997679
21
16.2069092166560
31
0.000000000000000
  0
LINE
  5
F102EC
330
F102ED
100
AcDbEntity
8
Geo
100
AcDbLine
10
-53.8387470997679
20
16.2069092166560
30
0.000000000000000
11
-53.7387470997679
21
16.1750242346200
31
0.000000000000000
  0
LINE
  5
F102EE
330
F102EF
100
AcDbEntity
8
Geo
100
AcDbLine
10
-53.7387470997679
20
16.1750242346200
30
0.000000000000000
11
-53.6387470997679
21
16.1373672215875
31
0.000000000000000
  0
LINE
  5
F102F0
330
F102F1
100
AcDbEntity
8
Geo
100
AcDbLine
10
-53.6387470997679
20
16.1373672215875
30
0.000000000000000
11
-53.5387470997679
21
16.0939939588388
31
0.000000000000000
  0
LINE
  5
F102F2
330
F102F3
100
AcDbEntity
8
Geo
100
AcDbLine
10
-53.5387470997679
20
16.0939939588388
30
0.000000000000000
11
-53.4387470997679
21
16.0449686951271
31
0.000000000000000
  0
LINE
  5
F102F4
330
F102F5
100
AcDbEntity
8
Geo
100
AcDbLine
10
-53.4387470997679
20
16.0449686951271
30
0.000000000000000
11
-53.3387470997679
21
15.9903640515064
31
0.000000000000000
  0
LINE
  5
F102F6
330
F102F7
100
AcDbEntity
8
Geo
100
AcDbLine
10
-53.3387470997679
20
15.9903640515064
30
0.000000000000000
11
-53.2387470997679
21
15.9302609137583
31
0.000000000000000
  0
LINE
  5
F102F8
330
F102F9
100
AcDbEntity
8
Geo
100
AcDbLine
10
-53.2387470997679
20
15.9302609137583
30
0.000000000000000
11
-53.1387470997679
21
15.8647483125763
31
0.000000000000000
  0
LINE
  5
F102FA
330
F102FB
100
AcDbEntity
8
Geo
100
AcDbLine
10
-53.1387470997679
20
15.8647483125763
30
0.000000000000000
11
-53.0387470997679
21
15.7939232916840
31
0.000000000000000
  0
LINE
  5
F102FC
330
F102FD
100
AcDbEntity
8
Geo
100
AcDbLine
10
-53.0387470997679
20
15.7939232916840
30
0.000000000000000
11
-52.9387470997679
21
15.7178907640854
31
0.000000000000000
  0
LINE
  5
F102FE
330
F102FF
100
AcDbEntity
8
Geo
100
AcDbLine
10
-52.9387470997679
20
15.7178907640854
30
0.000000000000000
11
-52.8387470997679
21
15.6367633566563
31
0.000000000000000
  0
LINE
  5
F10300
330
F10301
100
AcDbEntity
8
Geo
100
AcDbLine
10
-52.8387470997679
20
15.6367633566563
30
0.000000000000000
11
-52.7387470997679
21
15.5506612433111
31
0.000000000000000
  0
LINE
  5
F10302
330
F10303
100
AcDbEntity
8
Geo
100
AcDbLine
10
-52.7387470997679
20
15.5506612433111
30
0.000000000000000
11
-52.6387470997679
21
15.4597119669891
31
0.000000000000000
  0
LINE
  5
F10304
330
F10305
100
AcDbEntity
8
Geo
100
AcDbLine
10
-52.6387470997679
20
15.4597119669891
30
0.000000000000000
11
-52.5387470997679
21
15.3640502507252
31
0.000000000000000
  0
LINE
  5
F10306
330
F10307
100
AcDbEntity
8
Geo
100
AcDbLine
10
-52.5387470997679
20
15.3640502507252
30
0.000000000000000
11
-52.4387470997679
21
15.2638177980850
31
0.000000000000000
  0
LINE
  5
F10308
330
F10309
100
AcDbEntity
8
Geo
100
AcDbLine
10
-52.4387470997679
20
15.2638177980850
30
0.000000000000000
11
-52.3387470997679
21
15.1591630832593
31
0.000000000000000
  0
LINE
  5
F1030A
330
F1030B
100
AcDbEntity
8
Geo
100
AcDbLine
10
-52.3387470997679
20
15.1591630832593
30
0.000000000000000
11
-52.2387470997679
21
15.0502411311299
31
0.000000000000000
  0
LINE
  5
F1030C
330
F1030D
100
AcDbEntity
8
Geo
100
AcDbLine
10
-52.2387470997679
20
15.0502411311299
30
0.000000000000000
11
-52.1387470997679
21
14.9372132876311
31
0.000000000000000
  0
LINE
  5
F1030E
330
F1030F
100
AcDbEntity
8
Geo
100
AcDbLine
10
-52.1387470997679
20
14.9372132876311
30
0.000000000000000
11
-52.0387470997679
21
14.8202469807481
31
0.000000000000000
  0
LINE
  5
F10310
330
F10311
100
AcDbEntity
8
Geo
100
AcDbLine
10
-52.0387470997679
20
14.8202469807481
30
0.000000000000000
11
-51.9387470997679
21
14.6995154725068
31
0.000000000000000
  0
LINE
  5
F10312
330
F10313
100
AcDbEntity
8
Geo
100
AcDbLine
10
-51.9387470997679
20
14.6995154725068
30
0.000000000000000
11
-51.8387470997679
21
14.5751976023201
31
0.000000000000000
  0
LINE
  5
F10314
330
F10315
100
AcDbEntity
8
Geo
100
AcDbLine
10
-51.8387470997679
20
14.5751976023201
30
0.000000000000000
11
-51.7387470997679
21
14.4474775220741
31
0.000000000000000
  0
LINE
  5
F10316
330
F10317
100
AcDbEntity
8
Geo
100
AcDbLine
10
-51.7387470997679
20
14.4474775220741
30
0.000000000000000
11
-51.6387470997679
21
14.3165444233438
31
0.000000000000000
  0
LINE
  5
F10318
330
F10319
100
AcDbEntity
8
Geo
100
AcDbLine
10
-51.6387470997679
20
14.3165444233438
30
0.000000000000000
11
-51.5387470997679
21
14.1825922571439
31
0.000000000000000
  0
LINE
  5
F1031A
330
F1031B
100
AcDbEntity
8
Geo
100
AcDbLine
10
-51.5387470997679
20
14.1825922571439
30
0.000000000000000
11
-51.4387470997679
21
14.0458194466295
31
0.000000000000000
  0
LINE
  5
F1031C
330
F1031D
100
AcDbEntity
8
Geo
100
AcDbLine
10
-51.4387470997679
20
14.0458194466295
30
0.000000000000000
11
-51.3387470997679
21
13.9064285931723
31
0.000000000000000
  0
LINE
  5
F1031E
330
F1031F
100
AcDbEntity
8
Geo
100
AcDbLine
10
-51.3387470997679
20
13.9064285931723
30
0.000000000000000
11
-51.2387470997679
21
13.7646261762471
31
0.000000000000000
  0
LINE
  5
F10320
330
F10321
100
AcDbEntity
8
Geo
100
AcDbLine
10
-51.2387470997679
20
13.7646261762471
30
0.000000000000000
11
-51.1387470997679
21
13.6206222475744
31
0.000000000000000
  0
LINE
  5
F10322
330
F10323
100
AcDbEntity
8
Geo
100
AcDbLine
10
-51.1387470997679
20
13.6206222475744
30
0.000000000000000
11
-51.0387470997679
21
13.4746301199709
31
0.000000000000000
  0
LINE
  5
F10324
330
F10325
100
AcDbEntity
8
Geo
100
AcDbLine
10
-51.0387470997679
20
13.4746301199709
30
0.000000000000000
11
-50.9387470997679
21
13.3268660513697
31
0.000000000000000
  0
LINE
  5
F10326
330
F10327
100
AcDbEntity
8
Geo
100
AcDbLine
10
-50.9387470997679
20
13.3268660513697
30
0.000000000000000
11
-50.8387470997679
21
13.1775489244773
31
0.000000000000000
  0
LINE
  5
F10328
330
F10329
100
AcDbEntity
8
Geo
100
AcDbLine
10
-50.8387470997679
20
13.1775489244773
30
0.000000000000000
11
-50.7387470997679
21
13.0268999225437
31
0.000000000000000
  0
LINE
  5
F1032A
330
F1032B
100
AcDbEntity
8
Geo
100
AcDbLine
10
-50.7387470997679
20
13.0268999225437
30
0.000000000000000
11
-50.6387470997679
21
12.8751422017231
31
0.000000000000000
  0
LINE
  5
F1032C
330
F1032D
100
AcDbEntity
8
Geo
100
AcDbLine
10
-50.6387470997679
20
12.8751422017231
30
0.000000000000000
11
-50.5387470997679
21
12.7225005605137
31
0.000000000000000
  0
LINE
  5
F1032E
330
F1032F
100
AcDbEntity
8
Geo
100
AcDbLine
10
-50.5387470997679
20
12.7225005605137
30
0.000000000000000
11
-50.4387470997679
21
12.5692011067636
31
0.000000000000000
  0
LINE
  5
F10330
330
F10331
100
AcDbEntity
8
Geo
100
AcDbLine
10
-50.4387470997679
20
12.5692011067636
30
0.000000000000000
11
-50.3387470997679
21
12.4154709227378
31
0.000000000000000
  0
LINE
  5
F10332
330
F10333
100
AcDbEntity
8
Geo
100
AcDbLine
10
-50.3387470997679
20
12.4154709227378
30
0.000000000000000
11
-50.2387470997679
21
12.2615377287413
31
0.000000000000000
  0
LINE
  5
F10334
330
F10335
100
AcDbEntity
8
Geo
100
AcDbLine
10
-50.2387470997679
20
12.2615377287413
30
0.000000000000000
11
-50.1387470997679
21
12.1076295457976
31
0.000000000000000
  0
LINE
  5
F10336
330
F10337
100
AcDbEntity
8
Geo
100
AcDbLine
10
-50.1387470997679
20
12.1076295457976
30
0.000000000000000
11
-50.0387470997679
21
11.9539743578813
31
0.000000000000000
  0
LINE
  5
F10338
330
F10339
100
AcDbEntity
8
Geo
100
AcDbLine
10
-50.0387470997679
20
11.9539743578813
30
0.000000000000000
11
-49.9387470997679
21
11.8007997742059
31
0.000000000000000
  0
LINE
  5
F1033A
330
F1033B
100
AcDbEntity
8
Geo
100
AcDbLine
10
-49.9387470997679
20
11.8007997742059
30
0.000000000000000
11
-49.8387470997679
21
11.6483326920664
31
0.000000000000000
  0
LINE
  5
F1033C
330
F1033D
100
AcDbEntity
8
Geo
100
AcDbLine
10
-49.8387470997679
20
11.6483326920664
30
0.000000000000000
11
-49.7387470997679
21
11.4497903682194
31
0.000000000000000
  0
LINE
  5
F1033E
330
F1033F
100
AcDbEntity
8
Geo
100
AcDbLine
10
-49.7387470997679
20
11.4497903682194
30
0.000000000000000
11
-49.6387470997679
21
11.1996662727956
31
0.000000000000000
  0
LINE
  5
F10340
330
F10341
100
AcDbEntity
8
Geo
100
AcDbLine
10
-49.6387470997679
20
11.1996662727956
30
0.000000000000000
11
-49.5387470997679
21
10.9016308257331
31
0.000000000000000
  0
LINE
  5
F10342
330
F10343
100
AcDbEntity
8
Geo
100
AcDbLine
10
-49.5387470997679
20
10.9016308257331
30
0.000000000000000
11
-49.4387470997679
21
10.5616044236286
31
0.000000000000000
  0
LINE
  5
F10344
330
F10345
100
AcDbEntity
8
Geo
100
AcDbLine
10
-49.4387470997679
20
10.5616044236286
30
0.000000000000000
11
-49.3387470997679
21
10.1885173488650
31
0.000000000000000
  0
LINE
  5
F10346
330
F10347
100
AcDbEntity
8
Geo
100
AcDbLine
10
-49.3387470997679
20
10.1885173488650
30
0.000000000000000
11
-49.2387470997679
21
9.79508513832942
31
0.000000000000000
  0
LINE
  5
F10348
330
F10349
100
AcDbEntity
8
Geo
100
AcDbLine
10
-49.2387470997679
20
9.79508513832942
30
0.000000000000000
11
-49.1387470997679
21
9.39850184964790
31
0.000000000000000
  0
LINE
  5
F1034A
330
F1034B
100
AcDbEntity
8
Geo
100
AcDbLine
10
-49.1387470997679
20
9.39850184964790
30
0.000000000000000
11
-49.0387470997679
21
9.02091614407675
31
0.000000000000000
  0
LINE
  5
F1034C
330
F1034D
100
AcDbEntity
8
Geo
100
AcDbLine
10
-49.0387470997679
20
9.02091614407675
30
0.000000000000000
11
-48.9387470997679
21
8.68951659064682
31
0.000000000000000
  0
LINE
  5
F1034E
330
F1034F
100
AcDbEntity
8
Geo
100
AcDbLine
10
-48.9387470997679
20
8.68951659064682
30
0.000000000000000
11
-48.8387470997679
21
8.43602052904095
31
0.000000000000000
  0
LINE
  5
F10350
330
F10351
100
AcDbEntity
8
Geo
100
AcDbLine
10
-69.8387470997679
20
12.2784222737819
30
0.000000000000000
11
-69.7387470997679
21
12.1398924199915
31
0.000000000000000
  0
LINE
  5
F10352
330
F10353
100
AcDbEntity
8
Geo
100
AcDbLine
10
-69.7387470997679
20
12.1398924199915
30
0.000000000000000
11
-69.6387470997679
21
11.9938773674032
31
0.000000000000000
  0
LINE
  5
F10354
330
F10355
100
AcDbEntity
8
Geo
100
AcDbLine
10
-69.6387470997679
20
11.9938773674032
30
0.000000000000000
11
-69.5387470997679
21
11.8406104998051
31
0.000000000000000
  0
LINE
  5
F10356
330
F10357
100
AcDbEntity
8
Geo
100
AcDbLine
10
-69.5387470997679
20
11.8406104998051
30
0.000000000000000
11
-69.4387470997679
21
11.6803473095533
31
0.000000000000000
  0
LINE
  5
F10358
330
F10359
100
AcDbEntity
8
Geo
100
AcDbLine
10
-69.4387470997679
20
11.6803473095533
30
0.000000000000000
11
-69.3387470997679
21
11.5133649769560
31
0.000000000000000
  0
LINE
  5
F1035A
330
F1035B
100
AcDbEntity
8
Geo
100
AcDbLine
10
-69.3387470997679
20
11.5133649769560
30
0.000000000000000
11
-69.2387470997679
21
11.3628511781480
31
0.000000000000000
  0
LINE
  5
F1035C
330
F1035D
100
AcDbEntity
8
Geo
100
AcDbLine
10
-69.2387470997679
20
11.3628511781480
30
0.000000000000000
11
-69.1387470997679
21
11.2136936135145
31
0.000000000000000
  0
LINE
  5
F1035E
330
F1035F
100
AcDbEntity
8
Geo
100
AcDbLine
10
-69.1387470997679
20
11.2136936135145
30
0.000000000000000
11
-69.0387470997679
21
11.0661132299458
31
0.000000000000000
  0
LINE
  5
F10360
330
F10361
100
AcDbEntity
8
Geo
100
AcDbLine
10
-69.0387470997679
20
11.0661132299458
30
0.000000000000000
11
-68.9387470997679
21
10.9203286380562
31
0.000000000000000
  0
LINE
  5
F10362
330
F10363
100
AcDbEntity
8
Geo
100
AcDbLine
10
-68.9387470997679
20
10.9203286380562
30
0.000000000000000
11
-68.8387470997679
21
10.7765557883566
31
0.000000000000000
  0
LINE
  5
F10364
330
F10365
100
AcDbEntity
8
Geo
100
AcDbLine
10
-68.8387470997679
20
10.7765557883566
30
0.000000000000000
11
-68.7387470997679
21
10.6350076513664
31
0.000000000000000
  0
LINE
  5
F10366
330
F10367
100
AcDbEntity
8
Geo
100
AcDbLine
10
-68.7387470997679
20
10.6350076513664
30
0.000000000000000
11
-68.6387470997679
21
10.4958939021419
31
0.000000000000000
  0
LINE
  5
F10368
330
F10369
100
AcDbEntity
8
Geo
100
AcDbLine
10
-68.6387470997679
20
10.4958939021419
30
0.000000000000000
11
-68.5387470997679
21
10.3594206096836
31
0.000000000000000
  0
LINE
  5
F1036A
330
F1036B
100
AcDbEntity
8
Geo
100
AcDbLine
10
-68.5387470997679
20
10.3594206096836
30
0.000000000000000
11
-68.4387470997679
21
10.2257899316876
31
0.000000000000000
  0
LINE
  5
F1036C
330
F1036D
100
AcDbEntity
8
Geo
100
AcDbLine
10
-68.4387470997679
20
10.2257899316876
30
0.000000000000000
11
-68.3387470997679
21
10.0951998150889
31
0.000000000000000
  0
LINE
  5
F1036E
330
F1036F
100
AcDbEntity
8
Geo
100
AcDbLine
10
-68.3387470997679
20
10.0951998150889
30
0.000000000000000
11
-68.2387470997679
21
9.96784370284342
31
0.000000000000000
  0
LINE
  5
F10370
330
F10371
100
AcDbEntity
8
Geo
100
AcDbLine
10
-68.2387470997679
20
9.96784370284342
30
0.000000000000000
11
-68.1387470997679
21
9.84391024738073
31
0.000000000000000
  0
LINE
  5
F10372
330
F10373
100
AcDbEntity
8
Geo
100
AcDbLine
10
-68.1387470997679
20
9.84391024738073
30
0.000000000000000
11
-68.0387470997679
21
9.72358303115389
31
0.000000000000000
  0
LINE
  5
F10374
330
F10375
100
AcDbEntity
8
Geo
100
AcDbLine
10
-68.0387470997679
20
9.72358303115389
30
0.000000000000000
11
-67.9387470997679
21
9.60704029469883
31
0.000000000000000
  0
LINE
  5
F10376
330
F10377
100
AcDbEntity
8
Geo
100
AcDbLine
10
-67.9387470997679
20
9.60704029469883
30
0.000000000000000
11
-67.8387470997679
21
9.49445467260692
31
0.000000000000000
  0
LINE
  5
F10378
330
F10379
100
AcDbEntity
8
Geo
100
AcDbLine
10
-67.8387470997679
20
9.49445467260692
30
0.000000000000000
11
-67.7387470997679
21
9.38599293780160
31
0.000000000000000
  0
LINE
  5
F1037A
330
F1037B
100
AcDbEntity
8
Geo
100
AcDbLine
10
-67.7387470997679
20
9.38599293780160
30
0.000000000000000
11
-67.6387470997679
21
9.28181575449786
31
0.000000000000000
  0
LINE
  5
F1037C
330
F1037D
100
AcDbEntity
8
Geo
100
AcDbLine
10
-67.6387470997679
20
9.28181575449786
30
0.000000000000000
11
-67.5387470997679
21
9.18207744021062
31
0.000000000000000
  0
LINE
  5
F1037E
330
F1037F
100
AcDbEntity
8
Geo
100
AcDbLine
10
-67.5387470997679
20
9.18207744021062
30
0.000000000000000
11
-67.4387470997679
21
9.08692573716434
31
0.000000000000000
  0
LINE
  5
F10380
330
F10381
100
AcDbEntity
8
Geo
100
AcDbLine
10
-67.4387470997679
20
9.08692573716434
30
0.000000000000000
11
-67.3387470997679
21
8.99650159344273
31
0.000000000000000
  0
LINE
  5
F10382
330
F10383
100
AcDbEntity
8
Geo
100
AcDbLine
10
-67.3387470997679
20
8.99650159344273
30
0.000000000000000
11
-67.2387470997679
21
8.91093895420255
31
0.000000000000000
  0
LINE
  5
F10384
330
F10385
100
AcDbEntity
8
Geo
100
AcDbLine
10
-67.2387470997679
20
8.91093895420255
30
0.000000000000000
11
-67.1387470997679
21
8.83036456326077
31
0.000000000000000
  0
LINE
  5
F10386
330
F10387
100
AcDbEntity
8
Geo
100
AcDbLine
10
-67.1387470997679
20
8.83036456326077
30
0.000000000000000
11
-67.0387470997679
21
8.75489777534922
31
0.000000000000000
  0
LINE
  5
F10388
330
F10389
100
AcDbEntity
8
Geo
100
AcDbLine
10
-67.0387470997679
20
8.75489777534922
30
0.000000000000000
11
-66.9387470997679
21
8.68465037931455
31
0.000000000000000
  0
LINE
  5
F1038A
330
F1038B
100
AcDbEntity
8
Geo
100
AcDbLine
10
-66.9387470997679
20
8.68465037931455
30
0.000000000000000
11
-66.8387470997679
21
8.61972643252555
31
0.000000000000000
  0
LINE
  5
F1038C
330
F1038D
100
AcDbEntity
8
Geo
100
AcDbLine
10
-66.8387470997679
20
8.61972643252555
30
0.000000000000000
11
-66.7387470997679
21
8.56022210673318
31
0.000000000000000
  0
LINE
  5
F1038E
330
F1038F
100
AcDbEntity
8
Geo
100
AcDbLine
10
-66.7387470997679
20
8.56022210673318
30
0.000000000000000
11
-66.6387470997679
21
8.50622554561141
31
0.000000000000000
  0
LINE
  5
F10390
330
F10391
100
AcDbEntity
8
Geo
100
AcDbLine
10
-66.6387470997679
20
8.50622554561141
30
0.000000000000000
11
-66.5387470997679
21
8.45781673419018
31
0.000000000000000
  0
LINE
  5
F10392
330
F10393
100
AcDbEntity
8
Geo
100
AcDbLine
10
-66.5387470997679
20
8.45781673419018
30
0.000000000000000
11
-66.4387470997679
21
8.41506738037368
31
0.000000000000000
  0
LINE
  5
F10394
330
F10395
100
AcDbEntity
8
Geo
100
AcDbLine
10
-66.4387470997679
20
8.41506738037368
30
0.000000000000000
11
-66.3387470997679
21
8.37804080871950
31
0.000000000000000
  0
LINE
  5
F10396
330
F10397
100
AcDbEntity
8
Geo
100
AcDbLine
10
-66.3387470997679
20
8.37804080871950
30
0.000000000000000
11
-66.2387470997679
21
8.34679186663608
31
0.000000000000000
  0
LINE
  5
F10398
330
F10399
100
AcDbEntity
8
Geo
100
AcDbLine
10
-66.2387470997679
20
8.34679186663608
30
0.000000000000000
11
-66.1387470997679
21
8.32136684313732
31
0.000000000000000
  0
LINE
  5
F1039A
330
F1039B
100
AcDbEntity
8
Geo
100
AcDbLine
10
-66.1387470997679
20
8.32136684313732
30
0.000000000000000
11
-66.0387470997679
21
8.30180340027472
31
0.000000000000000
  0
LINE
  5
F1039C
330
F1039D
100
AcDbEntity
8
Geo
100
AcDbLine
10
-66.0387470997679
20
8.30180340027472
30
0.000000000000000
11
-65.9387470997679
21
8.28813051734864
31
0.000000000000000
  0
LINE
  5
F1039E
330
F1039F
100
AcDbEntity
8
Geo
100
AcDbLine
10
-65.9387470997679
20
8.28813051734864
30
0.000000000000000
11
-65.8387470997679
21
8.28036844798129
31
0.000000000000000
  0
LINE
  5
F103A0
330
F103A1
100
AcDbEntity
8
Geo
100
AcDbLine
10
-57.6387470997679
20
16.2778707154451
30
0.000000000000000
11
-57.5387470997679
21
16.2774645607564
31
0.000000000000000
  0
LINE
  5
F103A2
330
F103A3
100
AcDbEntity
8
Geo
100
AcDbLine
10
-57.5387470997679
20
16.2774645607564
30
0.000000000000000
11
-57.4387470997679
21
16.2711346303604
31
0.000000000000000
  0
LINE
  5
F103A4
330
F103A5
100
AcDbEntity
8
Geo
100
AcDbLine
10
-57.4387470997679
20
16.2711346303604
30
0.000000000000000
11
-57.3387470997679
21
16.2588903007740
31
0.000000000000000
  0
LINE
  5
F103A6
330
F103A7
100
AcDbEntity
8
Geo
100
AcDbLine
10
-57.3387470997679
20
16.2588903007740
30
0.000000000000000
11
-57.2387470997679
21
16.2407497095056
31
0.000000000000000
  0
LINE
  5
F103A8
330
F103A9
100
AcDbEntity
8
Geo
100
AcDbLine
10
-57.2387470997679
20
16.2407497095056
30
0.000000000000000
11
-57.1387470997679
21
16.2167397281872
31
0.000000000000000
  0
LINE
  5
F103AA
330
F103AB
100
AcDbEntity
8
Geo
100
AcDbLine
10
-57.1387470997679
20
16.2167397281872
30
0.000000000000000
11
-57.0387470997679
21
16.1868959227706
31
0.000000000000000
  0
LINE
  5
F103AC
330
F103AD
100
AcDbEntity
8
Geo
100
AcDbLine
10
-57.0387470997679
20
16.1868959227706
30
0.000000000000000
11
-56.9387470997679
21
16.1512625008425
31
0.000000000000000
  0
LINE
  5
F103AE
330
F103AF
100
AcDbEntity
8
Geo
100
AcDbLine
10
-56.9387470997679
20
16.1512625008425
30
0.000000000000000
11
-56.8387470997679
21
16.1098922461407
31
0.000000000000000
  0
LINE
  5
F103B0
330
F103B1
100
AcDbEntity
8
Geo
100
AcDbLine
10
-56.8387470997679
20
16.1098922461407
30
0.000000000000000
11
-56.7387470997679
21
16.0628464403652
31
0.000000000000000
  0
LINE
  5
F103B2
330
F103B3
100
AcDbEntity
8
Geo
100
AcDbLine
10
-56.7387470997679
20
16.0628464403652
30
0.000000000000000
11
-56.6387470997679
21
16.0101947724019
31
0.000000000000000
  0
LINE
  5
F103B4
330
F103B5
100
AcDbEntity
8
Geo
100
AcDbLine
10
-56.6387470997679
20
16.0101947724019
30
0.000000000000000
11
-56.5387470997679
21
15.9520152350923
31
0.000000000000000
  0
LINE
  5
F103B6
330
F103B7
100
AcDbEntity
8
Geo
100
AcDbLine
10
-56.5387470997679
20
15.9520152350923
30
0.000000000000000
11
-56.4387470997679
21
15.8883940097032
31
0.000000000000000
  0
LINE
  5
F103B8
330
F103B9
100
AcDbEntity
8
Geo
100
AcDbLine
10
-56.4387470997679
20
15.8883940097032
30
0.000000000000000
11
-56.3387470997679
21
15.8194253382660
31
0.000000000000000
  0
LINE
  5
F103BA
330
F103BB
100
AcDbEntity
8
Geo
100
AcDbLine
10
-56.3387470997679
20
15.8194253382660
30
0.000000000000000
11
-56.2387470997679
21
15.7452113839767
31
0.000000000000000
  0
LINE
  5
F103BC
330
F103BD
100
AcDbEntity
8
Geo
100
AcDbLine
10
-56.2387470997679
20
15.7452113839767
30
0.000000000000000
11
-56.1387470997679
21
15.6658620798613
31
0.000000000000000
  0
LINE
  5
F103BE
330
F103BF
100
AcDbEntity
8
Geo
100
AcDbLine
10
-56.1387470997679
20
15.6658620798613
30
0.000000000000000
11
-56.0387470997679
21
15.5814949659320
31
0.000000000000000
  0
LINE
  5
F103C0
330
F103C1
100
AcDbEntity
8
Geo
100
AcDbLine
10
-56.0387470997679
20
15.5814949659320
30
0.000000000000000
11
-55.9387470997679
21
15.4922350150761
31
0.000000000000000
  0
LINE
  5
F103C2
330
F103C3
100
AcDbEntity
8
Geo
100
AcDbLine
10
-55.9387470997679
20
15.4922350150761
30
0.000000000000000
11
-55.8387470997679
21
15.3982144479329
31
0.000000000000000
  0
LINE
  5
F103C4
330
F103C5
100
AcDbEntity
8
Geo
100
AcDbLine
10
-55.8387470997679
20
15.3982144479329
30
0.000000000000000
11
-55.7387470997679
21
15.2995725370362
31
0.000000000000000
  0
LINE
  5
F103C6
330
F103C7
100
AcDbEntity
8
Geo
100
AcDbLine
10
-55.7387470997679
20
15.2995725370362
30
0.000000000000000
11
-55.6387470997679
21
15.1964554005096
31
0.000000000000000
  0
LINE
  5
F103C8
330
F103C9
100
AcDbEntity
8
Geo
100
AcDbLine
10
-55.6387470997679
20
15.1964554005096
30
0.000000000000000
11
-55.5387470997679
21
15.0890157856222
31
0.000000000000000
  0
LINE
  5
F103CA
330
F103CB
100
AcDbEntity
8
Geo
100
AcDbLine
10
-55.5387470997679
20
15.0890157856222
30
0.000000000000000
11
-55.4387470997679
21
14.9774128425243
31
0.000000000000000
  0
LINE
  5
F103CC
330
F103CD
100
AcDbEntity
8
Geo
100
AcDbLine
10
-55.4387470997679
20
14.9774128425243
30
0.000000000000000
11
-55.3387470997679
21
14.8618118884983
31
0.000000000000000
  0
LINE
  5
F103CE
330
F103CF
100
AcDbEntity
8
Geo
100
AcDbLine
10
-55.3387470997679
20
14.8618118884983
30
0.000000000000000
11
-55.2387470997679
21
14.7423841630745
31
0.000000000000000
  0
LINE
  5
F103D0
330
F103D1
100
AcDbEntity
8
Geo
100
AcDbLine
10
-55.2387470997679
20
14.7423841630745
30
0.000000000000000
11
-55.1387470997679
21
14.6193065743744
31
0.000000000000000
  0
LINE
  5
F103D2
330
F103D3
100
AcDbEntity
8
Geo
100
AcDbLine
10
-55.1387470997679
20
14.6193065743744
30
0.000000000000000
11
-55.0387470997679
21
14.4927614370569
31
0.000000000000000
  0
LINE
  5
F103D4
330
F103D5
100
AcDbEntity
8
Geo
100
AcDbLine
10
-55.0387470997679
20
14.4927614370569
30
0.000000000000000
11
-54.9387470997679
21
14.3629362022556
31
0.000000000000000
  0
LINE
  5
F103D6
330
F103D7
100
AcDbEntity
8
Geo
100
AcDbLine
10
-54.9387470997679
20
14.3629362022556
30
0.000000000000000
11
-54.8387470997679
21
14.2300231799079
31
0.000000000000000
  0
LINE
  5
F103D8
330
F103D9
100
AcDbEntity
8
Geo
100
AcDbLine
10
-54.8387470997679
20
14.2300231799079
30
0.000000000000000
11
-54.7387470997679
21
14.0942192538866
31
0.000000000000000
  0
LINE
  5
F103DA
330
F103DB
100
AcDbEntity
8
Geo
100
AcDbLine
10
-54.7387470997679
20
14.0942192538866
30
0.000000000000000
11
-54.6387470997679
21
13.9557255903562
31
0.000000000000000
  0
LINE
  5
F103DC
330
F103DD
100
AcDbEntity
8
Geo
100
AcDbLine
10
-54.6387470997679
20
13.9557255903562
30
0.000000000000000
11
-54.5387470997679
21
13.8147473397853
31
0.000000000000000
  0
LINE
  5
F103DE
330
F103DF
100
AcDbEntity
8
Geo
100
AcDbLine
10
-54.5387470997679
20
13.8147473397853
30
0.000000000000000
11
-54.4387470997679
21
13.6714933330580
31
0.000000000000000
  0
LINE
  5
F103E0
330
F103E1
100
AcDbEntity
8
Geo
100
AcDbLine
10
-54.4387470997679
20
13.6714933330580
30
0.000000000000000
11
-54.3387470997679
21
13.5261757721326
31
0.000000000000000
  0
LINE
  5
F103E2
330
F103E3
100
AcDbEntity
8
Geo
100
AcDbLine
10
-54.3387470997679
20
13.5261757721326
30
0.000000000000000
11
-54.2387470997679
21
13.3790099157074
31
0.000000000000000
  0
LINE
  5
F103E4
330
F103E5
100
AcDbEntity
8
Geo
100
AcDbLine
10
-54.2387470997679
20
13.3790099157074
30
0.000000000000000
11
-54.1387470997679
21
13.2302137603584
31
0.000000000000000
  0
LINE
  5
F103E6
330
F103E7
100
AcDbEntity
8
Geo
100
AcDbLine
10
-54.1387470997679
20
13.2302137603584
30
0.000000000000000
11
-54.0387470997679
21
13.0800077176209
31
0.000000000000000
  0
LINE
  5
F103E8
330
F103E9
100
AcDbEntity
8
Geo
100
AcDbLine
10
-54.0387470997679
20
13.0800077176209
30
0.000000000000000
11
-53.9387470997679
21
12.9286142874943
31
0.000000000000000
  0
LINE
  5
F103EA
330
F103EB
100
AcDbEntity
8
Geo
100
AcDbLine
10
-53.9387470997679
20
12.9286142874943
30
0.000000000000000
11
-53.8387470997679
21
12.7762577288537
31
0.000000000000000
  0
LINE
  5
F103EC
330
F103ED
100
AcDbEntity
8
Geo
100
AcDbLine
10
-53.8387470997679
20
12.7762577288537
30
0.000000000000000
11
-53.7387470997679
21
12.6231637272546
31
0.000000000000000
  0
LINE
  5
F103EE
330
F103EF
100
AcDbEntity
8
Geo
100
AcDbLine
10
-53.7387470997679
20
12.6231637272546
30
0.000000000000000
11
-53.6387470997679
21
12.4695590606260
31
0.000000000000000
  0
LINE
  5
F103F0
330
F103F1
100
AcDbEntity
8
Geo
100
AcDbLine
10
-53.6387470997679
20
12.4695590606260
30
0.000000000000000
11
-53.5387470997679
21
12.3156712633442
31
0.000000000000000
  0
LINE
  5
F103F2
330
F103F3
100
AcDbEntity
8
Geo
100
AcDbLine
10
-53.5387470997679
20
12.3156712633442
30
0.000000000000000
11
-53.4387470997679
21
12.1617282891867
31
0.000000000000000
  0
LINE
  5
F103F4
330
F103F5
100
AcDbEntity
8
Geo
100
AcDbLine
10
-53.4387470997679
20
12.1617282891867
30
0.000000000000000
11
-53.3387470997679
21
12.0079581736642
31
0.000000000000000
  0
LINE
  5
F103F6
330
F103F7
100
AcDbEntity
8
Geo
100
AcDbLine
10
-53.3387470997679
20
12.0079581736642
30
0.000000000000000
11
-53.2387470997679
21
11.8545886962323
31
0.000000000000000
  0
LINE
  5
F103F8
330
F103F9
100
AcDbEntity
8
Geo
100
AcDbLine
10
-53.2387470997679
20
11.8545886962323
30
0.000000000000000
11
-53.1387470997679
21
11.7018470428818
31
0.000000000000000
  0
LINE
  5
F103FA
330
F103FB
100
AcDbEntity
8
Geo
100
AcDbLine
10
-53.1387470997679
20
11.7018470428818
30
0.000000000000000
11
-53.0387470997679
21
11.5499594696089
31
0.000000000000000
  0
LINE
  5
F103FC
330
F103FD
100
AcDbEntity
8
Geo
100
AcDbLine
10
-53.0387470997679
20
11.5499594696089
30
0.000000000000000
11
-52.9387470997679
21
11.3991509672617
31
0.000000000000000
  0
LINE
  5
F103FE
330
F103FF
100
AcDbEntity
8
Geo
100
AcDbLine
10
-52.9387470997679
20
11.3991509672617
30
0.000000000000000
11
-52.8387470997679
21
11.2496449282625
31
0.000000000000000
  0
LINE
  5
F10400
330
F10401
100
AcDbEntity
8
Geo
100
AcDbLine
10
-52.8387470997679
20
11.2496449282625
30
0.000000000000000
11
-52.7387470997679
21
11.1016628156963
31
0.000000000000000
  0
LINE
  5
F10402
330
F10403
100
AcDbEntity
8
Geo
100
AcDbLine
10
-52.7387470997679
20
11.1016628156963
30
0.000000000000000
11
-52.6387470997679
21
10.9554238352579
31
0.000000000000000
  0
LINE
  5
F10404
330
F10405
100
AcDbEntity
8
Geo
100
AcDbLine
10
-52.6387470997679
20
10.9554238352579
30
0.000000000000000
11
-52.5387470997679
21
10.8111446105432
31
0.000000000000000
  0
LINE
  5
F10406
330
F10407
100
AcDbEntity
8
Geo
100
AcDbLine
10
-52.5387470997679
20
10.8111446105432
30
0.000000000000000
11
-52.4387470997679
21
10.6690388621644
31
0.000000000000000
  0
LINE
  5
F10408
330
F10409
100
AcDbEntity
8
Geo
100
AcDbLine
10
-52.4387470997679
20
10.6690388621644
30
0.000000000000000
11
-52.3387470997679
21
10.5293170911666
31
0.000000000000000
  0
LINE
  5
F1040A
330
F1040B
100
AcDbEntity
8
Geo
100
AcDbLine
10
-52.3387470997679
20
10.5293170911666
30
0.000000000000000
11
-52.2387470997679
21
10.3921862672123
31
0.000000000000000
  0
LINE
  5
F1040C
330
F1040D
100
AcDbEntity
8
Geo
100
AcDbLine
10
-52.2387470997679
20
10.3921862672123
30
0.000000000000000
11
-52.1387470997679
21
10.2578495219978
31
0.000000000000000
  0
LINE
  5
F1040E
330
F1040F
100
AcDbEntity
8
Geo
100
AcDbLine
10
-52.1387470997679
20
10.2578495219978
30
0.000000000000000
11
-52.0387470997679
21
10.1265058483548
31
0.000000000000000
  0
LINE
  5
F10410
330
F10411
100
AcDbEntity
8
Geo
100
AcDbLine
10
-52.0387470997679
20
10.1265058483548
30
0.000000000000000
11
-51.9387470997679
21
9.99834980548187
31
0.000000000000000
  0
LINE
  5
F10412
330
F10413
100
AcDbEntity
8
Geo
100
AcDbLine
10
-51.9387470997679
20
9.99834980548187
30
0.000000000000000
11
-51.8387470997679
21
9.87357123074492
31
0.000000000000000
  0
LINE
  5
F10414
330
F10415
100
AcDbEntity
8
Geo
100
AcDbLine
10
-51.8387470997679
20
9.87357123074492
30
0.000000000000000
11
-51.7387470997679
21
9.75235495847094
31
0.000000000000000
  0
LINE
  5
F10416
330
F10417
100
AcDbEntity
8
Geo
100
AcDbLine
10
-51.7387470997679
20
9.75235495847094
30
0.000000000000000
11
-51.6387470997679
21
9.63488054615333
31
0.000000000000000
  0
LINE
  5
F10418
330
F10419
100
AcDbEntity
8
Geo
100
AcDbLine
10
-51.6387470997679
20
9.63488054615333
30
0.000000000000000
11
-51.5387470997679
21
9.52132200847360
31
0.000000000000000
  0
LINE
  5
F1041A
330
F1041B
100
AcDbEntity
8
Geo
100
AcDbLine
10
-51.5387470997679
20
9.52132200847360
30
0.000000000000000
11
-51.4387470997679
21
9.41184755953368
31
0.000000000000000
  0
LINE
  5
F1041C
330
F1041D
100
AcDbEntity
8
Geo
100
AcDbLine
10
-51.4387470997679
20
9.41184755953368
30
0.000000000000000
11
-51.3387470997679
21
9.30661936368058
31
0.000000000000000
  0
LINE
  5
F1041E
330
F1041F
100
AcDbEntity
8
Geo
100
AcDbLine
10
-51.3387470997679
20
9.30661936368058
30
0.000000000000000
11
-51.2387470997679
21
9.20579329529263
31
0.000000000000000
  0
LINE
  5
F10420
330
F10421
100
AcDbEntity
8
Geo
100
AcDbLine
10
-51.2387470997679
20
9.20579329529263
30
0.000000000000000
11
-51.1387470997679
21
9.10951870788292
31
0.000000000000000
  0
LINE
  5
F10422
330
F10423
100
AcDbEntity
8
Geo
100
AcDbLine
10
-51.1387470997679
20
9.10951870788292
30
0.000000000000000
11
-51.0387470997679
21
9.01793821286218
31
0.000000000000000
  0
LINE
  5
F10424
330
F10425
100
AcDbEntity
8
Geo
100
AcDbLine
10
-51.0387470997679
20
9.01793821286218
30
0.000000000000000
11
-50.9387470997679
21
8.93118746828869
31
0.000000000000000
  0
LINE
  5
F10426
330
F10427
100
AcDbEntity
8
Geo
100
AcDbLine
10
-50.9387470997679
20
8.93118746828869
30
0.000000000000000
11
-50.8387470997679
21
8.84939497791822
31
0.000000000000000
  0
LINE
  5
F10428
330
F10429
100
AcDbEntity
8
Geo
100
AcDbLine
10
-50.8387470997679
20
8.84939497791822
30
0.000000000000000
11
-50.7387470997679
21
8.77268190085156
31
0.000000000000000
  0
LINE
  5
F1042A
330
F1042B
100
AcDbEntity
8
Geo
100
AcDbLine
10
-50.7387470997679
20
8.77268190085156
30
0.000000000000000
11
-50.6387470997679
21
8.70116187206171
31
0.000000000000000
  0
LINE
  5
F1042C
330
F1042D
100
AcDbEntity
8
Geo
100
AcDbLine
10
-50.6387470997679
20
8.70116187206171
30
0.000000000000000
11
-50.5387470997679
21
8.63494083406659
31
0.000000000000000
  0
LINE
  5
F1042E
330
F1042F
100
AcDbEntity
8
Geo
100
AcDbLine
10
-50.5387470997679
20
8.63494083406659
30
0.000000000000000
11
-50.4387470997679
21
8.57411687999651
31
0.000000000000000
  0
LINE
  5
F10430
330
F10431
100
AcDbEntity
8
Geo
100
AcDbLine
10
-50.4387470997679
20
8.57411687999651
30
0.000000000000000
11
-50.3387470997679
21
8.51878010828897
31
0.000000000000000
  0
LINE
  5
F10432
330
F10433
100
AcDbEntity
8
Geo
100
AcDbLine
10
-50.3387470997679
20
8.51878010828897
30
0.000000000000000
11
-50.2387470997679
21
8.46901248922596
31
0.000000000000000
  0
LINE
  5
F10434
330
F10435
100
AcDbEntity
8
Geo
100
AcDbLine
10
-50.2387470997679
20
8.46901248922596
30
0.000000000000000
11
-50.1387470997679
21
8.42488774351152
31
0.000000000000000
  0
LINE
  5
F10436
330
F10437
100
AcDbEntity
8
Geo
100
AcDbLine
10
-50.1387470997679
20
8.42488774351152
30
0.000000000000000
11
-50.0387470997679
21
8.38647123306930
31
0.000000000000000
  0
LINE
  5
F10438
330
F10439
100
AcDbEntity
8
Geo
100
AcDbLine
10
-50.0387470997679
20
8.38647123306930
30
0.000000000000000
11
-49.9387470997679
21
8.35381986422214
31
0.000000000000000
  0
LINE
  5
F1043A
330
F1043B
100
AcDbEntity
8
Geo
100
AcDbLine
10
-49.9387470997679
20
8.35381986422214
30
0.000000000000000
11
-49.8387470997679
21
8.32698200339671
31
0.000000000000000
  0
LINE
  5
F1043C
330
F1043D
100
AcDbEntity
8
Geo
100
AcDbLine
10
-49.8387470997679
20
8.32698200339671
30
0.000000000000000
11
-49.7387470997679
21
8.33052997966468
31
0.000000000000000
  0
LINE
  5
F1043E
330
F1043F
100
AcDbEntity
8
Geo
100
AcDbLine
10
-49.7387470997679
20
8.33052997966468
30
0.000000000000000
11
-49.6387470997679
21
8.33523598800454
31
0.000000000000000
  0
LINE
  5
F10440
330
F10441
100
AcDbEntity
8
Geo
100
AcDbLine
10
-49.6387470997679
20
8.33523598800454
30
0.000000000000000
11
-49.5387470997679
21
8.34123070615765
31
0.000000000000000
  0
LINE
  5
F10442
330
F10443
100
AcDbEntity
8
Geo
100
AcDbLine
10
-49.5387470997679
20
8.34123070615765
30
0.000000000000000
11
-49.4387470997679
21
8.34867266480332
31
0.000000000000000
  0
LINE
  5
F10444
330
F10445
100
AcDbEntity
8
Geo
100
AcDbLine
10
-49.4387470997679
20
8.34867266480332
30
0.000000000000000
11
-49.3387470997679
21
8.35774799005329
31
0.000000000000000
  0
LINE
  5
F10446
330
F10447
100
AcDbEntity
8
Geo
100
AcDbLine
10
-49.3387470997679
20
8.35774799005329
30
0.000000000000000
11
-49.2387470997679
21
8.36867006838241
31
0.000000000000000
  0
LINE
  5
F10448
330
F10449
100
AcDbEntity
8
Geo
100
AcDbLine
10
-49.2387470997679
20
8.36867006838241
30
0.000000000000000
11
-49.1387470997679
21
8.38167911858634
31
0.000000000000000
  0
LINE
  5
F1044A
330
F1044B
100
AcDbEntity
8
Geo
100
AcDbLine
10
-49.1387470997679
20
8.38167911858634
30
0.000000000000000
11
-49.0387470997679
21
8.39704165317610
31
0.000000000000000
  0
LINE
  5
F1044C
330
F1044D
100
AcDbEntity
8
Geo
100
AcDbLine
10
-49.0387470997679
20
8.39704165317610
30
0.000000000000000
11
-48.9387470997679
21
8.41504980951931
31
0.000000000000000
  0
LINE
  5
F1044E
330
F1044F
100
AcDbEntity
8
Geo
100
AcDbLine
10
-48.9387470997679
20
8.41504980951931
30
0.000000000000000
11
-48.8387470997679
21
8.43602052904095
31
0.000000000000000
  0
LINE
  5
F10450
330
F10451
100
AcDbEntity
8
Geo
100
AcDbLine
10
-69.8387470997679
20
11.1968627934696
30
0.000000000000000
11
-69.7387470997679
21
11.0350353174727
31
0.000000000000000
  0
LINE
  5
F10452
330
F10453
100
AcDbEntity
8
Geo
100
AcDbLine
10
-69.7387470997679
20
11.0350353174727
30
0.000000000000000
11
-69.6387470997679
21
10.8678271764403
31
0.000000000000000
  0
LINE
  5
F10454
330
F10455
100
AcDbEntity
8
Geo
100
AcDbLine
10
-69.6387470997679
20
10.8678271764403
30
0.000000000000000
11
-69.5387470997679
21
10.6955936907388
31
0.000000000000000
  0
LINE
  5
F10456
330
F10457
100
AcDbEntity
8
Geo
100
AcDbLine
10
-69.5387470997679
20
10.6955936907388
30
0.000000000000000
11
-69.4387470997679
21
10.5187081639982
31
0.000000000000000
  0
LINE
  5
F10458
330
F10459
100
AcDbEntity
8
Geo
100
AcDbLine
10
-69.4387470997679
20
10.5187081639982
30
0.000000000000000
11
-69.3387470997679
21
10.3375611550869
31
0.000000000000000
  0
LINE
  5
F1045A
330
F1045B
100
AcDbEntity
8
Geo
100
AcDbLine
10
-69.3387470997679
20
10.3375611550869
30
0.000000000000000
11
-69.2387470997679
21
10.2044100156270
31
0.000000000000000
  0
LINE
  5
F1045C
330
F1045D
100
AcDbEntity
8
Geo
100
AcDbLine
10
-69.2387470997679
20
10.2044100156270
30
0.000000000000000
11
-69.1387470997679
21
10.0743311076040
31
0.000000000000000
  0
LINE
  5
F1045E
330
F1045F
100
AcDbEntity
8
Geo
100
AcDbLine
10
-69.1387470997679
20
10.0743311076040
30
0.000000000000000
11
-69.0387470997679
21
9.94751711672110
31
0.000000000000000
  0
LINE
  5
F10460
330
F10461
100
AcDbEntity
8
Geo
100
AcDbLine
10
-69.0387470997679
20
9.94751711672110
30
0.000000000000000
11
-68.9387470997679
21
9.82415589236446
31
0.000000000000000
  0
LINE
  5
F10462
330
F10463
100
AcDbEntity
8
Geo
100
AcDbLine
10
-68.9387470997679
20
9.82415589236446
30
0.000000000000000
11
-68.8387470997679
21
9.70443016934193
31
0.000000000000000
  0
LINE
  5
F10464
330
F10465
100
AcDbEntity
8
Geo
100
AcDbLine
10
-68.8387470997679
20
9.70443016934193
30
0.000000000000000
11
-68.7387470997679
21
9.58851729719841
31
0.000000000000000
  0
LINE
  5
F10466
330
F10467
100
AcDbEntity
8
Geo
100
AcDbLine
10
-68.7387470997679
20
9.58851729719841
30
0.000000000000000
11
-68.6387470997679
21
9.47658897750815
31
0.000000000000000
  0
LINE
  5
F10468
330
F10469
100
AcDbEntity
8
Geo
100
AcDbLine
10
-68.6387470997679
20
9.47658897750815
30
0.000000000000000
11
-68.5387470997679
21
9.36881100953346
31
0.000000000000000
  0
LINE
  5
F1046A
330
F1046B
100
AcDbEntity
8
Geo
100
AcDbLine
10
-68.5387470997679
20
9.36881100953346
30
0.000000000000000
11
-68.4387470997679
21
9.26534304462650
31
0.000000000000000
  0
LINE
  5
F1046C
330
F1046D
100
AcDbEntity
8
Geo
100
AcDbLine
10
-68.4387470997679
20
9.26534304462650
30
0.000000000000000
11
-68.3387470997679
21
9.16633834973796
31
0.000000000000000
  0
LINE
  5
F1046E
330
F1046F
100
AcDbEntity
8
Geo
100
AcDbLine
10
-68.3387470997679
20
9.16633834973796
30
0.000000000000000
11
-68.2387470997679
21
9.07194358038294
31
0.000000000000000
  0
LINE
  5
F10470
330
F10471
100
AcDbEntity
8
Geo
100
AcDbLine
10
-68.2387470997679
20
9.07194358038294
30
0.000000000000000
11
-68.1387470997679
21
8.98229856340033
31
0.000000000000000
  0
LINE
  5
F10472
330
F10473
100
AcDbEntity
8
Geo
100
AcDbLine
10
-68.1387470997679
20
8.98229856340033
30
0.000000000000000
11
-68.0387470997679
21
8.89753608982754
31
0.000000000000000
  0
LINE
  5
F10474
330
F10475
100
AcDbEntity
8
Geo
100
AcDbLine
10
-68.0387470997679
20
8.89753608982754
30
0.000000000000000
11
-67.9387470997679
21
8.81778171819728
31
0.000000000000000
  0
LINE
  5
F10476
330
F10477
100
AcDbEntity
8
Geo
100
AcDbLine
10
-67.9387470997679
20
8.81778171819728
30
0.000000000000000
11
-67.8387470997679
21
8.74315358854792
31
0.000000000000000
  0
LINE
  5
F10478
330
F10479
100
AcDbEntity
8
Geo
100
AcDbLine
10
-67.8387470997679
20
8.74315358854792
30
0.000000000000000
11
-67.7387470997679
21
8.67376224742280
31
0.000000000000000
  0
LINE
  5
F1047A
330
F1047B
100
AcDbEntity
8
Geo
100
AcDbLine
10
-67.7387470997679
20
8.67376224742280
30
0.000000000000000
11
-67.6387470997679
21
8.60971048411779
31
0.000000000000000
  0
LINE
  5
F1047C
330
F1047D
100
AcDbEntity
8
Geo
100
AcDbLine
10
-67.6387470997679
20
8.60971048411779
30
0.000000000000000
11
-67.5387470997679
21
8.55109317841968
31
0.000000000000000
  0
LINE
  5
F1047E
330
F1047F
100
AcDbEntity
8
Geo
100
AcDbLine
10
-67.5387470997679
20
8.55109317841968
30
0.000000000000000
11
-67.4387470997679
21
8.49799716006082
31
0.000000000000000
  0
LINE
  5
F10480
330
F10481
100
AcDbEntity
8
Geo
100
AcDbLine
10
-67.4387470997679
20
8.49799716006082
30
0.000000000000000
11
-67.3387470997679
21
8.45050108009844
31
0.000000000000000
  0
LINE
  5
F10482
330
F10483
100
AcDbEntity
8
Geo
100
AcDbLine
10
-67.3387470997679
20
8.45050108009844
30
0.000000000000000
11
-67.2387470997679
21
8.40867529440888
31
0.000000000000000
  0
LINE
  5
F10484
330
F10485
100
AcDbEntity
8
Geo
100
AcDbLine
10
-67.2387470997679
20
8.40867529440888
30
0.000000000000000
11
-67.1387470997679
21
8.37258175946958
31
0.000000000000000
  0
LINE
  5
F10486
330
F10487
100
AcDbEntity
8
Geo
100
AcDbLine
10
-67.1387470997679
20
8.37258175946958
30
0.000000000000000
11
-67.0387470997679
21
8.34227394058300
31
0.000000000000000
  0
LINE
  5
F10488
330
F10489
100
AcDbEntity
8
Geo
100
AcDbLine
10
-67.0387470997679
20
8.34227394058300
30
0.000000000000000
11
-66.9387470997679
21
8.31779673267859
31
0.000000000000000
  0
LINE
  5
F1048A
330
F1048B
100
AcDbEntity
8
Geo
100
AcDbLine
10
-66.9387470997679
20
8.31779673267859
30
0.000000000000000
11
-66.8387470997679
21
8.29918639380993
31
0.000000000000000
  0
LINE
  5
F1048C
330
F1048D
100
AcDbEntity
8
Geo
100
AcDbLine
10
-66.8387470997679
20
8.29918639380993
30
0.000000000000000
11
-66.7387470997679
21
8.28647049144577
31
0.000000000000000
  0
LINE
  5
F1048E
330
F1048F
100
AcDbEntity
8
Geo
100
AcDbLine
10
-66.7387470997679
20
8.28647049144577
30
0.000000000000000
11
-66.6387470997679
21
8.27966786163439
31
0.000000000000000
  0
LINE
  5
F10490
330
F10491
100
AcDbEntity
8
Geo
100
AcDbLine
10
-58.4387470997679
20
16.2782072985789
30
0.000000000000000
11
-58.3387470997679
21
16.2768406450244
31
0.000000000000000
  0
LINE
  5
F10492
330
F10493
100
AcDbEntity
8
Geo
100
AcDbLine
10
-58.3387470997679
20
16.2768406450244
30
0.000000000000000
11
-58.2387470997679
21
16.2695511399681
31
0.000000000000000
  0
LINE
  5
F10494
330
F10495
100
AcDbEntity
8
Geo
100
AcDbLine
10
-58.2387470997679
20
16.2695511399681
30
0.000000000000000
11
-58.1387470997679
21
16.2563495813436
31
0.000000000000000
  0
LINE
  5
F10496
330
F10497
100
AcDbEntity
8
Geo
100
AcDbLine
10
-58.1387470997679
20
16.2563495813436
30
0.000000000000000
11
-58.0387470997679
21
16.2372555246011
31
0.000000000000000
  0
LINE
  5
F10498
330
F10499
100
AcDbEntity
8
Geo
100
AcDbLine
10
-58.0387470997679
20
16.2372555246011
30
0.000000000000000
11
-57.9387470997679
21
16.2122972537398
31
0.000000000000000
  0
LINE
  5
F1049A
330
F1049B
100
AcDbEntity
8
Geo
100
AcDbLine
10
-57.9387470997679
20
16.2122972537398
30
0.000000000000000
11
-57.8387470997679
21
16.1815117394114
31
0.000000000000000
  0
LINE
  5
F1049C
330
F1049D
100
AcDbEntity
8
Geo
100
AcDbLine
10
-57.8387470997679
20
16.1815117394114
30
0.000000000000000
11
-57.7387470997679
21
16.1449445841547
31
0.000000000000000
  0
LINE
  5
F1049E
330
F1049F
100
AcDbEntity
8
Geo
100
AcDbLine
10
-57.7387470997679
20
16.1449445841547
30
0.000000000000000
11
-57.6387470997679
21
16.1026499548455
31
0.000000000000000
  0
LINE
  5
F104A0
330
F104A1
100
AcDbEntity
8
Geo
100
AcDbLine
10
-57.6387470997679
20
16.1026499548455
30
0.000000000000000
11
-57.5387470997679
21
16.0546905024585
31
0.000000000000000
  0
LINE
  5
F104A2
330
F104A3
100
AcDbEntity
8
Geo
100
AcDbLine
10
-57.5387470997679
20
16.0546905024585
30
0.000000000000000
11
-57.4387470997679
21
16.0011372692629
31
0.000000000000000
  0
LINE
  5
F104A4
330
F104A5
100
AcDbEntity
8
Geo
100
AcDbLine
10
-57.4387470997679
20
16.0011372692629
30
0.000000000000000
11
-57.3387470997679
21
15.9420695835878
31
0.000000000000000
  0
LINE
  5
F104A6
330
F104A7
100
AcDbEntity
8
Geo
100
AcDbLine
10
-57.3387470997679
20
15.9420695835878
30
0.000000000000000
11
-57.2387470997679
21
15.8775749423126
31
0.000000000000000
  0
LINE
  5
F104A8
330
F104A9
100
AcDbEntity
8
Geo
100
AcDbLine
10
-57.2387470997679
20
15.8775749423126
30
0.000000000000000
11
-57.1387470997679
21
15.8077488812588
31
0.000000000000000
  0
LINE
  5
F104AA
330
F104AB
100
AcDbEntity
8
Geo
100
AcDbLine
10
-57.1387470997679
20
15.8077488812588
30
0.000000000000000
11
-57.0387470997679
21
15.7326948336721
31
0.000000000000000
  0
LINE
  5
F104AC
330
F104AD
100
AcDbEntity
8
Geo
100
AcDbLine
10
-57.0387470997679
20
15.7326948336721
30
0.000000000000000
11
-56.9387470997679
21
15.6525239770075
31
0.000000000000000
  0
LINE
  5
F104AE
330
F104AF
100
AcDbEntity
8
Geo
100
AcDbLine
10
-56.9387470997679
20
15.6525239770075
30
0.000000000000000
11
-56.8387470997679
21
15.5673550682422
31
0.000000000000000
  0
LINE
  5
F104B0
330
F104B1
100
AcDbEntity
8
Geo
100
AcDbLine
10
-56.8387470997679
20
15.5673550682422
30
0.000000000000000
11
-56.7387470997679
21
15.4773142679607
31
0.000000000000000
  0
LINE
  5
F104B2
330
F104B3
100
AcDbEntity
8
Geo
100
AcDbLine
10
-56.7387470997679
20
15.4773142679607
30
0.000000000000000
11
-56.6387470997679
21
15.3825349534736
31
0.000000000000000
  0
LINE
  5
F104B4
330
F104B5
100
AcDbEntity
8
Geo
100
AcDbLine
10
-56.6387470997679
20
15.3825349534736
30
0.000000000000000
11
-56.5387470997679
21
15.2831575212461
31
0.000000000000000
  0
LINE
  5
F104B6
330
F104B7
100
AcDbEntity
8
Geo
100
AcDbLine
10
-56.5387470997679
20
15.2831575212461
30
0.000000000000000
11
-56.4387470997679
21
15.1793291789284
31
0.000000000000000
  0
LINE
  5
F104B8
330
F104B9
100
AcDbEntity
8
Geo
100
AcDbLine
10
-56.4387470997679
20
15.1793291789284
30
0.000000000000000
11
-56.3387470997679
21
15.0712037272979
31
0.000000000000000
  0
LINE
  5
F104BA
330
F104BB
100
AcDbEntity
8
Geo
100
AcDbLine
10
-56.3387470997679
20
15.0712037272979
30
0.000000000000000
11
-56.2387470997679
21
14.9589413324338
31
0.000000000000000
  0
LINE
  5
F104BC
330
F104BD
100
AcDbEntity
8
Geo
100
AcDbLine
10
-56.2387470997679
20
14.9589413324338
30
0.000000000000000
11
-56.1387470997679
21
14.8427082884634
31
0.000000000000000
  0
LINE
  5
F104BE
330
F104BF
100
AcDbEntity
8
Geo
100
AcDbLine
10
-56.1387470997679
20
14.8427082884634
30
0.000000000000000
11
-56.0387470997679
21
14.7226767712311
31
0.000000000000000
  0
LINE
  5
F104C0
330
F104C1
100
AcDbEntity
8
Geo
100
AcDbLine
10
-56.0387470997679
20
14.7226767712311
30
0.000000000000000
11
-55.9387470997679
21
14.5990245832543
31
0.000000000000000
  0
LINE
  5
F104C2
330
F104C3
100
AcDbEntity
8
Geo
100
AcDbLine
10
-55.9387470997679
20
14.5990245832543
30
0.000000000000000
11
-55.8387470997679
21
14.4719348903449
31
0.000000000000000
  0
LINE
  5
F104C4
330
F104C5
100
AcDbEntity
8
Geo
100
AcDbLine
10
-55.8387470997679
20
14.4719348903449
30
0.000000000000000
11
-55.7387470997679
21
14.3415959502860
31
0.000000000000000
  0
LINE
  5
F104C6
330
F104C7
100
AcDbEntity
8
Geo
100
AcDbLine
10
-55.7387470997679
20
14.3415959502860
30
0.000000000000000
11
-55.6387470997679
21
14.2082008339660
31
0.000000000000000
  0
LINE
  5
F104C8
330
F104C9
100
AcDbEntity
8
Geo
100
AcDbLine
10
-55.6387470997679
20
14.2082008339660
30
0.000000000000000
11
-55.5387470997679
21
14.0719471393827
31
0.000000000000000
  0
LINE
  5
F104CA
330
F104CB
100
AcDbEntity
8
Geo
100
AcDbLine
10
-55.5387470997679
20
14.0719471393827
30
0.000000000000000
11
-55.4387470997679
21
13.9330366989421
31
0.000000000000000
  0
LINE
  5
F104CC
330
F104CD
100
AcDbEntity
8
Geo
100
AcDbLine
10
-55.4387470997679
20
13.9330366989421
30
0.000000000000000
11
-55.3387470997679
21
13.7916752804839
31
0.000000000000000
  0
LINE
  5
F104CE
330
F104CF
100
AcDbEntity
8
Geo
100
AcDbLine
10
-55.3387470997679
20
13.7916752804839
30
0.000000000000000
11
-55.2387470997679
21
13.6480722824781
31
0.000000000000000
  0
LINE
  5
F104D0
330
F104D1
100
AcDbEntity
8
Geo
100
AcDbLine
10
-55.2387470997679
20
13.6480722824781
30
0.000000000000000
11
-55.1387470997679
21
13.5024404238436
31
0.000000000000000
  0
LINE
  5
F104D2
330
F104D3
100
AcDbEntity
8
Geo
100
AcDbLine
10
-55.1387470997679
20
13.5024404238436
30
0.000000000000000
11
-55.0387470997679
21
13.3549954288473
31
0.000000000000000
  0
LINE
  5
F104D4
330
F104D5
100
AcDbEntity
8
Geo
100
AcDbLine
10
-55.0387470997679
20
13.3549954288473
30
0.000000000000000
11
-54.9387470997679
21
13.2059557075527
31
0.000000000000000
  0
LINE
  5
F104D6
330
F104D7
100
AcDbEntity
8
Geo
100
AcDbLine
10
-54.9387470997679
20
13.2059557075527
30
0.000000000000000
11
-54.8387470997679
21
13.0555420322891
31
0.000000000000000
  0
LINE
  5
F104D8
330
F104D9
100
AcDbEntity
8
Geo
100
AcDbLine
10
-54.8387470997679
20
13.0555420322891
30
0.000000000000000
11
-54.7387470997679
21
12.9039772106217
31
0.000000000000000
  0
LINE
  5
F104DA
330
F104DB
100
AcDbEntity
8
Geo
100
AcDbLine
10
-54.7387470997679
20
12.9039772106217
30
0.000000000000000
11
-54.6387470997679
21
12.7514857553073
31
0.000000000000000
  0
LINE
  5
F104DC
330
F104DD
100
AcDbEntity
8
Geo
100
AcDbLine
10
-54.6387470997679
20
12.7514857553073
30
0.000000000000000
11
-54.5387470997679
21
12.5982935517241
31
0.000000000000000
  0
LINE
  5
F104DE
330
F104DF
100
AcDbEntity
8
Geo
100
AcDbLine
10
-54.5387470997679
20
12.5982935517241
30
0.000000000000000
11
-54.4387470997679
21
12.4446275232674
31
0.000000000000000
  0
LINE
  5
F104E0
330
F104E1
100
AcDbEntity
8
Geo
100
AcDbLine
10
-54.4387470997679
20
12.4446275232674
30
0.000000000000000
11
-54.3387470997679
21
12.2907152952087
31
0.000000000000000
  0
LINE
  5
F104E2
330
F104E3
100
AcDbEntity
8
Geo
100
AcDbLine
10
-54.3387470997679
20
12.2907152952087
30
0.000000000000000
11
-54.2387470997679
21
12.1367848575147
31
0.000000000000000
  0
LINE
  5
F104E4
330
F104E5
100
AcDbEntity
8
Geo
100
AcDbLine
10
-54.2387470997679
20
12.1367848575147
30
0.000000000000000
11
-54.1387470997679
21
11.9830642271260
31
0.000000000000000
  0
LINE
  5
F104E6
330
F104E7
100
AcDbEntity
8
Geo
100
AcDbLine
10
-54.1387470997679
20
11.9830642271260
30
0.000000000000000
11
-54.0387470997679
21
11.8297811101957
31
0.000000000000000
  0
LINE
  5
F104E8
330
F104E9
100
AcDbEntity
8
Geo
100
AcDbLine
10
-54.0387470997679
20
11.8297811101957
30
0.000000000000000
11
-53.9387470997679
21
11.6771625647892
31
0.000000000000000
  0
LINE
  5
F104EA
330
F104EB
100
AcDbEntity
8
Geo
100
AcDbLine
10
-53.9387470997679
20
11.6771625647892
30
0.000000000000000
11
-53.8387470997679
21
11.5254346645428
31
0.000000000000000
  0
LINE
  5
F104EC
330
F104ED
100
AcDbEntity
8
Geo
100
AcDbLine
10
-53.8387470997679
20
11.5254346645428
30
0.000000000000000
11
-53.7387470997679
21
11.3748221637814
31
0.000000000000000
  0
LINE
  5
F104EE
330
F104EF
100
AcDbEntity
8
Geo
100
AcDbLine
10
-53.7387470997679
20
11.3748221637814
30
0.000000000000000
11
-53.6387470997679
21
11.2255481645903
31
0.000000000000000
  0
LINE
  5
F104F0
330
F104F1
100
AcDbEntity
8
Geo
100
AcDbLine
10
-53.6387470997679
20
11.2255481645903
30
0.000000000000000
11
-53.5387470997679
21
11.0778337863342
31
0.000000000000000
  0
LINE
  5
F104F2
330
F104F3
100
AcDbEntity
8
Geo
100
AcDbLine
10
-53.5387470997679
20
11.0778337863342
30
0.000000000000000
11
-53.4387470997679
21
10.9318978381136
31
0.000000000000000
  0
LINE
  5
F104F4
330
F104F5
100
AcDbEntity
8
Geo
100
AcDbLine
10
-53.4387470997679
20
10.9318978381136
30
0.000000000000000
11
-53.3387470997679
21
10.7879564946431
31
0.000000000000000
  0
LINE
  5
F104F6
330
F104F7
100
AcDbEntity
8
Geo
100
AcDbLine
10
-53.3387470997679
20
10.7879564946431
30
0.000000000000000
11
-53.2387470997679
21
10.6462229760320
31
0.000000000000000
  0
LINE
  5
F104F8
330
F104F9
100
AcDbEntity
8
Geo
100
AcDbLine
10
-53.2387470997679
20
10.6462229760320
30
0.000000000000000
11
-53.1387470997679
21
10.5069072319418
31
0.000000000000000
  0
LINE
  5
F104FA
330
F104FB
100
AcDbEntity
8
Geo
100
AcDbLine
10
-53.1387470997679
20
10.5069072319418
30
0.000000000000000
11
-53.0387470997679
21
10.3702156305881
31
0.000000000000000
  0
LINE
  5
F104FC
330
F104FD
100
AcDbEntity
8
Geo
100
AcDbLine
10
-53.0387470997679
20
10.3702156305881
30
0.000000000000000
11
-52.9387470997679
21
10.2363506530473
31
0.000000000000000
  0
LINE
  5
F104FE
330
F104FF
100
AcDbEntity
8
Geo
100
AcDbLine
10
-52.9387470997679
20
10.2363506530473
30
0.000000000000000
11
-52.8387470997679
21
10.1055105933222
31
0.000000000000000
  0
LINE
  5
F10500
330
F10501
100
AcDbEntity
8
Geo
100
AcDbLine
10
-52.8387470997679
20
10.1055105933222
30
0.000000000000000
11
-52.7387470997679
21
9.97788926460892
31
0.000000000000000
  0
LINE
  5
F10502
330
F10503
100
AcDbEntity
8
Geo
100
AcDbLine
10
-52.7387470997679
20
9.97788926460892
30
0.000000000000000
11
-52.6387470997679
21
9.85367571220200
31
0.000000000000000
  0
LINE
  5
F10504
330
F10505
100
AcDbEntity
8
Geo
100
AcDbLine
10
-52.6387470997679
20
9.85367571220200
30
0.000000000000000
11
-52.5387470997679
21
9.73305393346165
31
0.000000000000000
  0
LINE
  5
F10506
330
F10507
100
AcDbEntity
8
Geo
100
AcDbLine
10
-52.5387470997679
20
9.73305393346165
30
0.000000000000000
11
-52.4387470997679
21
9.61620260525883
31
0.000000000000000
  0
LINE
  5
F10508
330
F10509
100
AcDbEntity
8
Geo
100
AcDbLine
10
-52.4387470997679
20
9.61620260525883
30
0.000000000000000
11
-52.3387470997679
21
9.50329481930143
31
0.000000000000000
  0
LINE
  5
F1050A
330
F1050B
100
AcDbEntity
8
Geo
100
AcDbLine
10
-52.3387470997679
20
9.50329481930143
30
0.000000000000000
11
-52.2387470997679
21
9.39449782573377
31
0.000000000000000
  0
LINE
  5
F1050C
330
F1050D
100
AcDbEntity
8
Geo
100
AcDbLine
10
-52.2387470997679
20
9.39449782573377
30
0.000000000000000
11
-52.1387470997679
21
9.28997278538917
31
0.000000000000000
  0
LINE
  5
F1050E
330
F1050F
100
AcDbEntity
8
Geo
100
AcDbLine
10
-52.1387470997679
20
9.28997278538917
30
0.000000000000000
11
-52.0387470997679
21
9.18987453106270
31
0.000000000000000
  0
LINE
  5
F10510
330
F10511
100
AcDbEntity
8
Geo
100
AcDbLine
10
-52.0387470997679
20
9.18987453106270
30
0.000000000000000
11
-51.9387470997679
21
9.09435133815750
31
0.000000000000000
  0
LINE
  5
F10512
330
F10513
100
AcDbEntity
8
Geo
100
AcDbLine
10
-51.9387470997679
20
9.09435133815750
30
0.000000000000000
11
-51.8387470997679
21
9.00354470504468
31
0.000000000000000
  0
LINE
  5
F10514
330
F10515
100
AcDbEntity
8
Geo
100
AcDbLine
10
-51.8387470997679
20
9.00354470504468
30
0.000000000000000
11
-51.7387470997679
21
8.91758914346198
31
0.000000000000000
  0
LINE
  5
F10516
330
F10517
100
AcDbEntity
8
Geo
100
AcDbLine
10
-51.7387470997679
20
8.91758914346198
30
0.000000000000000
11
-51.6387470997679
21
8.83661197926171
31
0.000000000000000
  0
LINE
  5
F10518
330
F10519
100
AcDbEntity
8
Geo
100
AcDbLine
10
-51.6387470997679
20
8.83661197926171
30
0.000000000000000
11
-51.5387470997679
21
8.76073316380315
31
0.000000000000000
  0
LINE
  5
F1051A
330
F1051B
100
AcDbEntity
8
Geo
100
AcDbLine
10
-51.5387470997679
20
8.76073316380315
30
0.000000000000000
11
-51.4387470997679
21
8.69006509626876
31
0.000000000000000
  0
LINE
  5
F1051C
330
F1051D
100
AcDbEntity
8
Geo
100
AcDbLine
10
-51.4387470997679
20
8.69006509626876
30
0.000000000000000
11
-51.3387470997679
21
8.62471245716745
31
0.000000000000000
  0
LINE
  5
F1051E
330
F1051F
100
AcDbEntity
8
Geo
100
AcDbLine
10
-51.3387470997679
20
8.62471245716745
30
0.000000000000000
11
-51.2387470997679
21
8.56477205327149
31
0.000000000000000
  0
LINE
  5
F10520
330
F10521
100
AcDbEntity
8
Geo
100
AcDbLine
10
-51.2387470997679
20
8.56477205327149
30
0.000000000000000
11
-51.1387470997679
21
8.51033267421673
31
0.000000000000000
  0
LINE
  5
F10522
330
F10523
100
AcDbEntity
8
Geo
100
AcDbLine
10
-51.1387470997679
20
8.51033267421673
30
0.000000000000000
11
-51.0387470997679
21
8.46147496097869
31
0.000000000000000
  0
LINE
  5
F10524
330
F10525
100
AcDbEntity
8
Geo
100
AcDbLine
10
-51.0387470997679
20
8.46147496097869
30
0.000000000000000
11
-50.9387470997679
21
8.41827128641919
31
0.000000000000000
  0
LINE
  5
F10526
330
F10527
100
AcDbEntity
8
Geo
100
AcDbLine
10
-50.9387470997679
20
8.41827128641919
30
0.000000000000000
11
-50.8387470997679
21
8.38078564808050
31
0.000000000000000
  0
LINE
  5
F10528
330
F10529
100
AcDbEntity
8
Geo
100
AcDbLine
10
-50.8387470997679
20
8.38078564808050
30
0.000000000000000
11
-50.7387470997679
21
8.34907357338589
31
0.000000000000000
  0
LINE
  5
F1052A
330
F1052B
100
AcDbEntity
8
Geo
100
AcDbLine
10
-50.7387470997679
20
8.34907357338589
30
0.000000000000000
11
-50.6387470997679
21
8.32318203738694
31
0.000000000000000
  0
LINE
  5
F1052C
330
F1052D
100
AcDbEntity
8
Geo
100
AcDbLine
10
-50.6387470997679
20
8.32318203738694
30
0.000000000000000
11
-50.5387470997679
21
8.30314939317947
31
0.000000000000000
  0
LINE
  5
F1052E
330
F1052F
100
AcDbEntity
8
Geo
100
AcDbLine
10
-50.5387470997679
20
8.30314939317947
30
0.000000000000000
11
-50.4387470997679
21
8.28900531509112
31
0.000000000000000
  0
LINE
  5
F10530
330
F10531
100
AcDbEntity
8
Geo
100
AcDbLine
10
-50.4387470997679
20
8.28900531509112
30
0.000000000000000
11
-50.3387470997679
21
8.28077075472485
31
0.000000000000000
  0
LINE
  5
F10532
330
F10533
100
AcDbEntity
8
Geo
100
AcDbLine
10
-61.7387470997679
20
16.2772797934523
30
0.000000000000000
11
-61.6387470997679
21
16.2779966141114
31
0.000000000000000
  0
LINE
  5
F10534
330
F10535
100
AcDbEntity
8
Geo
100
AcDbLine
10
-61.6387470997679
20
16.2779966141114
30
0.000000000000000
11
-61.5387470997679
21
16.2727888709334
31
0.000000000000000
  0
LINE
  5
F10536
330
F10537
100
AcDbEntity
8
Geo
100
AcDbLine
10
-61.5387470997679
20
16.2727888709334
30
0.000000000000000
11
-61.4387470997679
21
16.2616642781407
31
0.000000000000000
  0
LINE
  5
F10538
330
F10539
100
AcDbEntity
8
Geo
100
AcDbLine
10
-61.4387470997679
20
16.2616642781407
30
0.000000000000000
11
-61.3387470997679
21
16.2446393145772
31
0.000000000000000
  0
LINE
  5
F1053A
330
F1053B
100
AcDbEntity
8
Geo
100
AcDbLine
10
-61.3387470997679
20
16.2446393145772
30
0.000000000000000
11
-61.2387470997679
21
16.2217391992972
31
0.000000000000000
  0
LINE
  5
F1053C
330
F1053D
100
AcDbEntity
8
Geo
100
AcDbLine
10
-61.2387470997679
20
16.2217391992972
30
0.000000000000000
11
-61.1387470997679
21
16.1929978542094
31
0.000000000000000
  0
LINE
  5
F1053E
330
F1053F
100
AcDbEntity
8
Geo
100
AcDbLine
10
-61.1387470997679
20
16.1929978542094
30
0.000000000000000
11
-61.0387470997679
21
16.1584578538278
31
0.000000000000000
  0
LINE
  5
F10540
330
F10541
100
AcDbEntity
8
Geo
100
AcDbLine
10
-61.0387470997679
20
16.1584578538278
30
0.000000000000000
11
-60.9387470997679
21
16.1181703622062
31
0.000000000000000
  0
LINE
  5
F10542
330
F10543
100
AcDbEntity
8
Geo
100
AcDbLine
10
-60.9387470997679
20
16.1181703622062
30
0.000000000000000
11
-60.8387470997679
21
16.0721950571492
31
0.000000000000000
  0
LINE
  5
F10544
330
F10545
100
AcDbEntity
8
Geo
100
AcDbLine
10
-60.8387470997679
20
16.0721950571492
30
0.000000000000000
11
-60.7387470997679
21
16.0206000418116
31
0.000000000000000
  0
LINE
  5
F10546
330
F10547
100
AcDbEntity
8
Geo
100
AcDbLine
10
-60.7387470997679
20
16.0206000418116
30
0.000000000000000
11
-60.6387470997679
21
15.9634617438168
31
0.000000000000000
  0
LINE
  5
F10548
330
F10549
100
AcDbEntity
8
Geo
100
AcDbLine
10
-60.6387470997679
20
15.9634617438168
30
0.000000000000000
11
-60.5387470997679
21
15.9008648020451
31
0.000000000000000
  0
LINE
  5
F1054A
330
F1054B
100
AcDbEntity
8
Geo
100
AcDbLine
10
-60.5387470997679
20
15.9008648020451
30
0.000000000000000
11
-60.4387470997679
21
15.8329019412583
31
0.000000000000000
  0
LINE
  5
F1054C
330
F1054D
100
AcDbEntity
8
Geo
100
AcDbLine
10
-60.4387470997679
20
15.8329019412583
30
0.000000000000000
11
-60.3387470997679
21
15.7596738347463
31
0.000000000000000
  0
LINE
  5
F1054E
330
F1054F
100
AcDbEntity
8
Geo
100
AcDbLine
10
-60.3387470997679
20
15.7596738347463
30
0.000000000000000
11
-60.2387470997679
21
15.6812889552002
31
0.000000000000000
  0
LINE
  5
F10550
330
F10551
100
AcDbEntity
8
Geo
100
AcDbLine
10
-60.2387470997679
20
15.6812889552002
30
0.000000000000000
11
-60.1387470997679
21
15.5978634140316
31
0.000000000000000
  0
LINE
  5
F10552
330
F10553
100
AcDbEntity
8
Geo
100
AcDbLine
10
-60.1387470997679
20
15.5978634140316
30
0.000000000000000
11
-60.0387470997679
21
15.5095207893772
31
0.000000000000000
  0
LINE
  5
F10554
330
F10555
100
AcDbEntity
8
Geo
100
AcDbLine
10
-60.0387470997679
20
15.5095207893772
30
0.000000000000000
11
-59.9387470997679
21
15.4163919430424
31
0.000000000000000
  0
LINE
  5
F10556
330
F10557
100
AcDbEntity
8
Geo
100
AcDbLine
10
-59.9387470997679
20
15.4163919430424
30
0.000000000000000
11
-59.8387470997679
21
15.3186148266562
31
0.000000000000000
  0
LINE
  5
F10558
330
F10559
100
AcDbEntity
8
Geo
100
AcDbLine
10
-59.8387470997679
20
15.3186148266562
30
0.000000000000000
11
-59.7387470997679
21
15.2163342773233
31
0.000000000000000
  0
LINE
  5
F1055A
330
F1055B
100
AcDbEntity
8
Geo
100
AcDbLine
10
-59.7387470997679
20
15.2163342773233
30
0.000000000000000
11
-59.6387470997679
21
15.1097018030775
31
0.000000000000000
  0
LINE
  5
F1055C
330
F1055D
100
AcDbEntity
8
Geo
100
AcDbLine
10
-59.6387470997679
20
15.1097018030775
30
0.000000000000000
11
-59.5387470997679
21
14.9988753584525
31
0.000000000000000
  0
LINE
  5
F1055E
330
F1055F
100
AcDbEntity
8
Geo
100
AcDbLine
10
-59.5387470997679
20
14.9988753584525
30
0.000000000000000
11
-59.4387470997679
21
14.8840191105048
31
0.000000000000000
  0
LINE
  5
F10560
330
F10561
100
AcDbEntity
8
Geo
100
AcDbLine
10
-59.4387470997679
20
14.8840191105048
30
0.000000000000000
11
-59.3387470997679
21
14.7653031956327
31
0.000000000000000
  0
LINE
  5
F10562
330
F10563
100
AcDbEntity
8
Geo
100
AcDbLine
10
-59.3387470997679
20
14.7653031956327
30
0.000000000000000
11
-59.2387470997679
21
14.6429034675537
31
0.000000000000000
  0
LINE
  5
F10564
330
F10565
100
AcDbEntity
8
Geo
100
AcDbLine
10
-59.2387470997679
20
14.6429034675537
30
0.000000000000000
11
-59.1387470997679
21
14.5170012368125
31
0.000000000000000
  0
LINE
  5
F10566
330
F10567
100
AcDbEntity
8
Geo
100
AcDbLine
10
-59.1387470997679
20
14.5170012368125
30
0.000000000000000
11
-59.0387470997679
21
14.3877830022063
31
0.000000000000000
  0
LINE
  5
F10568
330
F10569
100
AcDbEntity
8
Geo
100
AcDbLine
10
-59.0387470997679
20
14.3877830022063
30
0.000000000000000
11
-58.9387470997679
21
14.2554401745240
31
0.000000000000000
  0
LINE
  5
F1056A
330
F1056B
100
AcDbEntity
8
Geo
100
AcDbLine
10
-58.9387470997679
20
14.2554401745240
30
0.000000000000000
11
-58.8387470997679
21
14.1201687930098
31
0.000000000000000
  0
LINE
  5
F1056C
330
F1056D
100
AcDbEntity
8
Geo
100
AcDbLine
10
-58.8387470997679
20
14.1201687930098
30
0.000000000000000
11
-58.7387470997679
21
13.9821692349707
31
0.000000000000000
  0
LINE
  5
F1056E
330
F1056F
100
AcDbEntity
8
Geo
100
AcDbLine
10
-58.7387470997679
20
13.9821692349707
30
0.000000000000000
11
-58.6387470997679
21
13.8416459189576
31
0.000000000000000
  0
LINE
  5
F10570
330
F10571
100
AcDbEntity
8
Geo
100
AcDbLine
10
-58.6387470997679
20
13.8416459189576
30
0.000000000000000
11
-58.5387470997679
21
13.6988070019606
31
0.000000000000000
  0
LINE
  5
F10572
330
F10573
100
AcDbEntity
8
Geo
100
AcDbLine
10
-58.5387470997679
20
13.6988070019606
30
0.000000000000000
11
-58.4387470997679
21
13.5538640710662
31
0.000000000000000
  0
LINE
  5
F10574
330
F10575
100
AcDbEntity
8
Geo
100
AcDbLine
10
-58.4387470997679
20
13.5538640710662
30
0.000000000000000
11
-58.3387470997679
21
13.4070318300339
31
0.000000000000000
  0
LINE
  5
F10576
330
F10577
100
AcDbEntity
8
Geo
100
AcDbLine
10
-58.3387470997679
20
13.4070318300339
30
0.000000000000000
11
-58.2387470997679
21
13.2585277812555
31
0.000000000000000
  0
LINE
  5
F10578
330
F10579
100
AcDbEntity
8
Geo
100
AcDbLine
10
-58.2387470997679
20
13.2585277812555
30
0.000000000000000
11
-58.1387470997679
21
13.1085719035693
31
0.000000000000000
  0
LINE
  5
F1057A
330
F1057B
100
AcDbEntity
8
Geo
100
AcDbLine
10
-58.1387470997679
20
13.1085719035693
30
0.000000000000000
11
-58.0387470997679
21
12.9573863264057
31
0.000000000000000
  0
LINE
  5
F1057C
330
F1057D
100
AcDbEntity
8
Geo
100
AcDbLine
10
-58.0387470997679
20
12.9573863264057
30
0.000000000000000
11
-57.9387470997679
21
12.8051950007472
31
0.000000000000000
  0
LINE
  5
F1057E
330
F1057F
100
AcDbEntity
8
Geo
100
AcDbLine
10
-57.9387470997679
20
12.8051950007472
30
0.000000000000000
11
-57.8387470997679
21
12.6522233673902
31
0.000000000000000
  0
LINE
  5
F10580
330
F10581
100
AcDbEntity
8
Geo
100
AcDbLine
10
-57.8387470997679
20
12.6522233673902
30
0.000000000000000
11
-57.7387470997679
21
12.4986980229997
31
0.000000000000000
  0
LINE
  5
F10582
330
F10583
100
AcDbEntity
8
Geo
100
AcDbLine
10
-57.7387470997679
20
12.4986980229997
30
0.000000000000000
11
-57.6387470997679
21
12.3448463844522
31
0.000000000000000
  0
LINE
  5
F10584
330
F10585
100
AcDbEntity
8
Geo
100
AcDbLine
10
-57.6387470997679
20
12.3448463844522
30
0.000000000000000
11
-57.5387470997679
21
12.1908963519630
31
0.000000000000000
  0
LINE
  5
F10586
330
F10587
100
AcDbEntity
8
Geo
100
AcDbLine
10
-57.5387470997679
20
12.1908963519630
30
0.000000000000000
11
-57.4387470997679
21
12.0370759714986
31
0.000000000000000
  0
LINE
  5
F10588
330
F10589
100
AcDbEntity
8
Geo
100
AcDbLine
10
-57.4387470997679
20
12.0370759714986
30
0.000000000000000
11
-57.3387470997679
21
11.8836130969718
31
0.000000000000000
  0
LINE
  5
F1058A
330
F1058B
100
AcDbEntity
8
Geo
100
AcDbLine
10
-57.3387470997679
20
11.8836130969718
30
0.000000000000000
11
-57.2387470997679
21
11.7307350527226
31
0.000000000000000
  0
LINE
  5
F1058C
330
F1058D
100
AcDbEntity
8
Geo
100
AcDbLine
10
-57.2387470997679
20
11.7307350527226
30
0.000000000000000
11
-57.1387470997679
21
11.5786682967825
31
0.000000000000000
  0
LINE
  5
F1058E
330
F1058F
100
AcDbEntity
8
Geo
100
AcDbLine
10
-57.1387470997679
20
11.5786682967825
30
0.000000000000000
11
-57.0387470997679
21
11.4276380854231
31
0.000000000000000
  0
LINE
  5
F10590
330
F10591
100
AcDbEntity
8
Geo
100
AcDbLine
10
-57.0387470997679
20
11.4276380854231
30
0.000000000000000
11
-56.9387470997679
21
11.2778681394835
31
0.000000000000000
  0
LINE
  5
F10592
330
F10593
100
AcDbEntity
8
Geo
100
AcDbLine
10
-56.9387470997679
20
11.2778681394835
30
0.000000000000000
11
-56.8387470997679
21
11.1295803129739
31
0.000000000000000
  0
LINE
  5
F10594
330
F10595
100
AcDbEntity
8
Geo
100
AcDbLine
10
-56.8387470997679
20
11.1295803129739
30
0.000000000000000
11
-56.7387470997679
21
10.9829942644427
31
0.000000000000000
  0
LINE
  5
F10596
330
F10597
100
AcDbEntity
8
Geo
100
AcDbLine
10
-56.7387470997679
20
10.9829942644427
30
0.000000000000000
11
-56.6387470997679
21
10.8383271315973
31
0.000000000000000
  0
LINE
  5
F10598
330
F10599
100
AcDbEntity
8
Geo
100
AcDbLine
10
-56.6387470997679
20
10.8383271315973
30
0.000000000000000
11
-56.5387470997679
21
10.6957932096577
31
0.000000000000000
  0
LINE
  5
F1059A
330
F1059B
100
AcDbEntity
8
Geo
100
AcDbLine
10
-56.5387470997679
20
10.6957932096577
30
0.000000000000000
11
-56.4387470997679
21
10.5556036339218
31
0.000000000000000
  0
LINE
  5
F1059C
330
F1059D
100
AcDbEntity
8
Geo
100
AcDbLine
10
-56.4387470997679
20
10.5556036339218
30
0.000000000000000
11
-56.3387470997679
21
10.4179660670106
31
0.000000000000000
  0
LINE
  5
F1059E
330
F1059F
100
AcDbEntity
8
Geo
100
AcDbLine
10
-56.3387470997679
20
10.4179660670106
30
0.000000000000000
11
-56.2387470997679
21
10.2830843912581
31
0.000000000000000
  0
LINE
  5
F105A0
330
F105A1
100
AcDbEntity
8
Geo
100
AcDbLine
10
-56.2387470997679
20
10.2830843912581
30
0.000000000000000
11
-56.1387470997679
21
10.1511584067008
31
0.000000000000000
  0
LINE
  5
F105A2
330
F105A3
100
AcDbEntity
8
Geo
100
AcDbLine
10
-56.1387470997679
20
10.1511584067008
30
0.000000000000000
11
-56.0387470997679
21
10.0223835351136
31
0.000000000000000
  0
LINE
  5
F105A4
330
F105A5
100
AcDbEntity
8
Geo
100
AcDbLine
10
-56.0387470997679
20
10.0223835351136
30
0.000000000000000
11
-55.9387470997679
21
9.89695053053254
31
0.000000000000000
  0
LINE
  5
F105A6
330
F105A7
100
AcDbEntity
8
Geo
100
AcDbLine
10
-55.9387470997679
20
9.89695053053254
30
0.000000000000000
11
-55.8387470997679
21
9.77504519669061
31
0.000000000000000
  0
LINE
  5
F105A8
330
F105A9
100
AcDbEntity
8
Geo
100
AcDbLine
10
-55.8387470997679
20
9.77504519669061
30
0.000000000000000
11
-55.7387470997679
21
9.65684811178713
31
0.000000000000000
  0
LINE
  5
F105AA
330
F105AB
100
AcDbEntity
8
Geo
100
AcDbLine
10
-55.7387470997679
20
9.65684811178713
30
0.000000000000000
11
-55.6387470997679
21
9.54253436099749
31
0.000000000000000
  0
LINE
  5
F105AC
330
F105AD
100
AcDbEntity
8
Geo
100
AcDbLine
10
-55.6387470997679
20
9.54253436099749
30
0.000000000000000
11
-55.5387470997679
21
9.43227327711974
31
0.000000000000000
  0
LINE
  5
F105AE
330
F105AF
100
AcDbEntity
8
Geo
100
AcDbLine
10
-55.5387470997679
20
9.43227327711974
30
0.000000000000000
11
-55.4387470997679
21
9.32622818974213
31
0.000000000000000
  0
LINE
  5
F105B0
330
F105B1
100
AcDbEntity
8
Geo
100
AcDbLine
10
-55.4387470997679
20
9.32622818974213
30
0.000000000000000
11
-55.3387470997679
21
9.22455618330323
31
0.000000000000000
  0
LINE
  5
F105B2
330
F105B3
100
AcDbEntity
8
Geo
100
AcDbLine
10
-55.3387470997679
20
9.22455618330323
30
0.000000000000000
11
-55.2387470997679
21
9.12740786440299
31
0.000000000000000
  0
LINE
  5
F105B4
330
F105B5
100
AcDbEntity
8
Geo
100
AcDbLine
10
-55.2387470997679
20
9.12740786440299
30
0.000000000000000
11
-55.1387470997679
21
9.03492713870937
31
0.000000000000000
  0
LINE
  5
F105B6
330
F105B7
100
AcDbEntity
8
Geo
100
AcDbLine
10
-55.1387470997679
20
9.03492713870937
30
0.000000000000000
11
-55.0387470997679
21
8.94725099779107
31
0.000000000000000
  0
LINE
  5
F105B8
330
F105B9
100
AcDbEntity
8
Geo
100
AcDbLine
10
-55.0387470997679
20
8.94725099779107
30
0.000000000000000
11
-54.9387470997679
21
8.86450931619216
31
0.000000000000000
  0
LINE
  5
F105BA
330
F105BB
100
AcDbEntity
8
Geo
100
AcDbLine
10
-54.9387470997679
20
8.86450931619216
30
0.000000000000000
11
-54.8387470997679
21
8.78682465904905
31
0.000000000000000
  0
LINE
  5
F105BC
330
F105BD
100
AcDbEntity
8
Geo
100
AcDbLine
10
-54.8387470997679
20
8.78682465904905
30
0.000000000000000
11
-54.7387470997679
21
8.71431210053496
31
0.000000000000000
  0
LINE
  5
F105BE
330
F105BF
100
AcDbEntity
8
Geo
100
AcDbLine
10
-54.7387470997679
20
8.71431210053496
30
0.000000000000000
11
-54.6387470997679
21
8.64707905340069
31
0.000000000000000
  0
LINE
  5
F105C0
330
F105C1
100
AcDbEntity
8
Geo
100
AcDbLine
10
-54.6387470997679
20
8.64707905340069
30
0.000000000000000
11
-54.5387470997679
21
8.58522510986425
31
0.000000000000000
  0
LINE
  5
F105C2
330
F105C3
100
AcDbEntity
8
Geo
100
AcDbLine
10
-54.5387470997679
20
8.58522510986425
30
0.000000000000000
11
-54.4387470997679
21
8.52884189408509
31
0.000000000000000
  0
LINE
  5
F105C4
330
F105C5
100
AcDbEntity
8
Geo
100
AcDbLine
10
-54.4387470997679
20
8.52884189408509
30
0.000000000000000
11
-54.3387470997679
21
8.47801292644134
31
0.000000000000000
  0
LINE
  5
F105C6
330
F105C7
100
AcDbEntity
8
Geo
100
AcDbLine
10
-54.3387470997679
20
8.47801292644134
30
0.000000000000000
11
-54.2387470997679
21
8.43281349981118
31
0.000000000000000
  0
LINE
  5
F105C8
330
F105C9
100
AcDbEntity
8
Geo
100
AcDbLine
10
-54.2387470997679
20
8.43281349981118
30
0.000000000000000
11
-54.1387470997679
21
8.39331056804160
31
0.000000000000000
  0
LINE
  5
F105CA
330
F105CB
100
AcDbEntity
8
Geo
100
AcDbLine
10
-54.1387470997679
20
8.39331056804160
30
0.000000000000000
11
-54.0387470997679
21
8.35956264676982
31
0.000000000000000
  0
LINE
  5
F105CC
330
F105CD
100
AcDbEntity
8
Geo
100
AcDbLine
10
-54.0387470997679
20
8.35956264676982
30
0.000000000000000
11
-53.9387470997679
21
8.33161972674407
31
0.000000000000000
  0
LINE
  5
F105CE
330
F105CF
100
AcDbEntity
8
Geo
100
AcDbLine
10
-53.9387470997679
20
8.33161972674407
30
0.000000000000000
11
-53.8387470997679
21
8.30952319977242
31
0.000000000000000
  0
LINE
  5
F105D0
330
F105D1
100
AcDbEntity
8
Geo
100
AcDbLine
10
-53.8387470997679
20
8.30952319977242
30
0.000000000000000
11
-53.7387470997679
21
8.29330579740918
31
0.000000000000000
  0
LINE
  5
F105D2
330
F105D3
100
AcDbEntity
8
Geo
100
AcDbLine
10
-53.7387470997679
20
8.29330579740918
30
0.000000000000000
11
-53.6387470997679
21
8.28299154246960
31
0.000000000000000
  0
LINE
  5
F105D4
330
F105D5
100
AcDbEntity
8
Geo
100
AcDbLine
10
-53.6387470997679
20
8.28299154246960
30
0.000000000000000
11
-53.5387470997679
21
8.27859571344502
31
0.000000000000000
  0
LINE
  5
F105D6
330
F105D7
100
AcDbEntity
8
Geo
100
AcDbLine
10
-62.5387470997679
20
16.2777983919896
30
0.000000000000000
11
-62.4387470997679
21
16.2775546989954
31
0.000000000000000
  0
LINE
  5
F105D8
330
F105D9
100
AcDbEntity
8
Geo
100
AcDbLine
10
-62.4387470997679
20
16.2775546989954
30
0.000000000000000
11
-62.3387470997679
21
16.2713870967723
31
0.000000000000000
  0
LINE
  5
F105DA
330
F105DB
100
AcDbEntity
8
Geo
100
AcDbLine
10
-62.3387470997679
20
16.2713870967723
30
0.000000000000000
11
-62.2387470997679
21
16.2593047213808
31
0.000000000000000
  0
LINE
  5
F105DC
330
F105DD
100
AcDbEntity
8
Geo
100
AcDbLine
10
-62.2387470997679
20
16.2593047213808
30
0.000000000000000
11
-62.1387470997679
21
16.2413254704264
31
0.000000000000000
  0
LINE
  5
F105DE
330
F105DF
100
AcDbEntity
8
Geo
100
AcDbLine
10
-62.1387470997679
20
16.2413254704264
30
0.000000000000000
11
-62.0387470997679
21
16.2174759765483
31
0.000000000000000
  0
LINE
  5
F105E0
330
F105E1
100
AcDbEntity
8
Geo
100
AcDbLine
10
-62.0387470997679
20
16.2174759765483
30
0.000000000000000
11
-61.9387470997679
21
16.1877915679683
31
0.000000000000000
  0
LINE
  5
F105E2
330
F105E3
100
AcDbEntity
8
Geo
100
AcDbLine
10
-61.9387470997679
20
16.1877915679683
30
0.000000000000000
11
-61.8387470997679
21
16.1523162161588
31
0.000000000000000
  0
LINE
  5
F105E4
330
F105E5
100
AcDbEntity
8
Geo
100
AcDbLine
10
-61.8387470997679
20
16.1523162161588
30
0.000000000000000
11
-61.7387470997679
21
16.1111024707086
31
0.000000000000000
  0
LINE
  5
F105E6
330
F105E7
100
AcDbEntity
8
Geo
100
AcDbLine
10
-61.7387470997679
20
16.1111024707086
30
0.000000000000000
11
-61.6387470997679
21
16.0642113814808
31
0.000000000000000
  0
LINE
  5
F105E8
330
F105E9
100
AcDbEntity
8
Geo
100
AcDbLine
10
-61.6387470997679
20
16.0642113814808
30
0.000000000000000
11
-61.5387470997679
21
16.0117124081798
31
0.000000000000000
  0
LINE
  5
F105EA
330
F105EB
100
AcDbEntity
8
Geo
100
AcDbLine
10
-61.5387470997679
20
16.0117124081798
30
0.000000000000000
11
-61.4387470997679
21
15.9536833174609
31
0.000000000000000
  0
LINE
  5
F105EC
330
F105ED
100
AcDbEntity
8
Geo
100
AcDbLine
10
-61.4387470997679
20
15.9536833174609
30
0.000000000000000
11
-61.3387470997679
21
15.8902100677342
31
0.000000000000000
  0
LINE
  5
F105EE
330
F105EF
100
AcDbEntity
8
Geo
100
AcDbLine
10
-61.3387470997679
20
15.8902100677342
30
0.000000000000000
11
-61.2387470997679
21
15.8213866818354
31
0.000000000000000
  0
LINE
  5
F105F0
330
F105F1
100
AcDbEntity
8
Geo
100
AcDbLine
10
-61.2387470997679
20
15.8213866818354
30
0.000000000000000
11
-61.1387470997679
21
15.7473151077490
31
0.000000000000000
  0
LINE
  5
F105F2
330
F105F3
100
AcDbEntity
8
Geo
100
AcDbLine
10
-61.1387470997679
20
15.7473151077490
30
0.000000000000000
11
-61.0387470997679
21
15.6681050675933
31
0.000000000000000
  0
LINE
  5
F105F4
330
F105F5
100
AcDbEntity
8
Geo
100
AcDbLine
10
-61.0387470997679
20
15.6681050675933
30
0.000000000000000
11
-60.9387470997679
21
15.5838738950893
31
0.000000000000000
  0
LINE
  5
F105F6
330
F105F7
100
AcDbEntity
8
Geo
100
AcDbLine
10
-60.9387470997679
20
15.5838738950893
30
0.000000000000000
11
-60.8387470997679
21
15.4947463617541
31
0.000000000000000
  0
LINE
  5
F105F8
330
F105F9
100
AcDbEntity
8
Geo
100
AcDbLine
10
-60.8387470997679
20
15.4947463617541
30
0.000000000000000
11
-60.7387470997679
21
15.4008544920774
31
0.000000000000000
  0
LINE
  5
F105FA
330
F105FB
100
AcDbEntity
8
Geo
100
AcDbLine
10
-60.7387470997679
20
15.4008544920774
30
0.000000000000000
11
-60.6387470997679
21
15.3023373679536
31
0.000000000000000
  0
LINE
  5
F105FC
330
F105FD
100
AcDbEntity
8
Geo
100
AcDbLine
10
-60.6387470997679
20
15.3023373679536
30
0.000000000000000
11
-60.5387470997679
21
15.1993409226597
31
0.000000000000000
  0
LINE
  5
F105FE
330
F105FF
100
AcDbEntity
8
Geo
100
AcDbLine
10
-60.5387470997679
20
15.1993409226597
30
0.000000000000000
11
-60.4387470997679
21
15.0920177246851
31
0.000000000000000
  0
LINE
  5
F10600
330
F10601
100
AcDbEntity
8
Geo
100
AcDbLine
10
-60.4387470997679
20
15.0920177246851
30
0.000000000000000
11
-60.3387470997679
21
14.9805267517319
31
0.000000000000000
  0
LINE
  5
F10602
330
F10603
100
AcDbEntity
8
Geo
100
AcDbLine
10
-60.3387470997679
20
14.9805267517319
30
0.000000000000000
11
-60.2387470997679
21
14.8650331552212
31
0.000000000000000
  0
LINE
  5
F10604
330
F10605
100
AcDbEntity
8
Geo
100
AcDbLine
10
-60.2387470997679
20
14.8650331552212
30
0.000000000000000
11
-60.1387470997679
21
14.7457080156550
31
0.000000000000000
  0
LINE
  5
F10606
330
F10607
100
AcDbEntity
8
Geo
100
AcDbLine
10
-60.1387470997679
20
14.7457080156550
30
0.000000000000000
11
-60.0387470997679
21
14.6227280891943
31
0.000000000000000
  0
LINE
  5
F10608
330
F10609
100
AcDbEntity
8
Geo
100
AcDbLine
10
-60.0387470997679
20
14.6227280891943
30
0.000000000000000
11
-59.9387470997679
21
14.4962755458310
31
0.000000000000000
  0
LINE
  5
F1060A
330
F1060B
100
AcDbEntity
8
Geo
100
AcDbLine
10
-59.9387470997679
20
14.4962755458310
30
0.000000000000000
11
-59.8387470997679
21
14.3665376995396
31
0.000000000000000
  0
LINE
  5
F1060C
330
F1060D
100
AcDbEntity
8
Geo
100
AcDbLine
10
-59.8387470997679
20
14.3665376995396
30
0.000000000000000
11
-59.7387470997679
21
14.2337067308089
31
0.000000000000000
  0
LINE
  5
F1060E
330
F1060F
100
AcDbEntity
8
Geo
100
AcDbLine
10
-59.7387470997679
20
14.2337067308089
30
0.000000000000000
11
-59.6387470997679
21
14.0979794019660
31
0.000000000000000
  0
LINE
  5
F10610
330
F10611
100
AcDbEntity
8
Geo
100
AcDbLine
10
-59.6387470997679
20
14.0979794019660
30
0.000000000000000
11
-59.5387470997679
21
13.9595567657118
31
0.000000000000000
  0
LINE
  5
F10612
330
F10613
100
AcDbEntity
8
Geo
100
AcDbLine
10
-59.5387470997679
20
13.9595567657118
30
0.000000000000000
11
-59.4387470997679
21
13.8186438673025
31
0.000000000000000
  0
LINE
  5
F10614
330
F10615
100
AcDbEntity
8
Geo
100
AcDbLine
10
-59.4387470997679
20
13.8186438673025
30
0.000000000000000
11
-59.3387470997679
21
13.6754494408159
31
0.000000000000000
  0
LINE
  5
F10616
330
F10617
100
AcDbEntity
8
Geo
100
AcDbLine
10
-59.3387470997679
20
13.6754494408159
30
0.000000000000000
11
-59.2387470997679
21
13.5301855999545
31
0.000000000000000
  0
LINE
  5
F10618
330
F10619
100
AcDbEntity
8
Geo
100
AcDbLine
10
-59.2387470997679
20
13.5301855999545
30
0.000000000000000
11
-59.1387470997679
21
13.3830675238411
31
0.000000000000000
  0
LINE
  5
F1061A
330
F1061B
100
AcDbEntity
8
Geo
100
AcDbLine
10
-59.1387470997679
20
13.3830675238411
30
0.000000000000000
11
-59.0387470997679
21
13.2343131382746
31
0.000000000000000
  0
LINE
  5
F1061C
330
F1061D
100
AcDbEntity
8
Geo
100
AcDbLine
10
-59.0387470997679
20
13.2343131382746
30
0.000000000000000
11
-58.9387470997679
21
13.0841427929168
31
0.000000000000000
  0
LINE
  5
F1061E
330
F1061F
100
AcDbEntity
8
Geo
100
AcDbLine
10
-58.9387470997679
20
13.0841427929168
30
0.000000000000000
11
-58.8387470997679
21
12.9327789348888
31
0.000000000000000
  0
LINE
  5
F10620
330
F10621
100
AcDbEntity
8
Geo
100
AcDbLine
10
-58.8387470997679
20
12.9327789348888
30
0.000000000000000
11
-58.7387470997679
21
12.7804457792603
31
0.000000000000000
  0
LINE
  5
F10622
330
F10623
100
AcDbEntity
8
Geo
100
AcDbLine
10
-58.7387470997679
20
12.7804457792603
30
0.000000000000000
11
-58.6387470997679
21
12.6273689769203
31
0.000000000000000
  0
LINE
  5
F10624
330
F10625
100
AcDbEntity
8
Geo
100
AcDbLine
10
-58.6387470997679
20
12.6273689769203
30
0.000000000000000
11
-58.5387470997679
21
12.4737752803203
31
0.000000000000000
  0
LINE
  5
F10626
330
F10627
100
AcDbEntity
8
Geo
100
AcDbLine
10
-58.5387470997679
20
12.4737752803203
30
0.000000000000000
11
-58.4387470997679
21
12.3198922075869
31
0.000000000000000
  0
LINE
  5
F10628
330
F10629
100
AcDbEntity
8
Geo
100
AcDbLine
10
-58.4387470997679
20
12.3198922075869
30
0.000000000000000
11
-58.3387470997679
21
12.1659477054990
31
0.000000000000000
  0
LINE
  5
F1062A
330
F1062B
100
AcDbEntity
8
Geo
100
AcDbLine
10
-58.3387470997679
20
12.1659477054990
30
0.000000000000000
11
-58.2387470997679
21
12.0121698118306
31
0.000000000000000
  0
LINE
  5
F1062C
330
F1062D
100
AcDbEntity
8
Geo
100
AcDbLine
10
-58.2387470997679
20
12.0121698118306
30
0.000000000000000
11
-58.1387470997679
21
11.8587863175592
31
0.000000000000000
  0
LINE
  5
F1062E
330
F1062F
100
AcDbEntity
8
Geo
100
AcDbLine
10
-58.1387470997679
20
11.8587863175592
30
0.000000000000000
11
-58.0387470997679
21
11.7060244294386
31
0.000000000000000
  0
LINE
  5
F10630
330
F10631
100
AcDbEntity
8
Geo
100
AcDbLine
10
-58.0387470997679
20
11.7060244294386
30
0.000000000000000
11
-57.9387470997679
21
11.5541104334388
31
0.000000000000000
  0
LINE
  5
F10632
330
F10633
100
AcDbEntity
8
Geo
100
AcDbLine
10
-57.9387470997679
20
11.5541104334388
30
0.000000000000000
11
-57.8387470997679
21
11.4032693595478
31
0.000000000000000
  0
LINE
  5
F10634
330
F10635
100
AcDbEntity
8
Geo
100
AcDbLine
10
-57.8387470997679
20
11.4032693595478
30
0.000000000000000
11
-57.7387470997679
21
11.2537246484361
31
0.000000000000000
  0
LINE
  5
F10636
330
F10637
100
AcDbEntity
8
Geo
100
AcDbLine
10
-57.7387470997679
20
11.2537246484361
30
0.000000000000000
11
-57.6387470997679
21
11.1056978204737
31
0.000000000000000
  0
LINE
  5
F10638
330
F10639
100
AcDbEntity
8
Geo
100
AcDbLine
10
-57.6387470997679
20
11.1056978204737
30
0.000000000000000
11
-57.5387470997679
21
10.9594081475922
31
0.000000000000000
  0
LINE
  5
F1063A
330
F1063B
100
AcDbEntity
8
Geo
100
AcDbLine
10
-57.5387470997679
20
10.9594081475922
30
0.000000000000000
11
-57.4387470997679
21
10.8150723284780
31
0.000000000000000
  0
LINE
  5
F1063C
330
F1063D
100
AcDbEntity
8
Geo
100
AcDbLine
10
-57.4387470997679
20
10.8150723284780
30
0.000000000000000
11
-57.3387470997679
21
10.6729041675769
31
0.000000000000000
  0
LINE
  5
F1063E
330
F1063F
100
AcDbEntity
8
Geo
100
AcDbLine
10
-57.3387470997679
20
10.6729041675769
30
0.000000000000000
11
-57.2387470997679
21
10.5331142583851
31
0.000000000000000
  0
LINE
  5
F10640
330
F10641
100
AcDbEntity
8
Geo
100
AcDbLine
10
-57.2387470997679
20
10.5331142583851
30
0.000000000000000
11
-57.1387470997679
21
10.3959096714985
31
0.000000000000000
  0
LINE
  5
F10642
330
F10643
100
AcDbEntity
8
Geo
100
AcDbLine
10
-57.1387470997679
20
10.3959096714985
30
0.000000000000000
11
-57.0387470997679
21
10.2614936478782
31
0.000000000000000
  0
LINE
  5
F10644
330
F10645
100
AcDbEntity
8
Geo
100
AcDbLine
10
-57.0387470997679
20
10.2614936478782
30
0.000000000000000
11
-56.9387470997679
21
10.1300652977907
31
0.000000000000000
  0
LINE
  5
F10646
330
F10647
100
AcDbEntity
8
Geo
100
AcDbLine
10
-56.9387470997679
20
10.1300652977907
30
0.000000000000000
11
-56.8387470997679
21
10.0018193058660
31
0.000000000000000
  0
LINE
  5
F10648
330
F10649
100
AcDbEntity
8
Geo
100
AcDbLine
10
-56.8387470997679
20
10.0018193058660
30
0.000000000000000
11
-56.7387470997679
21
9.87694564271115
31
0.000000000000000
  0
LINE
  5
F1064A
330
F1064B
100
AcDbEntity
8
Geo
100
AcDbLine
10
-56.7387470997679
20
9.87694564271115
30
0.000000000000000
11
-56.6387470997679
21
9.75562928350761
31
0.000000000000000
  0
LINE
  5
F1064C
330
F1064D
100
AcDbEntity
8
Geo
100
AcDbLine
10
-56.6387470997679
20
9.75562928350761
30
0.000000000000000
11
-56.5387470997679
21
9.63804993400737
31
0.000000000000000
  0
LINE
  5
F1064E
330
F1064F
100
AcDbEntity
8
Geo
100
AcDbLine
10
-56.5387470997679
20
9.63804993400737
30
0.000000000000000
11
-56.4387470997679
21
9.52438176433525
31
0.000000000000000
  0
LINE
  5
F10650
330
F10651
100
AcDbEntity
8
Geo
100
AcDbLine
10
-56.4387470997679
20
9.52438176433525
30
0.000000000000000
11
-56.3387470997679
21
9.41479315099089
31
0.000000000000000
  0
LINE
  5
F10652
330
F10653
100
AcDbEntity
8
Geo
100
AcDbLine
10
-56.3387470997679
20
9.41479315099089
30
0.000000000000000
11
-56.2387470997679
21
9.30944642743287
31
0.000000000000000
  0
LINE
  5
F10654
330
F10655
100
AcDbEntity
8
Geo
100
AcDbLine
10
-56.2387470997679
20
9.30944642743287
30
0.000000000000000
11
-56.1387470997679
21
9.20849764361445
31
0.000000000000000
  0
LINE
  5
F10656
330
F10657
100
AcDbEntity
8
Geo
100
AcDbLine
10
-56.1387470997679
20
9.20849764361445
30
0.000000000000000
11
-56.0387470997679
21
9.11209633482691
31
0.000000000000000
  0
LINE
  5
F10658
330
F10659
100
AcDbEntity
8
Geo
100
AcDbLine
10
-56.0387470997679
20
9.11209633482691
30
0.000000000000000
11
-55.9387470997679
21
9.02038530019317
31
0.000000000000000
  0
LINE
  5
F1065A
330
F1065B
100
AcDbEntity
8
Geo
100
AcDbLine
10
-55.9387470997679
20
9.02038530019317
30
0.000000000000000
11
-55.8387470997679
21
8.93350039113968
31
0.000000000000000
  0
LINE
  5
F1065C
330
F1065D
100
AcDbEntity
8
Geo
100
AcDbLine
10
-55.8387470997679
20
8.93350039113968
30
0.000000000000000
11
-55.7387470997679
21
8.85157031015984
31
0.000000000000000
  0
LINE
  5
F1065E
330
F1065F
100
AcDbEntity
8
Geo
100
AcDbLine
10
-55.7387470997679
20
8.85157031015984
30
0.000000000000000
11
-55.6387470997679
21
8.77471642016722
31
0.000000000000000
  0
LINE
  5
F10660
330
F10661
100
AcDbEntity
8
Geo
100
AcDbLine
10
-55.6387470997679
20
8.77471642016722
30
0.000000000000000
11
-55.5387470997679
21
8.70305256472081
31
0.000000000000000
  0
LINE
  5
F10662
330
F10663
100
AcDbEntity
8
Geo
100
AcDbLine
10
-55.5387470997679
20
8.70305256472081
30
0.000000000000000
11
-55.4387470997679
21
8.63668489938876
31
0.000000000000000
  0
LINE
  5
F10664
330
F10665
100
AcDbEntity
8
Geo
100
AcDbLine
10
-55.4387470997679
20
8.63668489938876
30
0.000000000000000
11
-55.3387470997679
21
8.57571173450025
31
0.000000000000000
  0
LINE
  5
F10666
330
F10667
100
AcDbEntity
8
Geo
100
AcDbLine
10
-55.3387470997679
20
8.57571173450025
30
0.000000000000000
11
-55.2387470997679
21
8.52022338951855
31
0.000000000000000
  0
LINE
  5
F10668
330
F10669
100
AcDbEntity
8
Geo
100
AcDbLine
10
-55.2387470997679
20
8.52022338951855
30
0.000000000000000
11
-55.1387470997679
21
8.47030205925093
31
0.000000000000000
  0
LINE
  5
F1066A
330
F1066B
100
AcDbEntity
8
Geo
100
AcDbLine
10
-55.1387470997679
20
8.47030205925093
30
0.000000000000000
11
-55.0387470997679
21
8.42602169209360
31
0.000000000000000
  0
LINE
  5
F1066C
330
F1066D
100
AcDbEntity
8
Geo
100
AcDbLine
10
-55.0387470997679
20
8.42602169209360
30
0.000000000000000
11
-54.9387470997679
21
8.38744788049207
31
0.000000000000000
  0
LINE
  5
F1066E
330
F1066F
100
AcDbEntity
8
Geo
100
AcDbLine
10
-54.9387470997679
20
8.38744788049207
30
0.000000000000000
11
-54.8387470997679
21
8.35463776377914
31
0.000000000000000
  0
LINE
  5
F10670
330
F10671
100
AcDbEntity
8
Geo
100
AcDbLine
10
-54.8387470997679
20
8.35463776377914
30
0.000000000000000
11
-54.7387470997679
21
8.32763994353448
31
0.000000000000000
  0
LINE
  5
F10672
330
F10673
100
AcDbEntity
8
Geo
100
AcDbLine
10
-54.7387470997679
20
8.32763994353448
30
0.000000000000000
11
-54.6387470997679
21
8.30649441159119
31
0.000000000000000
  0
LINE
  5
F10674
330
F10675
100
AcDbEntity
8
Geo
100
AcDbLine
10
-54.6387470997679
20
8.30649441159119
30
0.000000000000000
11
-54.5387470997679
21
8.29123249079597
31
0.000000000000000
  0
LINE
  5
F10676
330
F10677
100
AcDbEntity
8
Geo
100
AcDbLine
10
-54.5387470997679
20
8.29123249079597
30
0.000000000000000
11
-54.4387470997679
21
8.28187678861058
31
0.000000000000000
  0
LINE
  5
F10678
330
F10679
100
AcDbEntity
8
Geo
100
AcDbLine
10
-54.4387470997679
20
8.28187678861058
30
0.000000000000000
11
-54.3387470997679
21
8.27844116362350
31
0.000000000000000
  0
LINE
  5
F1067A
330
F1067B
100
AcDbEntity
8
Geo
100
AcDbLine
10
-65.8387470997679
20
16.2764760995826
30
0.000000000000000
11
-65.7387470997679
21
16.2783158574488
31
0.000000000000000
  0
LINE
  5
F1067C
330
F1067D
100
AcDbEntity
8
Geo
100
AcDbLine
10
-65.7387470997679
20
16.2783158574488
30
0.000000000000000
11
-65.6387470997679
21
16.2742305785830
31
0.000000000000000
  0
LINE
  5
F1067E
330
F1067F
100
AcDbEntity
8
Geo
100
AcDbLine
10
-65.6387470997679
20
16.2742305785830
30
0.000000000000000
11
-65.5387470997679
21
16.2642263145033
31
0.000000000000000
  0
LINE
  5
F10680
330
F10681
100
AcDbEntity
8
Geo
100
AcDbLine
10
-65.5387470997679
20
16.2642263145033
30
0.000000000000000
11
-65.4387470997679
21
16.2483178845117
31
0.000000000000000
  0
LINE
  5
F10682
330
F10683
100
AcDbEntity
8
Geo
100
AcDbLine
10
-65.4387470997679
20
16.2483178845117
30
0.000000000000000
11
-65.3387470997679
21
16.2265288537433
31
0.000000000000000
  0
LINE
  5
F10684
330
F10685
100
AcDbEntity
8
Geo
100
AcDbLine
10
-65.3387470997679
20
16.2265288537433
30
0.000000000000000
11
-65.2387470997679
21
16.1988914982587
31
0.000000000000000
  0
LINE
  5
F10686
330
F10687
100
AcDbEntity
8
Geo
100
AcDbLine
10
-65.2387470997679
20
16.1988914982587
30
0.000000000000000
11
-65.1387470997679
21
16.1654467572336
31
0.000000000000000
  0
LINE
  5
F10688
330
F10689
100
AcDbEntity
8
Geo
100
AcDbLine
10
-65.1387470997679
20
16.1654467572336
30
0.000000000000000
11
-65.0387470997679
21
16.1262441723158
31
0.000000000000000
  0
LINE
  5
F1068A
330
F1068B
100
AcDbEntity
8
Geo
100
AcDbLine
10
-65.0387470997679
20
16.1262441723158
30
0.000000000000000
11
-64.9387470997679
21
16.0813418142390
31
0.000000000000000
  0
LINE
  5
F1068C
330
F1068D
100
AcDbEntity
8
Geo
100
AcDbLine
10
-64.9387470997679
20
16.0813418142390
30
0.000000000000000
11
-64.8387470997679
21
16.0308061968032
31
0.000000000000000
  0
LINE
  5
F1068E
330
F1068F
100
AcDbEntity
8
Geo
100
AcDbLine
10
-64.8387470997679
20
16.0308061968032
30
0.000000000000000
11
-64.7387470997679
21
15.9747121783472
31
0.000000000000000
  0
LINE
  5
F10690
330
F10691
100
AcDbEntity
8
Geo
100
AcDbLine
10
-64.7387470997679
20
15.9747121783472
30
0.000000000000000
11
-64.6387470997679
21
15.9131428508615
31
0.000000000000000
  0
LINE
  5
F10692
330
F10693
100
AcDbEntity
8
Geo
100
AcDbLine
10
-64.6387470997679
20
15.9131428508615
30
0.000000000000000
11
-64.5387470997679
21
15.8461894169043
31
0.000000000000000
  0
LINE
  5
F10694
330
F10695
100
AcDbEntity
8
Geo
100
AcDbLine
10
-64.5387470997679
20
15.8461894169043
30
0.000000000000000
11
-64.4387470997679
21
15.7739510545029
31
0.000000000000000
  0
LINE
  5
F10696
330
F10697
100
AcDbEntity
8
Geo
100
AcDbLine
10
-64.4387470997679
20
15.7739510545029
30
0.000000000000000
11
-64.3387470997679
21
15.6965347702419
31
0.000000000000000
  0
LINE
  5
F10698
330
F10699
100
AcDbEntity
8
Geo
100
AcDbLine
10
-64.3387470997679
20
15.6965347702419
30
0.000000000000000
11
-64.2387470997679
21
15.6140552407540
31
0.000000000000000
  0
LINE
  5
F1069A
330
F1069B
100
AcDbEntity
8
Geo
100
AcDbLine
10
-64.2387470997679
20
15.6140552407540
30
0.000000000000000
11
-64.1387470997679
21
15.5266346428503
31
0.000000000000000
  0
LINE
  5
F1069C
330
F1069D
100
AcDbEntity
8
Geo
100
AcDbLine
10
-64.1387470997679
20
15.5266346428503
30
0.000000000000000
11
-64.0387470997679
21
15.4344024725391
31
0.000000000000000
  0
LINE
  5
F1069E
330
F1069F
100
AcDbEntity
8
Geo
100
AcDbLine
10
-64.0387470997679
20
15.4344024725391
30
0.000000000000000
11
-63.9387470997679
21
15.3374953532044
31
0.000000000000000
  0
LINE
  5
F106A0
330
F106A1
100
AcDbEntity
8
Geo
100
AcDbLine
10
-63.9387470997679
20
15.3374953532044
30
0.000000000000000
11
-63.8387470997679
21
15.2360568332258
31
0.000000000000000
  0
LINE
  5
F106A2
330
F106A3
100
AcDbEntity
8
Geo
100
AcDbLine
10
-63.8387470997679
20
15.2360568332258
30
0.000000000000000
11
-63.7387470997679
21
15.1302371733398
31
0.000000000000000
  0
LINE
  5
F106A4
330
F106A5
100
AcDbEntity
8
Geo
100
AcDbLine
10
-63.7387470997679
20
15.1302371733398
30
0.000000000000000
11
-63.6387470997679
21
15.0201931240598
31
0.000000000000000
  0
LINE
  5
F106A6
330
F106A7
100
AcDbEntity
8
Geo
100
AcDbLine
10
-63.6387470997679
20
15.0201931240598
30
0.000000000000000
11
-63.5387470997679
21
14.9060876934808
31
0.000000000000000
  0
LINE
  5
F106A8
330
F106A9
100
AcDbEntity
8
Geo
100
AcDbLine
10
-63.5387470997679
20
14.9060876934808
30
0.000000000000000
11
-63.4387470997679
21
14.7880899058165
31
0.000000000000000
  0
LINE
  5
F106AA
330
F106AB
100
AcDbEntity
8
Geo
100
AcDbLine
10
-63.4387470997679
20
14.7880899058165
30
0.000000000000000
11
-63.3387470997679
21
14.6663745510236
31
0.000000000000000
  0
LINE
  5
F106AC
330
F106AD
100
AcDbEntity
8
Geo
100
AcDbLine
10
-63.3387470997679
20
14.6663745510236
30
0.000000000000000
11
-63.2387470997679
21
14.5411219258857
31
0.000000000000000
  0
LINE
  5
F106AE
330
F106AF
100
AcDbEntity
8
Geo
100
AcDbLine
10
-63.2387470997679
20
14.5411219258857
30
0.000000000000000
11
-63.1387470997679
21
14.4125175669400
31
0.000000000000000
  0
LINE
  5
F106B0
330
F106B1
100
AcDbEntity
8
Geo
100
AcDbLine
10
-63.1387470997679
20
14.4125175669400
30
0.000000000000000
11
-63.0387470997679
21
14.2807519756423
31
0.000000000000000
  0
LINE
  5
F106B2
330
F106B3
100
AcDbEntity
8
Geo
100
AcDbLine
10
-63.0387470997679
20
14.2807519756423
30
0.000000000000000
11
-62.9387470997679
21
14.1460203361774
31
0.000000000000000
  0
LINE
  5
F106B4
330
F106B5
100
AcDbEntity
8
Geo
100
AcDbLine
10
-62.9387470997679
20
14.1460203361774
30
0.000000000000000
11
-62.8387470997679
21
14.0085222263330
31
0.000000000000000
  0
LINE
  5
F106B6
330
F106B7
100
AcDbEntity
8
Geo
100
AcDbLine
10
-62.8387470997679
20
14.0085222263330
30
0.000000000000000
11
-62.7387470997679
21
13.8684613218657
31
0.000000000000000
  0
LINE
  5
F106B8
330
F106B9
100
AcDbEntity
8
Geo
100
AcDbLine
10
-62.7387470997679
20
13.8684613218657
30
0.000000000000000
11
-62.6387470997679
21
13.7260450947959
31
0.000000000000000
  0
LINE
  5
F106BA
330
F106BB
100
AcDbEntity
8
Geo
100
AcDbLine
10
-62.6387470997679
20
13.7260450947959
30
0.000000000000000
11
-62.5387470997679
21
13.5814845060802
31
0.000000000000000
  0
LINE
  5
F106BC
330
F106BD
100
AcDbEntity
8
Geo
100
AcDbLine
10
-62.5387470997679
20
13.5814845060802
30
0.000000000000000
11
-62.4387470997679
21
13.4349936931151
31
0.000000000000000
  0
LINE
  5
F106BE
330
F106BF
100
AcDbEntity
8
Geo
100
AcDbLine
10
-62.4387470997679
20
13.4349936931151
30
0.000000000000000
11
-62.3387470997679
21
13.2867896525354
31
0.000000000000000
  0
LINE
  5
F106C0
330
F106C1
100
AcDbEntity
8
Geo
100
AcDbLine
10
-62.3387470997679
20
13.2867896525354
30
0.000000000000000
11
-62.2387470997679
21
13.1370919187779
31
0.000000000000000
  0
LINE
  5
F106C2
330
F106C3
100
AcDbEntity
8
Geo
100
AcDbLine
10
-62.2387470997679
20
13.1370919187779
30
0.000000000000000
11
-62.1387470997679
21
12.9861222388846
31
0.000000000000000
  0
LINE
  5
F106C4
330
F106C5
100
AcDbEntity
8
Geo
100
AcDbLine
10
-62.1387470997679
20
12.9861222388846
30
0.000000000000000
11
-62.0387470997679
21
12.8341042440297
31
0.000000000000000
  0
LINE
  5
F106C6
330
F106C7
100
AcDbEntity
8
Geo
100
AcDbLine
10
-62.0387470997679
20
12.8341042440297
30
0.000000000000000
11
-61.9387470997679
21
12.6812631182550
31
0.000000000000000
  0
LINE
  5
F106C8
330
F106C9
100
AcDbEntity
8
Geo
100
AcDbLine
10
-61.9387470997679
20
12.6812631182550
30
0.000000000000000
11
-61.8387470997679
21
12.5278252649047
31
0.000000000000000
  0
LINE
  5
F106CA
330
F106CB
100
AcDbEntity
8
Geo
100
AcDbLine
10
-61.8387470997679
20
12.5278252649047
30
0.000000000000000
11
-61.7387470997679
21
12.3740179712549
31
0.000000000000000
  0
LINE
  5
F106CC
330
F106CD
100
AcDbEntity
8
Geo
100
AcDbLine
10
-61.7387470997679
20
12.3740179712549
30
0.000000000000000
11
-61.6387470997679
21
12.2200690718331
31
0.000000000000000
  0
LINE
  5
F106CE
330
F106CF
100
AcDbEntity
8
Geo
100
AcDbLine
10
-61.6387470997679
20
12.2200690718331
30
0.000000000000000
11
-61.5387470997679
21
12.0662066109272
31
0.000000000000000
  0
LINE
  5
F106D0
330
F106D1
100
AcDbEntity
8
Geo
100
AcDbLine
10
-61.5387470997679
20
12.0662066109272
30
0.000000000000000
11
-61.4387470997679
21
11.9126585047838
31
0.000000000000000
  0
LINE
  5
F106D2
330
F106D3
100
AcDbEntity
8
Geo
100
AcDbLine
10
-61.4387470997679
20
11.9126585047838
30
0.000000000000000
11
-61.3387470997679
21
11.7596522039962
31
0.000000000000000
  0
LINE
  5
F106D4
330
F106D5
100
AcDbEntity
8
Geo
100
AcDbLine
10
-61.3387470997679
20
11.7596522039962
30
0.000000000000000
11
-61.2387470997679
21
11.6074143565823
31
0.000000000000000
  0
LINE
  5
F106D6
330
F106D7
100
AcDbEntity
8
Geo
100
AcDbLine
10
-61.2387470997679
20
11.6074143565823
30
0.000000000000000
11
-61.1387470997679
21
11.4561704722511
31
0.000000000000000
  0
LINE
  5
F106D8
330
F106D9
100
AcDbEntity
8
Geo
100
AcDbLine
10
-61.1387470997679
20
11.4561704722511
30
0.000000000000000
11
-61.0387470997679
21
11.3061445883555
31
0.000000000000000
  0
LINE
  5
F106DA
330
F106DB
100
AcDbEntity
8
Geo
100
AcDbLine
10
-61.0387470997679
20
11.3061445883555
30
0.000000000000000
11
-60.9387470997679
21
11.1575589380259
31
0.000000000000000
  0
LINE
  5
F106DC
330
F106DD
100
AcDbEntity
8
Geo
100
AcDbLine
10
-60.9387470997679
20
11.1575589380259
30
0.000000000000000
11
-60.8387470997679
21
11.0106336209768
31
0.000000000000000
  0
LINE
  5
F106DE
330
F106DF
100
AcDbEntity
8
Geo
100
AcDbLine
10
-60.8387470997679
20
11.0106336209768
30
0.000000000000000
11
-60.7387470997679
21
10.8655862774736
31
0.000000000000000
  0
LINE
  5
F106E0
330
F106E1
100
AcDbEntity
8
Geo
100
AcDbLine
10
-60.7387470997679
20
10.8655862774736
30
0.000000000000000
11
-60.6387470997679
21
10.7226317659418
31
0.000000000000000
  0
LINE
  5
F106E2
330
F106E3
100
AcDbEntity
8
Geo
100
AcDbLine
10
-60.6387470997679
20
10.7226317659418
30
0.000000000000000
11
-60.5387470997679
21
10.5819818446980
31
0.000000000000000
  0
LINE
  5
F106E4
330
F106E5
100
AcDbEntity
8
Geo
100
AcDbLine
10
-60.5387470997679
20
10.5819818446980
30
0.000000000000000
11
-60.4387470997679
21
10.4438448582726
31
0.000000000000000
  0
LINE
  5
F106E6
330
F106E7
100
AcDbEntity
8
Geo
100
AcDbLine
10
-60.4387470997679
20
10.4438448582726
30
0.000000000000000
11
-60.3387470997679
21
10.3084254287888
31
0.000000000000000
  0
LINE
  5
F106E8
330
F106E9
100
AcDbEntity
8
Geo
100
AcDbLine
10
-60.3387470997679
20
10.3084254287888
30
0.000000000000000
11
-60.2387470997679
21
10.1759241528569
31
0.000000000000000
  0
LINE
  5
F106EA
330
F106EB
100
AcDbEntity
8
Geo
100
AcDbLine
10
-60.2387470997679
20
10.1759241528569
30
0.000000000000000
11
-60.1387470997679
21
10.0465373044303
31
0.000000000000000
  0
LINE
  5
F106EC
330
F106ED
100
AcDbEntity
8
Geo
100
AcDbLine
10
-60.1387470997679
20
10.0465373044303
30
0.000000000000000
11
-60.0387470997679
21
9.92045654406532
31
0.000000000000000
  0
LINE
  5
F106EE
330
F106EF
100
AcDbEntity
8
Geo
100
AcDbLine
10
-60.0387470997679
20
9.92045654406532
30
0.000000000000000
11
-59.9387470997679
21
9.79786863501474
31
0.000000000000000
  0
LINE
  5
F106F0
330
F106F1
100
AcDbEntity
8
Geo
100
AcDbLine
10
-59.9387470997679
20
9.79786863501474
30
0.000000000000000
11
-59.8387470997679
21
9.67895516657557
31
0.000000000000000
  0
LINE
  5
F106F2
330
F106F3
100
AcDbEntity
8
Geo
100
AcDbLine
10
-59.8387470997679
20
9.67895516657557
30
0.000000000000000
11
-59.7387470997679
21
9.56389228510112
31
0.000000000000000
  0
LINE
  5
F106F4
330
F106F5
100
AcDbEntity
8
Geo
100
AcDbLine
10
-59.7387470997679
20
9.56389228510112
30
0.000000000000000
11
-59.6387470997679
21
9.45285043307567
31
0.000000000000000
  0
LINE
  5
F106F6
330
F106F7
100
AcDbEntity
8
Geo
100
AcDbLine
10
-59.6387470997679
20
9.45285043307567
30
0.000000000000000
11
-59.5387470997679
21
9.34599409663822
31
0.000000000000000
  0
LINE
  5
F106F8
330
F106F9
100
AcDbEntity
8
Geo
100
AcDbLine
10
-59.5387470997679
20
9.34599409663822
30
0.000000000000000
11
-59.4387470997679
21
9.24348156192944
31
0.000000000000000
  0
LINE
  5
F106FA
330
F106FB
100
AcDbEntity
8
Geo
100
AcDbLine
10
-59.4387470997679
20
9.24348156192944
30
0.000000000000000
11
-59.3387470997679
21
9.14546468062261
31
0.000000000000000
  0
LINE
  5
F106FC
330
F106FD
100
AcDbEntity
8
Geo
100
AcDbLine
10
-59.3387470997679
20
9.14546468062261
30
0.000000000000000
11
-59.2387470997679
21
9.05208864498596
31
0.000000000000000
  0
LINE
  5
F106FE
330
F106FF
100
AcDbEntity
8
Geo
100
AcDbLine
10
-59.2387470997679
20
9.05208864498596
30
0.000000000000000
11
-59.1387470997679
21
8.96349177280956
31
0.000000000000000
  0
LINE
  5
F10700
330
F10701
100
AcDbEntity
8
Geo
100
AcDbLine
10
-59.1387470997679
20
8.96349177280956
30
0.000000000000000
11
-59.0387470997679
21
8.87980530251539
31
0.000000000000000
  0
LINE
  5
F10702
330
F10703
100
AcDbEntity
8
Geo
100
AcDbLine
10
-59.0387470997679
20
8.87980530251539
30
0.000000000000000
11
-58.9387470997679
21
8.80115319875403
31
0.000000000000000
  0
LINE
  5
F10704
330
F10705
100
AcDbEntity
8
Geo
100
AcDbLine
10
-58.9387470997679
20
8.80115319875403
30
0.000000000000000
11
-58.8387470997679
21
8.72765196877599
31
0.000000000000000
  0
LINE
  5
F10706
330
F10707
100
AcDbEntity
8
Geo
100
AcDbLine
10
-58.8387470997679
20
8.72765196877599
30
0.000000000000000
11
-58.7387470997679
21
8.65941048984974
31
0.000000000000000
  0
LINE
  5
F10708
330
F10709
100
AcDbEntity
8
Geo
100
AcDbLine
10
-58.7387470997679
20
8.65941048984974
30
0.000000000000000
11
-58.6387470997679
21
8.59652984798188
31
0.000000000000000
  0
LINE
  5
F1070A
330
F1070B
100
AcDbEntity
8
Geo
100
AcDbLine
10
-58.6387470997679
20
8.59652984798188
30
0.000000000000000
11
-58.5387470997679
21
8.53910318817865
31
0.000000000000000
  0
LINE
  5
F1070C
330
F1070D
100
AcDbEntity
8
Geo
100
AcDbLine
10
-58.5387470997679
20
8.53910318817865
30
0.000000000000000
11
-58.4387470997679
21
8.48721557647033
31
0.000000000000000
  0
LINE
  5
F1070E
330
F1070F
100
AcDbEntity
8
Geo
100
AcDbLine
10
-58.4387470997679
20
8.48721557647033
30
0.000000000000000
11
-58.3387470997679
21
8.44094387390308
31
0.000000000000000
  0
LINE
  5
F10710
330
F10711
100
AcDbEntity
8
Geo
100
AcDbLine
10
-58.3387470997679
20
8.44094387390308
30
0.000000000000000
11
-58.2387470997679
21
8.40035662268472
31
0.000000000000000
  0
LINE
  5
F10712
330
F10713
100
AcDbEntity
8
Geo
100
AcDbLine
10
-58.2387470997679
20
8.40035662268472
30
0.000000000000000
11
-58.1387470997679
21
8.36551394465334
31
0.000000000000000
  0
LINE
  5
F10714
330
F10715
100
AcDbEntity
8
Geo
100
AcDbLine
10
-58.1387470997679
20
8.36551394465334
30
0.000000000000000
11
-58.0387470997679
21
8.33646745221881
31
0.000000000000000
  0
LINE
  5
F10716
330
F10717
100
AcDbEntity
8
Geo
100
AcDbLine
10
-58.0387470997679
20
8.33646745221881
30
0.000000000000000
11
-57.9387470997679
21
8.31326017190948
31
0.000000000000000
  0
LINE
  5
F10718
330
F10719
100
AcDbEntity
8
Geo
100
AcDbLine
10
-57.9387470997679
20
8.31326017190948
30
0.000000000000000
11
-57.8387470997679
21
8.29592648063698
31
0.000000000000000
  0
LINE
  5
F1071A
330
F1071B
100
AcDbEntity
8
Geo
100
AcDbLine
10
-57.8387470997679
20
8.29592648063698
30
0.000000000000000
11
-57.7387470997679
21
8.28449205477377
31
0.000000000000000
  0
LINE
  5
F1071C
330
F1071D
100
AcDbEntity
8
Geo
100
AcDbLine
10
-57.7387470997679
20
8.28449205477377
30
0.000000000000000
11
-57.6387470997679
21
8.27897383211879
31
0.000000000000000
  0
LINE
  5
F1071E
330
F1071F
100
AcDbEntity
8
Geo
100
AcDbLine
10
-69.8387470997679
20
15.7263278204818
30
0.000000000000000
11
-69.7387470997679
21
15.8123312939008
31
0.000000000000000
  0
LINE
  5
F10720
330
F10721
100
AcDbEntity
8
Geo
100
AcDbLine
10
-69.8387470997679
20
11.9829799478783
30
0.000000000000000
11
-69.7387470997679
21
11.8466735346270
31
0.000000000000000
  0
LINE
  5
F10722
330
F10723
100
AcDbEntity
8
Geo
100
AcDbLine
10
-69.7387470997679
20
15.8123312939008
30
0.000000000000000
11
-69.6387470997679
21
15.8928038428595
31
0.000000000000000
  0
LINE
  5
F10724
330
F10725
100
AcDbEntity
8
Geo
100
AcDbLine
10
-69.7387470997679
20
11.8466735346270
30
0.000000000000000
11
-69.6387470997679
21
11.7033162672999
31
0.000000000000000
  0
LINE
  5
F10726
330
F10727
100
AcDbEntity
8
Geo
100
AcDbLine
10
-69.6387470997679
20
15.8928038428595
30
0.000000000000000
11
-69.5387470997679
21
15.9673305521651
31
0.000000000000000
  0
LINE
  5
F10728
330
F10729
100
AcDbEntity
8
Geo
100
AcDbLine
10
-69.6387470997679
20
11.7033162672999
30
0.000000000000000
11
-69.5387470997679
21
11.5531375927113
31
0.000000000000000
  0
LINE
  5
F1072A
330
F1072B
100
AcDbEntity
8
Geo
100
AcDbLine
10
-69.5387470997679
20
15.9673305521651
30
0.000000000000000
11
-69.4387470997679
21
16.0355061909119
31
0.000000000000000
  0
LINE
  5
F1072C
330
F1072D
100
AcDbEntity
8
Geo
100
AcDbLine
10
-69.5387470997679
20
11.5531375927113
30
0.000000000000000
11
-69.4387470997679
21
11.3963884286813
31
0.000000000000000
  0
LINE
  5
F1072E
330
F1072F
100
AcDbEntity
8
Geo
100
AcDbLine
10
-69.4387470997679
20
16.0355061909119
30
0.000000000000000
11
-69.3387470997679
21
16.0969362494875
31
0.000000000000000
  0
LINE
  5
F10730
330
F10731
100
AcDbEntity
8
Geo
100
AcDbLine
10
-69.4387470997679
20
11.3963884286813
30
0.000000000000000
11
-69.3387470997679
21
11.2333407501962
31
0.000000000000000
  0
LINE
  5
F10732
330
F10733
100
AcDbEntity
8
Geo
100
AcDbLine
10
-69.3387470997679
20
16.0969362494875
30
0.000000000000000
11
-69.2387470997679
21
16.0538927946168
31
0.000000000000000
  0
LINE
  5
F10734
330
F10735
100
AcDbEntity
8
Geo
100
AcDbLine
10
-69.3387470997679
20
11.2333407501962
30
0.000000000000000
11
-69.2387470997679
21
11.0871764049931
31
0.000000000000000
  0
LINE
  5
F10736
330
F10737
100
AcDbEntity
8
Geo
100
AcDbLine
10
-69.2387470997679
20
16.0538927946168
30
0.000000000000000
11
-69.1387470997679
21
16.0052567405810
31
0.000000000000000
  0
LINE
  5
F10738
330
F10739
100
AcDbEntity
8
Geo
100
AcDbLine
10
-69.2387470997679
20
11.0871764049931
30
0.000000000000000
11
-69.1387470997679
21
10.9427766506176
31
0.000000000000000
  0
LINE
  5
F1073A
330
F1073B
100
AcDbEntity
8
Geo
100
AcDbLine
10
-69.1387470997679
20
16.0052567405810
30
0.000000000000000
11
-69.0387470997679
21
15.9511001318985
31
0.000000000000000
  0
LINE
  5
F1073C
330
F1073D
100
AcDbEntity
8
Geo
100
AcDbLine
10
-69.1387470997679
20
10.9427766506176
30
0.000000000000000
11
-69.0387470997679
21
10.8003553862226
31
0.000000000000000
  0
LINE
  5
F1073E
330
F1073F
100
AcDbEntity
8
Geo
100
AcDbLine
10
-69.0387470997679
20
15.9511001318985
30
0.000000000000000
11
-68.9387470997679
21
15.8915031906776
31
0.000000000000000
  0
LINE
  5
F10740
330
F10741
100
AcDbEntity
8
Geo
100
AcDbLine
10
-69.0387470997679
20
10.8003553862226
30
0.000000000000000
11
-68.9387470997679
21
10.6601235802263
31
0.000000000000000
  0
LINE
  5
F10742
330
F10743
100
AcDbEntity
8
Geo
100
AcDbLine
10
-68.9387470997679
20
15.8915031906776
30
0.000000000000000
11
-68.8387470997679
21
15.8265541977832
31
0.000000000000000
  0
LINE
  5
F10744
330
F10745
100
AcDbEntity
8
Geo
100
AcDbLine
10
-68.9387470997679
20
10.6601235802263
30
0.000000000000000
11
-68.8387470997679
21
10.5222889578055
31
0.000000000000000
  0
LINE
  5
F10746
330
F10747
100
AcDbEntity
8
Geo
100
AcDbLine
10
-68.8387470997679
20
15.8265541977832
30
0.000000000000000
11
-68.7387470997679
21
15.7563493620672
31
0.000000000000000
  0
LINE
  5
F10748
330
F10749
100
AcDbEntity
8
Geo
100
AcDbLine
10
-68.8387470997679
20
10.5222889578055
30
0.000000000000000
11
-68.7387470997679
21
10.3870556931923
31
0.000000000000000
  0
LINE
  5
F1074A
330
F1074B
100
AcDbEntity
8
Geo
100
AcDbLine
10
-68.7387470997679
20
15.7563493620672
30
0.000000000000000
11
-68.6387470997679
21
15.6809926778537
31
0.000000000000000
  0
LINE
  5
F1074C
330
F1074D
100
AcDbEntity
8
Geo
100
AcDbLine
10
-68.7387470997679
20
10.3870556931923
30
0.000000000000000
11
-68.6387470997679
21
10.2546241072311
31
0.000000000000000
  0
LINE
  5
F1074E
330
F1074F
100
AcDbEntity
8
Geo
100
AcDbLine
10
-68.6387470997679
20
15.6809926778537
30
0.000000000000000
11
-68.5387470997679
21
15.6005957708929
31
0.000000000000000
  0
LINE
  5
F10750
330
F10751
100
AcDbEntity
8
Geo
100
AcDbLine
10
-68.6387470997679
20
10.2546241072311
30
0.000000000000000
11
-68.5387470997679
21
10.1251903706436
31
0.000000000000000
  0
LINE
  5
F10752
330
F10753
100
AcDbEntity
8
Geo
100
AcDbLine
10
-68.5387470997679
20
15.6005957708929
30
0.000000000000000
11
-68.4387470997679
21
15.5152777330099
31
0.000000000000000
  0
LINE
  5
F10754
330
F10755
100
AcDbEntity
8
Geo
100
AcDbLine
10
-68.5387470997679
20
10.1251903706436
30
0.000000000000000
11
-68.4387470997679
21
9.99894621344147
31
0.000000000000000
  0
LINE
  5
F10756
330
F10757
100
AcDbEntity
8
Geo
100
AcDbLine
10
-68.4387470997679
20
15.5152777330099
30
0.000000000000000
11
-68.3387470997679
21
15.4251649456941
31
0.000000000000000
  0
LINE
  5
F10758
330
F10759
100
AcDbEntity
8
Geo
100
AcDbLine
10
-68.4387470997679
20
9.99894621344147
30
0.000000000000000
11
-68.3387470997679
21
9.87607864091706
31
0.000000000000000
  0
LINE
  5
F1075A
330
F1075B
100
AcDbEntity
8
Geo
100
AcDbLine
10
-68.3387470997679
20
15.4251649456941
30
0.000000000000000
11
-68.2387470997679
21
15.3303908928904
31
0.000000000000000
  0
LINE
  5
F1075C
330
F1075D
100
AcDbEntity
8
Geo
100
AcDbLine
10
-68.3387470997679
20
9.87607864091706
30
0.000000000000000
11
-68.2387470997679
21
9.75676965663248
31
0.000000000000000
  0
LINE
  5
F1075E
330
F1075F
100
AcDbEntity
8
Geo
100
AcDbLine
10
-68.2387470997679
20
15.3303908928904
30
0.000000000000000
11
-68.1387470997679
21
15.2310959632697
31
0.000000000000000
  0
LINE
  5
F10760
330
F10761
100
AcDbEntity
8
Geo
100
AcDbLine
10
-68.2387470997679
20
9.75676965663248
30
0.000000000000000
11
-68.1387470997679
21
9.64119599281809
31
0.000000000000000
  0
LINE
  5
F10762
330
F10763
100
AcDbEntity
8
Geo
100
AcDbLine
10
-68.1387470997679
20
15.2310959632697
30
0.000000000000000
11
-68.0387470997679
21
15.1274272422713
31
0.000000000000000
  0
LINE
  5
F10764
330
F10765
100
AcDbEntity
8
Geo
100
AcDbLine
10
-68.1387470997679
20
9.64119599281809
30
0.000000000000000
11
-68.0387470997679
21
9.52952884857933
31
0.000000000000000
  0
LINE
  5
F10766
330
F10767
100
AcDbEntity
8
Geo
100
AcDbLine
10
-68.0387470997679
20
15.1274272422713
30
0.000000000000000
11
-67.9387470997679
21
15.0195382942258
31
0.000000000000000
  0
LINE
  5
F10768
330
F10769
100
AcDbEntity
8
Geo
100
AcDbLine
10
-68.0387470997679
20
9.52952884857933
30
0.000000000000000
11
-67.9387470997679
21
9.42193363629969
31
0.000000000000000
  0
LINE
  5
F1076A
330
F1076B
100
AcDbEntity
8
Geo
100
AcDbLine
10
-67.9387470997679
20
15.0195382942258
30
0.000000000000000
11
-67.8387470997679
21
14.9075889348799
31
0.000000000000000
  0
LINE
  5
F1076C
330
F1076D
100
AcDbEntity
8
Geo
100
AcDbLine
10
-67.9387470997679
20
9.42193363629969
30
0.000000000000000
11
-67.8387470997679
21
9.31856973661557
31
0.000000000000000
  0
LINE
  5
F1076E
330
F1076F
100
AcDbEntity
8
Geo
100
AcDbLine
10
-67.8387470997679
20
14.9075889348799
30
0.000000000000000
11
-67.7387470997679
21
14.7917449946620
31
0.000000000000000
  0
LINE
  5
F10770
330
F10771
100
AcDbEntity
8
Geo
100
AcDbLine
10
-67.8387470997679
20
9.31856973661557
30
0.000000000000000
11
-67.7387470997679
21
9.21959026232599
31
0.000000000000000
  0
LINE
  5
F10772
330
F10773
100
AcDbEntity
8
Geo
100
AcDbLine
10
-67.7387470997679
20
14.7917449946620
30
0.000000000000000
11
-67.6387470997679
21
14.6721780730374
31
0.000000000000000
  0
LINE
  5
F10774
330
F10775
100
AcDbEntity
8
Geo
100
AcDbLine
10
-67.7387470997679
20
9.21959026232599
30
0.000000000000000
11
-67.6387470997679
21
9.12514183158682
31
0.000000000000000
  0
LINE
  5
F10776
330
F10777
100
AcDbEntity
8
Geo
100
AcDbLine
10
-67.6387470997679
20
14.6721780730374
30
0.000000000000000
11
-67.5387470997679
21
14.5490652843189
31
0.000000000000000
  0
LINE
  5
F10778
330
F10779
100
AcDbEntity
8
Geo
100
AcDbLine
10
-67.6387470997679
20
9.12514183158682
30
0.000000000000000
11
-67.5387470997679
21
9.03536435072548
31
0.000000000000000
  0
LINE
  5
F1077A
330
F1077B
100
AcDbEntity
8
Geo
100
AcDbLine
10
-67.5387470997679
20
14.5490652843189
30
0.000000000000000
11
-67.4387470997679
21
14.4225889953069
31
0.000000000000000
  0
LINE
  5
F1077C
330
F1077D
100
AcDbEntity
8
Geo
100
AcDbLine
10
-67.5387470997679
20
9.03536435072548
30
0.000000000000000
11
-67.4387470997679
21
8.95039080699793
31
0.000000000000000
  0
LINE
  5
F1077E
330
F1077F
100
AcDbEntity
8
Geo
100
AcDbLine
10
-67.4387470997679
20
14.4225889953069
30
0.000000000000000
11
-67.3387470997679
21
14.2929365551502
31
0.000000000000000
  0
LINE
  5
F10780
330
F10781
100
AcDbEntity
8
Geo
100
AcDbLine
10
-67.4387470997679
20
8.95039080699793
30
0.000000000000000
11
-67.3387470997679
21
8.87034707159480
31
0.000000000000000
  0
LINE
  5
F10782
330
F10783
100
AcDbEntity
8
Geo
100
AcDbLine
10
-67.3387470997679
20
14.2929365551502
30
0.000000000000000
11
-67.2387470997679
21
14.1603000178258
31
0.000000000000000
  0
LINE
  5
F10784
330
F10785
100
AcDbEntity
8
Geo
100
AcDbLine
10
-67.3387470997679
20
8.87034707159480
30
0.000000000000000
11
-67.2387470997679
21
8.79535171318863
31
0.000000000000000
  0
LINE
  5
F10786
330
F10787
100
AcDbEntity
8
Geo
100
AcDbLine
10
-67.2387470997679
20
14.1603000178258
30
0.000000000000000
11
-67.1387470997679
21
14.0248758576497
31
0.000000000000000
  0
LINE
  5
F10788
330
F10789
100
AcDbEntity
8
Geo
100
AcDbLine
10
-67.2387470997679
20
8.79535171318863
30
0.000000000000000
11
-67.1387470997679
21
8.72551582229818
31
0.000000000000000
  0
LINE
  5
F1078A
330
F1078B
100
AcDbEntity
8
Geo
100
AcDbLine
10
-67.1387470997679
20
14.0248758576497
30
0.000000000000000
11
-67.0387470997679
21
13.8868646782396
31
0.000000000000000
  0
LINE
  5
F1078C
330
F1078D
100
AcDbEntity
8
Geo
100
AcDbLine
10
-67.1387470997679
20
8.72551582229818
30
0.000000000000000
11
-67.0387470997679
21
8.66094284673028
31
0.000000000000000
  0
LINE
  5
F1078E
330
F1078F
100
AcDbEntity
8
Geo
100
AcDbLine
10
-67.0387470997679
20
13.8868646782396
30
0.000000000000000
11
-66.9387470997679
21
13.7464709153611
31
0.000000000000000
  0
LINE
  5
F10790
330
F10791
100
AcDbEntity
8
Geo
100
AcDbLine
10
-67.0387470997679
20
8.66094284673028
30
0.000000000000000
11
-66.9387470997679
21
8.60172843834269
31
0.000000000000000
  0
LINE
  5
F10792
330
F10793
100
AcDbEntity
8
Geo
100
AcDbLine
10
-66.9387470997679
20
13.7464709153611
30
0.000000000000000
11
-66.8387470997679
21
13.6039025340975
31
0.000000000000000
  0
LINE
  5
F10794
330
F10795
100
AcDbEntity
8
Geo
100
AcDbLine
10
-66.9387470997679
20
8.60172843834269
30
0.000000000000000
11
-66.8387470997679
21
8.54796031135515
31
0.000000000000000
  0
LINE
  5
F10796
330
F10797
100
AcDbEntity
8
Geo
100
AcDbLine
10
-66.8387470997679
20
13.6039025340975
30
0.000000000000000
11
-66.7387470997679
21
13.4593707207912
31
0.000000000000000
  0
LINE
  5
F10798
330
F10799
100
AcDbEntity
8
Geo
100
AcDbLine
10
-66.8387470997679
20
8.54796031135515
30
0.000000000000000
11
-66.7387470997679
21
8.49971811241844
31
0.000000000000000
  0
LINE
  5
F1079A
330
F1079B
100
AcDbEntity
8
Geo
100
AcDbLine
10
-66.7387470997679
20
13.4593707207912
30
0.000000000000000
11
-66.6387470997679
21
13.3130895702136
31
0.000000000000000
  0
LINE
  5
F1079C
330
F1079D
100
AcDbEntity
8
Geo
100
AcDbLine
10
-66.7387470997679
20
8.49971811241844
30
0.000000000000000
11
-66.6387470997679
21
8.45707330263389
31
0.000000000000000
  0
LINE
  5
F1079E
330
F1079F
100
AcDbEntity
8
Geo
100
AcDbLine
10
-66.6387470997679
20
13.3130895702136
30
0.000000000000000
11
-66.5387470997679
21
13.1652757684271
31
0.000000000000000
  0
LINE
  5
F107A0
330
F107A1
100
AcDbEntity
8
Geo
100
AcDbLine
10
-66.6387470997679
20
8.45707330263389
30
0.000000000000000
11
-66.5387470997679
21
8.42008905169819
31
0.000000000000000
  0
LINE
  5
F107A2
330
F107A3
100
AcDbEntity
8
Geo
100
AcDbLine
10
-66.5387470997679
20
13.1652757684271
30
0.000000000000000
11
-66.4387470997679
21
13.0161482718080
31
0.000000000000000
  0
LINE
  5
F107A4
330
F107A5
100
AcDbEntity
8
Geo
100
AcDbLine
10
-66.5387470997679
20
8.42008905169819
30
0.000000000000000
11
-66.4387470997679
21
8.38882014433015
31
0.000000000000000
  0
LINE
  5
F107A6
330
F107A7
100
AcDbEntity
8
Geo
100
AcDbLine
10
-66.4387470997679
20
13.0161482718080
30
0.000000000000000
11
-66.3387470997679
21
12.8659279827071
31
0.000000000000000
  0
LINE
  5
F107A8
330
F107A9
100
AcDbEntity
8
Geo
100
AcDbLine
10
-66.4387470997679
20
8.38882014433015
30
0.000000000000000
11
-66.3387470997679
21
8.36331289911821
31
0.000000000000000
  0
LINE
  5
F107AA
330
F107AB
100
AcDbEntity
8
Geo
100
AcDbLine
10
-66.3387470997679
20
12.8659279827071
30
0.000000000000000
11
-66.2387470997679
21
12.7148374222270
31
0.000000000000000
  0
LINE
  5
F107AC
330
F107AD
100
AcDbEntity
8
Geo
100
AcDbLine
10
-66.3387470997679
20
8.36331289911821
30
0.000000000000000
11
-66.2387470997679
21
8.34360509990878
31
0.000000000000000
  0
LINE
  5
F107AE
330
F107AF
100
AcDbEntity
8
Geo
100
AcDbLine
10
-66.2387470997679
20
12.7148374222270
30
0.000000000000000
11
-66.1387470997679
21
12.5631004006022
31
0.000000000000000
  0
LINE
  5
F107B0
330
F107B1
100
AcDbEntity
8
Geo
100
AcDbLine
10
-66.2387470997679
20
8.34360509990878
30
0.000000000000000
11
-66.1387470997679
21
8.32972593983708
31
0.000000000000000
  0
LINE
  5
F107B2
330
F107B3
100
AcDbEntity
8
Geo
100
AcDbLine
10
-66.1387470997679
20
12.5631004006022
30
0.000000000000000
11
-66.0387470997679
21
12.4109416856690
31
0.000000000000000
  0
LINE
  5
F107B4
330
F107B5
100
AcDbEntity
8
Geo
100
AcDbLine
10
-66.1387470997679
20
8.32972593983708
30
0.000000000000000
11
-66.0387470997679
21
8.32169597808337
31
0.000000000000000
  0
LINE
  5
F107B6
330
F107B7
100
AcDbEntity
8
Geo
100
AcDbLine
10
-66.0387470997679
20
12.4109416856690
30
0.000000000000000
11
-65.9387470997679
21
12.2585866699177
31
0.000000000000000
  0
LINE
  5
F107B8
330
F107B9
100
AcDbEntity
8
Geo
100
AcDbLine
10
-65.9387470997679
20
12.2585866699177
30
0.000000000000000
11
-65.8387470997679
21
12.1062610366185
31
0.000000000000000
  0
LINE
  5
F107BA
330
F107BB
100
AcDbEntity
8
Geo
100
AcDbLine
10
-65.9387470997679
20
16.2373174381452
30
0.000000000000000
11
-65.8387470997679
21
16.2336220009787
31
0.000000000000000
  0
LINE
  5
F107BC
330
F107BD
100
AcDbEntity
8
Geo
100
AcDbLine
10
-65.8387470997679
20
12.1062610366185
30
0.000000000000000
11
-65.7387470997679
21
11.9541904255174
31
0.000000000000000
  0
LINE
  5
F107BE
330
F107BF
100
AcDbEntity
8
Geo
100
AcDbLine
10
-65.8387470997679
20
16.2336220009787
30
0.000000000000000
11
-65.7387470997679
21
16.2240677320270
31
0.000000000000000
  0
LINE
  5
F107C0
330
F107C1
100
AcDbEntity
8
Geo
100
AcDbLine
10
-65.7387470997679
20
11.9541904255174
30
0.000000000000000
11
-65.6387470997679
21
11.8026000985964
31
0.000000000000000
  0
LINE
  5
F107C2
330
F107C3
100
AcDbEntity
8
Geo
100
AcDbLine
10
-65.7387470997679
20
16.2240677320270
30
0.000000000000000
11
-65.6387470997679
21
16.2086687840152
31
0.000000000000000
  0
LINE
  5
F107C4
330
F107C5
100
AcDbEntity
8
Geo
100
AcDbLine
10
-65.6387470997679
20
11.8026000985964
30
0.000000000000000
11
-65.5387470997679
21
11.6517146063934
31
0.000000000000000
  0
LINE
  5
F107C6
330
F107C7
100
AcDbEntity
8
Geo
100
AcDbLine
10
-65.6387470997679
20
16.2086687840152
30
0.000000000000000
11
-65.5387470997679
21
16.1874479673833
31
0.000000000000000
  0
LINE
  5
F107C8
330
F107C9
100
AcDbEntity
8
Geo
100
AcDbLine
10
-65.5387470997679
20
11.6517146063934
30
0.000000000000000
11
-65.4387470997679
21
11.5017574553755
31
0.000000000000000
  0
LINE
  5
F107CA
330
F107CB
100
AcDbEntity
8
Geo
100
AcDbLine
10
-65.5387470997679
20
16.1874479673833
30
0.000000000000000
11
-65.4387470997679
21
16.1604367164971
31
0.000000000000000
  0
LINE
  5
F107CC
330
F107CD
100
AcDbEntity
8
Geo
100
AcDbLine
10
-65.4387470997679
20
11.5017574553755
30
0.000000000000000
11
-65.3387470997679
21
11.3529507768591
31
0.000000000000000
  0
LINE
  5
F107CE
330
F107CF
100
AcDbEntity
8
Geo
100
AcDbLine
10
-65.4387470997679
20
16.1604367164971
30
0.000000000000000
11
-65.3387470997679
21
16.1276750430844
31
0.000000000000000
  0
LINE
  5
F107D0
330
F107D1
100
AcDbEntity
8
Geo
100
AcDbLine
10
-65.3387470997679
20
11.3529507768591
30
0.000000000000000
11
-65.2387470997679
21
11.2055149979677
31
0.000000000000000
  0
LINE
  5
F107D2
330
F107D3
100
AcDbEntity
8
Geo
100
AcDbLine
10
-65.3387470997679
20
16.1276750430844
30
0.000000000000000
11
-65.2387470997679
21
16.0892114769660
31
0.000000000000000
  0
LINE
  5
F107D4
330
F107D5
100
AcDbEntity
8
Geo
100
AcDbLine
10
-65.2387470997679
20
11.2055149979677
30
0.000000000000000
11
-65.1387470997679
21
11.0596685151128
31
0.000000000000000
  0
LINE
  5
F107D6
330
F107D7
100
AcDbEntity
8
Geo
100
AcDbLine
10
-65.2387470997679
20
16.0892114769660
30
0.000000000000000
11
-65.1387470997679
21
16.0451029941682
31
0.000000000000000
  0
LINE
  5
F107D8
330
F107D9
100
AcDbEntity
8
Geo
100
AcDbLine
10
-65.1387470997679
20
11.0596685151128
30
0.000000000000000
11
-65.0387470997679
21
10.9156273704841
31
0.000000000000000
  0
LINE
  5
F107DA
330
F107DB
100
AcDbEntity
8
Geo
100
AcDbLine
10
-65.1387470997679
20
16.0451029941682
30
0.000000000000000
11
-65.0387470997679
21
15.9954149325243
31
0.000000000000000
  0
LINE
  5
F107DC
330
F107DD
100
AcDbEntity
8
Geo
100
AcDbLine
10
-65.0387470997679
20
10.9156273704841
30
0.000000000000000
11
-64.9387470997679
21
10.7736049320263
31
0.000000000000000
  0
LINE
  5
F107DE
330
F107DF
100
AcDbEntity
8
Geo
100
AcDbLine
10
-65.0387470997679
20
15.9954149325243
30
0.000000000000000
11
-64.9387470997679
21
15.9402208948903
31
0.000000000000000
  0
LINE
  5
F107E0
330
F107E1
100
AcDbEntity
8
Geo
100
AcDbLine
10
-64.9387470997679
20
10.7736049320263
30
0.000000000000000
11
-64.8387470997679
21
10.6338115773773
31
0.000000000000000
  0
LINE
  5
F107E2
330
F107E3
100
AcDbEntity
8
Geo
100
AcDbLine
10
-64.9387470997679
20
15.9402208948903
30
0.000000000000000
11
-64.8387470997679
21
15.8796026401161
31
0.000000000000000
  0
LINE
  5
F107E4
330
F107E5
100
AcDbEntity
8
Geo
100
AcDbLine
10
-64.8387470997679
20
10.6338115773773
30
0.000000000000000
11
-64.7387470997679
21
10.4964543822366
31
0.000000000000000
  0
LINE
  5
F107E6
330
F107E7
100
AcDbEntity
8
Geo
100
AcDbLine
10
-64.8387470997679
20
15.8796026401161
30
0.000000000000000
11
-64.7387470997679
21
15.8136499619374
31
0.000000000000000
  0
LINE
  5
F107E8
330
F107E9
100
AcDbEntity
8
Geo
100
AcDbLine
10
-64.7387470997679
20
10.4964543822366
30
0.000000000000000
11
-64.6387470997679
21
10.3617368136239
31
0.000000000000000
  0
LINE
  5
F107EA
330
F107EB
100
AcDbEntity
8
Geo
100
AcDbLine
10
-64.7387470997679
20
15.8136499619374
30
0.000000000000000
11
-64.6387470997679
21
15.7424605559633
31
0.000000000000000
  0
LINE
  5
F107EC
330
F107ED
100
AcDbEntity
8
Geo
100
AcDbLine
10
-64.6387470997679
20
10.3617368136239
30
0.000000000000000
11
-64.5387470997679
21
10.2298584284838
31
0.000000000000000
  0
LINE
  5
F107EE
330
F107EF
100
AcDbEntity
8
Geo
100
AcDbLine
10
-64.6387470997679
20
15.7424605559633
30
0.000000000000000
11
-64.5387470997679
21
15.6661398749607
31
0.000000000000000
  0
LINE
  5
F107F0
330
F107F1
100
AcDbEntity
8
Geo
100
AcDbLine
10
-64.5387470997679
20
10.2298584284838
30
0.000000000000000
11
-64.4387470997679
21
10.1010145780824
31
0.000000000000000
  0
LINE
  5
F107F2
330
F107F3
100
AcDbEntity
8
Geo
100
AcDbLine
10
-64.5387470997679
20
15.6661398749607
30
0.000000000000000
11
-64.4387470997679
21
15.5848009726469
31
0.000000000000000
  0
LINE
  5
F107F4
330
F107F5
100
AcDbEntity
8
Geo
100
AcDbLine
10
-64.4387470997679
20
10.1010145780824
30
0.000000000000000
11
-64.3387470997679
21
9.97539611863398
31
0.000000000000000
  0
LINE
  5
F107F6
330
F107F7
100
AcDbEntity
8
Geo
100
AcDbLine
10
-64.4387470997679
20
15.5848009726469
30
0.000000000000000
11
-64.3387470997679
21
15.4985643362233
31
0.000000000000000
  0
LINE
  5
F107F8
330
F107F9
100
AcDbEntity
8
Geo
100
AcDbLine
10
-64.3387470997679
20
9.97539611863398
30
0.000000000000000
11
-64.2387470997679
21
9.85318912858549
31
0.000000000000000
  0
LINE
  5
F107FA
330
F107FB
100
AcDbEntity
8
Geo
100
AcDbLine
10
-64.3387470997679
20
15.4985643362233
30
0.000000000000000
11
-64.2387470997679
21
15.4075577078979
31
0.000000000000000
  0
LINE
  5
F107FC
330
F107FD
100
AcDbEntity
8
Geo
100
AcDbLine
10
-64.2387470997679
20
9.85318912858549
30
0.000000000000000
11
-64.1387470997679
21
9.73457463297919
31
0.000000000000000
  0
LINE
  5
F107FE
330
F107FF
100
AcDbEntity
8
Geo
100
AcDbLine
10
-64.2387470997679
20
15.4075577078979
30
0.000000000000000
11
-64.1387470997679
21
15.3119158956611
31
0.000000000000000
  0
LINE
  5
F10800
330
F10801
100
AcDbEntity
8
Geo
100
AcDbLine
10
-64.1387470997679
20
9.73457463297919
30
0.000000000000000
11
-64.0387470997679
21
9.61972833530038
31
0.000000000000000
  0
LINE
  5
F10802
330
F10803
100
AcDbEntity
8
Geo
100
AcDbLine
10
-64.1387470997679
20
15.3119158956611
30
0.000000000000000
11
-64.0387470997679
21
15.2117805735948
31
0.000000000000000
  0
LINE
  5
F10804
330
F10805
100
AcDbEntity
8
Geo
100
AcDbLine
10
-64.0387470997679
20
9.61972833530038
30
0.000000000000000
11
-63.9387470997679
21
9.50882035720803
31
0.000000000000000
  0
LINE
  5
F10806
330
F10807
100
AcDbEntity
8
Geo
100
AcDbLine
10
-64.0387470997679
20
15.2117805735948
30
0.000000000000000
11
-63.9387470997679
21
15.1073000720103
31
0.000000000000000
  0
LINE
  5
F10808
330
F10809
100
AcDbEntity
8
Geo
100
AcDbLine
10
-63.9387470997679
20
9.50882035720803
30
0.000000000000000
11
-63.8387470997679
21
9.40201498653390
31
0.000000000000000
  0
LINE
  5
F1080A
330
F1080B
100
AcDbEntity
8
Geo
100
AcDbLine
10
-63.9387470997679
20
15.1073000720103
30
0.000000000000000
11
-63.8387470997679
21
14.9986291577277
31
0.000000000000000
  0
LINE
  5
F1080C
330
F1080D
100
AcDbEntity
8
Geo
100
AcDbLine
10
-63.8387470997679
20
9.40201498653390
30
0.000000000000000
11
-63.7387470997679
21
9.29947043392314
31
0.000000000000000
  0
LINE
  5
F1080E
330
F1080F
100
AcDbEntity
8
Geo
100
AcDbLine
10
-63.8387470997679
20
14.9986291577277
30
0.000000000000000
11
-63.7387470997679
21
14.8859288048191
31
0.000000000000000
  0
LINE
  5
F10810
330
F10811
100
AcDbEntity
8
Geo
100
AcDbLine
10
-63.7387470997679
20
9.29947043392314
30
0.000000000000000
11
-63.6387470997679
21
9.20133859847710
31
0.000000000000000
  0
LINE
  5
F10812
330
F10813
100
AcDbEntity
8
Geo
100
AcDbLine
10
-63.7387470997679
20
14.8859288048191
30
0.000000000000000
11
-63.6387470997679
21
14.7693659561585
31
0.000000000000000
  0
LINE
  5
F10814
330
F10815
100
AcDbEntity
8
Geo
100
AcDbLine
10
-63.6387470997679
20
9.20133859847710
30
0.000000000000000
11
-63.5387470997679
21
9.10776484274542
31
0.000000000000000
  0
LINE
  5
F10816
330
F10817
100
AcDbEntity
8
Geo
100
AcDbLine
10
-63.6387470997679
20
14.7693659561585
30
0.000000000000000
11
-63.5387470997679
21
14.6491132761296
31
0.000000000000000
  0
LINE
  5
F10818
330
F10819
100
AcDbEntity
8
Geo
100
AcDbLine
10
-63.5387470997679
20
9.10776484274542
30
0.000000000000000
11
-63.4387470997679
21
9.01888777740067
31
0.000000000000000
  0
LINE
  5
F1081A
330
F1081B
100
AcDbEntity
8
Geo
100
AcDbLine
10
-63.5387470997679
20
14.6491132761296
30
0.000000000000000
11
-63.4387470997679
21
14.5253488948579
31
0.000000000000000
  0
LINE
  5
F1081C
330
F1081D
100
AcDbEntity
8
Geo
100
AcDbLine
10
-63.4387470997679
20
9.01888777740067
30
0.000000000000000
11
-63.3387470997679
21
8.93483905591457
31
0.000000000000000
  0
LINE
  5
F1081E
330
F1081F
100
AcDbEntity
8
Geo
100
AcDbLine
10
-63.4387470997679
20
14.5253488948579
30
0.000000000000000
11
-63.3387470997679
21
14.3982561443471
31
0.000000000000000
  0
LINE
  5
F10820
330
F10821
100
AcDbEntity
8
Geo
100
AcDbLine
10
-63.3387470997679
20
8.93483905591457
30
0.000000000000000
11
-63.2387470997679
21
8.85574317953987
31
0.000000000000000
  0
LINE
  5
F10822
330
F10823
100
AcDbEntity
8
Geo
100
AcDbLine
10
-63.3387470997679
20
14.3982561443471
30
0.000000000000000
11
-63.2387470997679
21
14.2680232869094
31
0.000000000000000
  0
LINE
  5
F10824
330
F10825
100
AcDbEntity
8
Geo
100
AcDbLine
10
-63.2387470997679
20
8.85574317953987
30
0.000000000000000
11
-63.1387470997679
21
8.78171731288685
31
0.000000000000000
  0
LINE
  5
F10826
330
F10827
100
AcDbEntity
8
Geo
100
AcDbLine
10
-63.2387470997679
20
14.2680232869094
30
0.000000000000000
11
-63.1387470997679
21
14.1348432362932
31
0.000000000000000
  0
LINE
  5
F10828
330
F10829
100
AcDbEntity
8
Geo
100
AcDbLine
10
-63.1387470997679
20
8.78171731288685
30
0.000000000000000
11
-63.0387470997679
21
8.71287111036752
31
0.000000000000000
  0
LINE
  5
F1082A
330
F1082B
100
AcDbEntity
8
Geo
100
AcDbLine
10
-63.1387470997679
20
14.1348432362932
30
0.000000000000000
11
-63.0387470997679
21
13.9989132719198
31
0.000000000000000
  0
LINE
  5
F1082C
330
F1082D
100
AcDbEntity
8
Geo
100
AcDbLine
10
-63.0387470997679
20
8.71287111036752
30
0.000000000000000
11
-62.9387470997679
21
8.64930655376472
31
0.000000000000000
  0
LINE
  5
F1082E
330
F1082F
100
AcDbEntity
8
Geo
100
AcDbLine
10
-63.0387470997679
20
13.9989132719198
30
0.000000000000000
11
-62.9387470997679
21
13.8604347466542
31
0.000000000000000
  0
LINE
  5
F10830
330
F10831
100
AcDbEntity
8
Geo
100
AcDbLine
10
-62.9387470997679
20
8.64930655376472
30
0.000000000000000
11
-62.8387470997679
21
8.59111780116660
31
0.000000000000000
  0
LINE
  5
F10832
330
F10833
100
AcDbEntity
8
Geo
100
AcDbLine
10
-62.9387470997679
20
13.8604347466542
30
0.000000000000000
11
-62.8387470997679
21
13.7196127885406
31
0.000000000000000
  0
LINE
  5
F10834
330
F10835
100
AcDbEntity
8
Geo
100
AcDbLine
10
-62.8387470997679
20
8.59111780116660
30
0.000000000000000
11
-62.7387470997679
21
8.53839104749043
31
0.000000000000000
  0
LINE
  5
F10836
330
F10837
100
AcDbEntity
8
Geo
100
AcDbLine
10
-62.8387470997679
20
13.7196127885406
30
0.000000000000000
11
-62.7387470997679
21
13.5766559969473
31
0.000000000000000
  0
LINE
  5
F10838
330
F10839
100
AcDbEntity
8
Geo
100
AcDbLine
10
-62.7387470997679
20
8.53839104749043
30
0.000000000000000
11
-62.6387470997679
21
8.49120439680218
31
0.000000000000000
  0
LINE
  5
F1083A
330
F1083B
100
AcDbEntity
8
Geo
100
AcDbLine
10
-62.7387470997679
20
13.5766559969473
30
0.000000000000000
11
-62.6387470997679
21
13.4317761335684
31
0.000000000000000
  0
LINE
  5
F1083C
330
F1083D
100
AcDbEntity
8
Geo
100
AcDbLine
10
-62.6387470997679
20
8.49120439680218
30
0.000000000000000
11
-62.5387470997679
21
8.44962774662105
31
0.000000000000000
  0
LINE
  5
F1083E
330
F1083F
100
AcDbEntity
8
Geo
100
AcDbLine
10
-62.6387470997679
20
13.4317761335684
30
0.000000000000000
11
-62.5387470997679
21
13.2851878087414
31
0.000000000000000
  0
LINE
  5
F10840
330
F10841
100
AcDbEntity
8
Geo
100
AcDbLine
10
-62.5387470997679
20
8.44962774662105
30
0.000000000000000
11
-62.4387470997679
21
8.41372268438040
31
0.000000000000000
  0
LINE
  5
F10842
330
F10843
100
AcDbEntity
8
Geo
100
AcDbLine
10
-62.5387470997679
20
13.2851878087414
30
0.000000000000000
11
-62.4387470997679
21
13.1371081635455
31
0.000000000000000
  0
LINE
  5
F10844
330
F10845
100
AcDbEntity
8
Geo
100
AcDbLine
10
-62.4387470997679
20
8.41372268438040
30
0.000000000000000
11
-62.3387470997679
21
8.38354239619835
31
0.000000000000000
  0
LINE
  5
F10846
330
F10847
100
AcDbEntity
8
Geo
100
AcDbLine
10
-62.4387470997679
20
13.1371081635455
30
0.000000000000000
11
-62.3387470997679
21
12.9877565481504
31
0.000000000000000
  0
LINE
  5
F10848
330
F10849
100
AcDbEntity
8
Geo
100
AcDbLine
10
-62.3387470997679
20
8.38354239619835
30
0.000000000000000
11
-62.2387470997679
21
8.35913158809327
31
0.000000000000000
  0
LINE
  5
F1084A
330
F1084B
100
AcDbEntity
8
Geo
100
AcDbLine
10
-62.3387470997679
20
12.9877565481504
30
0.000000000000000
11
-62.2387470997679
21
12.8373541968938
31
0.000000000000000
  0
LINE
  5
F1084C
330
F1084D
100
AcDbEntity
8
Geo
100
AcDbLine
10
-62.2387470997679
20
8.35913158809327
30
0.000000000000000
11
-62.1387470997679
21
8.34052641976084
31
0.000000000000000
  0
LINE
  5
F1084E
330
F1084F
100
AcDbEntity
8
Geo
100
AcDbLine
10
-62.2387470997679
20
12.8373541968938
30
0.000000000000000
11
-62.1387470997679
21
12.6861239005667
31
0.000000000000000
  0
LINE
  5
F10850
330
F10851
100
AcDbEntity
8
Geo
100
AcDbLine
10
-62.1387470997679
20
8.34052641976084
30
0.000000000000000
11
-62.0387470997679
21
8.32775445101070
31
0.000000000000000
  0
LINE
  5
F10852
330
F10853
100
AcDbEntity
8
Geo
100
AcDbLine
10
-62.1387470997679
20
12.6861239005667
30
0.000000000000000
11
-62.0387470997679
21
12.5342896763940
31
0.000000000000000
  0
LINE
  5
F10854
330
F10855
100
AcDbEntity
8
Geo
100
AcDbLine
10
-62.0387470997679
20
8.32775445101070
30
0.000000000000000
11
-61.9387470997679
21
8.32083460094218
31
0.000000000000000
  0
LINE
  5
F10856
330
F10857
100
AcDbEntity
8
Geo
100
AcDbLine
10
-62.0387470997679
20
12.5342896763940
30
0.000000000000000
11
-61.9387470997679
21
12.3820764361982
31
0.000000000000000
  0
LINE
  5
F10858
330
F10859
100
AcDbEntity
8
Geo
100
AcDbLine
10
-61.9387470997679
20
12.3820764361982
30
0.000000000000000
11
-61.8387470997679
21
12.2297096532377
31
0.000000000000000
  0
LINE
  5
F1085A
330
F1085B
100
AcDbEntity
8
Geo
100
AcDbLine
10
-61.8387470997679
20
16.2370674276444
30
0.000000000000000
11
-61.7387470997679
21
16.2322609731763
31
0.000000000000000
  0
LINE
  5
F1085C
330
F1085D
100
AcDbEntity
8
Geo
100
AcDbLine
10
-61.8387470997679
20
12.2297096532377
30
0.000000000000000
11
-61.7387470997679
21
12.0774150282133
31
0.000000000000000
  0
LINE
  5
F1085E
330
F1085F
100
AcDbEntity
8
Geo
100
AcDbLine
10
-61.7387470997679
20
16.2322609731763
30
0.000000000000000
11
-61.6387470997679
21
16.2215977030114
31
0.000000000000000
  0
LINE
  5
F10860
330
F10861
100
AcDbEntity
8
Geo
100
AcDbLine
10
-61.7387470997679
20
12.0774150282133
30
0.000000000000000
11
-61.6387470997679
21
11.9254181549387
31
0.000000000000000
  0
LINE
  5
F10862
330
F10863
100
AcDbEntity
8
Geo
100
AcDbLine
10
-61.6387470997679
20
16.2215977030114
30
0.000000000000000
11
-61.5387470997679
21
16.2050934126369
31
0.000000000000000
  0
LINE
  5
F10864
330
F10865
100
AcDbEntity
8
Geo
100
AcDbLine
10
-61.6387470997679
20
11.9254181549387
30
0.000000000000000
11
-61.5387470997679
21
11.7739441861682
31
0.000000000000000
  0
LINE
  5
F10866
330
F10867
100
AcDbEntity
8
Geo
100
AcDbLine
10
-61.5387470997679
20
16.2050934126369
30
0.000000000000000
11
-61.4387470997679
21
16.1827725498350
31
0.000000000000000
  0
LINE
  5
F10868
330
F10869
100
AcDbEntity
8
Geo
100
AcDbLine
10
-61.5387470997679
20
11.7739441861682
30
0.000000000000000
11
-61.4387470997679
21
11.6232175000783
31
0.000000000000000
  0
LINE
  5
F1086A
330
F1086B
100
AcDbEntity
8
Geo
100
AcDbLine
10
-61.4387470997679
20
16.1827725498350
30
0.000000000000000
11
-61.3387470997679
21
16.1546681784681
31
0.000000000000000
  0
LINE
  5
F1086C
330
F1086D
100
AcDbEntity
8
Geo
100
AcDbLine
10
-61.4387470997679
20
11.6232175000783
30
0.000000000000000
11
-61.3387470997679
21
11.4734613678968
31
0.000000000000000
  0
LINE
  5
F1086E
330
F1086F
100
AcDbEntity
8
Geo
100
AcDbLine
10
-61.3387470997679
20
16.1546681784681
30
0.000000000000000
11
-61.2387470997679
21
16.1208219295020
31
0.000000000000000
  0
LINE
  5
F10870
330
F10871
100
AcDbEntity
8
Geo
100
AcDbLine
10
-61.3387470997679
20
11.4734613678968
30
0.000000000000000
11
-61.2387470997679
21
11.3248976231716
31
0.000000000000000
  0
LINE
  5
F10872
330
F10873
100
AcDbEntity
8
Geo
100
AcDbLine
10
-61.2387470997679
20
16.1208219295020
30
0.000000000000000
11
-61.1387470997679
21
16.0812839393377
31
0.000000000000000
  0
LINE
  5
F10874
330
F10875
100
AcDbEntity
8
Geo
100
AcDbLine
10
-61.2387470997679
20
11.3248976231716
30
0.000000000000000
11
-61.1387470997679
21
11.1777463331683
31
0.000000000000000
  0
LINE
  5
F10876
330
F10877
100
AcDbEntity
8
Geo
100
AcDbLine
10
-61.1387470997679
20
16.0812839393377
30
0.000000000000000
11
-61.0387470997679
21
16.0361127755443
31
0.000000000000000
  0
LINE
  5
F10878
330
F10879
100
AcDbEntity
8
Geo
100
AcDbLine
10
-61.1387470997679
20
11.1777463331683
30
0.000000000000000
11
-61.0387470997679
21
11.0322254728856
31
0.000000000000000
  0
LINE
  5
F1087A
330
F1087B
100
AcDbEntity
8
Geo
100
AcDbLine
10
-61.0387470997679
20
16.0361127755443
30
0.000000000000000
11
-60.9387470997679
21
15.9853753501031
31
0.000000000000000
  0
LINE
  5
F1087C
330
F1087D
100
AcDbEntity
8
Geo
100
AcDbLine
10
-61.0387470997679
20
11.0322254728856
30
0.000000000000000
11
-60.9387470997679
21
10.8885506021689
31
0.000000000000000
  0
LINE
  5
F1087E
330
F1087F
100
AcDbEntity
8
Geo
100
AcDbLine
10
-60.9387470997679
20
15.9853753501031
30
0.000000000000000
11
-60.8387470997679
21
15.9291468202909
31
0.000000000000000
  0
LINE
  5
F10880
330
F10881
100
AcDbEntity
8
Geo
100
AcDbLine
10
-60.9387470997679
20
10.8885506021689
30
0.000000000000000
11
-60.8387470997679
21
10.7469345464018
31
0.000000000000000
  0
LINE
  5
F10882
330
F10883
100
AcDbEntity
8
Geo
100
AcDbLine
10
-60.8387470997679
20
15.9291468202909
30
0.000000000000000
11
-60.7387470997679
21
15.8675104773498
31
0.000000000000000
  0
LINE
  5
F10884
330
F10885
100
AcDbEntity
8
Geo
100
AcDbLine
10
-60.8387470997679
20
10.7469345464018
30
0.000000000000000
11
-60.7387470997679
21
10.6075870812483
31
0.000000000000000
  0
LINE
  5
F10886
330
F10887
100
AcDbEntity
8
Geo
100
AcDbLine
10
-60.7387470997679
20
15.8675104773498
30
0.000000000000000
11
-60.6387470997679
21
15.8005576231078
31
0.000000000000000
  0
LINE
  5
F10888
330
F10889
100
AcDbEntity
8
Geo
100
AcDbLine
10
-60.7387470997679
20
10.6075870812483
30
0.000000000000000
11
-60.6387470997679
21
10.4707146219122
31
0.000000000000000
  0
LINE
  5
F1088A
330
F1088B
100
AcDbEntity
8
Geo
100
AcDbLine
10
-60.6387470997679
20
15.8005576231078
30
0.000000000000000
11
-60.5387470997679
21
15.7283874347335
31
0.000000000000000
  0
LINE
  5
F1088C
330
F1088D
100
AcDbEntity
8
Geo
100
AcDbLine
10
-60.6387470997679
20
10.4707146219122
30
0.000000000000000
11
-60.5387470997679
21
10.3365199173747
31
0.000000000000000
  0
LINE
  5
F1088E
330
F1088F
100
AcDbEntity
8
Geo
100
AcDbLine
10
-60.5387470997679
20
15.7283874347335
30
0.000000000000000
11
-60.4387470997679
21
15.6511068178253
31
0.000000000000000
  0
LINE
  5
F10890
330
F10891
100
AcDbEntity
8
Geo
100
AcDbLine
10
-60.5387470997679
20
10.3365199173747
30
0.000000000000000
11
-60.4387470997679
21
10.2052017500628
31
0.000000000000000
  0
LINE
  5
F10892
330
F10893
100
AcDbEntity
8
Geo
100
AcDbLine
10
-60.4387470997679
20
15.6511068178253
30
0.000000000000000
11
-60.3387470997679
21
15.5688302480523
31
0.000000000000000
  0
LINE
  5
F10894
330
F10895
100
AcDbEntity
8
Geo
100
AcDbLine
10
-60.4387470997679
20
10.2052017500628
30
0.000000000000000
11
-60.3387470997679
21
10.0769546413927
31
0.000000000000000
  0
LINE
  5
F10896
330
F10897
100
AcDbEntity
8
Geo
100
AcDbLine
10
-60.3387470997679
20
15.5688302480523
30
0.000000000000000
11
-60.2387470997679
21
15.4816796015813
31
0.000000000000000
  0
LINE
  5
F10898
330
F10899
100
AcDbEntity
8
Geo
100
AcDbLine
10
-60.3387470997679
20
10.0769546413927
30
0.000000000000000
11
-60.2387470997679
21
9.95196856362582
31
0.000000000000000
  0
LINE
  5
F1089A
330
F1089B
100
AcDbEntity
8
Geo
100
AcDbLine
10
-60.2387470997679
20
15.4816796015813
30
0.000000000000000
11
-60.1387470997679
21
15.3897839745422
31
0.000000000000000
  0
LINE
  5
F1089C
330
F1089D
100
AcDbEntity
8
Geo
100
AcDbLine
10
-60.2387470997679
20
9.95196856362582
30
0.000000000000000
11
-60.1387470997679
21
9.83042865846312
31
0.000000000000000
  0
LINE
  5
F1089E
330
F1089F
100
AcDbEntity
8
Geo
100
AcDbLine
10
-60.1387470997679
20
15.3897839745422
30
0.000000000000000
11
-60.0387470997679
21
15.2932794917979
31
0.000000000000000
  0
LINE
  5
F108A0
330
F108A1
100
AcDbEntity
8
Geo
100
AcDbLine
10
-60.1387470997679
20
9.83042865846312
30
0.000000000000000
11
-60.0387470997679
21
9.71251496279496
31
0.000000000000000
  0
LINE
  5
F108A2
330
F108A3
100
AcDbEntity
8
Geo
100
AcDbLine
10
-60.0387470997679
20
15.2932794917979
30
0.000000000000000
11
-59.9387470997679
21
15.1923091053028
31
0.000000000000000
  0
LINE
  5
F108A4
330
F108A5
100
AcDbEntity
8
Geo
100
AcDbLine
10
-60.0387470997679
20
9.71251496279496
30
0.000000000000000
11
-59.9387470997679
21
9.59840214201265
31
0.000000000000000
  0
LINE
  5
F108A6
330
F108A7
100
AcDbEntity
8
Geo
100
AcDbLine
10
-59.9387470997679
20
15.1923091053028
30
0.000000000000000
11
-59.8387470997679
21
15.0870223823482
31
0.000000000000000
  0
LINE
  5
F108A8
330
F108A9
100
AcDbEntity
8
Geo
100
AcDbLine
10
-59.9387470997679
20
9.59840214201265
30
0.000000000000000
11
-59.8387470997679
21
9.48825923127689
31
0.000000000000000
  0
LINE
  5
F108AA
330
F108AB
100
AcDbEntity
8
Geo
100
AcDbLine
10
-59.8387470997679
20
15.0870223823482
30
0.000000000000000
11
-59.7387470997679
21
14.9775752840085
31
0.000000000000000
  0
LINE
  5
F108AC
330
F108AD
100
AcDbEntity
8
Geo
100
AcDbLine
10
-59.8387470997679
20
9.48825923127689
30
0.000000000000000
11
-59.7387470997679
21
9.38224938512623
31
0.000000000000000
  0
LINE
  5
F108AE
330
F108AF
100
AcDbEntity
8
Geo
100
AcDbLine
10
-59.7387470997679
20
14.9775752840085
30
0.000000000000000
11
-59.6387470997679
21
14.8641299341163
31
0.000000000000000
  0
LINE
  5
F108B0
330
F108B1
100
AcDbEntity
8
Geo
100
AcDbLine
10
-59.7387470997679
20
9.38224938512623
30
0.000000000000000
11
-59.6387470997679
21
9.28052963579647
31
0.000000000000000
  0
LINE
  5
F108B2
330
F108B3
100
AcDbEntity
8
Geo
100
AcDbLine
10
-59.6387470997679
20
14.8641299341163
30
0.000000000000000
11
-59.5387470997679
21
14.7468543791087
31
0.000000000000000
  0
LINE
  5
F108B4
330
F108B5
100
AcDbEntity
8
Geo
100
AcDbLine
10
-59.6387470997679
20
9.28052963579647
30
0.000000000000000
11
-59.5387470997679
21
9.18325066060902
31
0.000000000000000
  0
LINE
  5
F108B6
330
F108B7
100
AcDbEntity
8
Geo
100
AcDbLine
10
-59.5387470997679
20
14.7468543791087
30
0.000000000000000
11
-59.4387470997679
21
14.6259223391001
31
0.000000000000000
  0
LINE
  5
F108B8
330
F108B9
100
AcDbEntity
8
Geo
100
AcDbLine
10
-59.5387470997679
20
9.18325066060902
30
0.000000000000000
11
-59.4387470997679
21
9.09055655877281
31
0.000000000000000
  0
LINE
  5
F108BA
330
F108BB
100
AcDbEntity
8
Geo
100
AcDbLine
10
-59.4387470997679
20
14.6259223391001
30
0.000000000000000
11
-59.3387470997679
21
14.5015129505510
31
0.000000000000000
  0
LINE
  5
F108BC
330
F108BD
100
AcDbEntity
8
Geo
100
AcDbLine
10
-59.4387470997679
20
9.09055655877281
30
0.000000000000000
11
-59.3387470997679
21
9.00258463793034
31
0.000000000000000
  0
LINE
  5
F108BE
330
F108BF
100
AcDbEntity
8
Geo
100
AcDbLine
10
-59.3387470997679
20
14.5015129505510
30
0.000000000000000
11
-59.2387470997679
21
14.3738105009135
31
0.000000000000000
  0
LINE
  5
F108C0
330
F108C1
100
AcDbEntity
8
Geo
100
AcDbLine
10
-59.3387470997679
20
9.00258463793034
30
0.000000000000000
11
-59.2387470997679
21
8.91946521076406
31
0.000000000000000
  0
LINE
  5
F108C2
330
F108C3
100
AcDbEntity
8
Geo
100
AcDbLine
10
-59.2387470997679
20
14.3738105009135
30
0.000000000000000
11
-59.1387470997679
21
14.2430041556464
31
0.000000000000000
  0
LINE
  5
F108C4
330
F108C5
100
AcDbEntity
8
Geo
100
AcDbLine
10
-59.2387470997679
20
8.91946521076406
30
0.000000000000000
11
-59.1387470997679
21
8.84132140196435
31
0.000000000000000
  0
LINE
  5
F108C6
330
F108C7
100
AcDbEntity
8
Geo
100
AcDbLine
10
-59.1387470997679
20
14.2430041556464
30
0.000000000000000
11
-59.0387470997679
21
14.1092876780047
31
0.000000000000000
  0
LINE
  5
F108C8
330
F108C9
100
AcDbEntity
8
Geo
100
AcDbLine
10
-59.1387470997679
20
8.84132140196435
30
0.000000000000000
11
-59.0387470997679
21
8.76826896584513
31
0.000000000000000
  0
LINE
  5
F108CA
330
F108CB
100
AcDbEntity
8
Geo
100
AcDbLine
10
-59.0387470997679
20
14.1092876780047
30
0.000000000000000
11
-58.9387470997679
21
13.9728591420183
31
0.000000000000000
  0
LINE
  5
F108CC
330
F108CD
100
AcDbEntity
8
Geo
100
AcDbLine
10
-59.0387470997679
20
8.76826896584513
30
0.000000000000000
11
-58.9387470997679
21
8.70041611487714
31
0.000000000000000
  0
LINE
  5
F108CE
330
F108CF
100
AcDbEntity
8
Geo
100
AcDbLine
10
-58.9387470997679
20
13.9728591420183
30
0.000000000000000
11
-58.8387470997679
21
13.8339206390856
31
0.000000000000000
  0
LINE
  5
F108D0
330
F108D1
100
AcDbEntity
8
Geo
100
AcDbLine
10
-58.9387470997679
20
8.70041611487714
30
0.000000000000000
11
-58.8387470997679
21
8.63786335939294
31
0.000000000000000
  0
LINE
  5
F108D2
330
F108D3
100
AcDbEntity
8
Geo
100
AcDbLine
10
-58.8387470997679
20
13.8339206390856
30
0.000000000000000
11
-58.7387470997679
21
13.6926779786151
31
0.000000000000000
  0
LINE
  5
F108D4
330
F108D5
100
AcDbEntity
8
Geo
100
AcDbLine
10
-58.8387470997679
20
8.63786335939294
30
0.000000000000000
11
-58.7387470997679
21
8.58070335870113
31
0.000000000000000
  0
LINE
  5
F108D6
330
F108D7
100
AcDbEntity
8
Geo
100
AcDbLine
10
-58.7387470997679
20
13.6926779786151
30
0.000000000000000
11
-58.6387470997679
21
13.5493403831609
31
0.000000000000000
  0
LINE
  5
F108D8
330
F108D9
100
AcDbEntity
8
Geo
100
AcDbLine
10
-58.7387470997679
20
8.58070335870113
30
0.000000000000000
11
-58.6387470997679
21
8.52902078383024
31
0.000000000000000
  0
LINE
  5
F108DA
330
F108DB
100
AcDbEntity
8
Geo
100
AcDbLine
10
-58.6387470997679
20
13.5493403831609
30
0.000000000000000
11
-58.5387470997679
21
13.4041201785013
31
0.000000000000000
  0
LINE
  5
F108DC
330
F108DD
100
AcDbEntity
8
Geo
100
AcDbLine
10
-58.6387470997679
20
8.52902078383024
30
0.000000000000000
11
-58.5387470997679
21
8.48289219210563
31
0.000000000000000
  0
LINE
  5
F108DE
330
F108DF
100
AcDbEntity
8
Geo
100
AcDbLine
10
-58.5387470997679
20
13.4041201785013
30
0.000000000000000
11
-58.4387470997679
21
13.2572324791210
31
0.000000000000000
  0
LINE
  5
F108E0
330
F108E1
100
AcDbEntity
8
Geo
100
AcDbLine
10
-58.5387470997679
20
8.48289219210563
30
0.000000000000000
11
-58.4387470997679
21
8.44238591374524
31
0.000000000000000
  0
LINE
  5
F108E2
330
F108E3
100
AcDbEntity
8
Geo
100
AcDbLine
10
-58.4387470997679
20
13.2572324791210
30
0.000000000000000
11
-58.3387470997679
21
13.1088948695620
31
0.000000000000000
  0
LINE
  5
F108E4
330
F108E5
100
AcDbEntity
8
Geo
100
AcDbLine
10
-58.4387470997679
20
8.44238591374524
30
0.000000000000000
11
-58.3387470997679
21
8.40756195064217
31
0.000000000000000
  0
LINE
  5
F108E6
330
F108E7
100
AcDbEntity
8
Geo
100
AcDbLine
10
-58.3387470997679
20
13.1088948695620
30
0.000000000000000
11
-58.2387470997679
21
12.9593270821166
31
0.000000000000000
  0
LINE
  5
F108E8
330
F108E9
100
AcDbEntity
8
Geo
100
AcDbLine
10
-58.3387470997679
20
8.40756195064217
30
0.000000000000000
11
-58.2387470997679
21
8.37847188748391
31
0.000000000000000
  0
LINE
  5
F108EA
330
F108EB
100
AcDbEntity
8
Geo
100
AcDbLine
10
-58.2387470997679
20
12.9593270821166
30
0.000000000000000
11
-58.1387470997679
21
12.8087506713376
31
0.000000000000000
  0
LINE
  5
F108EC
330
F108ED
100
AcDbEntity
8
Geo
100
AcDbLine
10
-58.2387470997679
20
8.37847188748391
30
0.000000000000000
11
-58.1387470997679
21
8.35515881534004
31
0.000000000000000
  0
LINE
  5
F108EE
330
F108EF
100
AcDbEntity
8
Geo
100
AcDbLine
10
-58.1387470997679
20
12.8087506713376
30
0.000000000000000
11
-58.0387470997679
21
12.6573886858503
31
0.000000000000000
  0
LINE
  5
F108F0
330
F108F1
100
AcDbEntity
8
Geo
100
AcDbLine
10
-58.1387470997679
20
8.35515881534004
30
0.000000000000000
11
-58.0387470997679
21
8.33765726783151
31
0.000000000000000
  0
LINE
  5
F108F2
330
F108F3
100
AcDbEntity
8
Geo
100
AcDbLine
10
-58.0387470997679
20
12.6573886858503
30
0.000000000000000
11
-57.9387470997679
21
12.5054653379505
31
0.000000000000000
  0
LINE
  5
F108F4
330
F108F5
100
AcDbEntity
8
Geo
100
AcDbLine
10
-58.0387470997679
20
8.33765726783151
30
0.000000000000000
11
-57.9387470997679
21
8.32599316997598
31
0.000000000000000
  0
LINE
  5
F108F6
330
F108F7
100
AcDbEntity
8
Geo
100
AcDbLine
10
-57.9387470997679
20
12.5054653379505
30
0.000000000000000
11
-57.8387470997679
21
12.3532056714795
31
0.000000000000000
  0
LINE
  5
F108F8
330
F108F9
100
AcDbEntity
8
Geo
100
AcDbLine
10
-57.9387470997679
20
8.32599316997598
30
0.000000000000000
11
-57.8387470997679
21
8.32018379978517
31
0.000000000000000
  0
LINE
  5
F108FA
330
F108FB
100
AcDbEntity
8
Geo
100
AcDbLine
10
-57.8387470997679
20
12.3532056714795
30
0.000000000000000
11
-57.7387470997679
21
12.2008352284669
31
0.000000000000000
  0
LINE
  5
F108FC
330
F108FD
100
AcDbEntity
8
Geo
100
AcDbLine
10
-57.7387470997679
20
16.2366067848929
30
0.000000000000000
11
-57.6387470997679
21
16.2306895688656
31
0.000000000000000
  0
LINE
  5
F108FE
330
F108FF
100
AcDbEntity
8
Geo
100
AcDbLine
10
-57.7387470997679
20
12.2008352284669
30
0.000000000000000
11
-57.6387470997679
21
12.0485797150352
31
0.000000000000000
  0
LINE
  5
F10900
330
F10901
100
AcDbEntity
8
Geo
100
AcDbLine
10
-57.6387470997679
20
16.2306895688656
30
0.000000000000000
11
-57.5387470997679
21
16.2189178648606
31
0.000000000000000
  0
LINE
  5
F10902
330
F10903
100
AcDbEntity
8
Geo
100
AcDbLine
10
-57.6387470997679
20
12.0485797150352
30
0.000000000000000
11
-57.5387470997679
21
11.8966646670620
31
0.000000000000000
  0
LINE
  5
F10904
330
F10905
100
AcDbEntity
8
Geo
100
AcDbLine
10
-57.5387470997679
20
16.2189178648606
30
0.000000000000000
11
-57.4387470997679
21
16.2013091102866
31
0.000000000000000
  0
LINE
  5
F10906
330
F10907
100
AcDbEntity
8
Geo
100
AcDbLine
10
-57.5387470997679
20
11.8966646670620
30
0.000000000000000
11
-57.4387470997679
21
11.7453151160940
31
0.000000000000000
  0
LINE
  5
F10908
330
F10909
100
AcDbEntity
8
Geo
100
AcDbLine
10
-57.4387470997679
20
16.2013091102866
30
0.000000000000000
11
-57.3387470997679
21
16.1778893889667
31
0.000000000000000
  0
LINE
  5
F1090A
330
F1090B
100
AcDbEntity
8
Geo
100
AcDbLine
10
-57.4387470997679
20
11.7453151160940
30
0.000000000000000
11
-57.3387470997679
21
11.5947552560078
31
0.000000000000000
  0
LINE
  5
F1090C
330
F1090D
100
AcDbEntity
8
Geo
100
AcDbLine
10
-57.3387470997679
20
16.1778893889667
30
0.000000000000000
11
-57.2387470997679
21
16.1486933925012
31
0.000000000000000
  0
LINE
  5
F1090E
330
F1090F
100
AcDbEntity
8
Geo
100
AcDbLine
10
-57.3387470997679
20
11.5947552560078
30
0.000000000000000
11
-57.2387470997679
21
11.4452081109122
31
0.000000000000000
  0
LINE
  5
F10910
330
F10911
100
AcDbEntity
8
Geo
100
AcDbLine
10
-57.2387470997679
20
16.1486933925012
30
0.000000000000000
11
-57.1387470997679
21
16.1137643688786
31
0.000000000000000
  0
LINE
  5
F10912
330
F10913
100
AcDbEntity
8
Geo
100
AcDbLine
10
-57.2387470997679
20
11.4452081109122
30
0.000000000000000
11
-57.1387470997679
21
11.2968952047825
31
0.000000000000000
  0
LINE
  5
F10914
330
F10915
100
AcDbEntity
8
Geo
100
AcDbLine
10
-57.1387470997679
20
16.1137643688786
30
0.000000000000000
11
-57.0387470997679
21
16.0731540584124
31
0.000000000000000
  0
LINE
  5
F10916
330
F10917
100
AcDbEntity
8
Geo
100
AcDbLine
10
-57.1387470997679
20
11.2968952047825
30
0.000000000000000
11
-57.0387470997679
21
11.1500362333177
31
0.000000000000000
  0
LINE
  5
F10918
330
F10919
100
AcDbEntity
8
Geo
100
AcDbLine
10
-57.0387470997679
20
16.0731540584124
30
0.000000000000000
11
-56.9387470997679
21
16.0269226170982
31
0.000000000000000
  0
LINE
  5
F1091A
330
F1091B
100
AcDbEntity
8
Geo
100
AcDbLine
10
-57.0387470997679
20
11.1500362333177
30
0.000000000000000
11
-56.9387470997679
21
11.0048487385054
31
0.000000000000000
  0
LINE
  5
F1091C
330
F1091D
100
AcDbEntity
8
Geo
100
AcDbLine
10
-56.9387470997679
20
16.0269226170982
30
0.000000000000000
11
-56.8387470997679
21
15.9751385275050
31
0.000000000000000
  0
LINE
  5
F1091E
330
F1091F
100
AcDbEntity
8
Geo
100
AcDbLine
10
-56.9387470997679
20
11.0048487385054
30
0.000000000000000
11
-56.8387470997679
21
10.8615477863771
31
0.000000000000000
  0
LINE
  5
F10920
330
F10921
100
AcDbEntity
8
Geo
100
AcDbLine
10
-56.8387470997679
20
15.9751385275050
30
0.000000000000000
11
-56.7387470997679
21
15.9178784973318
31
0.000000000000000
  0
LINE
  5
F10922
330
F10923
100
AcDbEntity
8
Geo
100
AcDbLine
10
-56.8387470997679
20
10.8615477863771
30
0.000000000000000
11
-56.7387470997679
21
10.7203456484314
31
0.000000000000000
  0
LINE
  5
F10924
330
F10925
100
AcDbEntity
8
Geo
100
AcDbLine
10
-56.7387470997679
20
15.9178784973318
30
0.000000000000000
11
-56.6387470997679
21
15.8552273457805
31
0.000000000000000
  0
LINE
  5
F10926
330
F10927
100
AcDbEntity
8
Geo
100
AcDbLine
10
-56.7387470997679
20
10.7203456484314
30
0.000000000000000
11
-56.6387470997679
21
10.5814514871965
31
0.000000000000000
  0
LINE
  5
F10928
330
F10929
100
AcDbEntity
8
Geo
100
AcDbLine
10
-56.6387470997679
20
15.8552273457805
30
0.000000000000000
11
-56.5387470997679
21
15.7872778779138
31
0.000000000000000
  0
LINE
  5
F1092A
330
F1092B
100
AcDbEntity
8
Geo
100
AcDbLine
10
-56.6387470997679
20
10.5814514871965
30
0.000000000000000
11
-56.5387470997679
21
10.4450710463976
31
0.000000000000000
  0
LINE
  5
F1092C
330
F1092D
100
AcDbEntity
8
Geo
100
AcDbLine
10
-56.5387470997679
20
15.7872778779138
30
0.000000000000000
11
-56.4387470997679
21
15.7141307471827
31
0.000000000000000
  0
LINE
  5
F1092E
330
F1092F
100
AcDbEntity
8
Geo
100
AcDbLine
10
-56.5387470997679
20
10.4450710463976
30
0.000000000000000
11
-56.4387470997679
21
10.3114063461897
31
0.000000000000000
  0
LINE
  5
F10930
330
F10931
100
AcDbEntity
8
Geo
100
AcDbLine
10
-56.4387470997679
20
15.7141307471827
30
0.000000000000000
11
-56.3387470997679
21
15.6358943063289
31
0.000000000000000
  0
LINE
  5
F10932
330
F10933
100
AcDbEntity
8
Geo
100
AcDbLine
10
-56.4387470997679
20
10.3114063461897
30
0.000000000000000
11
-56.3387470997679
21
10.1806553839049
31
0.000000000000000
  0
LINE
  5
F10934
330
F10935
100
AcDbEntity
8
Geo
100
AcDbLine
10
-56.3387470997679
20
15.6358943063289
30
0.000000000000000
11
-56.2387470997679
21
15.5526844468820
31
0.000000000000000
  0
LINE
  5
F10936
330
F10937
100
AcDbEntity
8
Geo
100
AcDbLine
10
-56.3387470997679
20
10.1806553839049
30
0.000000000000000
11
-56.2387470997679
21
10.0530118407595
31
0.000000000000000
  0
LINE
  5
F10938
330
F10939
100
AcDbEntity
8
Geo
100
AcDbLine
10
-56.2387470997679
20
15.5526844468820
30
0.000000000000000
11
-56.1387470997679
21
15.4646244274898
31
0.000000000000000
  0
LINE
  5
F1093A
330
F1093B
100
AcDbEntity
8
Geo
100
AcDbLine
10
-56.2387470997679
20
10.0530118407595
30
0.000000000000000
11
-56.1387470997679
21
9.92866479495423
31
0.000000000000000
  0
LINE
  5
F1093C
330
F1093D
100
AcDbEntity
8
Geo
100
AcDbLine
10
-56.1387470997679
20
15.4646244274898
30
0.000000000000000
11
-56.0387470997679
21
15.3718446913348
31
0.000000000000000
  0
LINE
  5
F1093E
330
F1093F
100
AcDbEntity
8
Geo
100
AcDbLine
10
-56.1387470997679
20
9.92866479495423
30
0.000000000000000
11
-56.0387470997679
21
9.80779844159285
31
0.000000000000000
  0
LINE
  5
F10940
330
F10941
100
AcDbEntity
8
Geo
100
AcDbLine
10
-56.0387470997679
20
15.3718446913348
30
0.000000000000000
11
-55.9387470997679
21
15.2744826729096
31
0.000000000000000
  0
LINE
  5
F10942
330
F10943
100
AcDbEntity
8
Geo
100
AcDbLine
10
-56.0387470997679
20
9.80779844159285
30
0.000000000000000
11
-55.9387470997679
21
9.69059181983438
31
0.000000000000000
  0
LINE
  5
F10944
330
F10945
100
AcDbEntity
8
Geo
100
AcDbLine
10
-55.9387470997679
20
15.2744826729096
30
0.000000000000000
11
-55.8387470997679
21
15.1726825944349
31
0.000000000000000
  0
LINE
  5
F10946
330
F10947
100
AcDbEntity
8
Geo
100
AcDbLine
10
-55.9387470997679
20
9.69059181983438
30
0.000000000000000
11
-55.8387470997679
21
9.57721854768256
31
0.000000000000000
  0
LINE
  5
F10948
330
F10949
100
AcDbEntity
8
Geo
100
AcDbLine
10
-55.8387470997679
20
15.1726825944349
30
0.000000000000000
11
-55.7387470997679
21
15.0665952522236
31
0.000000000000000
  0
LINE
  5
F1094A
330
F1094B
100
AcDbEntity
8
Geo
100
AcDbLine
10
-55.8387470997679
20
9.57721854768256
30
0.000000000000000
11
-55.7387470997679
21
9.46784656480573
31
0.000000000000000
  0
LINE
  5
F1094C
330
F1094D
100
AcDbEntity
8
Geo
100
AcDbLine
10
-55.7387470997679
20
15.0665952522236
30
0.000000000000000
11
-55.6387470997679
21
14.9563777933063
31
0.000000000000000
  0
LINE
  5
F1094E
330
F1094F
100
AcDbEntity
8
Geo
100
AcDbLine
10
-55.7387470997679
20
9.46784656480573
30
0.000000000000000
11
-55.6387470997679
21
9.36263788376809
31
0.000000000000000
  0
LINE
  5
F10950
330
F10951
100
AcDbEntity
8
Geo
100
AcDbLine
10
-55.6387470997679
20
14.9563777933063
30
0.000000000000000
11
-55.5387470997679
21
14.8421934826496
31
0.000000000000000
  0
LINE
  5
F10952
330
F10953
100
AcDbEntity
8
Geo
100
AcDbLine
10
-55.6387470997679
20
9.36263788376809
30
0.000000000000000
11
-55.5387470997679
21
9.26174835004070
31
0.000000000000000
  0
LINE
  5
F10954
330
F10955
100
AcDbEntity
8
Geo
100
AcDbLine
10
-55.5387470997679
20
14.8421934826496
30
0.000000000000000
11
-55.4387470997679
21
14.7242114613122
31
0.000000000000000
  0
LINE
  5
F10956
330
F10957
100
AcDbEntity
8
Geo
100
AcDbLine
10
-55.5387470997679
20
9.26174835004070
30
0.000000000000000
11
-55.4387470997679
21
9.16532741114775
31
0.000000000000000
  0
LINE
  5
F10958
330
F10959
100
AcDbEntity
8
Geo
100
AcDbLine
10
-55.4387470997679
20
14.7242114613122
30
0.000000000000000
11
-55.3387470997679
21
14.6026064958960
31
0.000000000000000
  0
LINE
  5
F1095A
330
F1095B
100
AcDbEntity
8
Geo
100
AcDbLine
10
-55.4387470997679
20
9.16532741114775
30
0.000000000000000
11
-55.3387470997679
21
9.07351789529022
31
0.000000000000000
  0
LINE
  5
F1095C
330
F1095D
100
AcDbEntity
8
Geo
100
AcDbLine
10
-55.3387470997679
20
14.6026064958960
30
0.000000000000000
11
-55.2387470997679
21
14.4775587196650
31
0.000000000000000
  0
LINE
  5
F1095E
330
F1095F
100
AcDbEntity
8
Geo
100
AcDbLine
10
-55.3387470997679
20
9.07351789529022
30
0.000000000000000
11
-55.2387470997679
21
8.98645579977466
31
0.000000000000000
  0
LINE
  5
F10960
330
F10961
100
AcDbEntity
8
Geo
100
AcDbLine
10
-55.2387470997679
20
14.4775587196650
30
0.000000000000000
11
-55.1387470997679
21
14.3492533657142
31
0.000000000000000
  0
LINE
  5
F10962
330
F10963
100
AcDbEntity
8
Geo
100
AcDbLine
10
-55.2387470997679
20
8.98645579977466
30
0.000000000000000
11
-55.1387470997679
21
8.90427008956053
31
0.000000000000000
  0
LINE
  5
F10964
330
F10965
100
AcDbEntity
8
Geo
100
AcDbLine
10
-55.1387470997679
20
14.3492533657142
30
0.000000000000000
11
-55.0387470997679
21
14.2178804925834
31
0.000000000000000
  0
LINE
  5
F10966
330
F10967
100
AcDbEntity
8
Geo
100
AcDbLine
10
-55.1387470997679
20
8.90427008956053
30
0.000000000000000
11
-55.0387470997679
21
8.82708250622460
31
0.000000000000000
  0
LINE
  5
F10968
330
F10969
100
AcDbEntity
8
Geo
100
AcDbLine
10
-55.0387470997679
20
14.2178804925834
30
0.000000000000000
11
-54.9387470997679
21
14.0836347027248
31
0.000000000000000
  0
LINE
  5
F1096A
330
F1096B
100
AcDbEntity
8
Geo
100
AcDbLine
10
-55.0387470997679
20
8.82708250622460
30
0.000000000000000
11
-54.9387470997679
21
8.75500738762537
31
0.000000000000000
  0
LINE
  5
F1096C
330
F1096D
100
AcDbEntity
8
Geo
100
AcDbLine
10
-54.9387470997679
20
14.0836347027248
30
0.000000000000000
11
-54.8387470997679
21
13.9467148542376
31
0.000000000000000
  0
LINE
  5
F1096E
330
F1096F
100
AcDbEntity
8
Geo
100
AcDbLine
10
-54.9387470997679
20
8.75500738762537
30
0.000000000000000
11
-54.8387470997679
21
8.68815149853451
31
0.000000000000000
  0
LINE
  5
F10970
330
F10971
100
AcDbEntity
8
Geo
100
AcDbLine
10
-54.8387470997679
20
13.9467148542376
30
0.000000000000000
11
-54.7387470997679
21
13.8073237663008
31
0.000000000000000
  0
LINE
  5
F10972
330
F10973
100
AcDbEntity
8
Geo
100
AcDbLine
10
-54.8387470997679
20
8.68815149853451
30
0.000000000000000
11
-54.7387470997679
21
8.62661387248635
31
0.000000000000000
  0
LINE
  5
F10974
330
F10975
100
AcDbEntity
8
Geo
100
AcDbLine
10
-54.7387470997679
20
13.8073237663008
30
0.000000000000000
11
-54.6387470997679
21
13.6656679187364
31
0.000000000000000
  0
LINE
  5
F10976
330
F10977
100
AcDbEntity
8
Geo
100
AcDbLine
10
-54.7387470997679
20
8.62661387248635
30
0.000000000000000
11
-54.6387470997679
21
8.57048566507970
31
0.000000000000000
  0
LINE
  5
F10978
330
F10979
100
AcDbEntity
8
Geo
100
AcDbLine
10
-54.6387470997679
20
13.6656679187364
30
0.000000000000000
11
-54.5387470997679
21
13.5219571461520
31
0.000000000000000
  0
LINE
  5
F1097A
330
F1097B
100
AcDbEntity
8
Geo
100
AcDbLine
10
-54.6387470997679
20
8.57048566507970
30
0.000000000000000
11
-54.5387470997679
21
8.51985001894913
31
0.000000000000000
  0
LINE
  5
F1097C
330
F1097D
100
AcDbEntity
8
Geo
100
AcDbLine
10
-54.5387470997679
20
13.5219571461520
30
0.000000000000000
11
-54.4387470997679
21
13.3764043271126
31
0.000000000000000
  0
LINE
  5
F1097E
330
F1097F
100
AcDbEntity
8
Geo
100
AcDbLine
10
-54.5387470997679
20
8.51985001894913
30
0.000000000000000
11
-54.4387470997679
21
8.47478194060594
31
0.000000000000000
  0
LINE
  5
F10980
330
F10981
100
AcDbEntity
8
Geo
100
AcDbLine
10
-54.4387470997679
20
13.3764043271126
30
0.000000000000000
11
-54.3387470997679
21
13.2292250688040
31
0.000000000000000
  0
LINE
  5
F10982
330
F10983
100
AcDbEntity
8
Geo
100
AcDbLine
10
-54.4387470997679
20
8.47478194060594
30
0.000000000000000
11
-54.3387470997679
21
8.43534818933111
31
0.000000000000000
  0
LINE
  5
F10984
330
F10985
100
AcDbEntity
8
Geo
100
AcDbLine
10
-54.3387470997679
20
13.2292250688040
30
0.000000000000000
11
-54.2387470997679
21
13.0806373876543
31
0.000000000000000
  0
LINE
  5
F10986
330
F10987
100
AcDbEntity
8
Geo
100
AcDbLine
10
-54.3387470997679
20
8.43534818933111
30
0.000000000000000
11
-54.2387470997679
21
8.40160717828485
31
0.000000000000000
  0
LINE
  5
F10988
330
F10989
100
AcDbEntity
8
Geo
100
AcDbLine
10
-54.2387470997679
20
13.0806373876543
30
0.000000000000000
11
-54.1387470997679
21
12.9308613863863
31
0.000000000000000
  0
LINE
  5
F1098A
330
F1098B
100
AcDbEntity
8
Geo
100
AcDbLine
10
-54.2387470997679
20
8.40160717828485
30
0.000000000000000
11
-54.1387470997679
21
8.37360888797931
31
0.000000000000000
  0
LINE
  5
F1098C
330
F1098D
100
AcDbEntity
8
Geo
100
AcDbLine
10
-54.1387470997679
20
12.9308613863863
30
0.000000000000000
11
-54.0387470997679
21
12.7801189279797
31
0.000000000000000
  0
LINE
  5
F1098E
330
F1098F
100
AcDbEntity
8
Geo
100
AcDbLine
10
-54.1387470997679
20
8.37360888797931
30
0.000000000000000
11
-54.0387470997679
21
8.35139479224248
31
0.000000000000000
  0
LINE
  5
F10990
330
F10991
100
AcDbEntity
8
Geo
100
AcDbLine
10
-54.0387470997679
20
12.7801189279797
30
0.000000000000000
11
-53.9387470997679
21
12.6286333070259
31
0.000000000000000
  0
LINE
  5
F10992
330
F10993
100
AcDbEntity
8
Geo
100
AcDbLine
10
-54.0387470997679
20
8.35139479224248
30
0.000000000000000
11
-53.9387470997679
21
8.33499779678309
31
0.000000000000000
  0
LINE
  5
F10994
330
F10995
100
AcDbEntity
8
Geo
100
AcDbLine
10
-53.9387470997679
20
12.6286333070259
30
0.000000000000000
11
-53.8387470997679
21
12.4766289189618
31
0.000000000000000
  0
LINE
  5
F10996
330
F10997
100
AcDbEntity
8
Geo
100
AcDbLine
10
-53.9387470997679
20
8.33499779678309
30
0.000000000000000
11
-53.8387470997679
21
8.32444219044743
31
0.000000000000000
  0
LINE
  5
F10998
330
F10999
100
AcDbEntity
8
Geo
100
AcDbLine
10
-53.8387470997679
20
12.4766289189618
30
0.000000000000000
11
-53.7387470997679
21
12.3243309276733
31
0.000000000000000
  0
LINE
  5
F1099A
330
F1099B
100
AcDbEntity
8
Geo
100
AcDbLine
10
-53.8387470997679
20
8.32444219044743
30
0.000000000000000
11
-53.7387470997679
21
8.31974360924028
31
0.000000000000000
  0
LINE
  5
F1099C
330
F1099D
100
AcDbEntity
8
Geo
100
AcDbLine
10
-53.7387470997679
20
12.3243309276733
30
0.000000000000000
11
-53.6387470997679
21
12.1719649319604
31
0.000000000000000
  0
LINE
  5
F1099E
330
F1099F
100
AcDbEntity
8
Geo
100
AcDbLine
10
-53.6387470997679
20
16.2359355344005
30
0.000000000000000
11
-53.5387470997679
21
16.2289078716583
31
0.000000000000000
  0
LINE
  5
F109A0
330
F109A1
100
AcDbEntity
8
Geo
100
AcDbLine
10
-53.6387470997679
20
12.1719649319604
30
0.000000000000000
11
-53.5387470997679
21
12.0197566313581
31
0.000000000000000
  0
LINE
  5
F109A2
330
F109A3
100
AcDbEntity
8
Geo
100
AcDbLine
10
-53.5387470997679
20
16.2289078716583
30
0.000000000000000
11
-53.4387470997679
21
16.2160283601640
31
0.000000000000000
  0
LINE
  5
F109A4
330
F109A5
100
AcDbEntity
8
Geo
100
AcDbLine
10
-53.5387470997679
20
12.0197566313581
30
0.000000000000000
11
-53.4387470997679
21
11.8679314918076
31
0.000000000000000
  0
LINE
  5
F109A6
330
F109A7
100
AcDbEntity
8
Geo
100
AcDbLine
10
-53.4387470997679
20
16.2160283601640
30
0.000000000000000
11
-53.3387470997679
21
16.1973160783199
31
0.000000000000000
  0
LINE
  5
F109A8
330
F109A9
100
AcDbEntity
8
Geo
100
AcDbLine
10
-53.4387470997679
20
11.8679314918076
30
0.000000000000000
11
-53.3387470997679
21
11.7167144116743
31
0.000000000000000
  0
LINE
  5
F109AA
330
F109AB
100
AcDbEntity
8
Geo
100
AcDbLine
10
-53.3387470997679
20
16.1973160783199
30
0.000000000000000
11
-53.2387470997679
21
16.1727987446025
31
0.000000000000000
  0
LINE
  5
F109AC
330
F109AD
100
AcDbEntity
8
Geo
100
AcDbLine
10
-53.3387470997679
20
11.7167144116743
30
0.000000000000000
11
-53.2387470997679
21
11.5663293886059
31
0.000000000000000
  0
LINE
  5
F109AE
330
F109AF
100
AcDbEntity
8
Geo
100
AcDbLine
10
-53.2387470997679
20
16.1727987446025
30
0.000000000000000
11
-53.1387470997679
21
16.1425126765039
31
0.000000000000000
  0
LINE
  5
F109B0
330
F109B1
100
AcDbEntity
8
Geo
100
AcDbLine
10
-53.2387470997679
20
11.5663293886059
30
0.000000000000000
11
-53.1387470997679
21
11.4169991877255
31
0.000000000000000
  0
LINE
  5
F109B2
330
F109B3
100
AcDbEntity
8
Geo
100
AcDbLine
10
-53.1387470997679
20
16.1425126765039
30
0.000000000000000
11
-53.0387470997679
21
16.1065027367341
31
0.000000000000000
  0
LINE
  5
F109B4
330
F109B5
100
AcDbEntity
8
Geo
100
AcDbLine
10
-53.1387470997679
20
11.4169991877255
30
0.000000000000000
11
-53.0387470997679
21
11.2689450116492
31
0.000000000000000
  0
LINE
  5
F109B6
330
F109B7
100
AcDbEntity
8
Geo
100
AcDbLine
10
-53.0387470997679
20
16.1065027367341
30
0.000000000000000
11
-52.9387470997679
21
16.0648222667661
31
0.000000000000000
  0
LINE
  5
F109B8
330
F109B9
100
AcDbEntity
8
Geo
100
AcDbLine
10
-53.0387470997679
20
11.2689450116492
30
0.000000000000000
11
-52.9387470997679
21
11.1223861728194
31
0.000000000000000
  0
LINE
  5
F109BA
330
F109BB
100
AcDbEntity
8
Geo
100
AcDbLine
10
-52.9387470997679
20
16.0648222667661
30
0.000000000000000
11
-52.8387470997679
21
16.0175330078214
31
0.000000000000000
  0
LINE
  5
F109BC
330
F109BD
100
AcDbEntity
8
Geo
100
AcDbLine
10
-52.9387470997679
20
11.1223861728194
30
0.000000000000000
11
-52.8387470997679
21
10.9775397686379
31
0.000000000000000
  0
LINE
  5
F109BE
330
F109BF
100
AcDbEntity
8
Geo
100
AcDbLine
10
-52.8387470997679
20
16.0175330078214
30
0.000000000000000
11
-52.7387470997679
21
15.9647050094127
31
0.000000000000000
  0
LINE
  5
F109C0
330
F109C1
100
AcDbEntity
8
Geo
100
AcDbLine
10
-52.8387470997679
20
10.9775397686379
30
0.000000000000000
11
-52.7387470997679
21
10.8346203598790
31
0.000000000000000
  0
LINE
  5
F109C2
330
F109C3
100
AcDbEntity
8
Geo
100
AcDbLine
10
-52.7387470997679
20
15.9647050094127
30
0.000000000000000
11
-52.6387470997679
21
15.9064165255796
31
0.000000000000000
  0
LINE
  5
F109C4
330
F109C5
100
AcDbEntity
8
Geo
100
AcDbLine
10
-52.7387470997679
20
10.8346203598790
30
0.000000000000000
11
-52.6387470997679
21
10.6938396528616
31
0.000000000000000
  0
LINE
  5
F109C6
330
F109C7
100
AcDbEntity
8
Geo
100
AcDbLine
10
-52.6387470997679
20
15.9064165255796
30
0.000000000000000
11
-52.5387470997679
21
15.8427538989711
31
0.000000000000000
  0
LINE
  5
F109C8
330
F109C9
100
AcDbEntity
8
Geo
100
AcDbLine
10
-52.6387470997679
20
10.6938396528616
30
0.000000000000000
11
-52.5387470997679
21
10.5554061858489
31
0.000000000000000
  0
LINE
  5
F109CA
330
F109CB
100
AcDbEntity
8
Geo
100
AcDbLine
10
-52.5387470997679
20
15.8427538989711
30
0.000000000000000
11
-52.4387470997679
21
15.7738114329463
31
0.000000000000000
  0
LINE
  5
F109CC
330
F109CD
100
AcDbEntity
8
Geo
100
AcDbLine
10
-52.5387470997679
20
10.5554061858489
30
0.000000000000000
11
-52.4387470997679
21
10.4195250201404
31
0.000000000000000
  0
LINE
  5
F109CE
330
F109CF
100
AcDbEntity
8
Geo
100
AcDbLine
10
-52.4387470997679
20
15.7738114329463
30
0.000000000000000
11
-52.3387470997679
21
15.6996912518830
31
0.000000000000000
  0
LINE
  5
F109D0
330
F109D1
100
AcDbEntity
8
Geo
100
AcDbLine
10
-52.4387470997679
20
10.4195250201404
30
0.000000000000000
11
-52.3387470997679
21
10.2863974363157
31
0.000000000000000
  0
LINE
  5
F109D2
330
F109D3
100
AcDbEntity
8
Geo
100
AcDbLine
10
-52.3387470997679
20
15.6996912518830
30
0.000000000000000
11
-52.2387470997679
21
15.6205031499012
31
0.000000000000000
  0
LINE
  5
F109D4
330
F109D5
100
AcDbEntity
8
Geo
100
AcDbLine
10
-52.3387470997679
20
10.2863974363157
30
0.000000000000000
11
-52.2387470997679
21
10.1562206360770
31
0.000000000000000
  0
LINE
  5
F109D6
330
F109D7
100
AcDbEntity
8
Geo
100
AcDbLine
10
-52.2387470997679
20
15.6205031499012
30
0.000000000000000
11
-52.1387470997679
21
15.5363644282246
31
0.000000000000000
  0
LINE
  5
F109D8
330
F109D9
100
AcDbEntity
8
Geo
100
AcDbLine
10
-52.2387470997679
20
10.1562206360770
30
0.000000000000000
11
-52.1387470997679
21
10.0291874501353
31
0.000000000000000
  0
LINE
  5
F109DA
330
F109DB
100
AcDbEntity
8
Geo
100
AcDbLine
10
-52.1387470997679
20
15.5363644282246
30
0.000000000000000
11
-52.0387470997679
21
15.4473997214233
31
0.000000000000000
  0
LINE
  5
F109DC
330
F109DD
100
AcDbEntity
8
Geo
100
AcDbLine
10
-52.1387470997679
20
10.0291874501353
30
0.000000000000000
11
-52.0387470997679
21
9.90548605256995
31
0.000000000000000
  0
LINE
  5
F109DE
330
F109DF
100
AcDbEntity
8
Geo
100
AcDbLine
10
-52.0387470997679
20
15.4473997214233
30
0.000000000000000
11
-51.9387470997679
21
15.3537408127921
31
0.000000000000000
  0
LINE
  5
F109E0
330
F109E1
100
AcDbEntity
8
Geo
100
AcDbLine
10
-52.0387470997679
20
9.90548605256995
30
0.000000000000000
11
-51.9387470997679
21
9.78529968208695
31
0.000000000000000
  0
LINE
  5
F109E2
330
F109E3
100
AcDbEntity
8
Geo
100
AcDbLine
10
-51.9387470997679
20
15.3537408127921
30
0.000000000000000
11
-51.8387470997679
21
15.2555264391404
31
0.000000000000000
  0
LINE
  5
F109E4
330
F109E5
100
AcDbEntity
8
Geo
100
AcDbLine
10
-51.9387470997679
20
9.78529968208695
30
0.000000000000000
11
-51.8387470997679
21
9.66880637058763
31
0.000000000000000
  0
LINE
  5
F109E6
330
F109E7
100
AcDbEntity
8
Geo
100
AcDbLine
10
-51.8387470997679
20
15.2555264391404
30
0.000000000000000
11
-51.7387470997679
21
15.1529020852817
31
0.000000000000000
  0
LINE
  5
F109E8
330
F109E9
100
AcDbEntity
8
Geo
100
AcDbLine
10
-51.8387470997679
20
9.66880637058763
30
0.000000000000000
11
-51.7387470997679
21
9.55617867945024
31
0.000000000000000
  0
LINE
  5
F109EA
330
F109EB
100
AcDbEntity
8
Geo
100
AcDbLine
10
-51.7387470997679
20
15.1529020852817
30
0.000000000000000
11
-51.6387470997679
21
15.0460197685266
31
0.000000000000000
  0
LINE
  5
F109EC
330
F109ED
100
AcDbEntity
8
Geo
100
AcDbLine
10
-51.7387470997679
20
9.55617867945024
30
0.000000000000000
11
-51.6387470997679
21
9.44758344391503
31
0.000000000000000
  0
LINE
  5
F109EE
330
F109EF
100
AcDbEntity
8
Geo
100
AcDbLine
10
-51.6387470997679
20
15.0460197685266
30
0.000000000000000
11
-51.5387470997679
21
14.9350378135006
31
0.000000000000000
  0
LINE
  5
F109F0
330
F109F1
100
AcDbEntity
8
Geo
100
AcDbLine
10
-51.6387470997679
20
9.44758344391503
30
0.000000000000000
11
-51.5387470997679
21
9.34318152595145
31
0.000000000000000
  0
LINE
  5
F109F2
330
F109F3
100
AcDbEntity
8
Geo
100
AcDbLine
10
-51.5387470997679
20
14.9350378135006
30
0.000000000000000
11
-51.4387470997679
21
14.8201206176173
31
0.000000000000000
  0
LINE
  5
F109F4
330
F109F5
100
AcDbEntity
8
Geo
100
AcDbLine
10
-51.5387470997679
20
9.34318152595145
30
0.000000000000000
11
-51.4387470997679
21
9.24312757597354
31
0.000000000000000
  0
LINE
  5
F109F6
330
F109F7
100
AcDbEntity
8
Geo
100
AcDbLine
10
-51.4387470997679
20
14.8201206176173
30
0.000000000000000
11
-51.3387470997679
21
14.7014384075571
31
0.000000000000000
  0
LINE
  5
F109F8
330
F109F9
100
AcDbEntity
8
Geo
100
AcDbLine
10
-51.4387470997679
20
9.24312757597354
30
0.000000000000000
11
-51.3387470997679
21
9.14756980375646
31
0.000000000000000
  0
LINE
  5
F109FA
330
F109FB
100
AcDbEntity
8
Geo
100
AcDbLine
10
-51.3387470997679
20
14.7014384075571
30
0.000000000000000
11
-51.2387470997679
21
14.5791669871106
31
0.000000000000000
  0
LINE
  5
F109FC
330
F109FD
100
AcDbEntity
8
Geo
100
AcDbLine
10
-51.3387470997679
20
9.14756980375646
30
0.000000000000000
11
-51.2387470997679
21
9.05664975889364
31
0.000000000000000
  0
LINE
  5
F109FE
330
F109FF
100
AcDbEntity
8
Geo
100
AcDbLine
10
-51.2387470997679
20
14.5791669871106
30
0.000000000000000
11
-51.1387470997679
21
14.4534874767607
31
0.000000000000000
  0
LINE
  5
F10A00
330
F10A01
100
AcDbEntity
8
Geo
100
AcDbLine
10
-51.2387470997679
20
9.05664975889364
30
0.000000000000000
11
-51.1387470997679
21
8.97050212111947
31
0.000000000000000
  0
LINE
  5
F10A02
330
F10A03
100
AcDbEntity
8
Geo
100
AcDbLine
10
-51.1387470997679
20
14.4534874767607
30
0.000000000000000
11
-51.0387470997679
21
14.3245860453890
31
0.000000000000000
  0
LINE
  5
F10A04
330
F10A05
100
AcDbEntity
8
Geo
100
AcDbLine
10
-51.1387470997679
20
8.97050212111947
30
0.000000000000000
11
-51.0387470997679
21
8.88925450080844
31
0.000000000000000
  0
LINE
  5
F10A06
330
F10A07
100
AcDbEntity
8
Geo
100
AcDbLine
10
-51.0387470997679
20
14.3245860453890
30
0.000000000000000
11
-50.9387470997679
21
14.1926536345044
31
0.000000000000000
  0
LINE
  5
F10A08
330
F10A09
100
AcDbEntity
8
Geo
100
AcDbLine
10
-51.0387470997679
20
8.88925450080844
30
0.000000000000000
11
-50.9387470997679
21
8.81302724994610
31
0.000000000000000
  0
LINE
  5
F10A0A
330
F10A0B
100
AcDbEntity
8
Geo
100
AcDbLine
10
-50.9387470997679
20
14.1926536345044
30
0.000000000000000
11
-50.8387470997679
21
14.0578856754012
31
0.000000000000000
  0
LINE
  5
F10A0C
330
F10A0D
100
AcDbEntity
8
Geo
100
AcDbLine
10
-50.9387470997679
20
8.81302724994610
30
0.000000000000000
11
-50.8387470997679
21
8.74193328385178
31
0.000000000000000
  0
LINE
  5
F10A0E
330
F10A0F
100
AcDbEntity
8
Geo
100
AcDbLine
10
-50.8387470997679
20
14.0578856754012
30
0.000000000000000
11
-50.7387470997679
21
13.9204817996674
31
0.000000000000000
  0
LINE
  5
F10A10
330
F10A11
100
AcDbEntity
8
Geo
100
AcDbLine
10
-50.8387470997679
20
8.74193328385178
30
0.000000000000000
11
-50.7387470997679
21
8.67607791391733
31
0.000000000000000
  0
LINE
  5
F10A12
330
F10A13
100
AcDbEntity
8
Geo
100
AcDbLine
10
-50.7387470997679
20
13.9204817996674
30
0.000000000000000
11
-50.6387470997679
21
13.7806455434706
31
0.000000000000000
  0
LINE
  5
F10A14
330
F10A15
100
AcDbEntity
8
Geo
100
AcDbLine
10
-50.7387470997679
20
8.67607791391733
30
0.000000000000000
11
-50.6387470997679
21
8.61555869160948
31
0.000000000000000
  0
LINE
  5
F10A16
330
F10A17
100
AcDbEntity
8
Geo
100
AcDbLine
10
-50.6387470997679
20
13.7806455434706
30
0.000000000000000
11
-50.5387470997679
21
13.6385840460603
31
0.000000000000000
  0
LINE
  5
F10A18
330
F10A19
100
AcDbEntity
8
Geo
100
AcDbLine
10
-50.6387470997679
20
8.61555869160948
30
0.000000000000000
11
-50.5387470997679
21
8.56046526396700
31
0.000000000000000
  0
LINE
  5
F10A1A
330
F10A1B
100
AcDbEntity
8
Geo
100
AcDbLine
10
-50.5387470997679
20
13.6385840460603
30
0.000000000000000
11
-50.4387470997679
21
13.4945077429324
31
0.000000000000000
  0
LINE
  5
F10A1C
330
F10A1D
100
AcDbEntity
8
Geo
100
AcDbLine
10
-50.5387470997679
20
8.56046526396700
30
0.000000000000000
11
-50.4387470997679
21
8.51087924080665
31
0.000000000000000
  0
LINE
  5
F10A1E
330
F10A1F
100
AcDbEntity
8
Geo
100
AcDbLine
10
-50.4387470997679
20
13.4945077429324
30
0.000000000000000
11
-50.3387470997679
21
13.3486300541118
31
0.000000000000000
  0
LINE
  5
F10A20
330
F10A21
100
AcDbEntity
8
Geo
100
AcDbLine
10
-50.4387470997679
20
8.51087924080665
30
0.000000000000000
11
-50.3387470997679
21
8.46687407383471
31
0.000000000000000
  0
LINE
  5
F10A22
330
F10A23
100
AcDbEntity
8
Geo
100
AcDbLine
10
-50.3387470997679
20
13.3486300541118
30
0.000000000000000
11
-50.2387470997679
21
13.2011670680135
31
0.000000000000000
  0
LINE
  5
F10A24
330
F10A25
100
AcDbEntity
8
Geo
100
AcDbLine
10
-50.3387470997679
20
8.46687407383471
30
0.000000000000000
11
-50.2387470997679
21
8.42851494784304
31
0.000000000000000
  0
LINE
  5
F10A26
330
F10A27
100
AcDbEntity
8
Geo
100
AcDbLine
10
-50.2387470997679
20
13.2011670680135
30
0.000000000000000
11
-50.1387470997679
21
13.0523372213511
31
0.000000000000000
  0
LINE
  5
F10A28
330
F10A29
100
AcDbEntity
8
Geo
100
AcDbLine
10
-50.2387470997679
20
8.42851494784304
30
0.000000000000000
11
-50.1387470997679
21
8.39585868415093
31
0.000000000000000
  0
LINE
  5
F10A2A
330
F10A2B
100
AcDbEntity
8
Geo
100
AcDbLine
10
-50.1387470997679
20
13.0523372213511
30
0.000000000000000
11
-50.0387470997679
21
12.9023609755670
31
0.000000000000000
  0
LINE
  5
F10A2C
330
F10A2D
100
AcDbEntity
8
Geo
100
AcDbLine
10
-50.1387470997679
20
8.39585868415093
30
0.000000000000000
11
-50.0387470997679
21
8.36895365643581
31
0.000000000000000
  0
LINE
  5
F10A2E
330
F10A2F
100
AcDbEntity
8
Geo
100
AcDbLine
10
-50.0387470997679
20
12.9023609755670
30
0.000000000000000
11
-49.9387470997679
21
12.7514604902626
31
0.000000000000000
  0
LINE
  5
F10A30
330
F10A31
100
AcDbEntity
8
Geo
100
AcDbLine
10
-50.0387470997679
20
8.36895365643581
30
0.000000000000000
11
-49.9387470997679
21
8.34783971907733
31
0.000000000000000
  0
LINE
  5
F10A32
330
F10A33
100
AcDbEntity
8
Geo
100
AcDbLine
10
-69.8387470997679
20
12.2784222737819
30
0.000000000000000
11
-69.8387470997679
21
12.2784222737819
31
0.000000000000000
  0
LINE
  5
F10A34
330
F10A35
100
AcDbEntity
8
Geo
100
AcDbLine
10
-69.8387470997679
20
12.2784222737819
30
0.000000000000000
11
-69.8387470997679
21
12.2784222737819
31
0.000000000000000
  0
LINE
  5
F10A36
330
F10A37
100
AcDbEntity
8
Geo
100
AcDbLine
10
-70.8387470997679
20
12.2784222737819
30
0.000000000000000
11
-70.5387470997679
21
12.2784222737819
31
0.000000000000000
  0
LINE
  5
F10A38
330
F10A39
100
AcDbEntity
8
Geo
100
AcDbLine
10
-70.4112470997679
20
12.2784222737819
30
0.000000000000000
11
-70.3262470997679
21
12.2784222737819
31
0.000000000000000
  0
LINE
  5
F10A3A
330
F10A3B
100
AcDbEntity
8
Geo
100
AcDbLine
10
-70.1137470997679
20
12.2784222737819
30
0.000000000000000
11
-69.6887470997679
21
12.2784222737819
31
0.000000000000000
  0
LINE
  5
F10A3C
330
F10A3D
100
AcDbEntity
8
Geo
100
AcDbLine
10
-69.5612470997679
20
12.2784222737819
30
0.000000000000000
11
-69.4762470997679
21
12.2784222737819
31
0.000000000000000
  0
LINE
  5
F10A3E
330
F10A3F
100
AcDbEntity
8
Geo
100
AcDbLine
10
-69.2637470997679
20
12.2784222737819
30
0.000000000000000
11
-68.8387470997679
21
12.2784222737819
31
0.000000000000000
  0
LINE
  5
F10A40
330
F10A41
100
AcDbEntity
8
Geo
100
AcDbLine
10
-5.83874709976789
20
15.7784222737819
30
0.000000000000000
11
-5.83874709976789
21
12.2784222737819
31
0.000000000000000
  0
LINE
  5
F10A42
330
F10A43
100
AcDbEntity
8
Geo
100
AcDbLine
10
-69.7165244065468
20
12.2784222737819
30
0.000000000000000
11
-69.8387470997679
21
8.77842227378193
31
0.000000000000000
  0
LINE
  5
F10A44
330
F10A45
100
AcDbEntity
8
Geo
100
AcDbLine
10
-69.8387470997679
20
8.77842227378193
30
0.000000000000000
11
-69.3387470997679
21
8.27842227378193
31
0.000000000000000
  0
LINE
  5
F10A46
330
F10A47
100
AcDbEntity
8
Geo
100
AcDbLine
10
-69.3387470997679
20
8.27842227378193
30
0.000000000000000
11
-49.8387470997679
21
8.27842227378193
31
0.000000000000000
  0
LINE
  5
F10A48
330
F10A49
100
AcDbEntity
8
Geo
100
AcDbLine
10
-49.8387470997679
20
8.27842227378193
30
0.000000000000000
11
-6.33874709976789
21
8.27842227378193
31
0.000000000000000
  0
LINE
  5
F10A4A
330
F10A4B
100
AcDbEntity
8
Geo
100
AcDbLine
10
-6.33874709976789
20
8.27842227378193
30
0.000000000000000
11
-5.83874709976789
21
8.77842227378193
31
0.000000000000000
  0
LINE
  5
F10A4C
330
F10A4D
100
AcDbEntity
8
Geo
100
AcDbLine
10
-69.8387470997679
20
15.7784222737819
30
0.000000000000000
11
-69.8387470997679
21
8.77842227378193
31
0.000000000000000
  0
LINE
  5
F10A4E
330
F10A4F
100
AcDbEntity
8
Geo
100
AcDbLine
10
-69.3387470997679
20
16.2784222737819
30
0.000000000000000
11
-69.3387470997679
21
8.27842227378193
31
0.000000000000000
  0
LINE
  5
F10A50
330
F10A51
100
AcDbEntity
8
Geo
100
AcDbLine
10
-69.3387470997679
20
16.2784222737819
30
0.000000000000000
11
-69.3387470997679
21
8.27842227378193
31
0.000000000000000
  0
LINE
  5
F10A52
330
F10A53
100
AcDbEntity
8
Geo
100
AcDbLine
10
-49.8387470997679
20
16.2784222737819
30
0.000000000000000
11
-49.8387470997679
21
8.27842227378193
31
0.000000000000000
  0
LINE
  5
F10A54
330
F10A55
100
AcDbEntity
8
Geo
100
AcDbLine
10
-49.8387470997679
20
16.2784222737819
30
0.000000000000000
11
-49.8387470997679
21
8.27842227378193
31
0.000000000000000
  0
LINE
  5
F10A56
330
F10A57
100
AcDbEntity
8
Geo
100
AcDbLine
10
-6.33874709976789
20
16.2784222737819
30
0.000000000000000
11
-6.33874709976789
21
8.27842227378193
31
0.000000000000000
  0
LINE
  5
F10A58
330
F10A59
100
AcDbEntity
8
Geo
100
AcDbLine
10
-5.83874709976789
20
15.7784222737819
30
0.000000000000000
11
-5.83874709976789
21
8.77842227378193
31
0.000000000000000
  0
LWPOLYLINE
  5
F10A5A
330
F10A5B
100
AcDbEntity
8
Rahmen
100
AcDbPolyline
90
   4
70
   1
43
   0.0
 10
-125.373227277317
 20
102.935352614704
 10
134.415748976667
 20
102.935352614704
 10
134.415748976667
 20
-103.104180276387
 10
-125.373227277317
 20
-103.104180276387
  0
TEXT
  5
F10A5C
330
F10A5D
 100
AcDbEntity
8
Text
100
AcDbText
10
-124.430254586740
20
-102.604180276387
30
0.000000000000000
40
1.00000000000000
1
ISBESketcher
100
AcDbText
  0
LWPOLYLINE
  5
F10A5E
330
F10A5F
100
AcDbEntity
8
Rahmen
100
AcDbPolyline
90
   4
70
   1
43
   0.0
 10
94.4965717422378
 20
-100.118100089560
 10
134.415748976667
 20
-100.118100089560
 10
134.415748976667
 20
-103.104180276387
 10
94.4965717422378
 20
-103.104180276387
  0
TEXT
  5
F10A60
330
F10A61
 100
AcDbEntity
8
Text
100
AcDbText
10
95.5000000000000
20
-102.035810575481
30
0.000000000000000
40
0.750000000000000
1
Created by:
100
AcDbText
  0
TEXT
  5
F10A62
330
F10A63
 100
AcDbEntity
8
Text
100
AcDbText
10
120.535473561298
20
-102.035810575481
30
0.000000000000000
40
0.750000000000000
1
nsarkol
100
AcDbText
  0
LWPOLYLINE
  5
F10A64
330
F10A65
100
AcDbEntity
8
Rahmen
100
AcDbPolyline
90
   4
70
   1
43
   0.0
 10
54.4202323927121
 20
-100.118100089560
 10
94.4965717422378
 20
-100.118100089560
 10
94.4965717422378
 20
-103.104180276387
 10
54.4202323927121
 20
-103.104180276387
  0
TEXT
  5
F10A66
330
F10A67
 100
AcDbEntity
8
Text
100
AcDbText
10
55.5000000000000
20
-102.035810575481
30
0.000000000000000
40
0.750000000000000
1
Created for:
100
AcDbText
  0
TEXT
  5
F10A68
330
F10A69
 100
AcDbEntity
8
Text
100
AcDbText
10
0.000000000000000
20
0.250000000000000
30
0.000000000000000
40
0.750000000000000
1

100
AcDbText
  0
LWPOLYLINE
  5
F10A6A
330
F10A6B
100
AcDbEntity
8
Rahmen
100
AcDbPolyline
90
   4
70
   1
43
   0.0
 10
121.056969193492
 20
-97.1320199027326
 10
134.415748976667
 20
-97.1320199027326
 10
134.415748976667
 20
-100.118100089560
 10
121.056969193492
 20
-100.118100089560
  0
TEXT
  5
F10A6C
330
F10A6D
 100
AcDbEntity
8
Text
100
AcDbText
10
122.166666666667
20
-99.0358105754809
30
0.000000000000000
40
0.750000000000000
1
Pages
100
AcDbText
  0
TEXT
  5
F10A6E
330
F10A6F
 100
AcDbEntity
8
Text
100
AcDbText
10
0.000000000000000
20
0.250000000000000
30
0.000000000000000
40
0.750000000000000
1

100
AcDbText
  0
LWPOLYLINE
  5
F10A70
330
F10A71
100
AcDbEntity
8
Rahmen
100
AcDbPolyline
90
   4
70
   1
43
   0.0
 10
121.056969193492
 20
-94.1459397159052
 10
134.415748976667
 20
-94.1459397159052
 10
134.415748976667
 20
-97.1320199027326
 10
121.056969193492
 20
-97.1320199027326
  0
TEXT
  5
F10A72
330
F10A73
 100
AcDbEntity
8
Text
100
AcDbText
10
122.166666666667
20
-96.0358105754809
30
0.000000000000000
40
0.750000000000000
1
Page
100
AcDbText
  0
TEXT
  5
F10A74
330
F10A75
 100
AcDbEntity
8
Text
100
AcDbText
10
0.000000000000000
20
0.250000000000000
30
0.000000000000000
40
0.750000000000000
1

100
AcDbText
  0
LWPOLYLINE
  5
F10A76
330
F10A77
100
AcDbEntity
8
Rahmen
100
AcDbPolyline
90
   4
70
   1
43
   0.0
 10
54.4202323927121
 20
-94.1459397159052
 10
121.056969193492
 20
-94.1459397159052
 10
121.056969193492
 20
-100.118100089560
 10
54.4202323927121
 20
-100.118100089560
  0
TEXT
  5
F10A78
330
F10A79
 100
AcDbEntity
8
Text
100
AcDbText
10
55.5000000000000
20
-96.0358105754809
30
0.000000000000000
40
0.750000000000000
1
Date:
100
AcDbText
  0
TEXT
  5
F10A7A
330
F10A7B
 100
AcDbEntity
8
Text
100
AcDbText
10
84.9258342040540
20
-99.0358105754809
30
0.000000000000000
40
0.750000000000000
1
05.07.2016
100
AcDbText
  0
LWPOLYLINE
  5
F10A7C
330
F10A7D
100
AcDbEntity
8
Rahmen
100
AcDbPolyline
90
   4
70
   1
43
   0.0
 10
54.4202323927121
 20
-88.0166172271542
 10
134.415748976667
 20
-88.0166172271542
 10
134.415748976667
 20
-94.1459397159052
 10
54.4202323927121
 20
-94.1459397159052
  0
TEXT
  5
F10A7E
330
F10A7F
 100
AcDbEntity
8
Text
100
AcDbText
10
0.000000000000000
20
0.500000000000000
30
0.000000000000000
40
1.50000000000000
1

100
AcDbText
  0
TEXT
  5
F10A80
330
F10A81
 100
AcDbEntity
8
Text
100
AcDbText
10
64.8749413043702
20
-92.6812605082055
30
0.000000000000000
40
2.50000000000000
1
VHRFFW 3 080 064 08 03 050
100
AcDbText
  0
LWPOLYLINE
  5
F10A82
330
F10A83
100
AcDbEntity
8
Rahmen
100
AcDbPolyline
90
   4
70
   1
43
   0.0
 10
94.4965717422378
 20
-82.0444568534994
 10
134.415748976667
 20
-82.0444568534994
 10
134.415748976667
 20
-88.0166172271542
 10
94.4965717422378
 20
-88.0166172271542
  0
TEXT
  5
F10A84
330
F10A85
 100
AcDbEntity
8
Text
100
AcDbText
10
95.5000000000000
20
-84.0358105754809
30
0.000000000000000
40
0.750000000000000
1
Work piece material:
100
AcDbText
  0
TEXT
  5
F10A86
330
F10A87
 100
AcDbEntity
8
Text
100
AcDbText
10
0.000000000000000
20
0.250000000000000
30
0.000000000000000
40
0.750000000000000
1

100
AcDbText
  0
LWPOLYLINE
  5
F10A88
330
F10A89
100
AcDbEntity
8
Rahmen
100
AcDbPolyline
90
   4
70
   1
43
   0.0
 10
54.4202323927121
 20
-82.0444568534994
 10
94.4965717422378
 20
-82.0444568534994
 10
94.4965717422378
 20
-88.0166172271542
 10
54.4202323927121
 20
-88.0166172271542
  0
TEXT
  5
F10A8A
330
F10A8B
 100
AcDbEntity
8
Text
100
AcDbText
10
55.5000000000000
20
-84.0358105754809
30
0.000000000000000
40
0.750000000000000
1
Tool material:
100
AcDbText
  0
TEXT
  5
F10A8C
330
F10A8D
 100
AcDbEntity
8
Text
100
AcDbText
10
0.000000000000000
20
0.250000000000000
30
0.000000000000000
40
0.750000000000000
1

100
AcDbText
  0
LWPOLYLINE
  5
F10A8E
330
F10A8F
100
AcDbEntity
8
Rahmen
100
AcDbPolyline
90
   4
70
   1
43
   0.0
 10
94.4965717422378
 20
-79.0583766666720
 10
134.415748976667
 20
-79.0583766666720
 10
134.415748976667
 20
-82.0444568534994
 10
94.4965717422378
 20
-82.0444568534994
  0
TEXT
  5
F10A90
330
F10A91
 100
AcDbEntity
8
Text
100
AcDbText
10
0.000000000000000
20
0.500000000000000
30
0.000000000000000
40
1.50000000000000
1

100
AcDbText
  0
TEXT
  5
F10A92
330
F10A93
 100
AcDbEntity
8
Text
100
AcDbText
10
0.000000000000000
20
0.250000000000000
30
0.000000000000000
40
0.750000000000000
1

100
AcDbText
  0
LWPOLYLINE
  5
F10A94
330
F10A95
100
AcDbEntity
8
Rahmen
100
AcDbPolyline
90
   4
70
   1
43
   0.0
 10
54.4202323927121
 20
-79.0583766666720
 10
94.4965717422378
 20
-79.0583766666720
 10
94.4965717422378
 20
-82.0444568534994
 10
54.4202323927121
 20
-82.0444568534994
  0
TEXT
  5
F10A96
330
F10A97
 100
AcDbEntity
8
Text
100
AcDbText
10
55.5000000000000
20
-81.0358105754809
30
0.000000000000000
40
0.750000000000000
1
Scale:
100
AcDbText
  0
TEXT
  5
F10A98
330
F10A99
 100
AcDbEntity
8
Text
100
AcDbText
10
81.3212841367787
20
-81.0358105754809
30
0.000000000000000
40
0.750000000000000
1
2 : 1
100
AcDbText
0
VIEWPORT
5
294
102
{ACAD_XDICTIONARY
360
58A
102
}
330
25D
100
AcDbEntity
67
1
8
0
60
1
100
AcDbViewport
10
0.0
20
0.0
30
0.0
40
10.0
41
10.0
68
-1
69
1
12
0.0
22
0.0
13
0.0
23
0.0
14
1.0
24
1.0
15
0.0
25
0.0
16
0.0
26
0.0
36
1.0
17
0.0
27
0.0
37
0.0
42
0.0
43
0.0
44
0.0
45
10.0
50
0.0
51
0.0000000000007958
72
100
90
32800
1

281
0
71
0
74
0
110
0.0
120
0.0
130
0.0
111
1.0
121
0.0
131
0.0
112
0.0
122
1.0
132
0.0
79
0
146
0.0
1001
VD_INVISIBLE_NOT_FOR_READ
1000
VD_INVISIBLE_NOT_FOR_READ
0
VIEWPORT
5
295
102
{ACAD_XDICTIONARY
360
58C
102
}
330
25D
100
AcDbEntity
67
1
8
0
60
1
100
AcDbViewport
10
0.0
20
0.0
30
0.0
40
10.0
41
10.0
68
0
69
2
12
0.0
22
0.0
13
0.0
23
0.0
14
1.0
24
1.0
15
0.0
25
0.0
16
0.0
26
0.0
36
1.0
17
0.0
27
0.0
37
0.0
42
0.0
43
0.0
44
0.0
45
10.0
50
0.0
51
0.0000000000007958
72
100
90
163872
1

281
0
71
0
74
0
110
0.0
120
0.0
130
0.0
111
1.0
121
0.0
131
0.0
112
0.0
122
1.0
132
0.0
79
0
146
0.0
1001
VD_INVISIBLE_NOT_FOR_READ
1000
VD_INVISIBLE_NOT_FOR_READ
0
ENDSEC
0
SECTION
2
OBJECTS
0
DICTIONARY
5
13
330
0
100
AcDbDictionary
281
1
3
ACAD_COLOR
350
FA7
3
ACAD_GROUP
350
14
3
ACAD_LAYOUT
350
FCF
3
ACAD_MATERIAL
350
F7A
3
ACAD_MLEADERSTYLE
350
FCD
3
ACAD_MLINESTYLE
350
16
3
ACAD_PLOTSETTINGS
350
17
3
ACAD_PLOTSTYLENAME
350
18
3
ACAD_SCALELIST
350
FAB
3
ACAD_TABLESTYLE
350
FA8
3
ACAD_VISUALSTYLE
350
F93
3
ACDB_RECOMPOSE_DATA
350
107E
3
AcDbVariableDictionary
350
FF0
3
DWGPROPS
350
107F
0
DICTIONARY
5
F1000A
330
F10009
100
AcDbDictionary
280
1
281
1
3
ACAD_MTEXT_2008_RT
360
F1000B
0
DICTIONARY
5
F10014
330
F10013
100
AcDbDictionary
280
1
281
1
3
ACAD_MTEXT_2008_RT
360
F10015
0
DICTIONARY
5
F1001E
330
F1001D
100
AcDbDictionary
280
1
281
1
3
ACAD_MTEXT_2008_RT
360
F1001F
0
DICTIONARY
5
F10023
330
F10022
100
AcDbDictionary
280
1
281
1
3
ACAD_MTEXT_2008_RT
360
F10024
0
DICTIONARY
5
F10028
330
F10027
100
AcDbDictionary
280
1
281
1
3
ACAD_MTEXT_2008_RT
360
F10029
0
DICTIONARY
5
F10005
330
F10004
100
AcDbDictionary
280
1
281
1
3
ACAD_MTEXT_2008_RT
360
F10006
0
DICTIONARY
5
F1000F
330
F1000E
100
AcDbDictionary
280
1
281
1
3
ACAD_MTEXT_2008_RT
360
F10010
0
DICTIONARY
5
F10019
330
F10018
100
AcDbDictionary
280
1
281
1
3
ACAD_MTEXT_2008_RT
360
F1001A
0
DICTIONARY
5
FA7
102
{ACAD_REACTORS
330
13
102
}
330
13
100
AcDbDictionary
281
1
0
DICTIONARY
5
14
330
13
100
AcDbDictionary
281
1
0
DICTIONARY
5
FCF
102
{ACAD_REACTORS
330
13
102
}
330
13
100
AcDbDictionary
281
1
3
Layout1
350
FD1
3
Model
350
FD0
0
DICTIONARY
5
F7A
102
{ACAD_REACTORS
330
13
102
}
330
13
100
AcDbDictionary
281
1
3
ByBlock
350
F83
3
ByLayer
350
F7B
3
Global
350
F8B
0
DICTIONARY
5
FCD
102
{ACAD_REACTORS
330
13
102
}
330
13
100
AcDbDictionary
281
1
3
Standard
350
FCE
0
DICTIONARY
5
16
330
13
100
AcDbDictionary
281
1
3
Standard
350
FAA
0
DICTIONARY
5
17
102
{ACAD_REACTORS
330
13
102
}
330
13
100
AcDbDictionary
281
1
0
ACDBDICTIONARYWDFLT
5
18
102
{ACAD_REACTORS
330
13
102
}
330
13
100
AcDbDictionary
281
1
3
Normal
350
19
100
AcDbDictionaryWithDefault
340
19
0
DICTIONARY
5
FAB
102
{ACAD_REACTORS
330
13
102
}
330
13
100
AcDbDictionary
281
1
3
A0
350
FAC
3
A1
350
FAD
3
A2
350
FAE
3
A3
350
FAF
3
A4
350
FB0
3
A5
350
FB1
3
A6
350
FB2
3
A7
350
FB3
3
A8
350
FB4
3
A9
350
FB5
3
B0
350
FB6
3
B1
350
FB7
3
B2
350
FB8
3
B3
350
FB9
3
B4
350
FBA
3
B5
350
FBB
3
B6
350
FBC
3
B7
350
FBD
3
B8
350
FBE
3
B9
350
FBF
3
C0
350
FC0
3
C1
350
FC1
3
C2
350
FC2
3
C3
350
FC3
3
C4
350
FC4
3
C5
350
FC5
3
C6
350
FC6
3
C7
350
FC7
3
C8
350
FC8
3
C9
350
FC9
3
D0
350
FCA
3
D1
350
FCB
3
D2
350
FCC
0
DICTIONARY
5
FA8
102
{ACAD_REACTORS
330
13
102
}
330
13
100
AcDbDictionary
281
1
3
Standard
350
FA9
0
DICTIONARY
5
F93
102
{ACAD_REACTORS
330
13
102
}
330
13
100
AcDbDictionary
281
1
3
2dWireframe
350
F99
3
3D Hidden
350
F9B
3
3dWireframe
350
F9A
3
Basic
350
F98
3
Brighten
350
F9F
3
ColorChange
350
FA3
3
Conceptual
350
F9C
3
Dim
350
F9E
3
EdgeColorOff
350
FA6
3
Facepattern
350
FA2
3
Flat
350
F94
3
FlatWithEdges
350
F95
3
Gouraud
350
F96
3
GouraudWithEdges
350
F97
3
JitterOff
350
FA4
3
Linepattern
350
FA1
3
OverhangOff
350
FA5
3
Realistic
350
F9D
3
Thicken
350
FA0
0
XRECORD
5
107E
102
{ACAD_REACTORS
330
13
102
}
330
13
100
AcDbXrecord
280
1
90
1
330
FA9
330
F10009
330
F10013
330
F1001D
330
F10022
330
F10027
330
F10004
330
F1000E
330
F10018
0
XRECORD
5
F1000B
102
{ACAD_REACTORS
330
F1000A
102
}
330
F1000A
100
AcDbXrecord
280
1
40
48458.0
1
0.5 x 45°
0
XRECORD
5
F10015
102
{ACAD_REACTORS
330
F10014
102
}
330
F10014
100
AcDbXrecord
280
1
40
48458.0
1
44
0
XRECORD
5
F1001F
102
{ACAD_REACTORS
330
F1001E
102
}
330
F1001E
100
AcDbXrecord
280
1
40
48458.0
1
20
0
XRECORD
5
F10024
102
{ACAD_REACTORS
330
F10023
102
}
330
F10023
100
AcDbXrecord
280
1
40
48458.0
1
21
0
XRECORD
5
F10029
102
{ACAD_REACTORS
330
F10028
102
}
330
F10028
100
AcDbXrecord
280
1
40
48458.0
1
64
0
XRECORD
5
F10006
102
{ACAD_REACTORS
330
F10005
102
}
330
F10005
100
AcDbXrecord
280
1
40
48458.0
1
2°
0
XRECORD
5
F10010
102
{ACAD_REACTORS
330
F1000F
102
}
330
F1000F
100
AcDbXrecord
280
1
40
48458.0
1
8
0
LAYOUT
5
FD1
102
{ACAD_XDICTIONARY
360
10A9
102
}
102
{ACAD_REACTORS
330
FCF
102
}
330
FCF
100
AcDbPlotSettings
1

2
Microsoft XPS Document Writer
4

6

40
0.0
41
0.0
42
0.0
43
0.0
44
0.0
45
0.0
46
0.0
47
0.0
48
0.0
49
0.0
140
0.0
141
0.0
142
1.0
143
1.0
70
688
72
0
73
0
74
5
7

75
16
147
1.0
148
0.0
149
0.0
100
AcDbLayout
1
Layout1
70
1
71
1
10
0.0
20
0.0
11
12.0
21
9.0
12
0.0
22
0.0
32
0.0
14
1.000000000000000E+20
24
1.000000000000000E+20
34
1.000000000000000E+20
15
-1.000000000000000E+20
25
-1.000000000000000E+20
35
-1.000000000000000E+20
146
0.0
13
0.0
23
0.0
33
0.0
16
1.0
26
0.0
36
0.0
17
0.0
27
1.0
37
0.0
76
0
330
25D
0
LAYOUT
5
FD0
102
{ACAD_XDICTIONARY
360
10A7
102
}
102
{ACAD_REACTORS
330
FCF
102
}
330
FCF
100
AcDbPlotSettings
1

2
Microsoft XPS Document Writer
4

6

40
0.0
41
0.0
42
0.0
43
0.0
44
0.0
45
0.0
46
0.0
47
0.0
48
0.0
49
0.0
140
0.0
141
0.0
142
1.0
143
1.0
70
1712
72
0
73
0
74
0
7

75
0
147
1.0
148
0.0
149
0.0
100
AcDbLayout
1
Model
70
1
71
0
10
0.0
20
0.0
11
12.0
21
9.0
12
0.0
22
0.0
32
0.0
14
0.0
24
0.0
34
0.0
15
0.0
25
0.0
35
0.0
146
0.0
13
0.0
23
0.0
33
0.0
16
1.0
26
0.0
36
0.0
17
0.0
27
1.0
37
0.0
76
0
330
261
331
26B
0
MATERIAL
5
F83
102
{ACAD_XDICTIONARY
360
F84
102
}
102
{ACAD_REACTORS
330
F7A
102
}
330
F7A
100
AcDbMaterial
1
ByBlock
72
0
43
0.0208333333333333
43
0.0
43
0.0
43
0.0
43
0.0
43
0.0208333333333333
43
0.0
43
0.0
43
0.0
43
0.0
43
1.0
43
0.0
43
0.0
43
0.0
43
0.0
43
1.0
77
0
47
0.0208333333333333
47
0.0
47
0.0
47
0.0
47
0.0
47
0.0208333333333333
47
0.0
47
0.0
47
0.0
47
0.0
47
1.0
47
0.0
47
0.0
47
0.0
47
0.0
47
1.0
171
0
49
0.0208333333333333
49
0.0
49
0.0
49
0.0
49
0.0
49
0.0208333333333333
49
0.0
49
0.0
49
0.0
49
0.0
49
1.0
49
0.0
49
0.0
49
0.0
49
0.0
49
1.0
175
0
142
0.0208333333333333
142
0.0
142
0.0
142
0.0
142
0.0
142
0.0208333333333333
142
0.0
142
0.0
142
0.0
142
0.0
142
1.0
142
0.0
142
0.0
142
0.0
142
0.0
142
1.0
179
0
144
0.0208333333333333
144
0.0
144
0.0
144
0.0
144
0.0
144
0.0208333333333333
144
0.0
144
0.0
144
0.0
144
0.0
144
1.0
144
0.0
144
0.0
144
0.0
144
0.0
144
1.0
147
0.0208333333333333
147
0.0
147
0.0
147
0.0
147
0.0
147
0.0208333333333333
147
0.0
147
0.0
147
0.0
147
0.0
147
1.0
147
0.0
147
0.0
147
0.0
147
0.0
147
1.0
0
MATERIAL
5
F7B
102
{ACAD_XDICTIONARY
360
F7C
102
}
102
{ACAD_REACTORS
330
F7A
102
}
330
F7A
100
AcDbMaterial
1
ByLayer
72
0
43
0.0208333333333333
43
0.0
43
0.0
43
0.0
43
0.0
43
0.0208333333333333
43
0.0
43
0.0
43
0.0
43
0.0
43
1.0
43
0.0
43
0.0
43
0.0
43
0.0
43
1.0
77
0
47
0.0208333333333333
47
0.0
47
0.0
47
0.0
47
0.0
47
0.0208333333333333
47
0.0
47
0.0
47
0.0
47
0.0
47
1.0
47
0.0
47
0.0
47
0.0
47
0.0
47
1.0
171
0
49
0.0208333333333333
49
0.0
49
0.0
49
0.0
49
0.0
49
0.0208333333333333
49
0.0
49
0.0
49
0.0
49
0.0
49
1.0
49
0.0
49
0.0
49
0.0
49
0.0
49
1.0
175
0
142
0.0208333333333333
142
0.0
142
0.0
142
0.0
142
0.0
142
0.0208333333333333
142
0.0
142
0.0
142
0.0
142
0.0
142
1.0
142
0.0
142
0.0
142
0.0
142
0.0
142
1.0
179
0
144
0.0208333333333333
144
0.0
144
0.0
144
0.0
144
0.0
144
0.0208333333333333
144
0.0
144
0.0
144
0.0
144
0.0
144
1.0
144
0.0
144
0.0
144
0.0
144
0.0
144
1.0
147
0.0208333333333333
147
0.0
147
0.0
147
0.0
147
0.0
147
0.0208333333333333
147
0.0
147
0.0
147
0.0
147
0.0
147
1.0
147
0.0
147
0.0
147
0.0
147
0.0
147
1.0
0
MATERIAL
5
F8B
102
{ACAD_XDICTIONARY
360
F8C
102
}
102
{ACAD_REACTORS
330
F7A
102
}
330
F7A
100
AcDbMaterial
1
Global
72
0
43
0.0208333333333333
43
0.0
43
0.0
43
0.0
43
0.0
43
0.0208333333333333
43
0.0
43
0.0
43
0.0
43
0.0
43
1.0
43
0.0
43
0.0
43
0.0
43
0.0
43
1.0
77
0
47
0.0208333333333333
47
0.0
47
0.0
47
0.0
47
0.0
47
0.0208333333333333
47
0.0
47
0.0
47
0.0
47
0.0
47
1.0
47
0.0
47
0.0
47
0.0
47
0.0
47
1.0
171
0
49
0.0208333333333333
49
0.0
49
0.0
49
0.0
49
0.0
49
0.0208333333333333
49
0.0
49
0.0
49
0.0
49
0.0
49
1.0
49
0.0
49
0.0
49
0.0
49
0.0
49
1.0
175
0
142
0.0208333333333333
142
0.0
142
0.0
142
0.0
142
0.0
142
0.0208333333333333
142
0.0
142
0.0
142
0.0
142
0.0
142
1.0
142
0.0
142
0.0
142
0.0
142
0.0
142
1.0
179
0
144
0.0208333333333333
144
0.0
144
0.0
144
0.0
144
0.0
144
0.0208333333333333
144
0.0
144
0.0
144
0.0
144
0.0
144
1.0
144
0.0
144
0.0
144
0.0
144
0.0
144
1.0
147
0.0208333333333333
147
0.0
147
0.0
147
0.0
147
0.0
147
0.0208333333333333
147
0.0
147
0.0
147
0.0
147
0.0
147
1.0
147
0.0
147
0.0
147
0.0
147
0.0
147
1.0
0
MLEADERSTYLE
5
FCE
102
{ACAD_REACTORS
330
FCD
102
}
330
FCD
100
AcDbMLeaderStyle
170
2
171
1
172
0
90
2
40
0.0
41
0.0
173
1
91
-1056964608
340
256
92
-2
290
1
42
0.09
291
1
43
0.36
3
Standard
44
0.18
300

342
253
174
1
178
6
175
1
176
0
93
-1056964608
45
0.18
292
0
297
0
46
0.18
94
-1056964608
47
1.0
49
1.0
140
1.0
293
1
141
0.0
294
1
177
0
142
1.0
295
0
296
0
143
0.125
1001
ACAD_MLEADERVER
1070
2
0
MLINESTYLE
5
FAA
102
{ACAD_REACTORS
330
16
102
}
330
16
100
AcDbMlineStyle
2
STANDARD
70
0
3

62
256
51
90.0
52
90.0
71
2
49
0.5
62
256
6
BYLAYER
49
-0.5
62
256
6
BYLAYER
0
ACDBPLACEHOLDER
5
19
102
{ACAD_REACTORS
330
18
102
}
330
18
0
SCALE
5
FAC
102
{ACAD_REACTORS
330
FAB
102
}
330
FAB
100
AcDbScale
70
0
300
1:1
140
1.0
141
1.0
290
1
0
SCALE
5
FAD
102
{ACAD_REACTORS
330
FAB
102
}
330
FAB
100
AcDbScale
70
0
300
1:2
140
1.0
141
2.0
290
0
0
SCALE
5
FAE
102
{ACAD_REACTORS
330
FAB
102
}
330
FAB
100
AcDbScale
70
0
300
1:4
140
1.0
141
4.0
290
0
0
SCALE
5
FAF
102
{ACAD_REACTORS
330
FAB
102
}
330
FAB
100
AcDbScale
70
0
300
1:5
140
1.0
141
5.0
290
0
0
SCALE
5
FB0
102
{ACAD_REACTORS
330
FAB
102
}
330
FAB
100
AcDbScale
70
0
300
1:8
140
1.0
141
8.0
290
0
0
SCALE
5
FB1
102
{ACAD_REACTORS
330
FAB
102
}
330
FAB
100
AcDbScale
70
0
300
1:10
140
1.0
141
10.0
290
0
0
SCALE
5
FB2
102
{ACAD_REACTORS
330
FAB
102
}
330
FAB
100
AcDbScale
70
0
300
1:16
140
1.0
141
16.0
290
0
0
SCALE
5
FB3
102
{ACAD_REACTORS
330
FAB
102
}
330
FAB
100
AcDbScale
70
0
300
1:20
140
1.0
141
20.0
290
0
0
SCALE
5
FB4
102
{ACAD_REACTORS
330
FAB
102
}
330
FAB
100
AcDbScale
70
0
300
1:30
140
1.0
141
30.0
290
0
0
SCALE
5
FB5
102
{ACAD_REACTORS
330
FAB
102
}
330
FAB
100
AcDbScale
70
0
300
1:40
140
1.0
141
40.0
290
0
0
SCALE
5
FB6
102
{ACAD_REACTORS
330
FAB
102
}
330
FAB
100
AcDbScale
70
0
300
1:50
140
1.0
141
50.0
290
0
0
SCALE
5
FB7
102
{ACAD_REACTORS
330
FAB
102
}
330
FAB
100
AcDbScale
70
0
300
1:100
140
1.0
141
100.0
290
0
0
SCALE
5
FB8
102
{ACAD_REACTORS
330
FAB
102
}
330
FAB
100
AcDbScale
70
0
300
2:1
140
2.0
141
1.0
290
0
0
SCALE
5
FB9
102
{ACAD_REACTORS
330
FAB
102
}
330
FAB
100
AcDbScale
70
0
300
4:1
140
4.0
141
1.0
290
0
0
SCALE
5
FBA
102
{ACAD_REACTORS
330
FAB
102
}
330
FAB
100
AcDbScale
70
0
300
8:1
140
8.0
141
1.0
290
0
0
SCALE
5
FBB
102
{ACAD_REACTORS
330
FAB
102
}
330
FAB
100
AcDbScale
70
0
300
10:1
140
10.0
141
1.0
290
0
0
SCALE
5
FBC
102
{ACAD_REACTORS
330
FAB
102
}
330
FAB
100
AcDbScale
70
0
300
100:1
140
100.0
141
1.0
290
0
0
SCALE
5
FBD
102
{ACAD_REACTORS
330
FAB
102
}
330
FAB
100
AcDbScale
70
0
300
1/128" = 1'-0"
140
0.0078125
141
12.0
290
0
0
SCALE
5
FBE
102
{ACAD_REACTORS
330
FAB
102
}
330
FAB
100
AcDbScale
70
0
300
1/64" = 1'-0"
140
0.015625
141
12.0
290
0
0
SCALE
5
FBF
102
{ACAD_REACTORS
330
FAB
102
}
330
FAB
100
AcDbScale
70
0
300
1/32" = 1'-0"
140
0.03125
141
12.0
290
0
0
SCALE
5
FC0
102
{ACAD_REACTORS
330
FAB
102
}
330
FAB
100
AcDbScale
70
0
300
1/16" = 1'-0"
140
0.0625
141
12.0
290
0
0
SCALE
5
FC1
102
{ACAD_REACTORS
330
FAB
102
}
330
FAB
100
AcDbScale
70
0
300
3/32" = 1'-0"
140
0.09375
141
12.0
290
0
0
SCALE
5
FC2
102
{ACAD_REACTORS
330
FAB
102
}
330
FAB
100
AcDbScale
70
0
300
1/8" = 1'-0"
140
0.125
141
12.0
290
0
0
SCALE
5
FC3
102
{ACAD_REACTORS
330
FAB
102
}
330
FAB
100
AcDbScale
70
0
300
3/16" = 1'-0"
140
0.1875
141
12.0
290
0
0
SCALE
5
FC4
102
{ACAD_REACTORS
330
FAB
102
}
330
FAB
100
AcDbScale
70
0
300
1/4" = 1'-0"
140
0.25
141
12.0
290
0
0
SCALE
5
FC5
102
{ACAD_REACTORS
330
FAB
102
}
330
FAB
100
AcDbScale
70
0
300
3/8" = 1'-0"
140
0.375
141
12.0
290
0
0
SCALE
5
FC6
102
{ACAD_REACTORS
330
FAB
102
}
330
FAB
100
AcDbScale
70
0
300
1/2" = 1'-0"
140
0.5
141
12.0
290
0
0
SCALE
5
FC7
102
{ACAD_REACTORS
330
FAB
102
}
330
FAB
100
AcDbScale
70
0
300
3/4" = 1'-0"
140
0.75
141
12.0
290
0
0
SCALE
5
FC8
102
{ACAD_REACTORS
330
FAB
102
}
330
FAB
100
AcDbScale
70
0
300
1" = 1'-0"
140
1.0
141
12.0
290
0
0
SCALE
5
FC9
102
{ACAD_REACTORS
330
FAB
102
}
330
FAB
100
AcDbScale
70
0
300
1-1/2" = 1'-0"
140
1.5
141
12.0
290
0
0
SCALE
5
FCA
102
{ACAD_REACTORS
330
FAB
102
}
330
FAB
100
AcDbScale
70
0
300
3" = 1'-0"
140
3.0
141
12.0
290
0
0
SCALE
5
FCB
102
{ACAD_REACTORS
330
FAB
102
}
330
FAB
100
AcDbScale
70
0
300
6" = 1'-0"
140
6.0
141
12.0
290
0
0
SCALE
5
FCC
102
{ACAD_REACTORS
330
FAB
102
}
330
FAB
100
AcDbScale
70
0
300
1'-0" = 1'-0"
140
12.0
141
12.0
290
0
0
TABLESTYLE
5
FA9
102
{ACAD_XDICTIONARY
360
FF8
102
}
102
{ACAD_REACTORS
330
FA8
102
}
330
FA8
100
AcDbTableStyle
3
Standard
70
0
71
0
40
0.06
41
0.06
280
0
281
0
7
Standard
140
0.18
170
2
62
0
63
7
283
0
274
-2
284
1
64
0
275
-2
285
1
65
0
276
-2
286
1
66
0
277
-2
287
1
67
0
278
-2
288
1
68
0
279
-2
289
1
69
0
7
Standard
140
0.25
170
5
62
0
63
7
283
0
274
-2
284
1
64
0
275
-2
285
1
65
0
276
-2
286
1
66
0
277
-2
287
1
67
0
278
-2
288
1
68
0
279
-2
289
1
69
0
7
Standard
140
0.18
170
5
62
0
63
7
283
0
274
-2
284
1
64
0
275
-2
285
1
65
0
276
-2
286
1
66
0
277
-2
287
1
67
0
278
-2
288
1
68
0
279
-2
289
1
69
0
0
VISUALSTYLE
5
F99
102
{ACAD_XDICTIONARY
360
108A
102
}
102
{ACAD_REACTORS
330
F93
102
}
330
F93
100
AcDbVisualStyle
2

70
4
71
0
72
2
73
0
90
0
40
-0.6
41
-30.0
62
5
63
7
74
1
91
4
64
7
65
257
75
1
175
1
42
1.0
92
0
66
257
43
1.0
76
1
77
6
78
2
67
7
79
5
170
0
171
0
290
0
174
0
93
1
44
0.0
173
0
291
0
45
0.0
1001
ACAD
1000
AcDbSavedByObjectVersion
1070
0
0
VISUALSTYLE
5
F9B
102
{ACAD_XDICTIONARY
360
108E
102
}
102
{ACAD_REACTORS
330
F93
102
}
330
F93
100
AcDbVisualStyle
2

70
6
71
1
72
2
73
2
90
0
40
-0.6
41
-30.0
62
5
63
7
74
2
91
2
64
7
65
257
75
2
175
1
42
179.0
92
0
66
257
43
1.0
76
1
77
6
78
2
67
7
79
3
170
0
171
0
290
0
174
0
93
1
44
0.0
173
0
291
0
45
0.0
1001
ACAD
1000
AcDbSavedByObjectVersion
1070
0
0
VISUALSTYLE
5
F9A
102
{ACAD_XDICTIONARY
360
108C
102
}
102
{ACAD_REACTORS
330
F93
102
}
330
F93
100
AcDbVisualStyle
2

70
5
71
0
72
2
73
0
90
0
40
-0.6
41
-30.0
62
5
63
7
74
1
91
4
64
7
65
257
75
1
175
1
42
1.0
92
0
66
257
43
1.0
76
1
77
6
78
2
67
7
79
5
170
0
171
0
290
0
174
0
93
1
44
0.0
173
0
291
0
45
0.0
1001
ACAD
1000
AcDbSavedByObjectVersion
1070
0
0
VISUALSTYLE
5
F98
102
{ACAD_XDICTIONARY
360
1088
102
}
102
{ACAD_REACTORS
330
F93
102
}
330
F93
100
AcDbVisualStyle
2

70
7
71
1
72
0
73
1
90
0
40
-0.6
41
-30.0
62
5
63
7
74
0
91
4
64
7
65
257
75
1
175
1
42
1.0
92
8
66
7
43
1.0
76
1
77
6
78
2
67
7
79
5
170
0
171
0
290
0
174
0
93
1
44
0.0
173
0
291
1
45
0.0
1001
ACAD
1000
AcDbSavedByObjectVersion
1070
0
0
VISUALSTYLE
5
F9F
102
{ACAD_XDICTIONARY
360
1096
102
}
102
{ACAD_REACTORS
330
F93
102
}
330
F93
100
AcDbVisualStyle
2

70
12
71
2
72
2
73
0
90
0
40
-0.6
41
-30.0
62
5
63
7
74
1
91
4
64
7
65
257
75
1
175
1
42
1.0
92
8
66
7
43
1.0
76
1
77
6
78
2
67
7
79
5
170
0
171
0
290
0
174
0
93
1
44
50.0
173
0
291
1
45
0.0
1001
ACAD
1000
AcDbSavedByObjectVersion
1070
0
0
VISUALSTYLE
5
FA3
102
{ACAD_XDICTIONARY
360
109E
102
}
102
{ACAD_REACTORS
330
F93
102
}
330
F93
100
AcDbVisualStyle
2

70
16
71
2
72
2
73
3
90
0
40
-0.6
41
-30.0
62
5
63
8
74
1
91
4
64
7
65
257
75
1
175
1
42
1.0
92
8
66
8
43
1.0
76
1
77
6
78
2
67
7
79
5
170
0
171
0
290
0
174
0
93
1
44
0.0
173
0
291
1
45
0.0
1001
ACAD
1000
AcDbSavedByObjectVersion
1070
0
0
VISUALSTYLE
5
F9C
102
{ACAD_XDICTIONARY
360
1090
102
}
102
{ACAD_REACTORS
330
F93
102
}
330
F93
100
AcDbVisualStyle
2

70
9
71
3
72
2
73
0
90
0
40
-0.6
41
-30.0
62
5
63
7
74
2
91
2
64
7
65
257
75
1
175
1
42
179.0
92
8
66
7
43
1.0
76
1
77
6
78
2
67
7
79
3
170
0
171
0
290
0
174
0
93
1
44
0.0
173
0
291
0
45
0.0
1001
ACAD
1000
AcDbSavedByObjectVersion
1070
0
0
VISUALSTYLE
5
F9E
102
{ACAD_XDICTIONARY
360
1094
102
}
102
{ACAD_REACTORS
330
F93
102
}
330
F93
100
AcDbVisualStyle
2

70
11
71
2
72
2
73
0
90
0
40
-0.6
41
-30.0
62
5
63
7
74
1
91
4
64
7
65
257
75
1
175
1
42
1.0
92
8
66
7
43
1.0
76
1
77
6
78
2
67
7
79
5
170
0
171
0
290
0
174
0
93
1
44
-50.0
173
0
291
1
45
0.0
1001
ACAD
1000
AcDbSavedByObjectVersion
1070
0
0
VISUALSTYLE
5
FA6
102
{ACAD_XDICTIONARY
360
10A4
102
}
102
{ACAD_REACTORS
330
F93
102
}
330
F93
100
AcDbVisualStyle
2

70
22
71
2
72
2
73
0
90
0
40
-0.6
41
-30.0
62
5
63
7
74
1
91
4
64
7
65
257
75
1
175
1
42
1.0
92
8
66
7
43
1.0
76
1
77
6
78
2
67
7
79
5
170
0
171
0
290
0
174
0
93
1
44
0.0
173
0
291
1
45
0.0
1001
ACAD
1000
AcDbSavedByObjectVersion
1070
0
0
VISUALSTYLE
5
FA2
102
{ACAD_XDICTIONARY
360
109C
102
}
102
{ACAD_REACTORS
330
F93
102
}
330
F93
100
AcDbVisualStyle
2

70
15
71
2
72
2
73
0
90
0
40
-0.6
41
-30.0
62
5
63
7
74
1
91
4
64
7
65
257
75
1
175
1
42
1.0
92
8
66
7
43
1.0
76
1
77
6
78
2
67
7
79
5
170
0
171
0
290
0
174
0
93
1
44
0.0
173
0
291
1
45
0.0
1001
ACAD
1000
AcDbSavedByObjectVersion
1070
0
0
VISUALSTYLE
5
F94
102
{ACAD_XDICTIONARY
360
1080
102
}
102
{ACAD_REACTORS
330
F93
102
}
330
F93
100
AcDbVisualStyle
2

70
0
71
2
72
1
73
1
90
2
40
-0.6
41
30.0
62
5
63
7
74
0
91
4
64
7
65
257
75
1
175
1
42
1.0
92
8
66
7
43
1.0
76
1
77
6
78
2
67
7
79
5
170
0
171
0
290
0
174
0
93
13
44
0.0
173
0
291
1
45
0.0
1001
ACAD
1000
AcDbSavedByObjectVersion
1070
0
0
VISUALSTYLE
5
F95
102
{ACAD_XDICTIONARY
360
1082
102
}
102
{ACAD_REACTORS
330
F93
102
}
330
F93
100
AcDbVisualStyle
2

70
1
71
2
72
1
73
1
90
2
40
-0.6
41
30.0
62
5
63
7
74
1
91
4
64
7
65
257
75
1
175
1
42
1.0
92
0
66
257
43
1.0
76
1
77
6
78
2
67
7
79
5
170
0
171
0
290
0
174
0
93
13
44
0.0
173
0
291
1
45
0.0
1001
ACAD
1000
AcDbSavedByObjectVersion
1070
0
0
VISUALSTYLE
5
F96
102
{ACAD_XDICTIONARY
360
1084
102
}
102
{ACAD_REACTORS
330
F93
102
}
330
F93
100
AcDbVisualStyle
2

70
2
71
2
72
2
73
1
90
2
40
-0.6
41
30.0
62
5
63
7
74
0
91
4
64
7
65
257
75
1
175
1
42
1.0
92
0
66
7
43
1.0
76
1
77
6
78
2
67
7
79
5
170
0
171
0
290
0
174
0
93
13
44
0.0
173
0
291
1
45
0.0
1001
ACAD
1000
AcDbSavedByObjectVersion
1070
0
0
VISUALSTYLE
5
F97
102
{ACAD_XDICTIONARY
360
1086
102
}
102
{ACAD_REACTORS
330
F93
102
}
330
F93
100
AcDbVisualStyle
2

70
3
71
2
72
2
73
1
90
2
40
-0.6
41
30.0
62
5
63
7
74
1
91
4
64
7
65
257
75
1
175
1
42
1.0
92
0
66
257
43
1.0
76
1
77
6
78
2
67
7
79
5
170
0
171
0
290
0
174
0
93
13
44
0.0
173
0
291
1
45
0.0
1001
ACAD
1000
AcDbSavedByObjectVersion
1070
0
0
VISUALSTYLE
5
FA4
102
{ACAD_XDICTIONARY
360
10A0
102
}
102
{ACAD_REACTORS
330
F93
102
}
330
F93
100
AcDbVisualStyle
2

70
20
71
2
72
2
73
0
90
0
40
-0.6
41
-30.0
62
5
63
7
74
1
91
4
64
7
65
257
75
1
175
1
42
1.0
92
10
66
7
43
1.0
76
1
77
6
78
2
67
7
79
5
170
0
171
0
290
0
174
0
93
1
44
0.0
173
0
291
1
45
0.0
1001
ACAD
1000
AcDbSavedByObjectVersion
1070
0
0
VISUALSTYLE
5
FA1
102
{ACAD_XDICTIONARY
360
109A
102
}
102
{ACAD_REACTORS
330
F93
102
}
330
F93
100
AcDbVisualStyle
2

70
14
71
2
72
2
73
0
90
0
40
-0.6
41
-30.0
62
5
63
7
74
1
91
4
64
7
65
257
75
7
175
7
42
1.0
92
8
66
7
43
1.0
76
1
77
6
78
2
67
7
79
5
170
0
171
0
290
0
174
0
93
1
44
0.0
173
0
291
1
45
0.0
1001
ACAD
1000
AcDbSavedByObjectVersion
1070
0
0
VISUALSTYLE
5
FA5
102
{ACAD_XDICTIONARY
360
10A2
102
}
102
{ACAD_REACTORS
330
F93
102
}
330
F93
100
AcDbVisualStyle
2

70
21
71
2
72
2
73
0
90
0
40
-0.6
41
-30.0
62
5
63
7
74
1
91
4
64
7
65
257
75
1
175
1
42
1.0
92
9
66
7
43
1.0
76
1
77
6
78
2
67
7
79
5
170
0
171
0
290
0
174
0
93
1
44
0.0
173
0
291
1
45
0.0
1001
ACAD
1000
AcDbSavedByObjectVersion
1070
0
0
VISUALSTYLE
5
F9D
102
{ACAD_XDICTIONARY
360
1092
102
}
102
{ACAD_REACTORS
330
F93
102
}
330
F93
100
AcDbVisualStyle
2

70
8
71
2
72
2
73
0
90
0
40
-0.6
41
-30.0
62
5
63
7
74
1
91
0
64
7
65
257
75
1
175
1
42
1.0
92
8
66
8
43
1.0
76
1
77
6
78
2
67
7
79
5
170
0
171
0
290
0
174
0
93
13
44
0.0
173
0
291
0
45
0.0
1001
ACAD
1000
AcDbSavedByObjectVersion
1070
0
0
VISUALSTYLE
5
FA0
102
{ACAD_XDICTIONARY
360
1098
102
}
102
{ACAD_REACTORS
330
F93
102
}
330
F93
100
AcDbVisualStyle
2

70
13
71
2
72
2
73
0
90
0
40
-0.6
41
-30.0
62
5
63
7
74
1
91
4
64
7
65
257
75
1
175
1
42
1.0
92
12
66
7
43
1.0
76
1
77
6
78
2
67
7
79
5
170
0
171
0
290
0
174
0
93
1
44
0.0
173
0
291
1
45
0.0
1001
ACAD
1000
AcDbSavedByObjectVersion
1070
0
0
DICTIONARYVAR
5
FF3
102
{ACAD_REACTORS
330
FF0
102
}
330
FF0
100
DictionaryVariables
280
0
1
1:1
0
DICTIONARYVAR
5
FF2
102
{ACAD_REACTORS
330
FF0
102
}
330
FF0
100
DictionaryVariables
280
0
1
STANDARD
0
DICTIONARYVAR
5
FF1
102
{ACAD_REACTORS
330
FF0
102
}
330
FF0
100
DictionaryVariables
280
0
1
STANDARD
0
DICTIONARYVAR
5
FF6
102
{ACAD_REACTORS
330
FF0
102
}
330
FF0
100
DictionaryVariables
280
0
1
1
0
DICTIONARYVAR
5
FF5
102
{ACAD_REACTORS
330
FF0
102
}
330
FF0
100
DictionaryVariables
280
0
1
0
0
DICTIONARYVAR
5
FF4
102
{ACAD_REACTORS
330
FF0
102
}
330
FF0
100
DictionaryVariables
280
0
1
127
0
DICTIONARYVAR
5
1078
102
{ACAD_REACTORS
330
FF0
102
}
330
FF0
100
DictionaryVariables
280
0
1
2
0
DICTIONARY
5
10A9
330
FD1
100
AcDbDictionary
280
1
281
1
3
ACAD_XREC_ROUNDTRIP
360
10AA
0
DICTIONARY
5
10A7
330
FD0
100
AcDbDictionary
280
1
281
1
3
ACAD_XREC_ROUNDTRIP
360
10A8
0
DICTIONARY
5
F84
330
F83
100
AcDbDictionary
280
1
281
1
3
ACAD_XREC_ROUNDTRIP
360
FFF
3
BUMPTILE
360
F86
3
DIFFUSETILE
360
F85
3
OPACITYTILE
360
F89
3
REFLECTIONTILE
360
F88
3
REFRACTIONTILE
360
F8A
3
SPECULARTILE
360
F87
0
DICTIONARY
5
F7C
330
F7B
100
AcDbDictionary
280
1
281
1
3
ACAD_XREC_ROUNDTRIP
360
FFE
3
BUMPTILE
360
F7E
3
DIFFUSETILE
360
F7D
3
OPACITYTILE
360
F81
3
REFLECTIONTILE
360
F80
3
REFRACTIONTILE
360
F82
3
SPECULARTILE
360
F7F
0
DICTIONARY
5
F8C
330
F8B
100
AcDbDictionary
280
1
281
1
3
ACAD_XREC_ROUNDTRIP
360
1000
3
BUMPTILE
360
F8E
3
DIFFUSETILE
360
F8D
3
OPACITYTILE
360
F91
3
REFLECTIONTILE
360
F90
3
REFRACTIONTILE
360
F92
3
SPECULARTILE
360
F8F
0
DICTIONARY
5
FF8
330
FA9
100
AcDbDictionary
280
1
281
1
3
ACAD_ROUNDTRIP_2008_TABLESTYLE_CELLSTYLEMAP
360
1079
3
ACAD_XREC_ROUNDTRIP
360
10A6
0
DICTIONARY
5
108A
330
F99
100
AcDbDictionary
280
1
281
1
3
ACAD_XREC_ROUNDTRIP
360
108B
0
DICTIONARY
5
108E
330
F9B
100
AcDbDictionary
280
1
281
1
3
ACAD_XREC_ROUNDTRIP
360
108F
0
DICTIONARY
5
108C
330
F9A
100
AcDbDictionary
280
1
281
1
3
ACAD_XREC_ROUNDTRIP
360
108D
0
DICTIONARY
5
1088
330
F98
100
AcDbDictionary
280
1
281
1
3
ACAD_XREC_ROUNDTRIP
360
1089
0
DICTIONARY
5
1096
330
F9F
100
AcDbDictionary
280
1
281
1
3
ACAD_XREC_ROUNDTRIP
360
1097
0
DICTIONARY
5
109E
330
FA3
100
AcDbDictionary
280
1
281
1
3
ACAD_XREC_ROUNDTRIP
360
109F
0
DICTIONARY
5
1090
330
F9C
100
AcDbDictionary
280
1
281
1
3
ACAD_XREC_ROUNDTRIP
360
1091
0
DICTIONARY
5
1094
330
F9E
100
AcDbDictionary
280
1
281
1
3
ACAD_XREC_ROUNDTRIP
360
1095
0
DICTIONARY
5
10A4
330
FA6
100
AcDbDictionary
280
1
281
1
3
ACAD_XREC_ROUNDTRIP
360
10A5
0
DICTIONARY
5
109C
330
FA2
100
AcDbDictionary
280
1
281
1
3
ACAD_XREC_ROUNDTRIP
360
109D
0
DICTIONARY
5
1080
330
F94
100
AcDbDictionary
280
1
281
1
3
ACAD_XREC_ROUNDTRIP
360
1081
0
DICTIONARY
5
1082
330
F95
100
AcDbDictionary
280
1
281
1
3
ACAD_XREC_ROUNDTRIP
360
1083
0
DICTIONARY
5
1084
330
F96
100
AcDbDictionary
280
1
281
1
3
ACAD_XREC_ROUNDTRIP
360
1085
0
DICTIONARY
5
1086
330
F97
100
AcDbDictionary
280
1
281
1
3
ACAD_XREC_ROUNDTRIP
360
1087
0
DICTIONARY
5
10A0
330
FA4
100
AcDbDictionary
280
1
281
1
3
ACAD_XREC_ROUNDTRIP
360
10A1
0
DICTIONARY
5
109A
330
FA1
100
AcDbDictionary
280
1
281
1
3
ACAD_XREC_ROUNDTRIP
360
109B
0
DICTIONARY
5
10A2
330
FA5
100
AcDbDictionary
280
1
281
1
3
ACAD_XREC_ROUNDTRIP
360
10A3
0
DICTIONARY
5
1092
330
F9D
100
AcDbDictionary
280
1
281
1
3
ACAD_XREC_ROUNDTRIP
360
1093
0
DICTIONARY
5
1098
330
FA0
100
AcDbDictionary
280
1
281
1
3
ACAD_XREC_ROUNDTRIP
360
1099
0
XRECORD
5
10AA
102
{ACAD_REACTORS
330
10A9
102
}
330
10A9
100
AcDbXrecord
280
1
102
SHADEPLOT
70
0
102
SHADEPLOTRESLEVEL
70
2
102
SHADEPLOTCUSTOMDPI
70
300
0
XRECORD
5
10A8
102
{ACAD_REACTORS
330
10A7
102
}
330
10A7
100
AcDbXrecord
280
1
102
SHADEPLOT
70
0
102
SHADEPLOTRESLEVEL
70
2
102
SHADEPLOTCUSTOMDPI
70
300
0
XRECORD
5
FFF
102
{ACAD_REACTORS
330
F84
102
}
330
F84
100
AcDbXrecord
280
1
102
MATERIAL
148
0.0
149
0.0
149
0.0
93
0
94
127
282
0
72
0
77
0
171
0
175
0
179
0
273
0
0
XRECORD
5
F86
102
{ACAD_REACTORS
330
F84
102
}
330
F84
100
AcDbXrecord
280
1
270
1
271
1
0
XRECORD
5
F85
102
{ACAD_REACTORS
330
F84
102
}
330
F84
100
AcDbXrecord
280
1
270
1
271
1
0
XRECORD
5
F89
102
{ACAD_REACTORS
330
F84
102
}
330
F84
100
AcDbXrecord
280
1
270
1
271
1
0
XRECORD
5
F88
102
{ACAD_REACTORS
330
F84
102
}
330
F84
100
AcDbXrecord
280
1
270
1
271
1
0
XRECORD
5
F8A
102
{ACAD_REACTORS
330
F84
102
}
330
F84
100
AcDbXrecord
280
1
270
1
271
1
0
XRECORD
5
F87
102
{ACAD_REACTORS
330
F84
102
}
330
F84
100
AcDbXrecord
280
1
270
1
271
1
0
XRECORD
5
FFE
102
{ACAD_REACTORS
330
F7C
102
}
330
F7C
100
AcDbXrecord
280
1
102
MATERIAL
148
0.0
149
0.0
149
0.0
93
0
94
127
282
0
72
0
77
0
171
0
175
0
179
0
273
0
0
XRECORD
5
F7E
102
{ACAD_REACTORS
330
F7C
102
}
330
F7C
100
AcDbXrecord
280
1
270
1
271
1
0
XRECORD
5
F7D
102
{ACAD_REACTORS
330
F7C
102
}
330
F7C
100
AcDbXrecord
280
1
270
1
271
1
0
XRECORD
5
F81
102
{ACAD_REACTORS
330
F7C
102
}
330
F7C
100
AcDbXrecord
280
1
270
1
271
1
0
XRECORD
5
F80
102
{ACAD_REACTORS
330
F7C
102
}
330
F7C
100
AcDbXrecord
280
1
270
1
271
1
0
XRECORD
5
F82
102
{ACAD_REACTORS
330
F7C
102
}
330
F7C
100
AcDbXrecord
280
1
270
1
271
1
0
XRECORD
5
F7F
102
{ACAD_REACTORS
330
F7C
102
}
330
F7C
100
AcDbXrecord
280
1
270
1
271
1
0
XRECORD
5
1000
102
{ACAD_REACTORS
330
F8C
102
}
330
F8C
100
AcDbXrecord
280
1
102
MATERIAL
148
0.0
149
0.0
149
0.0
93
0
94
127
282
0
72
0
77
0
171
0
175
0
179
0
273
0
0
XRECORD
5
F8E
102
{ACAD_REACTORS
330
F8C
102
}
330
F8C
100
AcDbXrecord
280
1
270
1
271
1
0
XRECORD
5
F8D
102
{ACAD_REACTORS
330
F8C
102
}
330
F8C
100
AcDbXrecord
280
1
270
1
271
1
0
XRECORD
5
F91
102
{ACAD_REACTORS
330
F8C
102
}
330
F8C
100
AcDbXrecord
280
1
270
1
271
1
0
XRECORD
5
F90
102
{ACAD_REACTORS
330
F8C
102
}
330
F8C
100
AcDbXrecord
280
1
270
1
271
1
0
XRECORD
5
F92
102
{ACAD_REACTORS
330
F8C
102
}
330
F8C
100
AcDbXrecord
280
1
270
1
271
1
0
XRECORD
5
F8F
102
{ACAD_REACTORS
330
F8C
102
}
330
F8C
100
AcDbXrecord
280
1
270
1
271
1
0
CELLSTYLEMAP
5
1079
102
{ACAD_REACTORS
330
FF8
102
}
330
FF8
100
AcDbCellStyleMap
90
3
300
CELLSTYLE
1
TABLEFORMAT_BEGIN
90
5
170
1
91
0
92
32768
62
257
93
1
300
CONTENTFORMAT
1
CONTENTFORMAT_BEGIN
90
0
91
0
92
512
93
0
300

40
0.0
140
1.0
94
5
62
0
340
253
144
0.25
309
CONTENTFORMAT_END
171
1
301
MARGIN
1
CELLMARGIN_BEGIN
40
0.06
40
0.06
40
0.06
40
0.06
40
0.18
40
0.18
309
CELLMARGIN_END
94
6
95
1
302
GRIDFORMAT
1
GRIDFORMAT_BEGIN
90
0
91
1
62
0
92
-2
340
0
93
0
40
0.045
309
GRIDFORMAT_END
95
2
302
GRIDFORMAT
1
GRIDFORMAT_BEGIN
90
0
91
1
62
0
92
-2
340
0
93
0
40
0.045
309
GRIDFORMAT_END
95
4
302
GRIDFORMAT
1
GRIDFORMAT_BEGIN
90
0
91
1
62
0
92
-2
340
0
93
0
40
0.045
309
GRIDFORMAT_END
95
8
302
GRIDFORMAT
1
GRIDFORMAT_BEGIN
90
0
91
1
62
0
92
-2
340
0
93
0
40
0.045
309
GRIDFORMAT_END
95
16
302
GRIDFORMAT
1
GRIDFORMAT_BEGIN
90
0
91
1
62
0
92
-2
340
0
93
0
40
0.045
309
GRIDFORMAT_END
95
32
302
GRIDFORMAT
1
GRIDFORMAT_BEGIN
90
0
91
1
62
0
92
-2
340
0
93
0
40
0.045
309
GRIDFORMAT_END
309
TABLEFORMAT_END
1
CELLSTYLE_BEGIN
90
1
91
1
300
_TITLE
309
CELLSTYLE_END
300
CELLSTYLE
1
TABLEFORMAT_BEGIN
90
5
170
1
91
0
92
0
62
257
93
1
300
CONTENTFORMAT
1
CONTENTFORMAT_BEGIN
90
0
91
0
92
512
93
0
300

40
0.0
140
1.0
94
5
62
0
340
253
144
0.18
309
CONTENTFORMAT_END
171
1
301
MARGIN
1
CELLMARGIN_BEGIN
40
0.06
40
0.06
40
0.06
40
0.06
40
0.18
40
0.18
309
CELLMARGIN_END
94
6
95
1
302
GRIDFORMAT
1
GRIDFORMAT_BEGIN
90
0
91
1
62
0
92
-2
340
0
93
0
40
0.045
309
GRIDFORMAT_END
95
2
302
GRIDFORMAT
1
GRIDFORMAT_BEGIN
90
0
91
1
62
0
92
-2
340
0
93
0
40
0.045
309
GRIDFORMAT_END
95
4
302
GRIDFORMAT
1
GRIDFORMAT_BEGIN
90
0
91
1
62
0
92
-2
340
0
93
0
40
0.045
309
GRIDFORMAT_END
95
8
302
GRIDFORMAT
1
GRIDFORMAT_BEGIN
90
0
91
1
62
0
92
-2
340
0
93
0
40
0.045
309
GRIDFORMAT_END
95
16
302
GRIDFORMAT
1
GRIDFORMAT_BEGIN
90
0
91
1
62
0
92
-2
340
0
93
0
40
0.045
309
GRIDFORMAT_END
95
32
302
GRIDFORMAT
1
GRIDFORMAT_BEGIN
90
0
91
1
62
0
92
-2
340
0
93
0
40
0.045
309
GRIDFORMAT_END
309
TABLEFORMAT_END
1
CELLSTYLE_BEGIN
90
2
91
1
300
_HEADER
309
CELLSTYLE_END
300
CELLSTYLE
1
TABLEFORMAT_BEGIN
90
5
170
1
91
0
92
0
62
257
93
1
300
CONTENTFORMAT
1
CONTENTFORMAT_BEGIN
90
0
91
0
92
512
93
0
300

40
0.0
140
1.0
94
2
62
0
340
253
144
0.18
309
CONTENTFORMAT_END
171
1
301
MARGIN
1
CELLMARGIN_BEGIN
40
0.06
40
0.06
40
0.06
40
0.06
40
0.18
40
0.18
309
CELLMARGIN_END
94
6
95
1
302
GRIDFORMAT
1
GRIDFORMAT_BEGIN
90
0
91
1
62
0
92
-2
340
0
93
0
40
0.045
309
GRIDFORMAT_END
95
2
302
GRIDFORMAT
1
GRIDFORMAT_BEGIN
90
0
91
1
62
0
92
-2
340
0
93
0
40
0.045
309
GRIDFORMAT_END
95
4
302
GRIDFORMAT
1
GRIDFORMAT_BEGIN
90
0
91
1
62
0
92
-2
340
0
93
0
40
0.045
309
GRIDFORMAT_END
95
8
302
GRIDFORMAT
1
GRIDFORMAT_BEGIN
90
0
91
1
62
0
92
-2
340
0
93
0
40
0.045
309
GRIDFORMAT_END
95
16
302
GRIDFORMAT
1
GRIDFORMAT_BEGIN
90
0
91
1
62
0
92
-2
340
0
93
0
40
0.045
309
GRIDFORMAT_END
95
32
302
GRIDFORMAT
1
GRIDFORMAT_BEGIN
90
0
91
1
62
0
92
-2
340
0
93
0
40
0.045
309
GRIDFORMAT_END
309
TABLEFORMAT_END
1
CELLSTYLE_BEGIN
90
3
91
2
300
_DATA
309
CELLSTYLE_END
0
XRECORD
5
10A6
102
{ACAD_REACTORS
330
FF8
102
}
330
FF8
100
AcDbXrecord
280
1
102
ACAD_ROUNDTRIP_PRE2007_TABLESTYLE
90
512
91
0
1

92
512
93
0
2

94
512
95
0
3

0
XRECORD
5
108B
102
{ACAD_REACTORS
330
108A
102
}
330
108A
100
AcDbXrecord
280
1
102
RTVSPropertyOp0
70
1
102
RTVSPropertyOp1
70
1
102
RTVSPropertyOp2
70
1
102
RTVSPropertyOp3
70
1
102
RTVSPropertyOp4
70
1
102
RTVSPropertyOp5
70
1
102
RTVSPropertyOp6
70
1
102
RTVSPropertyOp7
70
1
102
RTVSPropertyOp8
70
1
102
RTVSPropertyOp9
70
1
102
RTVSPropertyOp10
70
1
102
RTVSPropertyOp11
70
1
102
RTVSPropertyOp12
70
1
102
RTVSPropertyOp13
70
1
102
RTVSPropertyOp14
70
1
102
RTVSPropertyOp15
70
1
102
RTVSPropertyOp16
70
1
102
RTVSPropertyOp17
70
1
102
RTVSPropertyOp18
70
1
102
RTVSPropertyOp19
70
1
102
RTVSPropertyOp20
70
1
102
RTVSPropertyOp21
70
1
102
RTVSPropertyOp22
70
1
102
RTVSPropertyOp23
70
1
102
RTVSPropertyOp24
70
1
102
RTVSPropertyOp25
70
1
102
RTVSPropertyOp26
70
1
102
RTVSPropertyOp27
70
1
0
XRECORD
5
108F
102
{ACAD_REACTORS
330
108E
102
}
330
108E
100
AcDbXrecord
280
1
102
RTVSPropertyOp0
70
1
102
RTVSPropertyOp1
70
1
102
RTVSPropertyOp2
70
1
102
RTVSPropertyOp3
70
1
102
RTVSPropertyOp4
70
1
102
RTVSPropertyOp5
70
1
102
RTVSPropertyOp6
70
1
102
RTVSPropertyOp7
70
1
102
RTVSPropertyOp8
70
1
102
RTVSPropertyOp9
70
1
102
RTVSPropertyOp10
70
1
102
RTVSPropertyOp11
70
1
102
RTVSPropertyOp12
70
1
102
RTVSPropertyOp13
70
1
102
RTVSPropertyOp14
70
1
102
RTVSPropertyOp15
70
1
102
RTVSPropertyOp16
70
1
102
RTVSPropertyOp17
70
1
102
RTVSPropertyOp18
70
1
102
RTVSPropertyOp19
70
1
102
RTVSPropertyOp20
70
1
102
RTVSPropertyOp21
70
1
102
RTVSPropertyOp22
70
1
102
RTVSPropertyOp23
70
1
102
RTVSPropertyOp24
70
1
102
RTVSPropertyOp25
70
1
102
RTVSPropertyOp26
70
1
102
RTVSPropertyOp27
70
1
0
XRECORD
5
108D
102
{ACAD_REACTORS
330
108C
102
}
330
108C
100
AcDbXrecord
280
1
102
RTVSPropertyOp0
70
1
102
RTVSPropertyOp1
70
1
102
RTVSPropertyOp2
70
1
102
RTVSPropertyOp3
70
1
102
RTVSPropertyOp4
70
1
102
RTVSPropertyOp5
70
1
102
RTVSPropertyOp6
70
1
102
RTVSPropertyOp7
70
1
102
RTVSPropertyOp8
70
1
102
RTVSPropertyOp9
70
1
102
RTVSPropertyOp10
70
1
102
RTVSPropertyOp11
70
1
102
RTVSPropertyOp12
70
1
102
RTVSPropertyOp13
70
1
102
RTVSPropertyOp14
70
1
102
RTVSPropertyOp15
70
1
102
RTVSPropertyOp16
70
1
102
RTVSPropertyOp17
70
1
102
RTVSPropertyOp18
70
1
102
RTVSPropertyOp19
70
1
102
RTVSPropertyOp20
70
1
102
RTVSPropertyOp21
70
1
102
RTVSPropertyOp22
70
1
102
RTVSPropertyOp23
70
1
102
RTVSPropertyOp24
70
1
102
RTVSPropertyOp25
70
1
102
RTVSPropertyOp26
70
1
102
RTVSPropertyOp27
70
1
0
XRECORD
5
1089
102
{ACAD_REACTORS
330
1088
102
}
330
1088
100
AcDbXrecord
280
1
102
RTVSPropertyOp0
70
1
102
RTVSPropertyOp1
70
1
102
RTVSPropertyOp2
70
1
102
RTVSPropertyOp3
70
1
102
RTVSPropertyOp4
70
1
102
RTVSPropertyOp5
70
1
102
RTVSPropertyOp6
70
1
102
RTVSPropertyOp7
70
1
102
RTVSPropertyOp8
70
1
102
RTVSPropertyOp9
70
1
102
RTVSPropertyOp10
70
1
102
RTVSPropertyOp11
70
1
102
RTVSPropertyOp12
70
1
102
RTVSPropertyOp13
70
1
102
RTVSPropertyOp14
70
1
102
RTVSPropertyOp15
70
1
102
RTVSPropertyOp16
70
1
102
RTVSPropertyOp17
70
1
102
RTVSPropertyOp18
70
1
102
RTVSPropertyOp19
70
1
102
RTVSPropertyOp20
70
1
102
RTVSPropertyOp21
70
1
102
RTVSPropertyOp22
70
1
102
RTVSPropertyOp23
70
1
102
RTVSPropertyOp24
70
1
102
RTVSPropertyOp25
70
1
102
RTVSPropertyOp26
70
1
102
RTVSPropertyOp27
70
1
0
XRECORD
5
1097
102
{ACAD_REACTORS
330
1096
102
}
330
1096
100
AcDbXrecord
280
1
102
RTVSPropertyOp0
70
1
102
RTVSPropertyOp1
70
1
102
RTVSPropertyOp2
70
1
102
RTVSPropertyOp3
70
1
102
RTVSPropertyOp4
70
1
102
RTVSPropertyOp5
70
1
102
RTVSPropertyOp6
70
1
102
RTVSPropertyOp7
70
1
102
RTVSPropertyOp8
70
1
102
RTVSPropertyOp9
70
1
102
RTVSPropertyOp10
70
1
102
RTVSPropertyOp11
70
1
102
RTVSPropertyOp12
70
1
102
RTVSPropertyOp13
70
1
102
RTVSPropertyOp14
70
1
102
RTVSPropertyOp15
70
1
102
RTVSPropertyOp16
70
1
102
RTVSPropertyOp17
70
1
102
RTVSPropertyOp18
70
1
102
RTVSPropertyOp19
70
1
102
RTVSPropertyOp20
70
1
102
RTVSPropertyOp21
70
1
102
RTVSPropertyOp22
70
1
102
RTVSPropertyOp23
70
1
102
RTVSPropertyOp24
70
1
102
RTVSPropertyOp25
70
1
102
RTVSPropertyOp26
70
1
102
RTVSPropertyOp27
70
1
0
XRECORD
5
109F
102
{ACAD_REACTORS
330
109E
102
}
330
109E
100
AcDbXrecord
280
1
102
RTVSPropertyOp0
70
1
102
RTVSPropertyOp1
70
1
102
RTVSPropertyOp2
70
1
102
RTVSPropertyOp3
70
1
102
RTVSPropertyOp4
70
1
102
RTVSPropertyOp5
70
1
102
RTVSPropertyOp6
70
1
102
RTVSPropertyOp7
70
1
102
RTVSPropertyOp8
70
1
102
RTVSPropertyOp9
70
1
102
RTVSPropertyOp10
70
1
102
RTVSPropertyOp11
70
1
102
RTVSPropertyOp12
70
1
102
RTVSPropertyOp13
70
1
102
RTVSPropertyOp14
70
1
102
RTVSPropertyOp15
70
1
102
RTVSPropertyOp16
70
1
102
RTVSPropertyOp17
70
1
102
RTVSPropertyOp18
70
1
102
RTVSPropertyOp19
70
1
102
RTVSPropertyOp20
70
1
102
RTVSPropertyOp21
70
1
102
RTVSPropertyOp22
70
1
102
RTVSPropertyOp23
70
1
102
RTVSPropertyOp24
70
1
102
RTVSPropertyOp25
70
1
102
RTVSPropertyOp26
70
1
102
RTVSPropertyOp27
70
1
0
XRECORD
5
1091
102
{ACAD_REACTORS
330
1090
102
}
330
1090
100
AcDbXrecord
280
1
102
RTVSPropertyOp0
70
1
102
RTVSPropertyOp1
70
1
102
RTVSPropertyOp2
70
1
102
RTVSPropertyOp3
70
1
102
RTVSPropertyOp4
70
1
102
RTVSPropertyOp5
70
1
102
RTVSPropertyOp6
70
1
102
RTVSPropertyOp7
70
1
102
RTVSPropertyOp8
70
1
102
RTVSPropertyOp9
70
1
102
RTVSPropertyOp10
70
1
102
RTVSPropertyOp11
70
1
102
RTVSPropertyOp12
70
1
102
RTVSPropertyOp13
70
1
102
RTVSPropertyOp14
70
1
102
RTVSPropertyOp15
70
1
102
RTVSPropertyOp16
70
1
102
RTVSPropertyOp17
70
1
102
RTVSPropertyOp18
70
1
102
RTVSPropertyOp19
70
1
102
RTVSPropertyOp20
70
1
102
RTVSPropertyOp21
70
1
102
RTVSPropertyOp22
70
1
102
RTVSPropertyOp23
70
1
102
RTVSPropertyOp24
70
1
102
RTVSPropertyOp25
70
1
102
RTVSPropertyOp26
70
1
102
RTVSPropertyOp27
70
1
0
XRECORD
5
1095
102
{ACAD_REACTORS
330
1094
102
}
330
1094
100
AcDbXrecord
280
1
102
RTVSPropertyOp0
70
1
102
RTVSPropertyOp1
70
1
102
RTVSPropertyOp2
70
1
102
RTVSPropertyOp3
70
1
102
RTVSPropertyOp4
70
1
102
RTVSPropertyOp5
70
1
102
RTVSPropertyOp6
70
1
102
RTVSPropertyOp7
70
1
102
RTVSPropertyOp8
70
1
102
RTVSPropertyOp9
70
1
102
RTVSPropertyOp10
70
1
102
RTVSPropertyOp11
70
1
102
RTVSPropertyOp12
70
1
102
RTVSPropertyOp13
70
1
102
RTVSPropertyOp14
70
1
102
RTVSPropertyOp15
70
1
102
RTVSPropertyOp16
70
1
102
RTVSPropertyOp17
70
1
102
RTVSPropertyOp18
70
1
102
RTVSPropertyOp19
70
1
102
RTVSPropertyOp20
70
1
102
RTVSPropertyOp21
70
1
102
RTVSPropertyOp22
70
1
102
RTVSPropertyOp23
70
1
102
RTVSPropertyOp24
70
1
102
RTVSPropertyOp25
70
1
102
RTVSPropertyOp26
70
1
102
RTVSPropertyOp27
70
1
0
XRECORD
5
10A5
102
{ACAD_REACTORS
330
10A4
102
}
330
10A4
100
AcDbXrecord
280
1
102
RTVSPropertyOp0
70
0
102
RTVSPropertyOp1
70
0
102
RTVSPropertyOp2
70
0
102
RTVSPropertyOp3
70
0
102
RTVSPropertyOp4
70
0
102
RTVSPropertyOp5
70
0
102
RTVSPropertyOp6
70
0
102
RTVSPropertyOp7
70
0
102
RTVSPropertyOp8
70
0
102
RTVSPropertyOp9
70
0
102
RTVSPropertyOp10
70
0
102
RTVSPropertyOp11
70
0
102
RTVSPropertyOp12
70
0
102
RTVSPropertyOp13
70
0
102
RTVSPropertyOp14
70
2
102
RTVSPropertyOp15
70
0
102
RTVSPropertyOp16
70
0
102
RTVSPropertyOp17
70
0
102
RTVSPropertyOp18
70
0
102
RTVSPropertyOp19
70
0
102
RTVSPropertyOp20
70
0
102
RTVSPropertyOp21
70
0
102
RTVSPropertyOp22
70
0
102
RTVSPropertyOp23
70
0
102
RTVSPropertyOp24
70
0
102
RTVSPropertyOp25
70
0
102
RTVSPropertyOp26
70
0
102
RTVSPropertyOp27
70
0
0
XRECORD
5
109D
102
{ACAD_REACTORS
330
109C
102
}
330
109C
100
AcDbXrecord
280
1
102
RTVSPropertyOp0
70
1
102
RTVSPropertyOp1
70
1
102
RTVSPropertyOp2
70
1
102
RTVSPropertyOp3
70
1
102
RTVSPropertyOp4
70
1
102
RTVSPropertyOp5
70
1
102
RTVSPropertyOp6
70
1
102
RTVSPropertyOp7
70
1
102
RTVSPropertyOp8
70
1
102
RTVSPropertyOp9
70
1
102
RTVSPropertyOp10
70
1
102
RTVSPropertyOp11
70
1
102
RTVSPropertyOp12
70
1
102
RTVSPropertyOp13
70
1
102
RTVSPropertyOp14
70
1
102
RTVSPropertyOp15
70
1
102
RTVSPropertyOp16
70
1
102
RTVSPropertyOp17
70
1
102
RTVSPropertyOp18
70
1
102
RTVSPropertyOp19
70
1
102
RTVSPropertyOp20
70
1
102
RTVSPropertyOp21
70
1
102
RTVSPropertyOp22
70
1
102
RTVSPropertyOp23
70
1
102
RTVSPropertyOp24
70
1
102
RTVSPropertyOp25
70
1
102
RTVSPropertyOp26
70
1
102
RTVSPropertyOp27
70
1
0
XRECORD
5
1081
102
{ACAD_REACTORS
330
1080
102
}
330
1080
100
AcDbXrecord
280
1
102
RTVSPropertyOp0
70
1
102
RTVSPropertyOp1
70
1
102
RTVSPropertyOp2
70
1
102
RTVSPropertyOp3
70
1
102
RTVSPropertyOp4
70
1
102
RTVSPropertyOp5
70
1
102
RTVSPropertyOp6
70
1
102
RTVSPropertyOp7
70
1
102
RTVSPropertyOp8
70
1
102
RTVSPropertyOp9
70
1
102
RTVSPropertyOp10
70
1
102
RTVSPropertyOp11
70
1
102
RTVSPropertyOp12
70
1
102
RTVSPropertyOp13
70
1
102
RTVSPropertyOp14
70
1
102
RTVSPropertyOp15
70
1
102
RTVSPropertyOp16
70
1
102
RTVSPropertyOp17
70
1
102
RTVSPropertyOp18
70
1
102
RTVSPropertyOp19
70
1
102
RTVSPropertyOp20
70
1
102
RTVSPropertyOp21
70
1
102
RTVSPropertyOp22
70
1
102
RTVSPropertyOp23
70
1
102
RTVSPropertyOp24
70
1
102
RTVSPropertyOp25
70
1
102
RTVSPropertyOp26
70
1
102
RTVSPropertyOp27
70
1
0
XRECORD
5
1083
102
{ACAD_REACTORS
330
1082
102
}
330
1082
100
AcDbXrecord
280
1
102
RTVSPropertyOp0
70
1
102
RTVSPropertyOp1
70
1
102
RTVSPropertyOp2
70
1
102
RTVSPropertyOp3
70
1
102
RTVSPropertyOp4
70
1
102
RTVSPropertyOp5
70
1
102
RTVSPropertyOp6
70
1
102
RTVSPropertyOp7
70
1
102
RTVSPropertyOp8
70
1
102
RTVSPropertyOp9
70
1
102
RTVSPropertyOp10
70
1
102
RTVSPropertyOp11
70
1
102
RTVSPropertyOp12
70
1
102
RTVSPropertyOp13
70
1
102
RTVSPropertyOp14
70
1
102
RTVSPropertyOp15
70
1
102
RTVSPropertyOp16
70
1
102
RTVSPropertyOp17
70
1
102
RTVSPropertyOp18
70
1
102
RTVSPropertyOp19
70
1
102
RTVSPropertyOp20
70
1
102
RTVSPropertyOp21
70
1
102
RTVSPropertyOp22
70
1
102
RTVSPropertyOp23
70
1
102
RTVSPropertyOp24
70
1
102
RTVSPropertyOp25
70
1
102
RTVSPropertyOp26
70
1
102
RTVSPropertyOp27
70
1
0
XRECORD
5
1085
102
{ACAD_REACTORS
330
1084
102
}
330
1084
100
AcDbXrecord
280
1
102
RTVSPropertyOp0
70
1
102
RTVSPropertyOp1
70
1
102
RTVSPropertyOp2
70
1
102
RTVSPropertyOp3
70
1
102
RTVSPropertyOp4
70
1
102
RTVSPropertyOp5
70
1
102
RTVSPropertyOp6
70
1
102
RTVSPropertyOp7
70
1
102
RTVSPropertyOp8
70
1
102
RTVSPropertyOp9
70
1
102
RTVSPropertyOp10
70
1
102
RTVSPropertyOp11
70
1
102
RTVSPropertyOp12
70
1
102
RTVSPropertyOp13
70
1
102
RTVSPropertyOp14
70
1
102
RTVSPropertyOp15
70
1
102
RTVSPropertyOp16
70
1
102
RTVSPropertyOp17
70
1
102
RTVSPropertyOp18
70
1
102
RTVSPropertyOp19
70
1
102
RTVSPropertyOp20
70
1
102
RTVSPropertyOp21
70
1
102
RTVSPropertyOp22
70
1
102
RTVSPropertyOp23
70
1
102
RTVSPropertyOp24
70
1
102
RTVSPropertyOp25
70
1
102
RTVSPropertyOp26
70
1
102
RTVSPropertyOp27
70
1
0
XRECORD
5
1087
102
{ACAD_REACTORS
330
1086
102
}
330
1086
100
AcDbXrecord
280
1
102
RTVSPropertyOp0
70
1
102
RTVSPropertyOp1
70
1
102
RTVSPropertyOp2
70
1
102
RTVSPropertyOp3
70
1
102
RTVSPropertyOp4
70
1
102
RTVSPropertyOp5
70
1
102
RTVSPropertyOp6
70
1
102
RTVSPropertyOp7
70
1
102
RTVSPropertyOp8
70
1
102
RTVSPropertyOp9
70
1
102
RTVSPropertyOp10
70
1
102
RTVSPropertyOp11
70
1
102
RTVSPropertyOp12
70
1
102
RTVSPropertyOp13
70
1
102
RTVSPropertyOp14
70
1
102
RTVSPropertyOp15
70
1
102
RTVSPropertyOp16
70
1
102
RTVSPropertyOp17
70
1
102
RTVSPropertyOp18
70
1
102
RTVSPropertyOp19
70
1
102
RTVSPropertyOp20
70
1
102
RTVSPropertyOp21
70
1
102
RTVSPropertyOp22
70
1
102
RTVSPropertyOp23
70
1
102
RTVSPropertyOp24
70
1
102
RTVSPropertyOp25
70
1
102
RTVSPropertyOp26
70
1
102
RTVSPropertyOp27
70
1
0
XRECORD
5
10A1
102
{ACAD_REACTORS
330
10A0
102
}
330
10A0
100
AcDbXrecord
280
1
102
RTVSPropertyOp0
70
0
102
RTVSPropertyOp1
70
0
102
RTVSPropertyOp2
70
0
102
RTVSPropertyOp3
70
0
102
RTVSPropertyOp4
70
0
102
RTVSPropertyOp5
70
0
102
RTVSPropertyOp6
70
0
102
RTVSPropertyOp7
70
0
102
RTVSPropertyOp8
70
0
102
RTVSPropertyOp9
70
0
102
RTVSPropertyOp10
70
0
102
RTVSPropertyOp11
70
0
102
RTVSPropertyOp12
70
0
102
RTVSPropertyOp13
70
0
102
RTVSPropertyOp14
70
2
102
RTVSPropertyOp15
70
0
102
RTVSPropertyOp16
70
0
102
RTVSPropertyOp17
70
0
102
RTVSPropertyOp18
70
0
102
RTVSPropertyOp19
70
0
102
RTVSPropertyOp20
70
0
102
RTVSPropertyOp21
70
0
102
RTVSPropertyOp22
70
0
102
RTVSPropertyOp23
70
0
102
RTVSPropertyOp24
70
0
102
RTVSPropertyOp25
70
0
102
RTVSPropertyOp26
70
0
102
RTVSPropertyOp27
70
0
0
XRECORD
5
109B
102
{ACAD_REACTORS
330
109A
102
}
330
109A
100
AcDbXrecord
280
1
102
RTVSPropertyOp0
70
1
102
RTVSPropertyOp1
70
1
102
RTVSPropertyOp2
70
1
102
RTVSPropertyOp3
70
1
102
RTVSPropertyOp4
70
1
102
RTVSPropertyOp5
70
1
102
RTVSPropertyOp6
70
1
102
RTVSPropertyOp7
70
1
102
RTVSPropertyOp8
70
1
102
RTVSPropertyOp9
70
1
102
RTVSPropertyOp10
70
1
102
RTVSPropertyOp11
70
1
102
RTVSPropertyOp12
70
1
102
RTVSPropertyOp13
70
1
102
RTVSPropertyOp14
70
1
102
RTVSPropertyOp15
70
1
102
RTVSPropertyOp16
70
1
102
RTVSPropertyOp17
70
1
102
RTVSPropertyOp18
70
1
102
RTVSPropertyOp19
70
1
102
RTVSPropertyOp20
70
1
102
RTVSPropertyOp21
70
1
102
RTVSPropertyOp22
70
1
102
RTVSPropertyOp23
70
1
102
RTVSPropertyOp24
70
1
102
RTVSPropertyOp25
70
1
102
RTVSPropertyOp26
70
1
102
RTVSPropertyOp27
70
1
0
XRECORD
5
10A3
102
{ACAD_REACTORS
330
10A2
102
}
330
10A2
100
AcDbXrecord
280
1
102
RTVSPropertyOp0
70
0
102
RTVSPropertyOp1
70
0
102
RTVSPropertyOp2
70
0
102
RTVSPropertyOp3
70
0
102
RTVSPropertyOp4
70
0
102
RTVSPropertyOp5
70
0
102
RTVSPropertyOp6
70
0
102
RTVSPropertyOp7
70
0
102
RTVSPropertyOp8
70
0
102
RTVSPropertyOp9
70
0
102
RTVSPropertyOp10
70
0
102
RTVSPropertyOp11
70
0
102
RTVSPropertyOp12
70
0
102
RTVSPropertyOp13
70
0
102
RTVSPropertyOp14
70
2
102
RTVSPropertyOp15
70
0
102
RTVSPropertyOp16
70
0
102
RTVSPropertyOp17
70
0
102
RTVSPropertyOp18
70
0
102
RTVSPropertyOp19
70
0
102
RTVSPropertyOp20
70
0
102
RTVSPropertyOp21
70
0
102
RTVSPropertyOp22
70
0
102
RTVSPropertyOp23
70
0
102
RTVSPropertyOp24
70
0
102
RTVSPropertyOp25
70
0
102
RTVSPropertyOp26
70
0
102
RTVSPropertyOp27
70
0
0
XRECORD
5
1093
102
{ACAD_REACTORS
330
1092
102
}
330
1092
100
AcDbXrecord
280
1
102
RTVSPropertyOp0
70
1
102
RTVSPropertyOp1
70
1
102
RTVSPropertyOp2
70
1
102
RTVSPropertyOp3
70
1
102
RTVSPropertyOp4
70
1
102
RTVSPropertyOp5
70
1
102
RTVSPropertyOp6
70
1
102
RTVSPropertyOp7
70
1
102
RTVSPropertyOp8
70
1
102
RTVSPropertyOp9
70
1
102
RTVSPropertyOp10
70
1
102
RTVSPropertyOp11
70
1
102
RTVSPropertyOp12
70
1
102
RTVSPropertyOp13
70
1
102
RTVSPropertyOp14
70
1
102
RTVSPropertyOp15
70
1
102
RTVSPropertyOp16
70
1
102
RTVSPropertyOp17
70
1
102
RTVSPropertyOp18
70
1
102
RTVSPropertyOp19
70
1
102
RTVSPropertyOp20
70
1
102
RTVSPropertyOp21
70
1
102
RTVSPropertyOp22
70
1
102
RTVSPropertyOp23
70
1
102
RTVSPropertyOp24
70
1
102
RTVSPropertyOp25
70
1
102
RTVSPropertyOp26
70
1
102
RTVSPropertyOp27
70
1
0
XRECORD
5
1099
102
{ACAD_REACTORS
330
1098
102
}
330
1098
100
AcDbXrecord
280
1
102
RTVSPropertyOp0
70
1
102
RTVSPropertyOp1
70
1
102
RTVSPropertyOp2
70
1
102
RTVSPropertyOp3
70
1
102
RTVSPropertyOp4
70
1
102
RTVSPropertyOp5
70
1
102
RTVSPropertyOp6
70
1
102
RTVSPropertyOp7
70
1
102
RTVSPropertyOp8
70
1
102
RTVSPropertyOp9
70
1
102
RTVSPropertyOp10
70
1
102
RTVSPropertyOp11
70
1
102
RTVSPropertyOp12
70
1
102
RTVSPropertyOp13
70
1
102
RTVSPropertyOp14
70
1
102
RTVSPropertyOp15
70
1
102
RTVSPropertyOp16
70
1
102
RTVSPropertyOp17
70
1
102
RTVSPropertyOp18
70
1
102
RTVSPropertyOp19
70
1
102
RTVSPropertyOp20
70
1
102
RTVSPropertyOp21
70
1
102
RTVSPropertyOp22
70
1
102
RTVSPropertyOp23
70
1
102
RTVSPropertyOp24
70
1
102
RTVSPropertyOp25
70
1
102
RTVSPropertyOp26
70
1
102
RTVSPropertyOp27
70
1
0
ENDSEC
0
EOF
