0
SECTION
2
HEADER
9
$ACADVER
1
AC1015
9
$ACADMAINTVER
70
20
9
$DWGCODEPAGE
3
ANSI_1252
9
$INSBASE
10
0.0
20
0.0
30
0.0
9
$EXTMIN
10
-150.000000000000
20
-105.000000000000
30
0.0
9
$EXTMAX
10
150.000000000000
20
105.000000000000
30
0.0
9
$LIMMIN
10
0.0
20
0.0
9
$LIMMAX
10
12.0
20
9.0
9
$ORTHOMODE
70
0
9
$REGENMODE
70
1
9
$FILLMODE
70
1
9
$QTEXTMODE
70
0
9
$MIRRTEXT
70
1
9
$LTSCALE
40
1.0
9
$ATTMODE
70
1
9
$TEXTSIZE
40
0.2
9
$TRACEWID
40
0.05
9
$TEXTSTYLE
7
Standard
9
$CLAYER
8
0
9
$CELTYPE
6
ByLayer
9
$CECOLOR
62
256
9
$CELTSCALE
40
1.0
9
$DISPSILH
70
0
9
$DIMSCALE
40
1.0
9
$DIMASZ
40
2.5
9
$DIMEXO
40
0.625
9
$DIMDLI
40
0.38
9
$DIMRND
40
0.0
9
$DIMDLE
40
0.0
9
$DIMEXE
40
1.25
9
$DIMTP
40
0.0
9
$DIMTM
40
0.000000001
9
$DIMTXT
40
2.5
9
$DIMCEN
40
0.09
9
$DIMTSZ
40
0.0
9
$DIMTOL
70
1
9
$DIMLIM
70
0
9
$DIMTIH
70
0
9
$DIMTOH
70
0
9
$DIMSE1
70
0
9
$DIMSE2
70
0
9
$DIMTAD
70
1
9
$DIMZIN
70
0
9
$DIMBLK
1
VDDIM_DEFAULT
9
$DIMASO
70
1
9
$DIMSHO
70
1
9
$DIMPOST
1

9
$DIMAPOST
1

9
$DIMALT
70
0
9
$DIMALTD
70
2
9
$DIMALTF
40
25.4
9
$DIMLFAC
40
1.00000000000000
9
$DIMTOFL
70
0
9
$DIMTVP
40
0.0
9
$DIMTIX
70
0
9
$DIMSOXD
70
0
9
$DIMSAH
70
0
9
$DIMBLK1
1

9
$DIMBLK2
1

9
$DIMSTYLE
2
BEM-ISBE
9
$DIMCLRD
70
0
9
$DIMCLRE
70
0
9
$DIMCLRT
70
0
9
$DIMTFAC
40
0.5
9
$DIMGAP
40
0.625
9
$DIMJUST
70
0
9
$DIMSD1
70
0
9
$DIMSD2
70
0
9
$DIMTOLJ
70
1
9
$DIMTZIN
70
0
9
$DIMALTZ
70
0
9
$DIMALTTZ
70
0
9
$DIMUPT
70
0
9
$DIMDEC
70
3
9
$DIMTDEC
70
3
9
$DIMALTU
70
2
9
$DIMALTTD
70
2
9
$DIMTXSTY
7
Standard
9
$DIMAUNIT
70
0
9
$DIMADEC
70
3
9
$DIMALTRND
40
0.0
9
$DIMAZIN
70
0
9
$DIMDSEP
70
46
9
$DIMATFIT
70
3
9
$DIMFRAC
70
0
9
$DIMLDRBLK
1

9
$DIMLUNIT
70
2
9
$DIMLWD
70
-2
9
$DIMLWE
70
-2
9
$DIMTMOVE
70
0
9
$LUNITS
70
2
9
$LUPREC
70
4
9
$SKETCHINC
40
0.1
9
$FILLETRAD
40
0.5
9
$AUNITS
70
0
9
$AUPREC
70
0
9
$MENU
1
.
9
$ELEVATION
40
0.0
9
$PELEVATION
40
0.0
9
$THICKNESS
40
0.0
9
$LIMCHECK
70
0
9
$CHAMFERA
40
0.5
9
$CHAMFERB
40
0.5
9
$CHAMFERC
40
1.0
9
$CHAMFERD
40
0.0
9
$SKPOLY
70
0
9
$TDCREATE
40
0.0
9
$TDUCREATE
40
0.0
9
$TDUPDATE
40
0.0
9
$TDUUPDATE
40
0.0
9
$TDINDWG
40
0.0
9
$TDUSRTIMER
40
0.0
9
$USRTIMER
70
1
9
$ANGBASE
50
0.0
9
$ANGDIR
70
0
9
$PDMODE
70
0
9
$PDSIZE
40
0.0
9
$PLINEWID
40
0.0
9
$SPLFRAME
70
0
9
$SPLINETYPE
70
6
9
$SPLINESEGS
70
8
9
$HANDSEED
5
10AB
9
$SURFTAB1
70
6
9
$SURFTAB2
70
6
9
$SURFTYPE
70
6
9
$SURFU
70
6
9
$SURFV
70
6
9
$UCSBASE
2

9
$UCSNAME
2

9
$UCSORG
10
0.0
20
0.0
30
0.0
9
$UCSXDIR
10
1.0
20
0.0
30
0.0
9
$UCSYDIR
10
0.0
20
1.0
30
0.0
9
$UCSORTHOREF
2

9
$UCSORTHOVIEW
70
0
9
$UCSORGTOP
10
0.0
20
0.0
30
0.0
9
$UCSORGBOTTOM
10
0.0
20
0.0
30
0.0
9
$UCSORGLEFT
10
0.0
20
0.0
30
0.0
9
$UCSORGRIGHT
10
0.0
20
0.0
30
0.0
9
$UCSORGFRONT
10
0.0
20
0.0
30
0.0
9
$UCSORGBACK
10
0.0
20
0.0
30
0.0
9
$PUCSBASE
2

9
$PUCSNAME
2

9
$PUCSORG
10
0.0
20
0.0
30
0.0
9
$PUCSXDIR
10
1.0
20
0.0
30
0.0
9
$PUCSYDIR
10
0.0
20
1.0
30
0.0
9
$PUCSORTHOREF
2

9
$PUCSORTHOVIEW
70
0
9
$PUCSORGTOP
10
0.0
20
0.0
30
0.0
9
$PUCSORGBOTTOM
10
0.0
20
0.0
30
0.0
9
$PUCSORGLEFT
10
0.0
20
0.0
30
0.0
9
$PUCSORGRIGHT
10
0.0
20
0.0
30
0.0
9
$PUCSORGFRONT
10
0.0
20
0.0
30
0.0
9
$PUCSORGBACK
10
0.0
20
0.0
30
0.0
9
$USERI1
70
0
9
$USERI2
70
0
9
$USERI3
70
0
9
$USERI4
70
0
9
$USERI5
70
0
9
$USERR1
40
0.0
9
$USERR2
40
0.0
9
$USERR3
40
0.0
9
$USERR4
40
0.0
9
$USERR5
40
0.0
9
$WORLDVIEW
70
1
9
$SHADEDGE
70
3
9
$SHADEDIF
70
70
9
$TILEMODE
70
1
9
$MAXACTVP
70
64
9
$PINSBASE
10
0.0
20
0.0
30
0.0
9
$PLIMCHECK
70
0
9
$PEXTMIN
10
1.000000000000000E+20
20
1.000000000000000E+20
30
1.000000000000000E+20
9
$PEXTMAX
10
-1.000000000000000E+20
20
-1.000000000000000E+20
30
-1.000000000000000E+20
9
$PLIMMIN
10
0.0
20
0.0
9
$PLIMMAX
10
12.0
20
9.0
9
$UNITMODE
70
0
9
$VISRETAIN
70
1
9
$PLINEGEN
70
0
9
$PSLTSCALE
70
1
9
$TREEDEPTH
70
3020
9
$CMLSTYLE
2
Standard
9
$CMLJUST
70
0
9
$CMLSCALE
40
1.0
9
$PROXYGRAPHICS
70
1
9
$MEASUREMENT
70
0
9
$CELWEIGHT
370
-1
9
$ENDCAPS
280
0
9
$JOINSTYLE
280
0
9
$LWDISPLAY
290
0
9
$INSUNITS
70
4
9
$HYPERLINKBASE
1

9
$STYLESHEET
1

9
$XEDIT
290
1
9
$CEPSNTYPE
380
0
9
$PSTYLEMODE
290
0
9
$FINGERPRINTGUID
2
{FAEB1C30-E019-11D5-929B-00C0DF256EC4}
9
$VERSIONGUID
2
{04C5C4E4-4947-4D90-8812-D401569E61F7}
9
$EXTNAMES
290
1
9
$PSVPSCALE
40
0.0
9
$OLESTARTUP
290
0
0
ENDSEC
0
SECTION
2
TABLES
0
TABLE
2
VPORT
5
24A
330
0
100
AcDbSymbolTable
70
1
0
VPORT
5
26B
330
24A
100
AcDbSymbolTableRecord
100
AcDbViewportTableRecord
2
*Active
70
0
10
0.0
20
0.0
11
1.0
21
1.0
12
0.000000000000000
22
0.000000000000000
13
0.0
23
0.0
14
10.0
24
10.0
15
10.0
25
10.0
16
0.0
26
0.0
36
1.0
17
0.0
27
0.0
37
0.0
40
210.000000000000
41
1.42857142857143
42
1.0
43
0.0
44
0.0
50
0.0
51
0.0000000000007958
71
0
72
100
73
1
74
3
75
0
76
0
77
0
78
1
281
0
65
1
110
0.0
120
0.0
130
0.0
111
1.0
121
0.0
131
0.0
112
0.0
122
1.0
132
0.0
79
0
146
0.0
0
ENDTAB
0
TABLE
2
LTYPE
5
247
330
0
100
AcDbSymbolTable
70
25
0
LTYPE
5
256
330
247
100
AcDbSymbolTableRecord
100
AcDbLinetypeTableRecord
2
ByBlock
70
0
3

72
65
73
0
40
0.0
0
LTYPE
5
257
330
247
100
AcDbSymbolTableRecord
100
AcDbLinetypeTableRecord
2
ByLayer
70
0
3

72
65
73
0
40
0.0
0
LTYPE
5
258
330
247
100
AcDbSymbolTableRecord
100
AcDbLinetypeTableRecord
2
Continuous
70
0
3
Solid line
72
65
73
0
40
0.0
0
LTYPE
5
273
330
247
100
AcDbSymbolTableRecord
100
AcDbLinetypeTableRecord
2
CENTER
70
0
3
Center ____ _ ____ _ ____ _ ____ _ ____ _ ____
72
65
73
4
40
2.0
49
1.25
74
0
49
-0.25
74
0
49
0.25
74
0
49
-0.25
74
0
0
LTYPE
5
274
330
247
100
AcDbSymbolTableRecord
100
AcDbLinetypeTableRecord
2
DASHDOT
70
0
3
Dashdot __ . __ . __ . __ . __ . __ . __ . __
72
65
73
4
40
1.0
49
0.5
74
0
49
-0.25
74
0
49
0.0
74
0
49
-0.25
74
0
0
LTYPE
5
275
330
247
100
AcDbSymbolTableRecord
100
AcDbLinetypeTableRecord
2
DASHED
70
0
3
Dashed __ __ __ __ __ __ __ __ __ __ __ __ __ _
72
65
73
2
40
0.75
49
0.5
74
0
49
-0.25
74
0
0
LTYPE
5
276
330
247
100
AcDbSymbolTableRecord
100
AcDbLinetypeTableRecord
2
HIDDEN
70
0
3
Hidden __ __ __ __ __ __ __ __ __ __ __ __ __ __
72
65
73
2
40
0.375
49
0.25
74
0
49
-0.125
74
0
0
LTYPE
5
277
330
247
100
AcDbSymbolTableRecord
100
AcDbLinetypeTableRecord
2
HIDDEN2
70
0
3
Hidden2 _ _ _ _ _ _ _ _ _ _ _ _ _ _ _ _ _
72
65
73
2
40
0.1875
49
0.125
74
0
49
-0.0625
74
0
0
LTYPE
5
278
330
247
100
AcDbSymbolTableRecord
100
AcDbLinetypeTableRecord
2
BORDER
70
0
3
Border __ __ . __ __ . __ __ . __ __ . __ __ .
72
65
73
6
40
1.75
49
0.5
74
0
49
-0.25
74
0
49
0.5
74
0
49
-0.25
74
0
49
0.0
74
0
49
-0.25
74
0
0
LTYPE
5
279
330
247
100
AcDbSymbolTableRecord
100
AcDbLinetypeTableRecord
2
BORDER2
70
0
3
Border2 __.__.__.__.__.__.__.__.__.__.__.
72
65
73
6
40
0.875
49
0.25
74
0
49
-0.125
74
0
49
0.25
74
0
49
-0.125
74
0
49
0.0
74
0
49
-0.125
74
0
0
LTYPE
5
27A
330
247
100
AcDbSymbolTableRecord
100
AcDbLinetypeTableRecord
2
BORDERX2
70
0
3
Borderx2  ____  ____  .  ____  ____  .  ___
72
65
73
6
40
3.5
49
1.0
74
0
49
-0.5
74
0
49
1.0
74
0
49
-0.5
74
0
49
0.0
74
0
49
-0.5
74
0
0
LTYPE
5
27B
330
247
100
AcDbSymbolTableRecord
100
AcDbLinetypeTableRecord
2
CENTER2
70
0
3
Center2  ___ _ ___ _ ___ _ ___ _ ___ _ ___
72
65
73
4
40
1.125
49
0.75
74
0
49
-0.125
74
0
49
0.125
74
0
49
-0.125
74
0
0
LTYPE
5
27C
330
247
100
AcDbSymbolTableRecord
100
AcDbLinetypeTableRecord
2
CENTERX2
70
0
3
Centerx2  ________  __  ________  __  _____
72
65
73
4
40
4.0
49
2.5
74
0
49
-0.5
74
0
49
0.5
74
0
49
-0.5
74
0
0
LTYPE
5
27D
330
247
100
AcDbSymbolTableRecord
100
AcDbLinetypeTableRecord
2
DASHDOT2
70
0
3
Dashdot2  _._._._._._._._._._._._._._._.
72
65
73
4
40
0.5
49
0.25
74
0
49
-0.125
74
0
49
0.0
74
0
49
-0.125
74
0
0
LTYPE
5
27E
330
247
100
AcDbSymbolTableRecord
100
AcDbLinetypeTableRecord
2
DASHDOTX2
70
0
3
Dashdotx2 ____  .  ____  .  ____  .  ___
72
65
73
4
40
2.0
49
1.0
74
0
49
-0.5
74
0
49
0.0
74
0
49
-0.5
74
0
0
LTYPE
5
27F
330
247
100
AcDbSymbolTableRecord
100
AcDbLinetypeTableRecord
2
DASHED2
70
0
3
Dashed2 _ _ _ _ _ _ _ _ _ _ _ _ _ _ _ _ _
72
65
73
2
40
0.375
49
0.25
74
0
49
-0.125
74
0
0
LTYPE
5
280
330
247
100
AcDbSymbolTableRecord
100
AcDbLinetypeTableRecord
2
DASHEDX2
70
0
3
Dashedx2 ____  ____  ____  ____  ____  ___
72
65
73
2
40
1.5
49
1.0
74
0
49
-0.5
74
0
0
LTYPE
5
281
330
247
100
AcDbSymbolTableRecord
100
AcDbLinetypeTableRecord
2
DIVIDE
70
0
3
Divide ____ . . ____ . . ____ . . ____ . . ____
72
65
73
6
40
1.25
49
0.5
74
0
49
-0.25
74
0
49
0.0
74
0
49
-0.25
74
0
49
0.0
74
0
49
-0.25
74
0
0
LTYPE
5
282
330
247
100
AcDbSymbolTableRecord
100
AcDbLinetypeTableRecord
2
DIVIDE2
70
0
3
Divide2 __..__..__..__..__..__..__..__.._
72
65
73
6
40
0.625
49
0.25
74
0
49
-0.125
74
0
49
0.0
74
0
49
-0.125
74
0
49
0.0
74
0
49
-0.125
74
0
0
LTYPE
5
283
330
247
100
AcDbSymbolTableRecord
100
AcDbLinetypeTableRecord
2
DIVIDEX2
70
0
3
Dividex2 ________  .  .  ________  .  .  _
72
65
73
6
40
2.5
49
1.0
74
0
49
-0.5
74
0
49
0.0
74
0
49
-0.5
74
0
49
0.0
74
0
49
-0.5
74
0
0
LTYPE
5
284
330
247
100
AcDbSymbolTableRecord
100
AcDbLinetypeTableRecord
2
DOT
70
0
3
Dot . . . . . . . . . . . . . . . . . . . . . . . .
72
65
73
2
40
0.25
49
0.0
74
0
49
-0.25
74
0
0
LTYPE
5
285
330
247
100
AcDbSymbolTableRecord
100
AcDbLinetypeTableRecord
2
DOT2
70
0
3
Dot2 ........................................
72
65
73
2
40
0.125
49
0.0
74
0
49
-0.125
74
0
0
LTYPE
5
286
330
247
100
AcDbSymbolTableRecord
100
AcDbLinetypeTableRecord
2
DOTX2
70
0
3
Dotx2 .  .  .  .  .  .  .  .  .  .  .  .  .  .
72
65
73
2
40
0.5
49
0.0
74
0
49
-0.5
74
0
0
LTYPE
5
287
330
247
100
AcDbSymbolTableRecord
100
AcDbLinetypeTableRecord
2
HIDDENX2
70
0
3
Hiddenx2 ____ ____ ____ ____ ____ ____ ____
72
65
73
2
40
0.75
49
0.5
74
0
49
-0.25
74
0
0
LTYPE
5
288
330
247
100
AcDbSymbolTableRecord
100
AcDbLinetypeTableRecord
2
PHANTOM
70
0
3
Phantom ______  __  __  ______  __  __  ______
72
65
73
6
40
2.5
49
1.25
74
0
49
-0.25
74
0
49
0.25
74
0
49
-0.25
74
0
49
0.25
74
0
49
-0.25
74
0
0
LTYPE
5
289
330
247
100
AcDbSymbolTableRecord
100
AcDbLinetypeTableRecord
2
PHANTOM2
70
0
3
Phantom2 ___ _ _ ___ _ _ ___ _ _ ___ _ _
72
65
73
6
40
1.25
49
0.625
74
0
49
-0.125
74
0
49
0.125
74
0
49
-0.125
74
0
49
0.125
74
0
49
-0.125
74
0
0
LTYPE
5
28A
330
247
100
AcDbSymbolTableRecord
100
AcDbLinetypeTableRecord
2
PHANTOMX2
70
0
3
Phantomx2 ____________    ____    ____   _
72
65
73
6
40
5.0
49
2.5
74
0
49
-0.5
74
0
49
0.5
74
0
49
-0.5
74
0
49
0.5
74
0
49
-0.5
74
0
0
ENDTAB
0
TABLE
2
LAYER
5
244
330
0
100
AcDbSymbolTable
70
6
0
LAYER
5
252
330
244
100
AcDbSymbolTableRecord
100
AcDbLayerTableRecord
2
0
70
0
62
7
6
Continuous
370
0
390
251
0
LAYER
5
23F
330
244
100
AcDbSymbolTableRecord
100
AcDbLayerTableRecord
2
Bemassung
70
0
 62
   7
6
Continuous
370
0
390
251
0
LAYER
5
240
330
244
100
AcDbSymbolTableRecord
100
AcDbLayerTableRecord
2
Rahmen
70
0
 62
   7
6
Continuous
370
0
390
251
0
LAYER
5
241
330
244
100
AcDbSymbolTableRecord
100
AcDbLayerTableRecord
2
Geo
70
0
 62
   7
6
Continuous
370
0
390
251
0
LAYER
5
33A
330
244
100
AcDbSymbolTableRecord
100
AcDbLayerTableRecord
2
Defpoints
70
0
62
7
6
Continuous
290
0
370
-3
390
251
0
LAYER
5
57E
330
244
100
AcDbSymbolTableRecord
100
AcDbLayerTableRecord
2
Text
70
0
 62
   7
6
Continuous
370
0
390
251
1001
AcAecLayerStandard
1000

1000

0
ENDTAB
0
TABLE
2
STYLE
5
245
330
0
100
AcDbSymbolTable
70
2
0
STYLE
5
253
330
245
100
AcDbSymbolTableRecord
100
AcDbTextStyleTableRecord
2
Standard
70
0
40
0.0
41
1.0
50
0.0
71
0
42
0.2
3
Arial
4

1001
ACAD
1000
Arial
1071
0
0
STYLE
5
132
330
245
100
AcDbSymbolTableRecord
100
AcDbTextStyleTableRecord
2
Beschriftung
70
0
40
0.0
41
1.0
50
0.0
71
0
42
0.2
3
Arial
4

1001
ACAD
1000
Arial
1071
0
1001
AcadAnnotative
1000
AnnotativeData
1070
1
1070
1
0
ENDTAB
0
TABLE
2
VIEW
5
248
330
0
100
AcDbSymbolTable
70
0
0
ENDTAB
0
TABLE
2
UCS
5
249
330
0
100
AcDbSymbolTable
70
0
0
ENDTAB
0
TABLE
2
APPID
5
24B
330
0
100
AcDbSymbolTable
70
13
0
APPID
5
254
330
24B
100
AcDbSymbolTableRecord
100
AcDbRegAppTableRecord
2
ACAD
70
0
0
APPID
5
26C
330
24B
100
AcDbSymbolTableRecord
100
AcDbRegAppTableRecord
2
VD_INVISIBLE_NOT_FOR_READ
70
0
0
APPID
5
26D
330
24B
100
AcDbSymbolTableRecord
100
AcDbRegAppTableRecord
2
VD_TEMPHATCH
70
0
0
APPID
5
26E
330
24B
100
AcDbSymbolTableRecord
100
AcDbRegAppTableRecord
2
VDEXTRAPARAM
70
0
0
APPID
5
26F
330
24B
100
AcDbSymbolTableRecord
100
AcDbRegAppTableRecord
2
PE_URL
70
0
0
APPID
5
270
330
24B
100
AcDbSymbolTableRecord
100
AcDbRegAppTableRecord
2
VD_UNKNOWN
70
0
0
APPID
5
28F
330
24B
100
AcDbSymbolTableRecord
100
AcDbRegAppTableRecord
2
AcadAnnotative
70
0
0
APPID
5
290
330
24B
100
AcDbSymbolTableRecord
100
AcDbRegAppTableRecord
2
ACAD_DSTYLE_DIMJAG
70
0
0
APPID
5
291
330
24B
100
AcDbSymbolTableRecord
100
AcDbRegAppTableRecord
2
ACAD_DSTYLE_DIMTALN
70
0
0
APPID
5
293
330
24B
100
AcDbSymbolTableRecord
100
AcDbRegAppTableRecord
2
ACAD_PSEXT
70
0
0
APPID
5
42A
330
24B
100
AcDbSymbolTableRecord
100
AcDbRegAppTableRecord
2
ACAD_MLEADERVER
70
0
0
APPID
5
532
330
24B
100
AcDbSymbolTableRecord
100
AcDbRegAppTableRecord
2
ACAD_EXEMPT_FROM_CAD_STANDARDS
70
0
0
APPID
5
57F
330
24B
100
AcDbSymbolTableRecord
100
AcDbRegAppTableRecord
2
AcAecLayerStandard
70
0
0
ENDTAB
0
TABLE
2
DIMSTYLE
5
24C
330
0
100
AcDbSymbolTable
70
3
100
AcDbDimStyleTable
71
2
340
27
340
269
0
DIMSTYLE
105
269
330
24C
100
AcDbSymbolTableRecord
100
AcDbDimStyleTableRecord
2
Standard
70
0
172
1
174
1
288
1
340
253
342
23C
0
DIMSTYLE
105
137
330
24C
100
AcDbSymbolTableRecord
100
AcDbDimStyleTableRecord
2
Beschriftung
70
0
41
2.5
42
0.625
44
1.25
73
0
74
0
77
1
140
2.5
147
0.625
172
1
174
1
271
2
288
1
340
253
342
23C
1001
AcadAnnotative
1000
AnnotativeData
1070
1
1070
1
1001
ACAD_DSTYLE_DIMJAG
1070
388
1040
1.5
1001
ACAD_DSTYLE_DIMTALN
1070
392
1070
0
0
DIMSTYLE
105
27
102
{ACAD_REACTORS
330
F10012
330
F1001C
330
F10021
330
F10003
330
F1000D
330
F10008
330
F10017
102
}
330
24C
100
AcDbSymbolTableRecord
100
AcDbDimStyleTableRecord
2
BEM-ISBE
70
0
41
2.5
42
0.625
44
1.25
48
0.000000001
71
1
73
0
74
0
77
1
140
2.5
144
1.00000000000000
146
0.5
147
0.625
171
 3
172
 1
179
 3
271
 3
272
 3
274
 3
340
253
342
23C
1001
ACAD_DSTYLE_DIMJAG
1070
388
1040
1.5
1001
ACAD_DSTYLE_DIMTALN
1070
392
1070
1
0
ENDTAB
0
TABLE
2
BLOCK_RECORD
5
243
330
0
100
AcDbSymbolTable
70
5
0
BLOCK_RECORD
5
261
330
243
100
AcDbSymbolTableRecord
100
AcDbBlockTableRecord
2
*Model_Space
340
FD0
0
BLOCK_RECORD
5
25D
330
243
100
AcDbSymbolTableRecord
100
AcDbBlockTableRecord
2
*Paper_Space
340
FD1
0
BLOCK_RECORD
5
265
330
243
100
AcDbSymbolTableRecord
100
AcDbBlockTableRecord
2
*Paper_Space0
340
0
0
BLOCK_RECORD
5
23C
330
243
100
AcDbSymbolTableRecord
100
AcDbBlockTableRecord
2
VDDIM_DEFAULT
340
0
102
{BLKREFS
102
}
0
BLOCK_RECORD
5
23E
330
243
100
AcDbSymbolTableRecord
100
AcDbBlockTableRecord
2
VDDIM_NONE
340
0
0
BLOCK_RECORD
5
F10011
330
243
100
AcDbSymbolTableRecord
100
AcDbBlockTableRecord
2
*D6
340
0
0
BLOCK_RECORD
5
F1001B
330
243
100
AcDbSymbolTableRecord
100
AcDbBlockTableRecord
2
*D8
340
0
0
BLOCK_RECORD
5
F10020
330
243
100
AcDbSymbolTableRecord
100
AcDbBlockTableRecord
2
*D9
340
0
0
BLOCK_RECORD
5
F10002
330
243
100
AcDbSymbolTableRecord
100
AcDbBlockTableRecord
2
*D3
340
0
0
BLOCK_RECORD
5
F1000C
330
243
100
AcDbSymbolTableRecord
100
AcDbBlockTableRecord
2
*D5
340
0
0
BLOCK_RECORD
5
F10007
330
243
100
AcDbSymbolTableRecord
100
AcDbBlockTableRecord
2
*D4
340
0
0
BLOCK_RECORD
5
F10016
330
243
100
AcDbSymbolTableRecord
100
AcDbBlockTableRecord
2
*D7
340
0
0
ENDTAB
0
ENDSEC
0
SECTION
2
BLOCKS
0
BLOCK
5
262
330
261
100
AcDbEntity
8
0
100
AcDbBlockBegin
2
*Model_Space
70
0
10
0.0
20
0.0
30
0.0
3
*Model_Space
1

0
ENDBLK
5
263
330
261
100
AcDbEntity
8
0
100
AcDbBlockEnd
0
BLOCK
5
25E
330
25D
100
AcDbEntity
67
1
8
0
100
AcDbBlockBegin
2
*Paper_Space
70
0
10
0.0
20
0.0
30
0.0
3
*Paper_Space
1

0
ENDBLK
5
25F
330
25D
100
AcDbEntity
67
1
8
0
100
AcDbBlockEnd
0
BLOCK
5
266
330
265
100
AcDbEntity
8
0
100
AcDbBlockBegin
2
*Paper_Space0
70
0
10
0.0
20
0.0
30
0.0
3
*Paper_Space0
1

0
VIEWPORT
5
296
102
{ACAD_XDICTIONARY
360
58E
102
}
330
265
100
AcDbEntity
8
0
60
1
100
AcDbViewport
10
0.0
20
0.0
30
0.0
40
10.0
41
10.0
69
0
12
0.0
22
0.0
13
0.0
23
0.0
14
1.0
24
1.0
15
0.0
25
0.0
16
0.0
26
0.0
36
1.0
17
0.0
27
0.0
37
0.0
42
0.0
43
0.0
44
0.0
45
10.0
50
0.0
51
0.0000000000007958
72
100
90
163872
1

281
0
71
0
74
0
110
0.0
120
0.0
130
0.0
111
1.0
121
0.0
131
0.0
112
0.0
122
1.0
132
0.0
79
0
146
0.0
1001
VD_INVISIBLE_NOT_FOR_READ
1000
VD_INVISIBLE_NOT_FOR_READ
0
VIEWPORT
5
297
102
{ACAD_XDICTIONARY
360
590
102
}
330
265
100
AcDbEntity
8
0
60
1
100
AcDbViewport
10
0.0
20
0.0
30
0.0
40
10.0
41
10.0
69
0
12
0.0
22
0.0
13
0.0
23
0.0
14
1.0
24
1.0
15
0.0
25
0.0
16
0.0
26
0.0
36
1.0
17
0.0
27
0.0
37
0.0
42
0.0
43
0.0
44
0.0
45
10.0
50
0.0
51
0.0000000000007958
72
100
90
163872
1

281
0
71
0
74
0
110
0.0
120
0.0
130
0.0
111
1.0
121
0.0
131
0.0
112
0.0
122
1.0
132
0.0
79
0
146
0.0
1001
VD_INVISIBLE_NOT_FOR_READ
1000
VD_INVISIBLE_NOT_FOR_READ
0
ENDBLK
5
267
330
265
100
AcDbEntity
8
0
100
AcDbBlockEnd
0
BLOCK
5
28B
330
23C
100
AcDbEntity
8
0
100
AcDbBlockBegin
2
VDDIM_DEFAULT
70
0
10
0.0
20
0.0
30
0.0
3
VDDIM_DEFAULT
1

0
LWPOLYLINE
5
23D
330
23C
100
AcDbEntity
8
0
6
Continuous
62
0
100
AcDbPolyline
90
4
70
0
43
0.0
10
0.0
20
0.0
10
-1.0
20
-0.1665
10
-1.0
20
0.1665
10
0.0
20
0.0
1001
VDEXTRAPARAM
1071
1
1071
0
1071
0
1040
1.0
1000

1000

1040
0.0
1040
0.0
0
HATCH
5
292
330
23C
100
AcDbEntity
8
0
6
Continuous
62
0
100
AcDbHatch
10
0.0
20
0.0
30
0.0
210
0.0
220
0.0
230
1.0
2
SOLID
70
1
71
0
91
1
92
2
72
0
73
1
93
3
10
0.0
20
0.0
10
-1.0
20
-0.1665
10
-1.0
20
0.1665
97
0
75
0
76
1
98
1
10
0.0
20
0.0
1001
VDEXTRAPARAM
1071
1
1071
0
1071
0
1040
1.0
1000

1000

1040
0.0
1040
0.0
1001
VD_TEMPHATCH
1000
VD_TEMPHATCH
0
ENDBLK
5
28C
330
23C
100
AcDbEntity
8
0
100
AcDbBlockEnd
0
BLOCK
5
28D
330
23E
100
AcDbEntity
8
0
100
AcDbBlockBegin
2
VDDIM_NONE
70
0
10
0.0
20
0.0
30
0.0
3
VDDIM_NONE
1

0
ENDBLK
5
28E
330
23E
100
AcDbEntity
8
0
100
AcDbBlockEnd
  0
BLOCK
  5
F10025
330
F10011
100
AcDbEntity
  8
0
100
AcDbBlockBegin
  2
*D6
 70
     1
 10
0.0
 20
0.0
 30
0.0
  3
*D6
  1

  0
LINE
  5
F10026
330
F10011
100
AcDbEntity
  8
Bemassung
 62
     0
370
    -2
100
AcDbLine
10
-67.6912400829437
20
12.9113221957711
30
0.000000000000000
11
-67.6912400829437
21
24.9113221957711
31
0.000000000000000
  0
LINE
  5
F10027
330
F10011
100
AcDbEntity
  8
Bemassung
 62
     0
370
    -2
100
AcDbLine
10
4.30875991705635
20
12.7113221957711
30
0.000000000000000
11
4.30875991705635
21
29.9113221957711
31
0.000000000000000
  0
LINE
  5
F10028
330
F10011
100
AcDbEntity
  8
Bemassung
 62
     0
370
    -2
100
AcDbLine
10
-67.6912400829437
20
22.9113221957711
30
0.000000000000000
11
22.1484630786686
21
22.9113221957711
31
0.000000000000000
  0
INSERT
  5
F10029
330
F10011
100
AcDbEntity
  8
Bemassung
 62
     0
370
    -2
100
AcDbBlockReference
  2
VDDIM_DEFAULT
10
-67.6912400829437
20
22.9113221957711
30
0.000000000000000
 41
2.50000000000000
 42
2.50000000000000
 43
2.50000000000000
 50
180.000000000000
  0
INSERT
  5
F1002A
330
F10011
100
AcDbEntity
  8
Bemassung
 62
     0
370
    -2
100
AcDbBlockReference
  2
VDDIM_DEFAULT
10
4.30875991705635
20
22.9113221957711
30
0.000000000000000
 41
2.50000000000000
 42
2.50000000000000
 43
2.50000000000000
  0
MTEXT
  5
F1002B
330
F10011
100
AcDbEntity
  8
Bemassung
 62
     0
100
AcDbMText
10
-31.6912400829437
20
23.5779888624377
30
0.000000000000000
 40
2.50000000000000
 41
0.0
 71
     8
 72
     1
  1
72
 11
1.00000000000000
 21
0.000000000000000
 31
0.0
 73
     1
 44
1.0
1001
ACAD
1000
MTEXTBEGIN
1070
73
1070
1
1070
44
1040
1.0
1070
74
1070
0
1000
MTEXTEND
  0
POINT
  5
F1002C
330
F10011
100
AcDbEntity
  8
Bemassung
 62
     0
100
AcDbPoint
10
-67.6912400829437
20
12.9113221957711
30
0.000000000000000
  0
POINT
  5
F1002D
330
F10011
100
AcDbEntity
  8
Bemassung
 62
     0
100
AcDbPoint
10
4.30875991705635
20
12.7113221957711
30
0.000000000000000
  0
ENDBLK
  5
F1002E
330
F10011
100
AcDbEntity
  8
0
100
AcDbBlockEnd
  0
BLOCK
  5
F1002F
330
F1001B
100
AcDbEntity
  8
0
100
AcDbBlockBegin
  2
*D8
 70
     1
 10
0.0
 20
0.0
 30
0.0
  3
*D8
  1

  0
LINE
  5
F10030
330
F1001B
100
AcDbEntity
  8
Bemassung
 62
     0
370
    -2
100
AcDbLine
10
-67.6912400829437
20
-1.08867780422892
30
0.000000000000000
11
-67.6912400829437
21
-8.08867780422892
31
0.000000000000000
  0
LINE
  5
F10031
330
F1001B
100
AcDbEntity
  8
Bemassung
 62
     0
370
    -2
100
AcDbLine
10
-84.6912400829437
20
-8.08867780422892
30
0.000000000000000
11
-84.6912400829437
21
29.9113221957711
31
0.000000000000000
  0
LINE
  5
F10032
330
F1001B
100
AcDbEntity
  8
Bemassung
 62
     0
370
    -2
100
AcDbLine
10
-66.8083952985525
20
-6.08867780422892
30
0.000000000000000
11
-84.6912400829437
21
-6.08867780422892
31
0.000000000000000
  0
INSERT
  5
F10033
330
F1001B
100
AcDbEntity
  8
Bemassung
 62
     0
370
    -2
100
AcDbBlockReference
  2
VDDIM_DEFAULT
10
-67.6912400829437
20
-6.08867780422892
30
0.000000000000000
 41
2.50000000000000
 42
2.50000000000000
 43
2.50000000000000
  0
INSERT
  5
F10034
330
F1001B
100
AcDbEntity
  8
Bemassung
 62
     0
370
    -2
100
AcDbBlockReference
  2
VDDIM_DEFAULT
10
-84.6912400829437
20
-6.08867780422892
30
0.000000000000000
 41
2.50000000000000
 42
2.50000000000000
 43
2.50000000000000
 50
180.000000000000
  0
MTEXT
  5
F10035
330
F1001B
100
AcDbEntity
  8
Bemassung
 62
     0
100
AcDbMText
10
-76.1912400829437
20
-5.42201113756226
30
0.000000000000000
 40
2.50000000000000
 41
0.0
 71
     8
 72
     1
  1
17
 11
1.00000000000000
 21
0.000000000000000
 31
0.0
 73
     1
 44
1.0
1001
ACAD
1000
MTEXTBEGIN
1070
73
1070
1
1070
44
1040
1.0
1070
74
1070
0
1000
MTEXTEND
  0
POINT
  5
F10036
330
F1001B
100
AcDbEntity
  8
Bemassung
 62
     0
100
AcDbPoint
10
-67.6912400829437
20
-1.08867780422892
30
0.000000000000000
  0
POINT
  5
F10037
330
F1001B
100
AcDbEntity
  8
Bemassung
 62
     0
100
AcDbPoint
10
-84.6912400829437
20
-8.08867780422892
30
0.000000000000000
  0
ENDBLK
  5
F10038
330
F1001B
100
AcDbEntity
  8
0
100
AcDbBlockEnd
  0
BLOCK
  5
F10039
330
F10020
100
AcDbEntity
  8
0
100
AcDbBlockBegin
  2
*D9
 70
     1
 10
0.0
 20
0.0
 30
0.0
  3
*D9
  1

  0
LINE
  5
F1003A
330
F10020
100
AcDbEntity
  8
Bemassung
 62
     0
370
    -2
100
AcDbLine
10
4.30875991705635
20
12.7113221957711
30
0.000000000000000
11
4.30875991705635
21
29.9113221957711
31
0.000000000000000
  0
LINE
  5
F1003B
330
F10020
100
AcDbEntity
  8
Bemassung
 62
     0
370
    -2
100
AcDbLine
10
-84.6912400829437
20
-8.08867780422892
30
0.000000000000000
11
-84.6912400829437
21
29.9113221957711
31
0.000000000000000
  0
LINE
  5
F1003C
330
F10020
100
AcDbEntity
  8
Bemassung
 62
     0
370
    -2
100
AcDbLine
10
5.12676804808552
20
27.9113221957711
30
0.000000000000000
11
-84.6912400829437
21
27.9113221957711
31
0.000000000000000
  0
INSERT
  5
F1003D
330
F10020
100
AcDbEntity
  8
Bemassung
 62
     0
370
    -2
100
AcDbBlockReference
  2
VDDIM_DEFAULT
10
4.30875991705635
20
27.9113221957711
30
0.000000000000000
 41
2.50000000000000
 42
2.50000000000000
 43
2.50000000000000
  0
INSERT
  5
F1003E
330
F10020
100
AcDbEntity
  8
Bemassung
 62
     0
370
    -2
100
AcDbBlockReference
  2
VDDIM_DEFAULT
10
-84.6912400829437
20
27.9113221957711
30
0.000000000000000
 41
2.50000000000000
 42
2.50000000000000
 43
2.50000000000000
 50
180.000000000000
  0
MTEXT
  5
F1003F
330
F10020
100
AcDbEntity
  8
Bemassung
 62
     0
100
AcDbMText
10
-40.1912400829437
20
28.5779888624377
30
0.000000000000000
 40
2.50000000000000
 41
0.0
 71
     8
 72
     1
  1
89
 11
1.00000000000000
 21
0.000000000000000
 31
0.0
 73
     1
 44
1.0
1001
ACAD
1000
MTEXTBEGIN
1070
73
1070
1
1070
44
1040
1.0
1070
74
1070
0
1000
MTEXTEND
  0
POINT
  5
F10040
330
F10020
100
AcDbEntity
  8
Bemassung
 62
     0
100
AcDbPoint
10
4.30875991705635
20
12.7113221957711
30
0.000000000000000
  0
POINT
  5
F10041
330
F10020
100
AcDbEntity
  8
Bemassung
 62
     0
100
AcDbPoint
10
-84.6912400829437
20
-8.08867780422892
30
0.000000000000000
  0
ENDBLK
  5
F10042
330
F10020
100
AcDbEntity
  8
0
100
AcDbBlockEnd
  0
BLOCK
  5
F10043
330
F10002
100
AcDbEntity
  8
0
100
AcDbBlockBegin
  2
*D3
 70
     1
 10
0.0
 20
0.0
 30
0.0
  3
*D3
  1

 0
ARC
  5
F10044
330
F10002
100
AcDbEntity
  8
Bemassung
 62
     0
370
   -2
100
AcDbCircle
10
-84.6906309099627
20
11.8764226990686
30
0.000000000000000
 40
18.9091232513799
100
AcDbArc
 50
90.0000000000000
 51
102.708422645365
  0
LINE
  5
F10045
330
F10002
100
AcDbEntity
  8
Bemassung
 62
     0
370
    -2
100
AcDbLine
10
-84.6906309099627
20
11.8764226990686
30
0.000000000000000
11
-84.6906309099627
21
32.7855459504485
31
0.000000000000000
  0
LINE
  5
F10046
330
F10002
100
AcDbEntity
  8
Bemassung
 62
     0
370
    -2
100
AcDbLine
10
-84.6906309099627
20
11.8764226990686
30
0.000000000000000
11
-85.4203487879265
21
32.7728086775093
31
0.000000000000000
  0
INSERT
  5
F10047
330
F10002
100
AcDbEntity
  8
Bemassung
 62
     0
370
    -2
100
AcDbBlockReference
  2
VDDIM_DEFAULT
10
-84.6906309099627
20
30.7855459504485
30
0.000000000000000
 41
2.50000000000000
 42
2.50000000000000
 43
2.50000000000000
 50
179.848496819447
  0
INSERT
  5
F10048
330
F10002
100
AcDbEntity
  8
Bemassung
 62
     0
370
    -2
100
AcDbBlockReference
  2
VDDIM_DEFAULT
10
-85.3505497945215
20
30.7740270234711
30
0.000000000000000
 41
2.50000000000000
 42
2.50000000000000
 43
2.50000000000000
 50
2.15150318055189
  0
MTEXT
  5
F10049
330
F10002
100
AcDbEntity
  8
Bemassung
 62
     0
100
AcDbMText
10
-89.1869026906318
20
30.2431992864351
30
0.000000000000000
 40
2.50000000000000
 41
0.0
 71
     8
 72
     1
  1
2°
 11
0.970142500145332
 21
0.242535625036333
 31
0.0
 73
     1
 44
1.0
1001
ACAD
1000
MTEXTBEGIN
1070
73
1070
1
1070
44
1040
1.0
1070
74
1070
0
1000
MTEXTEND
  0
POINT
  5
F1004A
330
F10002
100
AcDbEntity
  8
Bemassung
 62
     0
100
AcDbPoint
10
-84.6906309099627
20
11.8764226990686
30
0.000000000000000
  0
POINT
  5
F1004B
330
F10002
100
AcDbEntity
  8
Bemassung
 62
     0
100
AcDbPoint
10
-84.6906309099627
20
30.7855459504485
30
0.000000000000000
  0
POINT
  5
F1004C
330
F10002
100
AcDbEntity
  8
Bemassung
 62
     0
100
AcDbPoint
10
-85.3505497945215
20
30.7740270234711
30
0.000000000000000
  0
POINT
  5
F1004D
330
F10002
100
AcDbEntity
  8
Bemassung
 62
     0
100
AcDbPoint
10
-85.0206406143185
20
30.7826659993889
30
0.000000000000000
  0
ENDBLK
  5
F1004E
330
F10002
100
AcDbEntity
  8
0
100
AcDbBlockEnd
  0
BLOCK
  5
F1004F
330
F1000C
100
AcDbEntity
  8
0
100
AcDbBlockBegin
  2
*D5
 70
     1
 10
0.0
 20
0.0
 30
0.0
  3
*D5
  1

  0
LINE
  5
F10050
330
F1000C
100
AcDbEntity
  8
Bemassung
 62
     0
370
    -2
100
AcDbLine
10
-84.4105798832823
20
12.6059805662301
30
0.000000000000000
11
-95.5421636086630
21
23.3556260156553
31
0.000000000000000
  0
INSERT
  5
F10051
330
F1000C
100
AcDbEntity
  8
Bemassung
 62
     0
370
    -2
100
AcDbBlockReference
  2
VDDIM_DEFAULT
10
-84.4105798832823
20
12.6059805662301
30
0.000000000000000
 41
2.50000000000000
 42
2.50000000000000
 43
2.50000000000000
 50
316.000000000000
  0
MTEXT
  5
F10052
330
F1000C
100
AcDbEntity
  8
Bemassung
 62
     0
100
AcDbMText
10
-91.6039778866688
20
19.5525642708200
30
0.000000000000000
 40
2.50000000000000
 41
0.0
 71
     8
 72
     1
  1
R1
 11
0.719339800338652
 21
-0.694658370458996
 31
0.0
 73
     1
 44
1.0
1001
ACAD
1000
MTEXTBEGIN
1070
73
1070
1
1070
44
1040
1.0
1070
74
1070
0
1000
MTEXTEND
  0
POINT
  5
F10053
330
F1000C
100
AcDbEntity
  8
Bemassung
 62
     0
100
AcDbPoint
10
-84.4105798832823
20
12.6059805662301
30
0.000000000000000
  0
POINT
  5
F10054
330
F1000C
100
AcDbEntity
  8
Bemassung
 62
     0
100
AcDbPoint
10
-83.6912400829437
20
11.9113221957711
30
0.000000000000000
  0
ENDBLK
  5
F10055
330
F1000C
100
AcDbEntity
  8
0
100
AcDbBlockEnd
  0
BLOCK
  5
F10056
330
F10007
100
AcDbEntity
  8
0
100
AcDbBlockBegin
  2
*D4
 70
     1
 10
0.0
 20
0.0
 30
0.0
  3
*D4
  1

  0
LINE
  5
F10057
330
F10007
100
AcDbEntity
  8
Bemassung
 62
     0
370
    -2
100
AcDbLine
10
-83.6912400829437
20
-1.08867780422892
30
0.000000000000000
11
-96.6912400829437
21
-1.08867780422892
31
0.000000000000000
  0
LINE
  5
F10058
330
F10007
100
AcDbEntity
  8
Bemassung
 62
     0
370
    -2
100
AcDbLine
10
-83.6912400829437
20
12.9113221957711
30
0.000000000000000
11
-96.6912400829437
21
12.9113221957711
31
0.000000000000000
  0
LINE
  5
F10059
330
F10007
100
AcDbEntity
  8
Bemassung
 62
     0
370
    -2
100
AcDbLine
10
-94.6912400829437
20
-1.08867780422892
30
0.000000000000000
11
-94.6912400829437
21
12.9113221957711
31
0.000000000000000
  0
INSERT
  5
F1005A
330
F10007
100
AcDbEntity
  8
Bemassung
 62
     0
370
    -2
100
AcDbBlockReference
  2
VDDIM_DEFAULT
10
-94.6912400829437
20
-1.08867780422892
30
0.000000000000000
 41
2.50000000000000
 42
2.50000000000000
 43
2.50000000000000
 50
270.000000000000
  0
INSERT
  5
F1005B
330
F10007
100
AcDbEntity
  8
Bemassung
 62
     0
370
    -2
100
AcDbBlockReference
  2
VDDIM_DEFAULT
10
-94.6912400829437
20
12.9113221957711
30
0.000000000000000
 41
2.50000000000000
 42
2.50000000000000
 43
2.50000000000000
 50
90.0000000000000
  0
MTEXT
  5
F1005C
330
F10007
100
AcDbEntity
  8
Bemassung
 62
     0
100
AcDbMText
10
-94.0245734162770
20
5.91132219577108
30
0.000000000000000
 40
2.50000000000000
 41
0.0
 71
     8
 72
     1
  1
14
 11
6.12323399573677e-017
 21
1.00000000000000
 31
0.0
 73
     1
 44
1.0
1001
ACAD
1000
MTEXTBEGIN
1070
73
1070
1
1070
44
1040
1.0
1070
74
1070
0
1000
MTEXTEND
  0
POINT
  5
F1005D
330
F10007
100
AcDbEntity
  8
Bemassung
 62
     0
100
AcDbPoint
10
-83.6912400829437
20
-1.08867780422892
30
0.000000000000000
  0
POINT
  5
F1005E
330
F10007
100
AcDbEntity
  8
Bemassung
 62
     0
100
AcDbPoint
10
-83.6912400829437
20
12.9113221957711
30
0.000000000000000
  0
ENDBLK
  5
F1005F
330
F10007
100
AcDbEntity
  8
0
100
AcDbBlockEnd
  0
BLOCK
  5
F10060
330
F10016
100
AcDbEntity
  8
0
100
AcDbBlockBegin
  2
*D7
 70
     1
 10
0.0
 20
0.0
 30
0.0
  3
*D7
  1

  0
LINE
  5
F10061
330
F10016
100
AcDbEntity
  8
Bemassung
 62
     0
370
    -2
100
AcDbLine
10
4.10875991705635
20
-1.08867780422892
30
0.000000000000000
11
16.3087599170563
21
-1.08867780422892
31
0.000000000000000
  0
LINE
  5
F10062
330
F10016
100
AcDbEntity
  8
Bemassung
 62
     0
370
    -2
100
AcDbLine
10
4.10875991705635
20
12.9113221957711
30
0.000000000000000
11
16.3087599170563
21
12.9113221957711
31
0.000000000000000
  0
LINE
  5
F10063
330
F10016
100
AcDbEntity
  8
Bemassung
 62
     0
370
    -2
100
AcDbLine
10
14.3087599170563
20
-1.08867780422892
30
0.000000000000000
11
14.3087599170563
21
12.9113221957711
31
0.000000000000000
  0
INSERT
  5
F10064
330
F10016
100
AcDbEntity
  8
Bemassung
 62
     0
370
    -2
100
AcDbBlockReference
  2
VDDIM_DEFAULT
10
14.3087599170563
20
-1.08867780422892
30
0.000000000000000
 41
2.50000000000000
 42
2.50000000000000
 43
2.50000000000000
 50
270.000000000000
  0
INSERT
  5
F10065
330
F10016
100
AcDbEntity
  8
Bemassung
 62
     0
370
    -2
100
AcDbBlockReference
  2
VDDIM_DEFAULT
10
14.3087599170563
20
12.9113221957711
30
0.000000000000000
 41
2.50000000000000
 42
2.50000000000000
 43
2.50000000000000
 50
90.0000000000000
  0
MTEXT
  5
F10066
330
F10016
100
AcDbEntity
  8
Bemassung
 62
     0
100
AcDbMText
10
14.9754265837230
20
5.91132219577108
30
0.000000000000000
 40
2.50000000000000
 41
0.0
 71
     8
 72
     1
  1
14h6
 11
6.12323399573677e-017
 21
1.00000000000000
 31
0.0
 73
     1
 44
1.0
  0
POINT
  5
F10067
330
F10016
100
AcDbEntity
  8
Bemassung
 62
     0
100
AcDbPoint
10
4.10875991705635
20
-1.08867780422892
30
0.000000000000000
  0
POINT
  5
F10068
330
F10016
100
AcDbEntity
  8
Bemassung
 62
     0
100
AcDbPoint
10
4.10875991705635
20
12.9113221957711
30
0.000000000000000
  0
ENDBLK
  5
F10069
330
F10016
100
AcDbEntity
  8
0
100
AcDbBlockEnd
0
ENDSEC
0
SECTION
2
ENTITIES
  0
DIMENSION
  5
F10012
330
261
100
AcDbEntity
  8
Bemassung
100
AcDbDimension
  2
*D6
10
4.30875991705635
20
22.9113221957711
30
0.000000000000000
11
-31.6912400829437
21
23.5779888624377
31
0.000000000000000
 70
32
 1
72
 71
     8
  3
BEM-ISBE
100
AcDbAlignedDimension
13
-67.6912400829437
23
12.9113221957711
33
0.000000000000000
14
4.30875991705635
24
12.7113221957711
34
0.000000000000000
100
AcDbRotatedDimension
1001
ACAD
1000
DSTYLE
1002
{
1070
284
1070
8
1070
78
1070
8
1070
144
1040
1.00000000000000
1070
147
1040
0.625
1070
 72
1070
 0
1070
 71
1070
 0
1002
}
  0
DIMENSION
  5
F1001C
330
261
100
AcDbEntity
  8
Bemassung
100
AcDbDimension
  2
*D8
10
-84.6912400829437
20
-6.08867780422892
30
0.000000000000000
11
-76.1912400829437
21
-5.42201113756226
31
0.000000000000000
 70
32
 1
17
 71
     8
  3
BEM-ISBE
100
AcDbAlignedDimension
13
-67.6912400829437
23
-1.08867780422892
33
0.000000000000000
14
-84.6912400829437
24
-8.08867780422892
34
0.000000000000000
100
AcDbRotatedDimension
1001
ACAD
1000
DSTYLE
1002
{
1070
284
1070
8
1070
78
1070
8
1070
144
1040
1.00000000000000
1070
147
1040
0.625
1070
 72
1070
 0
1070
 71
1070
 0
1002
}
  0
DIMENSION
  5
F10021
330
261
100
AcDbEntity
  8
Bemassung
100
AcDbDimension
  2
*D9
10
-84.6912400829437
20
27.9113221957711
30
0.000000000000000
11
-40.1912400829437
21
28.5779888624377
31
0.000000000000000
 70
32
 1
89
 71
     8
  3
BEM-ISBE
100
AcDbAlignedDimension
13
4.30875991705635
23
12.7113221957711
33
0.000000000000000
14
-84.6912400829437
24
-8.08867780422892
34
0.000000000000000
100
AcDbRotatedDimension
1001
ACAD
1000
DSTYLE
1002
{
1070
284
1070
8
1070
78
1070
8
1070
144
1040
1.00000000000000
1070
147
1040
0.625
1070
 72
1070
 0
1070
 71
1070
 0
1002
}
  0
DIMENSION
  5
F10003
330
261
100
AcDbEntity
  8
Bemassung
100
AcDbDimension
  2
*D3
10
-84.6906309099627
20
11.8764226990686
30
0.000000000000000
11
-89.1869026906318
21
30.2431992864351
31
0.000000000000000
 70
34
 1
2°
 71
     8
  3
BEM-ISBE
100
AcDb2LineAngularDimension
13
-84.6906309099627
23
11.8764226990686
33
0.000000000000000
14
-88.8504415287941
24
30.3223143216314
34
0.000000000000000
15
-84.6906309099627
25
30.7855459504485
35
0.000000000000000
16
-85.0206406143185
26
30.7826659993889
36
0.000000000000000
1001
ACAD
1000
DSTYLE
1002
{
1070
284
1070
8
1070
79
1070
2
1070
147
1040
0.625
1070
 72
1070
 0
1070
 71
1070
 0
1002
}
  0
DIMENSION
  5
F1000D
330
261
100
AcDbEntity
  8
Bemassung
100
AcDbDimension
  2
*D5
10
-83.6912400829437
20
11.9113221957711
30
0.000000000000000
11
-91.6039778866688
21
19.5525642708200
31
0.000000000000000
 70
164
 1
R1
 71
     8
  3
BEM-ISBE
100
AcDbRadialDimension
15
-84.4105798832823
25
12.6059805662301
35
0.000000000000000
40
0.0
1001
ACAD
1000
DSTYLE
1002
{
1070
284
1070
8
1070
78
1070
8
1070
144
1040
1.00000000000000
1070
147
1040
0.625
1070
 72
1070
 0
1070
 71
1070
 0
1002
}
  0
DIMENSION
  5
F10008
330
261
100
AcDbEntity
  8
Bemassung
100
AcDbDimension
  2
*D4
10
-94.6912400829437
20
12.9113221957711
30
0.000000000000000
11
-94.0245734162770
21
5.91132219577108
31
0.000000000000000
 70
32
 1
14
 71
     8
  3
BEM-ISBE
100
AcDbAlignedDimension
13
-83.6912400829437
23
-1.08867780422892
33
0.000000000000000
14
-83.6912400829437
24
12.9113221957711
34
0.000000000000000
50
90.0000000000000
100
AcDbRotatedDimension
1001
ACAD
1000
DSTYLE
1002
{
1070
284
1070
8
1070
78
1070
8
1070
144
1040
1.00000000000000
1070
147
1040
0.625
1070
 72
1070
 0
1070
 71
1070
 0
1002
}
  0
DIMENSION
  5
F10017
330
261
100
AcDbEntity
  8
Bemassung
100
AcDbDimension
  2
*D7
10
14.3087599170563
20
12.9113221957711
30
0.000000000000000
11
14.9754265837230
21
5.91132219577108
31
0.000000000000000
 70
32
 1
14h6
 71
     8
  3
BEM-ISBE
100
AcDbAlignedDimension
13
4.10875991705635
23
-1.08867780422892
33
0.000000000000000
14
4.10875991705635
24
12.9113221957711
34
0.000000000000000
50
90.0000000000000
100
AcDbRotatedDimension
1001
ACAD
1000
DSTYLE
1002
{
1070
284
1070
8
1070
78
1070
8
1070
144
1040
1.00000000000000
1070
147
1040
0.625
1070
 72
1070
 0
1070
 71
1070
 0
1002
}
  0
LINE
  5
F1006A
330
F1006B
100
AcDbEntity
8
Geo
100
AcDbLine
10
-84.4823250102920
20
5.91132219577108
30
0.000000000000000
11
-84.6906309099627
21
11.8764226990686
31
0.000000000000000
  0
ARC
  5
F1006C
330
F1006D
100
AcDbEntity
8
Geo
100
AcDbCircle
10
-83.6912400829437
20
11.9113221957711
30
0.000000000000000
 40
1.00000000000000
100
AcDbArc
 50
90.0000000000000
 51
182.000000000000
  0
LINE
  5
F1006E
330
F1006F
100
AcDbEntity
8
Geo
100
AcDbLine
10
-83.6912400829437
20
12.9113221957711
30
0.000000000000000
11
-67.6912400829437
21
12.9113221957711
31
0.000000000000000
  0
LINE
  5
F10070
330
F10071
100
AcDbEntity
8
Geo
100
AcDbLine
10
-67.6912400829437
20
12.9113221957711
30
0.000000000000000
11
4.10875991705635
21
12.9113221957711
31
0.000000000000000
  0
LINE
  5
F10072
330
F10073
100
AcDbEntity
8
Geo
100
AcDbLine
10
4.10875991705635
20
12.9113221957711
30
0.000000000000000
11
4.30875991705635
21
12.7113221957711
31
0.000000000000000
  0
LINE
  5
F10074
330
F10075
100
AcDbEntity
8
Geo
100
AcDbLine
10
-81.4912400829436
20
12.9091424170293
30
0.000000000000000
11
-81.3912400829437
21
12.9106811579614
31
0.000000000000000
  0
LINE
  5
F10076
330
F10077
100
AcDbEntity
8
Geo
100
AcDbLine
10
-81.3912400829437
20
12.9106811579614
30
0.000000000000000
11
-81.2912400829436
21
12.9018517583210
31
0.000000000000000
  0
LINE
  5
F10078
330
F10079
100
AcDbEntity
8
Geo
100
AcDbLine
10
-81.2912400829436
20
12.9018517583210
30
0.000000000000000
11
-81.1912400829437
21
12.8826672970853
31
0.000000000000000
  0
LINE
  5
F1007A
330
F1007B
100
AcDbEntity
8
Geo
100
AcDbLine
10
-81.1912400829437
20
12.8826672970853
30
0.000000000000000
11
-81.0912400829436
21
12.8531561921697
31
0.000000000000000
  0
LINE
  5
F1007C
330
F1007D
100
AcDbEntity
8
Geo
100
AcDbLine
10
-81.0912400829436
20
12.8531561921697
30
0.000000000000000
11
-80.9912400829436
21
12.8133621583324
31
0.000000000000000
  0
LINE
  5
F1007E
330
F1007F
100
AcDbEntity
8
Geo
100
AcDbLine
10
-80.9912400829436
20
12.8133621583324
30
0.000000000000000
11
-80.8912400829437
21
12.7633441424196
31
0.000000000000000
  0
LINE
  5
F10080
330
F10081
100
AcDbEntity
8
Geo
100
AcDbLine
10
-80.8912400829437
20
12.7633441424196
30
0.000000000000000
11
-80.7912400829436
21
12.7031762360479
31
0.000000000000000
  0
LINE
  5
F10082
330
F10083
100
AcDbEntity
8
Geo
100
AcDbLine
10
-80.7912400829436
20
12.7031762360479
30
0.000000000000000
11
-80.6912400829437
21
12.6329475658521
31
0.000000000000000
  0
LINE
  5
F10084
330
F10085
100
AcDbEntity
8
Geo
100
AcDbLine
10
-80.6912400829437
20
12.6329475658521
30
0.000000000000000
11
-80.5912400829436
21
12.5527621614627
31
0.000000000000000
  0
LINE
  5
F10086
330
F10087
100
AcDbEntity
8
Geo
100
AcDbLine
10
-80.5912400829436
20
12.5527621614627
30
0.000000000000000
11
-80.4912400829436
21
12.4627388014061
31
0.000000000000000
  0
LINE
  5
F10088
330
F10089
100
AcDbEntity
8
Geo
100
AcDbLine
10
-80.4912400829436
20
12.4627388014061
30
0.000000000000000
11
-80.3912400829437
21
12.3630108371588
31
0.000000000000000
  0
LINE
  5
F1008A
330
F1008B
100
AcDbEntity
8
Geo
100
AcDbLine
10
-80.3912400829437
20
12.3630108371588
30
0.000000000000000
11
-80.2912400829436
21
12.2537259956139
31
0.000000000000000
  0
LINE
  5
F1008C
330
F1008D
100
AcDbEntity
8
Geo
100
AcDbLine
10
-80.2912400829436
20
12.2537259956139
30
0.000000000000000
11
-80.1912400829437
21
12.1350461602530
31
0.000000000000000
  0
LINE
  5
F1008E
330
F1008F
100
AcDbEntity
8
Geo
100
AcDbLine
10
-80.1912400829437
20
12.1350461602530
30
0.000000000000000
11
-80.0912400829437
21
12.0071471313493
31
0.000000000000000
  0
LINE
  5
F10090
330
F10091
100
AcDbEntity
8
Geo
100
AcDbLine
10
-80.0912400829437
20
12.0071471313493
30
0.000000000000000
11
-79.9912400829436
21
11.8702183655541
31
0.000000000000000
  0
LINE
  5
F10092
330
F10093
100
AcDbEntity
8
Geo
100
AcDbLine
10
-79.9912400829436
20
11.8702183655541
30
0.000000000000000
11
-79.8912400829437
21
11.7244626952554
31
0.000000000000000
  0
LINE
  5
F10094
330
F10095
100
AcDbEntity
8
Geo
100
AcDbLine
10
-79.8912400829437
20
11.7244626952554
30
0.000000000000000
11
-79.7912400829437
21
11.5700960281221
31
0.000000000000000
  0
LINE
  5
F10096
330
F10097
100
AcDbEntity
8
Geo
100
AcDbLine
10
-79.7912400829437
20
11.5700960281221
30
0.000000000000000
11
-79.6912400829437
21
11.4073470272811
31
0.000000000000000
  0
LINE
  5
F10098
330
F10099
100
AcDbEntity
8
Geo
100
AcDbLine
10
-79.6912400829437
20
11.4073470272811
30
0.000000000000000
11
-79.5912400829437
21
11.2364567725979
31
0.000000000000000
  0
LINE
  5
F1009A
330
F1009B
100
AcDbEntity
8
Geo
100
AcDbLine
10
-79.5912400829437
20
11.2364567725979
30
0.000000000000000
11
-79.4912400829436
21
11.0576784035661
31
0.000000000000000
  0
LINE
  5
F1009C
330
F1009D
100
AcDbEntity
8
Geo
100
AcDbLine
10
-79.4912400829436
20
11.0576784035661
30
0.000000000000000
11
-79.3912400829437
21
10.8712767443321
31
0.000000000000000
  0
LINE
  5
F1009E
330
F1009F
100
AcDbEntity
8
Geo
100
AcDbLine
10
-79.3912400829437
20
10.8712767443321
30
0.000000000000000
11
-79.2912400829437
21
10.6775279114110
31
0.000000000000000
  0
LINE
  5
F100A0
330
F100A1
100
AcDbEntity
8
Geo
100
AcDbLine
10
-79.2912400829437
20
10.6775279114110
30
0.000000000000000
11
-79.1912400829437
21
10.4767189046763
31
0.000000000000000
  0
LINE
  5
F100A2
330
F100A3
100
AcDbEntity
8
Geo
100
AcDbLine
10
-79.1912400829437
20
10.4767189046763
30
0.000000000000000
11
-79.0912400829437
21
10.2691471822267
31
0.000000000000000
  0
LINE
  5
F100A4
330
F100A5
100
AcDbEntity
8
Geo
100
AcDbLine
10
-79.0912400829437
20
10.2691471822267
30
0.000000000000000
11
-78.9912400829436
21
10.0551202197624
31
0.000000000000000
  0
LINE
  5
F100A6
330
F100A7
100
AcDbEntity
8
Geo
100
AcDbLine
10
-78.9912400829436
20
10.0551202197624
30
0.000000000000000
11
-78.8912400829437
21
9.83495505512144
31
0.000000000000000
  0
LINE
  5
F100A8
330
F100A9
100
AcDbEntity
8
Geo
100
AcDbLine
10
-78.8912400829437
20
9.83495505512144
30
0.000000000000000
11
-78.7912400829437
21
9.60897781865210
31
0.000000000000000
  0
LINE
  5
F100AA
330
F100AB
100
AcDbEntity
8
Geo
100
AcDbLine
10
-78.7912400829437
20
9.60897781865210
30
0.000000000000000
11
-78.6912400829437
21
9.37752325011649
31
0.000000000000000
  0
LINE
  5
F100AC
330
F100AD
100
AcDbEntity
8
Geo
100
AcDbLine
10
-78.6912400829437
20
9.37752325011649
30
0.000000000000000
11
-78.5912400829437
21
9.14093420284101
31
0.000000000000000
  0
LINE
  5
F100AE
330
F100AF
100
AcDbEntity
8
Geo
100
AcDbLine
10
-78.5912400829437
20
9.14093420284101
30
0.000000000000000
11
-78.4912400829437
21
8.89956113584814
31
0.000000000000000
  0
LINE
  5
F100B0
330
F100B1
100
AcDbEntity
8
Geo
100
AcDbLine
10
-78.4912400829437
20
8.89956113584814
30
0.000000000000000
11
-78.3912400829437
21
8.65376159472208
31
0.000000000000000
  0
LINE
  5
F100B2
330
F100B3
100
AcDbEntity
8
Geo
100
AcDbLine
10
-78.3912400829437
20
8.65376159472208
30
0.000000000000000
11
-78.2912400829437
21
8.40389968197690
31
0.000000000000000
  0
LINE
  5
F100B4
330
F100B5
100
AcDbEntity
8
Geo
100
AcDbLine
10
-78.2912400829437
20
8.40389968197690
30
0.000000000000000
11
-78.1912400829437
21
8.15034551771204
31
0.000000000000000
  0
LINE
  5
F100B6
330
F100B7
100
AcDbEntity
8
Geo
100
AcDbLine
10
-78.1912400829437
20
8.15034551771204
30
0.000000000000000
11
-78.0912400829437
21
7.89347469135391
31
0.000000000000000
  0
LINE
  5
F100B8
330
F100B9
100
AcDbEntity
8
Geo
100
AcDbLine
10
-78.0912400829437
20
7.89347469135391
30
0.000000000000000
11
-77.9912400829437
21
7.63366770529580
31
0.000000000000000
  0
LINE
  5
F100BA
330
F100BB
100
AcDbEntity
8
Geo
100
AcDbLine
10
-77.9912400829437
20
7.63366770529580
30
0.000000000000000
11
-77.8912400829437
21
7.37130941126025
31
0.000000000000000
  0
LINE
  5
F100BC
330
F100BD
100
AcDbEntity
8
Geo
100
AcDbLine
10
-77.8912400829437
20
7.37130941126025
30
0.000000000000000
11
-77.7912400829437
21
7.10678844021869
31
0.000000000000000
  0
LINE
  5
F100BE
330
F100BF
100
AcDbEntity
8
Geo
100
AcDbLine
10
-77.7912400829437
20
7.10678844021869
30
0.000000000000000
11
-77.6912400829437
21
6.84049662671296
31
0.000000000000000
  0
LINE
  5
F100C0
330
F100C1
100
AcDbEntity
8
Geo
100
AcDbLine
10
-77.6912400829437
20
6.84049662671296
30
0.000000000000000
11
-77.5912400829437
21
6.57282842843137
31
0.000000000000000
  0
LINE
  5
F100C2
330
F100C3
100
AcDbEntity
8
Geo
100
AcDbLine
10
-77.5912400829437
20
6.57282842843137
30
0.000000000000000
11
-77.4912400829437
21
6.30418034189902
31
0.000000000000000
  0
LINE
  5
F100C4
330
F100C5
100
AcDbEntity
8
Geo
100
AcDbLine
10
-77.4912400829437
20
6.30418034189902
30
0.000000000000000
11
-77.3912400829437
21
6.03495031514813
31
0.000000000000000
  0
LINE
  5
F100C6
330
F100C7
100
AcDbEntity
8
Geo
100
AcDbLine
10
-77.3912400829437
20
6.03495031514813
30
0.000000000000000
11
-77.2912400829437
21
5.76553715823812
31
0.000000000000000
  0
LINE
  5
F100C8
330
F100C9
100
AcDbEntity
8
Geo
100
AcDbLine
10
-77.2912400829437
20
5.76553715823812
30
0.000000000000000
11
-77.1912400829437
21
5.49633995249889
31
0.000000000000000
  0
LINE
  5
F100CA
330
F100CB
100
AcDbEntity
8
Geo
100
AcDbLine
10
-77.1912400829437
20
5.49633995249889
30
0.000000000000000
11
-77.0912400829437
21
5.22775745937214
31
0.000000000000000
  0
LINE
  5
F100CC
330
F100CD
100
AcDbEntity
8
Geo
100
AcDbLine
10
-77.0912400829437
20
5.22775745937214
30
0.000000000000000
11
-76.9912400829437
21
4.96018752972666
31
0.000000000000000
  0
LINE
  5
F100CE
330
F100CF
100
AcDbEntity
8
Geo
100
AcDbLine
10
-76.9912400829437
20
4.96018752972666
30
0.000000000000000
11
-76.8912400829437
21
4.69402651452238
31
0.000000000000000
  0
LINE
  5
F100D0
330
F100D1
100
AcDbEntity
8
Geo
100
AcDbLine
10
-76.8912400829437
20
4.69402651452238
30
0.000000000000000
11
-76.7912400829437
21
4.42966867769625
31
0.000000000000000
  0
LINE
  5
F100D2
330
F100D3
100
AcDbEntity
8
Geo
100
AcDbLine
10
-76.7912400829437
20
4.42966867769625
30
0.000000000000000
11
-76.6912400829437
21
4.16750561213963
31
0.000000000000000
  0
LINE
  5
F100D4
330
F100D5
100
AcDbEntity
8
Geo
100
AcDbLine
10
-76.6912400829437
20
4.16750561213963
30
0.000000000000000
11
-76.5912400829437
21
3.90792565963230
31
0.000000000000000
  0
LINE
  5
F100D6
330
F100D7
100
AcDbEntity
8
Geo
100
AcDbLine
10
-76.5912400829437
20
3.90792565963230
30
0.000000000000000
11
-76.4912400829437
21
3.65131333559229
31
0.000000000000000
  0
LINE
  5
F100D8
330
F100D9
100
AcDbEntity
8
Geo
100
AcDbLine
10
-76.4912400829437
20
3.65131333559229
30
0.000000000000000
11
-76.3912400829437
21
3.39804875949379
31
0.000000000000000
  0
LINE
  5
F100DA
330
F100DB
100
AcDbEntity
8
Geo
100
AcDbLine
10
-76.3912400829437
20
3.39804875949379
30
0.000000000000000
11
-76.2912400829437
21
3.14850709179667
31
0.000000000000000
  0
LINE
  5
F100DC
330
F100DD
100
AcDbEntity
8
Geo
100
AcDbLine
10
-76.2912400829437
20
3.14850709179667
30
0.000000000000000
11
-76.1912400829437
21
2.90305797822181
31
0.000000000000000
  0
LINE
  5
F100DE
330
F100DF
100
AcDbEntity
8
Geo
100
AcDbLine
10
-76.1912400829437
20
2.90305797822181
30
0.000000000000000
11
-76.0912400829437
21
2.66206500219547
31
0.000000000000000
  0
LINE
  5
F100E0
330
F100E1
100
AcDbEntity
8
Geo
100
AcDbLine
10
-76.0912400829437
20
2.66206500219547
30
0.000000000000000
11
-75.9912400829437
21
2.42588514627360
31
0.000000000000000
  0
LINE
  5
F100E2
330
F100E3
100
AcDbEntity
8
Geo
100
AcDbLine
10
-75.9912400829437
20
2.42588514627360
30
0.000000000000000
11
-75.8912400829437
21
2.19486826334415
31
0.000000000000000
  0
LINE
  5
F100E4
330
F100E5
100
AcDbEntity
8
Geo
100
AcDbLine
10
-75.8912400829437
20
2.19486826334415
30
0.000000000000000
11
-75.7912400829437
21
1.96935655839041
31
0.000000000000000
  0
LINE
  5
F100E6
330
F100E7
100
AcDbEntity
8
Geo
100
AcDbLine
10
-75.7912400829437
20
1.96935655839041
30
0.000000000000000
11
-75.6912400829437
21
1.74968408158332
31
0.000000000000000
  0
LINE
  5
F100E8
330
F100E9
100
AcDbEntity
8
Geo
100
AcDbLine
10
-75.6912400829437
20
1.74968408158332
30
0.000000000000000
11
-75.5912400829437
21
1.53617623345338
31
0.000000000000000
  0
LINE
  5
F100EA
330
F100EB
100
AcDbEntity
8
Geo
100
AcDbLine
10
-75.5912400829437
20
1.53617623345338
30
0.000000000000000
11
-75.4912400829437
21
1.32914928287532
31
0.000000000000000
  0
LINE
  5
F100EC
330
F100ED
100
AcDbEntity
8
Geo
100
AcDbLine
10
-75.4912400829437
20
1.32914928287532
30
0.000000000000000
11
-75.3912400829437
21
1.12890989857943
31
0.000000000000000
  0
LINE
  5
F100EE
330
F100EF
100
AcDbEntity
8
Geo
100
AcDbLine
10
-75.3912400829437
20
1.12890989857943
30
0.000000000000000
11
-75.2912400829437
21
0.935754694883657
31
0.000000000000000
  0
LINE
  5
F100F0
330
F100F1
100
AcDbEntity
8
Geo
100
AcDbLine
10
-75.2912400829437
20
0.935754694883657
30
0.000000000000000
11
-75.1912400829437
21
0.749969792319185
31
0.000000000000000
  0
LINE
  5
F100F2
330
F100F3
100
AcDbEntity
8
Geo
100
AcDbLine
10
-75.1912400829437
20
0.749969792319185
30
0.000000000000000
11
-75.0912400829437
21
0.571830393800515
31
0.000000000000000
  0
LINE
  5
F100F4
330
F100F5
100
AcDbEntity
8
Geo
100
AcDbLine
10
-75.0912400829437
20
0.571830393800515
30
0.000000000000000
11
-74.9912400829437
21
0.401600376967776
31
0.000000000000000
  0
LINE
  5
F100F6
330
F100F7
100
AcDbEntity
8
Geo
100
AcDbLine
10
-74.9912400829437
20
0.401600376967776
30
0.000000000000000
11
-74.8912400829437
21
0.239531903305147
31
0.000000000000000
  0
LINE
  5
F100F8
330
F100F9
100
AcDbEntity
8
Geo
100
AcDbLine
10
-74.8912400829437
20
0.239531903305147
30
0.000000000000000
11
-74.7912400829437
21
0.0858650446143985
31
0.000000000000000
  0
LINE
  5
F100FA
330
F100FB
100
AcDbEntity
8
Geo
100
AcDbLine
10
-74.7912400829437
20
0.0858650446143985
30
0.000000000000000
11
-74.6912400829437
21
-0.0591725726031189
31
0.000000000000000
  0
LINE
  5
F100FC
330
F100FD
100
AcDbEntity
8
Geo
100
AcDbLine
10
-74.6912400829437
20
-0.0591725726031189
30
0.000000000000000
11
-74.5912400829437
21
-0.195366104329299
31
0.000000000000000
  0
LINE
  5
F100FE
330
F100FF
100
AcDbEntity
8
Geo
100
AcDbLine
10
-74.5912400829437
20
-0.195366104329299
30
0.000000000000000
11
-74.4912400829437
21
-0.322513807277414
31
0.000000000000000
  0
LINE
  5
F10100
330
F10101
100
AcDbEntity
8
Geo
100
AcDbLine
10
-74.4912400829437
20
-0.322513807277414
30
0.000000000000000
11
-74.3912400829437
21
-0.440427337734165
31
0.000000000000000
  0
LINE
  5
F10102
330
F10103
100
AcDbEntity
8
Geo
100
AcDbLine
10
-74.3912400829437
20
-0.440427337734165
30
0.000000000000000
11
-74.2912400829437
21
-0.548932030552963
31
0.000000000000000
  0
LINE
  5
F10104
330
F10105
100
AcDbEntity
8
Geo
100
AcDbLine
10
-74.2912400829437
20
-0.548932030552963
30
0.000000000000000
11
-74.1912400829437
21
-0.647867157885154
31
0.000000000000000
  0
LINE
  5
F10106
330
F10107
100
AcDbEntity
8
Geo
100
AcDbLine
10
-74.1912400829437
20
-0.647867157885154
30
0.000000000000000
11
-74.0912400829437
21
-0.737086167265968
31
0.000000000000000
  0
LINE
  5
F10108
330
F10109
100
AcDbEntity
8
Geo
100
AcDbLine
10
-74.0912400829437
20
-0.737086167265968
30
0.000000000000000
11
-73.9912400829437
21
-0.816456898702465
31
0.000000000000000
  0
LINE
  5
F1010A
330
F1010B
100
AcDbEntity
8
Geo
100
AcDbLine
10
-73.9912400829437
20
-0.816456898702465
30
0.000000000000000
11
-73.8912400829437
21
-0.885861780441958
31
0.000000000000000
  0
LINE
  5
F1010C
330
F1010D
100
AcDbEntity
8
Geo
100
AcDbLine
10
-73.8912400829437
20
-0.885861780441958
30
0.000000000000000
11
-73.7912400829437
21
-0.945198003130880
31
0.000000000000000
  0
LINE
  5
F1010E
330
F1010F
100
AcDbEntity
8
Geo
100
AcDbLine
10
-73.7912400829437
20
-0.945198003130880
30
0.000000000000000
11
-73.6912400829437
21
-0.994377672106133
31
0.000000000000000
  0
LINE
  5
F10110
330
F10111
100
AcDbEntity
8
Geo
100
AcDbLine
10
-73.6912400829437
20
-0.994377672106133
30
0.000000000000000
11
-73.5912400829437
21
-1.03332793759333
31
0.000000000000000
  0
LINE
  5
F10112
330
F10113
100
AcDbEntity
8
Geo
100
AcDbLine
10
-73.5912400829437
20
-1.03332793759333
30
0.000000000000000
11
-73.4912400829437
21
-1.06199110261906
31
0.000000000000000
  0
LINE
  5
F10114
330
F10115
100
AcDbEntity
8
Geo
100
AcDbLine
10
-73.4912400829437
20
-1.06199110261906
30
0.000000000000000
11
-73.3912400829437
21
-1.08032470847734
31
0.000000000000000
  0
LINE
  5
F10116
330
F10117
100
AcDbEntity
8
Geo
100
AcDbLine
10
-73.3912400829437
20
-1.08032470847734
30
0.000000000000000
11
-73.2912400829437
21
-1.08830159762364
31
0.000000000000000
  0
LINE
  5
F10118
330
F10119
100
AcDbEntity
8
Geo
100
AcDbLine
10
-84.6912400829437
20
11.9113221957711
30
0.000000000000000
11
-84.5912400829437
21
12.3424453528072
31
0.000000000000000
  0
LINE
  5
F1011A
330
F1011B
100
AcDbEntity
8
Geo
100
AcDbLine
10
-84.5912400829437
20
12.3424453528072
30
0.000000000000000
11
-84.4912400829436
21
12.4917762953726
31
0.000000000000000
  0
LINE
  5
F1011C
330
F1011D
100
AcDbEntity
8
Geo
100
AcDbLine
10
-84.4912400829436
20
12.4917762953726
30
0.000000000000000
11
-84.3912400829437
21
12.5807537986322
31
0.000000000000000
  0
LINE
  5
F1011E
330
F1011F
100
AcDbEntity
8
Geo
100
AcDbLine
10
-84.3912400829437
20
12.5807537986322
30
0.000000000000000
11
-84.2912400829436
21
12.6308886726924
31
0.000000000000000
  0
LINE
  5
F10120
330
F10121
100
AcDbEntity
8
Geo
100
AcDbLine
10
-84.2912400829436
20
12.6308886726924
30
0.000000000000000
11
-84.1912400829437
21
12.6505909308088
31
0.000000000000000
  0
LINE
  5
F10122
330
F10123
100
AcDbEntity
8
Geo
100
AcDbLine
10
-84.1912400829437
20
12.6505909308088
30
0.000000000000000
11
-84.0912400829437
21
12.6442152102636
31
0.000000000000000
  0
LINE
  5
F10124
330
F10125
100
AcDbEntity
8
Geo
100
AcDbLine
10
-84.0912400829437
20
12.6442152102636
30
0.000000000000000
11
-83.9912400829436
21
12.6143823473595
31
0.000000000000000
  0
LINE
  5
F10126
330
F10127
100
AcDbEntity
8
Geo
100
AcDbLine
10
-83.9912400829436
20
12.6143823473595
30
0.000000000000000
11
-83.8912400829437
21
12.5628302874545
31
0.000000000000000
  0
LINE
  5
F10128
330
F10129
100
AcDbEntity
8
Geo
100
AcDbLine
10
-83.8912400829437
20
12.5628302874545
30
0.000000000000000
11
-83.7912400829436
21
12.4907906270700
31
0.000000000000000
  0
LINE
  5
F1012A
330
F1012B
100
AcDbEntity
8
Geo
100
AcDbLine
10
-83.7912400829436
20
12.4907906270700
30
0.000000000000000
11
-83.6912400829437
21
12.3991736117728
31
0.000000000000000
  0
LINE
  5
F1012C
330
F1012D
100
AcDbEntity
8
Geo
100
AcDbLine
10
-83.6912400829437
20
12.3991736117728
30
0.000000000000000
11
-83.5912400829437
21
12.2932313466577
31
0.000000000000000
  0
LINE
  5
F1012E
330
F1012F
100
AcDbEntity
8
Geo
100
AcDbLine
10
-83.5912400829437
20
12.2932313466577
30
0.000000000000000
11
-83.4912400829436
21
12.1778355685058
31
0.000000000000000
  0
LINE
  5
F10130
330
F10131
100
AcDbEntity
8
Geo
100
AcDbLine
10
-83.4912400829436
20
12.1778355685058
30
0.000000000000000
11
-83.3912400829437
21
12.0531572129209
31
0.000000000000000
  0
LINE
  5
F10132
330
F10133
100
AcDbEntity
8
Geo
100
AcDbLine
10
-83.3912400829437
20
12.0531572129209
30
0.000000000000000
11
-83.2912400829436
21
11.9193809657755
31
0.000000000000000
  0
LINE
  5
F10134
330
F10135
100
AcDbEntity
8
Geo
100
AcDbLine
10
-83.2912400829436
20
11.9193809657755
30
0.000000000000000
11
-83.1912400829437
21
11.7767049896360
31
0.000000000000000
  0
LINE
  5
F10136
330
F10137
100
AcDbEntity
8
Geo
100
AcDbLine
10
-83.1912400829437
20
11.7767049896360
30
0.000000000000000
11
-83.0912400829437
21
11.6253406302250
31
0.000000000000000
  0
LINE
  5
F10138
330
F10139
100
AcDbEntity
8
Geo
100
AcDbLine
10
-83.0912400829437
20
11.6253406302250
30
0.000000000000000
11
-82.9912400829436
21
11.4655121033549
31
0.000000000000000
  0
LINE
  5
F1013A
330
F1013B
100
AcDbEntity
8
Geo
100
AcDbLine
10
-82.9912400829436
20
11.4655121033549
30
0.000000000000000
11
-82.8912400829437
21
11.2974561627973
31
0.000000000000000
  0
LINE
  5
F1013C
330
F1013D
100
AcDbEntity
8
Geo
100
AcDbLine
10
-82.8912400829437
20
11.2974561627973
30
0.000000000000000
11
-82.7912400829436
21
11.1214217495805
31
0.000000000000000
  0
LINE
  5
F1013E
330
F1013F
100
AcDbEntity
8
Geo
100
AcDbLine
10
-82.7912400829436
20
11.1214217495805
30
0.000000000000000
11
-82.6912400829437
21
10.9376696232326
31
0.000000000000000
  0
LINE
  5
F10140
330
F10141
100
AcDbEntity
8
Geo
100
AcDbLine
10
-82.6912400829437
20
10.9376696232326
30
0.000000000000000
11
-82.5912400829437
21
10.7464719755198
31
0.000000000000000
  0
LINE
  5
F10142
330
F10143
100
AcDbEntity
8
Geo
100
AcDbLine
10
-82.5912400829437
20
10.7464719755198
30
0.000000000000000
11
-82.4912400829436
21
10.5481120272482
31
0.000000000000000
  0
LINE
  5
F10144
330
F10145
100
AcDbEntity
8
Geo
100
AcDbLine
10
-82.4912400829436
20
10.5481120272482
30
0.000000000000000
11
-82.3912400829437
21
10.3428836087298
31
0.000000000000000
  0
LINE
  5
F10146
330
F10147
100
AcDbEntity
8
Geo
100
AcDbLine
10
-82.3912400829437
20
10.3428836087298
30
0.000000000000000
11
-82.2912400829436
21
10.1310907245320
31
0.000000000000000
  0
LINE
  5
F10148
330
F10149
100
AcDbEntity
8
Geo
100
AcDbLine
10
-82.2912400829436
20
10.1310907245320
30
0.000000000000000
11
-82.1912400829437
21
9.91304710315584
31
0.000000000000000
  0
LINE
  5
F1014A
330
F1014B
100
AcDbEntity
8
Geo
100
AcDbLine
10
-82.1912400829437
20
9.91304710315584
30
0.000000000000000
11
-82.0912400829437
21
9.68907573231051
31
0.000000000000000
  0
LINE
  5
F1014C
330
F1014D
100
AcDbEntity
8
Geo
100
AcDbLine
10
-82.0912400829437
20
9.68907573231051
30
0.000000000000000
11
-81.9912400829436
21
9.45950838047223
31
0.000000000000000
  0
LINE
  5
F1014E
330
F1014F
100
AcDbEntity
8
Geo
100
AcDbLine
10
-81.9912400829436
20
9.45950838047223
30
0.000000000000000
11
-81.8912400829437
21
9.22468510543594
31
0.000000000000000
  0
LINE
  5
F10150
330
F10151
100
AcDbEntity
8
Geo
100
AcDbLine
10
-81.8912400829437
20
9.22468510543594
30
0.000000000000000
11
-81.7912400829436
21
8.98495375058822
31
0.000000000000000
  0
LINE
  5
F10152
330
F10153
100
AcDbEntity
8
Geo
100
AcDbLine
10
-81.7912400829436
20
8.98495375058822
30
0.000000000000000
11
-81.6912400829437
21
8.74066942964737
31
0.000000000000000
  0
LINE
  5
F10154
330
F10155
100
AcDbEntity
8
Geo
100
AcDbLine
10
-81.6912400829437
20
8.74066942964737
30
0.000000000000000
11
-81.5912400829436
21
8.49219400063392
31
0.000000000000000
  0
LINE
  5
F10156
330
F10157
100
AcDbEntity
8
Geo
100
AcDbLine
10
-81.5912400829436
20
8.49219400063392
30
0.000000000000000
11
-81.4912400829436
21
8.23989552985092
31
0.000000000000000
  0
LINE
  5
F10158
330
F10159
100
AcDbEntity
8
Geo
100
AcDbLine
10
-81.4912400829436
20
8.23989552985092
30
0.000000000000000
11
-81.3912400829437
21
7.98414774666779
31
0.000000000000000
  0
LINE
  5
F1015A
330
F1015B
100
AcDbEntity
8
Geo
100
AcDbLine
10
-81.3912400829437
20
7.98414774666779
30
0.000000000000000
11
-81.2912400829436
21
7.72532948991555
31
0.000000000000000
  0
LINE
  5
F1015C
330
F1015D
100
AcDbEntity
8
Geo
100
AcDbLine
10
-81.2912400829436
20
7.72532948991555
30
0.000000000000000
11
-81.1912400829437
21
7.46382414671342
31
0.000000000000000
  0
LINE
  5
F1015E
330
F1015F
100
AcDbEntity
8
Geo
100
AcDbLine
10
-81.1912400829437
20
7.46382414671342
30
0.000000000000000
11
-81.0912400829436
21
7.20001908455795
31
0.000000000000000
  0
LINE
  5
F10160
330
F10161
100
AcDbEntity
8
Geo
100
AcDbLine
10
-81.0912400829436
20
7.20001908455795
30
0.000000000000000
11
-80.9912400829436
21
6.93430507751617
31
0.000000000000000
  0
LINE
  5
F10162
330
F10163
100
AcDbEntity
8
Geo
100
AcDbLine
10
-80.9912400829436
20
6.93430507751617
30
0.000000000000000
11
-80.8912400829437
21
6.66707572737246
31
0.000000000000000
  0
LINE
  5
F10164
330
F10165
100
AcDbEntity
8
Geo
100
AcDbLine
10
-80.8912400829437
20
6.66707572737246
30
0.000000000000000
11
-80.7912400829436
21
6.39872688058682
31
0.000000000000000
  0
LINE
  5
F10166
330
F10167
100
AcDbEntity
8
Geo
100
AcDbLine
10
-80.7912400829436
20
6.39872688058682
30
0.000000000000000
11
-80.6912400829437
21
6.12965604192804
31
0.000000000000000
  0
LINE
  5
F10168
330
F10169
100
AcDbEntity
8
Geo
100
AcDbLine
10
-80.6912400829437
20
6.12965604192804
30
0.000000000000000
11
-80.5912400829436
21
5.86026178565046
31
0.000000000000000
  0
LINE
  5
F1016A
330
F1016B
100
AcDbEntity
8
Geo
100
AcDbLine
10
-80.5912400829436
20
5.86026178565046
30
0.000000000000000
11
-80.4912400829436
21
5.59094316508647
31
0.000000000000000
  0
LINE
  5
F1016C
330
F1016D
100
AcDbEntity
8
Geo
100
AcDbLine
10
-80.4912400829436
20
5.59094316508647
30
0.000000000000000
11
-80.3912400829437
21
5.32209912152941
31
0.000000000000000
  0
LINE
  5
F1016E
330
F1016F
100
AcDbEntity
8
Geo
100
AcDbLine
10
-80.3912400829437
20
5.32209912152941
30
0.000000000000000
11
-80.2912400829436
21
5.05412789328234
31
0.000000000000000
  0
LINE
  5
F10170
330
F10171
100
AcDbEntity
8
Geo
100
AcDbLine
10
-80.2912400829436
20
5.05412789328234
30
0.000000000000000
11
-80.1912400829437
21
4.78742642574824
31
0.000000000000000
  0
LINE
  5
F10172
330
F10173
100
AcDbEntity
8
Geo
100
AcDbLine
10
-80.1912400829437
20
4.78742642574824
30
0.000000000000000
11
-80.0912400829437
21
4.52238978343534
31
0.000000000000000
  0
LINE
  5
F10174
330
F10175
100
AcDbEntity
8
Geo
100
AcDbLine
10
-80.0912400829437
20
4.52238978343534
30
0.000000000000000
11
-79.9912400829436
21
4.25941056474861
31
0.000000000000000
  0
LINE
  5
F10176
330
F10177
100
AcDbEntity
8
Geo
100
AcDbLine
10
-79.9912400829436
20
4.25941056474861
30
0.000000000000000
11
-79.8912400829437
21
3.99887832043431
31
0.000000000000000
  0
LINE
  5
F10178
330
F10179
100
AcDbEntity
8
Geo
100
AcDbLine
10
-79.8912400829437
20
3.99887832043431
30
0.000000000000000
11
-79.7912400829437
21
3.74117897653899
31
0.000000000000000
  0
LINE
  5
F1017A
330
F1017B
100
AcDbEntity
8
Geo
100
AcDbLine
10
-79.7912400829437
20
3.74117897653899
30
0.000000000000000
11
-79.6912400829437
21
3.48669426273781
31
0.000000000000000
  0
LINE
  5
F1017C
330
F1017D
100
AcDbEntity
8
Geo
100
AcDbLine
10
-79.6912400829437
20
3.48669426273781
30
0.000000000000000
11
-79.5912400829437
21
3.23580114687891
31
0.000000000000000
  0
LINE
  5
F1017E
330
F1017F
100
AcDbEntity
8
Geo
100
AcDbLine
10
-79.5912400829437
20
3.23580114687891
30
0.000000000000000
11
-79.4912400829436
21
2.98887127658143
31
0.000000000000000
  0
LINE
  5
F10180
330
F10181
100
AcDbEntity
8
Geo
100
AcDbLine
10
-79.4912400829436
20
2.98887127658143
30
0.000000000000000
11
-79.3912400829437
21
2.74627042871446
31
0.000000000000000
  0
LINE
  5
F10182
330
F10183
100
AcDbEntity
8
Geo
100
AcDbLine
10
-79.3912400829437
20
2.74627042871446
30
0.000000000000000
11
-79.2912400829437
21
2.50835796757227
31
0.000000000000000
  0
LINE
  5
F10184
330
F10185
100
AcDbEntity
8
Geo
100
AcDbLine
10
-79.2912400829437
20
2.50835796757227
30
0.000000000000000
11
-79.1912400829437
21
2.27548631254845
31
0.000000000000000
  0
LINE
  5
F10186
330
F10187
100
AcDbEntity
8
Geo
100
AcDbLine
10
-79.1912400829437
20
2.27548631254845
30
0.000000000000000
11
-79.0912400829437
21
2.04800041609761
31
0.000000000000000
  0
LINE
  5
F10188
330
F10189
100
AcDbEntity
8
Geo
100
AcDbLine
10
-79.0912400829437
20
2.04800041609761
30
0.000000000000000
11
-78.9912400829436
21
1.82623725275776
31
0.000000000000000
  0
LINE
  5
F1018A
330
F1018B
100
AcDbEntity
8
Geo
100
AcDbLine
10
-78.9912400829436
20
1.82623725275776
30
0.000000000000000
11
-78.8912400829437
21
1.61052531999043
31
0.000000000000000
  0
LINE
  5
F1018C
330
F1018D
100
AcDbEntity
8
Geo
100
AcDbLine
10
-78.8912400829437
20
1.61052531999043
30
0.000000000000000
11
-78.7912400829437
21
1.40118415157779
31
0.000000000000000
  0
LINE
  5
F1018E
330
F1018F
100
AcDbEntity
8
Geo
100
AcDbLine
10
-78.7912400829437
20
1.40118415157779
30
0.000000000000000
11
-78.6912400829437
21
1.19852384429778
31
0.000000000000000
  0
LINE
  5
F10190
330
F10191
100
AcDbEntity
8
Geo
100
AcDbLine
10
-78.6912400829437
20
1.19852384429778
30
0.000000000000000
11
-78.5912400829437
21
1.00284459857814
31
0.000000000000000
  0
LINE
  5
F10192
330
F10193
100
AcDbEntity
8
Geo
100
AcDbLine
10
-78.5912400829437
20
1.00284459857814
30
0.000000000000000
11
-78.4912400829437
21
0.814436273809942
31
0.000000000000000
  0
LINE
  5
F10194
330
F10195
100
AcDbEntity
8
Geo
100
AcDbLine
10
-78.4912400829437
20
0.814436273809942
30
0.000000000000000
11
-78.3912400829437
21
0.633577958979318
31
0.000000000000000
  0
LINE
  5
F10196
330
F10197
100
AcDbEntity
8
Geo
100
AcDbLine
10
-78.3912400829437
20
0.633577958979318
30
0.000000000000000
11
-78.2912400829437
21
0.460537559253293
31
0.000000000000000
  0
LINE
  5
F10198
330
F10199
100
AcDbEntity
8
Geo
100
AcDbLine
10
-78.2912400829437
20
0.460537559253293
30
0.000000000000000
11
-78.1912400829437
21
0.295571399132266
31
0.000000000000000
  0
LINE
  5
F1019A
330
F1019B
100
AcDbEntity
8
Geo
100
AcDbLine
10
-78.1912400829437
20
0.295571399132266
30
0.000000000000000
11
-78.0912400829437
21
0.138923842756880
31
0.000000000000000
  0
LINE
  5
F1019C
330
F1019D
100
AcDbEntity
8
Geo
100
AcDbLine
10
-78.0912400829437
20
0.138923842756880
30
0.000000000000000
11
-77.9912400829437
21
-0.00917306806823692
31
0.000000000000000
  0
LINE
  5
F1019E
330
F1019F
100
AcDbEntity
8
Geo
100
AcDbLine
10
-77.9912400829437
20
-0.00917306806823692
30
0.000000000000000
11
-77.8912400829437
21
-0.148499957597659
31
0.000000000000000
  0
LINE
  5
F101A0
330
F101A1
100
AcDbEntity
8
Geo
100
AcDbLine
10
-77.8912400829437
20
-0.148499957597659
30
0.000000000000000
11
-77.7912400829437
21
-0.278850441106162
31
0.000000000000000
  0
LINE
  5
F101A2
330
F101A3
100
AcDbEntity
8
Geo
100
AcDbLine
10
-77.7912400829437
20
-0.278850441106162
30
0.000000000000000
11
-77.6912400829437
21
-0.400031430606115
31
0.000000000000000
  0
LINE
  5
F101A4
330
F101A5
100
AcDbEntity
8
Geo
100
AcDbLine
10
-77.6912400829437
20
-0.400031430606115
30
0.000000000000000
11
-77.5912400829437
21
-0.511863420868448
31
0.000000000000000
  0
LINE
  5
F101A6
330
F101A7
100
AcDbEntity
8
Geo
100
AcDbLine
10
-77.5912400829437
20
-0.511863420868448
30
0.000000000000000
11
-77.4912400829437
21
-0.614180755323492
31
0.000000000000000
  0
LINE
  5
F101A8
330
F101A9
100
AcDbEntity
8
Geo
100
AcDbLine
10
-77.4912400829437
20
-0.614180755323492
30
0.000000000000000
11
-77.3912400829437
21
-0.706831871447827
31
0.000000000000000
  0
LINE
  5
F101AA
330
F101AB
100
AcDbEntity
8
Geo
100
AcDbLine
10
-77.3912400829437
20
-0.706831871447827
30
0.000000000000000
11
-77.2912400829437
21
-0.789679525273630
31
0.000000000000000
  0
LINE
  5
F101AC
330
F101AD
100
AcDbEntity
8
Geo
100
AcDbLine
10
-77.2912400829437
20
-0.789679525273630
30
0.000000000000000
11
-77.1912400829437
21
-0.862600994687976
31
0.000000000000000
  0
LINE
  5
F101AE
330
F101AF
100
AcDbEntity
8
Geo
100
AcDbLine
10
-77.1912400829437
20
-0.862600994687976
30
0.000000000000000
11
-77.0912400829437
21
-0.925488261220925
31
0.000000000000000
  0
LINE
  5
F101B0
330
F101B1
100
AcDbEntity
8
Geo
100
AcDbLine
10
-77.0912400829437
20
-0.925488261220925
30
0.000000000000000
11
-76.9912400829437
21
-0.978248170053137
31
0.000000000000000
  0
LINE
  5
F101B2
330
F101B3
100
AcDbEntity
8
Geo
100
AcDbLine
10
-76.9912400829437
20
-0.978248170053137
30
0.000000000000000
11
-76.8912400829437
21
-1.02080256800596
31
0.000000000000000
  0
LINE
  5
F101B4
330
F101B5
100
AcDbEntity
8
Geo
100
AcDbLine
10
-76.8912400829437
20
-1.02080256800596
30
0.000000000000000
11
-76.7912400829437
21
-1.05308841930966
31
0.000000000000000
  0
LINE
  5
F101B6
330
F101B7
100
AcDbEntity
8
Geo
100
AcDbLine
10
-76.7912400829437
20
-1.05308841930966
30
0.000000000000000
11
-76.6912400829437
21
-1.07505789897815
31
0.000000000000000
  0
LINE
  5
F101B8
330
F101B9
100
AcDbEntity
8
Geo
100
AcDbLine
10
-76.6912400829437
20
-1.07505789897815
30
0.000000000000000
11
-76.5912400829437
21
-1.08667846365215
31
0.000000000000000
  0
LINE
  5
F101BA
330
F101BB
100
AcDbEntity
8
Geo
100
AcDbLine
10
-84.6912400829437
20
11.6176612935420
30
0.000000000000000
11
-84.5912400829437
21
11.9511537582137
31
0.000000000000000
  0
LINE
  5
F101BC
330
F101BD
100
AcDbEntity
8
Geo
100
AcDbLine
10
-84.5912400829437
20
11.9511537582137
30
0.000000000000000
11
-84.4912400829436
21
12.0128592453665
31
0.000000000000000
  0
LINE
  5
F101BE
330
F101BF
100
AcDbEntity
8
Geo
100
AcDbLine
10
-84.4912400829436
20
12.0128592453665
30
0.000000000000000
11
-84.3912400829437
21
12.0152851687053
31
0.000000000000000
  0
LINE
  5
F101C0
330
F101C1
100
AcDbEntity
8
Geo
100
AcDbLine
10
-84.3912400829437
20
12.0152851687053
30
0.000000000000000
11
-84.2912400829436
21
11.9797675702162
31
0.000000000000000
  0
LINE
  5
F101C2
330
F101C3
100
AcDbEntity
8
Geo
100
AcDbLine
10
-84.2912400829436
20
11.9797675702162
30
0.000000000000000
11
-84.1912400829437
21
11.9149385798114
31
0.000000000000000
  0
LINE
  5
F101C4
330
F101C5
100
AcDbEntity
8
Geo
100
AcDbLine
10
-84.1912400829437
20
11.9149385798114
30
0.000000000000000
11
-84.0912400829437
21
11.8254667024352
31
0.000000000000000
  0
LINE
  5
F101C6
330
F101C7
100
AcDbEntity
8
Geo
100
AcDbLine
10
-84.0912400829437
20
11.8254667024352
30
0.000000000000000
11
-83.9912400829436
21
11.7143162661772
31
0.000000000000000
  0
LINE
  5
F101C8
330
F101C9
100
AcDbEntity
8
Geo
100
AcDbLine
10
-83.9912400829436
20
11.7143162661772
30
0.000000000000000
11
-83.8912400829437
21
11.5835823757917
31
0.000000000000000
  0
LINE
  5
F101CA
330
F101CB
100
AcDbEntity
8
Geo
100
AcDbLine
10
-83.8912400829437
20
11.5835823757917
30
0.000000000000000
11
-83.7912400829436
21
11.4348649082774
31
0.000000000000000
  0
LINE
  5
F101CC
330
F101CD
100
AcDbEntity
8
Geo
100
AcDbLine
10
-83.7912400829436
20
11.4348649082774
30
0.000000000000000
11
-83.6912400829437
21
11.2694565939767
31
0.000000000000000
  0
LINE
  5
F101CE
330
F101CF
100
AcDbEntity
8
Geo
100
AcDbLine
10
-83.6912400829437
20
11.2694565939767
30
0.000000000000000
11
-83.5912400829437
21
11.0921531476467
31
0.000000000000000
  0
LINE
  5
F101D0
330
F101D1
100
AcDbEntity
8
Geo
100
AcDbLine
10
-83.5912400829437
20
11.0921531476467
30
0.000000000000000
11
-83.4912400829436
21
10.9071753437247
31
0.000000000000000
  0
LINE
  5
F101D2
330
F101D3
100
AcDbEntity
8
Geo
100
AcDbLine
10
-83.4912400829436
20
10.9071753437247
30
0.000000000000000
11
-83.3912400829437
21
10.7147971895709
31
0.000000000000000
  0
LINE
  5
F101D4
330
F101D5
100
AcDbEntity
8
Geo
100
AcDbLine
10
-83.3912400829437
20
10.7147971895709
30
0.000000000000000
11
-83.2912400829436
21
10.5153036546741
31
0.000000000000000
  0
LINE
  5
F101D6
330
F101D7
100
AcDbEntity
8
Geo
100
AcDbLine
10
-83.2912400829436
20
10.5153036546741
30
0.000000000000000
11
-83.1912400829437
21
10.3089902485267
31
0.000000000000000
  0
LINE
  5
F101D8
330
F101D9
100
AcDbEntity
8
Geo
100
AcDbLine
10
-83.1912400829437
20
10.3089902485267
30
0.000000000000000
11
-83.0912400829437
21
10.0961625828866
31
0.000000000000000
  0
LINE
  5
F101DA
330
F101DB
100
AcDbEntity
8
Geo
100
AcDbLine
10
-83.0912400829437
20
10.0961625828866
30
0.000000000000000
11
-82.9912400829436
21
9.87713591907513
31
0.000000000000000
  0
LINE
  5
F101DC
330
F101DD
100
AcDbEntity
8
Geo
100
AcDbLine
10
-82.9912400829436
20
9.87713591907513
30
0.000000000000000
11
-82.8912400829437
21
9.65223470098091
31
0.000000000000000
  0
LINE
  5
F101DE
330
F101DF
100
AcDbEntity
8
Geo
100
AcDbLine
10
-82.8912400829437
20
9.65223470098091
30
0.000000000000000
11
-82.7912400829436
21
9.42179207446156
31
0.000000000000000
  0
LINE
  5
F101E0
330
F101E1
100
AcDbEntity
8
Geo
100
AcDbLine
10
-82.7912400829436
20
9.42179207446156
30
0.000000000000000
11
-82.6912400829437
21
9.18614939385517
31
0.000000000000000
  0
LINE
  5
F101E2
330
F101E3
100
AcDbEntity
8
Geo
100
AcDbLine
10
-82.6912400829437
20
9.18614939385517
30
0.000000000000000
11
-82.5912400829437
21
8.94565571633265
31
0.000000000000000
  0
LINE
  5
F101E4
330
F101E5
100
AcDbEntity
8
Geo
100
AcDbLine
10
-82.5912400829437
20
8.94565571633265
30
0.000000000000000
11
-82.4912400829436
21
8.70066728483977
31
0.000000000000000
  0
LINE
  5
F101E6
330
F101E7
100
AcDbEntity
8
Geo
100
AcDbLine
10
-82.4912400829436
20
8.70066728483977
30
0.000000000000000
11
-82.3912400829437
21
8.45154700039507
31
0.000000000000000
  0
LINE
  5
F101E8
330
F101E9
100
AcDbEntity
8
Geo
100
AcDbLine
10
-82.3912400829437
20
8.45154700039507
30
0.000000000000000
11
-82.2912400829436
21
8.19866388452503
31
0.000000000000000
  0
LINE
  5
F101EA
330
F101EB
100
AcDbEntity
8
Geo
100
AcDbLine
10
-82.2912400829436
20
8.19866388452503
30
0.000000000000000
11
-82.1912400829437
21
7.94239253263300
31
0.000000000000000
  0
LINE
  5
F101EC
330
F101ED
100
AcDbEntity
8
Geo
100
AcDbLine
10
-82.1912400829437
20
7.94239253263300
30
0.000000000000000
11
-82.0912400829437
21
7.68311255911161
31
0.000000000000000
  0
LINE
  5
F101EE
330
F101EF
100
AcDbEntity
8
Geo
100
AcDbLine
10
-82.0912400829437
20
7.68311255911161
30
0.000000000000000
11
-81.9912400829436
21
7.42120803502046
31
0.000000000000000
  0
LINE
  5
F101F0
330
F101F1
100
AcDbEntity
8
Geo
100
AcDbLine
10
-81.9912400829436
20
7.42120803502046
30
0.000000000000000
11
-81.8912400829437
21
7.15706691916220
31
0.000000000000000
  0
LINE
  5
F101F2
330
F101F3
100
AcDbEntity
8
Geo
100
AcDbLine
10
-81.8912400829437
20
7.15706691916220
30
0.000000000000000
11
-81.7912400829436
21
6.89108048339973
31
0.000000000000000
  0
LINE
  5
F101F4
330
F101F5
100
AcDbEntity
8
Geo
100
AcDbLine
10
-81.7912400829436
20
6.89108048339973
30
0.000000000000000
11
-81.6912400829437
21
6.62364273306573
31
0.000000000000000
  0
LINE
  5
F101F6
330
F101F7
100
AcDbEntity
8
Geo
100
AcDbLine
10
-81.6912400829437
20
6.62364273306573
30
0.000000000000000
11
-81.5912400829436
21
6.35514982332309
31
0.000000000000000
  0
LINE
  5
F101F8
330
F101F9
100
AcDbEntity
8
Geo
100
AcDbLine
10
-81.5912400829436
20
6.35514982332309
30
0.000000000000000
11
-81.4912400829436
21
6.08599947234085
31
0.000000000000000
  0
LINE
  5
F101FA
330
F101FB
100
AcDbEntity
8
Geo
100
AcDbLine
10
-81.4912400829436
20
6.08599947234085
30
0.000000000000000
11
-81.3912400829437
21
5.81659037215486
31
0.000000000000000
  0
LINE
  5
F101FC
330
F101FD
100
AcDbEntity
8
Geo
100
AcDbLine
10
-81.3912400829437
20
5.81659037215486
30
0.000000000000000
11
-81.2912400829436
21
5.54732159808577
31
0.000000000000000
  0
LINE
  5
F101FE
330
F101FF
100
AcDbEntity
8
Geo
100
AcDbLine
10
-81.2912400829436
20
5.54732159808577
30
0.000000000000000
11
-81.1912400829437
21
5.27859201758935
31
0.000000000000000
  0
LINE
  5
F10200
330
F10201
100
AcDbEntity
8
Geo
100
AcDbLine
10
-81.1912400829437
20
5.27859201758935
30
0.000000000000000
11
-81.0912400829436
21
5.01079969941472
31
0.000000000000000
  0
LINE
  5
F10202
330
F10203
100
AcDbEntity
8
Geo
100
AcDbLine
10
-81.0912400829436
20
5.01079969941472
30
0.000000000000000
11
-80.9912400829436
21
4.74434132394561
31
0.000000000000000
  0
LINE
  5
F10204
330
F10205
100
AcDbEntity
8
Geo
100
AcDbLine
10
-80.9912400829436
20
4.74434132394561
30
0.000000000000000
11
-80.8912400829437
21
4.47961159559832
31
0.000000000000000
  0
LINE
  5
F10206
330
F10207
100
AcDbEntity
8
Geo
100
AcDbLine
10
-80.8912400829437
20
4.47961159559832
30
0.000000000000000
11
-80.7912400829436
21
4.21700265814659
31
0.000000000000000
  0
LINE
  5
F10208
330
F10209
100
AcDbEntity
8
Geo
100
AcDbLine
10
-80.7912400829436
20
4.21700265814659
30
0.000000000000000
11
-80.6912400829437
21
3.95690351383961
31
0.000000000000000
  0
LINE
  5
F1020A
330
F1020B
100
AcDbEntity
8
Geo
100
AcDbLine
10
-80.6912400829437
20
3.95690351383961
30
0.000000000000000
11
-80.5912400829436
21
3.69969944717351
31
0.000000000000000
  0
LINE
  5
F1020C
330
F1020D
100
AcDbEntity
8
Geo
100
AcDbLine
10
-80.5912400829436
20
3.69969944717351
30
0.000000000000000
11
-80.4912400829436
21
3.44577145416997
31
0.000000000000000
  0
LINE
  5
F1020E
330
F1020F
100
AcDbEntity
8
Geo
100
AcDbLine
10
-80.4912400829436
20
3.44577145416997
30
0.000000000000000
11
-80.3912400829437
21
3.19549567800740
31
0.000000000000000
  0
LINE
  5
F10210
330
F10211
100
AcDbEntity
8
Geo
100
AcDbLine
10
-80.3912400829437
20
3.19549567800740
30
0.000000000000000
11
-80.2912400829436
21
2.94924285184053
31
0.000000000000000
  0
LINE
  5
F10212
330
F10213
100
AcDbEntity
8
Geo
100
AcDbLine
10
-80.2912400829436
20
2.94924285184053
30
0.000000000000000
11
-80.1912400829437
21
2.70737774963392
31
0.000000000000000
  0
LINE
  5
F10214
330
F10215
100
AcDbEntity
8
Geo
100
AcDbLine
10
-80.1912400829437
20
2.70737774963392
30
0.000000000000000
11
-80.0912400829437
21
2.47025864582283
31
0.000000000000000
  0
LINE
  5
F10216
330
F10217
100
AcDbEntity
8
Geo
100
AcDbLine
10
-80.0912400829437
20
2.47025864582283
30
0.000000000000000
11
-79.9912400829436
21
2.23823678460177
31
0.000000000000000
  0
LINE
  5
F10218
330
F10219
100
AcDbEntity
8
Geo
100
AcDbLine
10
-79.9912400829436
20
2.23823678460177
30
0.000000000000000
11
-79.8912400829437
21
2.01165585962696
31
0.000000000000000
  0
LINE
  5
F1021A
330
F1021B
100
AcDbEntity
8
Geo
100
AcDbLine
10
-79.8912400829437
20
2.01165585962696
30
0.000000000000000
11
-79.7912400829437
21
1.79085150490347
31
0.000000000000000
  0
LINE
  5
F1021C
330
F1021D
100
AcDbEntity
8
Geo
100
AcDbLine
10
-79.7912400829437
20
1.79085150490347
30
0.000000000000000
11
-79.6912400829437
21
1.57615079761093
31
0.000000000000000
  0
LINE
  5
F1021E
330
F1021F
100
AcDbEntity
8
Geo
100
AcDbLine
10
-79.6912400829437
20
1.57615079761093
30
0.000000000000000
11
-79.5912400829437
21
1.36787177360469
31
0.000000000000000
  0
LINE
  5
F10220
330
F10221
100
AcDbEntity
8
Geo
100
AcDbLine
10
-79.5912400829437
20
1.36787177360469
30
0.000000000000000
11
-79.4912400829436
21
1.16632295630965
31
0.000000000000000
  0
LINE
  5
F10222
330
F10223
100
AcDbEntity
8
Geo
100
AcDbLine
10
-79.4912400829436
20
1.16632295630965
30
0.000000000000000
11
-79.3912400829437
21
0.971802899704990
31
0.000000000000000
  0
LINE
  5
F10224
330
F10225
100
AcDbEntity
8
Geo
100
AcDbLine
10
-79.3912400829437
20
0.971802899704990
30
0.000000000000000
11
-79.2912400829437
21
0.784599746076608
31
0.000000000000000
  0
LINE
  5
F10226
330
F10227
100
AcDbEntity
8
Geo
100
AcDbLine
10
-79.2912400829437
20
0.784599746076608
30
0.000000000000000
11
-79.1912400829437
21
0.604990799192302
31
0.000000000000000
  0
LINE
  5
F10228
330
F10229
100
AcDbEntity
8
Geo
100
AcDbLine
10
-79.1912400829437
20
0.604990799192302
30
0.000000000000000
11
-79.0912400829437
21
0.433242113532125
31
0.000000000000000
  0
LINE
  5
F1022A
330
F1022B
100
AcDbEntity
8
Geo
100
AcDbLine
10
-79.0912400829437
20
0.433242113532125
30
0.000000000000000
11
-78.9912400829436
21
0.269608100182247
31
0.000000000000000
  0
LINE
  5
F1022C
330
F1022D
100
AcDbEntity
8
Geo
100
AcDbLine
10
-78.9912400829436
20
0.269608100182247
30
0.000000000000000
11
-78.8912400829437
21
0.114331149976179
31
0.000000000000000
  0
LINE
  5
F1022E
330
F1022F
100
AcDbEntity
8
Geo
100
AcDbLine
10
-78.8912400829437
20
0.114331149976179
30
0.000000000000000
11
-78.7912400829437
21
-0.0323587255584394
31
0.000000000000000
  0
LINE
  5
F10230
330
F10231
100
AcDbEntity
8
Geo
100
AcDbLine
10
-78.7912400829437
20
-0.0323587255584394
30
0.000000000000000
11
-78.6912400829437
21
-0.170244234915581
31
0.000000000000000
  0
LINE
  5
F10232
330
F10233
100
AcDbEntity
8
Geo
100
AcDbLine
10
-78.6912400829437
20
-0.170244234915581
30
0.000000000000000
11
-78.5912400829437
21
-0.299121128484437
31
0.000000000000000
  0
LINE
  5
F10234
330
F10235
100
AcDbEntity
8
Geo
100
AcDbLine
10
-78.5912400829437
20
-0.299121128484437
30
0.000000000000000
11
-78.4912400829437
21
-0.418798501104081
31
0.000000000000000
  0
LINE
  5
F10236
330
F10237
100
AcDbEntity
8
Geo
100
AcDbLine
10
-78.4912400829437
20
-0.418798501104081
30
0.000000000000000
11
-78.3912400829437
21
-0.529099074851007
31
0.000000000000000
  0
LINE
  5
F10238
330
F10239
100
AcDbEntity
8
Geo
100
AcDbLine
10
-78.3912400829437
20
-0.529099074851007
30
0.000000000000000
11
-78.2912400829437
21
-0.629859461640674
31
0.000000000000000
  0
LINE
  5
F1023A
330
F1023B
100
AcDbEntity
8
Geo
100
AcDbLine
10
-78.2912400829437
20
-0.629859461640674
30
0.000000000000000
11
-78.1912400829437
21
-0.720930405254047
31
0.000000000000000
  0
LINE
  5
F1023C
330
F1023D
100
AcDbEntity
8
Geo
100
AcDbLine
10
-78.1912400829437
20
-0.720930405254047
30
0.000000000000000
11
-78.0912400829437
21
-0.802177002430620
31
0.000000000000000
  0
LINE
  5
F1023E
330
F1023F
100
AcDbEntity
8
Geo
100
AcDbLine
10
-78.0912400829437
20
-0.802177002430620
30
0.000000000000000
11
-77.9912400829437
21
-0.873478902700424
31
0.000000000000000
  0
LINE
  5
F10240
330
F10241
100
AcDbEntity
8
Geo
100
AcDbLine
10
-77.9912400829437
20
-0.873478902700424
30
0.000000000000000
11
-77.8912400829437
21
-0.934730486659014
31
0.000000000000000
  0
LINE
  5
F10242
330
F10243
100
AcDbEntity
8
Geo
100
AcDbLine
10
-77.8912400829437
20
-0.934730486659014
30
0.000000000000000
11
-77.7912400829437
21
-0.985841022421339
31
0.000000000000000
  0
LINE
  5
F10244
330
F10245
100
AcDbEntity
8
Geo
100
AcDbLine
10
-77.7912400829437
20
-0.985841022421339
30
0.000000000000000
11
-77.6912400829437
21
-1.02673480002276
31
0.000000000000000
  0
LINE
  5
F10246
330
F10247
100
AcDbEntity
8
Geo
100
AcDbLine
10
-77.6912400829437
20
-1.02673480002276
30
0.000000000000000
11
-77.5912400829437
21
-1.05735124356812
31
0.000000000000000
  0
LINE
  5
F10248
330
F10249
100
AcDbEntity
8
Geo
100
AcDbLine
10
-77.5912400829437
20
-1.05735124356812
30
0.000000000000000
11
-77.4912400829437
21
-1.07764500096271
31
0.000000000000000
  0
LINE
  5
F1024A
330
F1024B
100
AcDbEntity
8
Geo
100
AcDbLine
10
-77.4912400829437
20
-1.07764500096271
30
0.000000000000000
11
-77.3912400829437
21
-1.08758601109228
31
0.000000000000000
  0
LINE
  5
F1024C
330
F1024D
100
AcDbEntity
8
Geo
100
AcDbLine
10
-84.6912400829437
20
5.91132219577106
30
0.000000000000000
11
-84.5912400829437
21
5.66366583852762
31
0.000000000000000
  0
LINE
  5
F1024E
330
F1024F
100
AcDbEntity
8
Geo
100
AcDbLine
10
-84.5912400829437
20
5.66366583852762
30
0.000000000000000
11
-84.4912400829436
21
5.40375560601444
31
0.000000000000000
  0
LINE
  5
F10250
330
F10251
100
AcDbEntity
8
Geo
100
AcDbLine
10
-84.4912400829436
20
5.40375560601444
30
0.000000000000000
11
-84.3912400829437
21
5.13776146188589
31
0.000000000000000
  0
LINE
  5
F10252
330
F10253
100
AcDbEntity
8
Geo
100
AcDbLine
10
-84.3912400829437
20
5.13776146188589
30
0.000000000000000
11
-84.2912400829436
21
4.86852482224416
31
0.000000000000000
  0
LINE
  5
F10254
330
F10255
100
AcDbEntity
8
Geo
100
AcDbLine
10
-84.2912400829436
20
4.86852482224416
30
0.000000000000000
11
-84.1912400829437
21
4.59809648693167
31
0.000000000000000
  0
LINE
  5
F10256
330
F10257
100
AcDbEntity
8
Geo
100
AcDbLine
10
-84.1912400829437
20
4.59809648693167
30
0.000000000000000
11
-84.0912400829437
21
4.32818185982737
31
0.000000000000000
  0
LINE
  5
F10258
330
F10259
100
AcDbEntity
8
Geo
100
AcDbLine
10
-84.0912400829437
20
4.32818185982737
30
0.000000000000000
11
-83.9912400829436
21
4.06030760339454
31
0.000000000000000
  0
LINE
  5
F1025A
330
F1025B
100
AcDbEntity
8
Geo
100
AcDbLine
10
-83.9912400829436
20
4.06030760339454
30
0.000000000000000
11
-83.8912400829437
21
3.79590477322083
31
0.000000000000000
  0
LINE
  5
F1025C
330
F1025D
100
AcDbEntity
8
Geo
100
AcDbLine
10
-83.8912400829437
20
3.79590477322083
30
0.000000000000000
11
-83.7912400829436
21
3.53636021569218
31
0.000000000000000
  0
LINE
  5
F1025E
330
F1025F
100
AcDbEntity
8
Geo
100
AcDbLine
10
-83.7912400829436
20
3.53636021569218
30
0.000000000000000
11
-83.6912400829437
21
3.28305584627667
31
0.000000000000000
  0
LINE
  5
F10260
330
F10261
100
AcDbEntity
8
Geo
100
AcDbLine
10
-83.6912400829437
20
3.28305584627667
30
0.000000000000000
11
-83.5912400829437
21
3.03534660654396
31
0.000000000000000
  0
LINE
  5
F10262
330
F10263
100
AcDbEntity
8
Geo
100
AcDbLine
10
-83.5912400829437
20
3.03534660654396
30
0.000000000000000
11
-83.4912400829436
21
2.79189754540094
31
0.000000000000000
  0
LINE
  5
F10264
330
F10265
100
AcDbEntity
8
Geo
100
AcDbLine
10
-83.4912400829436
20
2.79189754540094
30
0.000000000000000
11
-83.3912400829437
21
2.55306928359902
31
0.000000000000000
  0
LINE
  5
F10266
330
F10267
100
AcDbEntity
8
Geo
100
AcDbLine
10
-83.3912400829437
20
2.55306928359902
30
0.000000000000000
11
-83.2912400829436
21
2.31921559710601
31
0.000000000000000
  0
LINE
  5
F10268
330
F10269
100
AcDbEntity
8
Geo
100
AcDbLine
10
-83.2912400829436
20
2.31921559710601
30
0.000000000000000
11
-83.1912400829437
21
2.09068289305836
31
0.000000000000000
  0
LINE
  5
F1026A
330
F1026B
100
AcDbEntity
8
Geo
100
AcDbLine
10
-83.1912400829437
20
2.09068289305836
30
0.000000000000000
11
-83.0912400829437
21
1.86780969662869
31
0.000000000000000
  0
LINE
  5
F1026C
330
F1026D
100
AcDbEntity
8
Geo
100
AcDbLine
10
-83.0912400829437
20
1.86780969662869
30
0.000000000000000
11
-82.9912400829436
21
1.65092614956898
31
0.000000000000000
  0
LINE
  5
F1026E
330
F1026F
100
AcDbEntity
8
Geo
100
AcDbLine
10
-82.9912400829436
20
1.65092614956898
30
0.000000000000000
11
-82.8912400829437
21
1.44035352117201
31
0.000000000000000
  0
LINE
  5
F10270
330
F10271
100
AcDbEntity
8
Geo
100
AcDbLine
10
-82.8912400829437
20
1.44035352117201
30
0.000000000000000
11
-82.7912400829436
21
1.23640373237567
31
0.000000000000000
  0
LINE
  5
F10272
330
F10273
100
AcDbEntity
8
Geo
100
AcDbLine
10
-82.7912400829436
20
1.23640373237567
30
0.000000000000000
11
-82.6912400829437
21
1.03937889371482
31
0.000000000000000
  0
LINE
  5
F10274
330
F10275
100
AcDbEntity
8
Geo
100
AcDbLine
10
-82.6912400829437
20
1.03937889371482
30
0.000000000000000
11
-82.5912400829437
21
0.849570857805504
31
0.000000000000000
  0
LINE
  5
F10276
330
F10277
100
AcDbEntity
8
Geo
100
AcDbLine
10
-82.5912400829437
20
0.849570857805504
30
0.000000000000000
11
-82.4912400829436
21
0.667260787023962
31
0.000000000000000
  0
LINE
  5
F10278
330
F10279
100
AcDbEntity
8
Geo
100
AcDbLine
10
-82.4912400829436
20
0.667260787023962
30
0.000000000000000
11
-82.3912400829437
21
0.492718737021281
31
0.000000000000000
  0
LINE
  5
F1027A
330
F1027B
100
AcDbEntity
8
Geo
100
AcDbLine
10
-82.3912400829437
20
0.492718737021281
30
0.000000000000000
11
-82.2912400829436
21
0.326203256690293
31
0.000000000000000
  0
LINE
  5
F1027C
330
F1027D
100
AcDbEntity
8
Geo
100
AcDbLine
10
-82.2912400829436
20
0.326203256690293
30
0.000000000000000
11
-82.1912400829437
21
0.167961005177487
31
0.000000000000000
  0
LINE
  5
F1027E
330
F1027F
100
AcDbEntity
8
Geo
100
AcDbLine
10
-82.1912400829437
20
0.167961005177487
30
0.000000000000000
11
-82.0912400829437
21
0.0182263865071590
31
0.000000000000000
  0
LINE
  5
F10280
330
F10281
100
AcDbEntity
8
Geo
100
AcDbLine
10
-82.0912400829437
20
0.0182263865071590
30
0.000000000000000
11
-81.9912400829436
21
-0.122778797640951
31
0.000000000000000
  0
LINE
  5
F10282
330
F10283
100
AcDbEntity
8
Geo
100
AcDbLine
10
-81.9912400829436
20
-0.122778797640951
30
0.000000000000000
11
-81.8912400829437
21
-0.254845676486159
31
0.000000000000000
  0
LINE
  5
F10284
330
F10285
100
AcDbEntity
8
Geo
100
AcDbLine
10
-81.8912400829437
20
-0.254845676486159
30
0.000000000000000
11
-81.7912400829436
21
-0.377778619546838
31
0.000000000000000
  0
LINE
  5
F10286
330
F10287
100
AcDbEntity
8
Geo
100
AcDbLine
10
-81.7912400829436
20
-0.377778619546838
30
0.000000000000000
11
-81.6912400829437
21
-0.491395526427576
31
0.000000000000000
  0
LINE
  5
F10288
330
F10289
100
AcDbEntity
8
Geo
100
AcDbLine
10
-81.6912400829437
20
-0.491395526427576
30
0.000000000000000
11
-81.5912400829436
21
-0.595528096564236
31
0.000000000000000
  0
LINE
  5
F1028A
330
F1028B
100
AcDbEntity
8
Geo
100
AcDbLine
10
-81.5912400829436
20
-0.595528096564236
30
0.000000000000000
11
-81.4912400829436
21
-0.690022078527333
31
0.000000000000000
  0
LINE
  5
F1028C
330
F1028D
100
AcDbEntity
8
Geo
100
AcDbLine
10
-81.4912400829436
20
-0.690022078527333
30
0.000000000000000
11
-81.3912400829437
21
-0.774737498514477
31
0.000000000000000
  0
LINE
  5
F1028E
330
F1028F
100
AcDbEntity
8
Geo
100
AcDbLine
10
-81.3912400829437
20
-0.774737498514477
30
0.000000000000000
11
-81.2912400829436
21
-0.849548867693357
31
0.000000000000000
  0
LINE
  5
F10290
330
F10291
100
AcDbEntity
8
Geo
100
AcDbLine
10
-81.2912400829436
20
-0.849548867693357
30
0.000000000000000
11
-81.1912400829437
21
-0.914345368088175
31
0.000000000000000
  0
LINE
  5
F10292
330
F10293
100
AcDbEntity
8
Geo
100
AcDbLine
10
-81.1912400829437
20
-0.914345368088175
30
0.000000000000000
11
-81.0912400829436
21
-0.969031016734156
31
0.000000000000000
  0
LINE
  5
F10294
330
F10295
100
AcDbEntity
8
Geo
100
AcDbLine
10
-81.0912400829436
20
-0.969031016734156
30
0.000000000000000
11
-80.9912400829436
21
-1.01352480785699
31
0.000000000000000
  0
LINE
  5
F10296
330
F10297
100
AcDbEntity
8
Geo
100
AcDbLine
10
-80.9912400829436
20
-1.01352480785699
30
0.000000000000000
11
-80.8912400829437
21
-1.04776083286654
31
0.000000000000000
  0
LINE
  5
F10298
330
F10299
100
AcDbEntity
8
Geo
100
AcDbLine
10
-80.8912400829437
20
-1.04776083286654
30
0.000000000000000
11
-80.7912400829436
21
-1.07168837798718
31
0.000000000000000
  0
LINE
  5
F1029A
330
F1029B
100
AcDbEntity
8
Geo
100
AcDbLine
10
-80.7912400829436
20
-1.07168837798718
30
0.000000000000000
11
-80.6912400829437
21
-1.08527199938004
31
0.000000000000000
  0
LINE
  5
F1029C
330
F1029D
100
AcDbEntity
8
Geo
100
AcDbLine
10
-84.6912400829437
20
4.05722022952141
30
0.000000000000000
11
-84.5912400829437
21
3.68846065497040
31
0.000000000000000
  0
LINE
  5
F1029E
330
F1029F
100
AcDbEntity
8
Geo
100
AcDbLine
10
-84.5912400829437
20
3.68846065497040
30
0.000000000000000
11
-84.4912400829436
21
3.39512553564819
31
0.000000000000000
  0
LINE
  5
F102A0
330
F102A1
100
AcDbEntity
8
Geo
100
AcDbLine
10
-84.4912400829436
20
3.39512553564819
30
0.000000000000000
11
-84.3912400829437
21
3.11465451095412
31
0.000000000000000
  0
LINE
  5
F102A2
330
F102A3
100
AcDbEntity
8
Geo
100
AcDbLine
10
-84.3912400829437
20
3.11465451095412
30
0.000000000000000
11
-84.2912400829436
21
2.84310272230198
31
0.000000000000000
  0
LINE
  5
F102A4
330
F102A5
100
AcDbEntity
8
Geo
100
AcDbLine
10
-84.2912400829436
20
2.84310272230198
30
0.000000000000000
11
-84.1912400829437
21
2.57982175922667
31
0.000000000000000
  0
LINE
  5
F102A6
330
F102A7
100
AcDbEntity
8
Geo
100
AcDbLine
10
-84.1912400829437
20
2.57982175922667
30
0.000000000000000
11
-84.0912400829437
21
2.32508790027560
31
0.000000000000000
  0
LINE
  5
F102A8
330
F102A9
100
AcDbEntity
8
Geo
100
AcDbLine
10
-84.0912400829437
20
2.32508790027560
30
0.000000000000000
11
-83.9912400829436
21
2.07954320477566
31
0.000000000000000
  0
LINE
  5
F102AA
330
F102AB
100
AcDbEntity
8
Geo
100
AcDbLine
10
-83.9912400829436
20
2.07954320477566
30
0.000000000000000
11
-83.8912400829437
21
1.84401163281775
31
0.000000000000000
  0
LINE
  5
F102AC
330
F102AD
100
AcDbEntity
8
Geo
100
AcDbLine
10
-83.8912400829437
20
1.84401163281775
30
0.000000000000000
11
-83.7912400829436
21
1.61943156943899
31
0.000000000000000
  0
LINE
  5
F102AE
330
F102AF
100
AcDbEntity
8
Geo
100
AcDbLine
10
-83.7912400829436
20
1.61943156943899
30
0.000000000000000
11
-83.6912400829437
21
1.40683601300108
31
0.000000000000000
  0
LINE
  5
F102B0
330
F102B1
100
AcDbEntity
8
Geo
100
AcDbLine
10
-83.6912400829437
20
1.40683601300108
30
0.000000000000000
11
-83.5912400829437
21
1.20398848674993
31
0.000000000000000
  0
LINE
  5
F102B2
330
F102B3
100
AcDbEntity
8
Geo
100
AcDbLine
10
-83.5912400829437
20
1.20398848674993
30
0.000000000000000
11
-83.4912400829436
21
1.00811392729196
31
0.000000000000000
  0
LINE
  5
F102B4
330
F102B5
100
AcDbEntity
8
Geo
100
AcDbLine
10
-83.4912400829436
20
1.00811392729196
30
0.000000000000000
11
-83.3912400829437
21
0.819502483336250
31
0.000000000000000
  0
LINE
  5
F102B6
330
F102B7
100
AcDbEntity
8
Geo
100
AcDbLine
10
-83.3912400829437
20
0.819502483336250
30
0.000000000000000
11
-83.2912400829436
21
0.638433544749072
31
0.000000000000000
  0
LINE
  5
F102B8
330
F102B9
100
AcDbEntity
8
Geo
100
AcDbLine
10
-83.2912400829436
20
0.638433544749072
30
0.000000000000000
11
-83.1912400829437
21
0.465175328694127
31
0.000000000000000
  0
LINE
  5
F102BA
330
F102BB
100
AcDbEntity
8
Geo
100
AcDbLine
10
-83.1912400829437
20
0.465175328694127
30
0.000000000000000
11
-83.0912400829437
21
0.299984482322841
31
0.000000000000000
  0
LINE
  5
F102BC
330
F102BD
100
AcDbEntity
8
Geo
100
AcDbLine
10
-83.0912400829437
20
0.299984482322841
30
0.000000000000000
11
-82.9912400829436
21
0.143105702603282
31
0.000000000000000
  0
LINE
  5
F102BE
330
F102BF
100
AcDbEntity
8
Geo
100
AcDbLine
10
-82.9912400829436
20
0.143105702603282
30
0.000000000000000
11
-82.8912400829437
21
-0.00522862614910657
31
0.000000000000000
  0
LINE
  5
F102C0
330
F102C1
100
AcDbEntity
8
Geo
100
AcDbLine
10
-82.8912400829437
20
-0.00522862614910657
30
0.000000000000000
11
-82.7912400829436
21
-0.144798776502062
31
0.000000000000000
  0
LINE
  5
F102C2
330
F102C3
100
AcDbEntity
8
Geo
100
AcDbLine
10
-82.7912400829436
20
-0.144798776502062
30
0.000000000000000
11
-82.6912400829437
21
-0.275398003388442
31
0.000000000000000
  0
LINE
  5
F102C4
330
F102C5
100
AcDbEntity
8
Geo
100
AcDbLine
10
-82.6912400829437
20
-0.275398003388442
30
0.000000000000000
11
-82.5912400829437
21
-0.396832850357399
31
0.000000000000000
  0
LINE
  5
F102C6
330
F102C7
100
AcDbEntity
8
Geo
100
AcDbLine
10
-82.5912400829437
20
-0.396832850357399
30
0.000000000000000
11
-82.4912400829436
21
-0.508923436141155
31
0.000000000000000
  0
LINE
  5
F102C8
330
F102C9
100
AcDbEntity
8
Geo
100
AcDbLine
10
-82.4912400829436
20
-0.508923436141155
30
0.000000000000000
11
-82.3912400829437
21
-0.611503721112858
31
0.000000000000000
  0
LINE
  5
F102CA
330
F102CB
100
AcDbEntity
8
Geo
100
AcDbLine
10
-82.3912400829437
20
-0.611503721112858
30
0.000000000000000
11
-82.2912400829436
21
-0.704421753240857
31
0.000000000000000
  0
LINE
  5
F102CC
330
F102CD
100
AcDbEntity
8
Geo
100
AcDbLine
10
-82.2912400829436
20
-0.704421753240857
30
0.000000000000000
11
-82.1912400829437
21
-0.787539893175030
31
0.000000000000000
  0
LINE
  5
F102CE
330
F102CF
100
AcDbEntity
8
Geo
100
AcDbLine
10
-82.1912400829437
20
-0.787539893175030
30
0.000000000000000
11
-82.0912400829437
21
-0.860735018131759
31
0.000000000000000
  0
LINE
  5
F102D0
330
F102D1
100
AcDbEntity
8
Geo
100
AcDbLine
10
-82.0912400829437
20
-0.860735018131759
30
0.000000000000000
11
-81.9912400829436
21
-0.923898704275537
31
0.000000000000000
  0
LINE
  5
F102D2
330
F102D3
100
AcDbEntity
8
Geo
100
AcDbLine
10
-81.9912400829436
20
-0.923898704275537
30
0.000000000000000
11
-81.8912400829437
21
-0.976937387327040
31
0.000000000000000
  0
LINE
  5
F102D4
330
F102D5
100
AcDbEntity
8
Geo
100
AcDbLine
10
-81.8912400829437
20
-0.976937387327040
30
0.000000000000000
11
-81.7912400829436
21
-1.01977250115977
31
0.000000000000000
  0
LINE
  5
F102D6
330
F102D7
100
AcDbEntity
8
Geo
100
AcDbLine
10
-81.7912400829436
20
-1.01977250115977
30
0.000000000000000
11
-81.6912400829437
21
-1.05234059417993
31
0.000000000000000
  0
LINE
  5
F102D8
330
F102D9
100
AcDbEntity
8
Geo
100
AcDbLine
10
-81.6912400829437
20
-1.05234059417993
30
0.000000000000000
11
-81.5912400829436
21
-1.07459342331720
31
0.000000000000000
  0
LINE
  5
F102DA
330
F102DB
100
AcDbEntity
8
Geo
100
AcDbLine
10
-81.5912400829436
20
-1.07459342331720
30
0.000000000000000
11
-81.4912400829436
21
-1.08649802548712
31
0.000000000000000
  0
LINE
  5
F102DC
330
F102DD
100
AcDbEntity
8
Geo
100
AcDbLine
10
-73.2912400829437
20
12.9109459891658
30
0.000000000000000
11
-73.1912400829437
21
12.9085543454455
31
0.000000000000000
  0
LINE
  5
F102DE
330
F102DF
100
AcDbEntity
8
Geo
100
AcDbLine
10
-73.1912400829437
20
12.9085543454455
30
0.000000000000000
11
-73.0912400829437
21
12.8957977115970
31
0.000000000000000
  0
LINE
  5
F102E0
330
F102E1
100
AcDbEntity
8
Geo
100
AcDbLine
10
-73.0912400829437
20
12.8957977115970
30
0.000000000000000
11
-72.9912400829437
21
12.8726949840040
31
0.000000000000000
  0
LINE
  5
F102E2
330
F102E3
100
AcDbEntity
8
Geo
100
AcDbLine
10
-72.9912400829437
20
12.8726949840040
30
0.000000000000000
11
-72.8912400829437
21
12.8392803847046
31
0.000000000000000
  0
LINE
  5
F102E4
330
F102E5
100
AcDbEntity
8
Geo
100
AcDbLine
10
-72.8912400829437
20
12.8392803847046
30
0.000000000000000
11
-72.7912400829437
21
12.7956034106974
31
0.000000000000000
  0
LINE
  5
F102E6
330
F102E7
100
AcDbEntity
8
Geo
100
AcDbLine
10
-72.7912400829437
20
12.7956034106974
30
0.000000000000000
11
-72.6912400829437
21
12.7417287606226
31
0.000000000000000
  0
LINE
  5
F102E8
330
F102E9
100
AcDbEntity
8
Geo
100
AcDbLine
10
-72.6912400829437
20
12.7417287606226
30
0.000000000000000
11
-72.5912400829437
21
12.6693740255379
31
0.000000000000000
  0
LINE
  5
F102EA
330
F102EB
100
AcDbEntity
8
Geo
100
AcDbLine
10
-72.5912400829437
20
12.6693740255379
30
0.000000000000000
11
-72.4912400829436
21
12.5862258731668
31
0.000000000000000
  0
LINE
  5
F102EC
330
F102ED
100
AcDbEntity
8
Geo
100
AcDbLine
10
-72.4912400829436
20
12.5862258731668
30
0.000000000000000
11
-72.3912400829437
21
12.4931452043907
31
0.000000000000000
  0
LINE
  5
F102EE
330
F102EF
100
AcDbEntity
8
Geo
100
AcDbLine
10
-72.3912400829437
20
12.4931452043907
30
0.000000000000000
11
-72.2912400829437
21
12.3909809253848
31
0.000000000000000
  0
LINE
  5
F102F0
330
F102F1
100
AcDbEntity
8
Geo
100
AcDbLine
10
-72.2912400829437
20
12.3909809253848
30
0.000000000000000
11
-72.1912400829437
21
12.2805667010611
31
0.000000000000000
  0
LINE
  5
F102F2
330
F102F3
100
AcDbEntity
8
Geo
100
AcDbLine
10
-72.1912400829437
20
12.2805667010611
30
0.000000000000000
11
-72.0912400829437
21
12.1627180892221
31
0.000000000000000
  0
LINE
  5
F102F4
330
F102F5
100
AcDbEntity
8
Geo
100
AcDbLine
10
-72.0912400829437
20
12.1627180892221
30
0.000000000000000
11
-71.9912400829436
21
12.0382300399605
31
0.000000000000000
  0
LINE
  5
F102F6
330
F102F7
100
AcDbEntity
8
Geo
100
AcDbLine
10
-71.9912400829436
20
12.0382300399605
30
0.000000000000000
11
-71.8912400829437
21
11.9078747435148
31
0.000000000000000
  0
LINE
  5
F102F8
330
F102F9
100
AcDbEntity
8
Geo
100
AcDbLine
10
-71.8912400829437
20
11.9078747435148
30
0.000000000000000
11
-71.7912400829437
21
11.7723998087600
31
0.000000000000000
  0
LINE
  5
F102FA
330
F102FB
100
AcDbEntity
8
Geo
100
AcDbLine
10
-71.7912400829437
20
11.7723998087600
30
0.000000000000000
11
-71.6912400829437
21
11.6325267537404
31
0.000000000000000
  0
LINE
  5
F102FC
330
F102FD
100
AcDbEntity
8
Geo
100
AcDbLine
10
-71.6912400829437
20
11.6325267537404
30
0.000000000000000
11
-71.5912400829437
21
11.4889497891254
31
0.000000000000000
  0
LINE
  5
F102FE
330
F102FF
100
AcDbEntity
8
Geo
100
AcDbLine
10
-71.5912400829437
20
11.4889497891254
30
0.000000000000000
11
-71.4912400829436
21
11.3423348751588
31
0.000000000000000
  0
LINE
  5
F10300
330
F10301
100
AcDbEntity
8
Geo
100
AcDbLine
10
-71.4912400829436
20
11.3423348751588
30
0.000000000000000
11
-71.3912400829437
21
11.1933190325648
31
0.000000000000000
  0
LINE
  5
F10302
330
F10303
100
AcDbEntity
8
Geo
100
AcDbLine
10
-71.3912400829437
20
11.1933190325648
30
0.000000000000000
11
-71.2912400829437
21
11.0425098879286
31
0.000000000000000
  0
LINE
  5
F10304
330
F10305
100
AcDbEntity
8
Geo
100
AcDbLine
10
-71.2912400829437
20
11.0425098879286
30
0.000000000000000
11
-71.1912400829437
21
10.8904854342932
31
0.000000000000000
  0
LINE
  5
F10306
330
F10307
100
AcDbEntity
8
Geo
100
AcDbLine
10
-71.1912400829437
20
10.8904854342932
30
0.000000000000000
11
-71.0912400829437
21
10.7377939880560
31
0.000000000000000
  0
LINE
  5
F10308
330
F10309
100
AcDbEntity
8
Geo
100
AcDbLine
10
-71.0912400829437
20
10.7377939880560
30
0.000000000000000
11
-70.9912400829437
21
10.5849543237170
31
0.000000000000000
  0
LINE
  5
F1030A
330
F1030B
100
AcDbEntity
8
Geo
100
AcDbLine
10
-70.9912400829437
20
10.5849543237170
30
0.000000000000000
11
-70.8912400829437
21
10.4324559685887
31
0.000000000000000
  0
LINE
  5
F1030C
330
F1030D
100
AcDbEntity
8
Geo
100
AcDbLine
10
-70.8912400829437
20
10.4324559685887
30
0.000000000000000
11
-70.7912400829437
21
10.2807596402158
31
0.000000000000000
  0
LINE
  5
F1030E
330
F1030F
100
AcDbEntity
8
Geo
100
AcDbLine
10
-70.7912400829437
20
10.2807596402158
30
0.000000000000000
11
-70.6912400829437
21
10.1302978099612
31
0.000000000000000
  0
LINE
  5
F10310
330
F10311
100
AcDbEntity
8
Geo
100
AcDbLine
10
-70.6912400829437
20
10.1302978099612
30
0.000000000000000
11
-70.5912400829437
21
9.98147537696553
31
0.000000000000000
  0
LINE
  5
F10312
330
F10313
100
AcDbEntity
8
Geo
100
AcDbLine
10
-70.5912400829437
20
9.98147537696553
30
0.000000000000000
11
-70.4912400829437
21
9.83467043748249
31
0.000000000000000
  0
LINE
  5
F10314
330
F10315
100
AcDbEntity
8
Geo
100
AcDbLine
10
-70.4912400829437
20
9.83467043748249
30
0.000000000000000
11
-70.3912400829437
21
9.69023513540781
31
0.000000000000000
  0
LINE
  5
F10316
330
F10317
100
AcDbEntity
8
Geo
100
AcDbLine
10
-70.3912400829437
20
9.69023513540781
30
0.000000000000000
11
-70.2912400829437
21
9.54849658065416
31
0.000000000000000
  0
LINE
  5
F10318
330
F10319
100
AcDbEntity
8
Geo
100
AcDbLine
10
-70.2912400829437
20
9.54849658065416
30
0.000000000000000
11
-70.1912400829437
21
9.40975782286164
31
0.000000000000000
  0
LINE
  5
F1031A
330
F1031B
100
AcDbEntity
8
Geo
100
AcDbLine
10
-70.1912400829437
20
9.40975782286164
30
0.000000000000000
11
-70.0912400829437
21
9.27429886876942
31
0.000000000000000
  0
LINE
  5
F1031C
330
F1031D
100
AcDbEntity
8
Geo
100
AcDbLine
10
-70.0912400829437
20
9.27429886876942
30
0.000000000000000
11
-69.9912400829437
21
9.14237773239993
31
0.000000000000000
  0
LINE
  5
F1031E
330
F1031F
100
AcDbEntity
8
Geo
100
AcDbLine
10
-69.9912400829437
20
9.14237773239993
30
0.000000000000000
11
-69.8912400829437
21
9.01423150801597
31
0.000000000000000
  0
LINE
  5
F10320
330
F10321
100
AcDbEntity
8
Geo
100
AcDbLine
10
-69.8912400829437
20
9.01423150801597
30
0.000000000000000
11
-69.7912400829437
21
8.89007745659874
31
0.000000000000000
  0
LINE
  5
F10322
330
F10323
100
AcDbEntity
8
Geo
100
AcDbLine
10
-69.7912400829437
20
8.89007745659874
30
0.000000000000000
11
-69.6912400829437
21
8.77011409735600
31
0.000000000000000
  0
LINE
  5
F10324
330
F10325
100
AcDbEntity
8
Geo
100
AcDbLine
10
-69.6912400829437
20
8.77011409735600
30
0.000000000000000
11
-69.5912400829437
21
8.65452229650101
31
0.000000000000000
  0
LINE
  5
F10326
330
F10327
100
AcDbEntity
8
Geo
100
AcDbLine
10
-69.5912400829437
20
8.65452229650101
30
0.000000000000000
11
-69.4912400829437
21
8.54346634624086
31
0.000000000000000
  0
LINE
  5
F10328
330
F10329
100
AcDbEntity
8
Geo
100
AcDbLine
10
-69.4912400829437
20
8.54346634624086
30
0.000000000000000
11
-69.3912400829437
21
8.43709502757616
31
0.000000000000000
  0
LINE
  5
F1032A
330
F1032B
100
AcDbEntity
8
Geo
100
AcDbLine
10
-69.3912400829437
20
8.43709502757616
30
0.000000000000000
11
-69.2912400829437
21
8.33554265113998
31
0.000000000000000
  0
LINE
  5
F1032C
330
F1032D
100
AcDbEntity
8
Geo
100
AcDbLine
10
-69.2912400829437
20
8.33554265113998
30
0.000000000000000
11
-69.1912400829437
21
8.23893007089211
31
0.000000000000000
  0
LINE
  5
F1032E
330
F1032F
100
AcDbEntity
8
Geo
100
AcDbLine
10
-69.1912400829437
20
8.23893007089211
30
0.000000000000000
11
-69.0912400829437
21
8.14736566603399
31
0.000000000000000
  0
LINE
  5
F10330
330
F10331
100
AcDbEntity
8
Geo
100
AcDbLine
10
-69.0912400829437
20
8.14736566603399
30
0.000000000000000
11
-68.9912400829437
21
8.06094628702060
31
0.000000000000000
  0
LINE
  5
F10332
330
F10333
100
AcDbEntity
8
Geo
100
AcDbLine
10
-68.9912400829437
20
8.06094628702060
30
0.000000000000000
11
-68.8912400829437
21
7.97975816201749
31
0.000000000000000
  0
LINE
  5
F10334
330
F10335
100
AcDbEntity
8
Geo
100
AcDbLine
10
-68.8912400829437
20
7.97975816201749
30
0.000000000000000
11
-68.7912400829437
21
7.90387776058556
31
0.000000000000000
  0
LINE
  5
F10336
330
F10337
100
AcDbEntity
8
Geo
100
AcDbLine
10
-68.7912400829437
20
7.90387776058556
30
0.000000000000000
11
-68.6912400829437
21
7.83337261177356
31
0.000000000000000
  0
LINE
  5
F10338
330
F10339
100
AcDbEntity
8
Geo
100
AcDbLine
10
-68.6912400829437
20
7.83337261177356
30
0.000000000000000
11
-68.5912400829437
21
7.76830207415993
31
0.000000000000000
  0
LINE
  5
F1033A
330
F1033B
100
AcDbEntity
8
Geo
100
AcDbLine
10
-68.5912400829437
20
7.76830207415993
30
0.000000000000000
11
-68.4912400829437
21
7.70871805571316
31
0.000000000000000
  0
LINE
  5
F1033C
330
F1033D
100
AcDbEntity
8
Geo
100
AcDbLine
10
-68.4912400829437
20
7.70871805571316
30
0.000000000000000
11
-68.3912400829437
21
7.65466568163462
31
0.000000000000000
  0
LINE
  5
F1033E
330
F1033F
100
AcDbEntity
8
Geo
100
AcDbLine
10
-68.3912400829437
20
7.65466568163462
30
0.000000000000000
11
-68.2912400829437
21
7.60618390861216
31
0.000000000000000
  0
LINE
  5
F10340
330
F10341
100
AcDbEntity
8
Geo
100
AcDbLine
10
-68.2912400829437
20
7.60618390861216
30
0.000000000000000
11
-68.1912400829437
21
7.56330608414855
31
0.000000000000000
  0
LINE
  5
F10342
330
F10343
100
AcDbEntity
8
Geo
100
AcDbLine
10
-68.1912400829437
20
7.56330608414855
30
0.000000000000000
11
-68.0912400829437
21
7.52606044983749
31
0.000000000000000
  0
LINE
  5
F10344
330
F10345
100
AcDbEntity
8
Geo
100
AcDbLine
10
-68.0912400829437
20
7.52606044983749
30
0.000000000000000
11
-67.9912400829436
21
7.49447058764530
31
0.000000000000000
  0
LINE
  5
F10346
330
F10347
100
AcDbEntity
8
Geo
100
AcDbLine
10
-67.9912400829436
20
7.49447058764530
30
0.000000000000000
11
-67.8912400829437
21
7.46855580841900
31
0.000000000000000
  0
LINE
  5
F10348
330
F10349
100
AcDbEntity
8
Geo
100
AcDbLine
10
-67.8912400829437
20
7.46855580841900
30
0.000000000000000
11
-67.7912400829437
21
7.44833148198493
31
0.000000000000000
  0
LINE
  5
F1034A
330
F1034B
100
AcDbEntity
8
Geo
100
AcDbLine
10
-67.7912400829437
20
7.44833148198493
30
0.000000000000000
11
-67.6912400829437
21
7.43380930832880
31
0.000000000000000
  0
LINE
  5
F1034C
330
F1034D
100
AcDbEntity
8
Geo
100
AcDbLine
10
-76.5912400829437
20
12.9093228551943
30
0.000000000000000
11
-76.4912400829437
21
12.9105772913477
31
0.000000000000000
  0
LINE
  5
F1034E
330
F1034F
100
AcDbEntity
8
Geo
100
AcDbLine
10
-76.4912400829437
20
12.9105772913477
30
0.000000000000000
11
-76.3912400829437
21
12.9014637407861
31
0.000000000000000
  0
LINE
  5
F10350
330
F10351
100
AcDbEntity
8
Geo
100
AcDbLine
10
-76.3912400829437
20
12.9014637407861
30
0.000000000000000
11
-76.2912400829437
21
12.8819957033990
31
0.000000000000000
  0
LINE
  5
F10352
330
F10353
100
AcDbEntity
8
Geo
100
AcDbLine
10
-76.2912400829437
20
12.8819957033990
30
0.000000000000000
11
-76.1912400829437
21
12.8522020171627
31
0.000000000000000
  0
LINE
  5
F10354
330
F10355
100
AcDbEntity
8
Geo
100
AcDbLine
10
-76.1912400829437
20
12.8522020171627
30
0.000000000000000
11
-76.0912400829437
21
12.8121268154229
31
0.000000000000000
  0
LINE
  5
F10356
330
F10357
100
AcDbEntity
8
Geo
100
AcDbLine
10
-76.0912400829437
20
12.8121268154229
30
0.000000000000000
11
-75.9912400829437
21
12.7618294615192
31
0.000000000000000
  0
LINE
  5
F10358
330
F10359
100
AcDbEntity
8
Geo
100
AcDbLine
10
-75.9912400829437
20
12.7618294615192
30
0.000000000000000
11
-75.8912400829437
21
12.7013844608513
31
0.000000000000000
  0
LINE
  5
F1035A
330
F1035B
100
AcDbEntity
8
Geo
100
AcDbLine
10
-75.8912400829437
20
12.7013844608513
30
0.000000000000000
11
-75.7912400829437
21
12.6308813505135
31
0.000000000000000
  0
LINE
  5
F1035C
330
F1035D
100
AcDbEntity
8
Geo
100
AcDbLine
10
-75.7912400829437
20
12.6308813505135
30
0.000000000000000
11
-75.6912400829437
21
12.5504245666639
31
0.000000000000000
  0
LINE
  5
F1035E
330
F1035F
100
AcDbEntity
8
Geo
100
AcDbLine
10
-75.6912400829437
20
12.5504245666639
30
0.000000000000000
11
-75.5912400829437
21
12.4601332898230
31
0.000000000000000
  0
LINE
  5
F10360
330
F10361
100
AcDbEntity
8
Geo
100
AcDbLine
10
-75.5912400829437
20
12.4601332898230
30
0.000000000000000
11
-75.4912400829437
21
12.3601412683320
31
0.000000000000000
  0
LINE
  5
F10362
330
F10363
100
AcDbEntity
8
Geo
100
AcDbLine
10
-75.4912400829437
20
12.3601412683320
30
0.000000000000000
11
-75.3912400829437
21
12.2505966202316
31
0.000000000000000
  0
LINE
  5
F10364
330
F10365
100
AcDbEntity
8
Geo
100
AcDbLine
10
-75.3912400829437
20
12.2505966202316
30
0.000000000000000
11
-75.2912400829437
21
12.1316616138547
31
0.000000000000000
  0
LINE
  5
F10366
330
F10367
100
AcDbEntity
8
Geo
100
AcDbLine
10
-75.2912400829437
20
12.1316616138547
30
0.000000000000000
11
-75.1912400829437
21
12.0035124274588
31
0.000000000000000
  0
LINE
  5
F10368
330
F10369
100
AcDbEntity
8
Geo
100
AcDbLine
10
-75.1912400829437
20
12.0035124274588
30
0.000000000000000
11
-75.0912400829437
21
11.8663388882531
31
0.000000000000000
  0
LINE
  5
F1036A
330
F1036B
100
AcDbEntity
8
Geo
100
AcDbLine
10
-75.0912400829437
20
11.8663388882531
30
0.000000000000000
11
-74.9912400829437
21
11.7203441912081
31
0.000000000000000
  0
LINE
  5
F1036C
330
F1036D
100
AcDbEntity
8
Geo
100
AcDbLine
10
-74.9912400829437
20
11.7203441912081
30
0.000000000000000
11
-74.8912400829437
21
11.5657445980628
31
0.000000000000000
  0
LINE
  5
F1036E
330
F1036F
100
AcDbEntity
8
Geo
100
AcDbLine
10
-74.8912400829437
20
11.5657445980628
30
0.000000000000000
11
-74.7912400829437
21
11.4027691169770
31
0.000000000000000
  0
LINE
  5
F10370
330
F10371
100
AcDbEntity
8
Geo
100
AcDbLine
10
-74.7912400829437
20
11.4027691169770
30
0.000000000000000
11
-74.6912400829437
21
11.2316591633011
31
0.000000000000000
  0
LINE
  5
F10372
330
F10373
100
AcDbEntity
8
Geo
100
AcDbLine
10
-74.6912400829437
20
11.2316591633011
30
0.000000000000000
11
-74.5912400829437
21
11.0526682019685
31
0.000000000000000
  0
LINE
  5
F10374
330
F10375
100
AcDbEntity
8
Geo
100
AcDbLine
10
-74.5912400829437
20
11.0526682019685
30
0.000000000000000
11
-74.4912400829437
21
10.8660613720382
31
0.000000000000000
  0
LINE
  5
F10376
330
F10377
100
AcDbEntity
8
Geo
100
AcDbLine
10
-74.4912400829437
20
10.8660613720382
30
0.000000000000000
11
-74.3912400829437
21
10.6721150939446
31
0.000000000000000
  0
LINE
  5
F10378
330
F10379
100
AcDbEntity
8
Geo
100
AcDbLine
10
-74.3912400829437
20
10.6721150939446
30
0.000000000000000
11
-74.2912400829437
21
10.4711166600361
31
0.000000000000000
  0
LINE
  5
F1037A
330
F1037B
100
AcDbEntity
8
Geo
100
AcDbLine
10
-74.2912400829437
20
10.4711166600361
30
0.000000000000000
11
-74.1912400829437
21
10.2633638090100
31
0.000000000000000
  0
LINE
  5
F1037C
330
F1037D
100
AcDbEntity
8
Geo
100
AcDbLine
10
-74.1912400829437
20
10.2633638090100
30
0.000000000000000
11
-74.0912400829437
21
10.0491642848716
31
0.000000000000000
  0
LINE
  5
F1037E
330
F1037F
100
AcDbEntity
8
Geo
100
AcDbLine
10
-74.0912400829437
20
10.0491642848716
30
0.000000000000000
11
-73.9912400829437
21
9.82883538107463
31
0.000000000000000
  0
LINE
  5
F10380
330
F10381
100
AcDbEntity
8
Geo
100
AcDbLine
10
-73.9912400829437
20
9.82883538107463
30
0.000000000000000
11
-73.8912400829437
21
9.60270347051379
31
0.000000000000000
  0
LINE
  5
F10382
330
F10383
100
AcDbEntity
8
Geo
100
AcDbLine
10
-73.8912400829437
20
9.60270347051379
30
0.000000000000000
11
-73.7912400829437
21
9.37110352206974
31
0.000000000000000
  0
LINE
  5
F10384
330
F10385
100
AcDbEntity
8
Geo
100
AcDbLine
10
-73.7912400829437
20
9.37110352206974
30
0.000000000000000
11
-73.6912400829437
21
9.13437860441992
31
0.000000000000000
  0
LINE
  5
F10386
330
F10387
100
AcDbEntity
8
Geo
100
AcDbLine
10
-73.6912400829437
20
9.13437860441992
30
0.000000000000000
11
-73.5912400829437
21
8.89287937785144
31
0.000000000000000
  0
LINE
  5
F10388
330
F10389
100
AcDbEntity
8
Geo
100
AcDbLine
10
-73.5912400829437
20
8.89287937785144
30
0.000000000000000
11
-73.4912400829437
21
8.64696357482847
31
0.000000000000000
  0
LINE
  5
F1038A
330
F1038B
100
AcDbEntity
8
Geo
100
AcDbLine
10
-73.4912400829437
20
8.64696357482847
30
0.000000000000000
11
-73.3912400829437
21
8.39699547008367
31
0.000000000000000
  0
LINE
  5
F1038C
330
F1038D
100
AcDbEntity
8
Geo
100
AcDbLine
10
-73.3912400829437
20
8.39699547008367
30
0.000000000000000
11
-73.2912400829437
21
8.14334534101854
31
0.000000000000000
  0
LINE
  5
F1038E
330
F1038F
100
AcDbEntity
8
Geo
100
AcDbLine
10
-73.2912400829437
20
8.14334534101854
30
0.000000000000000
11
-73.1912400829437
21
7.88638891921202
31
0.000000000000000
  0
LINE
  5
F10390
330
F10391
100
AcDbEntity
8
Geo
100
AcDbLine
10
-73.1912400829437
20
7.88638891921202
30
0.000000000000000
11
-73.0912400829437
21
7.62650683384982
31
0.000000000000000
  0
LINE
  5
F10392
330
F10393
100
AcDbEntity
8
Geo
100
AcDbLine
10
-73.0912400829437
20
7.62650683384982
30
0.000000000000000
11
-72.9912400829437
21
7.36408404789897
31
0.000000000000000
  0
LINE
  5
F10394
330
F10395
100
AcDbEntity
8
Geo
100
AcDbLine
10
-72.9912400829437
20
7.36408404789897
30
0.000000000000000
11
-72.8912400829437
21
7.09950928786267
31
0.000000000000000
  0
LINE
  5
F10396
330
F10397
100
AcDbEntity
8
Geo
100
AcDbLine
10
-72.8912400829437
20
7.09950928786267
30
0.000000000000000
11
-72.7912400829437
21
6.83317446796034
31
0.000000000000000
  0
LINE
  5
F10398
330
F10399
100
AcDbEntity
8
Geo
100
AcDbLine
10
-72.7912400829437
20
6.83317446796034
30
0.000000000000000
11
-72.6912400829437
21
6.56547410958552
31
0.000000000000000
  0
LINE
  5
F1039A
330
F1039B
100
AcDbEntity
8
Geo
100
AcDbLine
10
-72.6912400829437
20
6.56547410958552
30
0.000000000000000
11
-72.5912400829437
21
6.59885203211596
31
0.000000000000000
  0
LINE
  5
F1039C
330
F1039D
100
AcDbEntity
8
Geo
100
AcDbLine
10
-72.5912400829437
20
6.59885203211596
30
0.000000000000000
11
-72.4912400829436
21
6.63156704708040
31
0.000000000000000
  0
LINE
  5
F1039E
330
F1039F
100
AcDbEntity
8
Geo
100
AcDbLine
10
-72.4912400829436
20
6.63156704708040
30
0.000000000000000
11
-72.3912400829437
21
6.66361935408861
31
0.000000000000000
  0
LINE
  5
F103A0
330
F103A1
100
AcDbEntity
8
Geo
100
AcDbLine
10
-72.3912400829437
20
6.66361935408861
30
0.000000000000000
11
-72.2912400829437
21
6.69500921842612
31
0.000000000000000
  0
LINE
  5
F103A2
330
F103A3
100
AcDbEntity
8
Geo
100
AcDbLine
10
-72.2912400829437
20
6.69500921842612
30
0.000000000000000
11
-72.1912400829437
21
6.72573696684883
31
0.000000000000000
  0
LINE
  5
F103A4
330
F103A5
100
AcDbEntity
8
Geo
100
AcDbLine
10
-72.1912400829437
20
6.72573696684883
30
0.000000000000000
11
-72.0912400829437
21
6.75580298346339
31
0.000000000000000
  0
LINE
  5
F103A6
330
F103A7
100
AcDbEntity
8
Geo
100
AcDbLine
10
-72.0912400829437
20
6.75580298346339
30
0.000000000000000
11
-71.9912400829436
21
6.78520770569342
31
0.000000000000000
  0
LINE
  5
F103A8
330
F103A9
100
AcDbEntity
8
Geo
100
AcDbLine
10
-71.9912400829436
20
6.78520770569342
30
0.000000000000000
11
-71.8912400829437
21
6.81395162033206
31
0.000000000000000
  0
LINE
  5
F103AA
330
F103AB
100
AcDbEntity
8
Geo
100
AcDbLine
10
-71.8912400829437
20
6.81395162033206
30
0.000000000000000
11
-71.7912400829437
21
6.84203525968089
31
0.000000000000000
  0
LINE
  5
F103AC
330
F103AD
100
AcDbEntity
8
Geo
100
AcDbLine
10
-71.7912400829437
20
6.84203525968089
30
0.000000000000000
11
-71.6912400829437
21
6.86945919777549
31
0.000000000000000
  0
LINE
  5
F103AE
330
F103AF
100
AcDbEntity
8
Geo
100
AcDbLine
10
-71.6912400829437
20
6.86945919777549
30
0.000000000000000
11
-71.5912400829437
21
6.89622404669768
31
0.000000000000000
  0
LINE
  5
F103B0
330
F103B1
100
AcDbEntity
8
Geo
100
AcDbLine
10
-71.5912400829437
20
6.89622404669768
30
0.000000000000000
11
-71.4912400829436
21
6.92233045297470
31
0.000000000000000
  0
LINE
  5
F103B2
330
F103B3
100
AcDbEntity
8
Geo
100
AcDbLine
10
-71.4912400829436
20
6.92233045297470
30
0.000000000000000
11
-71.3912400829437
21
6.94777909406527
31
0.000000000000000
  0
LINE
  5
F103B4
330
F103B5
100
AcDbEntity
8
Geo
100
AcDbLine
10
-71.3912400829437
20
6.94777909406527
30
0.000000000000000
11
-71.2912400829437
21
6.97257067493255
31
0.000000000000000
  0
LINE
  5
F103B6
330
F103B7
100
AcDbEntity
8
Geo
100
AcDbLine
10
-71.2912400829437
20
6.97257067493255
30
0.000000000000000
11
-71.1912400829437
21
6.99670592470427
31
0.000000000000000
  0
LINE
  5
F103B8
330
F103B9
100
AcDbEntity
8
Geo
100
AcDbLine
10
-71.1912400829437
20
6.99670592470427
30
0.000000000000000
11
-71.0912400829437
21
7.02018559341965
31
0.000000000000000
  0
LINE
  5
F103BA
330
F103BB
100
AcDbEntity
8
Geo
100
AcDbLine
10
-71.0912400829437
20
7.02018559341965
30
0.000000000000000
11
-70.9912400829437
21
7.04301044886347
31
0.000000000000000
  0
LINE
  5
F103BC
330
F103BD
100
AcDbEntity
8
Geo
100
AcDbLine
10
-70.9912400829437
20
7.04301044886347
30
0.000000000000000
11
-70.8912400829437
21
7.06518127348688
31
0.000000000000000
  0
LINE
  5
F103BE
330
F103BF
100
AcDbEntity
8
Geo
100
AcDbLine
10
-70.8912400829437
20
7.06518127348688
30
0.000000000000000
11
-70.7912400829437
21
7.08669886141522
31
0.000000000000000
  0
LINE
  5
F103C0
330
F103C1
100
AcDbEntity
8
Geo
100
AcDbLine
10
-70.7912400829437
20
7.08669886141522
30
0.000000000000000
11
-70.6912400829437
21
7.10756401554251
31
0.000000000000000
  0
LINE
  5
F103C2
330
F103C3
100
AcDbEntity
8
Geo
100
AcDbLine
10
-70.6912400829437
20
7.10756401554251
30
0.000000000000000
11
-70.5912400829437
21
7.12777754471259
31
0.000000000000000
  0
LINE
  5
F103C4
330
F103C5
100
AcDbEntity
8
Geo
100
AcDbLine
10
-70.5912400829437
20
7.12777754471259
30
0.000000000000000
11
-70.4912400829437
21
7.14734026098690
31
0.000000000000000
  0
LINE
  5
F103C6
330
F103C7
100
AcDbEntity
8
Geo
100
AcDbLine
10
-70.4912400829437
20
7.14734026098690
30
0.000000000000000
11
-70.3912400829437
21
7.16625297699862
31
0.000000000000000
  0
LINE
  5
F103C8
330
F103C9
100
AcDbEntity
8
Geo
100
AcDbLine
10
-70.3912400829437
20
7.16625297699862
30
0.000000000000000
11
-70.2912400829437
21
7.18451650339304
31
0.000000000000000
  0
LINE
  5
F103CA
330
F103CB
100
AcDbEntity
8
Geo
100
AcDbLine
10
-70.2912400829437
20
7.18451650339304
30
0.000000000000000
11
-70.1912400829437
21
7.20213164635419
31
0.000000000000000
  0
LINE
  5
F103CC
330
F103CD
100
AcDbEntity
8
Geo
100
AcDbLine
10
-70.1912400829437
20
7.20213164635419
30
0.000000000000000
11
-70.0912400829437
21
7.21909920521735
31
0.000000000000000
  0
LINE
  5
F103CE
330
F103CF
100
AcDbEntity
8
Geo
100
AcDbLine
10
-70.0912400829437
20
7.21909920521735
30
0.000000000000000
11
-69.9912400829437
21
7.23541997016734
31
0.000000000000000
  0
LINE
  5
F103D0
330
F103D1
100
AcDbEntity
8
Geo
100
AcDbLine
10
-69.9912400829437
20
7.23541997016734
30
0.000000000000000
11
-69.8912400829437
21
7.25109472002257
31
0.000000000000000
  0
LINE
  5
F103D2
330
F103D3
100
AcDbEntity
8
Geo
100
AcDbLine
10
-69.8912400829437
20
7.25109472002257
30
0.000000000000000
11
-69.7912400829437
21
7.26612422010443
31
0.000000000000000
  0
LINE
  5
F103D4
330
F103D5
100
AcDbEntity
8
Geo
100
AcDbLine
10
-69.7912400829437
20
7.26612422010443
30
0.000000000000000
11
-69.6912400829437
21
7.28050922019203
31
0.000000000000000
  0
LINE
  5
F103D6
330
F103D7
100
AcDbEntity
8
Geo
100
AcDbLine
10
-69.6912400829437
20
7.28050922019203
30
0.000000000000000
11
-69.5912400829437
21
7.29425045256197
31
0.000000000000000
  0
LINE
  5
F103D8
330
F103D9
100
AcDbEntity
8
Geo
100
AcDbLine
10
-69.5912400829437
20
7.29425045256197
30
0.000000000000000
11
-69.4912400829437
21
7.30734863011316
31
0.000000000000000
  0
LINE
  5
F103DA
330
F103DB
100
AcDbEntity
8
Geo
100
AcDbLine
10
-69.4912400829437
20
7.30734863011316
30
0.000000000000000
11
-69.3912400829437
21
7.31980444457618
31
0.000000000000000
  0
LINE
  5
F103DC
330
F103DD
100
AcDbEntity
8
Geo
100
AcDbLine
10
-69.3912400829437
20
7.31980444457618
30
0.000000000000000
11
-69.2912400829437
21
7.33161856480740
31
0.000000000000000
  0
LINE
  5
F103DE
330
F103DF
100
AcDbEntity
8
Geo
100
AcDbLine
10
-69.2912400829437
20
7.33161856480740
30
0.000000000000000
11
-69.1912400829437
21
7.34279163516728
31
0.000000000000000
  0
LINE
  5
F103E0
330
F103E1
100
AcDbEntity
8
Geo
100
AcDbLine
10
-69.1912400829437
20
7.34279163516728
30
0.000000000000000
11
-69.0912400829437
21
7.35332427398301
31
0.000000000000000
  0
LINE
  5
F103E2
330
F103E3
100
AcDbEntity
8
Geo
100
AcDbLine
10
-69.0912400829437
20
7.35332427398301
30
0.000000000000000
11
-68.9912400829437
21
7.36321707209511
31
0.000000000000000
  0
LINE
  5
F103E4
330
F103E5
100
AcDbEntity
8
Geo
100
AcDbLine
10
-68.9912400829437
20
7.36321707209511
30
0.000000000000000
11
-68.8912400829437
21
7.37247059148787
31
0.000000000000000
  0
LINE
  5
F103E6
330
F103E7
100
AcDbEntity
8
Geo
100
AcDbLine
10
-68.8912400829437
20
7.37247059148787
30
0.000000000000000
11
-68.7912400829437
21
7.38108536400349
31
0.000000000000000
  0
LINE
  5
F103E8
330
F103E9
100
AcDbEntity
8
Geo
100
AcDbLine
10
-68.7912400829437
20
7.38108536400349
30
0.000000000000000
11
-68.6912400829437
21
7.38906189013981
31
0.000000000000000
  0
LINE
  5
F103EA
330
F103EB
100
AcDbEntity
8
Geo
100
AcDbLine
10
-68.6912400829437
20
7.38906189013981
30
0.000000000000000
11
-68.5912400829437
21
7.39640063793130
31
0.000000000000000
  0
LINE
  5
F103EC
330
F103ED
100
AcDbEntity
8
Geo
100
AcDbLine
10
-68.5912400829437
20
7.39640063793130
30
0.000000000000000
11
-68.4912400829437
21
7.40310204191340
31
0.000000000000000
  0
LINE
  5
F103EE
330
F103EF
100
AcDbEntity
8
Geo
100
AcDbLine
10
-68.4912400829437
20
7.40310204191340
30
0.000000000000000
11
-68.3912400829437
21
7.40916650216992
31
0.000000000000000
  0
LINE
  5
F103F0
330
F103F1
100
AcDbEntity
8
Geo
100
AcDbLine
10
-68.3912400829437
20
7.40916650216992
30
0.000000000000000
11
-68.2912400829437
21
7.41459438346341
31
0.000000000000000
  0
LINE
  5
F103F2
330
F103F3
100
AcDbEntity
8
Geo
100
AcDbLine
10
-68.2912400829437
20
7.41459438346341
30
0.000000000000000
11
-68.1912400829437
21
7.41938601444841
31
0.000000000000000
  0
LINE
  5
F103F4
330
F103F5
100
AcDbEntity
8
Geo
100
AcDbLine
10
-68.1912400829437
20
7.41938601444841
30
0.000000000000000
11
-68.0912400829437
21
7.42354168696743
31
0.000000000000000
  0
LINE
  5
F103F6
330
F103F7
100
AcDbEntity
8
Geo
100
AcDbLine
10
-68.0912400829437
20
7.42354168696743
30
0.000000000000000
11
-67.9912400829436
21
7.42706165542960
31
0.000000000000000
  0
LINE
  5
F103F8
330
F103F9
100
AcDbEntity
8
Geo
100
AcDbLine
10
-67.9912400829436
20
7.42706165542960
30
0.000000000000000
11
-67.8912400829437
21
7.42994613627191
31
0.000000000000000
  0
LINE
  5
F103FA
330
F103FB
100
AcDbEntity
8
Geo
100
AcDbLine
10
-67.8912400829437
20
7.42994613627191
30
0.000000000000000
11
-67.7912400829437
21
7.43219530750290
31
0.000000000000000
  0
LINE
  5
F103FC
330
F103FD
100
AcDbEntity
8
Geo
100
AcDbLine
10
-67.7912400829437
20
7.43219530750290
30
0.000000000000000
11
-67.6912400829437
21
7.43380930832880
31
0.000000000000000
  0
LINE
  5
F103FE
330
F103FF
100
AcDbEntity
8
Geo
100
AcDbLine
10
-77.3912400829437
20
12.9102304026344
30
0.000000000000000
11
-77.2912400829437
21
12.9098039398947
31
0.000000000000000
  0
LINE
  5
F10400
330
F10401
100
AcDbEntity
8
Geo
100
AcDbLine
10
-77.2912400829437
20
12.9098039398947
30
0.000000000000000
11
-77.1912400829437
21
12.8990106360043
31
0.000000000000000
  0
LINE
  5
F10402
330
F10403
100
AcDbEntity
8
Geo
100
AcDbLine
10
-77.1912400829437
20
12.8990106360043
30
0.000000000000000
11
-77.0912400829437
21
12.8778664790691
31
0.000000000000000
  0
LINE
  5
F10404
330
F10405
100
AcDbEntity
8
Geo
100
AcDbLine
10
-77.0912400829437
20
12.8778664790691
30
0.000000000000000
11
-76.9912400829437
21
12.8464027898989
31
0.000000000000000
  0
LINE
  5
F10406
330
F10407
100
AcDbEntity
8
Geo
100
AcDbLine
10
-76.9912400829437
20
12.8464027898989
30
0.000000000000000
11
-76.8912400829437
21
12.8046661756123
31
0.000000000000000
  0
LINE
  5
F10408
330
F10409
100
AcDbEntity
8
Geo
100
AcDbLine
10
-76.8912400829437
20
12.8046661756123
30
0.000000000000000
11
-76.7912400829437
21
12.7527184605972
31
0.000000000000000
  0
LINE
  5
F1040A
330
F1040B
100
AcDbEntity
8
Geo
100
AcDbLine
10
-76.7912400829437
20
12.7527184605972
30
0.000000000000000
11
-76.6912400829437
21
12.6906365949306
31
0.000000000000000
  0
LINE
  5
F1040C
330
F1040D
100
AcDbEntity
8
Geo
100
AcDbLine
10
-76.6912400829437
20
12.6906365949306
30
0.000000000000000
11
-76.5912400829437
21
12.6185125403928
31
0.000000000000000
  0
LINE
  5
F1040E
330
F1040F
100
AcDbEntity
8
Geo
100
AcDbLine
10
-76.5912400829437
20
12.6185125403928
30
0.000000000000000
11
-76.4912400829437
21
12.5364531342442
31
0.000000000000000
  0
LINE
  5
F10410
330
F10411
100
AcDbEntity
8
Geo
100
AcDbLine
10
-76.4912400829437
20
12.5364531342442
30
0.000000000000000
11
-76.3912400829437
21
12.4445799309674
31
0.000000000000000
  0
LINE
  5
F10412
330
F10413
100
AcDbEntity
8
Geo
100
AcDbLine
10
-76.3912400829437
20
12.4445799309674
30
0.000000000000000
11
-76.2912400829437
21
12.3430290222092
31
0.000000000000000
  0
LINE
  5
F10414
330
F10415
100
AcDbEntity
8
Geo
100
AcDbLine
10
-76.2912400829437
20
12.3430290222092
30
0.000000000000000
11
-76.1912400829437
21
12.2319508351876
31
0.000000000000000
  0
LINE
  5
F10416
330
F10417
100
AcDbEntity
8
Geo
100
AcDbLine
10
-76.1912400829437
20
12.2319508351876
30
0.000000000000000
11
-76.0912400829437
21
12.1115099098647
31
0.000000000000000
  0
LINE
  5
F10418
330
F10419
100
AcDbEntity
8
Geo
100
AcDbLine
10
-76.0912400829437
20
12.1115099098647
30
0.000000000000000
11
-75.9912400829437
21
11.9818846552134
31
0.000000000000000
  0
LINE
  5
F1041A
330
F1041B
100
AcDbEntity
8
Geo
100
AcDbLine
10
-75.9912400829437
20
11.9818846552134
30
0.000000000000000
11
-75.8912400829437
21
11.8432670849409
31
0.000000000000000
  0
LINE
  5
F1041C
330
F1041D
100
AcDbEntity
8
Geo
100
AcDbLine
10
-75.8912400829437
20
11.8432670849409
30
0.000000000000000
11
-75.7912400829437
21
11.6958625330589
31
0.000000000000000
  0
LINE
  5
F1041E
330
F1041F
100
AcDbEntity
8
Geo
100
AcDbLine
10
-75.7912400829437
20
11.6958625330589
30
0.000000000000000
11
-75.6912400829437
21
11.5398893497224
31
0.000000000000000
  0
LINE
  5
F10420
330
F10421
100
AcDbEntity
8
Geo
100
AcDbLine
10
-75.6912400829437
20
11.5398893497224
30
0.000000000000000
11
-75.5912400829437
21
11.3755785777882
31
0.000000000000000
  0
LINE
  5
F10422
330
F10423
100
AcDbEntity
8
Geo
100
AcDbLine
10
-75.5912400829437
20
11.3755785777882
30
0.000000000000000
11
-75.4912400829437
21
11.2031736105714
31
0.000000000000000
  0
LINE
  5
F10424
330
F10425
100
AcDbEntity
8
Geo
100
AcDbLine
10
-75.4912400829437
20
11.2031736105714
30
0.000000000000000
11
-75.3912400829437
21
11.0229298313071
31
0.000000000000000
  0
LINE
  5
F10426
330
F10427
100
AcDbEntity
8
Geo
100
AcDbLine
10
-75.3912400829437
20
11.0229298313071
30
0.000000000000000
11
-75.2912400829437
21
10.8351142348516
31
0.000000000000000
  0
LINE
  5
F10428
330
F10429
100
AcDbEntity
8
Geo
100
AcDbLine
10
-75.2912400829437
20
10.8351142348516
30
0.000000000000000
11
-75.1912400829437
21
10.6400050321835
31
0.000000000000000
  0
LINE
  5
F1042A
330
F1042B
100
AcDbEntity
8
Geo
100
AcDbLine
10
-75.1912400829437
20
10.6400050321835
30
0.000000000000000
11
-75.0912400829437
21
10.4378912382898
31
0.000000000000000
  0
LINE
  5
F1042C
330
F1042D
100
AcDbEntity
8
Geo
100
AcDbLine
10
-75.0912400829437
20
10.4378912382898
30
0.000000000000000
11
-74.9912400829437
21
10.2290722440489
31
0.000000000000000
  0
LINE
  5
F1042E
330
F1042F
100
AcDbEntity
8
Geo
100
AcDbLine
10
-74.9912400829437
20
10.2290722440489
30
0.000000000000000
11
-74.8912400829437
21
10.0138573727427
31
0.000000000000000
  0
LINE
  5
F10430
330
F10431
100
AcDbEntity
8
Geo
100
AcDbLine
10
-74.8912400829437
20
10.0138573727427
30
0.000000000000000
11
-74.7912400829437
21
9.79256542185696
31
0.000000000000000
  0
LINE
  5
F10432
330
F10433
100
AcDbEntity
8
Geo
100
AcDbLine
10
-74.7912400829437
20
9.79256542185696
30
0.000000000000000
11
-74.6912400829437
21
9.56552419084693
31
0.000000000000000
  0
LINE
  5
F10434
330
F10435
100
AcDbEntity
8
Geo
100
AcDbLine
10
-74.6912400829437
20
9.56552419084693
30
0.000000000000000
11
-74.5912400829437
21
9.33306999556830
31
0.000000000000000
  0
LINE
  5
F10436
330
F10437
100
AcDbEntity
8
Geo
100
AcDbLine
10
-74.5912400829437
20
9.33306999556830
30
0.000000000000000
11
-74.4912400829437
21
9.09554717009315
31
0.000000000000000
  0
LINE
  5
F10438
330
F10439
100
AcDbEntity
8
Geo
100
AcDbLine
10
-74.4912400829437
20
9.09554717009315
30
0.000000000000000
11
-74.3912400829437
21
8.85330755664831
31
0.000000000000000
  0
LINE
  5
F1043A
330
F1043B
100
AcDbEntity
8
Geo
100
AcDbLine
10
-74.3912400829437
20
8.85330755664831
30
0.000000000000000
11
-74.2912400829437
21
8.60670998443199
31
0.000000000000000
  0
LINE
  5
F1043C
330
F1043D
100
AcDbEntity
8
Geo
100
AcDbLine
10
-74.2912400829437
20
8.60670998443199
30
0.000000000000000
11
-74.1912400829437
21
8.35611973808061
31
0.000000000000000
  0
LINE
  5
F1043E
330
F1043F
100
AcDbEntity
8
Geo
100
AcDbLine
10
-74.1912400829437
20
8.35611973808061
30
0.000000000000000
11
-74.0912400829437
21
8.10190801657315
31
0.000000000000000
  0
LINE
  5
F10440
330
F10441
100
AcDbEntity
8
Geo
100
AcDbLine
10
-74.0912400829437
20
8.10190801657315
30
0.000000000000000
11
-73.9912400829437
21
7.84445138337463
31
0.000000000000000
  0
LINE
  5
F10442
330
F10443
100
AcDbEntity
8
Geo
100
AcDbLine
10
-73.9912400829437
20
7.84445138337463
30
0.000000000000000
11
-73.8912400829437
21
7.58413120863320
31
0.000000000000000
  0
LINE
  5
F10444
330
F10445
100
AcDbEntity
8
Geo
100
AcDbLine
10
-73.8912400829437
20
7.58413120863320
30
0.000000000000000
11
-73.7912400829437
21
7.32133310425706
31
0.000000000000000
  0
LINE
  5
F10446
330
F10447
100
AcDbEntity
8
Geo
100
AcDbLine
10
-73.7912400829437
20
7.32133310425706
30
0.000000000000000
11
-73.6912400829437
21
7.05644635270808
31
0.000000000000000
  0
LINE
  5
F10448
330
F10449
100
AcDbEntity
8
Geo
100
AcDbLine
10
-73.6912400829437
20
7.05644635270808
30
0.000000000000000
11
-73.5912400829437
21
6.78986333035827
31
0.000000000000000
  0
LINE
  5
F1044A
330
F1044B
100
AcDbEntity
8
Geo
100
AcDbLine
10
-73.5912400829437
20
6.78986333035827
30
0.000000000000000
11
-73.4912400829437
21
6.52197892626317
31
0.000000000000000
  0
LINE
  5
F1044C
330
F1044D
100
AcDbEntity
8
Geo
100
AcDbLine
10
-73.4912400829437
20
6.52197892626317
30
0.000000000000000
11
-73.3912400829437
21
6.25318995721326
31
0.000000000000000
  0
LINE
  5
F1044E
330
F1044F
100
AcDbEntity
8
Geo
100
AcDbLine
10
-73.3912400829437
20
6.25318995721326
30
0.000000000000000
11
-73.2912400829437
21
5.98389457992981
31
0.000000000000000
  0
LINE
  5
F10450
330
F10451
100
AcDbEntity
8
Geo
100
AcDbLine
10
-73.2912400829437
20
5.98389457992981
30
0.000000000000000
11
-73.1912400829437
21
5.71449170127593
31
0.000000000000000
  0
LINE
  5
F10452
330
F10453
100
AcDbEntity
8
Geo
100
AcDbLine
10
-73.1912400829437
20
5.71449170127593
30
0.000000000000000
11
-73.0912400829437
21
5.44538038735632
31
0.000000000000000
  0
LINE
  5
F10454
330
F10455
100
AcDbEntity
8
Geo
100
AcDbLine
10
-73.0912400829437
20
5.44538038735632
30
0.000000000000000
11
-72.9912400829437
21
5.17695927238127
31
0.000000000000000
  0
LINE
  5
F10456
330
F10457
100
AcDbEntity
8
Geo
100
AcDbLine
10
-72.9912400829437
20
5.17695927238127
30
0.000000000000000
11
-72.8912400829437
21
4.90962596817034
31
0.000000000000000
  0
LINE
  5
F10458
330
F10459
100
AcDbEntity
8
Geo
100
AcDbLine
10
-72.8912400829437
20
4.90962596817034
30
0.000000000000000
11
-72.7912400829437
21
4.64377647517053
31
0.000000000000000
  0
LINE
  5
F1045A
330
F1045B
100
AcDbEntity
8
Geo
100
AcDbLine
10
-72.7912400829437
20
4.64377647517053
30
0.000000000000000
11
-72.6912400829437
21
4.37980459586131
31
0.000000000000000
  0
LINE
  5
F1045C
330
F1045D
100
AcDbEntity
8
Geo
100
AcDbLine
10
-72.6912400829437
20
4.37980459586131
30
0.000000000000000
11
-72.5912400829437
21
4.08683994971197
31
0.000000000000000
  0
LINE
  5
F1045E
330
F1045F
100
AcDbEntity
8
Geo
100
AcDbLine
10
-72.5912400829437
20
4.08683994971197
30
0.000000000000000
11
-72.4912400829436
21
3.80284860155908
31
0.000000000000000
  0
LINE
  5
F10460
330
F10461
100
AcDbEntity
8
Geo
100
AcDbLine
10
-72.4912400829436
20
3.80284860155908
30
0.000000000000000
11
-72.3912400829437
21
3.52812982350969
31
0.000000000000000
  0
LINE
  5
F10462
330
F10463
100
AcDbEntity
8
Geo
100
AcDbLine
10
-72.3912400829437
20
3.52812982350969
30
0.000000000000000
11
-72.2912400829437
21
3.26292216032696
31
0.000000000000000
  0
LINE
  5
F10464
330
F10465
100
AcDbEntity
8
Geo
100
AcDbLine
10
-72.2912400829437
20
3.26292216032696
30
0.000000000000000
11
-72.1912400829437
21
3.00740683339677
31
0.000000000000000
  0
LINE
  5
F10466
330
F10467
100
AcDbEntity
8
Geo
100
AcDbLine
10
-72.1912400829437
20
3.00740683339677
30
0.000000000000000
11
-72.0912400829437
21
2.76171120656248
31
0.000000000000000
  0
LINE
  5
F10468
330
F10469
100
AcDbEntity
8
Geo
100
AcDbLine
10
-72.0912400829437
20
2.76171120656248
30
0.000000000000000
11
-71.9912400829436
21
2.52591228428177
31
0.000000000000000
  0
LINE
  5
F1046A
330
F1046B
100
AcDbEntity
8
Geo
100
AcDbLine
10
-71.9912400829436
20
2.52591228428177
30
0.000000000000000
11
-71.8912400829437
21
2.30004021534518
31
0.000000000000000
  0
LINE
  5
F1046C
330
F1046D
100
AcDbEntity
8
Geo
100
AcDbLine
10
-71.8912400829437
20
2.30004021534518
30
0.000000000000000
11
-71.7912400829437
21
2.08408177811755
31
0.000000000000000
  0
LINE
  5
F1046E
330
F1046F
100
AcDbEntity
8
Geo
100
AcDbLine
10
-71.7912400829437
20
2.08408177811755
30
0.000000000000000
11
-71.6912400829437
21
1.87798382590045
31
0.000000000000000
  0
LINE
  5
F10470
330
F10471
100
AcDbEntity
8
Geo
100
AcDbLine
10
-71.6912400829437
20
1.87798382590045
30
0.000000000000000
11
-71.5912400829437
21
1.68165667355151
31
0.000000000000000
  0
LINE
  5
F10472
330
F10473
100
AcDbEntity
8
Geo
100
AcDbLine
10
-71.5912400829437
20
1.68165667355151
30
0.000000000000000
11
-71.4912400829436
21
1.49497740892193
31
0.000000000000000
  0
LINE
  5
F10474
330
F10475
100
AcDbEntity
8
Geo
100
AcDbLine
10
-71.4912400829436
20
1.49497740892193
30
0.000000000000000
11
-71.3912400829437
21
1.31779311497693
31
0.000000000000000
  0
LINE
  5
F10476
330
F10477
100
AcDbEntity
8
Geo
100
AcDbLine
10
-71.3912400829437
20
1.31779311497693
30
0.000000000000000
11
-71.2912400829437
21
1.14992399063731
31
0.000000000000000
  0
LINE
  5
F10478
330
F10479
100
AcDbEntity
8
Geo
100
AcDbLine
10
-71.2912400829437
20
1.14992399063731
30
0.000000000000000
11
-71.1912400829437
21
0.991166360418938
31
0.000000000000000
  0
LINE
  5
F1047A
330
F1047B
100
AcDbEntity
8
Geo
100
AcDbLine
10
-71.1912400829437
20
0.991166360418938
30
0.000000000000000
11
-71.0912400829437
21
0.841295564847109
31
0.000000000000000
  0
LINE
  5
F1047C
330
F1047D
100
AcDbEntity
8
Geo
100
AcDbLine
10
-71.0912400829437
20
0.841295564847109
30
0.000000000000000
11
-70.9912400829437
21
0.700068725383046
31
0.000000000000000
  0
LINE
  5
F1047E
330
F1047F
100
AcDbEntity
8
Geo
100
AcDbLine
10
-70.9912400829437
20
0.700068725383046
30
0.000000000000000
11
-70.8912400829437
21
0.567227379220043
31
0.000000000000000
  0
LINE
  5
F10480
330
F10481
100
AcDbEntity
8
Geo
100
AcDbLine
10
-70.8912400829437
20
0.567227379220043
30
0.000000000000000
11
-70.7912400829437
21
0.442499980788755
31
0.000000000000000
  0
LINE
  5
F10482
330
F10483
100
AcDbEntity
8
Geo
100
AcDbLine
10
-70.7912400829437
20
0.442499980788755
30
0.000000000000000
11
-70.6912400829437
21
0.325604268157011
31
0.000000000000000
  0
LINE
  5
F10484
330
F10485
100
AcDbEntity
8
Geo
100
AcDbLine
10
-70.6912400829437
20
0.325604268157011
30
0.000000000000000
11
-70.5912400829437
21
0.216249493723041
31
0.000000000000000
  0
LINE
  5
F10486
330
F10487
100
AcDbEntity
8
Geo
100
AcDbLine
10
-70.5912400829437
20
0.216249493723041
30
0.000000000000000
11
-70.4912400829437
21
0.114138519686625
31
0.000000000000000
  0
LINE
  5
F10488
330
F10489
100
AcDbEntity
8
Geo
100
AcDbLine
10
-70.4912400829437
20
0.114138519686625
30
0.000000000000000
11
-70.3912400829437
21
0.0189697797451842
31
0.000000000000000
  0
LINE
  5
F1048A
330
F1048B
100
AcDbEntity
8
Geo
100
AcDbLine
10
-70.3912400829437
20
0.0189697797451842
30
0.000000000000000
11
-70.2912400829437
21
-0.0695608906928626
31
0.000000000000000
  0
LINE
  5
F1048C
330
F1048D
100
AcDbEntity
8
Geo
100
AcDbLine
10
-70.2912400829437
20
-0.0695608906928626
30
0.000000000000000
11
-70.1912400829437
21
-0.151758552751372
31
0.000000000000000
  0
LINE
  5
F1048E
330
F1048F
100
AcDbEntity
8
Geo
100
AcDbLine
10
-70.1912400829437
20
-0.151758552751372
30
0.000000000000000
11
-70.0912400829437
21
-0.227927587131480
31
0.000000000000000
  0
LINE
  5
F10490
330
F10491
100
AcDbEntity
8
Geo
100
AcDbLine
10
-70.0912400829437
20
-0.227927587131480
30
0.000000000000000
11
-69.9912400829437
21
-0.298370237773447
31
0.000000000000000
  0
LINE
  5
F10492
330
F10493
100
AcDbEntity
8
Geo
100
AcDbLine
10
-69.9912400829437
20
-0.298370237773447
30
0.000000000000000
11
-69.8912400829437
21
-0.363385271512475
31
0.000000000000000
  0
LINE
  5
F10494
330
F10495
100
AcDbEntity
8
Geo
100
AcDbLine
10
-69.8912400829437
20
-0.363385271512475
30
0.000000000000000
11
-69.7912400829437
21
-0.423266748753388
31
0.000000000000000
  0
LINE
  5
F10496
330
F10497
100
AcDbEntity
8
Geo
100
AcDbLine
10
-69.7912400829437
20
-0.423266748753388
30
0.000000000000000
11
-69.6912400829437
21
-0.478302899915878
31
0.000000000000000
  0
LINE
  5
F10498
330
F10499
100
AcDbEntity
8
Geo
100
AcDbLine
10
-69.6912400829437
20
-0.478302899915878
30
0.000000000000000
11
-69.5912400829437
21
-0.528775102201630
31
0.000000000000000
  0
LINE
  5
F1049A
330
F1049B
100
AcDbEntity
8
Geo
100
AcDbLine
10
-69.5912400829437
20
-0.528775102201630
30
0.000000000000000
11
-69.4912400829437
21
-0.574956951101017
31
0.000000000000000
  0
LINE
  5
F1049C
330
F1049D
100
AcDbEntity
8
Geo
100
AcDbLine
10
-69.4912400829437
20
-0.574956951101017
30
0.000000000000000
11
-69.3912400829437
21
-0.617113420983936
31
0.000000000000000
  0
LINE
  5
F1049E
330
F1049F
100
AcDbEntity
8
Geo
100
AcDbLine
10
-69.3912400829437
20
-0.617113420983936
30
0.000000000000000
11
-69.2912400829437
21
-0.655500109101427
31
0.000000000000000
  0
LINE
  5
F104A0
330
F104A1
100
AcDbEntity
8
Geo
100
AcDbLine
10
-69.2912400829437
20
-0.655500109101427
30
0.000000000000000
11
-69.1912400829437
21
-0.690362557356309
31
0.000000000000000
  0
LINE
  5
F104A2
330
F104A3
100
AcDbEntity
8
Geo
100
AcDbLine
10
-69.1912400829437
20
-0.690362557356309
30
0.000000000000000
11
-69.0912400829437
21
-0.721935646277176
31
0.000000000000000
  0
LINE
  5
F104A4
330
F104A5
100
AcDbEntity
8
Geo
100
AcDbLine
10
-69.0912400829437
20
-0.721935646277176
30
0.000000000000000
11
-68.9912400829437
21
-0.750443055745950
31
0.000000000000000
  0
LINE
  5
F104A6
330
F104A7
100
AcDbEntity
8
Geo
100
AcDbLine
10
-68.9912400829437
20
-0.750443055745950
30
0.000000000000000
11
-68.8912400829437
21
-0.776096787180292
31
0.000000000000000
  0
LINE
  5
F104A8
330
F104A9
100
AcDbEntity
8
Geo
100
AcDbLine
10
-68.8912400829437
20
-0.776096787180292
30
0.000000000000000
11
-68.7912400829437
21
-0.799096742054405
31
0.000000000000000
  0
LINE
  5
F104AA
330
F104AB
100
AcDbEntity
8
Geo
100
AcDbLine
10
-68.7912400829437
20
-0.799096742054405
30
0.000000000000000
11
-68.6912400829437
21
-0.819630351851341
31
0.000000000000000
  0
LINE
  5
F104AC
330
F104AD
100
AcDbEntity
8
Geo
100
AcDbLine
10
-68.6912400829437
20
-0.819630351851341
30
0.000000000000000
11
-68.5912400829437
21
-0.837872254773296
31
0.000000000000000
  0
LINE
  5
F104AE
330
F104AF
100
AcDbEntity
8
Geo
100
AcDbLine
10
-68.5912400829437
20
-0.837872254773296
30
0.000000000000000
11
-68.4912400829437
21
-0.853984014790504
31
0.000000000000000
  0
LINE
  5
F104B0
330
F104B1
100
AcDbEntity
8
Geo
100
AcDbLine
10
-68.4912400829437
20
-0.853984014790504
30
0.000000000000000
11
-68.3912400829437
21
-0.868113878881239
31
0.000000000000000
  0
LINE
  5
F104B2
330
F104B3
100
AcDbEntity
8
Geo
100
AcDbLine
10
-68.3912400829437
20
-0.868113878881239
30
0.000000000000000
11
-68.2912400829437
21
-0.880396568602593
31
0.000000000000000
  0
LINE
  5
F104B4
330
F104B5
100
AcDbEntity
8
Geo
100
AcDbLine
10
-68.2912400829437
20
-0.880396568602593
30
0.000000000000000
11
-68.1912400829437
21
-0.890953102431817
31
0.000000000000000
  0
LINE
  5
F104B6
330
F104B7
100
AcDbEntity
8
Geo
100
AcDbLine
10
-68.1912400829437
20
-0.890953102431817
30
0.000000000000000
11
-68.0912400829437
21
-0.899890645629094
31
0.000000000000000
  0
LINE
  5
F104B8
330
F104B9
100
AcDbEntity
8
Geo
100
AcDbLine
10
-68.0912400829437
20
-0.899890645629094
30
0.000000000000000
11
-67.9912400829436
21
-0.907302384692793
31
0.000000000000000
  0
LINE
  5
F104BA
330
F104BB
100
AcDbEntity
8
Geo
100
AcDbLine
10
-67.9912400829436
20
-0.907302384692793
30
0.000000000000000
11
-67.8912400829437
21
-0.913267423806024
31
0.000000000000000
  0
LINE
  5
F104BC
330
F104BD
100
AcDbEntity
8
Geo
100
AcDbLine
10
-67.8912400829437
20
-0.913267423806024
30
0.000000000000000
11
-67.7912400829437
21
-0.917850701007303
31
0.000000000000000
  0
LINE
  5
F104BE
330
F104BF
100
AcDbEntity
8
Geo
100
AcDbLine
10
-67.7912400829437
20
-0.917850701007303
30
0.000000000000000
11
-67.6912400829437
21
-0.921102922157087
31
0.000000000000000
  0
LINE
  5
F104C0
330
F104C1
100
AcDbEntity
8
Geo
100
AcDbLine
10
-80.6912400829437
20
12.9079163909222
30
0.000000000000000
11
-80.5912400829436
21
12.9111359671880
31
0.000000000000000
  0
LINE
  5
F104C2
330
F104C3
100
AcDbEntity
8
Geo
100
AcDbLine
10
-80.5912400829436
20
12.9111359671880
30
0.000000000000000
11
-80.4912400829436
21
12.9039867291730
31
0.000000000000000
  0
LINE
  5
F104C4
330
F104C5
100
AcDbEntity
8
Geo
100
AcDbLine
10
-80.4912400829436
20
12.9039867291730
30
0.000000000000000
11
-80.3912400829437
21
12.8864792670334
31
0.000000000000000
  0
LINE
  5
F104C6
330
F104C7
100
AcDbEntity
8
Geo
100
AcDbLine
10
-80.3912400829437
20
12.8864792670334
30
0.000000000000000
11
-80.2912400829436
21
12.8586395145482
31
0.000000000000000
  0
LINE
  5
F104C8
330
F104C9
100
AcDbEntity
8
Geo
100
AcDbLine
10
-80.2912400829436
20
12.8586395145482
30
0.000000000000000
11
-80.1912400829437
21
12.8205087107036
31
0.000000000000000
  0
LINE
  5
F104CA
330
F104CB
100
AcDbEntity
8
Geo
100
AcDbLine
10
-80.1912400829437
20
12.8205087107036
30
0.000000000000000
11
-80.0912400829437
21
12.7721433386055
31
0.000000000000000
  0
LINE
  5
F104CC
330
F104CD
100
AcDbEntity
8
Geo
100
AcDbLine
10
-80.0912400829437
20
12.7721433386055
30
0.000000000000000
11
-79.9912400829436
21
12.7136150418115
31
0.000000000000000
  0
LINE
  5
F104CE
330
F104CF
100
AcDbEntity
8
Geo
100
AcDbLine
10
-79.9912400829436
20
12.7136150418115
30
0.000000000000000
11
-79.8912400829437
21
12.6450105182053
31
0.000000000000000
  0
LINE
  5
F104D0
330
F104D1
100
AcDbEntity
8
Geo
100
AcDbLine
10
-79.8912400829437
20
12.6450105182053
30
0.000000000000000
11
-79.7912400829437
21
12.5664313915710
31
0.000000000000000
  0
LINE
  5
F104D2
330
F104D3
100
AcDbEntity
8
Geo
100
AcDbLine
10
-79.7912400829437
20
12.5664313915710
30
0.000000000000000
11
-79.6912400829437
21
12.4779940610583
31
0.000000000000000
  0
LINE
  5
F104D4
330
F104D5
100
AcDbEntity
8
Geo
100
AcDbLine
10
-79.6912400829437
20
12.4779940610583
30
0.000000000000000
11
-79.5912400829437
21
12.3798295287603
31
0.000000000000000
  0
LINE
  5
F104D6
330
F104D7
100
AcDbEntity
8
Geo
100
AcDbLine
10
-79.5912400829437
20
12.3798295287603
30
0.000000000000000
11
-79.4912400829436
21
12.2720832056603
31
0.000000000000000
  0
LINE
  5
F104D8
330
F104D9
100
AcDbEntity
8
Geo
100
AcDbLine
10
-79.4912400829436
20
12.2720832056603
30
0.000000000000000
11
-79.3912400829437
21
12.1549146962352
31
0.000000000000000
  0
LINE
  5
F104DA
330
F104DB
100
AcDbEntity
8
Geo
100
AcDbLine
10
-79.3912400829437
20
12.1549146962352
30
0.000000000000000
11
-79.2912400829437
21
12.0284975620328
31
0.000000000000000
  0
LINE
  5
F104DC
330
F104DD
100
AcDbEntity
8
Geo
100
AcDbLine
10
-79.2912400829437
20
12.0284975620328
30
0.000000000000000
11
-79.1912400829437
21
11.8930190645760
31
0.000000000000000
  0
LINE
  5
F104DE
330
F104DF
100
AcDbEntity
8
Geo
100
AcDbLine
10
-79.1912400829437
20
11.8930190645760
30
0.000000000000000
11
-79.0912400829437
21
11.7486798879723
31
0.000000000000000
  0
LINE
  5
F104E0
330
F104E1
100
AcDbEntity
8
Geo
100
AcDbLine
10
-79.0912400829437
20
11.7486798879723
30
0.000000000000000
11
-78.9912400829436
21
11.5956938416406
31
0.000000000000000
  0
LINE
  5
F104E2
330
F104E3
100
AcDbEntity
8
Geo
100
AcDbLine
10
-78.9912400829436
20
11.5956938416406
30
0.000000000000000
11
-78.8912400829437
21
11.4342875435960
31
0.000000000000000
  0
LINE
  5
F104E4
330
F104E5
100
AcDbEntity
8
Geo
100
AcDbLine
10
-78.8912400829437
20
11.4342875435960
30
0.000000000000000
11
-78.7912400829437
21
11.2647000847605
31
0.000000000000000
  0
LINE
  5
F104E6
330
F104E7
100
AcDbEntity
8
Geo
100
AcDbLine
10
-78.7912400829437
20
11.2647000847605
30
0.000000000000000
11
-78.6912400829437
21
11.0871826747978
31
0.000000000000000
  0
LINE
  5
F104E8
330
F104E9
100
AcDbEntity
8
Geo
100
AcDbLine
10
-78.6912400829437
20
11.0871826747978
30
0.000000000000000
11
-78.5912400829437
21
10.9019982699974
31
0.000000000000000
  0
LINE
  5
F104EA
330
F104EB
100
AcDbEntity
8
Geo
100
AcDbLine
10
-78.5912400829437
20
10.9019982699974
30
0.000000000000000
11
-78.4912400829437
21
10.7094211837573
31
0.000000000000000
  0
LINE
  5
F104EC
330
F104ED
100
AcDbEntity
8
Geo
100
AcDbLine
10
-78.4912400829437
20
10.7094211837573
30
0.000000000000000
11
-78.3912400829437
21
10.5097366802441
31
0.000000000000000
  0
LINE
  5
F104EE
330
F104EF
100
AcDbEntity
8
Geo
100
AcDbLine
10
-78.3912400829437
20
10.5097366802441
30
0.000000000000000
11
-78.2912400829437
21
10.3032405518316
31
0.000000000000000
  0
LINE
  5
F104F0
330
F104F1
100
AcDbEntity
8
Geo
100
AcDbLine
10
-78.2912400829437
20
10.3032405518316
30
0.000000000000000
11
-78.1912400829437
21
10.0902386809441
31
0.000000000000000
  0
LINE
  5
F104F2
330
F104F3
100
AcDbEntity
8
Geo
100
AcDbLine
10
-78.1912400829437
20
10.0902386809441
30
0.000000000000000
11
-78.0912400829437
21
9.87104658695274
31
0.000000000000000
  0
LINE
  5
F104F4
330
F104F5
100
AcDbEntity
8
Geo
100
AcDbLine
10
-78.0912400829437
20
9.87104658695274
30
0.000000000000000
11
-77.9912400829437
21
9.64598895879777
31
0.000000000000000
  0
LINE
  5
F104F6
330
F104F7
100
AcDbEntity
8
Geo
100
AcDbLine
10
-77.9912400829437
20
9.64598895879777
30
0.000000000000000
11
-77.8912400829437
21
9.41539917402676
31
0.000000000000000
  0
LINE
  5
F104F8
330
F104F9
100
AcDbEntity
8
Geo
100
AcDbLine
10
-77.8912400829437
20
9.41539917402676
30
0.000000000000000
11
-77.7912400829437
21
9.17961880496313
31
0.000000000000000
  0
LINE
  5
F104FA
330
F104FB
100
AcDbEntity
8
Geo
100
AcDbLine
10
-77.7912400829437
20
9.17961880496313
30
0.000000000000000
11
-77.6912400829437
21
8.93899711273549
31
0.000000000000000
  0
LINE
  5
F104FC
330
F104FD
100
AcDbEntity
8
Geo
100
AcDbLine
10
-77.6912400829437
20
8.93899711273549
30
0.000000000000000
11
-77.5912400829437
21
8.69389052991763
31
0.000000000000000
  0
LINE
  5
F104FE
330
F104FF
100
AcDbEntity
8
Geo
100
AcDbLine
10
-77.5912400829437
20
8.69389052991763
30
0.000000000000000
11
-77.4912400829437
21
8.44466213254547
31
0.000000000000000
  0
LINE
  5
F10500
330
F10501
100
AcDbEntity
8
Geo
100
AcDbLine
10
-77.4912400829437
20
8.44466213254547
30
0.000000000000000
11
-77.3912400829437
21
8.19168110229301
31
0.000000000000000
  0
LINE
  5
F10502
330
F10503
100
AcDbEntity
8
Geo
100
AcDbLine
10
-77.3912400829437
20
8.19168110229301
30
0.000000000000000
11
-77.2912400829437
21
7.93532217960405
31
0.000000000000000
  0
LINE
  5
F10504
330
F10505
100
AcDbEntity
8
Geo
100
AcDbLine
10
-77.2912400829437
20
7.93532217960405
30
0.000000000000000
11
-77.1912400829437
21
7.67596510858972
31
0.000000000000000
  0
LINE
  5
F10506
330
F10507
100
AcDbEntity
8
Geo
100
AcDbLine
10
-77.1912400829437
20
7.67596510858972
30
0.000000000000000
11
-77.0912400829437
21
7.41399407451401
31
0.000000000000000
  0
LINE
  5
F10508
330
F10509
100
AcDbEntity
8
Geo
100
AcDbLine
10
-77.0912400829437
20
7.41399407451401
30
0.000000000000000
11
-76.9912400829437
21
7.14979713470073
31
0.000000000000000
  0
LINE
  5
F1050A
330
F1050B
100
AcDbEntity
8
Geo
100
AcDbLine
10
-76.9912400829437
20
7.14979713470073
30
0.000000000000000
11
-76.8912400829437
21
6.88376564370473
31
0.000000000000000
  0
LINE
  5
F1050C
330
F1050D
100
AcDbEntity
8
Geo
100
AcDbLine
10
-76.8912400829437
20
6.88376564370473
30
0.000000000000000
11
-76.7912400829437
21
6.61629367359893
31
0.000000000000000
  0
LINE
  5
F1050E
330
F1050F
100
AcDbEntity
8
Geo
100
AcDbLine
10
-76.7912400829437
20
6.61629367359893
30
0.000000000000000
11
-76.6912400829437
21
6.34777743023593
31
0.000000000000000
  0
LINE
  5
F10510
330
F10511
100
AcDbEntity
8
Geo
100
AcDbLine
10
-76.6912400829437
20
6.34777743023593
30
0.000000000000000
11
-76.5912400829437
21
6.07861466634883
31
0.000000000000000
  0
LINE
  5
F10512
330
F10513
100
AcDbEntity
8
Geo
100
AcDbLine
10
-76.5912400829437
20
6.07861466634883
30
0.000000000000000
11
-76.4912400829437
21
5.80920409236069
31
0.000000000000000
  0
LINE
  5
F10514
330
F10515
100
AcDbEntity
8
Geo
100
AcDbLine
10
-76.4912400829437
20
5.80920409236069
30
0.000000000000000
11
-76.3912400829437
21
5.53994478577530
31
0.000000000000000
  0
LINE
  5
F10516
330
F10517
100
AcDbEntity
8
Geo
100
AcDbLine
10
-76.3912400829437
20
5.53994478577530
30
0.000000000000000
11
-76.2912400829437
21
5.27123560002428
31
0.000000000000000
  0
LINE
  5
F10518
330
F10519
100
AcDbEntity
8
Geo
100
AcDbLine
10
-76.2912400829437
20
5.27123560002428
30
0.000000000000000
11
-76.1912400829437
21
5.00347457364602
31
0.000000000000000
  0
LINE
  5
F1051A
330
F1051B
100
AcDbEntity
8
Geo
100
AcDbLine
10
-76.1912400829437
20
5.00347457364602
30
0.000000000000000
11
-76.0912400829437
21
4.73705834067177
31
0.000000000000000
  0
LINE
  5
F1051C
330
F1051D
100
AcDbEntity
8
Geo
100
AcDbLine
10
-76.0912400829437
20
4.73705834067177
30
0.000000000000000
11
-75.9912400829437
21
4.47238154309221
31
0.000000000000000
  0
LINE
  5
F1051E
330
F1051F
100
AcDbEntity
8
Geo
100
AcDbLine
10
-75.9912400829437
20
4.47238154309221
30
0.000000000000000
11
-75.8912400829437
21
4.20983624627480
31
0.000000000000000
  0
LINE
  5
F10520
330
F10521
100
AcDbEntity
8
Geo
100
AcDbLine
10
-75.8912400829437
20
4.20983624627480
30
0.000000000000000
11
-75.7912400829437
21
3.94981135819795
31
0.000000000000000
  0
LINE
  5
F10522
330
F10523
100
AcDbEntity
8
Geo
100
AcDbLine
10
-75.7912400829437
20
3.94981135819795
30
0.000000000000000
11
-75.6912400829437
21
3.69269205336213
31
0.000000000000000
  0
LINE
  5
F10524
330
F10525
100
AcDbEntity
8
Geo
100
AcDbLine
10
-75.6912400829437
20
3.69269205336213
30
0.000000000000000
11
-75.5912400829437
21
3.43885920223147
31
0.000000000000000
  0
LINE
  5
F10526
330
F10527
100
AcDbEntity
8
Geo
100
AcDbLine
10
-75.5912400829437
20
3.43885920223147
30
0.000000000000000
11
-75.4912400829437
21
3.18868880705084
31
0.000000000000000
  0
LINE
  5
F10528
330
F10529
100
AcDbEntity
8
Geo
100
AcDbLine
10
-75.4912400829437
20
3.18868880705084
30
0.000000000000000
11
-75.3912400829437
21
2.94255144487426
31
0.000000000000000
  0
LINE
  5
F1052A
330
F1052B
100
AcDbEntity
8
Geo
100
AcDbLine
10
-75.3912400829437
20
2.94255144487426
30
0.000000000000000
11
-75.2912400829437
21
2.70081171862967
31
0.000000000000000
  0
LINE
  5
F1052C
330
F1052D
100
AcDbEntity
8
Geo
100
AcDbLine
10
-75.2912400829437
20
2.70081171862967
30
0.000000000000000
11
-75.1912400829437
21
2.46382771703307
31
0.000000000000000
  0
LINE
  5
F1052E
330
F1052F
100
AcDbEntity
8
Geo
100
AcDbLine
10
-75.1912400829437
20
2.46382771703307
30
0.000000000000000
11
-75.0912400829437
21
2.23195048415226
31
0.000000000000000
  0
LINE
  5
F10530
330
F10531
100
AcDbEntity
8
Geo
100
AcDbLine
10
-75.0912400829437
20
2.23195048415226
30
0.000000000000000
11
-74.9912400829437
21
2.00552349940569
31
0.000000000000000
  0
LINE
  5
F10532
330
F10533
100
AcDbEntity
8
Geo
100
AcDbLine
10
-74.9912400829437
20
2.00552349940569
30
0.000000000000000
11
-74.8912400829437
21
1.78488216876701
31
0.000000000000000
  0
LINE
  5
F10534
330
F10535
100
AcDbEntity
8
Geo
100
AcDbLine
10
-74.8912400829437
20
1.78488216876701
30
0.000000000000000
11
-74.7912400829437
21
1.57035332792850
31
0.000000000000000
  0
LINE
  5
F10536
330
F10537
100
AcDbEntity
8
Geo
100
AcDbLine
10
-74.7912400829437
20
1.57035332792850
30
0.000000000000000
11
-74.6912400829437
21
1.36225475815995
31
0.000000000000000
  0
LINE
  5
F10538
330
F10539
100
AcDbEntity
8
Geo
100
AcDbLine
10
-74.6912400829437
20
1.36225475815995
30
0.000000000000000
11
-74.5912400829437
21
1.16089471557967
31
0.000000000000000
  0
LINE
  5
F1053A
330
F1053B
100
AcDbEntity
8
Geo
100
AcDbLine
10
-74.5912400829437
20
1.16089471557967
30
0.000000000000000
11
-74.4912400829437
21
0.966571474535126
31
0.000000000000000
  0
LINE
  5
F1053C
330
F1053D
100
AcDbEntity
8
Geo
100
AcDbLine
10
-74.4912400829437
20
0.966571474535126
30
0.000000000000000
11
-74.3912400829437
21
0.779572885769590
31
0.000000000000000
  0
LINE
  5
F1053E
330
F1053F
100
AcDbEntity
8
Geo
100
AcDbLine
10
-74.3912400829437
20
0.779572885769590
30
0.000000000000000
11
-74.2912400829437
21
0.600175950029225
31
0.000000000000000
  0
LINE
  5
F10540
330
F10541
100
AcDbEntity
8
Geo
100
AcDbLine
10
-74.2912400829437
20
0.600175950029225
30
0.000000000000000
11
-74.1912400829437
21
0.428646407742272
31
0.000000000000000
  0
LINE
  5
F10542
330
F10543
100
AcDbEntity
8
Geo
100
AcDbLine
10
-74.1912400829437
20
0.428646407742272
30
0.000000000000000
11
-74.0912400829437
21
0.265238345378134
31
0.000000000000000
  0
LINE
  5
F10544
330
F10545
100
AcDbEntity
8
Geo
100
AcDbLine
10
-74.0912400829437
20
0.265238345378134
30
0.000000000000000
11
-73.9912400829437
21
0.110193819069440
31
0.000000000000000
  0
LINE
  5
F10546
330
F10547
100
AcDbEntity
8
Geo
100
AcDbLine
10
-73.9912400829437
20
0.110193819069440
30
0.000000000000000
11
-73.8912400829437
21
-0.0362575039453583
31
0.000000000000000
  0
LINE
  5
F10548
330
F10549
100
AcDbEntity
8
Geo
100
AcDbLine
10
-73.8912400829437
20
-0.0362575039453583
30
0.000000000000000
11
-73.7912400829437
21
-0.173898685527746
31
0.000000000000000
  0
LINE
  5
F1054A
330
F1054B
100
AcDbEntity
8
Geo
100
AcDbLine
10
-73.7912400829437
20
-0.173898685527746
30
0.000000000000000
11
-73.6912400829437
21
-0.302525837989304
31
0.000000000000000
  0
LINE
  5
F1054C
330
F1054D
100
AcDbEntity
8
Geo
100
AcDbLine
10
-73.6912400829437
20
-0.302525837989304
30
0.000000000000000
11
-73.5912400829437
21
-0.421948426110255
31
0.000000000000000
  0
LINE
  5
F1054E
330
F1054F
100
AcDbEntity
8
Geo
100
AcDbLine
10
-73.5912400829437
20
-0.421948426110255
30
0.000000000000000
11
-73.4912400829437
21
-0.531989549379014
31
0.000000000000000
  0
LINE
  5
F10550
330
F10551
100
AcDbEntity
8
Geo
100
AcDbLine
10
-73.4912400829437
20
-0.531989549379014
30
0.000000000000000
11
-73.3912400829437
21
-0.632486204034667
31
0.000000000000000
  0
LINE
  5
F10552
330
F10553
100
AcDbEntity
8
Geo
100
AcDbLine
10
-73.3912400829437
20
-0.632486204034667
30
0.000000000000000
11
-73.2912400829437
21
-0.723289524524216
31
0.000000000000000
  0
LINE
  5
F10554
330
F10555
100
AcDbEntity
8
Geo
100
AcDbLine
10
-73.2912400829437
20
-0.723289524524216
30
0.000000000000000
11
-73.1912400829437
21
-0.804265004016914
31
0.000000000000000
  0
LINE
  5
F10556
330
F10557
100
AcDbEntity
8
Geo
100
AcDbLine
10
-73.1912400829437
20
-0.804265004016914
30
0.000000000000000
11
-73.0912400829437
21
-0.875292693649032
31
0.000000000000000
  0
LINE
  5
F10558
330
F10559
100
AcDbEntity
8
Geo
100
AcDbLine
10
-73.0912400829437
20
-0.875292693649032
30
0.000000000000000
11
-72.9912400829437
21
-0.936267380203960
31
0.000000000000000
  0
LINE
  5
F1055A
330
F1055B
100
AcDbEntity
8
Geo
100
AcDbLine
10
-72.9912400829437
20
-0.936267380203960
30
0.000000000000000
11
-72.8912400829437
21
-0.987098741964381
31
0.000000000000000
  0
LINE
  5
F1055C
330
F1055D
100
AcDbEntity
8
Geo
100
AcDbLine
10
-72.8912400829437
20
-0.987098741964381
30
0.000000000000000
11
-72.7912400829437
21
-1.02771148250571
31
0.000000000000000
  0
LINE
  5
F1055E
330
F1055F
100
AcDbEntity
8
Geo
100
AcDbLine
10
-72.7912400829437
20
-1.02771148250571
30
0.000000000000000
11
-72.6912400829437
21
-1.05804544223260
31
0.000000000000000
  0
LINE
  5
F10560
330
F10561
100
AcDbEntity
8
Geo
100
AcDbLine
10
-72.6912400829437
20
-1.05804544223260
30
0.000000000000000
11
-72.5912400829437
21
-1.05483188838006
31
0.000000000000000
  0
LINE
  5
F10562
330
F10563
100
AcDbEntity
8
Geo
100
AcDbLine
10
-72.5912400829437
20
-1.05483188838006
30
0.000000000000000
11
-72.4912400829436
21
-1.05152545114483
31
0.000000000000000
  0
LINE
  5
F10564
330
F10565
100
AcDbEntity
8
Geo
100
AcDbLine
10
-72.4912400829436
20
-1.05152545114483
30
0.000000000000000
11
-72.3912400829437
21
-1.04813532515592
31
0.000000000000000
  0
LINE
  5
F10566
330
F10567
100
AcDbEntity
8
Geo
100
AcDbLine
10
-72.3912400829437
20
-1.04813532515592
30
0.000000000000000
11
-72.2912400829437
21
-1.04467051918501
31
0.000000000000000
  0
LINE
  5
F10568
330
F10569
100
AcDbEntity
8
Geo
100
AcDbLine
10
-72.2912400829437
20
-1.04467051918501
30
0.000000000000000
11
-72.1912400829437
21
-1.04113985595207
31
0.000000000000000
  0
LINE
  5
F1056A
330
F1056B
100
AcDbEntity
8
Geo
100
AcDbLine
10
-72.1912400829437
20
-1.04113985595207
30
0.000000000000000
11
-72.0912400829437
21
-1.03755197197859
31
0.000000000000000
  0
LINE
  5
F1056C
330
F1056D
100
AcDbEntity
8
Geo
100
AcDbLine
10
-72.0912400829437
20
-1.03755197197859
30
0.000000000000000
11
-71.9912400829436
21
-1.03391531748560
31
0.000000000000000
  0
LINE
  5
F1056E
330
F1056F
100
AcDbEntity
8
Geo
100
AcDbLine
10
-71.9912400829436
20
-1.03391531748560
30
0.000000000000000
11
-71.8912400829437
21
-1.03023815633397
31
0.000000000000000
  0
LINE
  5
F10570
330
F10571
100
AcDbEntity
8
Geo
100
AcDbLine
10
-71.8912400829437
20
-1.03023815633397
30
0.000000000000000
11
-71.7912400829437
21
-1.02652856600433
31
0.000000000000000
  0
LINE
  5
F10572
330
F10573
100
AcDbEntity
8
Geo
100
AcDbLine
10
-71.7912400829437
20
-1.02652856600433
30
0.000000000000000
11
-71.6912400829437
21
-1.02279443761418
31
0.000000000000000
  0
LINE
  5
F10574
330
F10575
100
AcDbEntity
8
Geo
100
AcDbLine
10
-71.6912400829437
20
-1.02279443761418
30
0.000000000000000
11
-71.5912400829437
21
-1.01904347596958
31
0.000000000000000
  0
LINE
  5
F10576
330
F10577
100
AcDbEntity
8
Geo
100
AcDbLine
10
-71.5912400829437
20
-1.01904347596958
30
0.000000000000000
11
-71.4912400829436
21
-1.01528319964926
31
0.000000000000000
  0
LINE
  5
F10578
330
F10579
100
AcDbEntity
8
Geo
100
AcDbLine
10
-71.4912400829436
20
-1.01528319964926
30
0.000000000000000
11
-71.3912400829437
21
-1.01152094111845
31
0.000000000000000
  0
LINE
  5
F1057A
330
F1057B
100
AcDbEntity
8
Geo
100
AcDbLine
10
-71.3912400829437
20
-1.01152094111845
30
0.000000000000000
11
-71.2912400829437
21
-1.00776384687050
31
0.000000000000000
  0
LINE
  5
F1057C
330
F1057D
100
AcDbEntity
8
Geo
100
AcDbLine
10
-71.2912400829437
20
-1.00776384687050
30
0.000000000000000
11
-71.1912400829437
21
-1.00401887759379
31
0.000000000000000
  0
LINE
  5
F1057E
330
F1057F
100
AcDbEntity
8
Geo
100
AcDbLine
10
-71.1912400829437
20
-1.00401887759379
30
0.000000000000000
11
-71.0912400829437
21
-1.00029280836184
31
0.000000000000000
  0
LINE
  5
F10580
330
F10581
100
AcDbEntity
8
Geo
100
AcDbLine
10
-71.0912400829437
20
-1.00029280836184
30
0.000000000000000
11
-70.9912400829437
21
-0.996592228844555
31
0.000000000000000
  0
LINE
  5
F10582
330
F10583
100
AcDbEntity
8
Geo
100
AcDbLine
10
-70.9912400829437
20
-0.996592228844555
30
0.000000000000000
11
-70.8912400829437
21
-0.992923543538386
31
0.000000000000000
  0
LINE
  5
F10584
330
F10585
100
AcDbEntity
8
Geo
100
AcDbLine
10
-70.8912400829437
20
-0.992923543538386
30
0.000000000000000
11
-70.7912400829437
21
-0.989292972013552
31
0.000000000000000
  0
LINE
  5
F10586
330
F10587
100
AcDbEntity
8
Geo
100
AcDbLine
10
-70.7912400829437
20
-0.989292972013552
30
0.000000000000000
11
-70.6912400829437
21
-0.985706549176270
31
0.000000000000000
  0
LINE
  5
F10588
330
F10589
100
AcDbEntity
8
Geo
100
AcDbLine
10
-70.6912400829437
20
-0.985706549176270
30
0.000000000000000
11
-70.5912400829437
21
-0.982170125544124
31
0.000000000000000
  0
LINE
  5
F1058A
330
F1058B
100
AcDbEntity
8
Geo
100
AcDbLine
10
-70.5912400829437
20
-0.982170125544124
30
0.000000000000000
11
-70.4912400829437
21
-0.978689367532730
31
0.000000000000000
  0
LINE
  5
F1058C
330
F1058D
100
AcDbEntity
8
Geo
100
AcDbLine
10
-70.4912400829437
20
-0.978689367532730
30
0.000000000000000
11
-70.3912400829437
21
-0.975269757751919
31
0.000000000000000
  0
LINE
  5
F1058E
330
F1058F
100
AcDbEntity
8
Geo
100
AcDbLine
10
-70.3912400829437
20
-0.975269757751919
30
0.000000000000000
11
-70.2912400829437
21
-0.971916595309694
31
0.000000000000000
  0
LINE
  5
F10590
330
F10591
100
AcDbEntity
8
Geo
100
AcDbLine
10
-70.2912400829437
20
-0.971916595309694
30
0.000000000000000
11
-70.1912400829437
21
-0.968634996122297
31
0.000000000000000
  0
LINE
  5
F10592
330
F10593
100
AcDbEntity
8
Geo
100
AcDbLine
10
-70.1912400829437
20
-0.968634996122297
30
0.000000000000000
11
-70.0912400829437
21
-0.965429893228774
31
0.000000000000000
  0
LINE
  5
F10594
330
F10595
100
AcDbEntity
8
Geo
100
AcDbLine
10
-70.0912400829437
20
-0.965429893228774
30
0.000000000000000
11
-69.9912400829437
21
-0.962306037108477
31
0.000000000000000
  0
LINE
  5
F10596
330
F10597
100
AcDbEntity
8
Geo
100
AcDbLine
10
-69.9912400829437
20
-0.962306037108477
30
0.000000000000000
11
-69.8912400829437
21
-0.959267995999993
31
0.000000000000000
  0
LINE
  5
F10598
330
F10599
100
AcDbEntity
8
Geo
100
AcDbLine
10
-69.8912400829437
20
-0.959267995999993
30
0.000000000000000
11
-69.7912400829437
21
-0.956320156220055
31
0.000000000000000
  0
LINE
  5
F1059A
330
F1059B
100
AcDbEntity
8
Geo
100
AcDbLine
10
-69.7912400829437
20
-0.956320156220055
30
0.000000000000000
11
-69.6912400829437
21
-0.953466722481060
31
0.000000000000000
  0
LINE
  5
F1059C
330
F1059D
100
AcDbEntity
8
Geo
100
AcDbLine
10
-69.6912400829437
20
-0.953466722481060
30
0.000000000000000
11
-69.5912400829437
21
-0.950711718205838
31
0.000000000000000
  0
LINE
  5
F1059E
330
F1059F
100
AcDbEntity
8
Geo
100
AcDbLine
10
-69.5912400829437
20
-0.950711718205838
30
0.000000000000000
11
-69.4912400829437
21
-0.948058985838397
31
0.000000000000000
  0
LINE
  5
F105A0
330
F105A1
100
AcDbEntity
8
Geo
100
AcDbLine
10
-69.4912400829437
20
-0.948058985838397
30
0.000000000000000
11
-69.3912400829437
21
-0.945512187149437
31
0.000000000000000
  0
LINE
  5
F105A2
330
F105A3
100
AcDbEntity
8
Geo
100
AcDbLine
10
-69.3912400829437
20
-0.945512187149437
30
0.000000000000000
11
-69.2912400829437
21
-0.943074803535448
31
0.000000000000000
  0
LINE
  5
F105A4
330
F105A5
100
AcDbEntity
8
Geo
100
AcDbLine
10
-69.2912400829437
20
-0.943074803535448
30
0.000000000000000
11
-69.1912400829437
21
-0.940750136310275
31
0.000000000000000
  0
LINE
  5
F105A6
330
F105A7
100
AcDbEntity
8
Geo
100
AcDbLine
10
-69.1912400829437
20
-0.940750136310275
30
0.000000000000000
11
-69.0912400829437
21
-0.938541306988122
31
0.000000000000000
  0
LINE
  5
F105A8
330
F105A9
100
AcDbEntity
8
Geo
100
AcDbLine
10
-69.0912400829437
20
-0.938541306988122
30
0.000000000000000
11
-68.9912400829437
21
-0.936451257556952
31
0.000000000000000
  0
LINE
  5
F105AA
330
F105AB
100
AcDbEntity
8
Geo
100
AcDbLine
10
-68.9912400829437
20
-0.936451257556952
30
0.000000000000000
11
-68.8912400829437
21
-0.934482750741371
31
0.000000000000000
  0
LINE
  5
F105AC
330
F105AD
100
AcDbEntity
8
Geo
100
AcDbLine
10
-68.8912400829437
20
-0.934482750741371
30
0.000000000000000
11
-68.7912400829437
21
-0.932638370254085
31
0.000000000000000
  0
LINE
  5
F105AE
330
F105AF
100
AcDbEntity
8
Geo
100
AcDbLine
10
-68.7912400829437
20
-0.932638370254085
30
0.000000000000000
11
-68.6912400829437
21
-0.930920521035092
31
0.000000000000000
  0
LINE
  5
F105B0
330
F105B1
100
AcDbEntity
8
Geo
100
AcDbLine
10
-68.6912400829437
20
-0.930920521035092
30
0.000000000000000
11
-68.5912400829437
21
-0.929331429477831
31
0.000000000000000
  0
LINE
  5
F105B2
330
F105B3
100
AcDbEntity
8
Geo
100
AcDbLine
10
-68.5912400829437
20
-0.929331429477831
30
0.000000000000000
11
-68.4912400829437
21
-0.927873143641567
31
0.000000000000000
  0
LINE
  5
F105B4
330
F105B5
100
AcDbEntity
8
Geo
100
AcDbLine
10
-68.4912400829437
20
-0.927873143641567
30
0.000000000000000
11
-68.3912400829437
21
-0.926547533449320
31
0.000000000000000
  0
LINE
  5
F105B6
330
F105B7
100
AcDbEntity
8
Geo
100
AcDbLine
10
-68.3912400829437
20
-0.926547533449320
30
0.000000000000000
11
-68.2912400829437
21
-0.925356290870718
31
0.000000000000000
  0
LINE
  5
F105B8
330
F105B9
100
AcDbEntity
8
Geo
100
AcDbLine
10
-68.2912400829437
20
-0.925356290870718
30
0.000000000000000
11
-68.1912400829437
21
-0.924300930089241
31
0.000000000000000
  0
LINE
  5
F105BA
330
F105BB
100
AcDbEntity
8
Geo
100
AcDbLine
10
-68.1912400829437
20
-0.924300930089241
30
0.000000000000000
11
-68.0912400829437
21
-0.923382787653292
31
0.000000000000000
  0
LINE
  5
F105BC
330
F105BD
100
AcDbEntity
8
Geo
100
AcDbLine
10
-68.0912400829437
20
-0.923382787653292
30
0.000000000000000
11
-67.9912400829436
21
-0.922603022610679
31
0.000000000000000
  0
LINE
  5
F105BE
330
F105BF
100
AcDbEntity
8
Geo
100
AcDbLine
10
-67.9912400829436
20
-0.922603022610679
30
0.000000000000000
11
-67.8912400829437
21
-0.921962616626089
31
0.000000000000000
  0
LINE
  5
F105C0
330
F105C1
100
AcDbEntity
8
Geo
100
AcDbLine
10
-67.8912400829437
20
-0.921962616626089
30
0.000000000000000
11
-67.7912400829437
21
-0.921462374081189
31
0.000000000000000
  0
LINE
  5
F105C2
330
F105C3
100
AcDbEntity
8
Geo
100
AcDbLine
10
-67.7912400829437
20
-0.921462374081189
30
0.000000000000000
11
-67.6912400829437
21
-0.921102922157087
31
0.000000000000000
  0
LINE
  5
F105C4
330
F105C5
100
AcDbEntity
8
Geo
100
AcDbLine
10
-84.6912400829437
20
11.9026397868877
30
0.000000000000000
11
-84.5912400829437
21
12.3318745790711
31
0.000000000000000
  0
LINE
  5
F105C6
330
F105C7
100
AcDbEntity
8
Geo
100
AcDbLine
10
-84.6912400829437
20
5.86208180812047
30
0.000000000000000
11
-84.5912400829437
21
5.61479602430022
31
0.000000000000000
  0
LINE
  5
F105C8
330
F105C9
100
AcDbEntity
8
Geo
100
AcDbLine
10
-84.5912400829437
20
12.3318745790711
30
0.000000000000000
11
-84.4912400829436
21
12.4793328152561
31
0.000000000000000
  0
LINE
  5
F105CA
330
F105CB
100
AcDbEntity
8
Geo
100
AcDbLine
10
-84.5912400829437
20
5.61479602430022
30
0.000000000000000
11
-84.4912400829436
21
5.35532875599723
31
0.000000000000000
  0
LINE
  5
F105CC
330
F105CD
100
AcDbEntity
8
Geo
100
AcDbLine
10
-84.4912400829436
20
12.4793328152561
30
0.000000000000000
11
-84.3912400829437
21
12.5664560446448
31
0.000000000000000
  0
LINE
  5
F105CE
330
F105CF
100
AcDbEntity
8
Geo
100
AcDbLine
10
-84.4912400829436
20
5.35532875599723
30
0.000000000000000
11
-84.3912400829437
21
5.08984931070359
31
0.000000000000000
  0
LINE
  5
F105D0
330
F105D1
100
AcDbEntity
8
Geo
100
AcDbLine
10
-84.3912400829437
20
12.5664560446448
30
0.000000000000000
11
-84.2912400829436
21
12.6147578240770
31
0.000000000000000
  0
LINE
  5
F105D2
330
F105D3
100
AcDbEntity
8
Geo
100
AcDbLine
10
-84.3912400829437
20
5.08984931070359
30
0.000000000000000
11
-84.2912400829436
21
4.82119834209884
31
0.000000000000000
  0
LINE
  5
F105D4
330
F105D5
100
AcDbEntity
8
Geo
100
AcDbLine
10
-84.2912400829436
20
12.6147578240770
30
0.000000000000000
11
-84.1912400829437
21
12.6326508821686
31
0.000000000000000
  0
LINE
  5
F105D6
330
F105D7
100
AcDbEntity
8
Geo
100
AcDbLine
10
-84.2912400829436
20
4.82119834209884
30
0.000000000000000
11
-84.1912400829437
21
4.55142578247170
31
0.000000000000000
  0
LINE
  5
F105D8
330
F105D9
100
AcDbEntity
8
Geo
100
AcDbLine
10
-84.1912400829437
20
12.6326508821686
30
0.000000000000000
11
-84.0912400829437
21
12.6244925361675
31
0.000000000000000
  0
LINE
  5
F105DA
330
F105DB
100
AcDbEntity
8
Geo
100
AcDbLine
10
-84.1912400829437
20
4.55142578247170
30
0.000000000000000
11
-84.0912400829437
21
4.28223606430155
31
0.000000000000000
  0
LINE
  5
F105DC
330
F105DD
100
AcDbEntity
8
Geo
100
AcDbLine
10
-84.0912400829437
20
12.6244925361675
30
0.000000000000000
11
-83.9912400829436
21
12.5929062629769
31
0.000000000000000
  0
LINE
  5
F105DE
330
F105DF
100
AcDbEntity
8
Geo
100
AcDbLine
10
-84.0912400829437
20
4.28223606430155
30
0.000000000000000
11
-83.9912400829436
21
4.01515477624507
31
0.000000000000000
  0
LINE
  5
F105E0
330
F105E1
100
AcDbEntity
8
Geo
100
AcDbLine
10
-83.9912400829436
20
12.5929062629769
30
0.000000000000000
11
-83.8912400829437
21
12.5396326052789
31
0.000000000000000
  0
LINE
  5
F105E2
330
F105E3
100
AcDbEntity
8
Geo
100
AcDbLine
10
-83.9912400829436
20
4.01515477624507
30
0.000000000000000
11
-83.8912400829437
21
3.75161179926697
31
0.000000000000000
  0
LINE
  5
F105E4
330
F105E5
100
AcDbEntity
8
Geo
100
AcDbLine
10
-83.8912400829437
20
12.5396326052789
30
0.000000000000000
11
-83.7912400829436
21
12.4659057097953
31
0.000000000000000
  0
LINE
  5
F105E6
330
F105E7
100
AcDbEntity
8
Geo
100
AcDbLine
10
-83.8912400829437
20
3.75161179926697
30
0.000000000000000
11
-83.7912400829436
21
3.49299270605386
31
0.000000000000000
  0
LINE
  5
F105E8
330
F105E9
100
AcDbEntity
8
Geo
100
AcDbLine
10
-83.7912400829436
20
12.4659057097953
30
0.000000000000000
11
-83.6912400829437
21
12.3726383213919
31
0.000000000000000
  0
LINE
  5
F105EA
330
F105EB
100
AcDbEntity
8
Geo
100
AcDbLine
10
-83.7912400829436
20
3.49299270605386
30
0.000000000000000
11
-83.6912400829437
21
3.24067804118483
31
0.000000000000000
  0
LINE
  5
F105EC
330
F105ED
100
AcDbEntity
8
Geo
100
AcDbLine
10
-83.6912400829437
20
12.3726383213919
30
0.000000000000000
11
-83.5912400829437
21
12.2650849898589
31
0.000000000000000
  0
LINE
  5
F105EE
330
F105EF
100
AcDbEntity
8
Geo
100
AcDbLine
10
-83.6912400829437
20
3.24067804118483
30
0.000000000000000
11
-83.5912400829437
21
2.99402128018161
31
0.000000000000000
  0
LINE
  5
F105F0
330
F105F1
100
AcDbEntity
8
Geo
100
AcDbLine
10
-83.5912400829437
20
12.2650849898589
30
0.000000000000000
11
-83.4912400829436
21
12.1481198384478
31
0.000000000000000
  0
LINE
  5
F105F2
330
F105F3
100
AcDbEntity
8
Geo
100
AcDbLine
10
-83.5912400829437
20
2.99402128018161
30
0.000000000000000
11
-83.4912400829436
21
2.75168591291582
31
0.000000000000000
  0
LINE
  5
F105F4
330
F105F5
100
AcDbEntity
8
Geo
100
AcDbLine
10
-83.4912400829436
20
12.1481198384478
30
0.000000000000000
11
-83.3912400829437
21
12.0219161274728
31
0.000000000000000
  0
LINE
  5
F105F6
330
F105F7
100
AcDbEntity
8
Geo
100
AcDbLine
10
-83.4912400829436
20
2.75168591291582
30
0.000000000000000
11
-83.3912400829437
21
2.51403091042568
31
0.000000000000000
  0
LINE
  5
F105F8
330
F105F9
100
AcDbEntity
8
Geo
100
AcDbLine
10
-83.3912400829437
20
12.0219161274728
30
0.000000000000000
11
-83.2912400829436
21
11.8866608023131
31
0.000000000000000
  0
LINE
  5
F105FA
330
F105FB
100
AcDbEntity
8
Geo
100
AcDbLine
10
-83.3912400829437
20
2.51403091042568
30
0.000000000000000
11
-83.2912400829436
21
2.28140831073166
31
0.000000000000000
  0
LINE
  5
F105FC
330
F105FD
100
AcDbEntity
8
Geo
100
AcDbLine
10
-83.2912400829436
20
11.8866608023131
30
0.000000000000000
11
-83.1912400829437
21
11.7425542164914
31
0.000000000000000
  0
LINE
  5
F105FE
330
F105FF
100
AcDbEntity
8
Geo
100
AcDbLine
10
-83.2912400829436
20
2.28140831073166
30
0.000000000000000
11
-83.1912400829437
21
2.05416269736304
31
0.000000000000000
  0
LINE
  5
F10600
330
F10601
100
AcDbEntity
8
Geo
100
AcDbLine
10
-83.1912400829437
20
11.7425542164914
30
0.000000000000000
11
-83.0912400829437
21
11.5898098348903
31
0.000000000000000
  0
LINE
  5
F10602
330
F10603
100
AcDbEntity
8
Geo
100
AcDbLine
10
-83.1912400829437
20
2.05416269736304
30
0.000000000000000
11
-83.0912400829437
21
1.83263068892687
31
0.000000000000000
  0
LINE
  5
F10604
330
F10605
100
AcDbEntity
8
Geo
100
AcDbLine
10
-83.0912400829437
20
11.5898098348903
30
0.000000000000000
11
-82.9912400829436
21
11.4286539175472
31
0.000000000000000
  0
LINE
  5
F10606
330
F10607
100
AcDbEntity
8
Geo
100
AcDbLine
10
-83.0912400829437
20
1.83263068892687
30
0.000000000000000
11
-82.9912400829436
21
1.61714044047520
31
0.000000000000000
  0
LINE
  5
F10608
330
F10609
100
AcDbEntity
8
Geo
100
AcDbLine
10
-82.9912400829436
20
11.4286539175472
30
0.000000000000000
11
-82.8912400829437
21
11.2593251844955
31
0.000000000000000
  0
LINE
  5
F1060A
330
F1060B
100
AcDbEntity
8
Geo
100
AcDbLine
10
-82.9912400829436
20
1.61714044047520
30
0.000000000000000
11
-82.8912400829437
21
1.40801115740959
31
0.000000000000000
  0
LINE
  5
F1060C
330
F1060D
100
AcDbEntity
8
Geo
100
AcDbLine
10
-82.8912400829437
20
11.2593251844955
30
0.000000000000000
11
-82.7912400829436
21
11.0820744621488
31
0.000000000000000
  0
LINE
  5
F1060E
330
F1060F
100
AcDbEntity
8
Geo
100
AcDbLine
10
-82.8912400829437
20
1.40801115740959
30
0.000000000000000
11
-82.7912400829436
21
1.20555262264247
31
0.000000000000000
  0
LINE
  5
F10610
330
F10611
100
AcDbEntity
8
Geo
100
AcDbLine
10
-82.7912400829436
20
11.0820744621488
30
0.000000000000000
11
-82.6912400829437
21
10.8971643117526
31
0.000000000000000
  0
LINE
  5
F10612
330
F10613
100
AcDbEntity
8
Geo
100
AcDbLine
10
-82.7912400829436
20
1.20555262264247
30
0.000000000000000
11
-82.6912400829437
21
1.01006473771626
31
0.000000000000000
  0
LINE
  5
F10614
330
F10615
100
AcDbEntity
8
Geo
100
AcDbLine
10
-82.6912400829437
20
10.8971643117526
30
0.000000000000000
11
-82.5912400829437
21
10.7048686404523
31
0.000000000000000
  0
LINE
  5
F10616
330
F10617
100
AcDbEntity
8
Geo
100
AcDbLine
10
-82.6912400829437
20
1.01006473771626
30
0.000000000000000
11
-82.5912400829437
21
0.821837078559568
31
0.000000000000000
  0
LINE
  5
F10618
330
F10619
100
AcDbEntity
8
Geo
100
AcDbLine
10
-82.5912400829437
20
10.7048686404523
30
0.000000000000000
11
-82.4912400829436
21
10.5054722955548
31
0.000000000000000
  0
LINE
  5
F1061A
330
F1061B
100
AcDbEntity
8
Geo
100
AcDbLine
10
-82.5912400829437
20
0.821837078559568
30
0.000000000000000
11
-82.4912400829436
21
0.641148466538788
31
0.000000000000000
  0
LINE
  5
F1061C
330
F1061D
100
AcDbEntity
8
Geo
100
AcDbLine
10
-82.4912400829436
20
10.5054722955548
30
0.000000000000000
11
-82.3912400829437
21
10.2992706425851
31
0.000000000000000
  0
LINE
  5
F1061E
330
F1061F
100
AcDbEntity
8
Geo
100
AcDbLine
10
-82.4912400829436
20
0.641148466538788
30
0.000000000000000
11
-82.3912400829437
21
0.468266555440424
31
0.000000000000000
  0
LINE
  5
F10620
330
F10621
100
AcDbEntity
8
Geo
100
AcDbLine
10
-82.3912400829437
20
10.2992706425851
30
0.000000000000000
11
-82.2912400829436
21
10.0865691277613
31
0.000000000000000
  0
LINE
  5
F10622
330
F10623
100
AcDbEntity
8
Geo
100
AcDbLine
10
-82.3912400829437
20
0.468266555440424
30
0.000000000000000
11
-82.2912400829436
21
0.303447434995890
31
0.000000000000000
  0
LINE
  5
F10624
330
F10625
100
AcDbEntity
8
Geo
100
AcDbLine
10
-82.2912400829436
20
10.0865691277613
30
0.000000000000000
11
-82.1912400829437
21
9.86768282553771
31
0.000000000000000
  0
LINE
  5
F10626
330
F10627
100
AcDbEntity
8
Geo
100
AcDbLine
10
-82.2912400829436
20
0.303447434995890
30
0.000000000000000
11
-82.1912400829437
21
0.146935251536165
31
0.000000000000000
  0
LINE
  5
F10628
330
F10629
100
AcDbEntity
8
Geo
100
AcDbLine
10
-82.1912400829437
20
9.86768282553771
30
0.000000000000000
11
-82.0912400829437
21
9.64293597188550
31
0.000000000000000
  0
LINE
  5
F1062A
330
F1062B
100
AcDbEntity
8
Geo
100
AcDbLine
10
-82.1912400829437
20
0.146935251536165
30
0.000000000000000
11
-82.0912400829437
21
-0.00103815366182669
31
0.000000000000000
  0
LINE
  5
F1062C
330
F1062D
100
AcDbEntity
8
Geo
100
AcDbLine
10
-82.0912400829437
20
9.64293597188550
30
0.000000000000000
11
-81.9912400829436
21
9.41266148400246
31
0.000000000000000
  0
LINE
  5
F1062E
330
F1062F
100
AcDbEntity
8
Geo
100
AcDbLine
10
-82.0912400829437
20
-0.00103815366182669
30
0.000000000000000
11
-81.9912400829436
21
-0.140253587801381
31
0.000000000000000
  0
LINE
  5
F10630
330
F10631
100
AcDbEntity
8
Geo
100
AcDbLine
10
-81.9912400829436
20
9.41266148400246
30
0.000000000000000
11
-81.8912400829437
21
9.17720046716318
31
0.000000000000000
  0
LINE
  5
F10632
330
F10633
100
AcDbEntity
8
Geo
100
AcDbLine
10
-81.9912400829436
20
-0.140253587801381
30
0.000000000000000
11
-81.8912400829437
21
-0.270504831255982
31
0.000000000000000
  0
LINE
  5
F10634
330
F10635
100
AcDbEntity
8
Geo
100
AcDbLine
10
-81.8912400829437
20
9.17720046716318
30
0.000000000000000
11
-81.7912400829436
21
8.93690170944027
31
0.000000000000000
  0
LINE
  5
F10636
330
F10637
100
AcDbEntity
8
Geo
100
AcDbLine
10
-81.8912400829437
20
-0.270504831255982
30
0.000000000000000
11
-81.7912400829436
21
-0.391598943042148
31
0.000000000000000
  0
LINE
  5
F10638
330
F10639
100
AcDbEntity
8
Geo
100
AcDbLine
10
-81.7912400829436
20
8.93690170944027
30
0.000000000000000
11
-81.6912400829437
21
8.69212116504508
31
0.000000000000000
  0
LINE
  5
F1063A
330
F1063B
100
AcDbEntity
8
Geo
100
AcDbLine
10
-81.7912400829436
20
-0.391598943042148
30
0.000000000000000
11
-81.6912400829437
21
-0.503356546622646
31
0.000000000000000
  0
LINE
  5
F1063C
330
F1063D
100
AcDbEntity
8
Geo
100
AcDbLine
10
-81.6912400829437
20
8.69212116504508
30
0.000000000000000
11
-81.5912400829436
21
8.44322142705329
31
0.000000000000000
  0
LINE
  5
F1063E
330
F1063F
100
AcDbEntity
8
Geo
100
AcDbLine
10
-81.6912400829437
20
-0.503356546622646
30
0.000000000000000
11
-81.5912400829436
21
-0.605612095616692
31
0.000000000000000
  0
LINE
  5
F10640
330
F10641
100
AcDbEntity
8
Geo
100
AcDbLine
10
-81.5912400829436
20
8.44322142705329
30
0.000000000000000
11
-81.4912400829436
21
8.19057119029621
31
0.000000000000000
  0
LINE
  5
F10642
330
F10643
100
AcDbEntity
8
Geo
100
AcDbLine
10
-81.5912400829436
20
-0.605612095616692
30
0.000000000000000
11
-81.4912400829436
21
-0.698214119023586
31
0.000000000000000
  0
LINE
  5
F10644
330
F10645
100
AcDbEntity
8
Geo
100
AcDbLine
10
-81.4912400829436
20
8.19057119029621
30
0.000000000000000
11
-81.3912400829437
21
7.93454470521372
31
0.000000000000000
  0
LINE
  5
F10646
330
F10647
100
AcDbEntity
8
Geo
100
AcDbLine
10
-81.4912400829436
20
-0.698214119023586
30
0.000000000000000
11
-81.3912400829437
21
-0.781025445596477
31
0.000000000000000
  0
LINE
  5
F10648
330
F10649
100
AcDbEntity
8
Geo
100
AcDbLine
10
-81.3912400829437
20
7.93454470521372
30
0.000000000000000
11
-81.2912400829436
21
7.67552122347757
31
0.000000000000000
  0
LINE
  5
F1064A
330
F1064B
100
AcDbEntity
8
Geo
100
AcDbLine
10
-81.3912400829437
20
-0.781025445596477
30
0.000000000000000
11
-81.2912400829436
21
-0.853923407033947
31
0.000000000000000
  0
LINE
  5
F1064C
330
F1064D
100
AcDbEntity
8
Geo
100
AcDbLine
10
-81.2912400829436
20
7.67552122347757
30
0.000000000000000
11
-81.1912400829437
21
7.41388443620643
31
0.000000000000000
  0
LINE
  5
F1064E
330
F1064F
100
AcDbEntity
8
Geo
100
AcDbLine
10
-81.2912400829436
20
-0.853923407033947
30
0.000000000000000
11
-81.1912400829437
21
-0.916800019688391
31
0.000000000000000
  0
LINE
  5
F10650
330
F10651
100
AcDbEntity
8
Geo
100
AcDbLine
10
-81.1912400829437
20
7.41388443620643
30
0.000000000000000
11
-81.0912400829436
21
7.15002190560480
31
0.000000000000000
  0
LINE
  5
F10652
330
F10653
100
AcDbEntity
8
Geo
100
AcDbLine
10
-81.1912400829437
20
-0.916800019688391
30
0.000000000000000
11
-81.0912400829436
21
-0.969562144522041
31
0.000000000000000
  0
LINE
  5
F10654
330
F10655
100
AcDbEntity
8
Geo
100
AcDbLine
10
-81.0912400829436
20
7.15002190560480
30
0.000000000000000
11
-80.9912400829436
21
6.88432449086762
31
0.000000000000000
  0
LINE
  5
F10656
330
F10657
100
AcDbEntity
8
Geo
100
AcDbLine
10
-81.0912400829436
20
-0.969562144522041
30
0.000000000000000
11
-80.9912400829436
21
-1.01213162507369
31
0.000000000000000
  0
LINE
  5
F10658
330
F10659
100
AcDbEntity
8
Geo
100
AcDbLine
10
-80.9912400829436
20
6.88432449086762
30
0.000000000000000
11
-80.8912400829437
21
6.61718576920113
31
0.000000000000000
  0
LINE
  5
F1065A
330
F1065B
100
AcDbEntity
8
Geo
100
AcDbLine
10
-80.9912400829436
20
-1.01213162507369
30
0.000000000000000
11
-80.8912400829437
21
-1.04444540323176
31
0.000000000000000
  0
LINE
  5
F1065C
330
F1065D
100
AcDbEntity
8
Geo
100
AcDbLine
10
-80.8912400829437
20
6.61718576920113
30
0.000000000000000
11
-80.7912400829436
21
6.34900145281747
31
0.000000000000000
  0
LINE
  5
F1065E
330
F1065F
100
AcDbEntity
8
Geo
100
AcDbLine
10
-80.8912400829437
20
-1.04444540323176
30
0.000000000000000
11
-80.7912400829436
21
-1.06645561264218
31
0.000000000000000
  0
LINE
  5
F10660
330
F10661
100
AcDbEntity
8
Geo
100
AcDbLine
10
-80.7912400829436
20
6.34900145281747
30
0.000000000000000
11
-80.6912400829437
21
6.08016880276680
31
0.000000000000000
  0
LINE
  5
F10662
330
F10663
100
AcDbEntity
8
Geo
100
AcDbLine
10
-80.7912400829436
20
-1.06645561264218
30
0.000000000000000
11
-80.6912400829437
21
-1.07812964961274
31
0.000000000000000
  0
LINE
  5
F10664
330
F10665
100
AcDbEntity
8
Geo
100
AcDbLine
10
-80.6912400829437
20
6.08016880276680
30
0.000000000000000
11
-80.5912400829436
21
5.81108604047500
31
0.000000000000000
  0
LINE
  5
F10666
330
F10667
100
AcDbEntity
8
Geo
100
AcDbLine
10
-80.5912400829436
20
5.81108604047500
30
0.000000000000000
11
-80.4912400829436
21
5.54215175785886
31
0.000000000000000
  0
LINE
  5
F10668
330
F10669
100
AcDbEntity
8
Geo
100
AcDbLine
10
-80.5912400829436
20
12.9020946129511
30
0.000000000000000
11
-80.4912400829436
21
12.8930597634117
31
0.000000000000000
  0
LINE
  5
F1066A
330
F1066B
100
AcDbEntity
8
Geo
100
AcDbLine
10
-80.4912400829436
20
5.54215175785886
30
0.000000000000000
11
-80.3912400829437
21
5.27376432689244
31
0.000000000000000
  0
LINE
  5
F1066C
330
F1066D
100
AcDbEntity
8
Geo
100
AcDbLine
10
-80.4912400829436
20
12.8930597634117
30
0.000000000000000
11
-80.3912400829437
21
12.8736828758468
31
0.000000000000000
  0
LINE
  5
F1066E
330
F1066F
100
AcDbEntity
8
Geo
100
AcDbLine
10
-80.3912400829437
20
5.27376432689244
30
0.000000000000000
11
-80.2912400829436
21
5.00632130949924
31
0.000000000000000
  0
LINE
  5
F10670
330
F10671
100
AcDbEntity
8
Geo
100
AcDbLine
10
-80.3912400829437
20
12.8736828758468
30
0.000000000000000
11
-80.2912400829436
21
12.8439926532124
31
0.000000000000000
  0
LINE
  5
F10672
330
F10673
100
AcDbEntity
8
Geo
100
AcDbLine
10
-80.2912400829436
20
5.00632130949924
30
0.000000000000000
11
-80.1912400829437
21
4.74021886864423
31
0.000000000000000
  0
LINE
  5
F10674
330
F10675
100
AcDbEntity
8
Geo
100
AcDbLine
10
-80.2912400829436
20
12.8439926532124
30
0.000000000000000
11
-80.1912400829437
21
12.8040330755937
31
0.000000000000000
  0
LINE
  5
F10676
330
F10677
100
AcDbEntity
8
Geo
100
AcDbLine
10
-80.1912400829437
20
4.74021886864423
30
0.000000000000000
11
-80.0912400829437
21
4.47585118149828
31
0.000000000000000
  0
LINE
  5
F10678
330
F10679
100
AcDbEntity
8
Geo
100
AcDbLine
10
-80.1912400829437
20
12.8040330755937
30
0.000000000000000
11
-80.0912400829437
21
12.7538633350567
31
0.000000000000000
  0
LINE
  5
F1067A
330
F1067B
100
AcDbEntity
8
Geo
100
AcDbLine
10
-80.0912400829437
20
4.47585118149828
30
0.000000000000000
11
-79.9912400829436
21
4.21360985554400
31
0.000000000000000
  0
LINE
  5
F1067C
330
F1067D
100
AcDbEntity
8
Geo
100
AcDbLine
10
-80.0912400829437
20
12.7538633350567
30
0.000000000000000
11
-79.9912400829436
21
12.6935577479673
31
0.000000000000000
  0
LINE
  5
F1067E
330
F1067F
100
AcDbEntity
8
Geo
100
AcDbLine
10
-79.9912400829436
20
4.21360985554400
30
0.000000000000000
11
-79.8912400829437
21
3.95388334848818
31
0.000000000000000
  0
LINE
  5
F10680
330
F10681
100
AcDbEntity
8
Geo
100
AcDbLine
10
-79.9912400829436
20
12.6935577479673
30
0.000000000000000
11
-79.8912400829437
21
12.6232056449067
31
0.000000000000000
  0
LINE
  5
F10682
330
F10683
100
AcDbEntity
8
Geo
100
AcDbLine
10
-79.8912400829437
20
3.95388334848818
30
0.000000000000000
11
-79.7912400829437
21
3.69705639283991
31
0.000000000000000
  0
LINE
  5
F10684
330
F10685
100
AcDbEntity
8
Geo
100
AcDbLine
10
-79.8912400829437
20
12.6232056449067
30
0.000000000000000
11
-79.7912400829437
21
12.5429112383462
31
0.000000000000000
  0
LINE
  5
F10686
330
F10687
100
AcDbEntity
8
Geo
100
AcDbLine
10
-79.7912400829437
20
3.69705639283991
30
0.000000000000000
11
-79.6912400829437
21
3.44350942600688
31
0.000000000000000
  0
LINE
  5
F10688
330
F10689
100
AcDbEntity
8
Geo
100
AcDbLine
10
-79.7912400829437
20
12.5429112383462
30
0.000000000000000
11
-79.6912400829437
21
12.4527934682771
31
0.000000000000000
  0
LINE
  5
F1068A
330
F1068B
100
AcDbEntity
8
Geo
100
AcDbLine
10
-79.6912400829437
20
3.44350942600688
30
0.000000000000000
11
-79.5912400829437
21
3.19361802675395
31
0.000000000000000
  0
LINE
  5
F1068C
330
F1068D
100
AcDbEntity
8
Geo
100
AcDbLine
10
-79.6912400829437
20
12.4527934682771
30
0.000000000000000
11
-79.5912400829437
21
12.3529858260253
31
0.000000000000000
  0
LINE
  5
F1068E
330
F1068F
100
AcDbEntity
8
Geo
100
AcDbLine
10
-79.5912400829437
20
3.19361802675395
30
0.000000000000000
11
-79.4912400829436
21
2.94775235885887
31
0.000000000000000
  0
LINE
  5
F10690
330
F10691
100
AcDbEntity
8
Geo
100
AcDbLine
10
-79.5912400829437
20
12.3529858260253
30
0.000000000000000
11
-79.4912400829436
21
12.2436361565107
31
0.000000000000000
  0
LINE
  5
F10692
330
F10693
100
AcDbEntity
8
Geo
100
AcDbLine
10
-79.4912400829436
20
2.94775235885887
30
0.000000000000000
11
-79.3912400829437
21
2.70627662278921
31
0.000000000000000
  0
LINE
  5
F10694
330
F10695
100
AcDbEntity
8
Geo
100
AcDbLine
10
-79.4912400829436
20
12.2436361565107
30
0.000000000000000
11
-79.3912400829437
21
12.1249064392446
31
0.000000000000000
  0
LINE
  5
F10696
330
F10697
100
AcDbEntity
8
Geo
100
AcDbLine
10
-79.3912400829437
20
2.70627662278921
30
0.000000000000000
11
-79.2912400829437
21
2.46954851621271
31
0.000000000000000
  0
LINE
  5
F10698
330
F10699
100
AcDbEntity
8
Geo
100
AcDbLine
10
-79.3912400829437
20
12.1249064392446
30
0.000000000000000
11
-79.2912400829437
21
11.9969725483901
31
0.000000000000000
  0
LINE
  5
F1069A
330
F1069B
100
AcDbEntity
8
Geo
100
AcDbLine
10
-79.2912400829437
20
2.46954851621271
30
0.000000000000000
11
-79.1912400829437
21
2.23791870414023
31
0.000000000000000
  0
LINE
  5
F1069C
330
F1069D
100
AcDbEntity
8
Geo
100
AcDbLine
10
-79.2912400829437
20
11.9969725483901
30
0.000000000000000
11
-79.1912400829437
21
11.8600239922396
31
0.000000000000000
  0
LINE
  5
F1069E
330
F1069F
100
AcDbEntity
8
Geo
100
AcDbLine
10
-79.1912400829437
20
2.23791870414023
30
0.000000000000000
11
-79.0912400829437
21
2.01173029948615
31
0.000000000000000
  0
LINE
  5
F106A0
330
F106A1
100
AcDbEntity
8
Geo
100
AcDbLine
10
-79.1912400829437
20
11.8600239922396
30
0.000000000000000
11
-79.0912400829437
21
11.7142636324963
31
0.000000000000000
  0
LINE
  5
F106A2
330
F106A3
100
AcDbEntity
8
Geo
100
AcDbLine
10
-79.0912400829437
20
2.01173029948615
30
0.000000000000000
11
-78.9912400829436
21
1.79131835481572
31
0.000000000000000
  0
LINE
  5
F106A4
330
F106A5
100
AcDbEntity
8
Geo
100
AcDbLine
10
-79.0912400829437
20
11.7142636324963
30
0.000000000000000
11
-78.9912400829436
21
11.5599073837758
31
0.000000000000000
  0
LINE
  5
F106A6
330
F106A7
100
AcDbEntity
8
Geo
100
AcDbLine
10
-78.9912400829436
20
1.79131835481572
30
0.000000000000000
11
-78.8912400829437
21
1.57700936603213
31
0.000000000000000
  0
LINE
  5
F106A8
330
F106A9
100
AcDbEntity
8
Geo
100
AcDbLine
10
-78.9912400829436
20
11.5599073837758
30
0.000000000000000
11
-78.8912400829437
21
11.3971838937720
31
0.000000000000000
  0
LINE
  5
F106AA
330
F106AB
100
AcDbEntity
8
Geo
100
AcDbLine
10
-78.8912400829437
20
1.57700936603213
30
0.000000000000000
11
-78.7912400829437
21
1.36912078873864
31
0.000000000000000
  0
LINE
  5
F106AC
330
F106AD
100
AcDbEntity
8
Geo
100
AcDbLine
10
-78.8912400829437
20
11.3971838937720
30
0.000000000000000
11
-78.7912400829437
21
11.2263342045614
31
0.000000000000000
  0
LINE
  5
F106AE
330
F106AF
100
AcDbEntity
8
Geo
100
AcDbLine
10
-78.7912400829437
20
1.36912078873864
30
0.000000000000000
11
-78.6912400829437
21
1.16796056799199
31
0.000000000000000
  0
LINE
  5
F106B0
330
F106B1
100
AcDbEntity
8
Geo
100
AcDbLine
10
-78.7912400829437
20
11.2263342045614
30
0.000000000000000
11
-78.6912400829437
21
11.0476113955481
31
0.000000000000000
  0
LINE
  5
F106B2
330
F106B3
100
AcDbEntity
8
Geo
100
AcDbLine
10
-78.6912400829437
20
1.16796056799199
30
0.000000000000000
11
-78.5912400829437
21
0.973826682143857
31
0.000000000000000
  0
LINE
  5
F106B4
330
F106B5
100
AcDbEntity
8
Geo
100
AcDbLine
10
-78.6912400829437
20
11.0476113955481
30
0.000000000000000
11
-78.5912400829437
21
10.8612802085773
31
0.000000000000000
  0
LINE
  5
F106B6
330
F106B7
100
AcDbEntity
8
Geo
100
AcDbLine
10
-78.5912400829437
20
0.973826682143857
30
0.000000000000000
11
-78.4912400829437
21
0.787006701445913
31
0.000000000000000
  0
LINE
  5
F106B8
330
F106B9
100
AcDbEntity
8
Geo
100
AcDbLine
10
-78.5912400829437
20
10.8612802085773
30
0.000000000000000
11
-78.4912400829437
21
10.6676166557738
31
0.000000000000000
  0
LINE
  5
F106BA
330
F106BB
100
AcDbEntity
8
Geo
100
AcDbLine
10
-78.4912400829437
20
0.787006701445913
30
0.000000000000000
11
-78.3912400829437
21
0.607777362072449
31
0.000000000000000
  0
LINE
  5
F106BC
330
F106BD
100
AcDbEntity
8
Geo
100
AcDbLine
10
-78.4912400829437
20
10.6676166557738
30
0.000000000000000
11
-78.3912400829437
21
10.4669076106856
31
0.000000000000000
  0
LINE
  5
F106BE
330
F106BF
100
AcDbEntity
8
Geo
100
AcDbLine
10
-78.3912400829437
20
0.607777362072449
30
0.000000000000000
11
-78.2912400829437
21
0.436404156191443
31
0.000000000000000
  0
LINE
  5
F106C0
330
F106C1
100
AcDbEntity
8
Geo
100
AcDbLine
10
-78.3912400829437
20
10.4669076106856
30
0.000000000000000
11
-78.2912400829437
21
10.2594503833385
31
0.000000000000000
  0
LINE
  5
F106C2
330
F106C3
100
AcDbEntity
8
Geo
100
AcDbLine
10
-78.2912400829437
20
0.436404156191443
30
0.000000000000000
11
-78.1912400829437
21
0.273140938691402
31
0.000000000000000
  0
LINE
  5
F106C4
330
F106C5
100
AcDbEntity
8
Geo
100
AcDbLine
10
-78.2912400829437
20
10.2594503833385
30
0.000000000000000
11
-78.1912400829437
21
10.0455522798313
31
0.000000000000000
  0
LINE
  5
F106C6
330
F106C7
100
AcDbEntity
8
Geo
100
AcDbLine
10
-78.1912400829437
20
0.273140938691402
30
0.000000000000000
11
-78.0912400829437
21
0.118229551146458
31
0.000000000000000
  0
LINE
  5
F106C8
330
F106C9
100
AcDbEntity
8
Geo
100
AcDbLine
10
-78.1912400829437
20
10.0455522798313
30
0.000000000000000
11
-78.0912400829437
21
9.82553014712334
31
0.000000000000000
  0
LINE
  5
F106CA
330
F106CB
100
AcDbEntity
8
Geo
100
AcDbLine
10
-78.0912400829437
20
0.118229551146458
30
0.000000000000000
11
-77.9912400829437
21
-0.0281005364231959
31
0.000000000000000
  0
LINE
  5
F106CC
330
F106CD
100
AcDbEntity
8
Geo
100
AcDbLine
10
-78.0912400829437
20
9.82553014712334
30
0.000000000000000
11
-77.9912400829437
21
9.59970990368996
31
0.000000000000000
  0
LINE
  5
F106CE
330
F106CF
100
AcDbEntity
8
Geo
100
AcDbLine
10
-77.9912400829437
20
-0.0281005364231959
30
0.000000000000000
11
-77.8912400829437
21
-0.165632565464942
31
0.000000000000000
  0
LINE
  5
F106D0
330
F106D1
100
AcDbEntity
8
Geo
100
AcDbLine
10
-77.9912400829437
20
9.59970990368996
30
0.000000000000000
11
-77.8912400829437
21
9.36842605673968
31
0.000000000000000
  0
LINE
  5
F106D2
330
F106D3
100
AcDbEntity
8
Geo
100
AcDbLine
10
-77.8912400829437
20
-0.165632565464942
30
0.000000000000000
11
-77.7912400829437
21
-0.294162809977865
31
0.000000000000000
  0
LINE
  5
F106D4
330
F106D5
100
AcDbEntity
8
Geo
100
AcDbLine
10
-77.8912400829437
20
9.36842605673968
30
0.000000000000000
11
-77.7912400829437
21
9.13202120670926
31
0.000000000000000
  0
LINE
  5
F106D6
330
F106D7
100
AcDbEntity
8
Geo
100
AcDbLine
10
-77.7912400829437
20
-0.294162809977865
30
0.000000000000000
11
-77.6912400829437
21
-0.413500878291795
31
0.000000000000000
  0
LINE
  5
F106D8
330
F106D9
100
AcDbEntity
8
Geo
100
AcDbLine
10
-77.7912400829437
20
9.13202120670926
30
0.000000000000000
11
-77.6912400829437
21
8.89084553977009
31
0.000000000000000
  0
LINE
  5
F106DA
330
F106DB
100
AcDbEntity
8
Geo
100
AcDbLine
10
-77.6912400829437
20
-0.413500878291795
30
0.000000000000000
11
-77.5912400829437
21
-0.523469995094218
31
0.000000000000000
  0
LINE
  5
F106DC
330
F106DD
100
AcDbEntity
8
Geo
100
AcDbLine
10
-77.6912400829437
20
8.89084553977009
30
0.000000000000000
11
-77.5912400829437
21
8.64525630909791
31
0.000000000000000
  0
LINE
  5
F106DE
330
F106DF
100
AcDbEntity
8
Geo
100
AcDbLine
10
-77.5912400829437
20
-0.523469995094218
30
0.000000000000000
11
-77.4912400829437
21
-0.623907263287302
31
0.000000000000000
  0
LINE
  5
F106E0
330
F106E1
100
AcDbEntity
8
Geo
100
AcDbLine
10
-77.5912400829437
20
8.64525630909791
30
0.000000000000000
11
-77.4912400829437
21
8.39561730567423
31
0.000000000000000
  0
LINE
  5
F106E2
330
F106E3
100
AcDbEntity
8
Geo
100
AcDbLine
10
-77.4912400829437
20
-0.623907263287302
30
0.000000000000000
11
-77.3912400829437
21
-0.714663905287126
31
0.000000000000000
  0
LINE
  5
F106E4
330
F106E5
100
AcDbEntity
8
Geo
100
AcDbLine
10
-77.4912400829437
20
8.39561730567423
30
0.000000000000000
11
-77.3912400829437
21
8.14229831940322
31
0.000000000000000
  0
LINE
  5
F106E6
330
F106E7
100
AcDbEntity
8
Geo
100
AcDbLine
10
-77.3912400829437
20
-0.714663905287126
30
0.000000000000000
11
-77.2912400829437
21
-0.795605483407723
31
0.000000000000000
  0
LINE
  5
F106E8
330
F106E9
100
AcDbEntity
8
Geo
100
AcDbLine
10
-77.3912400829437
20
8.14229831940322
30
0.000000000000000
11
-77.2912400829437
21
7.88567459134245
31
0.000000000000000
  0
LINE
  5
F106EA
330
F106EB
100
AcDbEntity
8
Geo
100
AcDbLine
10
-77.2912400829437
20
-0.795605483407723
30
0.000000000000000
11
-77.1912400829437
21
-0.866612099003425
31
0.000000000000000
  0
LINE
  5
F106EC
330
F106ED
100
AcDbEntity
8
Geo
100
AcDbLine
10
-77.2912400829437
20
7.88567459134245
30
0.000000000000000
11
-77.1912400829437
21
7.62612625785888
31
0.000000000000000
  0
LINE
  5
F106EE
330
F106EF
100
AcDbEntity
8
Geo
100
AcDbLine
10
-77.1912400829437
20
-0.866612099003425
30
0.000000000000000
11
-77.0912400829437
21
-0.927578570074559
31
0.000000000000000
  0
LINE
  5
F106F0
330
F106F1
100
AcDbEntity
8
Geo
100
AcDbLine
10
-77.1912400829437
20
7.62612625785888
30
0.000000000000000
11
-77.0912400829437
21
7.36403778753332
31
0.000000000000000
  0
LINE
  5
F106F2
330
F106F3
100
AcDbEntity
8
Geo
100
AcDbLine
10
-77.0912400829437
20
-0.927578570074559
30
0.000000000000000
11
-76.9912400829437
21
-0.978414587073392
31
0.000000000000000
  0
LINE
  5
F106F4
330
F106F5
100
AcDbEntity
8
Geo
100
AcDbLine
10
-77.0912400829437
20
7.36403778753332
30
0.000000000000000
11
-76.9912400829437
21
7.09979741164774
31
0.000000000000000
  0
LINE
  5
F106F6
330
F106F7
100
AcDbEntity
8
Geo
100
AcDbLine
10
-76.9912400829437
20
-0.978414587073392
30
0.000000000000000
11
-76.8912400829437
21
-1.01904484667955
31
0.000000000000000
  0
LINE
  5
F106F8
330
F106F9
100
AcDbEntity
8
Geo
100
AcDbLine
10
-76.9912400829437
20
7.09979741164774
30
0.000000000000000
11
-76.8912400829437
21
6.83379654909877
31
0.000000000000000
  0
LINE
  5
F106FA
330
F106FB
100
AcDbEntity
8
Geo
100
AcDbLine
10
-76.8912400829437
20
-1.01904484667955
30
0.000000000000000
11
-76.7912400829437
21
-1.04940916334669
31
0.000000000000000
  0
LINE
  5
F106FC
330
F106FD
100
AcDbEntity
8
Geo
100
AcDbLine
10
-76.8912400829437
20
6.83379654909877
30
0.000000000000000
11
-76.7912400829437
21
6.56642922658947
31
0.000000000000000
  0
LINE
  5
F106FE
330
F106FF
100
AcDbEntity
8
Geo
100
AcDbLine
10
-76.7912400829437
20
-1.04940916334669
30
0.000000000000000
11
-76.6912400829437
21
-1.06946255845531
31
0.000000000000000
  0
LINE
  5
F10700
330
F10701
100
AcDbEntity
8
Geo
100
AcDbLine
10
-76.7912400829437
20
6.56642922658947
30
0.000000000000000
11
-76.6912400829437
21
6.29809149495809
31
0.000000000000000
  0
LINE
  5
F10702
330
F10703
100
AcDbEntity
8
Geo
100
AcDbLine
10
-76.6912400829437
20
-1.06946255845531
30
0.000000000000000
11
-76.5912400829437
21
-1.07917532693947
31
0.000000000000000
  0
LINE
  5
F10704
330
F10705
100
AcDbEntity
8
Geo
100
AcDbLine
10
-76.6912400829437
20
6.29809149495809
30
0.000000000000000
11
-76.5912400829437
21
6.02918084250856
31
0.000000000000000
  0
LINE
  5
F10706
330
F10707
100
AcDbEntity
8
Geo
100
AcDbLine
10
-76.5912400829437
20
6.02918084250856
30
0.000000000000000
11
-76.4912400829437
21
5.76009560621161
31
0.000000000000000
  0
LINE
  5
F10708
330
F10709
100
AcDbEntity
8
Geo
100
AcDbLine
10
-76.4912400829437
20
12.9011774728311
30
0.000000000000000
11
-76.3912400829437
21
12.8901811644034
31
0.000000000000000
  0
LINE
  5
F1070A
330
F1070B
100
AcDbEntity
8
Geo
100
AcDbLine
10
-76.4912400829437
20
5.76009560621161
30
0.000000000000000
11
-76.3912400829437
21
5.49123438164879
31
0.000000000000000
  0
LINE
  5
F1070C
330
F1070D
100
AcDbEntity
8
Geo
100
AcDbLine
10
-76.3912400829437
20
12.8901811644034
30
0.000000000000000
11
-76.2912400829437
21
12.8688470820147
31
0.000000000000000
  0
LINE
  5
F1070E
330
F1070F
100
AcDbEntity
8
Geo
100
AcDbLine
10
-76.3912400829437
20
5.49123438164879
30
0.000000000000000
11
-76.2912400829437
21
5.22299543257337
31
0.000000000000000
  0
LINE
  5
F10710
330
F10711
100
AcDbEntity
8
Geo
100
AcDbLine
10
-76.2912400829437
20
12.8688470820147
30
0.000000000000000
11
-76.1912400829437
21
12.8372068278112
31
0.000000000000000
  0
LINE
  5
F10712
330
F10713
100
AcDbEntity
8
Geo
100
AcDbLine
10
-76.2912400829437
20
5.22299543257337
30
0.000000000000000
11
-76.1912400829437
21
4.95577610096280
31
0.000000000000000
  0
LINE
  5
F10714
330
F10715
100
AcDbEntity
8
Geo
100
AcDbLine
10
-76.1912400829437
20
12.8372068278112
30
0.000000000000000
11
-76.0912400829437
21
12.7953072704570
31
0.000000000000000
  0
LINE
  5
F10716
330
F10717
100
AcDbEntity
8
Geo
100
AcDbLine
10
-76.1912400829437
20
4.95577610096280
30
0.000000000000000
11
-76.0912400829437
21
4.68997221843665
31
0.000000000000000
  0
LINE
  5
F10718
330
F10719
100
AcDbEntity
8
Geo
100
AcDbLine
10
-76.0912400829437
20
12.7953072704570
30
0.000000000000000
11
-75.9912400829437
21
12.7432104757073
31
0.000000000000000
  0
LINE
  5
F1071A
330
F1071B
100
AcDbEntity
8
Geo
100
AcDbLine
10
-76.0912400829437
20
4.68997221843665
30
0.000000000000000
11
-75.9912400829437
21
4.42597751991173
31
0.000000000000000
  0
LINE
  5
F1071C
330
F1071D
100
AcDbEntity
8
Geo
100
AcDbLine
10
-75.9912400829437
20
12.7432104757073
30
0.000000000000000
11
-75.8912400829437
21
12.6809936144708
31
0.000000000000000
  0
LINE
  5
F1071E
330
F1071F
100
AcDbEntity
8
Geo
100
AcDbLine
10
-75.9912400829437
20
4.42597751991173
30
0.000000000000000
11
-75.8912400829437
21
4.16418306036315
31
0.000000000000000
  0
LINE
  5
F10720
330
F10721
100
AcDbEntity
8
Geo
100
AcDbLine
10
-75.8912400829437
20
12.6809936144708
30
0.000000000000000
11
-75.7912400829437
21
12.6087488484964
31
0.000000000000000
  0
LINE
  5
F10722
330
F10723
100
AcDbEntity
8
Geo
100
AcDbLine
10
-75.8912400829437
20
4.16418306036315
30
0.000000000000000
11
-75.7912400829437
21
3.90497663555512
31
0.000000000000000
  0
LINE
  5
F10724
330
F10725
100
AcDbEntity
8
Geo
100
AcDbLine
10
-75.7912400829437
20
12.6087488484964
30
0.000000000000000
11
-75.6912400829437
21
12.5265831938542
31
0.000000000000000
  0
LINE
  5
F10726
330
F10727
100
AcDbEntity
8
Geo
100
AcDbLine
10
-75.7912400829437
20
3.90497663555512
30
0.000000000000000
11
-75.6912400829437
21
3.64874220759963
31
0.000000000000000
  0
LINE
  5
F10728
330
F10729
100
AcDbEntity
8
Geo
100
AcDbLine
10
-75.6912400829437
20
12.5265831938542
30
0.000000000000000
11
-75.5912400829437
21
12.4346183624127
31
0.000000000000000
  0
LINE
  5
F1072A
330
F1072B
100
AcDbEntity
8
Geo
100
AcDbLine
10
-75.6912400829437
20
3.64874220759963
30
0.000000000000000
11
-75.5912400829437
21
3.39585933619392
31
0.000000000000000
  0
LINE
  5
F1072C
330
F1072D
100
AcDbEntity
8
Geo
100
AcDbLine
10
-75.5912400829437
20
12.4346183624127
30
0.000000000000000
11
-75.4912400829437
21
12.3329905815472
31
0.000000000000000
  0
LINE
  5
F1072E
330
F1072F
100
AcDbEntity
8
Geo
100
AcDbLine
10
-75.5912400829437
20
3.39585933619392
30
0.000000000000000
11
-75.4912400829437
21
3.14670261637923
31
0.000000000000000
  0
LINE
  5
F10730
330
F10731
100
AcDbEntity
8
Geo
100
AcDbLine
10
-75.4912400829437
20
12.3329905815472
30
0.000000000000000
11
-75.3912400829437
21
12.2218503923464
31
0.000000000000000
  0
LINE
  5
F10732
330
F10733
100
AcDbEntity
8
Geo
100
AcDbLine
10
-75.4912400829437
20
3.14670261637923
30
0.000000000000000
11
-75.3912400829437
21
2.90164112365371
31
0.000000000000000
  0
LINE
  5
F10734
330
F10735
100
AcDbEntity
8
Geo
100
AcDbLine
10
-75.3912400829437
20
12.2218503923464
30
0.000000000000000
11
-75.2912400829437
21
12.1013624266159
31
0.000000000000000
  0
LINE
  5
F10736
330
F10737
100
AcDbEntity
8
Geo
100
AcDbLine
10
-75.3912400829437
20
2.90164112365371
30
0.000000000000000
11
-75.2912400829437
21
2.66103786726139
31
0.000000000000000
  0
LINE
  5
F10738
330
F10739
100
AcDbEntity
8
Geo
100
AcDbLine
10
-75.2912400829437
20
12.1013624266159
30
0.000000000000000
11
-75.1912400829437
21
11.9717051630098
31
0.000000000000000
  0
LINE
  5
F1073A
330
F1073B
100
AcDbEntity
8
Geo
100
AcDbLine
10
-75.2912400829437
20
2.66103786726139
30
0.000000000000000
11
-75.1912400829437
21
2.42524925246706
31
0.000000000000000
  0
LINE
  5
F1073C
330
F1073D
100
AcDbEntity
8
Geo
100
AcDbLine
10
-75.1912400829437
20
11.9717051630098
30
0.000000000000000
11
-75.0912400829437
21
11.8330706626499
31
0.000000000000000
  0
LINE
  5
F1073E
330
F1073F
100
AcDbEntity
8
Geo
100
AcDbLine
10
-75.1912400829437
20
2.42524925246706
30
0.000000000000000
11
-75.0912400829437
21
2.19462455261374
31
0.000000000000000
  0
LINE
  5
F10740
330
F10741
100
AcDbEntity
8
Geo
100
AcDbLine
10
-75.0912400829437
20
11.8330706626499
30
0.000000000000000
11
-74.9912400829437
21
11.6856642846265
31
0.000000000000000
  0
LINE
  5
F10742
330
F10743
100
AcDbEntity
8
Geo
100
AcDbLine
10
-75.0912400829437
20
2.19462455261374
30
0.000000000000000
11
-74.9912400829437
21
1.96950539174450
31
0.000000000000000
  0
LINE
  5
F10744
330
F10745
100
AcDbEntity
8
Geo
100
AcDbLine
10
-74.9912400829437
20
11.6856642846265
30
0.000000000000000
11
-74.8912400829437
21
11.5297043817996
31
0.000000000000000
  0
LINE
  5
F10746
330
F10747
100
AcDbEntity
8
Geo
100
AcDbLine
10
-74.9912400829437
20
1.96950539174450
30
0.000000000000000
11
-74.8912400829437
21
1.75022523855528
31
0.000000000000000
  0
LINE
  5
F10748
330
F10749
100
AcDbEntity
8
Geo
100
AcDbLine
10
-74.8912400829437
20
11.5297043817996
30
0.000000000000000
11
-74.7912400829437
21
11.3654219773537
31
0.000000000000000
  0
LINE
  5
F1074A
330
F1074B
100
AcDbEntity
8
Geo
100
AcDbLine
10
-74.8912400829437
20
1.75022523855528
30
0.000000000000000
11
-74.7912400829437
21
1.53710891242814
31
0.000000000000000
  0
LINE
  5
F1074C
330
F1074D
100
AcDbEntity
8
Geo
100
AcDbLine
10
-74.7912400829437
20
11.3654219773537
30
0.000000000000000
11
-74.6912400829437
21
11.1930604225831
31
0.000000000000000
  0
LINE
  5
F1074E
330
F1074F
100
AcDbEntity
8
Geo
100
AcDbLine
10
-74.7912400829437
20
1.53710891242814
30
0.000000000000000
11
-74.6912400829437
21
1.33047210227684
31
0.000000000000000
  0
LINE
  5
F10750
330
F10751
100
AcDbEntity
8
Geo
100
AcDbLine
10
-74.6912400829437
20
11.1930604225831
30
0.000000000000000
11
-74.5912400829437
21
11.0128750364161
31
0.000000000000000
  0
LINE
  5
F10752
330
F10753
100
AcDbEntity
8
Geo
100
AcDbLine
10
-74.6912400829437
20
1.33047210227684
30
0.000000000000000
11
-74.5912400829437
21
1.13062089891718
31
0.000000000000000
  0
LINE
  5
F10754
330
F10755
100
AcDbEntity
8
Geo
100
AcDbLine
10
-74.5912400829437
20
11.0128750364161
30
0.000000000000000
11
-74.4912400829437
21
10.8251327272114
31
0.000000000000000
  0
LINE
  5
F10756
330
F10757
100
AcDbEntity
8
Geo
100
AcDbLine
10
-74.5912400829437
20
1.13062089891718
30
0.000000000000000
11
-74.4912400829437
21
0.937851341655259
31
0.000000000000000
  0
LINE
  5
F10758
330
F10759
100
AcDbEntity
8
Geo
100
AcDbLine
10
-74.4912400829437
20
10.8251327272114
30
0.000000000000000
11
-74.3912400829437
21
10.6301115973873
31
0.000000000000000
  0
LINE
  5
F1075A
330
F1075B
100
AcDbEntity
8
Geo
100
AcDbLine
10
-74.4912400829437
20
0.937851341655259
30
0.000000000000000
11
-74.3912400829437
21
0.752448979764721
31
0.000000000000000
  0
LINE
  5
F1075C
330
F1075D
100
AcDbEntity
8
Geo
100
AcDbLine
10
-74.3912400829437
20
10.6301115973873
30
0.000000000000000
11
-74.2912400829437
21
10.4281005314687
31
0.000000000000000
  0
LINE
  5
F1075E
330
F1075F
100
AcDbEntity
8
Geo
100
AcDbLine
10
-74.3912400829437
20
0.752448979764721
30
0.000000000000000
11
-74.2912400829437
21
0.574688449503118
31
0.000000000000000
  0
LINE
  5
F10760
330
F10761
100
AcDbEntity
8
Geo
100
AcDbLine
10
-74.2912400829437
20
10.4281005314687
30
0.000000000000000
11
-74.1912400829437
21
10.2193987681630
31
0.000000000000000
  0
LINE
  5
F10762
330
F10763
100
AcDbEntity
8
Geo
100
AcDbLine
10
-74.2912400829437
20
0.574688449503118
30
0.000000000000000
11
-74.1912400829437
21
0.404833067293560
31
0.000000000000000
  0
LINE
  5
F10764
330
F10765
100
AcDbEntity
8
Geo
100
AcDbLine
10
-74.1912400829437
20
10.2193987681630
30
0.000000000000000
11
-74.0912400829437
21
10.0043154570983
31
0.000000000000000
  0
LINE
  5
F10766
330
F10767
100
AcDbEntity
8
Geo
100
AcDbLine
10
-74.1912400829437
20
0.404833067293560
30
0.000000000000000
11
-74.0912400829437
21
0.243134439674485
31
0.000000000000000
  0
LINE
  5
F10768
330
F10769
100
AcDbEntity
8
Geo
100
AcDbLine
10
-74.0912400829437
20
10.0043154570983
30
0.000000000000000
11
-73.9912400829437
21
9.78316920088028
31
0.000000000000000
  0
LINE
  5
F1076A
330
F1076B
100
AcDbEntity
8
Geo
100
AcDbLine
10
-74.0912400829437
20
0.243134439674485
30
0.000000000000000
11
-73.9912400829437
21
0.0898320905952383
31
0.000000000000000
  0
LINE
  5
F1076C
330
F1076D
100
AcDbEntity
8
Geo
100
AcDbLine
10
-73.9912400829437
20
9.78316920088028
30
0.000000000000000
11
-73.8912400829437
21
9.55628758314685
31
0.000000000000000
  0
LINE
  5
F1076E
330
F1076F
100
AcDbEntity
8
Geo
100
AcDbLine
10
-73.9912400829437
20
0.0898320905952383
30
0.000000000000000
11
-73.8912400829437
21
-0.0548468933904012
31
0.000000000000000
  0
LINE
  5
F10770
330
F10771
100
AcDbEntity
8
Geo
100
AcDbLine
10
-73.8912400829437
20
9.55628758314685
30
0.000000000000000
11
-73.7912400829437
21
9.32400668331879
31
0.000000000000000
  0
LINE
  5
F10772
330
F10773
100
AcDbEntity
8
Geo
100
AcDbLine
10
-73.8912400829437
20
-0.0548468933904012
30
0.000000000000000
11
-73.7912400829437
21
-0.190688199507227
31
0.000000000000000
  0
LINE
  5
F10774
330
F10775
100
AcDbEntity
8
Geo
100
AcDbLine
10
-73.7912400829437
20
9.32400668331879
30
0.000000000000000
11
-73.6912400829437
21
9.08667057876587
31
0.000000000000000
  0
LINE
  5
F10776
330
F10777
100
AcDbEntity
8
Geo
100
AcDbLine
10
-73.7912400829437
20
-0.190688199507227
30
0.000000000000000
11
-73.6912400829437
21
-0.317490606219812
31
0.000000000000000
  0
LINE
  5
F10778
330
F10779
100
AcDbEntity
8
Geo
100
AcDbLine
10
-73.6912400829437
20
9.08667057876587
30
0.000000000000000
11
-73.5912400829437
21
8.84463083512550
31
0.000000000000000
  0
LINE
  5
F1077A
330
F1077B
100
AcDbEntity
8
Geo
100
AcDbLine
10
-73.6912400829437
20
-0.317490606219812
30
0.000000000000000
11
-73.5912400829437
21
-0.435066281301689
31
0.000000000000000
  0
LINE
  5
F1077C
330
F1077D
100
AcDbEntity
8
Geo
100
AcDbLine
10
-73.5912400829437
20
8.84463083512550
30
0.000000000000000
11
-73.4912400829437
21
8.59824598552902
31
0.000000000000000
  0
LINE
  5
F1077E
330
F1077F
100
AcDbEntity
8
Geo
100
AcDbLine
10
-73.5912400829437
20
-0.435066281301689
30
0.000000000000000
11
-73.4912400829437
21
-0.543241060070953
31
0.000000000000000
  0
LINE
  5
F10780
330
F10781
100
AcDbEntity
8
Geo
100
AcDbLine
10
-73.4912400829437
20
8.59824598552902
30
0.000000000000000
11
-73.3912400829437
21
8.34788099950714
31
0.000000000000000
  0
LINE
  5
F10782
330
F10783
100
AcDbEntity
8
Geo
100
AcDbLine
10
-73.4912400829437
20
-0.543241060070953
30
0.000000000000000
11
-73.3912400829437
21
-0.641854703380170
31
0.000000000000000
  0
LINE
  5
F10784
330
F10785
100
AcDbEntity
8
Geo
100
AcDbLine
10
-73.3912400829437
20
8.34788099950714
30
0.000000000000000
11
-73.2912400829437
21
8.09390674236100
31
0.000000000000000
  0
LINE
  5
F10786
330
F10787
100
AcDbEntity
8
Geo
100
AcDbLine
10
-73.3912400829437
20
-0.641854703380170
30
0.000000000000000
11
-73.2912400829437
21
-0.730761134978400
31
0.000000000000000
  0
LINE
  5
F10788
330
F10789
100
AcDbEntity
8
Geo
100
AcDbLine
10
-73.2912400829437
20
8.09390674236100
30
0.000000000000000
11
-73.1912400829437
21
7.83669942580004
31
0.000000000000000
  0
LINE
  5
F1078A
330
F1078B
100
AcDbEntity
8
Geo
100
AcDbLine
10
-73.2912400829437
20
-0.730761134978400
30
0.000000000000000
11
-73.1912400829437
21
-0.809828657893732
31
0.000000000000000
  0
LINE
  5
F1078C
330
F1078D
100
AcDbEntity
8
Geo
100
AcDbLine
10
-73.1912400829437
20
7.83669942580004
30
0.000000000000000
11
-73.0912400829437
21
7.57664005066001
31
0.000000000000000
  0
LINE
  5
F1078E
330
F1078F
100
AcDbEntity
8
Geo
100
AcDbLine
10
-73.1912400829437
20
-0.809828657893732
30
0.000000000000000
11
-73.0912400829437
21
-0.878940149515836
31
0.000000000000000
  0
LINE
  5
F10790
330
F10791
100
AcDbEntity
8
Geo
100
AcDbLine
10
-73.0912400829437
20
7.57664005066001
30
0.000000000000000
11
-72.9912400829437
21
7.31411384252702
31
0.000000000000000
  0
LINE
  5
F10792
330
F10793
100
AcDbEntity
8
Geo
100
AcDbLine
10
-73.0912400829437
20
-0.878940149515836
30
0.000000000000000
11
-72.9912400829437
21
-0.937993235089510
31
0.000000000000000
  0
LINE
  5
F10794
330
F10795
100
AcDbEntity
8
Geo
100
AcDbLine
10
-72.9912400829437
20
7.31411384252702
30
0.000000000000000
11
-72.8912400829437
21
7.04950968110343
31
0.000000000000000
  0
LINE
  5
F10796
330
F10797
100
AcDbEntity
8
Geo
100
AcDbLine
10
-72.9912400829437
20
-0.937993235089510
30
0.000000000000000
11
-72.8912400829437
21
-0.986900439362265
31
0.000000000000000
  0
LINE
  5
F10798
330
F10799
100
AcDbEntity
8
Geo
100
AcDbLine
10
-72.8912400829437
20
7.04950968110343
30
0.000000000000000
11
-72.7912400829437
21
6.78321952416088
31
0.000000000000000
  0
LINE
  5
F1079A
330
F1079B
100
AcDbEntity
8
Geo
100
AcDbLine
10
-72.8912400829437
20
-0.986900439362265
30
0.000000000000000
11
-72.7912400829437
21
-1.02558931616130
31
0.000000000000000
  0
LINE
  5
F1079C
330
F1079D
100
AcDbEntity
8
Geo
100
AcDbLine
10
-72.7912400829437
20
6.78321952416088
30
0.000000000000000
11
-72.6912400829437
21
6.51563782693380
31
0.000000000000000
  0
LINE
  5
F1079E
330
F1079F
100
AcDbEntity
8
Geo
100
AcDbLine
10
-72.7912400829437
20
-1.02558931616130
30
0.000000000000000
11
-72.6912400829437
21
-1.05400255570789
31
0.000000000000000
  0
LINE
  5
F107A0
330
F107A1
100
AcDbEntity
8
Geo
100
AcDbLine
10
-84.6912400829437
20
5.91132219577108
30
0.000000000000000
11
-84.6912400829437
21
5.91132219577108
31
0.000000000000000
  0
LINE
  5
F107A2
330
F107A3
100
AcDbEntity
8
Geo
100
AcDbLine
10
-84.6912400829437
20
5.91132219577108
30
0.000000000000000
11
-84.6912400829437
21
5.91132219577108
31
0.000000000000000
  0
LINE
  5
F107A4
330
F107A5
100
AcDbEntity
8
Geo
100
AcDbLine
10
-85.6912400829437
20
5.91132219577108
30
0.000000000000000
11
-85.3912400829437
21
5.91132219577108
31
0.000000000000000
  0
LINE
  5
F107A6
330
F107A7
100
AcDbEntity
8
Geo
100
AcDbLine
10
-85.2637400829437
20
5.91132219577108
30
0.000000000000000
11
-85.1787400829436
21
5.91132219577108
31
0.000000000000000
  0
LINE
  5
F107A8
330
F107A9
100
AcDbEntity
8
Geo
100
AcDbLine
10
-84.9662400829437
20
5.91132219577108
30
0.000000000000000
11
-84.5412400829436
21
5.91132219577108
31
0.000000000000000
  0
LINE
  5
F107AA
330
F107AB
100
AcDbEntity
8
Geo
100
AcDbLine
10
-84.4137400829436
20
5.91132219577108
30
0.000000000000000
11
-84.3287400829437
21
5.91132219577108
31
0.000000000000000
  0
LINE
  5
F107AC
330
F107AD
100
AcDbEntity
8
Geo
100
AcDbLine
10
-84.1162400829436
20
5.91132219577108
30
0.000000000000000
11
-83.6912400829437
21
5.91132219577108
31
0.000000000000000
  0
LINE
  5
F107AE
330
F107AF
100
AcDbEntity
8
Geo
100
AcDbLine
10
4.30875991705635
20
12.7113221957711
30
0.000000000000000
11
4.30875991705635
21
5.91132219577108
31
0.000000000000000
  0
LINE
  5
F107B0
330
F107B1
100
AcDbEntity
8
Geo
100
AcDbLine
10
-84.4823250102920
20
5.91132219577108
30
0.000000000000000
11
-84.6906309099627
21
-0.0537783075264198
31
0.000000000000000
  0
ARC
  5
F107B2
330
F107B3
100
AcDbEntity
8
Geo
100
AcDbCircle
10
-83.6912400829437
20
-0.0886778042289222
30
0.000000000000000
 40
1.00000000000000
100
AcDbArc
 50
178.000000000000
 51
270.000000000000
  0
LINE
  5
F107B4
330
F107B5
100
AcDbEntity
8
Geo
100
AcDbLine
10
-83.6912400829437
20
-1.08867780422892
30
0.000000000000000
11
-67.6912400829437
21
-1.08867780422892
31
0.000000000000000
  0
LINE
  5
F107B6
330
F107B7
100
AcDbEntity
8
Geo
100
AcDbLine
10
-67.6912400829437
20
-1.08867780422892
30
0.000000000000000
11
4.10875991705635
21
-1.08867780422892
31
0.000000000000000
  0
LINE
  5
F107B8
330
F107B9
100
AcDbEntity
8
Geo
100
AcDbLine
10
4.10875991705635
20
-1.08867780422892
30
0.000000000000000
11
4.30875991705635
21
-0.888677804228922
31
0.000000000000000
  0
LINE
  5
F107BA
330
F107BB
100
AcDbEntity
8
Geo
100
AcDbLine
10
-83.6912400829437
20
12.9113221957711
30
0.000000000000000
11
-83.6912400829437
21
-1.08867780422892
31
0.000000000000000
  0
LINE
  5
F107BC
330
F107BD
100
AcDbEntity
8
Geo
100
AcDbLine
10
-83.6912400829437
20
12.9113221957711
30
0.000000000000000
11
-83.6912400829437
21
-1.08867780422892
31
0.000000000000000
  0
LINE
  5
F107BE
330
F107BF
100
AcDbEntity
8
Geo
100
AcDbLine
10
-67.6912400829437
20
12.9113221957711
30
0.000000000000000
11
-67.6912400829437
21
-1.08867780422892
31
0.000000000000000
  0
LINE
  5
F107C0
330
F107C1
100
AcDbEntity
8
Geo
100
AcDbLine
10
-67.6912400829437
20
12.9113221957711
30
0.000000000000000
11
-67.6912400829437
21
-1.08867780422892
31
0.000000000000000
  0
LINE
  5
F107C2
330
F107C3
100
AcDbEntity
8
Geo
100
AcDbLine
10
4.10875991705635
20
12.9113221957711
30
0.000000000000000
11
4.10875991705635
21
-1.08867780422892
31
0.000000000000000
  0
LINE
  5
F107C4
330
F107C5
100
AcDbEntity
8
Geo
100
AcDbLine
10
4.30875991705635
20
12.7113221957711
30
0.000000000000000
11
4.30875991705635
21
-0.888677804228922
31
0.000000000000000
  0
LWPOLYLINE
  5
F107C6
330
F107C7
100
AcDbEntity
8
Rahmen
100
AcDbPolyline
90
   4
70
   1
43
   0.0
 10
-125.570246838913
 20
102.889913381948
 10
134.491650280517
 20
102.889913381948
 10
134.491650280517
 20
-102.998589118409
 10
-125.570246838913
 20
-102.998589118409
  0
TEXT
  5
F107C8
330
F107C9
 100
AcDbEntity
8
Text
100
AcDbText
10
-124.534143663139
20
-102.498589118409
30
0.000000000000000
40
1.00000000000000
1
ISBESketcher
100
AcDbText
  0
LWPOLYLINE
  5
F107CA
330
F107CB
100
AcDbEntity
8
Rahmen
100
AcDbPolyline
90
   4
70
   1
43
   0.0
 10
94.3796559040994
 20
-99.8902795910847
 10
134.491650280517
 20
-99.8902795910847
 10
134.491650280517
 20
-102.998589118409
 10
94.3796559040994
 20
-102.998589118409
  0
TEXT
  5
F107CC
330
F107CD
 100
AcDbEntity
8
Text
100
AcDbText
10
95.5000000000000
20
-101.990073696982
30
0.000000000000000
40
0.750000000000000
1
Created by:
100
AcDbText
  0
TEXT
  5
F107CE
330
F107CF
 100
AcDbEntity
8
Text
100
AcDbText
10
120.649815757545
20
-101.990073696982
30
0.000000000000000
40
0.750000000000000
1
nsarkol
100
AcDbText
  0
LWPOLYLINE
  5
F107D0
330
F107D1
100
AcDbEntity
8
Rahmen
100
AcDbPolyline
90
   4
70
   1
43
   0.0
 10
54.4156762670782
 20
-99.8902795910847
 10
94.3796559040994
 20
-99.8902795910847
 10
94.3796559040994
 20
-102.998589118409
 10
54.4156762670782
 20
-102.998589118409
  0
TEXT
  5
F107D2
330
F107D3
 100
AcDbEntity
8
Text
100
AcDbText
10
55.5000000000000
20
-101.990073696982
30
0.000000000000000
40
0.750000000000000
1
Created for:
100
AcDbText
  0
TEXT
  5
F107D4
330
F107D5
 100
AcDbEntity
8
Text
100
AcDbText
10
0.000000000000000
20
0.250000000000000
30
0.000000000000000
40
0.750000000000000
1

100
AcDbText
  0
LWPOLYLINE
  5
F107D6
330
F107D7
100
AcDbEntity
8
Rahmen
100
AcDbPolyline
90
   4
70
   1
43
   0.0
 10
121.022308995447
 20
-96.9299848031573
 10
134.491650280517
 20
-96.9299848031573
 10
134.491650280517
 20
-99.8902795910847
 10
121.022308995447
 20
-99.8902795910847
  0
TEXT
  5
F107D8
330
F107D9
 100
AcDbEntity
8
Text
100
AcDbText
10
122.166666666667
20
-98.9900736969819
30
0.000000000000000
40
0.750000000000000
1
Pages
100
AcDbText
  0
TEXT
  5
F107DA
330
F107DB
 100
AcDbEntity
8
Text
100
AcDbText
10
0.000000000000000
20
0.250000000000000
30
0.000000000000000
40
0.750000000000000
1

100
AcDbText
  0
LWPOLYLINE
  5
F107DC
330
F107DD
100
AcDbEntity
8
Rahmen
100
AcDbPolyline
90
   4
70
   1
43
   0.0
 10
121.022308995447
 20
-93.9696900152298
 10
134.491650280517
 20
-93.9696900152298
 10
134.491650280517
 20
-96.9299848031573
 10
121.022308995447
 20
-96.9299848031573
  0
TEXT
  5
F107DE
330
F107DF
 100
AcDbEntity
8
Text
100
AcDbText
10
122.166666666667
20
-95.9900736969819
30
0.000000000000000
40
0.750000000000000
1
Page
100
AcDbText
  0
TEXT
  5
F107E0
330
F107E1
 100
AcDbEntity
8
Text
100
AcDbText
10
0.000000000000000
20
0.250000000000000
30
0.000000000000000
40
0.750000000000000
1

100
AcDbText
  0
LWPOLYLINE
  5
F107E2
330
F107E3
100
AcDbEntity
8
Rahmen
100
AcDbPolyline
90
   4
70
   1
43
   0.0
 10
54.4156762670782
 20
-93.9696900152298
 10
121.022308995447
 20
-93.9696900152298
 10
121.022308995447
 20
-99.8902795910847
 10
54.4156762670782
 20
-99.8902795910847
  0
TEXT
  5
F107E4
330
F107E5
 100
AcDbEntity
8
Text
100
AcDbText
10
55.5000000000000
20
-95.9900736969819
30
0.000000000000000
40
0.750000000000000
1
Date:
100
AcDbText
  0
TEXT
  5
F107E6
330
F107E7
 100
AcDbEntity
8
Text
100
AcDbText
10
85.0950606545004
20
-98.9900736969819
30
0.000000000000000
40
0.750000000000000
1
05.07.2016
100
AcDbText
  0
LWPOLYLINE
  5
F107E8
330
F107E9
100
AcDbEntity
8
Rahmen
100
AcDbPolyline
90
   4
70
   1
43
   0.0
 10
54.4156762670782
 20
-87.9010856999784
 10
134.491650280517
 20
-87.9010856999784
 10
134.491650280517
 20
-93.9696900152298
 10
54.4156762670782
 20
-93.9696900152298
  0
TEXT
  5
F107EA
330
F107EB
 100
AcDbEntity
8
Text
100
AcDbText
10
0.000000000000000
20
0.500000000000000
30
0.000000000000000
40
1.50000000000000
1

100
AcDbText
  0
TEXT
  5
F107EC
330
F107ED
 100
AcDbEntity
8
Text
100
AcDbText
10
64.3790005328378
20
-92.6089098667069
30
0.000000000000000
40
2.50000000000000
1
VHVTR 4 140 089 14 03 100 S 
100
AcDbText
  0
LWPOLYLINE
  5
F107EE
330
F107EF
100
AcDbEntity
8
Rahmen
100
AcDbPolyline
90
   4
70
   1
43
   0.0
 10
94.3796559040994
 20
-81.9804961241234
 10
134.491650280517
 20
-81.9804961241234
 10
134.491650280517
 20
-87.9010856999784
 10
94.3796559040994
 20
-87.9010856999784
  0
TEXT
  5
F107F0
330
F107F1
 100
AcDbEntity
8
Text
100
AcDbText
10
95.5000000000000
20
-83.9900736969819
30
0.000000000000000
40
0.750000000000000
1
Work piece material:
100
AcDbText
  0
TEXT
  5
F107F2
330
F107F3
 100
AcDbEntity
8
Text
100
AcDbText
10
0.000000000000000
20
0.250000000000000
30
0.000000000000000
40
0.750000000000000
1

100
AcDbText
  0
LWPOLYLINE
  5
F107F4
330
F107F5
100
AcDbEntity
8
Rahmen
100
AcDbPolyline
90
   4
70
   1
43
   0.0
 10
54.4156762670782
 20
-81.9804961241234
 10
94.3796559040994
 20
-81.9804961241234
 10
94.3796559040994
 20
-87.9010856999784
 10
54.4156762670782
 20
-87.9010856999784
  0
TEXT
  5
F107F6
330
F107F7
 100
AcDbEntity
8
Text
100
AcDbText
10
55.5000000000000
20
-83.9900736969819
30
0.000000000000000
40
0.750000000000000
1
Tool material:
100
AcDbText
  0
TEXT
  5
F107F8
330
F107F9
 100
AcDbEntity
8
Text
100
AcDbText
10
0.000000000000000
20
0.250000000000000
30
0.000000000000000
40
0.750000000000000
1

100
AcDbText
  0
LWPOLYLINE
  5
F107FA
330
F107FB
100
AcDbEntity
8
Rahmen
100
AcDbPolyline
90
   4
70
   1
43
   0.0
 10
94.3796559040994
 20
-78.8721865967996
 10
134.491650280517
 20
-78.8721865967996
 10
134.491650280517
 20
-81.9804961241234
 10
94.3796559040994
 20
-81.9804961241234
  0
TEXT
  5
F107FC
330
F107FD
 100
AcDbEntity
8
Text
100
AcDbText
10
0.000000000000000
20
0.500000000000000
30
0.000000000000000
40
1.50000000000000
1

100
AcDbText
  0
TEXT
  5
F107FE
330
F107FF
 100
AcDbEntity
8
Text
100
AcDbText
10
0.000000000000000
20
0.250000000000000
30
0.000000000000000
40
0.750000000000000
1

100
AcDbText
  0
LWPOLYLINE
  5
F10800
330
F10801
100
AcDbEntity
8
Rahmen
100
AcDbPolyline
90
   4
70
   1
43
   0.0
 10
54.4156762670782
 20
-78.8721865967996
 10
94.3796559040994
 20
-78.8721865967996
 10
94.3796559040994
 20
-81.9804961241234
 10
54.4156762670782
 20
-81.9804961241234
  0
TEXT
  5
F10802
330
F10803
 100
AcDbEntity
8
Text
100
AcDbText
10
55.5000000000000
20
-80.9900736969819
30
0.000000000000000
40
0.750000000000000
1
Scale:
100
AcDbText
  0
TEXT
  5
F10804
330
F10805
 100
AcDbEntity
8
Text
100
AcDbText
10
81.3898894545272
20
-80.9900736969819
30
0.000000000000000
40
0.750000000000000
1
2 : 1
100
AcDbText
0
VIEWPORT
5
294
102
{ACAD_XDICTIONARY
360
58A
102
}
330
25D
100
AcDbEntity
67
1
8
0
60
1
100
AcDbViewport
10
0.0
20
0.0
30
0.0
40
10.0
41
10.0
68
-1
69
1
12
0.0
22
0.0
13
0.0
23
0.0
14
1.0
24
1.0
15
0.0
25
0.0
16
0.0
26
0.0
36
1.0
17
0.0
27
0.0
37
0.0
42
0.0
43
0.0
44
0.0
45
10.0
50
0.0
51
0.0000000000007958
72
100
90
32800
1

281
0
71
0
74
0
110
0.0
120
0.0
130
0.0
111
1.0
121
0.0
131
0.0
112
0.0
122
1.0
132
0.0
79
0
146
0.0
1001
VD_INVISIBLE_NOT_FOR_READ
1000
VD_INVISIBLE_NOT_FOR_READ
0
VIEWPORT
5
295
102
{ACAD_XDICTIONARY
360
58C
102
}
330
25D
100
AcDbEntity
67
1
8
0
60
1
100
AcDbViewport
10
0.0
20
0.0
30
0.0
40
10.0
41
10.0
68
0
69
2
12
0.0
22
0.0
13
0.0
23
0.0
14
1.0
24
1.0
15
0.0
25
0.0
16
0.0
26
0.0
36
1.0
17
0.0
27
0.0
37
0.0
42
0.0
43
0.0
44
0.0
45
10.0
50
0.0
51
0.0000000000007958
72
100
90
163872
1

281
0
71
0
74
0
110
0.0
120
0.0
130
0.0
111
1.0
121
0.0
131
0.0
112
0.0
122
1.0
132
0.0
79
0
146
0.0
1001
VD_INVISIBLE_NOT_FOR_READ
1000
VD_INVISIBLE_NOT_FOR_READ
0
ENDSEC
0
SECTION
2
OBJECTS
0
DICTIONARY
5
13
330
0
100
AcDbDictionary
281
1
3
ACAD_COLOR
350
FA7
3
ACAD_GROUP
350
14
3
ACAD_LAYOUT
350
FCF
3
ACAD_MATERIAL
350
F7A
3
ACAD_MLEADERSTYLE
350
FCD
3
ACAD_MLINESTYLE
350
16
3
ACAD_PLOTSETTINGS
350
17
3
ACAD_PLOTSTYLENAME
350
18
3
ACAD_SCALELIST
350
FAB
3
ACAD_TABLESTYLE
350
FA8
3
ACAD_VISUALSTYLE
350
F93
3
ACDB_RECOMPOSE_DATA
350
107E
3
AcDbVariableDictionary
350
FF0
3
DWGPROPS
350
107F
0
DICTIONARY
5
F10014
330
F10013
100
AcDbDictionary
280
1
281
1
3
ACAD_MTEXT_2008_RT
360
F10015
0
DICTIONARY
5
F1001E
330
F1001D
100
AcDbDictionary
280
1
281
1
3
ACAD_MTEXT_2008_RT
360
F1001F
0
DICTIONARY
5
F10023
330
F10022
100
AcDbDictionary
280
1
281
1
3
ACAD_MTEXT_2008_RT
360
F10024
0
DICTIONARY
5
F10005
330
F10004
100
AcDbDictionary
280
1
281
1
3
ACAD_MTEXT_2008_RT
360
F10006
0
DICTIONARY
5
F1000F
330
F1000E
100
AcDbDictionary
280
1
281
1
3
ACAD_MTEXT_2008_RT
360
F10010
0
DICTIONARY
5
F1000A
330
F10009
100
AcDbDictionary
280
1
281
1
3
ACAD_MTEXT_2008_RT
360
F1000B
0
DICTIONARY
5
F10019
330
F10018
100
AcDbDictionary
280
1
281
1
3
ACAD_MTEXT_2008_RT
360
F1001A
0
DICTIONARY
5
FA7
102
{ACAD_REACTORS
330
13
102
}
330
13
100
AcDbDictionary
281
1
0
DICTIONARY
5
14
330
13
100
AcDbDictionary
281
1
0
DICTIONARY
5
FCF
102
{ACAD_REACTORS
330
13
102
}
330
13
100
AcDbDictionary
281
1
3
Layout1
350
FD1
3
Model
350
FD0
0
DICTIONARY
5
F7A
102
{ACAD_REACTORS
330
13
102
}
330
13
100
AcDbDictionary
281
1
3
ByBlock
350
F83
3
ByLayer
350
F7B
3
Global
350
F8B
0
DICTIONARY
5
FCD
102
{ACAD_REACTORS
330
13
102
}
330
13
100
AcDbDictionary
281
1
3
Standard
350
FCE
0
DICTIONARY
5
16
330
13
100
AcDbDictionary
281
1
3
Standard
350
FAA
0
DICTIONARY
5
17
102
{ACAD_REACTORS
330
13
102
}
330
13
100
AcDbDictionary
281
1
0
ACDBDICTIONARYWDFLT
5
18
102
{ACAD_REACTORS
330
13
102
}
330
13
100
AcDbDictionary
281
1
3
Normal
350
19
100
AcDbDictionaryWithDefault
340
19
0
DICTIONARY
5
FAB
102
{ACAD_REACTORS
330
13
102
}
330
13
100
AcDbDictionary
281
1
3
A0
350
FAC
3
A1
350
FAD
3
A2
350
FAE
3
A3
350
FAF
3
A4
350
FB0
3
A5
350
FB1
3
A6
350
FB2
3
A7
350
FB3
3
A8
350
FB4
3
A9
350
FB5
3
B0
350
FB6
3
B1
350
FB7
3
B2
350
FB8
3
B3
350
FB9
3
B4
350
FBA
3
B5
350
FBB
3
B6
350
FBC
3
B7
350
FBD
3
B8
350
FBE
3
B9
350
FBF
3
C0
350
FC0
3
C1
350
FC1
3
C2
350
FC2
3
C3
350
FC3
3
C4
350
FC4
3
C5
350
FC5
3
C6
350
FC6
3
C7
350
FC7
3
C8
350
FC8
3
C9
350
FC9
3
D0
350
FCA
3
D1
350
FCB
3
D2
350
FCC
0
DICTIONARY
5
FA8
102
{ACAD_REACTORS
330
13
102
}
330
13
100
AcDbDictionary
281
1
3
Standard
350
FA9
0
DICTIONARY
5
F93
102
{ACAD_REACTORS
330
13
102
}
330
13
100
AcDbDictionary
281
1
3
2dWireframe
350
F99
3
3D Hidden
350
F9B
3
3dWireframe
350
F9A
3
Basic
350
F98
3
Brighten
350
F9F
3
ColorChange
350
FA3
3
Conceptual
350
F9C
3
Dim
350
F9E
3
EdgeColorOff
350
FA6
3
Facepattern
350
FA2
3
Flat
350
F94
3
FlatWithEdges
350
F95
3
Gouraud
350
F96
3
GouraudWithEdges
350
F97
3
JitterOff
350
FA4
3
Linepattern
350
FA1
3
OverhangOff
350
FA5
3
Realistic
350
F9D
3
Thicken
350
FA0
0
XRECORD
5
107E
102
{ACAD_REACTORS
330
13
102
}
330
13
100
AcDbXrecord
280
1
90
1
330
FA9
330
F10013
330
F1001D
330
F10022
330
F10004
330
F1000E
330
F10009
330
F10018
0
XRECORD
5
F10015
102
{ACAD_REACTORS
330
F10014
102
}
330
F10014
100
AcDbXrecord
280
1
40
48458.0
1
72
0
XRECORD
5
F1001F
102
{ACAD_REACTORS
330
F1001E
102
}
330
F1001E
100
AcDbXrecord
280
1
40
48458.0
1
17
0
XRECORD
5
F10024
102
{ACAD_REACTORS
330
F10023
102
}
330
F10023
100
AcDbXrecord
280
1
40
48458.0
1
89
0
XRECORD
5
F10006
102
{ACAD_REACTORS
330
F10005
102
}
330
F10005
100
AcDbXrecord
280
1
40
48458.0
1
2°
0
XRECORD
5
F10010
102
{ACAD_REACTORS
330
F1000F
102
}
330
F1000F
100
AcDbXrecord
280
1
40
48458.0
1
R1
0
XRECORD
5
F1000B
102
{ACAD_REACTORS
330
F1000A
102
}
330
F1000A
100
AcDbXrecord
280
1
40
48458.0
1
14
0
LAYOUT
5
FD1
102
{ACAD_XDICTIONARY
360
10A9
102
}
102
{ACAD_REACTORS
330
FCF
102
}
330
FCF
100
AcDbPlotSettings
1

2
Microsoft XPS Document Writer
4

6

40
0.0
41
0.0
42
0.0
43
0.0
44
0.0
45
0.0
46
0.0
47
0.0
48
0.0
49
0.0
140
0.0
141
0.0
142
1.0
143
1.0
70
688
72
0
73
0
74
5
7

75
16
147
1.0
148
0.0
149
0.0
100
AcDbLayout
1
Layout1
70
1
71
1
10
0.0
20
0.0
11
12.0
21
9.0
12
0.0
22
0.0
32
0.0
14
1.000000000000000E+20
24
1.000000000000000E+20
34
1.000000000000000E+20
15
-1.000000000000000E+20
25
-1.000000000000000E+20
35
-1.000000000000000E+20
146
0.0
13
0.0
23
0.0
33
0.0
16
1.0
26
0.0
36
0.0
17
0.0
27
1.0
37
0.0
76
0
330
25D
0
LAYOUT
5
FD0
102
{ACAD_XDICTIONARY
360
10A7
102
}
102
{ACAD_REACTORS
330
FCF
102
}
330
FCF
100
AcDbPlotSettings
1

2
Microsoft XPS Document Writer
4

6

40
0.0
41
0.0
42
0.0
43
0.0
44
0.0
45
0.0
46
0.0
47
0.0
48
0.0
49
0.0
140
0.0
141
0.0
142
1.0
143
1.0
70
1712
72
0
73
0
74
0
7

75
0
147
1.0
148
0.0
149
0.0
100
AcDbLayout
1
Model
70
1
71
0
10
0.0
20
0.0
11
12.0
21
9.0
12
0.0
22
0.0
32
0.0
14
0.0
24
0.0
34
0.0
15
0.0
25
0.0
35
0.0
146
0.0
13
0.0
23
0.0
33
0.0
16
1.0
26
0.0
36
0.0
17
0.0
27
1.0
37
0.0
76
0
330
261
331
26B
0
MATERIAL
5
F83
102
{ACAD_XDICTIONARY
360
F84
102
}
102
{ACAD_REACTORS
330
F7A
102
}
330
F7A
100
AcDbMaterial
1
ByBlock
72
0
43
0.0208333333333333
43
0.0
43
0.0
43
0.0
43
0.0
43
0.0208333333333333
43
0.0
43
0.0
43
0.0
43
0.0
43
1.0
43
0.0
43
0.0
43
0.0
43
0.0
43
1.0
77
0
47
0.0208333333333333
47
0.0
47
0.0
47
0.0
47
0.0
47
0.0208333333333333
47
0.0
47
0.0
47
0.0
47
0.0
47
1.0
47
0.0
47
0.0
47
0.0
47
0.0
47
1.0
171
0
49
0.0208333333333333
49
0.0
49
0.0
49
0.0
49
0.0
49
0.0208333333333333
49
0.0
49
0.0
49
0.0
49
0.0
49
1.0
49
0.0
49
0.0
49
0.0
49
0.0
49
1.0
175
0
142
0.0208333333333333
142
0.0
142
0.0
142
0.0
142
0.0
142
0.0208333333333333
142
0.0
142
0.0
142
0.0
142
0.0
142
1.0
142
0.0
142
0.0
142
0.0
142
0.0
142
1.0
179
0
144
0.0208333333333333
144
0.0
144
0.0
144
0.0
144
0.0
144
0.0208333333333333
144
0.0
144
0.0
144
0.0
144
0.0
144
1.0
144
0.0
144
0.0
144
0.0
144
0.0
144
1.0
147
0.0208333333333333
147
0.0
147
0.0
147
0.0
147
0.0
147
0.0208333333333333
147
0.0
147
0.0
147
0.0
147
0.0
147
1.0
147
0.0
147
0.0
147
0.0
147
0.0
147
1.0
0
MATERIAL
5
F7B
102
{ACAD_XDICTIONARY
360
F7C
102
}
102
{ACAD_REACTORS
330
F7A
102
}
330
F7A
100
AcDbMaterial
1
ByLayer
72
0
43
0.0208333333333333
43
0.0
43
0.0
43
0.0
43
0.0
43
0.0208333333333333
43
0.0
43
0.0
43
0.0
43
0.0
43
1.0
43
0.0
43
0.0
43
0.0
43
0.0
43
1.0
77
0
47
0.0208333333333333
47
0.0
47
0.0
47
0.0
47
0.0
47
0.0208333333333333
47
0.0
47
0.0
47
0.0
47
0.0
47
1.0
47
0.0
47
0.0
47
0.0
47
0.0
47
1.0
171
0
49
0.0208333333333333
49
0.0
49
0.0
49
0.0
49
0.0
49
0.0208333333333333
49
0.0
49
0.0
49
0.0
49
0.0
49
1.0
49
0.0
49
0.0
49
0.0
49
0.0
49
1.0
175
0
142
0.0208333333333333
142
0.0
142
0.0
142
0.0
142
0.0
142
0.0208333333333333
142
0.0
142
0.0
142
0.0
142
0.0
142
1.0
142
0.0
142
0.0
142
0.0
142
0.0
142
1.0
179
0
144
0.0208333333333333
144
0.0
144
0.0
144
0.0
144
0.0
144
0.0208333333333333
144
0.0
144
0.0
144
0.0
144
0.0
144
1.0
144
0.0
144
0.0
144
0.0
144
0.0
144
1.0
147
0.0208333333333333
147
0.0
147
0.0
147
0.0
147
0.0
147
0.0208333333333333
147
0.0
147
0.0
147
0.0
147
0.0
147
1.0
147
0.0
147
0.0
147
0.0
147
0.0
147
1.0
0
MATERIAL
5
F8B
102
{ACAD_XDICTIONARY
360
F8C
102
}
102
{ACAD_REACTORS
330
F7A
102
}
330
F7A
100
AcDbMaterial
1
Global
72
0
43
0.0208333333333333
43
0.0
43
0.0
43
0.0
43
0.0
43
0.0208333333333333
43
0.0
43
0.0
43
0.0
43
0.0
43
1.0
43
0.0
43
0.0
43
0.0
43
0.0
43
1.0
77
0
47
0.0208333333333333
47
0.0
47
0.0
47
0.0
47
0.0
47
0.0208333333333333
47
0.0
47
0.0
47
0.0
47
0.0
47
1.0
47
0.0
47
0.0
47
0.0
47
0.0
47
1.0
171
0
49
0.0208333333333333
49
0.0
49
0.0
49
0.0
49
0.0
49
0.0208333333333333
49
0.0
49
0.0
49
0.0
49
0.0
49
1.0
49
0.0
49
0.0
49
0.0
49
0.0
49
1.0
175
0
142
0.0208333333333333
142
0.0
142
0.0
142
0.0
142
0.0
142
0.0208333333333333
142
0.0
142
0.0
142
0.0
142
0.0
142
1.0
142
0.0
142
0.0
142
0.0
142
0.0
142
1.0
179
0
144
0.0208333333333333
144
0.0
144
0.0
144
0.0
144
0.0
144
0.0208333333333333
144
0.0
144
0.0
144
0.0
144
0.0
144
1.0
144
0.0
144
0.0
144
0.0
144
0.0
144
1.0
147
0.0208333333333333
147
0.0
147
0.0
147
0.0
147
0.0
147
0.0208333333333333
147
0.0
147
0.0
147
0.0
147
0.0
147
1.0
147
0.0
147
0.0
147
0.0
147
0.0
147
1.0
0
MLEADERSTYLE
5
FCE
102
{ACAD_REACTORS
330
FCD
102
}
330
FCD
100
AcDbMLeaderStyle
170
2
171
1
172
0
90
2
40
0.0
41
0.0
173
1
91
-1056964608
340
256
92
-2
290
1
42
0.09
291
1
43
0.36
3
Standard
44
0.18
300

342
253
174
1
178
6
175
1
176
0
93
-1056964608
45
0.18
292
0
297
0
46
0.18
94
-1056964608
47
1.0
49
1.0
140
1.0
293
1
141
0.0
294
1
177
0
142
1.0
295
0
296
0
143
0.125
1001
ACAD_MLEADERVER
1070
2
0
MLINESTYLE
5
FAA
102
{ACAD_REACTORS
330
16
102
}
330
16
100
AcDbMlineStyle
2
STANDARD
70
0
3

62
256
51
90.0
52
90.0
71
2
49
0.5
62
256
6
BYLAYER
49
-0.5
62
256
6
BYLAYER
0
ACDBPLACEHOLDER
5
19
102
{ACAD_REACTORS
330
18
102
}
330
18
0
SCALE
5
FAC
102
{ACAD_REACTORS
330
FAB
102
}
330
FAB
100
AcDbScale
70
0
300
1:1
140
1.0
141
1.0
290
1
0
SCALE
5
FAD
102
{ACAD_REACTORS
330
FAB
102
}
330
FAB
100
AcDbScale
70
0
300
1:2
140
1.0
141
2.0
290
0
0
SCALE
5
FAE
102
{ACAD_REACTORS
330
FAB
102
}
330
FAB
100
AcDbScale
70
0
300
1:4
140
1.0
141
4.0
290
0
0
SCALE
5
FAF
102
{ACAD_REACTORS
330
FAB
102
}
330
FAB
100
AcDbScale
70
0
300
1:5
140
1.0
141
5.0
290
0
0
SCALE
5
FB0
102
{ACAD_REACTORS
330
FAB
102
}
330
FAB
100
AcDbScale
70
0
300
1:8
140
1.0
141
8.0
290
0
0
SCALE
5
FB1
102
{ACAD_REACTORS
330
FAB
102
}
330
FAB
100
AcDbScale
70
0
300
1:10
140
1.0
141
10.0
290
0
0
SCALE
5
FB2
102
{ACAD_REACTORS
330
FAB
102
}
330
FAB
100
AcDbScale
70
0
300
1:16
140
1.0
141
16.0
290
0
0
SCALE
5
FB3
102
{ACAD_REACTORS
330
FAB
102
}
330
FAB
100
AcDbScale
70
0
300
1:20
140
1.0
141
20.0
290
0
0
SCALE
5
FB4
102
{ACAD_REACTORS
330
FAB
102
}
330
FAB
100
AcDbScale
70
0
300
1:30
140
1.0
141
30.0
290
0
0
SCALE
5
FB5
102
{ACAD_REACTORS
330
FAB
102
}
330
FAB
100
AcDbScale
70
0
300
1:40
140
1.0
141
40.0
290
0
0
SCALE
5
FB6
102
{ACAD_REACTORS
330
FAB
102
}
330
FAB
100
AcDbScale
70
0
300
1:50
140
1.0
141
50.0
290
0
0
SCALE
5
FB7
102
{ACAD_REACTORS
330
FAB
102
}
330
FAB
100
AcDbScale
70
0
300
1:100
140
1.0
141
100.0
290
0
0
SCALE
5
FB8
102
{ACAD_REACTORS
330
FAB
102
}
330
FAB
100
AcDbScale
70
0
300
2:1
140
2.0
141
1.0
290
0
0
SCALE
5
FB9
102
{ACAD_REACTORS
330
FAB
102
}
330
FAB
100
AcDbScale
70
0
300
4:1
140
4.0
141
1.0
290
0
0
SCALE
5
FBA
102
{ACAD_REACTORS
330
FAB
102
}
330
FAB
100
AcDbScale
70
0
300
8:1
140
8.0
141
1.0
290
0
0
SCALE
5
FBB
102
{ACAD_REACTORS
330
FAB
102
}
330
FAB
100
AcDbScale
70
0
300
10:1
140
10.0
141
1.0
290
0
0
SCALE
5
FBC
102
{ACAD_REACTORS
330
FAB
102
}
330
FAB
100
AcDbScale
70
0
300
100:1
140
100.0
141
1.0
290
0
0
SCALE
5
FBD
102
{ACAD_REACTORS
330
FAB
102
}
330
FAB
100
AcDbScale
70
0
300
1/128" = 1'-0"
140
0.0078125
141
12.0
290
0
0
SCALE
5
FBE
102
{ACAD_REACTORS
330
FAB
102
}
330
FAB
100
AcDbScale
70
0
300
1/64" = 1'-0"
140
0.015625
141
12.0
290
0
0
SCALE
5
FBF
102
{ACAD_REACTORS
330
FAB
102
}
330
FAB
100
AcDbScale
70
0
300
1/32" = 1'-0"
140
0.03125
141
12.0
290
0
0
SCALE
5
FC0
102
{ACAD_REACTORS
330
FAB
102
}
330
FAB
100
AcDbScale
70
0
300
1/16" = 1'-0"
140
0.0625
141
12.0
290
0
0
SCALE
5
FC1
102
{ACAD_REACTORS
330
FAB
102
}
330
FAB
100
AcDbScale
70
0
300
3/32" = 1'-0"
140
0.09375
141
12.0
290
0
0
SCALE
5
FC2
102
{ACAD_REACTORS
330
FAB
102
}
330
FAB
100
AcDbScale
70
0
300
1/8" = 1'-0"
140
0.125
141
12.0
290
0
0
SCALE
5
FC3
102
{ACAD_REACTORS
330
FAB
102
}
330
FAB
100
AcDbScale
70
0
300
3/16" = 1'-0"
140
0.1875
141
12.0
290
0
0
SCALE
5
FC4
102
{ACAD_REACTORS
330
FAB
102
}
330
FAB
100
AcDbScale
70
0
300
1/4" = 1'-0"
140
0.25
141
12.0
290
0
0
SCALE
5
FC5
102
{ACAD_REACTORS
330
FAB
102
}
330
FAB
100
AcDbScale
70
0
300
3/8" = 1'-0"
140
0.375
141
12.0
290
0
0
SCALE
5
FC6
102
{ACAD_REACTORS
330
FAB
102
}
330
FAB
100
AcDbScale
70
0
300
1/2" = 1'-0"
140
0.5
141
12.0
290
0
0
SCALE
5
FC7
102
{ACAD_REACTORS
330
FAB
102
}
330
FAB
100
AcDbScale
70
0
300
3/4" = 1'-0"
140
0.75
141
12.0
290
0
0
SCALE
5
FC8
102
{ACAD_REACTORS
330
FAB
102
}
330
FAB
100
AcDbScale
70
0
300
1" = 1'-0"
140
1.0
141
12.0
290
0
0
SCALE
5
FC9
102
{ACAD_REACTORS
330
FAB
102
}
330
FAB
100
AcDbScale
70
0
300
1-1/2" = 1'-0"
140
1.5
141
12.0
290
0
0
SCALE
5
FCA
102
{ACAD_REACTORS
330
FAB
102
}
330
FAB
100
AcDbScale
70
0
300
3" = 1'-0"
140
3.0
141
12.0
290
0
0
SCALE
5
FCB
102
{ACAD_REACTORS
330
FAB
102
}
330
FAB
100
AcDbScale
70
0
300
6" = 1'-0"
140
6.0
141
12.0
290
0
0
SCALE
5
FCC
102
{ACAD_REACTORS
330
FAB
102
}
330
FAB
100
AcDbScale
70
0
300
1'-0" = 1'-0"
140
12.0
141
12.0
290
0
0
TABLESTYLE
5
FA9
102
{ACAD_XDICTIONARY
360
FF8
102
}
102
{ACAD_REACTORS
330
FA8
102
}
330
FA8
100
AcDbTableStyle
3
Standard
70
0
71
0
40
0.06
41
0.06
280
0
281
0
7
Standard
140
0.18
170
2
62
0
63
7
283
0
274
-2
284
1
64
0
275
-2
285
1
65
0
276
-2
286
1
66
0
277
-2
287
1
67
0
278
-2
288
1
68
0
279
-2
289
1
69
0
7
Standard
140
0.25
170
5
62
0
63
7
283
0
274
-2
284
1
64
0
275
-2
285
1
65
0
276
-2
286
1
66
0
277
-2
287
1
67
0
278
-2
288
1
68
0
279
-2
289
1
69
0
7
Standard
140
0.18
170
5
62
0
63
7
283
0
274
-2
284
1
64
0
275
-2
285
1
65
0
276
-2
286
1
66
0
277
-2
287
1
67
0
278
-2
288
1
68
0
279
-2
289
1
69
0
0
VISUALSTYLE
5
F99
102
{ACAD_XDICTIONARY
360
108A
102
}
102
{ACAD_REACTORS
330
F93
102
}
330
F93
100
AcDbVisualStyle
2

70
4
71
0
72
2
73
0
90
0
40
-0.6
41
-30.0
62
5
63
7
74
1
91
4
64
7
65
257
75
1
175
1
42
1.0
92
0
66
257
43
1.0
76
1
77
6
78
2
67
7
79
5
170
0
171
0
290
0
174
0
93
1
44
0.0
173
0
291
0
45
0.0
1001
ACAD
1000
AcDbSavedByObjectVersion
1070
0
0
VISUALSTYLE
5
F9B
102
{ACAD_XDICTIONARY
360
108E
102
}
102
{ACAD_REACTORS
330
F93
102
}
330
F93
100
AcDbVisualStyle
2

70
6
71
1
72
2
73
2
90
0
40
-0.6
41
-30.0
62
5
63
7
74
2
91
2
64
7
65
257
75
2
175
1
42
179.0
92
0
66
257
43
1.0
76
1
77
6
78
2
67
7
79
3
170
0
171
0
290
0
174
0
93
1
44
0.0
173
0
291
0
45
0.0
1001
ACAD
1000
AcDbSavedByObjectVersion
1070
0
0
VISUALSTYLE
5
F9A
102
{ACAD_XDICTIONARY
360
108C
102
}
102
{ACAD_REACTORS
330
F93
102
}
330
F93
100
AcDbVisualStyle
2

70
5
71
0
72
2
73
0
90
0
40
-0.6
41
-30.0
62
5
63
7
74
1
91
4
64
7
65
257
75
1
175
1
42
1.0
92
0
66
257
43
1.0
76
1
77
6
78
2
67
7
79
5
170
0
171
0
290
0
174
0
93
1
44
0.0
173
0
291
0
45
0.0
1001
ACAD
1000
AcDbSavedByObjectVersion
1070
0
0
VISUALSTYLE
5
F98
102
{ACAD_XDICTIONARY
360
1088
102
}
102
{ACAD_REACTORS
330
F93
102
}
330
F93
100
AcDbVisualStyle
2

70
7
71
1
72
0
73
1
90
0
40
-0.6
41
-30.0
62
5
63
7
74
0
91
4
64
7
65
257
75
1
175
1
42
1.0
92
8
66
7
43
1.0
76
1
77
6
78
2
67
7
79
5
170
0
171
0
290
0
174
0
93
1
44
0.0
173
0
291
1
45
0.0
1001
ACAD
1000
AcDbSavedByObjectVersion
1070
0
0
VISUALSTYLE
5
F9F
102
{ACAD_XDICTIONARY
360
1096
102
}
102
{ACAD_REACTORS
330
F93
102
}
330
F93
100
AcDbVisualStyle
2

70
12
71
2
72
2
73
0
90
0
40
-0.6
41
-30.0
62
5
63
7
74
1
91
4
64
7
65
257
75
1
175
1
42
1.0
92
8
66
7
43
1.0
76
1
77
6
78
2
67
7
79
5
170
0
171
0
290
0
174
0
93
1
44
50.0
173
0
291
1
45
0.0
1001
ACAD
1000
AcDbSavedByObjectVersion
1070
0
0
VISUALSTYLE
5
FA3
102
{ACAD_XDICTIONARY
360
109E
102
}
102
{ACAD_REACTORS
330
F93
102
}
330
F93
100
AcDbVisualStyle
2

70
16
71
2
72
2
73
3
90
0
40
-0.6
41
-30.0
62
5
63
8
74
1
91
4
64
7
65
257
75
1
175
1
42
1.0
92
8
66
8
43
1.0
76
1
77
6
78
2
67
7
79
5
170
0
171
0
290
0
174
0
93
1
44
0.0
173
0
291
1
45
0.0
1001
ACAD
1000
AcDbSavedByObjectVersion
1070
0
0
VISUALSTYLE
5
F9C
102
{ACAD_XDICTIONARY
360
1090
102
}
102
{ACAD_REACTORS
330
F93
102
}
330
F93
100
AcDbVisualStyle
2

70
9
71
3
72
2
73
0
90
0
40
-0.6
41
-30.0
62
5
63
7
74
2
91
2
64
7
65
257
75
1
175
1
42
179.0
92
8
66
7
43
1.0
76
1
77
6
78
2
67
7
79
3
170
0
171
0
290
0
174
0
93
1
44
0.0
173
0
291
0
45
0.0
1001
ACAD
1000
AcDbSavedByObjectVersion
1070
0
0
VISUALSTYLE
5
F9E
102
{ACAD_XDICTIONARY
360
1094
102
}
102
{ACAD_REACTORS
330
F93
102
}
330
F93
100
AcDbVisualStyle
2

70
11
71
2
72
2
73
0
90
0
40
-0.6
41
-30.0
62
5
63
7
74
1
91
4
64
7
65
257
75
1
175
1
42
1.0
92
8
66
7
43
1.0
76
1
77
6
78
2
67
7
79
5
170
0
171
0
290
0
174
0
93
1
44
-50.0
173
0
291
1
45
0.0
1001
ACAD
1000
AcDbSavedByObjectVersion
1070
0
0
VISUALSTYLE
5
FA6
102
{ACAD_XDICTIONARY
360
10A4
102
}
102
{ACAD_REACTORS
330
F93
102
}
330
F93
100
AcDbVisualStyle
2

70
22
71
2
72
2
73
0
90
0
40
-0.6
41
-30.0
62
5
63
7
74
1
91
4
64
7
65
257
75
1
175
1
42
1.0
92
8
66
7
43
1.0
76
1
77
6
78
2
67
7
79
5
170
0
171
0
290
0
174
0
93
1
44
0.0
173
0
291
1
45
0.0
1001
ACAD
1000
AcDbSavedByObjectVersion
1070
0
0
VISUALSTYLE
5
FA2
102
{ACAD_XDICTIONARY
360
109C
102
}
102
{ACAD_REACTORS
330
F93
102
}
330
F93
100
AcDbVisualStyle
2

70
15
71
2
72
2
73
0
90
0
40
-0.6
41
-30.0
62
5
63
7
74
1
91
4
64
7
65
257
75
1
175
1
42
1.0
92
8
66
7
43
1.0
76
1
77
6
78
2
67
7
79
5
170
0
171
0
290
0
174
0
93
1
44
0.0
173
0
291
1
45
0.0
1001
ACAD
1000
AcDbSavedByObjectVersion
1070
0
0
VISUALSTYLE
5
F94
102
{ACAD_XDICTIONARY
360
1080
102
}
102
{ACAD_REACTORS
330
F93
102
}
330
F93
100
AcDbVisualStyle
2

70
0
71
2
72
1
73
1
90
2
40
-0.6
41
30.0
62
5
63
7
74
0
91
4
64
7
65
257
75
1
175
1
42
1.0
92
8
66
7
43
1.0
76
1
77
6
78
2
67
7
79
5
170
0
171
0
290
0
174
0
93
13
44
0.0
173
0
291
1
45
0.0
1001
ACAD
1000
AcDbSavedByObjectVersion
1070
0
0
VISUALSTYLE
5
F95
102
{ACAD_XDICTIONARY
360
1082
102
}
102
{ACAD_REACTORS
330
F93
102
}
330
F93
100
AcDbVisualStyle
2

70
1
71
2
72
1
73
1
90
2
40
-0.6
41
30.0
62
5
63
7
74
1
91
4
64
7
65
257
75
1
175
1
42
1.0
92
0
66
257
43
1.0
76
1
77
6
78
2
67
7
79
5
170
0
171
0
290
0
174
0
93
13
44
0.0
173
0
291
1
45
0.0
1001
ACAD
1000
AcDbSavedByObjectVersion
1070
0
0
VISUALSTYLE
5
F96
102
{ACAD_XDICTIONARY
360
1084
102
}
102
{ACAD_REACTORS
330
F93
102
}
330
F93
100
AcDbVisualStyle
2

70
2
71
2
72
2
73
1
90
2
40
-0.6
41
30.0
62
5
63
7
74
0
91
4
64
7
65
257
75
1
175
1
42
1.0
92
0
66
7
43
1.0
76
1
77
6
78
2
67
7
79
5
170
0
171
0
290
0
174
0
93
13
44
0.0
173
0
291
1
45
0.0
1001
ACAD
1000
AcDbSavedByObjectVersion
1070
0
0
VISUALSTYLE
5
F97
102
{ACAD_XDICTIONARY
360
1086
102
}
102
{ACAD_REACTORS
330
F93
102
}
330
F93
100
AcDbVisualStyle
2

70
3
71
2
72
2
73
1
90
2
40
-0.6
41
30.0
62
5
63
7
74
1
91
4
64
7
65
257
75
1
175
1
42
1.0
92
0
66
257
43
1.0
76
1
77
6
78
2
67
7
79
5
170
0
171
0
290
0
174
0
93
13
44
0.0
173
0
291
1
45
0.0
1001
ACAD
1000
AcDbSavedByObjectVersion
1070
0
0
VISUALSTYLE
5
FA4
102
{ACAD_XDICTIONARY
360
10A0
102
}
102
{ACAD_REACTORS
330
F93
102
}
330
F93
100
AcDbVisualStyle
2

70
20
71
2
72
2
73
0
90
0
40
-0.6
41
-30.0
62
5
63
7
74
1
91
4
64
7
65
257
75
1
175
1
42
1.0
92
10
66
7
43
1.0
76
1
77
6
78
2
67
7
79
5
170
0
171
0
290
0
174
0
93
1
44
0.0
173
0
291
1
45
0.0
1001
ACAD
1000
AcDbSavedByObjectVersion
1070
0
0
VISUALSTYLE
5
FA1
102
{ACAD_XDICTIONARY
360
109A
102
}
102
{ACAD_REACTORS
330
F93
102
}
330
F93
100
AcDbVisualStyle
2

70
14
71
2
72
2
73
0
90
0
40
-0.6
41
-30.0
62
5
63
7
74
1
91
4
64
7
65
257
75
7
175
7
42
1.0
92
8
66
7
43
1.0
76
1
77
6
78
2
67
7
79
5
170
0
171
0
290
0
174
0
93
1
44
0.0
173
0
291
1
45
0.0
1001
ACAD
1000
AcDbSavedByObjectVersion
1070
0
0
VISUALSTYLE
5
FA5
102
{ACAD_XDICTIONARY
360
10A2
102
}
102
{ACAD_REACTORS
330
F93
102
}
330
F93
100
AcDbVisualStyle
2

70
21
71
2
72
2
73
0
90
0
40
-0.6
41
-30.0
62
5
63
7
74
1
91
4
64
7
65
257
75
1
175
1
42
1.0
92
9
66
7
43
1.0
76
1
77
6
78
2
67
7
79
5
170
0
171
0
290
0
174
0
93
1
44
0.0
173
0
291
1
45
0.0
1001
ACAD
1000
AcDbSavedByObjectVersion
1070
0
0
VISUALSTYLE
5
F9D
102
{ACAD_XDICTIONARY
360
1092
102
}
102
{ACAD_REACTORS
330
F93
102
}
330
F93
100
AcDbVisualStyle
2

70
8
71
2
72
2
73
0
90
0
40
-0.6
41
-30.0
62
5
63
7
74
1
91
0
64
7
65
257
75
1
175
1
42
1.0
92
8
66
8
43
1.0
76
1
77
6
78
2
67
7
79
5
170
0
171
0
290
0
174
0
93
13
44
0.0
173
0
291
0
45
0.0
1001
ACAD
1000
AcDbSavedByObjectVersion
1070
0
0
VISUALSTYLE
5
FA0
102
{ACAD_XDICTIONARY
360
1098
102
}
102
{ACAD_REACTORS
330
F93
102
}
330
F93
100
AcDbVisualStyle
2

70
13
71
2
72
2
73
0
90
0
40
-0.6
41
-30.0
62
5
63
7
74
1
91
4
64
7
65
257
75
1
175
1
42
1.0
92
12
66
7
43
1.0
76
1
77
6
78
2
67
7
79
5
170
0
171
0
290
0
174
0
93
1
44
0.0
173
0
291
1
45
0.0
1001
ACAD
1000
AcDbSavedByObjectVersion
1070
0
0
DICTIONARYVAR
5
FF3
102
{ACAD_REACTORS
330
FF0
102
}
330
FF0
100
DictionaryVariables
280
0
1
1:1
0
DICTIONARYVAR
5
FF2
102
{ACAD_REACTORS
330
FF0
102
}
330
FF0
100
DictionaryVariables
280
0
1
STANDARD
0
DICTIONARYVAR
5
FF1
102
{ACAD_REACTORS
330
FF0
102
}
330
FF0
100
DictionaryVariables
280
0
1
STANDARD
0
DICTIONARYVAR
5
FF6
102
{ACAD_REACTORS
330
FF0
102
}
330
FF0
100
DictionaryVariables
280
0
1
1
0
DICTIONARYVAR
5
FF5
102
{ACAD_REACTORS
330
FF0
102
}
330
FF0
100
DictionaryVariables
280
0
1
0
0
DICTIONARYVAR
5
FF4
102
{ACAD_REACTORS
330
FF0
102
}
330
FF0
100
DictionaryVariables
280
0
1
127
0
DICTIONARYVAR
5
1078
102
{ACAD_REACTORS
330
FF0
102
}
330
FF0
100
DictionaryVariables
280
0
1
2
0
DICTIONARY
5
10A9
330
FD1
100
AcDbDictionary
280
1
281
1
3
ACAD_XREC_ROUNDTRIP
360
10AA
0
DICTIONARY
5
10A7
330
FD0
100
AcDbDictionary
280
1
281
1
3
ACAD_XREC_ROUNDTRIP
360
10A8
0
DICTIONARY
5
F84
330
F83
100
AcDbDictionary
280
1
281
1
3
ACAD_XREC_ROUNDTRIP
360
FFF
3
BUMPTILE
360
F86
3
DIFFUSETILE
360
F85
3
OPACITYTILE
360
F89
3
REFLECTIONTILE
360
F88
3
REFRACTIONTILE
360
F8A
3
SPECULARTILE
360
F87
0
DICTIONARY
5
F7C
330
F7B
100
AcDbDictionary
280
1
281
1
3
ACAD_XREC_ROUNDTRIP
360
FFE
3
BUMPTILE
360
F7E
3
DIFFUSETILE
360
F7D
3
OPACITYTILE
360
F81
3
REFLECTIONTILE
360
F80
3
REFRACTIONTILE
360
F82
3
SPECULARTILE
360
F7F
0
DICTIONARY
5
F8C
330
F8B
100
AcDbDictionary
280
1
281
1
3
ACAD_XREC_ROUNDTRIP
360
1000
3
BUMPTILE
360
F8E
3
DIFFUSETILE
360
F8D
3
OPACITYTILE
360
F91
3
REFLECTIONTILE
360
F90
3
REFRACTIONTILE
360
F92
3
SPECULARTILE
360
F8F
0
DICTIONARY
5
FF8
330
FA9
100
AcDbDictionary
280
1
281
1
3
ACAD_ROUNDTRIP_2008_TABLESTYLE_CELLSTYLEMAP
360
1079
3
ACAD_XREC_ROUNDTRIP
360
10A6
0
DICTIONARY
5
108A
330
F99
100
AcDbDictionary
280
1
281
1
3
ACAD_XREC_ROUNDTRIP
360
108B
0
DICTIONARY
5
108E
330
F9B
100
AcDbDictionary
280
1
281
1
3
ACAD_XREC_ROUNDTRIP
360
108F
0
DICTIONARY
5
108C
330
F9A
100
AcDbDictionary
280
1
281
1
3
ACAD_XREC_ROUNDTRIP
360
108D
0
DICTIONARY
5
1088
330
F98
100
AcDbDictionary
280
1
281
1
3
ACAD_XREC_ROUNDTRIP
360
1089
0
DICTIONARY
5
1096
330
F9F
100
AcDbDictionary
280
1
281
1
3
ACAD_XREC_ROUNDTRIP
360
1097
0
DICTIONARY
5
109E
330
FA3
100
AcDbDictionary
280
1
281
1
3
ACAD_XREC_ROUNDTRIP
360
109F
0
DICTIONARY
5
1090
330
F9C
100
AcDbDictionary
280
1
281
1
3
ACAD_XREC_ROUNDTRIP
360
1091
0
DICTIONARY
5
1094
330
F9E
100
AcDbDictionary
280
1
281
1
3
ACAD_XREC_ROUNDTRIP
360
1095
0
DICTIONARY
5
10A4
330
FA6
100
AcDbDictionary
280
1
281
1
3
ACAD_XREC_ROUNDTRIP
360
10A5
0
DICTIONARY
5
109C
330
FA2
100
AcDbDictionary
280
1
281
1
3
ACAD_XREC_ROUNDTRIP
360
109D
0
DICTIONARY
5
1080
330
F94
100
AcDbDictionary
280
1
281
1
3
ACAD_XREC_ROUNDTRIP
360
1081
0
DICTIONARY
5
1082
330
F95
100
AcDbDictionary
280
1
281
1
3
ACAD_XREC_ROUNDTRIP
360
1083
0
DICTIONARY
5
1084
330
F96
100
AcDbDictionary
280
1
281
1
3
ACAD_XREC_ROUNDTRIP
360
1085
0
DICTIONARY
5
1086
330
F97
100
AcDbDictionary
280
1
281
1
3
ACAD_XREC_ROUNDTRIP
360
1087
0
DICTIONARY
5
10A0
330
FA4
100
AcDbDictionary
280
1
281
1
3
ACAD_XREC_ROUNDTRIP
360
10A1
0
DICTIONARY
5
109A
330
FA1
100
AcDbDictionary
280
1
281
1
3
ACAD_XREC_ROUNDTRIP
360
109B
0
DICTIONARY
5
10A2
330
FA5
100
AcDbDictionary
280
1
281
1
3
ACAD_XREC_ROUNDTRIP
360
10A3
0
DICTIONARY
5
1092
330
F9D
100
AcDbDictionary
280
1
281
1
3
ACAD_XREC_ROUNDTRIP
360
1093
0
DICTIONARY
5
1098
330
FA0
100
AcDbDictionary
280
1
281
1
3
ACAD_XREC_ROUNDTRIP
360
1099
0
XRECORD
5
10AA
102
{ACAD_REACTORS
330
10A9
102
}
330
10A9
100
AcDbXrecord
280
1
102
SHADEPLOT
70
0
102
SHADEPLOTRESLEVEL
70
2
102
SHADEPLOTCUSTOMDPI
70
300
0
XRECORD
5
10A8
102
{ACAD_REACTORS
330
10A7
102
}
330
10A7
100
AcDbXrecord
280
1
102
SHADEPLOT
70
0
102
SHADEPLOTRESLEVEL
70
2
102
SHADEPLOTCUSTOMDPI
70
300
0
XRECORD
5
FFF
102
{ACAD_REACTORS
330
F84
102
}
330
F84
100
AcDbXrecord
280
1
102
MATERIAL
148
0.0
149
0.0
149
0.0
93
0
94
127
282
0
72
0
77
0
171
0
175
0
179
0
273
0
0
XRECORD
5
F86
102
{ACAD_REACTORS
330
F84
102
}
330
F84
100
AcDbXrecord
280
1
270
1
271
1
0
XRECORD
5
F85
102
{ACAD_REACTORS
330
F84
102
}
330
F84
100
AcDbXrecord
280
1
270
1
271
1
0
XRECORD
5
F89
102
{ACAD_REACTORS
330
F84
102
}
330
F84
100
AcDbXrecord
280
1
270
1
271
1
0
XRECORD
5
F88
102
{ACAD_REACTORS
330
F84
102
}
330
F84
100
AcDbXrecord
280
1
270
1
271
1
0
XRECORD
5
F8A
102
{ACAD_REACTORS
330
F84
102
}
330
F84
100
AcDbXrecord
280
1
270
1
271
1
0
XRECORD
5
F87
102
{ACAD_REACTORS
330
F84
102
}
330
F84
100
AcDbXrecord
280
1
270
1
271
1
0
XRECORD
5
FFE
102
{ACAD_REACTORS
330
F7C
102
}
330
F7C
100
AcDbXrecord
280
1
102
MATERIAL
148
0.0
149
0.0
149
0.0
93
0
94
127
282
0
72
0
77
0
171
0
175
0
179
0
273
0
0
XRECORD
5
F7E
102
{ACAD_REACTORS
330
F7C
102
}
330
F7C
100
AcDbXrecord
280
1
270
1
271
1
0
XRECORD
5
F7D
102
{ACAD_REACTORS
330
F7C
102
}
330
F7C
100
AcDbXrecord
280
1
270
1
271
1
0
XRECORD
5
F81
102
{ACAD_REACTORS
330
F7C
102
}
330
F7C
100
AcDbXrecord
280
1
270
1
271
1
0
XRECORD
5
F80
102
{ACAD_REACTORS
330
F7C
102
}
330
F7C
100
AcDbXrecord
280
1
270
1
271
1
0
XRECORD
5
F82
102
{ACAD_REACTORS
330
F7C
102
}
330
F7C
100
AcDbXrecord
280
1
270
1
271
1
0
XRECORD
5
F7F
102
{ACAD_REACTORS
330
F7C
102
}
330
F7C
100
AcDbXrecord
280
1
270
1
271
1
0
XRECORD
5
1000
102
{ACAD_REACTORS
330
F8C
102
}
330
F8C
100
AcDbXrecord
280
1
102
MATERIAL
148
0.0
149
0.0
149
0.0
93
0
94
127
282
0
72
0
77
0
171
0
175
0
179
0
273
0
0
XRECORD
5
F8E
102
{ACAD_REACTORS
330
F8C
102
}
330
F8C
100
AcDbXrecord
280
1
270
1
271
1
0
XRECORD
5
F8D
102
{ACAD_REACTORS
330
F8C
102
}
330
F8C
100
AcDbXrecord
280
1
270
1
271
1
0
XRECORD
5
F91
102
{ACAD_REACTORS
330
F8C
102
}
330
F8C
100
AcDbXrecord
280
1
270
1
271
1
0
XRECORD
5
F90
102
{ACAD_REACTORS
330
F8C
102
}
330
F8C
100
AcDbXrecord
280
1
270
1
271
1
0
XRECORD
5
F92
102
{ACAD_REACTORS
330
F8C
102
}
330
F8C
100
AcDbXrecord
280
1
270
1
271
1
0
XRECORD
5
F8F
102
{ACAD_REACTORS
330
F8C
102
}
330
F8C
100
AcDbXrecord
280
1
270
1
271
1
0
CELLSTYLEMAP
5
1079
102
{ACAD_REACTORS
330
FF8
102
}
330
FF8
100
AcDbCellStyleMap
90
3
300
CELLSTYLE
1
TABLEFORMAT_BEGIN
90
5
170
1
91
0
92
32768
62
257
93
1
300
CONTENTFORMAT
1
CONTENTFORMAT_BEGIN
90
0
91
0
92
512
93
0
300

40
0.0
140
1.0
94
5
62
0
340
253
144
0.25
309
CONTENTFORMAT_END
171
1
301
MARGIN
1
CELLMARGIN_BEGIN
40
0.06
40
0.06
40
0.06
40
0.06
40
0.18
40
0.18
309
CELLMARGIN_END
94
6
95
1
302
GRIDFORMAT
1
GRIDFORMAT_BEGIN
90
0
91
1
62
0
92
-2
340
0
93
0
40
0.045
309
GRIDFORMAT_END
95
2
302
GRIDFORMAT
1
GRIDFORMAT_BEGIN
90
0
91
1
62
0
92
-2
340
0
93
0
40
0.045
309
GRIDFORMAT_END
95
4
302
GRIDFORMAT
1
GRIDFORMAT_BEGIN
90
0
91
1
62
0
92
-2
340
0
93
0
40
0.045
309
GRIDFORMAT_END
95
8
302
GRIDFORMAT
1
GRIDFORMAT_BEGIN
90
0
91
1
62
0
92
-2
340
0
93
0
40
0.045
309
GRIDFORMAT_END
95
16
302
GRIDFORMAT
1
GRIDFORMAT_BEGIN
90
0
91
1
62
0
92
-2
340
0
93
0
40
0.045
309
GRIDFORMAT_END
95
32
302
GRIDFORMAT
1
GRIDFORMAT_BEGIN
90
0
91
1
62
0
92
-2
340
0
93
0
40
0.045
309
GRIDFORMAT_END
309
TABLEFORMAT_END
1
CELLSTYLE_BEGIN
90
1
91
1
300
_TITLE
309
CELLSTYLE_END
300
CELLSTYLE
1
TABLEFORMAT_BEGIN
90
5
170
1
91
0
92
0
62
257
93
1
300
CONTENTFORMAT
1
CONTENTFORMAT_BEGIN
90
0
91
0
92
512
93
0
300

40
0.0
140
1.0
94
5
62
0
340
253
144
0.18
309
CONTENTFORMAT_END
171
1
301
MARGIN
1
CELLMARGIN_BEGIN
40
0.06
40
0.06
40
0.06
40
0.06
40
0.18
40
0.18
309
CELLMARGIN_END
94
6
95
1
302
GRIDFORMAT
1
GRIDFORMAT_BEGIN
90
0
91
1
62
0
92
-2
340
0
93
0
40
0.045
309
GRIDFORMAT_END
95
2
302
GRIDFORMAT
1
GRIDFORMAT_BEGIN
90
0
91
1
62
0
92
-2
340
0
93
0
40
0.045
309
GRIDFORMAT_END
95
4
302
GRIDFORMAT
1
GRIDFORMAT_BEGIN
90
0
91
1
62
0
92
-2
340
0
93
0
40
0.045
309
GRIDFORMAT_END
95
8
302
GRIDFORMAT
1
GRIDFORMAT_BEGIN
90
0
91
1
62
0
92
-2
340
0
93
0
40
0.045
309
GRIDFORMAT_END
95
16
302
GRIDFORMAT
1
GRIDFORMAT_BEGIN
90
0
91
1
62
0
92
-2
340
0
93
0
40
0.045
309
GRIDFORMAT_END
95
32
302
GRIDFORMAT
1
GRIDFORMAT_BEGIN
90
0
91
1
62
0
92
-2
340
0
93
0
40
0.045
309
GRIDFORMAT_END
309
TABLEFORMAT_END
1
CELLSTYLE_BEGIN
90
2
91
1
300
_HEADER
309
CELLSTYLE_END
300
CELLSTYLE
1
TABLEFORMAT_BEGIN
90
5
170
1
91
0
92
0
62
257
93
1
300
CONTENTFORMAT
1
CONTENTFORMAT_BEGIN
90
0
91
0
92
512
93
0
300

40
0.0
140
1.0
94
2
62
0
340
253
144
0.18
309
CONTENTFORMAT_END
171
1
301
MARGIN
1
CELLMARGIN_BEGIN
40
0.06
40
0.06
40
0.06
40
0.06
40
0.18
40
0.18
309
CELLMARGIN_END
94
6
95
1
302
GRIDFORMAT
1
GRIDFORMAT_BEGIN
90
0
91
1
62
0
92
-2
340
0
93
0
40
0.045
309
GRIDFORMAT_END
95
2
302
GRIDFORMAT
1
GRIDFORMAT_BEGIN
90
0
91
1
62
0
92
-2
340
0
93
0
40
0.045
309
GRIDFORMAT_END
95
4
302
GRIDFORMAT
1
GRIDFORMAT_BEGIN
90
0
91
1
62
0
92
-2
340
0
93
0
40
0.045
309
GRIDFORMAT_END
95
8
302
GRIDFORMAT
1
GRIDFORMAT_BEGIN
90
0
91
1
62
0
92
-2
340
0
93
0
40
0.045
309
GRIDFORMAT_END
95
16
302
GRIDFORMAT
1
GRIDFORMAT_BEGIN
90
0
91
1
62
0
92
-2
340
0
93
0
40
0.045
309
GRIDFORMAT_END
95
32
302
GRIDFORMAT
1
GRIDFORMAT_BEGIN
90
0
91
1
62
0
92
-2
340
0
93
0
40
0.045
309
GRIDFORMAT_END
309
TABLEFORMAT_END
1
CELLSTYLE_BEGIN
90
3
91
2
300
_DATA
309
CELLSTYLE_END
0
XRECORD
5
10A6
102
{ACAD_REACTORS
330
FF8
102
}
330
FF8
100
AcDbXrecord
280
1
102
ACAD_ROUNDTRIP_PRE2007_TABLESTYLE
90
512
91
0
1

92
512
93
0
2

94
512
95
0
3

0
XRECORD
5
108B
102
{ACAD_REACTORS
330
108A
102
}
330
108A
100
AcDbXrecord
280
1
102
RTVSPropertyOp0
70
1
102
RTVSPropertyOp1
70
1
102
RTVSPropertyOp2
70
1
102
RTVSPropertyOp3
70
1
102
RTVSPropertyOp4
70
1
102
RTVSPropertyOp5
70
1
102
RTVSPropertyOp6
70
1
102
RTVSPropertyOp7
70
1
102
RTVSPropertyOp8
70
1
102
RTVSPropertyOp9
70
1
102
RTVSPropertyOp10
70
1
102
RTVSPropertyOp11
70
1
102
RTVSPropertyOp12
70
1
102
RTVSPropertyOp13
70
1
102
RTVSPropertyOp14
70
1
102
RTVSPropertyOp15
70
1
102
RTVSPropertyOp16
70
1
102
RTVSPropertyOp17
70
1
102
RTVSPropertyOp18
70
1
102
RTVSPropertyOp19
70
1
102
RTVSPropertyOp20
70
1
102
RTVSPropertyOp21
70
1
102
RTVSPropertyOp22
70
1
102
RTVSPropertyOp23
70
1
102
RTVSPropertyOp24
70
1
102
RTVSPropertyOp25
70
1
102
RTVSPropertyOp26
70
1
102
RTVSPropertyOp27
70
1
0
XRECORD
5
108F
102
{ACAD_REACTORS
330
108E
102
}
330
108E
100
AcDbXrecord
280
1
102
RTVSPropertyOp0
70
1
102
RTVSPropertyOp1
70
1
102
RTVSPropertyOp2
70
1
102
RTVSPropertyOp3
70
1
102
RTVSPropertyOp4
70
1
102
RTVSPropertyOp5
70
1
102
RTVSPropertyOp6
70
1
102
RTVSPropertyOp7
70
1
102
RTVSPropertyOp8
70
1
102
RTVSPropertyOp9
70
1
102
RTVSPropertyOp10
70
1
102
RTVSPropertyOp11
70
1
102
RTVSPropertyOp12
70
1
102
RTVSPropertyOp13
70
1
102
RTVSPropertyOp14
70
1
102
RTVSPropertyOp15
70
1
102
RTVSPropertyOp16
70
1
102
RTVSPropertyOp17
70
1
102
RTVSPropertyOp18
70
1
102
RTVSPropertyOp19
70
1
102
RTVSPropertyOp20
70
1
102
RTVSPropertyOp21
70
1
102
RTVSPropertyOp22
70
1
102
RTVSPropertyOp23
70
1
102
RTVSPropertyOp24
70
1
102
RTVSPropertyOp25
70
1
102
RTVSPropertyOp26
70
1
102
RTVSPropertyOp27
70
1
0
XRECORD
5
108D
102
{ACAD_REACTORS
330
108C
102
}
330
108C
100
AcDbXrecord
280
1
102
RTVSPropertyOp0
70
1
102
RTVSPropertyOp1
70
1
102
RTVSPropertyOp2
70
1
102
RTVSPropertyOp3
70
1
102
RTVSPropertyOp4
70
1
102
RTVSPropertyOp5
70
1
102
RTVSPropertyOp6
70
1
102
RTVSPropertyOp7
70
1
102
RTVSPropertyOp8
70
1
102
RTVSPropertyOp9
70
1
102
RTVSPropertyOp10
70
1
102
RTVSPropertyOp11
70
1
102
RTVSPropertyOp12
70
1
102
RTVSPropertyOp13
70
1
102
RTVSPropertyOp14
70
1
102
RTVSPropertyOp15
70
1
102
RTVSPropertyOp16
70
1
102
RTVSPropertyOp17
70
1
102
RTVSPropertyOp18
70
1
102
RTVSPropertyOp19
70
1
102
RTVSPropertyOp20
70
1
102
RTVSPropertyOp21
70
1
102
RTVSPropertyOp22
70
1
102
RTVSPropertyOp23
70
1
102
RTVSPropertyOp24
70
1
102
RTVSPropertyOp25
70
1
102
RTVSPropertyOp26
70
1
102
RTVSPropertyOp27
70
1
0
XRECORD
5
1089
102
{ACAD_REACTORS
330
1088
102
}
330
1088
100
AcDbXrecord
280
1
102
RTVSPropertyOp0
70
1
102
RTVSPropertyOp1
70
1
102
RTVSPropertyOp2
70
1
102
RTVSPropertyOp3
70
1
102
RTVSPropertyOp4
70
1
102
RTVSPropertyOp5
70
1
102
RTVSPropertyOp6
70
1
102
RTVSPropertyOp7
70
1
102
RTVSPropertyOp8
70
1
102
RTVSPropertyOp9
70
1
102
RTVSPropertyOp10
70
1
102
RTVSPropertyOp11
70
1
102
RTVSPropertyOp12
70
1
102
RTVSPropertyOp13
70
1
102
RTVSPropertyOp14
70
1
102
RTVSPropertyOp15
70
1
102
RTVSPropertyOp16
70
1
102
RTVSPropertyOp17
70
1
102
RTVSPropertyOp18
70
1
102
RTVSPropertyOp19
70
1
102
RTVSPropertyOp20
70
1
102
RTVSPropertyOp21
70
1
102
RTVSPropertyOp22
70
1
102
RTVSPropertyOp23
70
1
102
RTVSPropertyOp24
70
1
102
RTVSPropertyOp25
70
1
102
RTVSPropertyOp26
70
1
102
RTVSPropertyOp27
70
1
0
XRECORD
5
1097
102
{ACAD_REACTORS
330
1096
102
}
330
1096
100
AcDbXrecord
280
1
102
RTVSPropertyOp0
70
1
102
RTVSPropertyOp1
70
1
102
RTVSPropertyOp2
70
1
102
RTVSPropertyOp3
70
1
102
RTVSPropertyOp4
70
1
102
RTVSPropertyOp5
70
1
102
RTVSPropertyOp6
70
1
102
RTVSPropertyOp7
70
1
102
RTVSPropertyOp8
70
1
102
RTVSPropertyOp9
70
1
102
RTVSPropertyOp10
70
1
102
RTVSPropertyOp11
70
1
102
RTVSPropertyOp12
70
1
102
RTVSPropertyOp13
70
1
102
RTVSPropertyOp14
70
1
102
RTVSPropertyOp15
70
1
102
RTVSPropertyOp16
70
1
102
RTVSPropertyOp17
70
1
102
RTVSPropertyOp18
70
1
102
RTVSPropertyOp19
70
1
102
RTVSPropertyOp20
70
1
102
RTVSPropertyOp21
70
1
102
RTVSPropertyOp22
70
1
102
RTVSPropertyOp23
70
1
102
RTVSPropertyOp24
70
1
102
RTVSPropertyOp25
70
1
102
RTVSPropertyOp26
70
1
102
RTVSPropertyOp27
70
1
0
XRECORD
5
109F
102
{ACAD_REACTORS
330
109E
102
}
330
109E
100
AcDbXrecord
280
1
102
RTVSPropertyOp0
70
1
102
RTVSPropertyOp1
70
1
102
RTVSPropertyOp2
70
1
102
RTVSPropertyOp3
70
1
102
RTVSPropertyOp4
70
1
102
RTVSPropertyOp5
70
1
102
RTVSPropertyOp6
70
1
102
RTVSPropertyOp7
70
1
102
RTVSPropertyOp8
70
1
102
RTVSPropertyOp9
70
1
102
RTVSPropertyOp10
70
1
102
RTVSPropertyOp11
70
1
102
RTVSPropertyOp12
70
1
102
RTVSPropertyOp13
70
1
102
RTVSPropertyOp14
70
1
102
RTVSPropertyOp15
70
1
102
RTVSPropertyOp16
70
1
102
RTVSPropertyOp17
70
1
102
RTVSPropertyOp18
70
1
102
RTVSPropertyOp19
70
1
102
RTVSPropertyOp20
70
1
102
RTVSPropertyOp21
70
1
102
RTVSPropertyOp22
70
1
102
RTVSPropertyOp23
70
1
102
RTVSPropertyOp24
70
1
102
RTVSPropertyOp25
70
1
102
RTVSPropertyOp26
70
1
102
RTVSPropertyOp27
70
1
0
XRECORD
5
1091
102
{ACAD_REACTORS
330
1090
102
}
330
1090
100
AcDbXrecord
280
1
102
RTVSPropertyOp0
70
1
102
RTVSPropertyOp1
70
1
102
RTVSPropertyOp2
70
1
102
RTVSPropertyOp3
70
1
102
RTVSPropertyOp4
70
1
102
RTVSPropertyOp5
70
1
102
RTVSPropertyOp6
70
1
102
RTVSPropertyOp7
70
1
102
RTVSPropertyOp8
70
1
102
RTVSPropertyOp9
70
1
102
RTVSPropertyOp10
70
1
102
RTVSPropertyOp11
70
1
102
RTVSPropertyOp12
70
1
102
RTVSPropertyOp13
70
1
102
RTVSPropertyOp14
70
1
102
RTVSPropertyOp15
70
1
102
RTVSPropertyOp16
70
1
102
RTVSPropertyOp17
70
1
102
RTVSPropertyOp18
70
1
102
RTVSPropertyOp19
70
1
102
RTVSPropertyOp20
70
1
102
RTVSPropertyOp21
70
1
102
RTVSPropertyOp22
70
1
102
RTVSPropertyOp23
70
1
102
RTVSPropertyOp24
70
1
102
RTVSPropertyOp25
70
1
102
RTVSPropertyOp26
70
1
102
RTVSPropertyOp27
70
1
0
XRECORD
5
1095
102
{ACAD_REACTORS
330
1094
102
}
330
1094
100
AcDbXrecord
280
1
102
RTVSPropertyOp0
70
1
102
RTVSPropertyOp1
70
1
102
RTVSPropertyOp2
70
1
102
RTVSPropertyOp3
70
1
102
RTVSPropertyOp4
70
1
102
RTVSPropertyOp5
70
1
102
RTVSPropertyOp6
70
1
102
RTVSPropertyOp7
70
1
102
RTVSPropertyOp8
70
1
102
RTVSPropertyOp9
70
1
102
RTVSPropertyOp10
70
1
102
RTVSPropertyOp11
70
1
102
RTVSPropertyOp12
70
1
102
RTVSPropertyOp13
70
1
102
RTVSPropertyOp14
70
1
102
RTVSPropertyOp15
70
1
102
RTVSPropertyOp16
70
1
102
RTVSPropertyOp17
70
1
102
RTVSPropertyOp18
70
1
102
RTVSPropertyOp19
70
1
102
RTVSPropertyOp20
70
1
102
RTVSPropertyOp21
70
1
102
RTVSPropertyOp22
70
1
102
RTVSPropertyOp23
70
1
102
RTVSPropertyOp24
70
1
102
RTVSPropertyOp25
70
1
102
RTVSPropertyOp26
70
1
102
RTVSPropertyOp27
70
1
0
XRECORD
5
10A5
102
{ACAD_REACTORS
330
10A4
102
}
330
10A4
100
AcDbXrecord
280
1
102
RTVSPropertyOp0
70
0
102
RTVSPropertyOp1
70
0
102
RTVSPropertyOp2
70
0
102
RTVSPropertyOp3
70
0
102
RTVSPropertyOp4
70
0
102
RTVSPropertyOp5
70
0
102
RTVSPropertyOp6
70
0
102
RTVSPropertyOp7
70
0
102
RTVSPropertyOp8
70
0
102
RTVSPropertyOp9
70
0
102
RTVSPropertyOp10
70
0
102
RTVSPropertyOp11
70
0
102
RTVSPropertyOp12
70
0
102
RTVSPropertyOp13
70
0
102
RTVSPropertyOp14
70
2
102
RTVSPropertyOp15
70
0
102
RTVSPropertyOp16
70
0
102
RTVSPropertyOp17
70
0
102
RTVSPropertyOp18
70
0
102
RTVSPropertyOp19
70
0
102
RTVSPropertyOp20
70
0
102
RTVSPropertyOp21
70
0
102
RTVSPropertyOp22
70
0
102
RTVSPropertyOp23
70
0
102
RTVSPropertyOp24
70
0
102
RTVSPropertyOp25
70
0
102
RTVSPropertyOp26
70
0
102
RTVSPropertyOp27
70
0
0
XRECORD
5
109D
102
{ACAD_REACTORS
330
109C
102
}
330
109C
100
AcDbXrecord
280
1
102
RTVSPropertyOp0
70
1
102
RTVSPropertyOp1
70
1
102
RTVSPropertyOp2
70
1
102
RTVSPropertyOp3
70
1
102
RTVSPropertyOp4
70
1
102
RTVSPropertyOp5
70
1
102
RTVSPropertyOp6
70
1
102
RTVSPropertyOp7
70
1
102
RTVSPropertyOp8
70
1
102
RTVSPropertyOp9
70
1
102
RTVSPropertyOp10
70
1
102
RTVSPropertyOp11
70
1
102
RTVSPropertyOp12
70
1
102
RTVSPropertyOp13
70
1
102
RTVSPropertyOp14
70
1
102
RTVSPropertyOp15
70
1
102
RTVSPropertyOp16
70
1
102
RTVSPropertyOp17
70
1
102
RTVSPropertyOp18
70
1
102
RTVSPropertyOp19
70
1
102
RTVSPropertyOp20
70
1
102
RTVSPropertyOp21
70
1
102
RTVSPropertyOp22
70
1
102
RTVSPropertyOp23
70
1
102
RTVSPropertyOp24
70
1
102
RTVSPropertyOp25
70
1
102
RTVSPropertyOp26
70
1
102
RTVSPropertyOp27
70
1
0
XRECORD
5
1081
102
{ACAD_REACTORS
330
1080
102
}
330
1080
100
AcDbXrecord
280
1
102
RTVSPropertyOp0
70
1
102
RTVSPropertyOp1
70
1
102
RTVSPropertyOp2
70
1
102
RTVSPropertyOp3
70
1
102
RTVSPropertyOp4
70
1
102
RTVSPropertyOp5
70
1
102
RTVSPropertyOp6
70
1
102
RTVSPropertyOp7
70
1
102
RTVSPropertyOp8
70
1
102
RTVSPropertyOp9
70
1
102
RTVSPropertyOp10
70
1
102
RTVSPropertyOp11
70
1
102
RTVSPropertyOp12
70
1
102
RTVSPropertyOp13
70
1
102
RTVSPropertyOp14
70
1
102
RTVSPropertyOp15
70
1
102
RTVSPropertyOp16
70
1
102
RTVSPropertyOp17
70
1
102
RTVSPropertyOp18
70
1
102
RTVSPropertyOp19
70
1
102
RTVSPropertyOp20
70
1
102
RTVSPropertyOp21
70
1
102
RTVSPropertyOp22
70
1
102
RTVSPropertyOp23
70
1
102
RTVSPropertyOp24
70
1
102
RTVSPropertyOp25
70
1
102
RTVSPropertyOp26
70
1
102
RTVSPropertyOp27
70
1
0
XRECORD
5
1083
102
{ACAD_REACTORS
330
1082
102
}
330
1082
100
AcDbXrecord
280
1
102
RTVSPropertyOp0
70
1
102
RTVSPropertyOp1
70
1
102
RTVSPropertyOp2
70
1
102
RTVSPropertyOp3
70
1
102
RTVSPropertyOp4
70
1
102
RTVSPropertyOp5
70
1
102
RTVSPropertyOp6
70
1
102
RTVSPropertyOp7
70
1
102
RTVSPropertyOp8
70
1
102
RTVSPropertyOp9
70
1
102
RTVSPropertyOp10
70
1
102
RTVSPropertyOp11
70
1
102
RTVSPropertyOp12
70
1
102
RTVSPropertyOp13
70
1
102
RTVSPropertyOp14
70
1
102
RTVSPropertyOp15
70
1
102
RTVSPropertyOp16
70
1
102
RTVSPropertyOp17
70
1
102
RTVSPropertyOp18
70
1
102
RTVSPropertyOp19
70
1
102
RTVSPropertyOp20
70
1
102
RTVSPropertyOp21
70
1
102
RTVSPropertyOp22
70
1
102
RTVSPropertyOp23
70
1
102
RTVSPropertyOp24
70
1
102
RTVSPropertyOp25
70
1
102
RTVSPropertyOp26
70
1
102
RTVSPropertyOp27
70
1
0
XRECORD
5
1085
102
{ACAD_REACTORS
330
1084
102
}
330
1084
100
AcDbXrecord
280
1
102
RTVSPropertyOp0
70
1
102
RTVSPropertyOp1
70
1
102
RTVSPropertyOp2
70
1
102
RTVSPropertyOp3
70
1
102
RTVSPropertyOp4
70
1
102
RTVSPropertyOp5
70
1
102
RTVSPropertyOp6
70
1
102
RTVSPropertyOp7
70
1
102
RTVSPropertyOp8
70
1
102
RTVSPropertyOp9
70
1
102
RTVSPropertyOp10
70
1
102
RTVSPropertyOp11
70
1
102
RTVSPropertyOp12
70
1
102
RTVSPropertyOp13
70
1
102
RTVSPropertyOp14
70
1
102
RTVSPropertyOp15
70
1
102
RTVSPropertyOp16
70
1
102
RTVSPropertyOp17
70
1
102
RTVSPropertyOp18
70
1
102
RTVSPropertyOp19
70
1
102
RTVSPropertyOp20
70
1
102
RTVSPropertyOp21
70
1
102
RTVSPropertyOp22
70
1
102
RTVSPropertyOp23
70
1
102
RTVSPropertyOp24
70
1
102
RTVSPropertyOp25
70
1
102
RTVSPropertyOp26
70
1
102
RTVSPropertyOp27
70
1
0
XRECORD
5
1087
102
{ACAD_REACTORS
330
1086
102
}
330
1086
100
AcDbXrecord
280
1
102
RTVSPropertyOp0
70
1
102
RTVSPropertyOp1
70
1
102
RTVSPropertyOp2
70
1
102
RTVSPropertyOp3
70
1
102
RTVSPropertyOp4
70
1
102
RTVSPropertyOp5
70
1
102
RTVSPropertyOp6
70
1
102
RTVSPropertyOp7
70
1
102
RTVSPropertyOp8
70
1
102
RTVSPropertyOp9
70
1
102
RTVSPropertyOp10
70
1
102
RTVSPropertyOp11
70
1
102
RTVSPropertyOp12
70
1
102
RTVSPropertyOp13
70
1
102
RTVSPropertyOp14
70
1
102
RTVSPropertyOp15
70
1
102
RTVSPropertyOp16
70
1
102
RTVSPropertyOp17
70
1
102
RTVSPropertyOp18
70
1
102
RTVSPropertyOp19
70
1
102
RTVSPropertyOp20
70
1
102
RTVSPropertyOp21
70
1
102
RTVSPropertyOp22
70
1
102
RTVSPropertyOp23
70
1
102
RTVSPropertyOp24
70
1
102
RTVSPropertyOp25
70
1
102
RTVSPropertyOp26
70
1
102
RTVSPropertyOp27
70
1
0
XRECORD
5
10A1
102
{ACAD_REACTORS
330
10A0
102
}
330
10A0
100
AcDbXrecord
280
1
102
RTVSPropertyOp0
70
0
102
RTVSPropertyOp1
70
0
102
RTVSPropertyOp2
70
0
102
RTVSPropertyOp3
70
0
102
RTVSPropertyOp4
70
0
102
RTVSPropertyOp5
70
0
102
RTVSPropertyOp6
70
0
102
RTVSPropertyOp7
70
0
102
RTVSPropertyOp8
70
0
102
RTVSPropertyOp9
70
0
102
RTVSPropertyOp10
70
0
102
RTVSPropertyOp11
70
0
102
RTVSPropertyOp12
70
0
102
RTVSPropertyOp13
70
0
102
RTVSPropertyOp14
70
2
102
RTVSPropertyOp15
70
0
102
RTVSPropertyOp16
70
0
102
RTVSPropertyOp17
70
0
102
RTVSPropertyOp18
70
0
102
RTVSPropertyOp19
70
0
102
RTVSPropertyOp20
70
0
102
RTVSPropertyOp21
70
0
102
RTVSPropertyOp22
70
0
102
RTVSPropertyOp23
70
0
102
RTVSPropertyOp24
70
0
102
RTVSPropertyOp25
70
0
102
RTVSPropertyOp26
70
0
102
RTVSPropertyOp27
70
0
0
XRECORD
5
109B
102
{ACAD_REACTORS
330
109A
102
}
330
109A
100
AcDbXrecord
280
1
102
RTVSPropertyOp0
70
1
102
RTVSPropertyOp1
70
1
102
RTVSPropertyOp2
70
1
102
RTVSPropertyOp3
70
1
102
RTVSPropertyOp4
70
1
102
RTVSPropertyOp5
70
1
102
RTVSPropertyOp6
70
1
102
RTVSPropertyOp7
70
1
102
RTVSPropertyOp8
70
1
102
RTVSPropertyOp9
70
1
102
RTVSPropertyOp10
70
1
102
RTVSPropertyOp11
70
1
102
RTVSPropertyOp12
70
1
102
RTVSPropertyOp13
70
1
102
RTVSPropertyOp14
70
1
102
RTVSPropertyOp15
70
1
102
RTVSPropertyOp16
70
1
102
RTVSPropertyOp17
70
1
102
RTVSPropertyOp18
70
1
102
RTVSPropertyOp19
70
1
102
RTVSPropertyOp20
70
1
102
RTVSPropertyOp21
70
1
102
RTVSPropertyOp22
70
1
102
RTVSPropertyOp23
70
1
102
RTVSPropertyOp24
70
1
102
RTVSPropertyOp25
70
1
102
RTVSPropertyOp26
70
1
102
RTVSPropertyOp27
70
1
0
XRECORD
5
10A3
102
{ACAD_REACTORS
330
10A2
102
}
330
10A2
100
AcDbXrecord
280
1
102
RTVSPropertyOp0
70
0
102
RTVSPropertyOp1
70
0
102
RTVSPropertyOp2
70
0
102
RTVSPropertyOp3
70
0
102
RTVSPropertyOp4
70
0
102
RTVSPropertyOp5
70
0
102
RTVSPropertyOp6
70
0
102
RTVSPropertyOp7
70
0
102
RTVSPropertyOp8
70
0
102
RTVSPropertyOp9
70
0
102
RTVSPropertyOp10
70
0
102
RTVSPropertyOp11
70
0
102
RTVSPropertyOp12
70
0
102
RTVSPropertyOp13
70
0
102
RTVSPropertyOp14
70
2
102
RTVSPropertyOp15
70
0
102
RTVSPropertyOp16
70
0
102
RTVSPropertyOp17
70
0
102
RTVSPropertyOp18
70
0
102
RTVSPropertyOp19
70
0
102
RTVSPropertyOp20
70
0
102
RTVSPropertyOp21
70
0
102
RTVSPropertyOp22
70
0
102
RTVSPropertyOp23
70
0
102
RTVSPropertyOp24
70
0
102
RTVSPropertyOp25
70
0
102
RTVSPropertyOp26
70
0
102
RTVSPropertyOp27
70
0
0
XRECORD
5
1093
102
{ACAD_REACTORS
330
1092
102
}
330
1092
100
AcDbXrecord
280
1
102
RTVSPropertyOp0
70
1
102
RTVSPropertyOp1
70
1
102
RTVSPropertyOp2
70
1
102
RTVSPropertyOp3
70
1
102
RTVSPropertyOp4
70
1
102
RTVSPropertyOp5
70
1
102
RTVSPropertyOp6
70
1
102
RTVSPropertyOp7
70
1
102
RTVSPropertyOp8
70
1
102
RTVSPropertyOp9
70
1
102
RTVSPropertyOp10
70
1
102
RTVSPropertyOp11
70
1
102
RTVSPropertyOp12
70
1
102
RTVSPropertyOp13
70
1
102
RTVSPropertyOp14
70
1
102
RTVSPropertyOp15
70
1
102
RTVSPropertyOp16
70
1
102
RTVSPropertyOp17
70
1
102
RTVSPropertyOp18
70
1
102
RTVSPropertyOp19
70
1
102
RTVSPropertyOp20
70
1
102
RTVSPropertyOp21
70
1
102
RTVSPropertyOp22
70
1
102
RTVSPropertyOp23
70
1
102
RTVSPropertyOp24
70
1
102
RTVSPropertyOp25
70
1
102
RTVSPropertyOp26
70
1
102
RTVSPropertyOp27
70
1
0
XRECORD
5
1099
102
{ACAD_REACTORS
330
1098
102
}
330
1098
100
AcDbXrecord
280
1
102
RTVSPropertyOp0
70
1
102
RTVSPropertyOp1
70
1
102
RTVSPropertyOp2
70
1
102
RTVSPropertyOp3
70
1
102
RTVSPropertyOp4
70
1
102
RTVSPropertyOp5
70
1
102
RTVSPropertyOp6
70
1
102
RTVSPropertyOp7
70
1
102
RTVSPropertyOp8
70
1
102
RTVSPropertyOp9
70
1
102
RTVSPropertyOp10
70
1
102
RTVSPropertyOp11
70
1
102
RTVSPropertyOp12
70
1
102
RTVSPropertyOp13
70
1
102
RTVSPropertyOp14
70
1
102
RTVSPropertyOp15
70
1
102
RTVSPropertyOp16
70
1
102
RTVSPropertyOp17
70
1
102
RTVSPropertyOp18
70
1
102
RTVSPropertyOp19
70
1
102
RTVSPropertyOp20
70
1
102
RTVSPropertyOp21
70
1
102
RTVSPropertyOp22
70
1
102
RTVSPropertyOp23
70
1
102
RTVSPropertyOp24
70
1
102
RTVSPropertyOp25
70
1
102
RTVSPropertyOp26
70
1
102
RTVSPropertyOp27
70
1
0
ENDSEC
0
EOF
