0
SECTION
2
HEADER
9
$ACADVER
1
AC1015
9
$ACADMAINTVER
70
20
9
$DWGCODEPAGE
3
ANSI_1252
9
$INSBASE
10
0.0
20
0.0
30
0.0
9
$EXTMIN
10
-150.000000000000
20
-105.000000000000
30
0.0
9
$EXTMAX
10
150.000000000000
20
105.000000000000
30
0.0
9
$LIMMIN
10
0.0
20
0.0
9
$LIMMAX
10
12.0
20
9.0
9
$ORTHOMODE
70
0
9
$REGENMODE
70
1
9
$FILLMODE
70
1
9
$QTEXTMODE
70
0
9
$MIRRTEXT
70
1
9
$LTSCALE
40
1.0
9
$ATTMODE
70
1
9
$TEXTSIZE
40
0.2
9
$TRACEWID
40
0.05
9
$TEXTSTYLE
7
Standard
9
$CLAYER
8
0
9
$CELTYPE
6
ByLayer
9
$CECOLOR
62
256
9
$CELTSCALE
40
1.0
9
$DISPSILH
70
0
9
$DIMSCALE
40
1.0
9
$DIMASZ
40
2.5
9
$DIMEXO
40
0.625
9
$DIMDLI
40
0.38
9
$DIMRND
40
0.0
9
$DIMDLE
40
0.0
9
$DIMEXE
40
1.25
9
$DIMTP
40
0.0
9
$DIMTM
40
0.000000001
9
$DIMTXT
40
2.5
9
$DIMCEN
40
0.09
9
$DIMTSZ
40
0.0
9
$DIMTOL
70
1
9
$DIMLIM
70
0
9
$DIMTIH
70
0
9
$DIMTOH
70
0
9
$DIMSE1
70
0
9
$DIMSE2
70
0
9
$DIMTAD
70
1
9
$DIMZIN
70
0
9
$DIMBLK
1
VDDIM_DEFAULT
9
$DIMASO
70
1
9
$DIMSHO
70
1
9
$DIMPOST
1

9
$DIMAPOST
1

9
$DIMALT
70
0
9
$DIMALTD
70
2
9
$DIMALTF
40
25.4
9
$DIMLFAC
40
1.00000000000000
9
$DIMTOFL
70
0
9
$DIMTVP
40
0.0
9
$DIMTIX
70
0
9
$DIMSOXD
70
0
9
$DIMSAH
70
0
9
$DIMBLK1
1

9
$DIMBLK2
1

9
$DIMSTYLE
2
BEM-ISBE
9
$DIMCLRD
70
0
9
$DIMCLRE
70
0
9
$DIMCLRT
70
0
9
$DIMTFAC
40
0.5
9
$DIMGAP
40
0.625
9
$DIMJUST
70
0
9
$DIMSD1
70
0
9
$DIMSD2
70
0
9
$DIMTOLJ
70
1
9
$DIMTZIN
70
0
9
$DIMALTZ
70
0
9
$DIMALTTZ
70
0
9
$DIMUPT
70
0
9
$DIMDEC
70
3
9
$DIMTDEC
70
3
9
$DIMALTU
70
2
9
$DIMALTTD
70
2
9
$DIMTXSTY
7
Standard
9
$DIMAUNIT
70
0
9
$DIMADEC
70
3
9
$DIMALTRND
40
0.0
9
$DIMAZIN
70
0
9
$DIMDSEP
70
46
9
$DIMATFIT
70
3
9
$DIMFRAC
70
0
9
$DIMLDRBLK
1

9
$DIMLUNIT
70
2
9
$DIMLWD
70
-2
9
$DIMLWE
70
-2
9
$DIMTMOVE
70
0
9
$LUNITS
70
2
9
$LUPREC
70
4
9
$SKETCHINC
40
0.1
9
$FILLETRAD
40
0.5
9
$AUNITS
70
0
9
$AUPREC
70
0
9
$MENU
1
.
9
$ELEVATION
40
0.0
9
$PELEVATION
40
0.0
9
$THICKNESS
40
0.0
9
$LIMCHECK
70
0
9
$CHAMFERA
40
0.5
9
$CHAMFERB
40
0.5
9
$CHAMFERC
40
1.0
9
$CHAMFERD
40
0.0
9
$SKPOLY
70
0
9
$TDCREATE
40
0.0
9
$TDUCREATE
40
0.0
9
$TDUPDATE
40
0.0
9
$TDUUPDATE
40
0.0
9
$TDINDWG
40
0.0
9
$TDUSRTIMER
40
0.0
9
$USRTIMER
70
1
9
$ANGBASE
50
0.0
9
$ANGDIR
70
0
9
$PDMODE
70
0
9
$PDSIZE
40
0.0
9
$PLINEWID
40
0.0
9
$SPLFRAME
70
0
9
$SPLINETYPE
70
6
9
$SPLINESEGS
70
8
9
$HANDSEED
5
10AB
9
$SURFTAB1
70
6
9
$SURFTAB2
70
6
9
$SURFTYPE
70
6
9
$SURFU
70
6
9
$SURFV
70
6
9
$UCSBASE
2

9
$UCSNAME
2

9
$UCSORG
10
0.0
20
0.0
30
0.0
9
$UCSXDIR
10
1.0
20
0.0
30
0.0
9
$UCSYDIR
10
0.0
20
1.0
30
0.0
9
$UCSORTHOREF
2

9
$UCSORTHOVIEW
70
0
9
$UCSORGTOP
10
0.0
20
0.0
30
0.0
9
$UCSORGBOTTOM
10
0.0
20
0.0
30
0.0
9
$UCSORGLEFT
10
0.0
20
0.0
30
0.0
9
$UCSORGRIGHT
10
0.0
20
0.0
30
0.0
9
$UCSORGFRONT
10
0.0
20
0.0
30
0.0
9
$UCSORGBACK
10
0.0
20
0.0
30
0.0
9
$PUCSBASE
2

9
$PUCSNAME
2

9
$PUCSORG
10
0.0
20
0.0
30
0.0
9
$PUCSXDIR
10
1.0
20
0.0
30
0.0
9
$PUCSYDIR
10
0.0
20
1.0
30
0.0
9
$PUCSORTHOREF
2

9
$PUCSORTHOVIEW
70
0
9
$PUCSORGTOP
10
0.0
20
0.0
30
0.0
9
$PUCSORGBOTTOM
10
0.0
20
0.0
30
0.0
9
$PUCSORGLEFT
10
0.0
20
0.0
30
0.0
9
$PUCSORGRIGHT
10
0.0
20
0.0
30
0.0
9
$PUCSORGFRONT
10
0.0
20
0.0
30
0.0
9
$PUCSORGBACK
10
0.0
20
0.0
30
0.0
9
$USERI1
70
0
9
$USERI2
70
0
9
$USERI3
70
0
9
$USERI4
70
0
9
$USERI5
70
0
9
$USERR1
40
0.0
9
$USERR2
40
0.0
9
$USERR3
40
0.0
9
$USERR4
40
0.0
9
$USERR5
40
0.0
9
$WORLDVIEW
70
1
9
$SHADEDGE
70
3
9
$SHADEDIF
70
70
9
$TILEMODE
70
1
9
$MAXACTVP
70
64
9
$PINSBASE
10
0.0
20
0.0
30
0.0
9
$PLIMCHECK
70
0
9
$PEXTMIN
10
1.000000000000000E+20
20
1.000000000000000E+20
30
1.000000000000000E+20
9
$PEXTMAX
10
-1.000000000000000E+20
20
-1.000000000000000E+20
30
-1.000000000000000E+20
9
$PLIMMIN
10
0.0
20
0.0
9
$PLIMMAX
10
12.0
20
9.0
9
$UNITMODE
70
0
9
$VISRETAIN
70
1
9
$PLINEGEN
70
0
9
$PSLTSCALE
70
1
9
$TREEDEPTH
70
3020
9
$CMLSTYLE
2
Standard
9
$CMLJUST
70
0
9
$CMLSCALE
40
1.0
9
$PROXYGRAPHICS
70
1
9
$MEASUREMENT
70
0
9
$CELWEIGHT
370
-1
9
$ENDCAPS
280
0
9
$JOINSTYLE
280
0
9
$LWDISPLAY
290
0
9
$INSUNITS
70
4
9
$HYPERLINKBASE
1

9
$STYLESHEET
1

9
$XEDIT
290
1
9
$CEPSNTYPE
380
0
9
$PSTYLEMODE
290
0
9
$FINGERPRINTGUID
2
{FAEB1C30-E019-11D5-929B-00C0DF256EC4}
9
$VERSIONGUID
2
{04C5C4E4-4947-4D90-8812-D401569E61F7}
9
$EXTNAMES
290
1
9
$PSVPSCALE
40
0.0
9
$OLESTARTUP
290
0
0
ENDSEC
0
SECTION
2
TABLES
0
TABLE
2
VPORT
5
24A
330
0
100
AcDbSymbolTable
70
1
0
VPORT
5
26B
330
24A
100
AcDbSymbolTableRecord
100
AcDbViewportTableRecord
2
*Active
70
0
10
0.0
20
0.0
11
1.0
21
1.0
12
0.000000000000000
22
0.000000000000000
13
0.0
23
0.0
14
10.0
24
10.0
15
10.0
25
10.0
16
0.0
26
0.0
36
1.0
17
0.0
27
0.0
37
0.0
40
210.000000000000
41
1.42857142857143
42
1.0
43
0.0
44
0.0
50
0.0
51
0.0000000000007958
71
0
72
100
73
1
74
3
75
0
76
0
77
0
78
1
281
0
65
1
110
0.0
120
0.0
130
0.0
111
1.0
121
0.0
131
0.0
112
0.0
122
1.0
132
0.0
79
0
146
0.0
0
ENDTAB
0
TABLE
2
LTYPE
5
247
330
0
100
AcDbSymbolTable
70
25
0
LTYPE
5
256
330
247
100
AcDbSymbolTableRecord
100
AcDbLinetypeTableRecord
2
ByBlock
70
0
3

72
65
73
0
40
0.0
0
LTYPE
5
257
330
247
100
AcDbSymbolTableRecord
100
AcDbLinetypeTableRecord
2
ByLayer
70
0
3

72
65
73
0
40
0.0
0
LTYPE
5
258
330
247
100
AcDbSymbolTableRecord
100
AcDbLinetypeTableRecord
2
Continuous
70
0
3
Solid line
72
65
73
0
40
0.0
0
LTYPE
5
273
330
247
100
AcDbSymbolTableRecord
100
AcDbLinetypeTableRecord
2
CENTER
70
0
3
Center ____ _ ____ _ ____ _ ____ _ ____ _ ____
72
65
73
4
40
2.0
49
1.25
74
0
49
-0.25
74
0
49
0.25
74
0
49
-0.25
74
0
0
LTYPE
5
274
330
247
100
AcDbSymbolTableRecord
100
AcDbLinetypeTableRecord
2
DASHDOT
70
0
3
Dashdot __ . __ . __ . __ . __ . __ . __ . __
72
65
73
4
40
1.0
49
0.5
74
0
49
-0.25
74
0
49
0.0
74
0
49
-0.25
74
0
0
LTYPE
5
275
330
247
100
AcDbSymbolTableRecord
100
AcDbLinetypeTableRecord
2
DASHED
70
0
3
Dashed __ __ __ __ __ __ __ __ __ __ __ __ __ _
72
65
73
2
40
0.75
49
0.5
74
0
49
-0.25
74
0
0
LTYPE
5
276
330
247
100
AcDbSymbolTableRecord
100
AcDbLinetypeTableRecord
2
HIDDEN
70
0
3
Hidden __ __ __ __ __ __ __ __ __ __ __ __ __ __
72
65
73
2
40
0.375
49
0.25
74
0
49
-0.125
74
0
0
LTYPE
5
277
330
247
100
AcDbSymbolTableRecord
100
AcDbLinetypeTableRecord
2
HIDDEN2
70
0
3
Hidden2 _ _ _ _ _ _ _ _ _ _ _ _ _ _ _ _ _
72
65
73
2
40
0.1875
49
0.125
74
0
49
-0.0625
74
0
0
LTYPE
5
278
330
247
100
AcDbSymbolTableRecord
100
AcDbLinetypeTableRecord
2
BORDER
70
0
3
Border __ __ . __ __ . __ __ . __ __ . __ __ .
72
65
73
6
40
1.75
49
0.5
74
0
49
-0.25
74
0
49
0.5
74
0
49
-0.25
74
0
49
0.0
74
0
49
-0.25
74
0
0
LTYPE
5
279
330
247
100
AcDbSymbolTableRecord
100
AcDbLinetypeTableRecord
2
BORDER2
70
0
3
Border2 __.__.__.__.__.__.__.__.__.__.__.
72
65
73
6
40
0.875
49
0.25
74
0
49
-0.125
74
0
49
0.25
74
0
49
-0.125
74
0
49
0.0
74
0
49
-0.125
74
0
0
LTYPE
5
27A
330
247
100
AcDbSymbolTableRecord
100
AcDbLinetypeTableRecord
2
BORDERX2
70
0
3
Borderx2  ____  ____  .  ____  ____  .  ___
72
65
73
6
40
3.5
49
1.0
74
0
49
-0.5
74
0
49
1.0
74
0
49
-0.5
74
0
49
0.0
74
0
49
-0.5
74
0
0
LTYPE
5
27B
330
247
100
AcDbSymbolTableRecord
100
AcDbLinetypeTableRecord
2
CENTER2
70
0
3
Center2  ___ _ ___ _ ___ _ ___ _ ___ _ ___
72
65
73
4
40
1.125
49
0.75
74
0
49
-0.125
74
0
49
0.125
74
0
49
-0.125
74
0
0
LTYPE
5
27C
330
247
100
AcDbSymbolTableRecord
100
AcDbLinetypeTableRecord
2
CENTERX2
70
0
3
Centerx2  ________  __  ________  __  _____
72
65
73
4
40
4.0
49
2.5
74
0
49
-0.5
74
0
49
0.5
74
0
49
-0.5
74
0
0
LTYPE
5
27D
330
247
100
AcDbSymbolTableRecord
100
AcDbLinetypeTableRecord
2
DASHDOT2
70
0
3
Dashdot2  _._._._._._._._._._._._._._._.
72
65
73
4
40
0.5
49
0.25
74
0
49
-0.125
74
0
49
0.0
74
0
49
-0.125
74
0
0
LTYPE
5
27E
330
247
100
AcDbSymbolTableRecord
100
AcDbLinetypeTableRecord
2
DASHDOTX2
70
0
3
Dashdotx2 ____  .  ____  .  ____  .  ___
72
65
73
4
40
2.0
49
1.0
74
0
49
-0.5
74
0
49
0.0
74
0
49
-0.5
74
0
0
LTYPE
5
27F
330
247
100
AcDbSymbolTableRecord
100
AcDbLinetypeTableRecord
2
DASHED2
70
0
3
Dashed2 _ _ _ _ _ _ _ _ _ _ _ _ _ _ _ _ _
72
65
73
2
40
0.375
49
0.25
74
0
49
-0.125
74
0
0
LTYPE
5
280
330
247
100
AcDbSymbolTableRecord
100
AcDbLinetypeTableRecord
2
DASHEDX2
70
0
3
Dashedx2 ____  ____  ____  ____  ____  ___
72
65
73
2
40
1.5
49
1.0
74
0
49
-0.5
74
0
0
LTYPE
5
281
330
247
100
AcDbSymbolTableRecord
100
AcDbLinetypeTableRecord
2
DIVIDE
70
0
3
Divide ____ . . ____ . . ____ . . ____ . . ____
72
65
73
6
40
1.25
49
0.5
74
0
49
-0.25
74
0
49
0.0
74
0
49
-0.25
74
0
49
0.0
74
0
49
-0.25
74
0
0
LTYPE
5
282
330
247
100
AcDbSymbolTableRecord
100
AcDbLinetypeTableRecord
2
DIVIDE2
70
0
3
Divide2 __..__..__..__..__..__..__..__.._
72
65
73
6
40
0.625
49
0.25
74
0
49
-0.125
74
0
49
0.0
74
0
49
-0.125
74
0
49
0.0
74
0
49
-0.125
74
0
0
LTYPE
5
283
330
247
100
AcDbSymbolTableRecord
100
AcDbLinetypeTableRecord
2
DIVIDEX2
70
0
3
Dividex2 ________  .  .  ________  .  .  _
72
65
73
6
40
2.5
49
1.0
74
0
49
-0.5
74
0
49
0.0
74
0
49
-0.5
74
0
49
0.0
74
0
49
-0.5
74
0
0
LTYPE
5
284
330
247
100
AcDbSymbolTableRecord
100
AcDbLinetypeTableRecord
2
DOT
70
0
3
Dot . . . . . . . . . . . . . . . . . . . . . . . .
72
65
73
2
40
0.25
49
0.0
74
0
49
-0.25
74
0
0
LTYPE
5
285
330
247
100
AcDbSymbolTableRecord
100
AcDbLinetypeTableRecord
2
DOT2
70
0
3
Dot2 ........................................
72
65
73
2
40
0.125
49
0.0
74
0
49
-0.125
74
0
0
LTYPE
5
286
330
247
100
AcDbSymbolTableRecord
100
AcDbLinetypeTableRecord
2
DOTX2
70
0
3
Dotx2 .  .  .  .  .  .  .  .  .  .  .  .  .  .
72
65
73
2
40
0.5
49
0.0
74
0
49
-0.5
74
0
0
LTYPE
5
287
330
247
100
AcDbSymbolTableRecord
100
AcDbLinetypeTableRecord
2
HIDDENX2
70
0
3
Hiddenx2 ____ ____ ____ ____ ____ ____ ____
72
65
73
2
40
0.75
49
0.5
74
0
49
-0.25
74
0
0
LTYPE
5
288
330
247
100
AcDbSymbolTableRecord
100
AcDbLinetypeTableRecord
2
PHANTOM
70
0
3
Phantom ______  __  __  ______  __  __  ______
72
65
73
6
40
2.5
49
1.25
74
0
49
-0.25
74
0
49
0.25
74
0
49
-0.25
74
0
49
0.25
74
0
49
-0.25
74
0
0
LTYPE
5
289
330
247
100
AcDbSymbolTableRecord
100
AcDbLinetypeTableRecord
2
PHANTOM2
70
0
3
Phantom2 ___ _ _ ___ _ _ ___ _ _ ___ _ _
72
65
73
6
40
1.25
49
0.625
74
0
49
-0.125
74
0
49
0.125
74
0
49
-0.125
74
0
49
0.125
74
0
49
-0.125
74
0
0
LTYPE
5
28A
330
247
100
AcDbSymbolTableRecord
100
AcDbLinetypeTableRecord
2
PHANTOMX2
70
0
3
Phantomx2 ____________    ____    ____   _
72
65
73
6
40
5.0
49
2.5
74
0
49
-0.5
74
0
49
0.5
74
0
49
-0.5
74
0
49
0.5
74
0
49
-0.5
74
0
0
ENDTAB
0
TABLE
2
LAYER
5
244
330
0
100
AcDbSymbolTable
70
6
0
LAYER
5
252
330
244
100
AcDbSymbolTableRecord
100
AcDbLayerTableRecord
2
0
70
0
62
7
6
Continuous
370
0
390
251
0
LAYER
5
23F
330
244
100
AcDbSymbolTableRecord
100
AcDbLayerTableRecord
2
Bemassung
70
0
 62
   7
6
Continuous
370
0
390
251
0
LAYER
5
240
330
244
100
AcDbSymbolTableRecord
100
AcDbLayerTableRecord
2
Rahmen
70
0
 62
   7
6
Continuous
370
0
390
251
0
LAYER
5
241
330
244
100
AcDbSymbolTableRecord
100
AcDbLayerTableRecord
2
Geo
70
0
 62
   7
6
Continuous
370
0
390
251
0
LAYER
5
33A
330
244
100
AcDbSymbolTableRecord
100
AcDbLayerTableRecord
2
Defpoints
70
0
62
7
6
Continuous
290
0
370
-3
390
251
0
LAYER
5
57E
330
244
100
AcDbSymbolTableRecord
100
AcDbLayerTableRecord
2
Text
70
0
 62
   7
6
Continuous
370
0
390
251
1001
AcAecLayerStandard
1000

1000

0
ENDTAB
0
TABLE
2
STYLE
5
245
330
0
100
AcDbSymbolTable
70
2
0
STYLE
5
253
330
245
100
AcDbSymbolTableRecord
100
AcDbTextStyleTableRecord
2
Standard
70
0
40
0.0
41
1.0
50
0.0
71
0
42
0.2
3
Arial
4

1001
ACAD
1000
Arial
1071
0
0
STYLE
5
132
330
245
100
AcDbSymbolTableRecord
100
AcDbTextStyleTableRecord
2
Beschriftung
70
0
40
0.0
41
1.0
50
0.0
71
0
42
0.2
3
Arial
4

1001
ACAD
1000
Arial
1071
0
1001
AcadAnnotative
1000
AnnotativeData
1070
1
1070
1
0
ENDTAB
0
TABLE
2
VIEW
5
248
330
0
100
AcDbSymbolTable
70
0
0
ENDTAB
0
TABLE
2
UCS
5
249
330
0
100
AcDbSymbolTable
70
0
0
ENDTAB
0
TABLE
2
APPID
5
24B
330
0
100
AcDbSymbolTable
70
13
0
APPID
5
254
330
24B
100
AcDbSymbolTableRecord
100
AcDbRegAppTableRecord
2
ACAD
70
0
0
APPID
5
26C
330
24B
100
AcDbSymbolTableRecord
100
AcDbRegAppTableRecord
2
VD_INVISIBLE_NOT_FOR_READ
70
0
0
APPID
5
26D
330
24B
100
AcDbSymbolTableRecord
100
AcDbRegAppTableRecord
2
VD_TEMPHATCH
70
0
0
APPID
5
26E
330
24B
100
AcDbSymbolTableRecord
100
AcDbRegAppTableRecord
2
VDEXTRAPARAM
70
0
0
APPID
5
26F
330
24B
100
AcDbSymbolTableRecord
100
AcDbRegAppTableRecord
2
PE_URL
70
0
0
APPID
5
270
330
24B
100
AcDbSymbolTableRecord
100
AcDbRegAppTableRecord
2
VD_UNKNOWN
70
0
0
APPID
5
28F
330
24B
100
AcDbSymbolTableRecord
100
AcDbRegAppTableRecord
2
AcadAnnotative
70
0
0
APPID
5
290
330
24B
100
AcDbSymbolTableRecord
100
AcDbRegAppTableRecord
2
ACAD_DSTYLE_DIMJAG
70
0
0
APPID
5
291
330
24B
100
AcDbSymbolTableRecord
100
AcDbRegAppTableRecord
2
ACAD_DSTYLE_DIMTALN
70
0
0
APPID
5
293
330
24B
100
AcDbSymbolTableRecord
100
AcDbRegAppTableRecord
2
ACAD_PSEXT
70
0
0
APPID
5
42A
330
24B
100
AcDbSymbolTableRecord
100
AcDbRegAppTableRecord
2
ACAD_MLEADERVER
70
0
0
APPID
5
532
330
24B
100
AcDbSymbolTableRecord
100
AcDbRegAppTableRecord
2
ACAD_EXEMPT_FROM_CAD_STANDARDS
70
0
0
APPID
5
57F
330
24B
100
AcDbSymbolTableRecord
100
AcDbRegAppTableRecord
2
AcAecLayerStandard
70
0
0
ENDTAB
0
TABLE
2
DIMSTYLE
5
24C
330
0
100
AcDbSymbolTable
70
3
100
AcDbDimStyleTable
71
2
340
27
340
269
0
DIMSTYLE
105
269
330
24C
100
AcDbSymbolTableRecord
100
AcDbDimStyleTableRecord
2
Standard
70
0
172
1
174
1
288
1
340
253
342
23C
0
DIMSTYLE
105
137
330
24C
100
AcDbSymbolTableRecord
100
AcDbDimStyleTableRecord
2
Beschriftung
70
0
41
2.5
42
0.625
44
1.25
73
0
74
0
77
1
140
2.5
147
0.625
172
1
174
1
271
2
288
1
340
253
342
23C
1001
AcadAnnotative
1000
AnnotativeData
1070
1
1070
1
1001
ACAD_DSTYLE_DIMJAG
1070
388
1040
1.5
1001
ACAD_DSTYLE_DIMTALN
1070
392
1070
0
0
DIMSTYLE
105
27
102
{ACAD_REACTORS
330
F10012
330
F1001C
330
F10021
330
F10003
330
F1000D
330
F10008
330
F10017
102
}
330
24C
100
AcDbSymbolTableRecord
100
AcDbDimStyleTableRecord
2
BEM-ISBE
70
0
41
2.5
42
0.625
44
1.25
48
0.000000001
71
1
73
0
74
0
77
1
140
2.5
144
1.00000000000000
146
0.5
147
0.625
171
 3
172
 1
179
 3
271
 3
272
 3
274
 3
340
253
342
23C
1001
ACAD_DSTYLE_DIMJAG
1070
388
1040
1.5
1001
ACAD_DSTYLE_DIMTALN
1070
392
1070
1
0
ENDTAB
0
TABLE
2
BLOCK_RECORD
5
243
330
0
100
AcDbSymbolTable
70
5
0
BLOCK_RECORD
5
261
330
243
100
AcDbSymbolTableRecord
100
AcDbBlockTableRecord
2
*Model_Space
340
FD0
0
BLOCK_RECORD
5
25D
330
243
100
AcDbSymbolTableRecord
100
AcDbBlockTableRecord
2
*Paper_Space
340
FD1
0
BLOCK_RECORD
5
265
330
243
100
AcDbSymbolTableRecord
100
AcDbBlockTableRecord
2
*Paper_Space0
340
0
0
BLOCK_RECORD
5
23C
330
243
100
AcDbSymbolTableRecord
100
AcDbBlockTableRecord
2
VDDIM_DEFAULT
340
0
102
{BLKREFS
102
}
0
BLOCK_RECORD
5
23E
330
243
100
AcDbSymbolTableRecord
100
AcDbBlockTableRecord
2
VDDIM_NONE
340
0
0
BLOCK_RECORD
5
F10011
330
243
100
AcDbSymbolTableRecord
100
AcDbBlockTableRecord
2
*D6
340
0
0
BLOCK_RECORD
5
F1001B
330
243
100
AcDbSymbolTableRecord
100
AcDbBlockTableRecord
2
*D8
340
0
0
BLOCK_RECORD
5
F10020
330
243
100
AcDbSymbolTableRecord
100
AcDbBlockTableRecord
2
*D9
340
0
0
BLOCK_RECORD
5
F10002
330
243
100
AcDbSymbolTableRecord
100
AcDbBlockTableRecord
2
*D3
340
0
0
BLOCK_RECORD
5
F1000C
330
243
100
AcDbSymbolTableRecord
100
AcDbBlockTableRecord
2
*D5
340
0
0
BLOCK_RECORD
5
F10007
330
243
100
AcDbSymbolTableRecord
100
AcDbBlockTableRecord
2
*D4
340
0
0
BLOCK_RECORD
5
F10016
330
243
100
AcDbSymbolTableRecord
100
AcDbBlockTableRecord
2
*D7
340
0
0
ENDTAB
0
ENDSEC
0
SECTION
2
BLOCKS
0
BLOCK
5
262
330
261
100
AcDbEntity
8
0
100
AcDbBlockBegin
2
*Model_Space
70
0
10
0.0
20
0.0
30
0.0
3
*Model_Space
1

0
ENDBLK
5
263
330
261
100
AcDbEntity
8
0
100
AcDbBlockEnd
0
BLOCK
5
25E
330
25D
100
AcDbEntity
67
1
8
0
100
AcDbBlockBegin
2
*Paper_Space
70
0
10
0.0
20
0.0
30
0.0
3
*Paper_Space
1

0
ENDBLK
5
25F
330
25D
100
AcDbEntity
67
1
8
0
100
AcDbBlockEnd
0
BLOCK
5
266
330
265
100
AcDbEntity
8
0
100
AcDbBlockBegin
2
*Paper_Space0
70
0
10
0.0
20
0.0
30
0.0
3
*Paper_Space0
1

0
VIEWPORT
5
296
102
{ACAD_XDICTIONARY
360
58E
102
}
330
265
100
AcDbEntity
8
0
60
1
100
AcDbViewport
10
0.0
20
0.0
30
0.0
40
10.0
41
10.0
69
0
12
0.0
22
0.0
13
0.0
23
0.0
14
1.0
24
1.0
15
0.0
25
0.0
16
0.0
26
0.0
36
1.0
17
0.0
27
0.0
37
0.0
42
0.0
43
0.0
44
0.0
45
10.0
50
0.0
51
0.0000000000007958
72
100
90
163872
1

281
0
71
0
74
0
110
0.0
120
0.0
130
0.0
111
1.0
121
0.0
131
0.0
112
0.0
122
1.0
132
0.0
79
0
146
0.0
1001
VD_INVISIBLE_NOT_FOR_READ
1000
VD_INVISIBLE_NOT_FOR_READ
0
VIEWPORT
5
297
102
{ACAD_XDICTIONARY
360
590
102
}
330
265
100
AcDbEntity
8
0
60
1
100
AcDbViewport
10
0.0
20
0.0
30
0.0
40
10.0
41
10.0
69
0
12
0.0
22
0.0
13
0.0
23
0.0
14
1.0
24
1.0
15
0.0
25
0.0
16
0.0
26
0.0
36
1.0
17
0.0
27
0.0
37
0.0
42
0.0
43
0.0
44
0.0
45
10.0
50
0.0
51
0.0000000000007958
72
100
90
163872
1

281
0
71
0
74
0
110
0.0
120
0.0
130
0.0
111
1.0
121
0.0
131
0.0
112
0.0
122
1.0
132
0.0
79
0
146
0.0
1001
VD_INVISIBLE_NOT_FOR_READ
1000
VD_INVISIBLE_NOT_FOR_READ
0
ENDBLK
5
267
330
265
100
AcDbEntity
8
0
100
AcDbBlockEnd
0
BLOCK
5
28B
330
23C
100
AcDbEntity
8
0
100
AcDbBlockBegin
2
VDDIM_DEFAULT
70
0
10
0.0
20
0.0
30
0.0
3
VDDIM_DEFAULT
1

0
LWPOLYLINE
5
23D
330
23C
100
AcDbEntity
8
0
6
Continuous
62
0
100
AcDbPolyline
90
4
70
0
43
0.0
10
0.0
20
0.0
10
-1.0
20
-0.1665
10
-1.0
20
0.1665
10
0.0
20
0.0
1001
VDEXTRAPARAM
1071
1
1071
0
1071
0
1040
1.0
1000

1000

1040
0.0
1040
0.0
0
HATCH
5
292
330
23C
100
AcDbEntity
8
0
6
Continuous
62
0
100
AcDbHatch
10
0.0
20
0.0
30
0.0
210
0.0
220
0.0
230
1.0
2
SOLID
70
1
71
0
91
1
92
2
72
0
73
1
93
3
10
0.0
20
0.0
10
-1.0
20
-0.1665
10
-1.0
20
0.1665
97
0
75
0
76
1
98
1
10
0.0
20
0.0
1001
VDEXTRAPARAM
1071
1
1071
0
1071
0
1040
1.0
1000

1000

1040
0.0
1040
0.0
1001
VD_TEMPHATCH
1000
VD_TEMPHATCH
0
ENDBLK
5
28C
330
23C
100
AcDbEntity
8
0
100
AcDbBlockEnd
0
BLOCK
5
28D
330
23E
100
AcDbEntity
8
0
100
AcDbBlockBegin
2
VDDIM_NONE
70
0
10
0.0
20
0.0
30
0.0
3
VDDIM_NONE
1

0
ENDBLK
5
28E
330
23E
100
AcDbEntity
8
0
100
AcDbBlockEnd
  0
BLOCK
  5
F10025
330
F10011
100
AcDbEntity
  8
0
100
AcDbBlockBegin
  2
*D6
 70
     1
 10
0.0
 20
0.0
 30
0.0
  3
*D6
  1

  0
LINE
  5
F10026
330
F10011
100
AcDbEntity
  8
Bemassung
 62
     0
370
    -2
100
AcDbLine
10
-75.1423931344833
20
5.38725084768214
30
0.000000000000000
11
-75.1423931344833
21
17.3872508476821
31
0.000000000000000
  0
LINE
  5
F10027
330
F10011
100
AcDbEntity
  8
Bemassung
 62
     0
370
    -2
100
AcDbLine
10
-27.1423931344833
20
4.88725084768214
30
0.000000000000000
11
-27.1423931344833
21
22.3872508476821
31
0.000000000000000
  0
LINE
  5
F10028
330
F10011
100
AcDbEntity
  8
Bemassung
 62
     0
370
    -2
100
AcDbLine
10
-75.1423931344833
20
15.3872508476821
30
0.000000000000000
11
41.5574066948718
21
15.3872508476821
31
0.000000000000000
  0
INSERT
  5
F10029
330
F10011
100
AcDbEntity
  8
Bemassung
 62
     0
370
    -2
100
AcDbBlockReference
  2
VDDIM_DEFAULT
10
-75.1423931344833
20
15.3872508476821
30
0.000000000000000
 41
2.50000000000000
 42
2.50000000000000
 43
2.50000000000000
 50
180.000000000000
  0
INSERT
  5
F1002A
330
F10011
100
AcDbEntity
  8
Bemassung
 62
     0
370
    -2
100
AcDbBlockReference
  2
VDDIM_DEFAULT
10
-27.1423931344833
20
15.3872508476821
30
0.000000000000000
 41
2.50000000000000
 42
2.50000000000000
 43
2.50000000000000
  0
MTEXT
  5
F1002B
330
F10011
100
AcDbEntity
  8
Bemassung
 62
     0
100
AcDbMText
10
-51.1423931344833
20
16.0539175143488
30
0.000000000000000
 40
2.50000000000000
 41
0.0
 71
     8
 72
     1
  1
48
 11
1.00000000000000
 21
0.000000000000000
 31
0.0
 73
     1
 44
1.0
1001
ACAD
1000
MTEXTBEGIN
1070
73
1070
1
1070
44
1040
1.0
1070
74
1070
0
1000
MTEXTEND
  0
POINT
  5
F1002C
330
F10011
100
AcDbEntity
  8
Bemassung
 62
     0
100
AcDbPoint
10
-75.1423931344833
20
5.38725084768214
30
0.000000000000000
  0
POINT
  5
F1002D
330
F10011
100
AcDbEntity
  8
Bemassung
 62
     0
100
AcDbPoint
10
-27.1423931344833
20
4.88725084768214
30
0.000000000000000
  0
ENDBLK
  5
F1002E
330
F10011
100
AcDbEntity
  8
0
100
AcDbBlockEnd
  0
BLOCK
  5
F1002F
330
F1001B
100
AcDbEntity
  8
0
100
AcDbBlockBegin
  2
*D8
 70
     1
 10
0.0
 20
0.0
 30
0.0
  3
*D8
  1

  0
LINE
  5
F10030
330
F1001B
100
AcDbEntity
  8
Bemassung
 62
     0
370
    -2
100
AcDbLine
10
-75.1423931344833
20
-4.61274915231786
30
0.000000000000000
11
-75.1423931344833
21
-11.6127491523179
31
0.000000000000000
  0
LINE
  5
F10031
330
F1001B
100
AcDbEntity
  8
Bemassung
 62
     0
370
    -2
100
AcDbLine
10
-97.1423931344833
20
-11.6127491523179
30
0.000000000000000
11
-97.1423931344833
21
22.3872508476821
31
0.000000000000000
  0
LINE
  5
F10032
330
F1001B
100
AcDbEntity
  8
Bemassung
 62
     0
370
    -2
100
AcDbLine
10
-63.4917187466447
20
-9.61274915231786
30
0.000000000000000
11
-97.1423931344833
21
-9.61274915231786
31
0.000000000000000
  0
INSERT
  5
F10033
330
F1001B
100
AcDbEntity
  8
Bemassung
 62
     0
370
    -2
100
AcDbBlockReference
  2
VDDIM_DEFAULT
10
-75.1423931344833
20
-9.61274915231786
30
0.000000000000000
 41
2.50000000000000
 42
2.50000000000000
 43
2.50000000000000
  0
INSERT
  5
F10034
330
F1001B
100
AcDbEntity
  8
Bemassung
 62
     0
370
    -2
100
AcDbBlockReference
  2
VDDIM_DEFAULT
10
-97.1423931344833
20
-9.61274915231786
30
0.000000000000000
 41
2.50000000000000
 42
2.50000000000000
 43
2.50000000000000
 50
180.000000000000
  0
MTEXT
  5
F10035
330
F1001B
100
AcDbEntity
  8
Bemassung
 62
     0
100
AcDbMText
10
-86.1423931344833
20
-8.94608248565119
30
0.000000000000000
 40
2.50000000000000
 41
0.0
 71
     8
 72
     1
  1
22
 11
1.00000000000000
 21
0.000000000000000
 31
0.0
 73
     1
 44
1.0
1001
ACAD
1000
MTEXTBEGIN
1070
73
1070
1
1070
44
1040
1.0
1070
74
1070
0
1000
MTEXTEND
  0
POINT
  5
F10036
330
F1001B
100
AcDbEntity
  8
Bemassung
 62
     0
100
AcDbPoint
10
-75.1423931344833
20
-4.61274915231786
30
0.000000000000000
  0
POINT
  5
F10037
330
F1001B
100
AcDbEntity
  8
Bemassung
 62
     0
100
AcDbPoint
10
-97.1423931344833
20
-11.6127491523179
30
0.000000000000000
  0
ENDBLK
  5
F10038
330
F1001B
100
AcDbEntity
  8
0
100
AcDbBlockEnd
  0
BLOCK
  5
F10039
330
F10020
100
AcDbEntity
  8
0
100
AcDbBlockBegin
  2
*D9
 70
     1
 10
0.0
 20
0.0
 30
0.0
  3
*D9
  1

  0
LINE
  5
F1003A
330
F10020
100
AcDbEntity
  8
Bemassung
 62
     0
370
    -2
100
AcDbLine
10
-27.1423931344833
20
4.88725084768214
30
0.000000000000000
11
-27.1423931344833
21
22.3872508476821
31
0.000000000000000
  0
LINE
  5
F1003B
330
F10020
100
AcDbEntity
  8
Bemassung
 62
     0
370
    -2
100
AcDbLine
10
-97.1423931344833
20
-11.6127491523179
30
0.000000000000000
11
-97.1423931344833
21
22.3872508476821
31
0.000000000000000
  0
LINE
  5
F1003C
330
F10020
100
AcDbEntity
  8
Bemassung
 62
     0
370
    -2
100
AcDbLine
10
8.63156140723228
20
20.3872508476821
30
0.000000000000000
11
-97.1423931344833
21
20.3872508476821
31
0.000000000000000
  0
INSERT
  5
F1003D
330
F10020
100
AcDbEntity
  8
Bemassung
 62
     0
370
    -2
100
AcDbBlockReference
  2
VDDIM_DEFAULT
10
-27.1423931344833
20
20.3872508476821
30
0.000000000000000
 41
2.50000000000000
 42
2.50000000000000
 43
2.50000000000000
  0
INSERT
  5
F1003E
330
F10020
100
AcDbEntity
  8
Bemassung
 62
     0
370
    -2
100
AcDbBlockReference
  2
VDDIM_DEFAULT
10
-97.1423931344833
20
20.3872508476821
30
0.000000000000000
 41
2.50000000000000
 42
2.50000000000000
 43
2.50000000000000
 50
180.000000000000
  0
MTEXT
  5
F1003F
330
F10020
100
AcDbEntity
  8
Bemassung
 62
     0
100
AcDbMText
10
-62.1423931344833
20
21.0539175143488
30
0.000000000000000
 40
2.50000000000000
 41
0.0
 71
     8
 72
     1
  1
70
 11
1.00000000000000
 21
0.000000000000000
 31
0.0
 73
     1
 44
1.0
1001
ACAD
1000
MTEXTBEGIN
1070
73
1070
1
1070
44
1040
1.0
1070
74
1070
0
1000
MTEXTEND
  0
POINT
  5
F10040
330
F10020
100
AcDbEntity
  8
Bemassung
 62
     0
100
AcDbPoint
10
-27.1423931344833
20
4.88725084768214
30
0.000000000000000
  0
POINT
  5
F10041
330
F10020
100
AcDbEntity
  8
Bemassung
 62
     0
100
AcDbPoint
10
-97.1423931344833
20
-11.6127491523179
30
0.000000000000000
  0
ENDBLK
  5
F10042
330
F10020
100
AcDbEntity
  8
0
100
AcDbBlockEnd
  0
BLOCK
  5
F10043
330
F10002
100
AcDbEntity
  8
0
100
AcDbBlockBegin
  2
*D3
 70
     1
 10
0.0
 20
0.0
 30
0.0
  3
*D3
  1

 0
ARC
  5
F10044
330
F10002
100
AcDbEntity
  8
Bemassung
 62
     0
370
   -2
100
AcDbCircle
10
-97.1420885479929
20
4.86980109933089
30
0.000000000000000
 40
11.8186194918846
100
AcDbArc
 50
90.0000000000000
 51
104.162327051258
  0
LINE
  5
F10045
330
F10002
100
AcDbEntity
  8
Bemassung
 62
     0
370
    -2
100
AcDbLine
10
-97.1420885479929
20
4.86980109933089
30
0.000000000000000
11
-97.1420885479929
21
18.6884205912155
31
0.000000000000000
  0
LINE
  5
F10046
330
F10002
100
AcDbEntity
  8
Bemassung
 62
     0
370
    -2
100
AcDbLine
10
-97.1420885479929
20
4.86980109933089
30
0.000000000000000
11
-97.6243514133830
21
18.6800026615876
31
0.000000000000000
  0
INSERT
  5
F10047
330
F10002
100
AcDbEntity
  8
Bemassung
 62
     0
370
    -2
100
AcDbBlockReference
  2
VDDIM_DEFAULT
10
-97.1420885479929
20
16.6884205912155
30
0.000000000000000
 41
2.50000000000000
 42
2.50000000000000
 43
2.50000000000000
 50
179.757603032790
  0
INSERT
  5
F10048
330
F10002
100
AcDbEntity
  8
Bemassung
 62
     0
370
    -2
100
AcDbBlockReference
  2
VDDIM_DEFAULT
10
-97.5545524199780
20
16.6812210075494
30
0.000000000000000
 41
2.50000000000000
 42
2.50000000000000
 43
2.50000000000000
 50
2.24239696721312
  0
MTEXT
  5
F10049
330
F10002
100
AcDbEntity
  8
Bemassung
 62
     0
100
AcDbMText
10
-101.161834569181
20
15.9838196623485
30
0.000000000000000
 40
2.50000000000000
 41
0.0
 71
     8
 72
     1
  1
2°
 11
0.938343116817110
 21
0.345705358827356
 31
0.0
 73
     1
 44
1.0
1001
ACAD
1000
MTEXTBEGIN
1070
73
1070
1
1070
44
1040
1.0
1070
74
1070
0
1000
MTEXTEND
  0
POINT
  5
F1004A
330
F10002
100
AcDbEntity
  8
Bemassung
 62
     0
100
AcDbPoint
10
-97.1420885479929
20
4.86980109933089
30
0.000000000000000
  0
POINT
  5
F1004B
330
F10002
100
AcDbEntity
  8
Bemassung
 62
     0
100
AcDbPoint
10
-97.1420885479929
20
16.6884205912155
30
0.000000000000000
  0
POINT
  5
F1004C
330
F10002
100
AcDbEntity
  8
Bemassung
 62
     0
100
AcDbPoint
10
-97.5545524199780
20
16.6812210075494
30
0.000000000000000
  0
POINT
  5
F1004D
330
F10002
100
AcDbEntity
  8
Bemassung
 62
     0
100
AcDbPoint
10
-97.3483518988929
20
16.6866205582221
30
0.000000000000000
  0
ENDBLK
  5
F1004E
330
F10002
100
AcDbEntity
  8
0
100
AcDbBlockEnd
  0
BLOCK
  5
F1004F
330
F1000C
100
AcDbEntity
  8
0
100
AcDbBlockBegin
  2
*D5
 70
     1
 10
0.0
 20
0.0
 30
0.0
  3
*D5
  1

  0
LINE
  5
F10050
330
F1000C
100
AcDbEntity
  8
Bemassung
 62
     0
370
    -2
100
AcDbLine
10
-97.0020630346527
20
5.23458003291164
30
0.000000000000000
11
-110.103369024106
21
17.8863641622392
31
0.000000000000000
  0
INSERT
  5
F10051
330
F1000C
100
AcDbEntity
  8
Bemassung
 62
     0
370
    -2
100
AcDbBlockReference
  2
VDDIM_DEFAULT
10
-97.0020630346527
20
5.23458003291164
30
0.000000000000000
 41
2.50000000000000
 42
2.50000000000000
 43
2.50000000000000
 50
316.000000000000
  0
MTEXT
  5
F10052
330
F1000C
100
AcDbEntity
  8
Bemassung
 62
     0
100
AcDbMText
10
-104.195461038039
20
12.1811637375016
30
0.000000000000000
 40
2.50000000000000
 41
0.0
 71
     8
 72
     1
  1
R0.5
 11
0.719339800338652
 21
-0.694658370458996
 31
0.0
 73
     1
 44
1.0
1001
ACAD
1000
MTEXTBEGIN
1070
73
1070
1
1070
44
1040
1.0
1070
74
1070
0
1000
MTEXTEND
  0
POINT
  5
F10053
330
F1000C
100
AcDbEntity
  8
Bemassung
 62
     0
100
AcDbPoint
10
-97.0020630346527
20
5.23458003291164
30
0.000000000000000
  0
POINT
  5
F10054
330
F1000C
100
AcDbEntity
  8
Bemassung
 62
     0
100
AcDbPoint
10
-96.6423931344833
20
4.88725084768214
30
0.000000000000000
  0
ENDBLK
  5
F10055
330
F1000C
100
AcDbEntity
  8
0
100
AcDbBlockEnd
  0
BLOCK
  5
F10056
330
F10007
100
AcDbEntity
  8
0
100
AcDbBlockBegin
  2
*D4
 70
     1
 10
0.0
 20
0.0
 30
0.0
  3
*D4
  1

  0
LINE
  5
F10057
330
F10007
100
AcDbEntity
  8
Bemassung
 62
     0
370
    -2
100
AcDbLine
10
-96.6423931344833
20
-4.61274915231786
30
0.000000000000000
11
-109.142393134483
21
-4.61274915231786
31
0.000000000000000
  0
LINE
  5
F10058
330
F10007
100
AcDbEntity
  8
Bemassung
 62
     0
370
    -2
100
AcDbLine
10
-96.6423931344833
20
5.38725084768214
30
0.000000000000000
11
-109.142393134483
21
5.38725084768214
31
0.000000000000000
  0
LINE
  5
F10059
330
F10007
100
AcDbEntity
  8
Bemassung
 62
     0
370
    -2
100
AcDbLine
10
-107.142393134483
20
-4.61274915231786
30
0.000000000000000
11
-107.142393134483
21
5.38725084768214
31
0.000000000000000
  0
INSERT
  5
F1005A
330
F10007
100
AcDbEntity
  8
Bemassung
 62
     0
370
    -2
100
AcDbBlockReference
  2
VDDIM_DEFAULT
10
-107.142393134483
20
-4.61274915231786
30
0.000000000000000
 41
2.50000000000000
 42
2.50000000000000
 43
2.50000000000000
 50
270.000000000000
  0
INSERT
  5
F1005B
330
F10007
100
AcDbEntity
  8
Bemassung
 62
     0
370
    -2
100
AcDbBlockReference
  2
VDDIM_DEFAULT
10
-107.142393134483
20
5.38725084768214
30
0.000000000000000
 41
2.50000000000000
 42
2.50000000000000
 43
2.50000000000000
 50
90.0000000000000
  0
MTEXT
  5
F1005C
330
F10007
100
AcDbEntity
  8
Bemassung
 62
     0
100
AcDbMText
10
-106.475726467817
20
0.387250847682139
30
0.000000000000000
 40
2.50000000000000
 41
0.0
 71
     8
 72
     1
  1
10
 11
6.12323399573677e-017
 21
1.00000000000000
 31
0.0
 73
     1
 44
1.0
1001
ACAD
1000
MTEXTBEGIN
1070
73
1070
1
1070
44
1040
1.0
1070
74
1070
0
1000
MTEXTEND
  0
POINT
  5
F1005D
330
F10007
100
AcDbEntity
  8
Bemassung
 62
     0
100
AcDbPoint
10
-96.6423931344833
20
-4.61274915231786
30
0.000000000000000
  0
POINT
  5
F1005E
330
F10007
100
AcDbEntity
  8
Bemassung
 62
     0
100
AcDbPoint
10
-96.6423931344833
20
5.38725084768214
30
0.000000000000000
  0
ENDBLK
  5
F1005F
330
F10007
100
AcDbEntity
  8
0
100
AcDbBlockEnd
  0
BLOCK
  5
F10060
330
F10016
100
AcDbEntity
  8
0
100
AcDbBlockBegin
  2
*D7
 70
     1
 10
0.0
 20
0.0
 30
0.0
  3
*D7
  1

  0
LINE
  5
F10061
330
F10016
100
AcDbEntity
  8
Bemassung
 62
     0
370
    -2
100
AcDbLine
10
-27.6423931344833
20
-4.61274915231786
30
0.000000000000000
11
-15.1423931344833
21
-4.61274915231786
31
0.000000000000000
  0
LINE
  5
F10062
330
F10016
100
AcDbEntity
  8
Bemassung
 62
     0
370
    -2
100
AcDbLine
10
-27.6423931344833
20
5.38725084768214
30
0.000000000000000
11
-15.1423931344833
21
5.38725084768214
31
0.000000000000000
  0
LINE
  5
F10063
330
F10016
100
AcDbEntity
  8
Bemassung
 62
     0
370
    -2
100
AcDbLine
10
-17.1423931344833
20
-4.61274915231786
30
0.000000000000000
11
-17.1423931344833
21
5.38725084768214
31
0.000000000000000
  0
INSERT
  5
F10064
330
F10016
100
AcDbEntity
  8
Bemassung
 62
     0
370
    -2
100
AcDbBlockReference
  2
VDDIM_DEFAULT
10
-17.1423931344833
20
-4.61274915231786
30
0.000000000000000
 41
2.50000000000000
 42
2.50000000000000
 43
2.50000000000000
 50
270.000000000000
  0
INSERT
  5
F10065
330
F10016
100
AcDbEntity
  8
Bemassung
 62
     0
370
    -2
100
AcDbBlockReference
  2
VDDIM_DEFAULT
10
-17.1423931344833
20
5.38725084768214
30
0.000000000000000
 41
2.50000000000000
 42
2.50000000000000
 43
2.50000000000000
 50
90.0000000000000
  0
MTEXT
  5
F10066
330
F10016
100
AcDbEntity
  8
Bemassung
 62
     0
100
AcDbMText
10
-16.4757264678167
20
0.387250847682139
30
0.000000000000000
 40
2.50000000000000
 41
0.0
 71
     8
 72
     1
  1
10h6
 11
6.12323399573677e-017
 21
1.00000000000000
 31
0.0
 73
     1
 44
1.0
  0
POINT
  5
F10067
330
F10016
100
AcDbEntity
  8
Bemassung
 62
     0
100
AcDbPoint
10
-27.6423931344833
20
-4.61274915231786
30
0.000000000000000
  0
POINT
  5
F10068
330
F10016
100
AcDbEntity
  8
Bemassung
 62
     0
100
AcDbPoint
10
-27.6423931344833
20
5.38725084768214
30
0.000000000000000
  0
ENDBLK
  5
F10069
330
F10016
100
AcDbEntity
  8
0
100
AcDbBlockEnd
0
ENDSEC
0
SECTION
2
ENTITIES
  0
DIMENSION
  5
F10012
330
261
100
AcDbEntity
  8
Bemassung
100
AcDbDimension
  2
*D6
10
-27.1423931344833
20
15.3872508476821
30
0.000000000000000
11
-51.1423931344833
21
16.0539175143488
31
0.000000000000000
 70
32
 1
48
 71
     8
  3
BEM-ISBE
100
AcDbAlignedDimension
13
-75.1423931344833
23
5.38725084768214
33
0.000000000000000
14
-27.1423931344833
24
4.88725084768214
34
0.000000000000000
100
AcDbRotatedDimension
1001
ACAD
1000
DSTYLE
1002
{
1070
284
1070
8
1070
78
1070
8
1070
144
1040
1.00000000000000
1070
147
1040
0.625
1070
 72
1070
 0
1070
 71
1070
 0
1002
}
  0
DIMENSION
  5
F1001C
330
261
100
AcDbEntity
  8
Bemassung
100
AcDbDimension
  2
*D8
10
-97.1423931344833
20
-9.61274915231786
30
0.000000000000000
11
-86.1423931344833
21
-8.94608248565119
31
0.000000000000000
 70
32
 1
22
 71
     8
  3
BEM-ISBE
100
AcDbAlignedDimension
13
-75.1423931344833
23
-4.61274915231786
33
0.000000000000000
14
-97.1423931344833
24
-11.6127491523179
34
0.000000000000000
100
AcDbRotatedDimension
1001
ACAD
1000
DSTYLE
1002
{
1070
284
1070
8
1070
78
1070
8
1070
144
1040
1.00000000000000
1070
147
1040
0.625
1070
 72
1070
 0
1070
 71
1070
 0
1002
}
  0
DIMENSION
  5
F10021
330
261
100
AcDbEntity
  8
Bemassung
100
AcDbDimension
  2
*D9
10
-97.1423931344833
20
20.3872508476821
30
0.000000000000000
11
-62.1423931344833
21
21.0539175143488
31
0.000000000000000
 70
32
 1
70
 71
     8
  3
BEM-ISBE
100
AcDbAlignedDimension
13
-27.1423931344833
23
4.88725084768214
33
0.000000000000000
14
-97.1423931344833
24
-11.6127491523179
34
0.000000000000000
100
AcDbRotatedDimension
1001
ACAD
1000
DSTYLE
1002
{
1070
284
1070
8
1070
78
1070
8
1070
144
1040
1.00000000000000
1070
147
1040
0.625
1070
 72
1070
 0
1070
 71
1070
 0
1002
}
  0
DIMENSION
  5
F10003
330
261
100
AcDbEntity
  8
Bemassung
100
AcDbDimension
  2
*D3
10
-97.1420885479929
20
4.86980109933089
30
0.000000000000000
11
-101.161834569181
21
15.9838196623485
31
0.000000000000000
 70
34
 1
2°
 71
     8
  3
BEM-ISBE
100
AcDb2LineAngularDimension
13
-97.1420885479929
23
4.86980109933089
33
0.000000000000000
14
-100.033749069366
24
16.3292106008317
34
0.000000000000000
15
-97.1420885479929
25
16.6884205912155
35
0.000000000000000
16
-97.3483518988929
26
16.6866205582221
36
0.000000000000000
1001
ACAD
1000
DSTYLE
1002
{
1070
284
1070
8
1070
79
1070
2
1070
147
1040
0.625
1070
 72
1070
 0
1070
 71
1070
 0
1002
}
  0
DIMENSION
  5
F1000D
330
261
100
AcDbEntity
  8
Bemassung
100
AcDbDimension
  2
*D5
10
-96.6423931344833
20
4.88725084768214
30
0.000000000000000
11
-104.195461038039
21
12.1811637375016
31
0.000000000000000
 70
164
 1
R0.5
 71
     8
  3
BEM-ISBE
100
AcDbRadialDimension
15
-97.0020630346527
25
5.23458003291164
35
0.000000000000000
40
0.0
1001
ACAD
1000
DSTYLE
1002
{
1070
284
1070
8
1070
78
1070
8
1070
144
1040
1.00000000000000
1070
147
1040
0.625
1070
 72
1070
 0
1070
 71
1070
 0
1002
}
  0
DIMENSION
  5
F10008
330
261
100
AcDbEntity
  8
Bemassung
100
AcDbDimension
  2
*D4
10
-107.142393134483
20
5.38725084768214
30
0.000000000000000
11
-106.475726467817
21
0.387250847682139
31
0.000000000000000
 70
32
 1
10
 71
     8
  3
BEM-ISBE
100
AcDbAlignedDimension
13
-96.6423931344833
23
-4.61274915231786
33
0.000000000000000
14
-96.6423931344833
24
5.38725084768214
34
0.000000000000000
50
90.0000000000000
100
AcDbRotatedDimension
1001
ACAD
1000
DSTYLE
1002
{
1070
284
1070
8
1070
78
1070
8
1070
144
1040
1.00000000000000
1070
147
1040
0.625
1070
 72
1070
 0
1070
 71
1070
 0
1002
}
  0
DIMENSION
  5
F10017
330
261
100
AcDbEntity
  8
Bemassung
100
AcDbDimension
  2
*D7
10
-17.1423931344833
20
5.38725084768214
30
0.000000000000000
11
-16.4757264678167
21
0.387250847682139
31
0.000000000000000
 70
32
 1
10h6
 71
     8
  3
BEM-ISBE
100
AcDbAlignedDimension
13
-27.6423931344833
23
-4.61274915231786
33
0.000000000000000
14
-27.6423931344833
24
5.38725084768214
34
0.000000000000000
50
90.0000000000000
100
AcDbRotatedDimension
1001
ACAD
1000
DSTYLE
1002
{
1070
284
1070
8
1070
78
1070
8
1070
144
1040
1.00000000000000
1070
147
1040
0.625
1070
 72
1070
 0
1070
 71
1070
 0
1002
}
  0
LINE
  5
F1006A
330
F1006B
100
AcDbEntity
8
Geo
100
AcDbLine
10
-96.9855544439199
20
0.387250847682139
30
0.000000000000000
11
-97.1420885479929
21
4.86980109933089
31
0.000000000000000
  0
ARC
  5
F1006C
330
F1006D
100
AcDbEntity
8
Geo
100
AcDbCircle
10
-96.6423931344833
20
4.88725084768214
30
0.000000000000000
 40
0.500000000000000
100
AcDbArc
 50
90.0000000000000
 51
182.000000000000
  0
LINE
  5
F1006E
330
F1006F
100
AcDbEntity
8
Geo
100
AcDbLine
10
-96.6423931344833
20
5.38725084768214
30
0.000000000000000
11
-75.1423931344833
21
5.38725084768214
31
0.000000000000000
  0
LINE
  5
F10070
330
F10071
100
AcDbEntity
8
Geo
100
AcDbLine
10
-75.1423931344833
20
5.38725084768214
30
0.000000000000000
11
-27.6423931344833
21
5.38725084768214
31
0.000000000000000
  0
LINE
  5
F10072
330
F10073
100
AcDbEntity
8
Geo
100
AcDbLine
10
-27.6423931344833
20
5.38725084768214
30
0.000000000000000
11
-27.1423931344833
21
4.88725084768214
31
0.000000000000000
  0
LINE
  5
F10074
330
F10075
100
AcDbEntity
8
Geo
100
AcDbLine
10
-93.9423931344833
20
5.38569386286657
30
0.000000000000000
11
-93.8423931344833
21
5.38679296353239
31
0.000000000000000
  0
LINE
  5
F10076
330
F10077
100
AcDbEntity
8
Geo
100
AcDbLine
10
-93.8423931344833
20
5.38679296353239
30
0.000000000000000
11
-93.7423931344833
21
5.38048624950353
31
0.000000000000000
  0
LINE
  5
F10078
330
F10079
100
AcDbEntity
8
Geo
100
AcDbLine
10
-93.7423931344833
20
5.38048624950353
30
0.000000000000000
11
-93.6423931344833
21
5.36678306290660
31
0.000000000000000
  0
LINE
  5
F1007A
330
F1007B
100
AcDbEntity
8
Geo
100
AcDbLine
10
-93.6423931344833
20
5.36678306290660
30
0.000000000000000
11
-93.5423931344833
21
5.34570370225261
31
0.000000000000000
  0
LINE
  5
F1007C
330
F1007D
100
AcDbEntity
8
Geo
100
AcDbLine
10
-93.5423931344833
20
5.34570370225261
30
0.000000000000000
11
-93.4423931344833
21
5.31727939236880
31
0.000000000000000
  0
LINE
  5
F1007E
330
F1007F
100
AcDbEntity
8
Geo
100
AcDbLine
10
-93.4423931344833
20
5.31727939236880
30
0.000000000000000
11
-93.3423931344833
21
5.28155223814537
31
0.000000000000000
  0
LINE
  5
F10080
330
F10081
100
AcDbEntity
8
Geo
100
AcDbLine
10
-93.3423931344833
20
5.28155223814537
30
0.000000000000000
11
-93.2423931344833
21
5.23857516216555
31
0.000000000000000
  0
LINE
  5
F10082
330
F10083
100
AcDbEntity
8
Geo
100
AcDbLine
10
-93.2423931344833
20
5.23857516216555
30
0.000000000000000
11
-93.1423931344833
21
5.18841182631147
31
0.000000000000000
  0
LINE
  5
F10084
330
F10085
100
AcDbEntity
8
Geo
100
AcDbLine
10
-93.1423931344833
20
5.18841182631147
30
0.000000000000000
11
-93.0423931344833
21
5.13113653746186
31
0.000000000000000
  0
LINE
  5
F10086
330
F10087
100
AcDbEntity
8
Geo
100
AcDbLine
10
-93.0423931344833
20
5.13113653746186
30
0.000000000000000
11
-92.9423931344833
21
5.06683413742144
31
0.000000000000000
  0
LINE
  5
F10088
330
F10089
100
AcDbEntity
8
Geo
100
AcDbLine
10
-92.9423931344833
20
5.06683413742144
30
0.000000000000000
11
-92.8423931344833
21
4.99559987724482
31
0.000000000000000
  0
LINE
  5
F1008A
330
F1008B
100
AcDbEntity
8
Geo
100
AcDbLine
10
-92.8423931344833
20
4.99559987724482
30
0.000000000000000
11
-92.7423931344833
21
4.91753927614127
31
0.000000000000000
  0
LINE
  5
F1008C
330
F1008D
100
AcDbEntity
8
Geo
100
AcDbLine
10
-92.7423931344833
20
4.91753927614127
30
0.000000000000000
11
-92.6423931344833
21
4.83276796516925
31
0.000000000000000
  0
LINE
  5
F1008E
330
F1008F
100
AcDbEntity
8
Geo
100
AcDbLine
10
-92.6423931344833
20
4.83276796516925
30
0.000000000000000
11
-92.5423931344833
21
4.74141151595233
31
0.000000000000000
  0
LINE
  5
F10090
330
F10091
100
AcDbEntity
8
Geo
100
AcDbLine
10
-92.5423931344833
20
4.74141151595233
30
0.000000000000000
11
-92.4423931344833
21
4.64360525467005
31
0.000000000000000
  0
LINE
  5
F10092
330
F10093
100
AcDbEntity
8
Geo
100
AcDbLine
10
-92.4423931344833
20
4.64360525467005
30
0.000000000000000
11
-92.3423931344833
21
4.53949406159949
31
0.000000000000000
  0
LINE
  5
F10094
330
F10095
100
AcDbEntity
8
Geo
100
AcDbLine
10
-92.3423931344833
20
4.53949406159949
30
0.000000000000000
11
-92.2423931344833
21
4.42923215650433
31
0.000000000000000
  0
LINE
  5
F10096
330
F10097
100
AcDbEntity
8
Geo
100
AcDbLine
10
-92.2423931344833
20
4.42923215650433
30
0.000000000000000
11
-92.1423931344833
21
4.31298287018927
31
0.000000000000000
  0
LINE
  5
F10098
330
F10099
100
AcDbEntity
8
Geo
100
AcDbLine
10
-92.1423931344833
20
4.31298287018927
30
0.000000000000000
11
-92.0423931344833
21
4.19091840255842
31
0.000000000000000
  0
LINE
  5
F1009A
330
F1009B
100
AcDbEntity
8
Geo
100
AcDbLine
10
-92.0423931344833
20
4.19091840255842
30
0.000000000000000
11
-91.9423931344833
21
4.06321956753574
31
0.000000000000000
  0
LINE
  5
F1009C
330
F1009D
100
AcDbEntity
8
Geo
100
AcDbLine
10
-91.9423931344833
20
4.06321956753574
30
0.000000000000000
11
-91.8423931344833
21
3.93007552522571
31
0.000000000000000
  0
LINE
  5
F1009E
330
F1009F
100
AcDbEntity
8
Geo
100
AcDbLine
10
-91.8423931344833
20
3.93007552522571
30
0.000000000000000
11
-91.7423931344834
21
3.79168350171067
31
0.000000000000000
  0
LINE
  5
F100A0
330
F100A1
100
AcDbEntity
8
Geo
100
AcDbLine
10
-91.7423931344834
20
3.79168350171067
30
0.000000000000000
11
-91.6423931344833
21
3.64824849690015
31
0.000000000000000
  0
LINE
  5
F100A2
330
F100A3
100
AcDbEntity
8
Geo
100
AcDbLine
10
-91.6423931344833
20
3.64824849690015
30
0.000000000000000
11
-91.5423931344833
21
3.49998298086473
31
0.000000000000000
  0
LINE
  5
F100A4
330
F100A5
100
AcDbEntity
8
Geo
100
AcDbLine
10
-91.5423931344833
20
3.49998298086473
30
0.000000000000000
11
-91.4423931344834
21
3.34710657910452
31
0.000000000000000
  0
LINE
  5
F100A6
330
F100A7
100
AcDbEntity
8
Geo
100
AcDbLine
10
-91.4423931344834
20
3.34710657910452
30
0.000000000000000
11
-91.3423931344833
21
3.18984574721811
31
0.000000000000000
  0
LINE
  5
F100A8
330
F100A9
100
AcDbEntity
8
Geo
100
AcDbLine
10
-91.3423931344833
20
3.18984574721811
30
0.000000000000000
11
-91.2423931344834
21
3.02843343545430
31
0.000000000000000
  0
LINE
  5
F100AA
330
F100AB
100
AcDbEntity
8
Geo
100
AcDbLine
10
-91.2423931344834
20
3.02843343545430
30
0.000000000000000
11
-91.1423931344833
21
2.86310874364315
31
0.000000000000000
  0
LINE
  5
F100AC
330
F100AD
100
AcDbEntity
8
Geo
100
AcDbLine
10
-91.1423931344833
20
2.86310874364315
30
0.000000000000000
11
-91.0423931344833
21
2.69411656701780
31
0.000000000000000
  0
LINE
  5
F100AE
330
F100AF
100
AcDbEntity
8
Geo
100
AcDbLine
10
-91.0423931344833
20
2.69411656701780
30
0.000000000000000
11
-90.9423931344834
21
2.52170723345147
31
0.000000000000000
  0
LINE
  5
F100B0
330
F100B1
100
AcDbEntity
8
Geo
100
AcDbLine
10
-90.9423931344834
20
2.52170723345147
30
0.000000000000000
11
-90.8423931344833
21
2.34613613264714
31
0.000000000000000
  0
LINE
  5
F100B2
330
F100B3
100
AcDbEntity
8
Geo
100
AcDbLine
10
-90.8423931344833
20
2.34613613264714
30
0.000000000000000
11
-90.7423931344834
21
2.16766333782916
31
0.000000000000000
  0
LINE
  5
F100B4
330
F100B5
100
AcDbEntity
8
Geo
100
AcDbLine
10
-90.7423931344834
20
2.16766333782916
30
0.000000000000000
11
-90.6423931344833
21
1.98655322049712
31
0.000000000000000
  0
LINE
  5
F100B6
330
F100B7
100
AcDbEntity
8
Geo
100
AcDbLine
10
-90.6423931344833
20
1.98655322049712
30
0.000000000000000
11
-90.5423931344833
21
1.80307405881274
31
0.000000000000000
  0
LINE
  5
F100B8
330
F100B9
100
AcDbEntity
8
Geo
100
AcDbLine
10
-90.5423931344833
20
1.80307405881274
30
0.000000000000000
11
-90.4423931344834
21
1.61749764019980
31
0.000000000000000
  0
LINE
  5
F100BA
330
F100BB
100
AcDbEntity
8
Geo
100
AcDbLine
10
-90.4423931344834
20
1.61749764019980
30
0.000000000000000
11
-90.3423931344833
21
1.43009885874583
31
0.000000000000000
  0
LINE
  5
F100BC
330
F100BD
100
AcDbEntity
8
Geo
100
AcDbLine
10
-90.3423931344833
20
1.43009885874583
30
0.000000000000000
11
-90.2423931344834
21
1.24115530800186
31
0.000000000000000
  0
LINE
  5
F100BE
330
F100BF
100
AcDbEntity
8
Geo
100
AcDbLine
10
-90.2423931344834
20
1.24115530800186
30
0.000000000000000
11
-90.1423931344834
21
1.05094686978349
31
0.000000000000000
  0
LINE
  5
F100C0
330
F100C1
100
AcDbEntity
8
Geo
100
AcDbLine
10
-90.1423931344834
20
1.05094686978349
30
0.000000000000000
11
-90.0423931344833
21
0.859755299582347
31
0.000000000000000
  0
LINE
  5
F100C2
330
F100C3
100
AcDbEntity
8
Geo
100
AcDbLine
10
-90.0423931344833
20
0.859755299582347
30
0.000000000000000
11
-89.9423931344834
21
0.667863809202096
31
0.000000000000000
  0
LINE
  5
F100C4
330
F100C5
100
AcDbEntity
8
Geo
100
AcDbLine
10
-89.9423931344834
20
0.667863809202096
30
0.000000000000000
11
-89.8423931344834
21
0.475556647237173
31
0.000000000000000
  0
LINE
  5
F100C6
330
F100C7
100
AcDbEntity
8
Geo
100
AcDbLine
10
-89.8423931344834
20
0.475556647237173
30
0.000000000000000
11
-89.7423931344834
21
0.283118678015743
31
0.000000000000000
  0
LINE
  5
F100C8
330
F100C9
100
AcDbEntity
8
Geo
100
AcDbLine
10
-89.7423931344834
20
0.283118678015743
30
0.000000000000000
11
-89.6423931344834
21
0.0908349596305758
31
0.000000000000000
  0
LINE
  5
F100CA
330
F100CB
100
AcDbEntity
8
Geo
100
AcDbLine
10
-89.6423931344834
20
0.0908349596305758
30
0.000000000000000
11
-89.5423931344833
21
-0.101009678317103
31
0.000000000000000
  0
LINE
  5
F100CC
330
F100CD
100
AcDbEntity
8
Geo
100
AcDbLine
10
-89.5423931344833
20
-0.101009678317103
30
0.000000000000000
11
-89.4423931344834
21
-0.292131056635305
31
0.000000000000000
  0
LINE
  5
F100CE
330
F100CF
100
AcDbEntity
8
Geo
100
AcDbLine
10
-89.4423931344834
20
-0.292131056635305
30
0.000000000000000
11
-89.3423931344834
21
-0.482246067495504
31
0.000000000000000
  0
LINE
  5
F100D0
330
F100D1
100
AcDbEntity
8
Geo
100
AcDbLine
10
-89.3423931344834
20
-0.482246067495504
30
0.000000000000000
11
-89.2423931344834
21
-0.671073093799881
31
0.000000000000000
  0
LINE
  5
F100D2
330
F100D3
100
AcDbEntity
8
Geo
100
AcDbLine
10
-89.2423931344834
20
-0.671073093799881
30
0.000000000000000
11
-89.1423931344834
21
-0.858332426340320
31
0.000000000000000
  0
LINE
  5
F100D4
330
F100D5
100
AcDbEntity
8
Geo
100
AcDbLine
10
-89.1423931344834
20
-0.858332426340320
30
0.000000000000000
11
-89.0423931344833
21
-1.04374667813127
31
0.000000000000000
  0
LINE
  5
F100D6
330
F100D7
100
AcDbEntity
8
Geo
100
AcDbLine
10
-89.0423931344833
20
-1.04374667813127
30
0.000000000000000
11
-88.9423931344834
21
-1.22704119530271
31
0.000000000000000
  0
LINE
  5
F100D8
330
F100D9
100
AcDbEntity
8
Geo
100
AcDbLine
10
-88.9423931344834
20
-1.22704119530271
30
0.000000000000000
11
-88.8423931344834
21
-1.40794446394449
31
0.000000000000000
  0
LINE
  5
F100DA
330
F100DB
100
AcDbEntity
8
Geo
100
AcDbLine
10
-88.8423931344834
20
-1.40794446394449
30
0.000000000000000
11
-88.7423931344834
21
-1.58618851229958
31
0.000000000000000
  0
LINE
  5
F100DC
330
F100DD
100
AcDbEntity
8
Geo
100
AcDbLine
10
-88.7423931344834
20
-1.58618851229958
30
0.000000000000000
11
-88.6423931344834
21
-1.76150930771019
31
0.000000000000000
  0
LINE
  5
F100DE
330
F100DF
100
AcDbEntity
8
Geo
100
AcDbLine
10
-88.6423931344834
20
-1.76150930771019
30
0.000000000000000
11
-88.5423931344834
21
-1.93364714772901
31
0.000000000000000
  0
LINE
  5
F100E0
330
F100E1
100
AcDbEntity
8
Geo
100
AcDbLine
10
-88.5423931344834
20
-1.93364714772901
30
0.000000000000000
11
-88.4423931344834
21
-2.10234704481606
31
0.000000000000000
  0
LINE
  5
F100E2
330
F100E3
100
AcDbEntity
8
Geo
100
AcDbLine
10
-88.4423931344834
20
-2.10234704481606
30
0.000000000000000
11
-88.3423931344834
21
-2.26735910405138
31
0.000000000000000
  0
LINE
  5
F100E4
330
F100E5
100
AcDbEntity
8
Geo
100
AcDbLine
10
-88.3423931344834
20
-2.26735910405138
30
0.000000000000000
11
-88.2423931344834
21
-2.42843889330405
31
0.000000000000000
  0
LINE
  5
F100E6
330
F100E7
100
AcDbEntity
8
Geo
100
AcDbLine
10
-88.2423931344834
20
-2.42843889330405
30
0.000000000000000
11
-88.1423931344834
21
-2.58534780530911
31
0.000000000000000
  0
LINE
  5
F100E8
330
F100E9
100
AcDbEntity
8
Geo
100
AcDbLine
10
-88.1423931344834
20
-2.58534780530911
30
0.000000000000000
11
-88.0423931344834
21
-2.73785341111621
31
0.000000000000000
  0
LINE
  5
F100EA
330
F100EB
100
AcDbEntity
8
Geo
100
AcDbLine
10
-88.0423931344834
20
-2.73785341111621
30
0.000000000000000
11
-87.9423931344834
21
-2.88572980438626
31
0.000000000000000
  0
LINE
  5
F100EC
330
F100ED
100
AcDbEntity
8
Geo
100
AcDbLine
10
-87.9423931344834
20
-2.88572980438626
30
0.000000000000000
11
-87.8423931344834
21
-3.02875793602618
31
0.000000000000000
  0
LINE
  5
F100EE
330
F100EF
100
AcDbEntity
8
Geo
100
AcDbLine
10
-87.8423931344834
20
-3.02875793602618
30
0.000000000000000
11
-87.7423931344834
21
-3.16672593866602
31
0.000000000000000
  0
LINE
  5
F100F0
330
F100F1
100
AcDbEntity
8
Geo
100
AcDbLine
10
-87.7423931344834
20
-3.16672593866602
30
0.000000000000000
11
-87.6423931344834
21
-3.29942944049778
31
0.000000000000000
  0
LINE
  5
F100F2
330
F100F3
100
AcDbEntity
8
Geo
100
AcDbLine
10
-87.6423931344834
20
-3.29942944049778
30
0.000000000000000
11
-87.5423931344834
21
-3.42667186801112
31
0.000000000000000
  0
LINE
  5
F100F4
330
F100F5
100
AcDbEntity
8
Geo
100
AcDbLine
10
-87.5423931344834
20
-3.42667186801112
30
0.000000000000000
11
-87.4423931344834
21
-3.54826473717736
31
0.000000000000000
  0
LINE
  5
F100F6
330
F100F7
100
AcDbEntity
8
Geo
100
AcDbLine
10
-87.4423931344834
20
-3.54826473717736
30
0.000000000000000
11
-87.3423931344834
21
-3.66402793265067
31
0.000000000000000
  0
LINE
  5
F100F8
330
F100F9
100
AcDbEntity
8
Geo
100
AcDbLine
10
-87.3423931344834
20
-3.66402793265067
30
0.000000000000000
11
-87.2423931344834
21
-3.77378997457263
31
0.000000000000000
  0
LINE
  5
F100FA
330
F100FB
100
AcDbEntity
8
Geo
100
AcDbLine
10
-87.2423931344834
20
-3.77378997457263
30
0.000000000000000
11
-87.1423931344834
21
-3.87738827258514
31
0.000000000000000
  0
LINE
  5
F100FC
330
F100FD
100
AcDbEntity
8
Geo
100
AcDbLine
10
-87.1423931344834
20
-3.87738827258514
30
0.000000000000000
11
-87.0423931344834
21
-3.97466936667527
31
0.000000000000000
  0
LINE
  5
F100FE
330
F100FF
100
AcDbEntity
8
Geo
100
AcDbLine
10
-87.0423931344834
20
-3.97466936667527
30
0.000000000000000
11
-86.9423931344834
21
-4.06548915449535
31
0.000000000000000
  0
LINE
  5
F10100
330
F10101
100
AcDbEntity
8
Geo
100
AcDbLine
10
-86.9423931344834
20
-4.06548915449535
30
0.000000000000000
11
-86.8423931344834
21
-4.14971310482160
31
0.000000000000000
  0
LINE
  5
F10102
330
F10103
100
AcDbEntity
8
Geo
100
AcDbLine
10
-86.8423931344834
20
-4.14971310482160
30
0.000000000000000
11
-86.7423931344834
21
-4.22721645683503
31
0.000000000000000
  0
LINE
  5
F10104
330
F10105
100
AcDbEntity
8
Geo
100
AcDbLine
10
-86.7423931344834
20
-4.22721645683503
30
0.000000000000000
11
-86.6423931344834
21
-4.29788440492946
31
0.000000000000000
  0
LINE
  5
F10106
330
F10107
100
AcDbEntity
8
Geo
100
AcDbLine
10
-86.6423931344834
20
-4.29788440492946
30
0.000000000000000
11
-86.5423931344834
21
-4.36161226877289
31
0.000000000000000
  0
LINE
  5
F10108
330
F10109
100
AcDbEntity
8
Geo
100
AcDbLine
10
-86.5423931344834
20
-4.36161226877289
30
0.000000000000000
11
-86.4423931344834
21
-4.41830564837039
31
0.000000000000000
  0
LINE
  5
F1010A
330
F1010B
100
AcDbEntity
8
Geo
100
AcDbLine
10
-86.4423931344834
20
-4.41830564837039
30
0.000000000000000
11
-86.3423931344834
21
-4.46788056389860
31
0.000000000000000
  0
LINE
  5
F1010C
330
F1010D
100
AcDbEntity
8
Geo
100
AcDbLine
10
-86.3423931344834
20
-4.46788056389860
30
0.000000000000000
11
-86.2423931344834
21
-4.51026358010497
31
0.000000000000000
  0
LINE
  5
F1010E
330
F1010F
100
AcDbEntity
8
Geo
100
AcDbLine
10
-86.2423931344834
20
-4.51026358010497
30
0.000000000000000
11
-86.1423931344834
21
-4.54539191508730
31
0.000000000000000
  0
LINE
  5
F10110
330
F10111
100
AcDbEntity
8
Geo
100
AcDbLine
10
-86.1423931344834
20
-4.54539191508730
30
0.000000000000000
11
-86.0423931344834
21
-4.57321353329244
31
0.000000000000000
  0
LINE
  5
F10112
330
F10113
100
AcDbEntity
8
Geo
100
AcDbLine
10
-86.0423931344834
20
-4.57321353329244
30
0.000000000000000
11
-85.9423931344834
21
-4.59368722259653
31
0.000000000000000
  0
LINE
  5
F10114
330
F10115
100
AcDbEntity
8
Geo
100
AcDbLine
10
-85.9423931344834
20
-4.59368722259653
30
0.000000000000000
11
-85.8423931344834
21
-4.60678265535245
31
0.000000000000000
  0
LINE
  5
F10116
330
F10117
100
AcDbEntity
8
Geo
100
AcDbLine
10
-85.8423931344834
20
-4.60678265535245
30
0.000000000000000
11
-85.7423931344834
21
-4.61248043331409
31
0.000000000000000
  0
LINE
  5
F10118
330
F10119
100
AcDbEntity
8
Geo
100
AcDbLine
10
-76.8423931344833
20
5.38725084768214
30
0.000000000000000
11
-76.7423931344833
21
5.38725083805611
31
0.000000000000000
  0
LINE
  5
F1011A
330
F1011B
100
AcDbEntity
8
Geo
100
AcDbLine
10
-76.7423931344833
20
5.38725083805611
30
0.000000000000000
11
-76.6423931344833
21
5.38670805207233
31
0.000000000000000
  0
LINE
  5
F1011C
330
F1011D
100
AcDbEntity
8
Geo
100
AcDbLine
10
-76.6423931344833
20
5.38670805207233
30
0.000000000000000
11
-76.5423931344833
21
5.38521014401379
31
0.000000000000000
  0
LINE
  5
F1011E
330
F1011F
100
AcDbEntity
8
Geo
100
AcDbLine
10
-76.5423931344833
20
5.38521014401379
30
0.000000000000000
11
-76.4423931344833
21
5.38293095660558
31
0.000000000000000
  0
LINE
  5
F10120
330
F10121
100
AcDbEntity
8
Geo
100
AcDbLine
10
-76.4423931344833
20
5.38293095660558
30
0.000000000000000
11
-76.3423931344833
21
5.38003387912970
31
0.000000000000000
  0
LINE
  5
F10122
330
F10123
100
AcDbEntity
8
Geo
100
AcDbLine
10
-76.3423931344833
20
5.38003387912970
30
0.000000000000000
11
-76.2423931344833
21
5.37667177869022
31
0.000000000000000
  0
LINE
  5
F10124
330
F10125
100
AcDbEntity
8
Geo
100
AcDbLine
10
-76.2423931344833
20
5.37667177869022
30
0.000000000000000
11
-76.1423931344833
21
5.37298695466105
31
0.000000000000000
  0
LINE
  5
F10126
330
F10127
100
AcDbEntity
8
Geo
100
AcDbLine
10
-76.1423931344833
20
5.37298695466105
30
0.000000000000000
11
-76.0423931344833
21
5.36911111257650
31
0.000000000000000
  0
LINE
  5
F10128
330
F10129
100
AcDbEntity
8
Geo
100
AcDbLine
10
-76.0423931344833
20
5.36911111257650
30
0.000000000000000
11
-75.9423931344833
21
5.36516535397617
31
0.000000000000000
  0
LINE
  5
F1012A
330
F1012B
100
AcDbEntity
8
Geo
100
AcDbLine
10
-75.9423931344833
20
5.36516535397617
30
0.000000000000000
11
-75.8423931344833
21
5.36126017897080
31
0.000000000000000
  0
LINE
  5
F1012C
330
F1012D
100
AcDbEntity
8
Geo
100
AcDbLine
10
-75.8423931344833
20
5.36126017897080
30
0.000000000000000
11
-75.7423931344833
21
5.35749549855346
31
0.000000000000000
  0
LINE
  5
F1012E
330
F1012F
100
AcDbEntity
8
Geo
100
AcDbLine
10
-75.7423931344833
20
5.35749549855346
30
0.000000000000000
11
-75.6423931344833
21
5.35396065394011
31
0.000000000000000
  0
LINE
  5
F10130
330
F10131
100
AcDbEntity
8
Geo
100
AcDbLine
10
-75.6423931344833
20
5.35396065394011
30
0.000000000000000
11
-75.5423931344833
21
5.35073444048339
31
0.000000000000000
  0
LINE
  5
F10132
330
F10133
100
AcDbEntity
8
Geo
100
AcDbLine
10
-75.5423931344833
20
5.35073444048339
30
0.000000000000000
11
-75.4423931344833
21
5.34788513396407
31
0.000000000000000
  0
LINE
  5
F10134
330
F10135
100
AcDbEntity
8
Geo
100
AcDbLine
10
-75.4423931344833
20
5.34788513396407
30
0.000000000000000
11
-75.3423931344833
21
5.34547051732424
31
0.000000000000000
  0
LINE
  5
F10136
330
F10137
100
AcDbEntity
8
Geo
100
AcDbLine
10
-75.3423931344833
20
5.34547051732424
30
0.000000000000000
11
-75.2423931344833
21
5.34353790616604
31
0.000000000000000
  0
LINE
  5
F10138
330
F10139
100
AcDbEntity
8
Geo
100
AcDbLine
10
-75.2423931344833
20
5.34353790616604
30
0.000000000000000
11
-75.1423931344833
21
5.34212417159757
31
0.000000000000000
  0
LINE
  5
F1013A
330
F1013B
100
AcDbEntity
8
Geo
100
AcDbLine
10
-97.1423931344833
20
4.88725084768214
30
0.000000000000000
11
-97.0423931344833
21
5.18369573106238
31
0.000000000000000
  0
LINE
  5
F1013C
330
F1013D
100
AcDbEntity
8
Geo
100
AcDbLine
10
-97.0423931344833
20
5.18369573106238
30
0.000000000000000
11
-96.9423931344833
21
5.27273949738632
31
0.000000000000000
  0
LINE
  5
F1013E
330
F1013F
100
AcDbEntity
8
Geo
100
AcDbLine
10
-96.9423931344833
20
5.27273949738632
30
0.000000000000000
11
-96.8423931344833
21
5.31249007822867
31
0.000000000000000
  0
LINE
  5
F10140
330
F10141
100
AcDbEntity
8
Geo
100
AcDbLine
10
-96.8423931344833
20
5.31249007822867
30
0.000000000000000
11
-96.7423931344833
21
5.31812599156153
31
0.000000000000000
  0
LINE
  5
F10142
330
F10143
100
AcDbEntity
8
Geo
100
AcDbLine
10
-96.7423931344833
20
5.31812599156153
30
0.000000000000000
11
-96.6423931344833
21
5.29494368211523
31
0.000000000000000
  0
LINE
  5
F10144
330
F10145
100
AcDbEntity
8
Geo
100
AcDbLine
10
-96.6423931344833
20
5.29494368211523
30
0.000000000000000
11
-96.5423931344833
21
5.25450905444619
31
0.000000000000000
  0
LINE
  5
F10146
330
F10147
100
AcDbEntity
8
Geo
100
AcDbLine
10
-96.5423931344833
20
5.25450905444619
30
0.000000000000000
11
-96.4423931344833
21
5.20686456405069
31
0.000000000000000
  0
LINE
  5
F10148
330
F10149
100
AcDbEntity
8
Geo
100
AcDbLine
10
-96.4423931344833
20
5.20686456405069
30
0.000000000000000
11
-96.3423931344833
21
5.15208078664525
31
0.000000000000000
  0
LINE
  5
F1014A
330
F1014B
100
AcDbEntity
8
Geo
100
AcDbLine
10
-96.3423931344833
20
5.15208078664525
30
0.000000000000000
11
-96.2423931344833
21
5.09023887336217
31
0.000000000000000
  0
LINE
  5
F1014C
330
F1014D
100
AcDbEntity
8
Geo
100
AcDbLine
10
-96.2423931344833
20
5.09023887336217
30
0.000000000000000
11
-96.1423931344833
21
5.02143043054051
31
0.000000000000000
  0
LINE
  5
F1014E
330
F1014F
100
AcDbEntity
8
Geo
100
AcDbLine
10
-96.1423931344833
20
5.02143043054051
30
0.000000000000000
11
-96.0423931344833
21
4.94575738402970
31
0.000000000000000
  0
LINE
  5
F10150
330
F10151
100
AcDbEntity
8
Geo
100
AcDbLine
10
-96.0423931344833
20
4.94575738402970
30
0.000000000000000
11
-95.9423931344833
21
4.86333182820695
31
0.000000000000000
  0
LINE
  5
F10152
330
F10153
100
AcDbEntity
8
Geo
100
AcDbLine
10
-95.9423931344833
20
4.86333182820695
30
0.000000000000000
11
-95.8423931344833
21
4.77427585993203
31
0.000000000000000
  0
LINE
  5
F10154
330
F10155
100
AcDbEntity
8
Geo
100
AcDbLine
10
-95.8423931344833
20
4.77427585993203
30
0.000000000000000
11
-95.7423931344833
21
4.67872139768530
31
0.000000000000000
  0
LINE
  5
F10156
330
F10157
100
AcDbEntity
8
Geo
100
AcDbLine
10
-95.7423931344833
20
4.67872139768530
30
0.000000000000000
11
-95.6423931344833
21
4.57680998615710
31
0.000000000000000
  0
LINE
  5
F10158
330
F10159
100
AcDbEntity
8
Geo
100
AcDbLine
10
-95.6423931344833
20
4.57680998615710
30
0.000000000000000
11
-95.5423931344833
21
4.46869258657781
31
0.000000000000000
  0
LINE
  5
F1015A
330
F1015B
100
AcDbEntity
8
Geo
100
AcDbLine
10
-95.5423931344833
20
4.46869258657781
30
0.000000000000000
11
-95.4423931344833
21
4.35452935309914
31
0.000000000000000
  0
LINE
  5
F1015C
330
F1015D
100
AcDbEntity
8
Geo
100
AcDbLine
10
-95.4423931344833
20
4.35452935309914
30
0.000000000000000
11
-95.3423931344833
21
4.23448939555804
31
0.000000000000000
  0
LINE
  5
F1015E
330
F1015F
100
AcDbEntity
8
Geo
100
AcDbLine
10
-95.3423931344833
20
4.23448939555804
30
0.000000000000000
11
-95.2423931344833
21
4.10875052897456
31
0.000000000000000
  0
LINE
  5
F10160
330
F10161
100
AcDbEntity
8
Geo
100
AcDbLine
10
-95.2423931344833
20
4.10875052897456
30
0.000000000000000
11
-95.1423931344833
21
3.97749901015468
31
0.000000000000000
  0
LINE
  5
F10162
330
F10163
100
AcDbEntity
8
Geo
100
AcDbLine
10
-95.1423931344833
20
3.97749901015468
30
0.000000000000000
11
-95.0423931344833
21
3.84092926178835
31
0.000000000000000
  0
LINE
  5
F10164
330
F10165
100
AcDbEntity
8
Geo
100
AcDbLine
10
-95.0423931344833
20
3.84092926178835
30
0.000000000000000
11
-94.9423931344833
21
3.69924358445149
31
0.000000000000000
  0
LINE
  5
F10166
330
F10167
100
AcDbEntity
8
Geo
100
AcDbLine
10
-94.9423931344833
20
3.69924358445149
30
0.000000000000000
11
-94.8423931344833
21
3.55265185693839
31
0.000000000000000
  0
LINE
  5
F10168
330
F10169
100
AcDbEntity
8
Geo
100
AcDbLine
10
-94.8423931344833
20
3.55265185693839
30
0.000000000000000
11
-94.7423931344833
21
3.40137122536853
31
0.000000000000000
  0
LINE
  5
F1016A
330
F1016B
100
AcDbEntity
8
Geo
100
AcDbLine
10
-94.7423931344833
20
3.40137122536853
30
0.000000000000000
11
-94.6423931344833
21
3.24562578152839
31
0.000000000000000
  0
LINE
  5
F1016C
330
F1016D
100
AcDbEntity
8
Geo
100
AcDbLine
10
-94.6423931344833
20
3.24562578152839
30
0.000000000000000
11
-94.5423931344833
21
3.08564623092459
31
0.000000000000000
  0
LINE
  5
F1016E
330
F1016F
100
AcDbEntity
8
Geo
100
AcDbLine
10
-94.5423931344833
20
3.08564623092459
30
0.000000000000000
11
-94.4423931344833
21
2.92166955104011
31
0.000000000000000
  0
LINE
  5
F10170
330
F10171
100
AcDbEntity
8
Geo
100
AcDbLine
10
-94.4423931344833
20
2.92166955104011
30
0.000000000000000
11
-94.3423931344833
21
2.75393864029990
31
0.000000000000000
  0
LINE
  5
F10172
330
F10173
100
AcDbEntity
8
Geo
100
AcDbLine
10
-94.3423931344833
20
2.75393864029990
30
0.000000000000000
11
-94.2423931344833
21
2.58270195826581
31
0.000000000000000
  0
LINE
  5
F10174
330
F10175
100
AcDbEntity
8
Geo
100
AcDbLine
10
-94.2423931344833
20
2.58270195826581
30
0.000000000000000
11
-94.1423931344833
21
2.40821315759377
31
0.000000000000000
  0
LINE
  5
F10176
330
F10177
100
AcDbEntity
8
Geo
100
AcDbLine
10
-94.1423931344833
20
2.40821315759377
30
0.000000000000000
11
-94.0423931344833
21
2.23073070829845
31
0.000000000000000
  0
LINE
  5
F10178
330
F10179
100
AcDbEntity
8
Geo
100
AcDbLine
10
-94.0423931344833
20
2.23073070829845
30
0.000000000000000
11
-93.9423931344833
21
2.05051751488202
31
0.000000000000000
  0
LINE
  5
F1017A
330
F1017B
100
AcDbEntity
8
Geo
100
AcDbLine
10
-93.9423931344833
20
2.05051751488202
30
0.000000000000000
11
-93.8423931344833
21
1.86784052689407
31
0.000000000000000
  0
LINE
  5
F1017C
330
F1017D
100
AcDbEntity
8
Geo
100
AcDbLine
10
-93.8423931344833
20
1.86784052689407
30
0.000000000000000
11
-93.7423931344833
21
1.68297034349962
31
0.000000000000000
  0
LINE
  5
F1017E
330
F1017F
100
AcDbEntity
8
Geo
100
AcDbLine
10
-93.7423931344833
20
1.68297034349962
30
0.000000000000000
11
-93.6423931344833
21
1.49618081264095
31
0.000000000000000
  0
LINE
  5
F10180
330
F10181
100
AcDbEntity
8
Geo
100
AcDbLine
10
-93.6423931344833
20
1.49618081264095
30
0.000000000000000
11
-93.5423931344833
21
1.30774862538705
31
0.000000000000000
  0
LINE
  5
F10182
330
F10183
100
AcDbEntity
8
Geo
100
AcDbLine
10
-93.5423931344833
20
1.30774862538705
30
0.000000000000000
11
-93.4423931344833
21
1.11795290607149
31
0.000000000000000
  0
LINE
  5
F10184
330
F10185
100
AcDbEntity
8
Geo
100
AcDbLine
10
-93.4423931344833
20
1.11795290607149
30
0.000000000000000
11
-93.3423931344833
21
0.927074798825982
31
0.000000000000000
  0
LINE
  5
F10186
330
F10187
100
AcDbEntity
8
Geo
100
AcDbLine
10
-93.3423931344833
20
0.927074798825982
30
0.000000000000000
11
-93.2423931344833
21
0.735397051121953
31
0.000000000000000
  0
LINE
  5
F10188
330
F10189
100
AcDbEntity
8
Geo
100
AcDbLine
10
-93.2423931344833
20
0.735397051121953
30
0.000000000000000
11
-93.1423931344833
21
0.543203594937112
31
0.000000000000000
  0
LINE
  5
F1018A
330
F1018B
100
AcDbEntity
8
Geo
100
AcDbLine
10
-93.1423931344833
20
0.543203594937112
30
0.000000000000000
11
-93.0423931344833
21
0.350779126167412
31
0.000000000000000
  0
LINE
  5
F1018C
330
F1018D
100
AcDbEntity
8
Geo
100
AcDbLine
10
-93.0423931344833
20
0.350779126167412
30
0.000000000000000
11
-92.9423931344833
21
0.158408682907422
31
0.000000000000000
  0
LINE
  5
F1018E
330
F1018F
100
AcDbEntity
8
Geo
100
AcDbLine
10
-92.9423931344833
20
0.158408682907422
30
0.000000000000000
11
-92.8423931344833
21
-0.0336227767761947
31
0.000000000000000
  0
LINE
  5
F10190
330
F10191
100
AcDbEntity
8
Geo
100
AcDbLine
10
-92.8423931344833
20
-0.0336227767761947
30
0.000000000000000
11
-92.7423931344833
21
-0.225030796952676
31
0.000000000000000
  0
LINE
  5
F10192
330
F10193
100
AcDbEntity
8
Geo
100
AcDbLine
10
-92.7423931344833
20
-0.225030796952676
30
0.000000000000000
11
-92.6423931344833
21
-0.415531845191318
31
0.000000000000000
  0
LINE
  5
F10194
330
F10195
100
AcDbEntity
8
Geo
100
AcDbLine
10
-92.6423931344833
20
-0.415531845191318
30
0.000000000000000
11
-92.5423931344833
21
-0.604843732557674
31
0.000000000000000
  0
LINE
  5
F10196
330
F10197
100
AcDbEntity
8
Geo
100
AcDbLine
10
-92.5423931344833
20
-0.604843732557674
30
0.000000000000000
11
-92.4423931344833
21
-0.792686031619621
31
0.000000000000000
  0
LINE
  5
F10198
330
F10199
100
AcDbEntity
8
Geo
100
AcDbLine
10
-92.4423931344833
20
-0.792686031619621
30
0.000000000000000
11
-92.3423931344833
21
-0.978780491844123
31
0.000000000000000
  0
LINE
  5
F1019A
330
F1019B
100
AcDbEntity
8
Geo
100
AcDbLine
10
-92.3423931344833
20
-0.978780491844123
30
0.000000000000000
11
-92.2423931344833
21
-1.16285145176935
31
0.000000000000000
  0
LINE
  5
F1019C
330
F1019D
100
AcDbEntity
8
Geo
100
AcDbLine
10
-92.2423931344833
20
-1.16285145176935
30
0.000000000000000
11
-92.1423931344833
21
-1.34462624734162
31
0.000000000000000
  0
LINE
  5
F1019E
330
F1019F
100
AcDbEntity
8
Geo
100
AcDbLine
10
-92.1423931344833
20
-1.34462624734162
30
0.000000000000000
11
-92.0423931344833
21
-1.52383561581227
31
0.000000000000000
  0
LINE
  5
F101A0
330
F101A1
100
AcDbEntity
8
Geo
100
AcDbLine
10
-92.0423931344833
20
-1.52383561581227
30
0.000000000000000
11
-91.9423931344833
21
-1.70021409459618
31
0.000000000000000
  0
LINE
  5
F101A2
330
F101A3
100
AcDbEntity
8
Geo
100
AcDbLine
10
-91.9423931344833
20
-1.70021409459618
30
0.000000000000000
11
-91.8423931344833
21
-1.87350041450116
31
0.000000000000000
  0
LINE
  5
F101A4
330
F101A5
100
AcDbEntity
8
Geo
100
AcDbLine
10
-91.8423931344833
20
-1.87350041450116
30
0.000000000000000
11
-91.7423931344834
21
-2.04343788674558
31
0.000000000000000
  0
LINE
  5
F101A6
330
F101A7
100
AcDbEntity
8
Geo
100
AcDbLine
10
-91.7423931344834
20
-2.04343788674558
30
0.000000000000000
11
-91.6423931344833
21
-2.20977478319117
31
0.000000000000000
  0
LINE
  5
F101A8
330
F101A9
100
AcDbEntity
8
Geo
100
AcDbLine
10
-91.6423931344833
20
-2.20977478319117
30
0.000000000000000
11
-91.5423931344833
21
-2.37226470922748
31
0.000000000000000
  0
LINE
  5
F101AA
330
F101AB
100
AcDbEntity
8
Geo
100
AcDbLine
10
-91.5423931344833
20
-2.37226470922748
30
0.000000000000000
11
-91.4423931344834
21
-2.53066696875594
31
0.000000000000000
  0
LINE
  5
F101AC
330
F101AD
100
AcDbEntity
8
Geo
100
AcDbLine
10
-91.4423931344834
20
-2.53066696875594
30
0.000000000000000
11
-91.3423931344833
21
-2.68474692073261
31
0.000000000000000
  0
LINE
  5
F101AE
330
F101AF
100
AcDbEntity
8
Geo
100
AcDbLine
10
-91.3423931344833
20
-2.68474692073261
30
0.000000000000000
11
-91.2423931344834
21
-2.83427632674164
31
0.000000000000000
  0
LINE
  5
F101B0
330
F101B1
100
AcDbEntity
8
Geo
100
AcDbLine
10
-91.2423931344834
20
-2.83427632674164
30
0.000000000000000
11
-91.1423931344833
21
-2.97903368908450
31
0.000000000000000
  0
LINE
  5
F101B2
330
F101B3
100
AcDbEntity
8
Geo
100
AcDbLine
10
-91.1423931344833
20
-2.97903368908450
30
0.000000000000000
11
-91.0423931344833
21
-3.11880457888425
31
0.000000000000000
  0
LINE
  5
F101B4
330
F101B5
100
AcDbEntity
8
Geo
100
AcDbLine
10
-91.0423931344833
20
-3.11880457888425
30
0.000000000000000
11
-90.9423931344834
21
-3.25338195371867
31
0.000000000000000
  0
LINE
  5
F101B6
330
F101B7
100
AcDbEntity
8
Geo
100
AcDbLine
10
-90.9423931344834
20
-3.25338195371867
30
0.000000000000000
11
-90.8423931344833
21
-3.38256646431197
31
0.000000000000000
  0
LINE
  5
F101B8
330
F101B9
100
AcDbEntity
8
Geo
100
AcDbLine
10
-90.8423931344833
20
-3.38256646431197
30
0.000000000000000
11
-90.7423931344834
21
-3.50616674983056
31
0.000000000000000
  0
LINE
  5
F101BA
330
F101BB
100
AcDbEntity
8
Geo
100
AcDbLine
10
-90.7423931344834
20
-3.50616674983056
30
0.000000000000000
11
-90.6423931344833
21
-3.62399972134558
31
0.000000000000000
  0
LINE
  5
F101BC
330
F101BD
100
AcDbEntity
8
Geo
100
AcDbLine
10
-90.6423931344833
20
-3.62399972134558
30
0.000000000000000
11
-90.5423931344833
21
-3.73589083304229
31
0.000000000000000
  0
LINE
  5
F101BE
330
F101BF
100
AcDbEntity
8
Geo
100
AcDbLine
10
-90.5423931344833
20
-3.73589083304229
30
0.000000000000000
11
-90.4423931344834
21
-3.84167434077451
31
0.000000000000000
  0
LINE
  5
F101C0
330
F101C1
100
AcDbEntity
8
Geo
100
AcDbLine
10
-90.4423931344834
20
-3.84167434077451
30
0.000000000000000
11
-90.3423931344833
21
-3.94119354758124
31
0.000000000000000
  0
LINE
  5
F101C2
330
F101C3
100
AcDbEntity
8
Geo
100
AcDbLine
10
-90.3423931344833
20
-3.94119354758124
30
0.000000000000000
11
-90.2423931344834
21
-4.03430103580160
31
0.000000000000000
  0
LINE
  5
F101C4
330
F101C5
100
AcDbEntity
8
Geo
100
AcDbLine
10
-90.2423931344834
20
-4.03430103580160
30
0.000000000000000
11
-90.1423931344834
21
-4.12085888544443
31
0.000000000000000
  0
LINE
  5
F101C6
330
F101C7
100
AcDbEntity
8
Geo
100
AcDbLine
10
-90.1423931344834
20
-4.12085888544443
30
0.000000000000000
11
-90.0423931344833
21
-4.20073887848895
31
0.000000000000000
  0
LINE
  5
F101C8
330
F101C9
100
AcDbEntity
8
Geo
100
AcDbLine
10
-90.0423931344833
20
-4.20073887848895
30
0.000000000000000
11
-89.9423931344834
21
-4.27382268881398
31
0.000000000000000
  0
LINE
  5
F101CA
330
F101CB
100
AcDbEntity
8
Geo
100
AcDbLine
10
-89.9423931344834
20
-4.27382268881398
30
0.000000000000000
11
-89.8423931344834
21
-4.34000205747422
31
0.000000000000000
  0
LINE
  5
F101CC
330
F101CD
100
AcDbEntity
8
Geo
100
AcDbLine
10
-89.8423931344834
20
-4.34000205747422
30
0.000000000000000
11
-89.7423931344834
21
-4.39917895306408
31
0.000000000000000
  0
LINE
  5
F101CE
330
F101CF
100
AcDbEntity
8
Geo
100
AcDbLine
10
-89.7423931344834
20
-4.39917895306408
30
0.000000000000000
11
-89.6423931344834
21
-4.45126571693147
31
0.000000000000000
  0
LINE
  5
F101D0
330
F101D1
100
AcDbEntity
8
Geo
100
AcDbLine
10
-89.6423931344834
20
-4.45126571693147
30
0.000000000000000
11
-89.5423931344833
21
-4.49618519302643
31
0.000000000000000
  0
LINE
  5
F101D2
330
F101D3
100
AcDbEntity
8
Geo
100
AcDbLine
10
-89.5423931344833
20
-4.49618519302643
30
0.000000000000000
11
-89.4423931344834
21
-4.53387084219230
31
0.000000000000000
  0
LINE
  5
F101D4
330
F101D5
100
AcDbEntity
8
Geo
100
AcDbLine
10
-89.4423931344834
20
-4.53387084219230
30
0.000000000000000
11
-89.3423931344834
21
-4.56426684073003
31
0.000000000000000
  0
LINE
  5
F101D6
330
F101D7
100
AcDbEntity
8
Geo
100
AcDbLine
10
-89.3423931344834
20
-4.56426684073003
30
0.000000000000000
11
-89.2423931344834
21
-4.58732816308981
31
0.000000000000000
  0
LINE
  5
F101D8
330
F101D9
100
AcDbEntity
8
Geo
100
AcDbLine
10
-89.2423931344834
20
-4.58732816308981
30
0.000000000000000
11
-89.1423931344834
21
-4.60302064856731
31
0.000000000000000
  0
LINE
  5
F101DA
330
F101DB
100
AcDbEntity
8
Geo
100
AcDbLine
10
-89.1423931344834
20
-4.60302064856731
30
0.000000000000000
11
-89.0423931344833
21
-4.61132105190588
31
0.000000000000000
  0
LINE
  5
F101DC
330
F101DD
100
AcDbEntity
8
Geo
100
AcDbLine
10
-80.8423931344834
20
5.38703404810328
30
0.000000000000000
11
-80.7423931344834
21
5.38512266257109
31
0.000000000000000
  0
LINE
  5
F101DE
330
F101DF
100
AcDbEntity
8
Geo
100
AcDbLine
10
-80.7423931344834
20
5.38512266257109
30
0.000000000000000
11
-80.6423931344834
21
5.37580793655869
31
0.000000000000000
  0
LINE
  5
F101E0
330
F101E1
100
AcDbEntity
8
Geo
100
AcDbLine
10
-80.6423931344834
20
5.37580793655869
30
0.000000000000000
11
-80.5423931344834
21
5.35910366795660
31
0.000000000000000
  0
LINE
  5
F101E2
330
F101E3
100
AcDbEntity
8
Geo
100
AcDbLine
10
-80.5423931344834
20
5.35910366795660
30
0.000000000000000
11
-80.4423931344834
21
5.33503460077436
31
0.000000000000000
  0
LINE
  5
F101E4
330
F101E5
100
AcDbEntity
8
Geo
100
AcDbLine
10
-80.4423931344834
20
5.33503460077436
30
0.000000000000000
11
-80.3423931344834
21
5.30363638848730
31
0.000000000000000
  0
LINE
  5
F101E6
330
F101E7
100
AcDbEntity
8
Geo
100
AcDbLine
10
-80.3423931344834
20
5.30363638848730
30
0.000000000000000
11
-80.2423931344834
21
5.26495554122306
31
0.000000000000000
  0
LINE
  5
F101E8
330
F101E9
100
AcDbEntity
8
Geo
100
AcDbLine
10
-80.2423931344834
20
5.26495554122306
30
0.000000000000000
11
-80.1423931344833
21
5.21904935686618
31
0.000000000000000
  0
LINE
  5
F101EA
330
F101EB
100
AcDbEntity
8
Geo
100
AcDbLine
10
-80.1423931344833
20
5.21904935686618
30
0.000000000000000
11
-80.0423931344833
21
5.22515412111546
31
0.000000000000000
  0
LINE
  5
F101EC
330
F101ED
100
AcDbEntity
8
Geo
100
AcDbLine
10
-80.0423931344833
20
5.22515412111546
30
0.000000000000000
11
-79.9423931344833
21
5.23103263649765
31
0.000000000000000
  0
LINE
  5
F101EE
330
F101EF
100
AcDbEntity
8
Geo
100
AcDbLine
10
-79.9423931344833
20
5.23103263649765
30
0.000000000000000
11
-79.8423931344833
21
5.23669111343021
31
0.000000000000000
  0
LINE
  5
F101F0
330
F101F1
100
AcDbEntity
8
Geo
100
AcDbLine
10
-79.8423931344833
20
5.23669111343021
30
0.000000000000000
11
-79.7423931344833
21
5.24213565404235
31
0.000000000000000
  0
LINE
  5
F101F2
330
F101F3
100
AcDbEntity
8
Geo
100
AcDbLine
10
-79.7423931344833
20
5.24213565404235
30
0.000000000000000
11
-79.6423931344833
21
5.24737225100433
31
0.000000000000000
  0
LINE
  5
F101F4
330
F101F5
100
AcDbEntity
8
Geo
100
AcDbLine
10
-79.6423931344833
20
5.24737225100433
30
0.000000000000000
11
-79.5423931344833
21
5.25240678640985
31
0.000000000000000
  0
LINE
  5
F101F6
330
F101F7
100
AcDbEntity
8
Geo
100
AcDbLine
10
-79.5423931344833
20
5.25240678640985
30
0.000000000000000
11
-79.4423931344833
21
5.25724503070976
31
0.000000000000000
  0
LINE
  5
F101F8
330
F101F9
100
AcDbEntity
8
Geo
100
AcDbLine
10
-79.4423931344833
20
5.25724503070976
30
0.000000000000000
11
-79.3423931344833
21
5.26189264169538
31
0.000000000000000
  0
LINE
  5
F101FA
330
F101FB
100
AcDbEntity
8
Geo
100
AcDbLine
10
-79.3423931344833
20
5.26189264169538
30
0.000000000000000
11
-79.2423931344833
21
5.26635516352977
31
0.000000000000000
  0
LINE
  5
F101FC
330
F101FD
100
AcDbEntity
8
Geo
100
AcDbLine
10
-79.2423931344833
20
5.26635516352977
30
0.000000000000000
11
-79.1423931344833
21
5.27063802582537
31
0.000000000000000
  0
LINE
  5
F101FE
330
F101FF
100
AcDbEntity
8
Geo
100
AcDbLine
10
-79.1423931344833
20
5.27063802582537
30
0.000000000000000
11
-79.0423931344833
21
5.27474654276628
31
0.000000000000000
  0
LINE
  5
F10200
330
F10201
100
AcDbEntity
8
Geo
100
AcDbLine
10
-79.0423931344833
20
5.27474654276628
30
0.000000000000000
11
-78.9423931344833
21
5.27868591227363
31
0.000000000000000
  0
LINE
  5
F10202
330
F10203
100
AcDbEntity
8
Geo
100
AcDbLine
10
-78.9423931344833
20
5.27868591227363
30
0.000000000000000
11
-78.8423931344833
21
5.28246121521258
31
0.000000000000000
  0
LINE
  5
F10204
330
F10205
100
AcDbEntity
8
Geo
100
AcDbLine
10
-78.8423931344833
20
5.28246121521258
30
0.000000000000000
11
-78.7423931344833
21
5.28607741463927
31
0.000000000000000
  0
LINE
  5
F10206
330
F10207
100
AcDbEntity
8
Geo
100
AcDbLine
10
-78.7423931344833
20
5.28607741463927
30
0.000000000000000
11
-78.6423931344833
21
5.28953935508636
31
0.000000000000000
  0
LINE
  5
F10208
330
F10209
100
AcDbEntity
8
Geo
100
AcDbLine
10
-78.6423931344833
20
5.28953935508636
30
0.000000000000000
11
-78.5423931344833
21
5.29285176188556
31
0.000000000000000
  0
LINE
  5
F1020A
330
F1020B
100
AcDbEntity
8
Geo
100
AcDbLine
10
-78.5423931344833
20
5.29285176188556
30
0.000000000000000
11
-78.4423931344833
21
5.29601924052588
31
0.000000000000000
  0
LINE
  5
F1020C
330
F1020D
100
AcDbEntity
8
Geo
100
AcDbLine
10
-78.4423931344833
20
5.29601924052588
30
0.000000000000000
11
-78.3423931344833
21
5.29904627604605
31
0.000000000000000
  0
LINE
  5
F1020E
330
F1020F
100
AcDbEntity
8
Geo
100
AcDbLine
10
-78.3423931344833
20
5.29904627604605
30
0.000000000000000
11
-78.2423931344833
21
5.30193723245988
31
0.000000000000000
  0
LINE
  5
F10210
330
F10211
100
AcDbEntity
8
Geo
100
AcDbLine
10
-78.2423931344833
20
5.30193723245988
30
0.000000000000000
11
-78.1423931344833
21
5.30469635221309
31
0.000000000000000
  0
LINE
  5
F10212
330
F10213
100
AcDbEntity
8
Geo
100
AcDbLine
10
-78.1423931344833
20
5.30469635221309
30
0.000000000000000
11
-78.0423931344833
21
5.30732775567044
31
0.000000000000000
  0
LINE
  5
F10214
330
F10215
100
AcDbEntity
8
Geo
100
AcDbLine
10
-78.0423931344833
20
5.30732775567044
30
0.000000000000000
11
-77.9423931344833
21
5.30983544063181
31
0.000000000000000
  0
LINE
  5
F10216
330
F10217
100
AcDbEntity
8
Geo
100
AcDbLine
10
-77.9423931344833
20
5.30983544063181
30
0.000000000000000
11
-77.8423931344833
21
5.31222328187605
31
0.000000000000000
  0
LINE
  5
F10218
330
F10219
100
AcDbEntity
8
Geo
100
AcDbLine
10
-77.8423931344833
20
5.31222328187605
30
0.000000000000000
11
-77.7423931344833
21
5.31449503073141
31
0.000000000000000
  0
LINE
  5
F1021A
330
F1021B
100
AcDbEntity
8
Geo
100
AcDbLine
10
-77.7423931344833
20
5.31449503073141
30
0.000000000000000
11
-77.6423931344833
21
5.31665431467131
31
0.000000000000000
  0
LINE
  5
F1021C
330
F1021D
100
AcDbEntity
8
Geo
100
AcDbLine
10
-77.6423931344833
20
5.31665431467131
30
0.000000000000000
11
-77.5423931344833
21
5.31870463693444
31
0.000000000000000
  0
LINE
  5
F1021E
330
F1021F
100
AcDbEntity
8
Geo
100
AcDbLine
10
-77.5423931344833
20
5.31870463693444
30
0.000000000000000
11
-77.4423931344833
21
5.32064937616810
31
0.000000000000000
  0
LINE
  5
F10220
330
F10221
100
AcDbEntity
8
Geo
100
AcDbLine
10
-77.4423931344833
20
5.32064937616810
30
0.000000000000000
11
-77.3423931344833
21
5.32249178609357
31
0.000000000000000
  0
LINE
  5
F10222
330
F10223
100
AcDbEntity
8
Geo
100
AcDbLine
10
-77.3423931344833
20
5.32249178609357
30
0.000000000000000
11
-77.2423931344833
21
5.32423499519273
31
0.000000000000000
  0
LINE
  5
F10224
330
F10225
100
AcDbEntity
8
Geo
100
AcDbLine
10
-77.2423931344833
20
5.32423499519273
30
0.000000000000000
11
-77.1423931344833
21
5.32588200641475
31
0.000000000000000
  0
LINE
  5
F10226
330
F10227
100
AcDbEntity
8
Geo
100
AcDbLine
10
-77.1423931344833
20
5.32588200641475
30
0.000000000000000
11
-77.0423931344833
21
5.32743569690205
31
0.000000000000000
  0
LINE
  5
F10228
330
F10229
100
AcDbEntity
8
Geo
100
AcDbLine
10
-77.0423931344833
20
5.32743569690205
30
0.000000000000000
11
-76.9423931344833
21
5.32889881773461
31
0.000000000000000
  0
LINE
  5
F1022A
330
F1022B
100
AcDbEntity
8
Geo
100
AcDbLine
10
-76.9423931344833
20
5.32889881773461
30
0.000000000000000
11
-76.8423931344833
21
5.33027399369159
31
0.000000000000000
  0
LINE
  5
F1022C
330
F1022D
100
AcDbEntity
8
Geo
100
AcDbLine
10
-76.8423931344833
20
5.33027399369159
30
0.000000000000000
11
-76.7423931344833
21
5.33156372302974
31
0.000000000000000
  0
LINE
  5
F1022E
330
F1022F
100
AcDbEntity
8
Geo
100
AcDbLine
10
-76.7423931344833
20
5.33156372302974
30
0.000000000000000
11
-76.6423931344833
21
5.33277037727756
31
0.000000000000000
  0
LINE
  5
F10230
330
F10231
100
AcDbEntity
8
Geo
100
AcDbLine
10
-76.6423931344833
20
5.33277037727756
30
0.000000000000000
11
-76.5423931344833
21
5.33389620104451
31
0.000000000000000
  0
LINE
  5
F10232
330
F10233
100
AcDbEntity
8
Geo
100
AcDbLine
10
-76.5423931344833
20
5.33389620104451
30
0.000000000000000
11
-76.4423931344833
21
5.33494331184469
31
0.000000000000000
  0
LINE
  5
F10234
330
F10235
100
AcDbEntity
8
Geo
100
AcDbLine
10
-76.4423931344833
20
5.33494331184469
30
0.000000000000000
11
-76.3423931344833
21
5.33591369993408
31
0.000000000000000
  0
LINE
  5
F10236
330
F10237
100
AcDbEntity
8
Geo
100
AcDbLine
10
-76.3423931344833
20
5.33591369993408
30
0.000000000000000
11
-76.2423931344833
21
5.33680922816096
31
0.000000000000000
  0
LINE
  5
F10238
330
F10239
100
AcDbEntity
8
Geo
100
AcDbLine
10
-76.2423931344833
20
5.33680922816096
30
0.000000000000000
11
-76.1423931344833
21
5.33763163182866
31
0.000000000000000
  0
LINE
  5
F1023A
330
F1023B
100
AcDbEntity
8
Geo
100
AcDbLine
10
-76.1423931344833
20
5.33763163182866
30
0.000000000000000
11
-76.0423931344833
21
5.33838251857033
31
0.000000000000000
  0
LINE
  5
F1023C
330
F1023D
100
AcDbEntity
8
Geo
100
AcDbLine
10
-76.0423931344833
20
5.33838251857033
30
0.000000000000000
11
-75.9423931344833
21
5.33906336823492
31
0.000000000000000
  0
LINE
  5
F1023E
330
F1023F
100
AcDbEntity
8
Geo
100
AcDbLine
10
-75.9423931344833
20
5.33906336823492
30
0.000000000000000
11
-75.8423931344833
21
5.33967553278420
31
0.000000000000000
  0
LINE
  5
F10240
330
F10241
100
AcDbEntity
8
Geo
100
AcDbLine
10
-75.8423931344833
20
5.33967553278420
30
0.000000000000000
11
-75.7423931344833
21
5.34022023620009
31
0.000000000000000
  0
LINE
  5
F10242
330
F10243
100
AcDbEntity
8
Geo
100
AcDbLine
10
-75.7423931344833
20
5.34022023620009
30
0.000000000000000
11
-75.6423931344833
21
5.34069857440209
31
0.000000000000000
  0
LINE
  5
F10244
330
F10245
100
AcDbEntity
8
Geo
100
AcDbLine
10
-75.6423931344833
20
5.34069857440209
30
0.000000000000000
11
-75.5423931344833
21
5.34111151517430
31
0.000000000000000
  0
LINE
  5
F10246
330
F10247
100
AcDbEntity
8
Geo
100
AcDbLine
10
-75.5423931344833
20
5.34111151517430
30
0.000000000000000
11
-75.4423931344833
21
5.34145989810184
31
0.000000000000000
  0
LINE
  5
F10248
330
F10249
100
AcDbEntity
8
Geo
100
AcDbLine
10
-75.4423931344833
20
5.34145989810184
30
0.000000000000000
11
-75.3423931344833
21
5.34174443451625
31
0.000000000000000
  0
LINE
  5
F1024A
330
F1024B
100
AcDbEntity
8
Geo
100
AcDbLine
10
-75.3423931344833
20
5.34174443451625
30
0.000000000000000
11
-75.2423931344833
21
5.34196570744966
31
0.000000000000000
  0
LINE
  5
F1024C
330
F1024D
100
AcDbEntity
8
Geo
100
AcDbLine
10
-75.2423931344833
20
5.34196570744966
30
0.000000000000000
11
-75.1423931344833
21
5.34212417159757
31
0.000000000000000
  0
LINE
  5
F1024E
330
F1024F
100
AcDbEntity
8
Geo
100
AcDbLine
10
-97.1423931344833
20
4.66700517101033
30
0.000000000000000
11
-97.0423931344833
21
4.89186357033876
31
0.000000000000000
  0
LINE
  5
F10250
330
F10251
100
AcDbEntity
8
Geo
100
AcDbLine
10
-97.0423931344833
20
4.89186357033876
30
0.000000000000000
11
-96.9423931344833
21
4.91717986935151
31
0.000000000000000
  0
LINE
  5
F10252
330
F10253
100
AcDbEntity
8
Geo
100
AcDbLine
10
-96.9423931344833
20
4.91717986935151
30
0.000000000000000
11
-96.8423931344833
21
4.89490302649781
31
0.000000000000000
  0
LINE
  5
F10254
330
F10255
100
AcDbEntity
8
Geo
100
AcDbLine
10
-96.8423931344833
20
4.89490302649781
30
0.000000000000000
11
-96.7423931344833
21
4.84032777781035
31
0.000000000000000
  0
LINE
  5
F10256
330
F10257
100
AcDbEntity
8
Geo
100
AcDbLine
10
-96.7423931344833
20
4.84032777781035
30
0.000000000000000
11
-96.6423931344833
21
4.75922446485754
31
0.000000000000000
  0
LINE
  5
F10258
330
F10259
100
AcDbEntity
8
Geo
100
AcDbLine
10
-96.6423931344833
20
4.75922446485754
30
0.000000000000000
11
-96.5423931344833
21
4.66262969657943
31
0.000000000000000
  0
LINE
  5
F1025A
330
F1025B
100
AcDbEntity
8
Geo
100
AcDbLine
10
-96.5423931344833
20
4.66262969657943
30
0.000000000000000
11
-96.4423931344833
21
4.55970181563405
31
0.000000000000000
  0
LINE
  5
F1025C
330
F1025D
100
AcDbEntity
8
Geo
100
AcDbLine
10
-96.4423931344833
20
4.55970181563405
30
0.000000000000000
11
-96.3423931344833
21
4.45059328894646
31
0.000000000000000
  0
LINE
  5
F1025E
330
F1025F
100
AcDbEntity
8
Geo
100
AcDbLine
10
-96.3423931344833
20
4.45059328894646
30
0.000000000000000
11
-96.2423931344833
21
4.33546573882359
31
0.000000000000000
  0
LINE
  5
F10260
330
F10261
100
AcDbEntity
8
Geo
100
AcDbLine
10
-96.2423931344833
20
4.33546573882359
30
0.000000000000000
11
-96.1423931344833
21
4.21448970354327
31
0.000000000000000
  0
LINE
  5
F10262
330
F10263
100
AcDbEntity
8
Geo
100
AcDbLine
10
-96.1423931344833
20
4.21448970354327
30
0.000000000000000
11
-96.0423931344833
21
4.08784438473618
31
0.000000000000000
  0
LINE
  5
F10264
330
F10265
100
AcDbEntity
8
Geo
100
AcDbLine
10
-96.0423931344833
20
4.08784438473618
30
0.000000000000000
11
-95.9423931344833
21
3.95571738193470
31
0.000000000000000
  0
LINE
  5
F10266
330
F10267
100
AcDbEntity
8
Geo
100
AcDbLine
10
-95.9423931344833
20
3.95571738193470
30
0.000000000000000
11
-95.8423931344833
21
3.81830441468198
31
0.000000000000000
  0
LINE
  5
F10268
330
F10269
100
AcDbEntity
8
Geo
100
AcDbLine
10
-95.8423931344833
20
3.81830441468198
30
0.000000000000000
11
-95.7423931344833
21
3.67580903261288
31
0.000000000000000
  0
LINE
  5
F1026A
330
F1026B
100
AcDbEntity
8
Geo
100
AcDbLine
10
-95.7423931344833
20
3.67580903261288
30
0.000000000000000
11
-95.6423931344833
21
3.52844231393617
31
0.000000000000000
  0
LINE
  5
F1026C
330
F1026D
100
AcDbEntity
8
Geo
100
AcDbLine
10
-95.6423931344833
20
3.52844231393617
30
0.000000000000000
11
-95.5423931344833
21
3.37642255276466
31
0.000000000000000
  0
LINE
  5
F1026E
330
F1026F
100
AcDbEntity
8
Geo
100
AcDbLine
10
-95.5423931344833
20
3.37642255276466
30
0.000000000000000
11
-95.4423931344833
21
3.21997493575646
31
0.000000000000000
  0
LINE
  5
F10270
330
F10271
100
AcDbEntity
8
Geo
100
AcDbLine
10
-95.4423931344833
20
3.21997493575646
30
0.000000000000000
11
-95.3423931344833
21
3.05933120854630
31
0.000000000000000
  0
LINE
  5
F10272
330
F10273
100
AcDbEntity
8
Geo
100
AcDbLine
10
-95.3423931344833
20
3.05933120854630
30
0.000000000000000
11
-95.2423931344833
21
2.89472933246106
31
0.000000000000000
  0
LINE
  5
F10274
330
F10275
100
AcDbEntity
8
Geo
100
AcDbLine
10
-95.2423931344833
20
2.89472933246106
30
0.000000000000000
11
-95.1423931344833
21
2.72641313202792
31
0.000000000000000
  0
LINE
  5
F10276
330
F10277
100
AcDbEntity
8
Geo
100
AcDbLine
10
-95.1423931344833
20
2.72641313202792
30
0.000000000000000
11
-95.0423931344833
21
2.55463193379755
31
0.000000000000000
  0
LINE
  5
F10278
330
F10279
100
AcDbEntity
8
Geo
100
AcDbLine
10
-95.0423931344833
20
2.55463193379755
30
0.000000000000000
11
-94.9423931344833
21
2.37964019701692
31
0.000000000000000
  0
LINE
  5
F1027A
330
F1027B
100
AcDbEntity
8
Geo
100
AcDbLine
10
-94.9423931344833
20
2.37964019701692
30
0.000000000000000
11
-94.8423931344833
21
2.20169713669928
31
0.000000000000000
  0
LINE
  5
F1027C
330
F1027D
100
AcDbEntity
8
Geo
100
AcDbLine
10
-94.8423931344833
20
2.20169713669928
30
0.000000000000000
11
-94.7423931344833
21
2.02106633964925
31
0.000000000000000
  0
LINE
  5
F1027E
330
F1027F
100
AcDbEntity
8
Geo
100
AcDbLine
10
-94.7423931344833
20
2.02106633964925
30
0.000000000000000
11
-94.6423931344833
21
1.83801537401208
31
0.000000000000000
  0
LINE
  5
F10280
330
F10281
100
AcDbEntity
8
Geo
100
AcDbLine
10
-94.6423931344833
20
1.83801537401208
30
0.000000000000000
11
-94.5423931344833
21
1.65281539292538
31
0.000000000000000
  0
LINE
  5
F10282
330
F10283
100
AcDbEntity
8
Geo
100
AcDbLine
10
-94.5423931344833
20
1.65281539292538
30
0.000000000000000
11
-94.4423931344833
21
1.46574073286027
31
0.000000000000000
  0
LINE
  5
F10284
330
F10285
100
AcDbEntity
8
Geo
100
AcDbLine
10
-94.4423931344833
20
1.46574073286027
30
0.000000000000000
11
-94.3423931344833
21
1.27706850724723
31
0.000000000000000
  0
LINE
  5
F10286
330
F10287
100
AcDbEntity
8
Geo
100
AcDbLine
10
-94.3423931344833
20
1.27706850724723
30
0.000000000000000
11
-94.2423931344833
21
1.08707819598832
31
0.000000000000000
  0
LINE
  5
F10288
330
F10289
100
AcDbEntity
8
Geo
100
AcDbLine
10
-94.2423931344833
20
1.08707819598832
30
0.000000000000000
11
-94.1423931344833
21
0.896051231464033
31
0.000000000000000
  0
LINE
  5
F1028A
330
F1028B
100
AcDbEntity
8
Geo
100
AcDbLine
10
-94.1423931344833
20
0.896051231464033
30
0.000000000000000
11
-94.0423931344833
21
0.704270581647861
31
0.000000000000000
  0
LINE
  5
F1028C
330
F1028D
100
AcDbEntity
8
Geo
100
AcDbLine
10
-94.0423931344833
20
0.704270581647861
30
0.000000000000000
11
-93.9423931344833
21
0.512020330946266
31
0.000000000000000
  0
LINE
  5
F1028E
330
F1028F
100
AcDbEntity
8
Geo
100
AcDbLine
10
-93.9423931344833
20
0.512020330946266
30
0.000000000000000
11
-93.8423931344833
21
0.319585259384841
31
0.000000000000000
  0
LINE
  5
F10290
330
F10291
100
AcDbEntity
8
Geo
100
AcDbLine
10
-93.8423931344833
20
0.319585259384841
30
0.000000000000000
11
-93.7423931344833
21
0.127250420764059
31
0.000000000000000
  0
LINE
  5
F10292
330
F10293
100
AcDbEntity
8
Geo
100
AcDbLine
10
-93.7423931344833
20
0.127250420764059
30
0.000000000000000
11
-93.6423931344833
21
-0.0646992795905226
31
0.000000000000000
  0
LINE
  5
F10294
330
F10295
100
AcDbEntity
8
Geo
100
AcDbLine
10
-93.6423931344833
20
-0.0646992795905226
30
0.000000000000000
11
-93.5423931344833
21
-0.255979506858118
31
0.000000000000000
  0
LINE
  5
F10296
330
F10297
100
AcDbEntity
8
Geo
100
AcDbLine
10
-93.5423931344833
20
-0.255979506858118
30
0.000000000000000
11
-93.4423931344833
21
-0.446306917907481
31
0.000000000000000
  0
LINE
  5
F10298
330
F10299
100
AcDbEntity
8
Geo
100
AcDbLine
10
-93.4423931344833
20
-0.446306917907481
30
0.000000000000000
11
-93.3423931344833
21
-0.635399581012688
31
0.000000000000000
  0
LINE
  5
F1029A
330
F1029B
100
AcDbEntity
8
Geo
100
AcDbLine
10
-93.3423931344833
20
-0.635399581012688
30
0.000000000000000
11
-93.2423931344833
21
-0.822977393478207
31
0.000000000000000
  0
LINE
  5
F1029C
330
F1029D
100
AcDbEntity
8
Geo
100
AcDbLine
10
-93.2423931344833
20
-0.822977393478207
30
0.000000000000000
11
-93.1423931344833
21
-1.00876249655462
31
0.000000000000000
  0
LINE
  5
F1029E
330
F1029F
100
AcDbEntity
8
Geo
100
AcDbLine
10
-93.1423931344833
20
-1.00876249655462
30
0.000000000000000
11
-93.0423931344833
21
-1.19247968703041
31
0.000000000000000
  0
LINE
  5
F102A0
330
F102A1
100
AcDbEntity
8
Geo
100
AcDbLine
10
-93.0423931344833
20
-1.19247968703041
30
0.000000000000000
11
-92.9423931344833
21
-1.37385682489008
31
0.000000000000000
  0
LINE
  5
F102A2
330
F102A3
100
AcDbEntity
8
Geo
100
AcDbLine
10
-92.9423931344833
20
-1.37385682489008
30
0.000000000000000
11
-92.8423931344833
21
-1.55262523643477
31
0.000000000000000
  0
LINE
  5
F102A4
330
F102A5
100
AcDbEntity
8
Geo
100
AcDbLine
10
-92.8423931344833
20
-1.55262523643477
30
0.000000000000000
11
-92.7423931344833
21
-1.72852011226825
31
0.000000000000000
  0
LINE
  5
F102A6
330
F102A7
100
AcDbEntity
8
Geo
100
AcDbLine
10
-92.7423931344833
20
-1.72852011226825
30
0.000000000000000
11
-92.6423931344833
21
-1.90128089955869
31
0.000000000000000
  0
LINE
  5
F102A8
330
F102A9
100
AcDbEntity
8
Geo
100
AcDbLine
10
-92.6423931344833
20
-1.90128089955869
30
0.000000000000000
11
-92.5423931344833
21
-2.07065168799518
31
0.000000000000000
  0
LINE
  5
F102AA
330
F102AB
100
AcDbEntity
8
Geo
100
AcDbLine
10
-92.5423931344833
20
-2.07065168799518
30
0.000000000000000
11
-92.4423931344833
21
-2.23638158886737
31
0.000000000000000
  0
LINE
  5
F102AC
330
F102AD
100
AcDbEntity
8
Geo
100
AcDbLine
10
-92.4423931344833
20
-2.23638158886737
30
0.000000000000000
11
-92.3423931344833
21
-2.39822510670651
31
0.000000000000000
  0
LINE
  5
F102AE
330
F102AF
100
AcDbEntity
8
Geo
100
AcDbLine
10
-92.3423931344833
20
-2.39822510670651
30
0.000000000000000
11
-92.2423931344833
21
-2.55594250293758
31
0.000000000000000
  0
LINE
  5
F102B0
330
F102B1
100
AcDbEntity
8
Geo
100
AcDbLine
10
-92.2423931344833
20
-2.55594250293758
30
0.000000000000000
11
-92.1423931344833
21
-2.70930015100368
31
0.000000000000000
  0
LINE
  5
F102B2
330
F102B3
100
AcDbEntity
8
Geo
100
AcDbLine
10
-92.1423931344833
20
-2.70930015100368
30
0.000000000000000
11
-92.0423931344833
21
-2.85807088243671
31
0.000000000000000
  0
LINE
  5
F102B4
330
F102B5
100
AcDbEntity
8
Geo
100
AcDbLine
10
-92.0423931344833
20
-2.85807088243671
30
0.000000000000000
11
-91.9423931344833
21
-3.00203432336174
31
0.000000000000000
  0
LINE
  5
F102B6
330
F102B7
100
AcDbEntity
8
Geo
100
AcDbLine
10
-91.9423931344833
20
-3.00203432336174
30
0.000000000000000
11
-91.8423931344833
21
-3.14097722093649
31
0.000000000000000
  0
LINE
  5
F102B8
330
F102B9
100
AcDbEntity
8
Geo
100
AcDbLine
10
-91.8423931344833
20
-3.14097722093649
30
0.000000000000000
11
-91.7423931344834
21
-3.27469375924248
31
0.000000000000000
  0
LINE
  5
F102BA
330
F102BB
100
AcDbEntity
8
Geo
100
AcDbLine
10
-91.7423931344834
20
-3.27469375924248
30
0.000000000000000
11
-91.6423931344833
21
-3.40298586415984
31
0.000000000000000
  0
LINE
  5
F102BC
330
F102BD
100
AcDbEntity
8
Geo
100
AcDbLine
10
-91.6423931344833
20
-3.40298586415984
30
0.000000000000000
11
-91.5423931344833
21
-3.52566349677426
31
0.000000000000000
  0
LINE
  5
F102BE
330
F102BF
100
AcDbEntity
8
Geo
100
AcDbLine
10
-91.5423931344833
20
-3.52566349677426
30
0.000000000000000
11
-91.4423931344834
21
-3.64254493488131
31
0.000000000000000
  0
LINE
  5
F102C0
330
F102C1
100
AcDbEntity
8
Geo
100
AcDbLine
10
-91.4423931344834
20
-3.64254493488131
30
0.000000000000000
11
-91.3423931344833
21
-3.75345704217136
31
0.000000000000000
  0
LINE
  5
F102C2
330
F102C3
100
AcDbEntity
8
Geo
100
AcDbLine
10
-91.3423931344833
20
-3.75345704217136
30
0.000000000000000
11
-91.2423931344834
21
-3.85823552469609
31
0.000000000000000
  0
LINE
  5
F102C4
330
F102C5
100
AcDbEntity
8
Geo
100
AcDbLine
10
-91.2423931344834
20
-3.85823552469609
30
0.000000000000000
11
-91.1423931344833
21
-3.95672517423690
31
0.000000000000000
  0
LINE
  5
F102C6
330
F102C7
100
AcDbEntity
8
Geo
100
AcDbLine
10
-91.1423931344833
20
-3.95672517423690
30
0.000000000000000
11
-91.0423931344833
21
-4.04878009821466
31
0.000000000000000
  0
LINE
  5
F102C8
330
F102C9
100
AcDbEntity
8
Geo
100
AcDbLine
10
-91.0423931344833
20
-4.04878009821466
30
0.000000000000000
11
-90.9423931344834
21
-4.13426393580012
31
0.000000000000000
  0
LINE
  5
F102CA
330
F102CB
100
AcDbEntity
8
Geo
100
AcDbLine
10
-90.9423931344834
20
-4.13426393580012
30
0.000000000000000
11
-90.8423931344833
21
-4.21305005990506
31
0.000000000000000
  0
LINE
  5
F102CC
330
F102CD
100
AcDbEntity
8
Geo
100
AcDbLine
10
-90.8423931344833
20
-4.21305005990506
30
0.000000000000000
11
-90.7423931344834
21
-4.28502176475483
31
0.000000000000000
  0
LINE
  5
F102CE
330
F102CF
100
AcDbEntity
8
Geo
100
AcDbLine
10
-90.7423931344834
20
-4.28502176475483
30
0.000000000000000
11
-90.6423931344833
21
-4.35007243876438
31
0.000000000000000
  0
LINE
  5
F102D0
330
F102D1
100
AcDbEntity
8
Geo
100
AcDbLine
10
-90.6423931344833
20
-4.35007243876438
30
0.000000000000000
11
-90.5423931344833
21
-4.40810572246193
31
0.000000000000000
  0
LINE
  5
F102D2
330
F102D3
100
AcDbEntity
8
Geo
100
AcDbLine
10
-90.5423931344833
20
-4.40810572246193
30
0.000000000000000
11
-90.4423931344834
21
-4.45903565122608
31
0.000000000000000
  0
LINE
  5
F102D4
330
F102D5
100
AcDbEntity
8
Geo
100
AcDbLine
10
-90.4423931344834
20
-4.45903565122608
30
0.000000000000000
11
-90.3423931344833
21
-4.50278678262507
31
0.000000000000000
  0
LINE
  5
F102D6
330
F102D7
100
AcDbEntity
8
Geo
100
AcDbLine
10
-90.3423931344833
20
-4.50278678262507
30
0.000000000000000
11
-90.2423931344834
21
-4.53929430816959
31
0.000000000000000
  0
LINE
  5
F102D8
330
F102D9
100
AcDbEntity
8
Geo
100
AcDbLine
10
-90.2423931344834
20
-4.53929430816959
30
0.000000000000000
11
-90.1423931344834
21
-4.56850414931346
31
0.000000000000000
  0
LINE
  5
F102DA
330
F102DB
100
AcDbEntity
8
Geo
100
AcDbLine
10
-90.1423931344834
20
-4.56850414931346
30
0.000000000000000
11
-90.0423931344833
21
-4.59037303756015
31
0.000000000000000
  0
LINE
  5
F102DC
330
F102DD
100
AcDbEntity
8
Geo
100
AcDbLine
10
-90.0423931344833
20
-4.59037303756015
30
0.000000000000000
11
-89.9423931344834
21
-4.60486857855628
31
0.000000000000000
  0
LINE
  5
F102DE
330
F102DF
100
AcDbEntity
8
Geo
100
AcDbLine
10
-89.9423931344834
20
-4.60486857855628
30
0.000000000000000
11
-89.8423931344834
21
-4.61196930007740
31
0.000000000000000
  0
LINE
  5
F102E0
330
F102E1
100
AcDbEntity
8
Geo
100
AcDbLine
10
-81.6423931344834
20
5.38722723538017
30
0.000000000000000
11
-81.5423931344834
21
5.38411530863306
31
0.000000000000000
  0
LINE
  5
F102E2
330
F102E3
100
AcDbEntity
8
Geo
100
AcDbLine
10
-81.5423931344834
20
5.38411530863306
30
0.000000000000000
11
-81.4423931344834
21
5.37360153359770
31
0.000000000000000
  0
LINE
  5
F102E4
330
F102E5
100
AcDbEntity
8
Geo
100
AcDbLine
10
-81.4423931344834
20
5.37360153359770
30
0.000000000000000
11
-81.3423931344834
21
5.35570148431424
31
0.000000000000000
  0
LINE
  5
F102E6
330
F102E7
100
AcDbEntity
8
Geo
100
AcDbLine
10
-81.3423931344834
20
5.35570148431424
30
0.000000000000000
11
-81.2423931344834
21
5.33044167610049
31
0.000000000000000
  0
LINE
  5
F102E8
330
F102E9
100
AcDbEntity
8
Geo
100
AcDbLine
10
-81.2423931344834
20
5.33044167610049
30
0.000000000000000
11
-81.1423931344834
21
5.29785952627476
31
0.000000000000000
  0
LINE
  5
F102EA
330
F102EB
100
AcDbEntity
8
Geo
100
AcDbLine
10
-81.1423931344834
20
5.29785952627476
30
0.000000000000000
11
-81.0423931344834
21
5.25800329872970
31
0.000000000000000
  0
LINE
  5
F102EC
330
F102ED
100
AcDbEntity
8
Geo
100
AcDbLine
10
-81.0423931344834
20
5.25800329872970
30
0.000000000000000
11
-80.9423931344834
21
5.21093203243905
31
0.000000000000000
  0
LINE
  5
F102EE
330
F102EF
100
AcDbEntity
8
Geo
100
AcDbLine
10
-80.9423931344834
20
5.21093203243905
30
0.000000000000000
11
-80.8423931344834
21
5.15671545400325
31
0.000000000000000
  0
LINE
  5
F102F0
330
F102F1
100
AcDbEntity
8
Geo
100
AcDbLine
10
-80.8423931344834
20
5.15671545400325
30
0.000000000000000
11
-80.7423931344834
21
5.09543387436360
31
0.000000000000000
  0
LINE
  5
F102F2
330
F102F3
100
AcDbEntity
8
Geo
100
AcDbLine
10
-80.7423931344834
20
5.09543387436360
30
0.000000000000000
11
-80.6423931344834
21
5.02717806983769
31
0.000000000000000
  0
LINE
  5
F102F4
330
F102F5
100
AcDbEntity
8
Geo
100
AcDbLine
10
-80.6423931344834
20
5.02717806983769
30
0.000000000000000
11
-80.5423931344834
21
4.95204914765263
31
0.000000000000000
  0
LINE
  5
F102F6
330
F102F7
100
AcDbEntity
8
Geo
100
AcDbLine
10
-80.5423931344834
20
4.95204914765263
30
0.000000000000000
11
-80.4423931344834
21
4.87015839617505
31
0.000000000000000
  0
LINE
  5
F102F8
330
F102F9
100
AcDbEntity
8
Geo
100
AcDbLine
10
-80.4423931344834
20
4.87015839617505
30
0.000000000000000
11
-80.3423931344834
21
4.78162712005978
31
0.000000000000000
  0
LINE
  5
F102FA
330
F102FB
100
AcDbEntity
8
Geo
100
AcDbLine
10
-80.3423931344834
20
4.78162712005978
30
0.000000000000000
11
-80.2423931344834
21
4.68658646056142
31
0.000000000000000
  0
LINE
  5
F102FC
330
F102FD
100
AcDbEntity
8
Geo
100
AcDbLine
10
-80.2423931344834
20
4.68658646056142
30
0.000000000000000
11
-80.1423931344833
21
4.58517720127501
31
0.000000000000000
  0
LINE
  5
F102FE
330
F102FF
100
AcDbEntity
8
Geo
100
AcDbLine
10
-80.1423931344833
20
4.58517720127501
30
0.000000000000000
11
-80.0423931344833
21
4.46421188824994
31
0.000000000000000
  0
LINE
  5
F10300
330
F10301
100
AcDbEntity
8
Geo
100
AcDbLine
10
-80.0423931344833
20
4.46421188824994
30
0.000000000000000
11
-79.9423931344833
21
4.33823433842367
31
0.000000000000000
  0
LINE
  5
F10302
330
F10303
100
AcDbEntity
8
Geo
100
AcDbLine
10
-79.9423931344833
20
4.33823433842367
30
0.000000000000000
11
-79.8423931344833
21
4.20789545762355
31
0.000000000000000
  0
LINE
  5
F10304
330
F10305
100
AcDbEntity
8
Geo
100
AcDbLine
10
-79.8423931344833
20
4.20789545762355
30
0.000000000000000
11
-79.7423931344833
21
4.07382308978755
31
0.000000000000000
  0
LINE
  5
F10306
330
F10307
100
AcDbEntity
8
Geo
100
AcDbLine
10
-79.7423931344833
20
4.07382308978755
30
0.000000000000000
11
-79.6423931344833
21
3.93662068372759
31
0.000000000000000
  0
LINE
  5
F10308
330
F10309
100
AcDbEntity
8
Geo
100
AcDbLine
10
-79.6423931344833
20
3.93662068372759
30
0.000000000000000
11
-79.5423931344833
21
3.79686623030183
31
0.000000000000000
  0
LINE
  5
F1030A
330
F1030B
100
AcDbEntity
8
Geo
100
AcDbLine
10
-79.5423931344833
20
3.79686623030183
30
0.000000000000000
11
-79.4423931344833
21
3.65511145232309
31
0.000000000000000
  0
LINE
  5
F1030C
330
F1030D
100
AcDbEntity
8
Geo
100
AcDbLine
10
-79.4423931344833
20
3.65511145232309
30
0.000000000000000
11
-79.3423931344833
21
3.51188122933358
31
0.000000000000000
  0
LINE
  5
F1030E
330
F1030F
100
AcDbEntity
8
Geo
100
AcDbLine
10
-79.3423931344833
20
3.51188122933358
30
0.000000000000000
11
-79.2423931344833
21
3.36767323935579
31
0.000000000000000
  0
LINE
  5
F10310
330
F10311
100
AcDbEntity
8
Geo
100
AcDbLine
10
-79.2423931344833
20
3.36767323935579
30
0.000000000000000
11
-79.1423931344833
21
3.22295779986651
31
0.000000000000000
  0
LINE
  5
F10312
330
F10313
100
AcDbEntity
8
Geo
100
AcDbLine
10
-79.1423931344833
20
3.22295779986651
30
0.000000000000000
11
-79.0423931344833
21
3.07817789051556
31
0.000000000000000
  0
LINE
  5
F10314
330
F10315
100
AcDbEntity
8
Geo
100
AcDbLine
10
-79.0423931344833
20
3.07817789051556
30
0.000000000000000
11
-78.9423931344833
21
2.93374934050386
31
0.000000000000000
  0
LINE
  5
F10316
330
F10317
100
AcDbEntity
8
Geo
100
AcDbLine
10
-78.9423931344833
20
2.93374934050386
30
0.000000000000000
11
-78.8423931344833
21
2.79006116403056
31
0.000000000000000
  0
LINE
  5
F10318
330
F10319
100
AcDbEntity
8
Geo
100
AcDbLine
10
-78.8423931344833
20
2.79006116403056
30
0.000000000000000
11
-78.7423931344833
21
2.64747602779812
31
0.000000000000000
  0
LINE
  5
F1031A
330
F1031B
100
AcDbEntity
8
Geo
100
AcDbLine
10
-78.7423931344833
20
2.64747602779812
30
0.000000000000000
11
-78.6423931344833
21
2.50633083521313
31
0.000000000000000
  0
LINE
  5
F1031C
330
F1031D
100
AcDbEntity
8
Geo
100
AcDbLine
10
-78.6423931344833
20
2.50633083521313
30
0.000000000000000
11
-78.5423931344833
21
2.36693741262481
31
0.000000000000000
  0
LINE
  5
F1031E
330
F1031F
100
AcDbEntity
8
Geo
100
AcDbLine
10
-78.5423931344833
20
2.36693741262481
30
0.000000000000000
11
-78.4423931344833
21
2.22958328368879
31
0.000000000000000
  0
LINE
  5
F10320
330
F10321
100
AcDbEntity
8
Geo
100
AcDbLine
10
-78.4423931344833
20
2.22958328368879
30
0.000000000000000
11
-78.3423931344833
21
2.09453251872020
31
0.000000000000000
  0
LINE
  5
F10322
330
F10323
100
AcDbEntity
8
Geo
100
AcDbLine
10
-78.3423931344833
20
2.09453251872020
30
0.000000000000000
11
-78.2423931344833
21
1.96202664669522
31
0.000000000000000
  0
LINE
  5
F10324
330
F10325
100
AcDbEntity
8
Geo
100
AcDbLine
10
-78.2423931344833
20
1.96202664669522
30
0.000000000000000
11
-78.1423931344833
21
1.83228561836547
31
0.000000000000000
  0
LINE
  5
F10326
330
F10327
100
AcDbEntity
8
Geo
100
AcDbLine
10
-78.1423931344833
20
1.83228561836547
30
0.000000000000000
11
-78.0423931344833
21
1.70550880975533
31
0.000000000000000
  0
LINE
  5
F10328
330
F10329
100
AcDbEntity
8
Geo
100
AcDbLine
10
-78.0423931344833
20
1.70550880975533
30
0.000000000000000
11
-77.9423931344833
21
1.58187605611181
31
0.000000000000000
  0
LINE
  5
F1032A
330
F1032B
100
AcDbEntity
8
Geo
100
AcDbLine
10
-77.9423931344833
20
1.58187605611181
30
0.000000000000000
11
-77.8423931344833
21
1.46154870716266
31
0.000000000000000
  0
LINE
  5
F1032C
330
F1032D
100
AcDbEntity
8
Geo
100
AcDbLine
10
-77.8423931344833
20
1.46154870716266
30
0.000000000000000
11
-77.7423931344833
21
1.34467069530537
31
0.000000000000000
  0
LINE
  5
F1032E
330
F1032F
100
AcDbEntity
8
Geo
100
AcDbLine
10
-77.7423931344833
20
1.34467069530537
30
0.000000000000000
11
-77.6423931344833
21
1.23136960909331
31
0.000000000000000
  0
LINE
  5
F10330
330
F10331
100
AcDbEntity
8
Geo
100
AcDbLine
10
-77.6423931344833
20
1.23136960909331
30
0.000000000000000
11
-77.5423931344833
21
1.12175776510057
31
0.000000000000000
  0
LINE
  5
F10332
330
F10333
100
AcDbEntity
8
Geo
100
AcDbLine
10
-77.5423931344833
20
1.12175776510057
30
0.000000000000000
11
-77.4423931344833
21
1.01593327193143
31
0.000000000000000
  0
LINE
  5
F10334
330
F10335
100
AcDbEntity
8
Geo
100
AcDbLine
10
-77.4423931344833
20
1.01593327193143
30
0.000000000000000
11
-77.3423931344833
21
0.913981080791055
31
0.000000000000000
  0
LINE
  5
F10336
330
F10337
100
AcDbEntity
8
Geo
100
AcDbLine
10
-77.3423931344833
20
0.913981080791055
30
0.000000000000000
11
-77.2423931344833
21
0.815974017648954
31
0.000000000000000
  0
LINE
  5
F10338
330
F10339
100
AcDbEntity
8
Geo
100
AcDbLine
10
-77.2423931344833
20
0.815974017648954
30
0.000000000000000
11
-77.1423931344833
21
0.721973792604069
31
0.000000000000000
  0
LINE
  5
F1033A
330
F1033B
100
AcDbEntity
8
Geo
100
AcDbLine
10
-77.1423931344833
20
0.721973792604069
30
0.000000000000000
11
-77.0423931344833
21
0.632031982600386
31
0.000000000000000
  0
LINE
  5
F1033C
330
F1033D
100
AcDbEntity
8
Geo
100
AcDbLine
10
-77.0423931344833
20
0.632031982600386
30
0.000000000000000
11
-76.9423931344833
21
0.546190984142565
31
0.000000000000000
  0
LINE
  5
F1033E
330
F1033F
100
AcDbEntity
8
Geo
100
AcDbLine
10
-76.9423931344833
20
0.546190984142565
30
0.000000000000000
11
-76.8423931344833
21
0.464484933123670
31
0.000000000000000
  0
LINE
  5
F10340
330
F10341
100
AcDbEntity
8
Geo
100
AcDbLine
10
-76.8423931344833
20
0.464484933123670
30
0.000000000000000
11
-76.7423931344833
21
0.386940589300938
31
0.000000000000000
  0
LINE
  5
F10342
330
F10343
100
AcDbEntity
8
Geo
100
AcDbLine
10
-76.7423931344833
20
0.386940589300938
30
0.000000000000000
11
-76.6423931344833
21
0.313578183341836
31
0.000000000000000
  0
LINE
  5
F10344
330
F10345
100
AcDbEntity
8
Geo
100
AcDbLine
10
-76.6423931344833
20
0.313578183341836
30
0.000000000000000
11
-76.5423931344833
21
0.244412224711909
31
0.000000000000000
  0
LINE
  5
F10346
330
F10347
100
AcDbEntity
8
Geo
100
AcDbLine
10
-76.5423931344833
20
0.244412224711909
30
0.000000000000000
11
-76.4423931344833
21
0.179452268989541
31
0.000000000000000
  0
LINE
  5
F10348
330
F10349
100
AcDbEntity
8
Geo
100
AcDbLine
10
-76.4423931344833
20
0.179452268989541
30
0.000000000000000
11
-76.3423931344833
21
0.118703643471628
31
0.000000000000000
  0
LINE
  5
F1034A
330
F1034B
100
AcDbEntity
8
Geo
100
AcDbLine
10
-76.3423931344833
20
0.118703643471628
30
0.000000000000000
11
-76.2423931344833
21
0.0621681301801988
31
0.000000000000000
  0
LINE
  5
F1034C
330
F1034D
100
AcDbEntity
8
Geo
100
AcDbLine
10
-76.2423931344833
20
0.0621681301801988
30
0.000000000000000
11
-76.1423931344833
21
0.00984460559434996
31
0.000000000000000
  0
LINE
  5
F1034E
330
F1034F
100
AcDbEntity
8
Geo
100
AcDbLine
10
-76.1423931344833
20
0.00984460559434996
30
0.000000000000000
11
-76.0423931344833
21
-0.0382703633834829
31
0.000000000000000
  0
LINE
  5
F10350
330
F10351
100
AcDbEntity
8
Geo
100
AcDbLine
10
-76.0423931344833
20
-0.0382703633834829
30
0.000000000000000
11
-75.9423931344833
21
-0.0821819675613558
31
0.000000000000000
  0
LINE
  5
F10352
330
F10353
100
AcDbEntity
8
Geo
100
AcDbLine
10
-75.9423931344833
20
-0.0821819675613558
30
0.000000000000000
11
-75.8423931344833
21
-0.121896647895836
31
0.000000000000000
  0
LINE
  5
F10354
330
F10355
100
AcDbEntity
8
Geo
100
AcDbLine
10
-75.8423931344833
20
-0.121896647895836
30
0.000000000000000
11
-75.7423931344833
21
-0.157421632332258
31
0.000000000000000
  0
LINE
  5
F10356
330
F10357
100
AcDbEntity
8
Geo
100
AcDbLine
10
-75.7423931344833
20
-0.157421632332258
30
0.000000000000000
11
-75.6423931344833
21
-0.188764517061669
31
0.000000000000000
  0
LINE
  5
F10358
330
F10359
100
AcDbEntity
8
Geo
100
AcDbLine
10
-75.6423931344833
20
-0.188764517061669
30
0.000000000000000
11
-75.5423931344833
21
-0.215932892145752
31
0.000000000000000
  0
LINE
  5
F1035A
330
F1035B
100
AcDbEntity
8
Geo
100
AcDbLine
10
-75.5423931344833
20
-0.215932892145752
30
0.000000000000000
11
-75.4423931344833
21
-0.238934011416353
31
0.000000000000000
  0
LINE
  5
F1035C
330
F1035D
100
AcDbEntity
8
Geo
100
AcDbLine
10
-75.4423931344833
20
-0.238934011416353
30
0.000000000000000
11
-75.3423931344833
21
-0.257774506528194
31
0.000000000000000
  0
LINE
  5
F1035E
330
F1035F
100
AcDbEntity
8
Geo
100
AcDbLine
10
-75.3423931344833
20
-0.257774506528194
30
0.000000000000000
11
-75.2423931344833
21
-0.272460145029830
31
0.000000000000000
  0
LINE
  5
F10360
330
F10361
100
AcDbEntity
8
Geo
100
AcDbLine
10
-75.2423931344833
20
-0.272460145029830
30
0.000000000000000
11
-75.1423931344833
21
-0.282995632317034
31
0.000000000000000
  0
LINE
  5
F10362
330
F10363
100
AcDbEntity
8
Geo
100
AcDbLine
10
-97.1423931344833
20
0.387250847682124
30
0.000000000000000
11
-97.0423931344833
21
0.202544375961512
31
0.000000000000000
  0
LINE
  5
F10364
330
F10365
100
AcDbEntity
8
Geo
100
AcDbLine
10
-97.0423931344833
20
0.202544375961512
30
0.000000000000000
11
-96.9423931344833
21
0.0104211068022144
31
0.000000000000000
  0
LINE
  5
F10366
330
F10367
100
AcDbEntity
8
Geo
100
AcDbLine
10
-96.9423931344833
20
0.0104211068022144
30
0.000000000000000
11
-96.8423931344833
21
-0.184007979248068
31
0.000000000000000
  0
LINE
  5
F10368
330
F10369
100
AcDbEntity
8
Geo
100
AcDbLine
10
-96.8423931344833
20
-0.184007979248068
30
0.000000000000000
11
-96.7423931344833
21
-0.377962751571127
31
0.000000000000000
  0
LINE
  5
F1036A
330
F1036B
100
AcDbEntity
8
Geo
100
AcDbLine
10
-96.7423931344833
20
-0.377962751571127
30
0.000000000000000
11
-96.6423931344833
21
-0.569070773350301
31
0.000000000000000
  0
LINE
  5
F1036C
330
F1036D
100
AcDbEntity
8
Geo
100
AcDbLine
10
-96.6423931344833
20
-0.569070773350301
30
0.000000000000000
11
-96.5423931344833
21
-0.757213021860279
31
0.000000000000000
  0
LINE
  5
F1036E
330
F1036F
100
AcDbEntity
8
Geo
100
AcDbLine
10
-96.5423931344833
20
-0.757213021860279
30
0.000000000000000
11
-96.4423931344833
21
-0.943659977652207
31
0.000000000000000
  0
LINE
  5
F10370
330
F10371
100
AcDbEntity
8
Geo
100
AcDbLine
10
-96.4423931344833
20
-0.943659977652207
30
0.000000000000000
11
-96.3423931344833
21
-1.12813545711307
31
0.000000000000000
  0
LINE
  5
F10372
330
F10373
100
AcDbEntity
8
Geo
100
AcDbLine
10
-96.3423931344833
20
-1.12813545711307
30
0.000000000000000
11
-96.2423931344833
21
-1.31036619697496
31
0.000000000000000
  0
LINE
  5
F10374
330
F10375
100
AcDbEntity
8
Geo
100
AcDbLine
10
-96.2423931344833
20
-1.31036619697496
30
0.000000000000000
11
-96.1423931344833
21
-1.49008225909958
31
0.000000000000000
  0
LINE
  5
F10376
330
F10377
100
AcDbEntity
8
Geo
100
AcDbLine
10
-96.1423931344833
20
-1.49008225909958
30
0.000000000000000
11
-96.0423931344833
21
-1.66701743033723
31
0.000000000000000
  0
LINE
  5
F10378
330
F10379
100
AcDbEntity
8
Geo
100
AcDbLine
10
-96.0423931344833
20
-1.66701743033723
30
0.000000000000000
11
-95.9423931344833
21
-1.84090961686796
31
0.000000000000000
  0
LINE
  5
F1037A
330
F1037B
100
AcDbEntity
8
Geo
100
AcDbLine
10
-95.9423931344833
20
-1.84090961686796
30
0.000000000000000
11
-95.8423931344833
21
-2.01150123244076
31
0.000000000000000
  0
LINE
  5
F1037C
330
F1037D
100
AcDbEntity
8
Geo
100
AcDbLine
10
-95.8423931344833
20
-2.01150123244076
30
0.000000000000000
11
-95.7423931344833
21
-2.17853957993577
31
0.000000000000000
  0
LINE
  5
F1037E
330
F1037F
100
AcDbEntity
8
Geo
100
AcDbLine
10
-95.7423931344833
20
-2.17853957993577
30
0.000000000000000
11
-95.6423931344833
21
-2.34177722568409
31
0.000000000000000
  0
LINE
  5
F10380
330
F10381
100
AcDbEntity
8
Geo
100
AcDbLine
10
-95.6423931344833
20
-2.34177722568409
30
0.000000000000000
11
-95.5423931344833
21
-2.50097236599099
31
0.000000000000000
  0
LINE
  5
F10382
330
F10383
100
AcDbEntity
8
Geo
100
AcDbLine
10
-95.5423931344833
20
-2.50097236599099
30
0.000000000000000
11
-95.4423931344833
21
-2.65588918531936
31
0.000000000000000
  0
LINE
  5
F10384
330
F10385
100
AcDbEntity
8
Geo
100
AcDbLine
10
-95.4423931344833
20
-2.65588918531936
30
0.000000000000000
11
-95.3423931344833
21
-2.80629820560291
31
0.000000000000000
  0
LINE
  5
F10386
330
F10387
100
AcDbEntity
8
Geo
100
AcDbLine
10
-95.3423931344833
20
-2.80629820560291
30
0.000000000000000
11
-95.2423931344833
21
-2.95197662617173
31
0.000000000000000
  0
LINE
  5
F10388
330
F10389
100
AcDbEntity
8
Geo
100
AcDbLine
10
-95.2423931344833
20
-2.95197662617173
30
0.000000000000000
11
-95.1423931344833
21
-3.09270865378661
31
0.000000000000000
  0
LINE
  5
F1038A
330
F1038B
100
AcDbEntity
8
Geo
100
AcDbLine
10
-95.1423931344833
20
-3.09270865378661
30
0.000000000000000
11
-95.0423931344833
21
-3.22828582229327
31
0.000000000000000
  0
LINE
  5
F1038C
330
F1038D
100
AcDbEntity
8
Geo
100
AcDbLine
10
-95.0423931344833
20
-3.22828582229327
30
0.000000000000000
11
-94.9423931344833
21
-3.35850730142294
31
0.000000000000000
  0
LINE
  5
F1038E
330
F1038F
100
AcDbEntity
8
Geo
100
AcDbLine
10
-94.9423931344833
20
-3.35850730142294
30
0.000000000000000
11
-94.8423931344833
21
-3.48318019428200
31
0.000000000000000
  0
LINE
  5
F10390
330
F10391
100
AcDbEntity
8
Geo
100
AcDbLine
10
-94.8423931344833
20
-3.48318019428200
30
0.000000000000000
11
-94.7423931344833
21
-3.60211982308985
31
0.000000000000000
  0
LINE
  5
F10392
330
F10393
100
AcDbEntity
8
Geo
100
AcDbLine
10
-94.7423931344833
20
-3.60211982308985
30
0.000000000000000
11
-94.6423931344833
21
-3.71515000274185
31
0.000000000000000
  0
LINE
  5
F10394
330
F10395
100
AcDbEntity
8
Geo
100
AcDbLine
10
-94.6423931344833
20
-3.71515000274185
30
0.000000000000000
11
-94.5423931344833
21
-3.82210330179209
31
0.000000000000000
  0
LINE
  5
F10396
330
F10397
100
AcDbEntity
8
Geo
100
AcDbLine
10
-94.5423931344833
20
-3.82210330179209
30
0.000000000000000
11
-94.4423931344833
21
-3.92282129046931
31
0.000000000000000
  0
LINE
  5
F10398
330
F10399
100
AcDbEntity
8
Geo
100
AcDbLine
10
-94.4423931344833
20
-3.92282129046931
30
0.000000000000000
11
-94.3423931344833
21
-4.01715477535874
31
0.000000000000000
  0
LINE
  5
F1039A
330
F1039B
100
AcDbEntity
8
Geo
100
AcDbLine
10
-94.3423931344833
20
-4.01715477535874
30
0.000000000000000
11
-94.2423931344833
21
-4.10496402040209
31
0.000000000000000
  0
LINE
  5
F1039C
330
F1039D
100
AcDbEntity
8
Geo
100
AcDbLine
10
-94.2423931344833
20
-4.10496402040209
30
0.000000000000000
11
-94.1423931344833
21
-4.18611895388833
31
0.000000000000000
  0
LINE
  5
F1039E
330
F1039F
100
AcDbEntity
8
Geo
100
AcDbLine
10
-94.1423931344833
20
-4.18611895388833
30
0.000000000000000
11
-94.0423931344833
21
-4.26049936112880
31
0.000000000000000
  0
LINE
  5
F103A0
330
F103A1
100
AcDbEntity
8
Geo
100
AcDbLine
10
-94.0423931344833
20
-4.26049936112880
30
0.000000000000000
11
-93.9423931344833
21
-4.32799506253101
31
0.000000000000000
  0
LINE
  5
F103A2
330
F103A3
100
AcDbEntity
8
Geo
100
AcDbLine
10
-93.9423931344833
20
-4.32799506253101
30
0.000000000000000
11
-93.8423931344833
21
-4.38850607680754
31
0.000000000000000
  0
LINE
  5
F103A4
330
F103A5
100
AcDbEntity
8
Geo
100
AcDbLine
10
-93.8423931344833
20
-4.38850607680754
30
0.000000000000000
11
-93.7423931344833
21
-4.44194276907817
31
0.000000000000000
  0
LINE
  5
F103A6
330
F103A7
100
AcDbEntity
8
Geo
100
AcDbLine
10
-93.7423931344833
20
-4.44194276907817
30
0.000000000000000
11
-93.6423931344833
21
-4.48822598364590
31
0.000000000000000
  0
LINE
  5
F103A8
330
F103A9
100
AcDbEntity
8
Geo
100
AcDbLine
10
-93.6423931344833
20
-4.48822598364590
30
0.000000000000000
11
-93.5423931344833
21
-4.52728716125017
31
0.000000000000000
  0
LINE
  5
F103AA
330
F103AB
100
AcDbEntity
8
Geo
100
AcDbLine
10
-93.5423931344833
20
-4.52728716125017
30
0.000000000000000
11
-93.4423931344833
21
-4.55906844062362
31
0.000000000000000
  0
LINE
  5
F103AC
330
F103AD
100
AcDbEntity
8
Geo
100
AcDbLine
10
-93.4423931344833
20
-4.55906844062362
30
0.000000000000000
11
-93.3423931344833
21
-4.58352274420187
31
0.000000000000000
  0
LINE
  5
F103AE
330
F103AF
100
AcDbEntity
8
Geo
100
AcDbLine
10
-93.3423931344833
20
-4.58352274420187
30
0.000000000000000
11
-93.2423931344833
21
-4.60061384785948
31
0.000000000000000
  0
LINE
  5
F103B0
330
F103B1
100
AcDbEntity
8
Geo
100
AcDbLine
10
-93.2423931344833
20
-4.60061384785948
30
0.000000000000000
11
-93.1423931344833
21
-4.61031643456866
31
0.000000000000000
  0
LINE
  5
F103B2
330
F103B3
100
AcDbEntity
8
Geo
100
AcDbLine
10
-84.9423931344834
20
5.38656139976106
30
0.000000000000000
11
-84.8423931344834
21
5.38605370640019
31
0.000000000000000
  0
LINE
  5
F103B4
330
F103B5
100
AcDbEntity
8
Geo
100
AcDbLine
10
-84.8423931344834
20
5.38605370640019
30
0.000000000000000
11
-84.7423931344834
21
5.37814129340519
31
0.000000000000000
  0
LINE
  5
F103B6
330
F103B7
100
AcDbEntity
8
Geo
100
AcDbLine
10
-84.7423931344834
20
5.37814129340519
30
0.000000000000000
11
-84.6423931344834
21
5.36283588142228
31
0.000000000000000
  0
LINE
  5
F103B8
330
F103B9
100
AcDbEntity
8
Geo
100
AcDbLine
10
-84.6423931344834
20
5.36283588142228
30
0.000000000000000
11
-84.5423931344834
21
5.34016014233669
31
0.000000000000000
  0
LINE
  5
F103BA
330
F103BB
100
AcDbEntity
8
Geo
100
AcDbLine
10
-84.5423931344834
20
5.34016014233669
30
0.000000000000000
11
-84.4423931344834
21
5.31014766568877
31
0.000000000000000
  0
LINE
  5
F103BC
330
F103BD
100
AcDbEntity
8
Geo
100
AcDbLine
10
-84.4423931344834
20
5.31014766568877
30
0.000000000000000
11
-84.3423931344834
21
5.27284290891793
31
0.000000000000000
  0
LINE
  5
F103BE
330
F103BF
100
AcDbEntity
8
Geo
100
AcDbLine
10
-84.3423931344834
20
5.27284290891793
30
0.000000000000000
11
-84.2423931344834
21
5.22830113150781
31
0.000000000000000
  0
LINE
  5
F103C0
330
F103C1
100
AcDbEntity
8
Geo
100
AcDbLine
10
-84.2423931344834
20
5.22830113150781
30
0.000000000000000
11
-84.1423931344834
21
5.17658831313056
31
0.000000000000000
  0
LINE
  5
F103C2
330
F103C3
100
AcDbEntity
8
Geo
100
AcDbLine
10
-84.1423931344834
20
5.17658831313056
30
0.000000000000000
11
-84.0423931344834
21
5.11778105591122
31
0.000000000000000
  0
LINE
  5
F103C4
330
F103C5
100
AcDbEntity
8
Geo
100
AcDbLine
10
-84.0423931344834
20
5.11778105591122
30
0.000000000000000
11
-83.9423931344834
21
5.05196647095708
31
0.000000000000000
  0
LINE
  5
F103C6
330
F103C7
100
AcDbEntity
8
Geo
100
AcDbLine
10
-83.9423931344834
20
5.05196647095708
30
0.000000000000000
11
-83.8423931344834
21
4.97924204932012
31
0.000000000000000
  0
LINE
  5
F103C8
330
F103C9
100
AcDbEntity
8
Geo
100
AcDbLine
10
-83.8423931344834
20
4.97924204932012
30
0.000000000000000
11
-83.7423931344834
21
4.89971551758370
31
0.000000000000000
  0
LINE
  5
F103CA
330
F103CB
100
AcDbEntity
8
Geo
100
AcDbLine
10
-83.7423931344834
20
4.89971551758370
30
0.000000000000000
11
-83.6423931344834
21
4.81350467828727
31
0.000000000000000
  0
LINE
  5
F103CC
330
F103CD
100
AcDbEntity
8
Geo
100
AcDbLine
10
-83.6423931344834
20
4.81350467828727
30
0.000000000000000
11
-83.5423931344834
21
4.72073723542565
31
0.000000000000000
  0
LINE
  5
F103CE
330
F103CF
100
AcDbEntity
8
Geo
100
AcDbLine
10
-83.5423931344834
20
4.72073723542565
30
0.000000000000000
11
-83.4423931344834
21
4.62155060528131
31
0.000000000000000
  0
LINE
  5
F103D0
330
F103D1
100
AcDbEntity
8
Geo
100
AcDbLine
10
-83.4423931344834
20
4.62155060528131
30
0.000000000000000
11
-83.3423931344834
21
4.51609171286976
31
0.000000000000000
  0
LINE
  5
F103D2
330
F103D3
100
AcDbEntity
8
Geo
100
AcDbLine
10
-83.3423931344834
20
4.51609171286976
30
0.000000000000000
11
-83.2423931344834
21
4.40451677429982
31
0.000000000000000
  0
LINE
  5
F103D4
330
F103D5
100
AcDbEntity
8
Geo
100
AcDbLine
10
-83.2423931344834
20
4.40451677429982
30
0.000000000000000
11
-83.1423931344834
21
4.28699106537084
31
0.000000000000000
  0
LINE
  5
F103D6
330
F103D7
100
AcDbEntity
8
Geo
100
AcDbLine
10
-83.1423931344834
20
4.28699106537084
30
0.000000000000000
11
-83.0423931344834
21
4.16368867674993
31
0.000000000000000
  0
LINE
  5
F103D8
330
F103D9
100
AcDbEntity
8
Geo
100
AcDbLine
10
-83.0423931344834
20
4.16368867674993
30
0.000000000000000
11
-82.9423931344834
21
4.03479225609169
31
0.000000000000000
  0
LINE
  5
F103DA
330
F103DB
100
AcDbEntity
8
Geo
100
AcDbLine
10
-82.9423931344834
20
4.03479225609169
30
0.000000000000000
11
-82.8423931344834
21
3.90049273748249
31
0.000000000000000
  0
LINE
  5
F103DC
330
F103DD
100
AcDbEntity
8
Geo
100
AcDbLine
10
-82.8423931344834
20
3.90049273748249
30
0.000000000000000
11
-82.7423931344834
21
3.76098905861011
31
0.000000000000000
  0
LINE
  5
F103DE
330
F103DF
100
AcDbEntity
8
Geo
100
AcDbLine
10
-82.7423931344834
20
3.76098905861011
30
0.000000000000000
11
-82.6423931344834
21
3.61648786607757
31
0.000000000000000
  0
LINE
  5
F103E0
330
F103E1
100
AcDbEntity
8
Geo
100
AcDbLine
10
-82.6423931344834
20
3.61648786607757
30
0.000000000000000
11
-82.5423931344834
21
3.46720320929785
31
0.000000000000000
  0
LINE
  5
F103E2
330
F103E3
100
AcDbEntity
8
Geo
100
AcDbLine
10
-82.5423931344834
20
3.46720320929785
30
0.000000000000000
11
-82.4423931344834
21
3.31335622342278
31
0.000000000000000
  0
LINE
  5
F103E4
330
F103E5
100
AcDbEntity
8
Geo
100
AcDbLine
10
-82.4423931344834
20
3.31335622342278
30
0.000000000000000
11
-82.3423931344834
21
3.15517480177586
31
0.000000000000000
  0
LINE
  5
F103E6
330
F103E7
100
AcDbEntity
8
Geo
100
AcDbLine
10
-82.3423931344834
20
3.15517480177586
30
0.000000000000000
11
-82.2423931344834
21
2.99289325827418
31
0.000000000000000
  0
LINE
  5
F103E8
330
F103E9
100
AcDbEntity
8
Geo
100
AcDbLine
10
-82.2423931344834
20
2.99289325827418
30
0.000000000000000
11
-82.1423931344834
21
2.82675198033957
31
0.000000000000000
  0
LINE
  5
F103EA
330
F103EB
100
AcDbEntity
8
Geo
100
AcDbLine
10
-82.1423931344834
20
2.82675198033957
30
0.000000000000000
11
-82.0423931344834
21
2.65699707281303
31
0.000000000000000
  0
LINE
  5
F103EC
330
F103ED
100
AcDbEntity
8
Geo
100
AcDbLine
10
-82.0423931344834
20
2.65699707281303
30
0.000000000000000
11
-81.9423931344834
21
2.48387999340000
31
0.000000000000000
  0
LINE
  5
F103EE
330
F103EF
100
AcDbEntity
8
Geo
100
AcDbLine
10
-81.9423931344834
20
2.48387999340000
30
0.000000000000000
11
-81.8423931344834
21
2.30765718018638
31
0.000000000000000
  0
LINE
  5
F103F0
330
F103F1
100
AcDbEntity
8
Geo
100
AcDbLine
10
-81.8423931344834
20
2.30765718018638
30
0.000000000000000
11
-81.7423931344834
21
2.12858967177718
31
0.000000000000000
  0
LINE
  5
F103F2
330
F103F3
100
AcDbEntity
8
Geo
100
AcDbLine
10
-81.7423931344834
20
2.12858967177718
30
0.000000000000000
11
-81.6423931344834
21
1.94694272062042
31
0.000000000000000
  0
LINE
  5
F103F4
330
F103F5
100
AcDbEntity
8
Geo
100
AcDbLine
10
-81.6423931344834
20
1.94694272062042
30
0.000000000000000
11
-81.5423931344834
21
1.76298540008901
31
0.000000000000000
  0
LINE
  5
F103F6
330
F103F7
100
AcDbEntity
8
Geo
100
AcDbLine
10
-81.5423931344834
20
1.76298540008901
30
0.000000000000000
11
-81.4423931344834
21
1.57699020590274
31
0.000000000000000
  0
LINE
  5
F103F8
330
F103F9
100
AcDbEntity
8
Geo
100
AcDbLine
10
-81.4423931344834
20
1.57699020590274
30
0.000000000000000
11
-81.3423931344834
21
1.38923265248081
31
0.000000000000000
  0
LINE
  5
F103FA
330
F103FB
100
AcDbEntity
8
Geo
100
AcDbLine
10
-81.3423931344834
20
1.38923265248081
30
0.000000000000000
11
-81.2423931344834
21
1.19999086482266
31
0.000000000000000
  0
LINE
  5
F103FC
330
F103FD
100
AcDbEntity
8
Geo
100
AcDbLine
10
-81.2423931344834
20
1.19999086482266
30
0.000000000000000
11
-81.1423931344834
21
1.00954516652181
31
0.000000000000000
  0
LINE
  5
F103FE
330
F103FF
100
AcDbEntity
8
Geo
100
AcDbLine
10
-81.1423931344834
20
1.00954516652181
30
0.000000000000000
11
-81.0423931344834
21
0.818177664522926
31
0.000000000000000
  0
LINE
  5
F10400
330
F10401
100
AcDbEntity
8
Geo
100
AcDbLine
10
-81.0423931344834
20
0.818177664522926
30
0.000000000000000
11
-80.9423931344834
21
0.626171831237183
31
0.000000000000000
  0
LINE
  5
F10402
330
F10403
100
AcDbEntity
8
Geo
100
AcDbLine
10
-80.9423931344834
20
0.626171831237183
30
0.000000000000000
11
-80.8423931344834
21
0.433812084635005
31
0.000000000000000
  0
LINE
  5
F10404
330
F10405
100
AcDbEntity
8
Geo
100
AcDbLine
10
-80.8423931344834
20
0.433812084635005
30
0.000000000000000
11
-80.7423931344834
21
0.241383366938106
31
0.000000000000000
  0
LINE
  5
F10406
330
F10407
100
AcDbEntity
8
Geo
100
AcDbLine
10
-80.7423931344834
20
0.241383366938106
30
0.000000000000000
11
-80.6423931344834
21
0.0491707225349891
31
0.000000000000000
  0
LINE
  5
F10408
330
F10409
100
AcDbEntity
8
Geo
100
AcDbLine
10
-80.6423931344834
20
0.0491707225349891
30
0.000000000000000
11
-80.5423931344834
21
-0.142541124254912
31
0.000000000000000
  0
LINE
  5
F1040A
330
F1040B
100
AcDbEntity
8
Geo
100
AcDbLine
10
-80.5423931344834
20
-0.142541124254912
30
0.000000000000000
11
-80.4423931344834
21
-0.333468190942959
31
0.000000000000000
  0
LINE
  5
F1040C
330
F1040D
100
AcDbEntity
8
Geo
100
AcDbLine
10
-80.4423931344834
20
-0.333468190942959
30
0.000000000000000
11
-80.3423931344834
21
-0.523327657534177
31
0.000000000000000
  0
LINE
  5
F1040E
330
F1040F
100
AcDbEntity
8
Geo
100
AcDbLine
10
-80.3423931344834
20
-0.523327657534177
30
0.000000000000000
11
-80.2423931344834
21
-0.711838285468105
31
0.000000000000000
  0
LINE
  5
F10410
330
F10411
100
AcDbEntity
8
Geo
100
AcDbLine
10
-80.2423931344834
20
-0.711838285468105
30
0.000000000000000
11
-80.1423931344833
21
-0.898720834217153
31
0.000000000000000
  0
LINE
  5
F10412
330
F10413
100
AcDbEntity
8
Geo
100
AcDbLine
10
-80.1423931344833
20
-0.898720834217153
30
0.000000000000000
11
-80.0423931344833
21
-0.875560269192909
31
0.000000000000000
  0
LINE
  5
F10414
330
F10415
100
AcDbEntity
8
Geo
100
AcDbLine
10
-80.0423931344833
20
-0.875560269192909
30
0.000000000000000
11
-79.9423931344833
21
-0.852820917313440
31
0.000000000000000
  0
LINE
  5
F10416
330
F10417
100
AcDbEntity
8
Geo
100
AcDbLine
10
-79.9423931344833
20
-0.852820917313440
30
0.000000000000000
11
-79.8423931344833
21
-0.830504919678995
31
0.000000000000000
  0
LINE
  5
F10418
330
F10419
100
AcDbEntity
8
Geo
100
AcDbLine
10
-79.8423931344833
20
-0.830504919678995
30
0.000000000000000
11
-79.7423931344833
21
-0.808614327399414
31
0.000000000000000
  0
LINE
  5
F1041A
330
F1041B
100
AcDbEntity
8
Geo
100
AcDbLine
10
-79.7423931344833
20
-0.808614327399414
30
0.000000000000000
11
-79.6423931344833
21
-0.787151104363924
31
0.000000000000000
  0
LINE
  5
F1041C
330
F1041D
100
AcDbEntity
8
Geo
100
AcDbLine
10
-79.6423931344833
20
-0.787151104363924
30
0.000000000000000
11
-79.5423931344833
21
-0.766117129965284
31
0.000000000000000
  0
LINE
  5
F1041E
330
F1041F
100
AcDbEntity
8
Geo
100
AcDbLine
10
-79.5423931344833
20
-0.766117129965284
30
0.000000000000000
11
-79.4423931344833
21
-0.745514201777425
31
0.000000000000000
  0
LINE
  5
F10420
330
F10421
100
AcDbEntity
8
Geo
100
AcDbLine
10
-79.4423931344833
20
-0.745514201777425
30
0.000000000000000
11
-79.3423931344833
21
-0.725344038185763
31
0.000000000000000
  0
LINE
  5
F10422
330
F10423
100
AcDbEntity
8
Geo
100
AcDbLine
10
-79.3423931344833
20
-0.725344038185763
30
0.000000000000000
11
-79.2423931344833
21
-0.705608280969416
31
0.000000000000000
  0
LINE
  5
F10424
330
F10425
100
AcDbEntity
8
Geo
100
AcDbLine
10
-79.2423931344833
20
-0.705608280969416
30
0.000000000000000
11
-79.1423931344833
21
-0.686308497834574
31
0.000000000000000
  0
LINE
  5
F10426
330
F10427
100
AcDbEntity
8
Geo
100
AcDbLine
10
-79.1423931344833
20
-0.686308497834574
30
0.000000000000000
11
-79.0423931344833
21
-0.667446184898327
31
0.000000000000000
  0
LINE
  5
F10428
330
F10429
100
AcDbEntity
8
Geo
100
AcDbLine
10
-79.0423931344833
20
-0.667446184898327
30
0.000000000000000
11
-78.9423931344833
21
-0.649022769122277
31
0.000000000000000
  0
LINE
  5
F1042A
330
F1042B
100
AcDbEntity
8
Geo
100
AcDbLine
10
-78.9423931344833
20
-0.649022769122277
30
0.000000000000000
11
-78.8423931344833
21
-0.631039610695309
31
0.000000000000000
  0
LINE
  5
F1042C
330
F1042D
100
AcDbEntity
8
Geo
100
AcDbLine
10
-78.8423931344833
20
-0.631039610695309
30
0.000000000000000
11
-78.7423931344833
21
-0.613498005364920
31
0.000000000000000
  0
LINE
  5
F1042E
330
F1042F
100
AcDbEntity
8
Geo
100
AcDbLine
10
-78.7423931344833
20
-0.613498005364920
30
0.000000000000000
11
-78.6423931344833
21
-0.596399186716525
31
0.000000000000000
  0
LINE
  5
F10430
330
F10431
100
AcDbEntity
8
Geo
100
AcDbLine
10
-78.6423931344833
20
-0.596399186716525
30
0.000000000000000
11
-78.5423931344833
21
-0.579744328400220
31
0.000000000000000
  0
LINE
  5
F10432
330
F10433
100
AcDbEntity
8
Geo
100
AcDbLine
10
-78.5423931344833
20
-0.579744328400220
30
0.000000000000000
11
-78.4423931344833
21
-0.563534546304489
31
0.000000000000000
  0
LINE
  5
F10434
330
F10435
100
AcDbEntity
8
Geo
100
AcDbLine
10
-78.4423931344833
20
-0.563534546304489
30
0.000000000000000
11
-78.3423931344833
21
-0.547770900676363
31
0.000000000000000
  0
LINE
  5
F10436
330
F10437
100
AcDbEntity
8
Geo
100
AcDbLine
10
-78.3423931344833
20
-0.547770900676363
30
0.000000000000000
11
-78.2423931344833
21
-0.532454398187600
31
0.000000000000000
  0
LINE
  5
F10438
330
F10439
100
AcDbEntity
8
Geo
100
AcDbLine
10
-78.2423931344833
20
-0.532454398187600
30
0.000000000000000
11
-78.1423931344833
21
-0.517585993946432
31
0.000000000000000
  0
LINE
  5
F1043A
330
F1043B
100
AcDbEntity
8
Geo
100
AcDbLine
10
-78.1423931344833
20
-0.517585993946432
30
0.000000000000000
11
-78.0423931344833
21
-0.503166593454506
31
0.000000000000000
  0
LINE
  5
F1043C
330
F1043D
100
AcDbEntity
8
Geo
100
AcDbLine
10
-78.0423931344833
20
-0.503166593454506
30
0.000000000000000
11
-77.9423931344833
21
-0.489197054508618
31
0.000000000000000
  0
LINE
  5
F1043E
330
F1043F
100
AcDbEntity
8
Geo
100
AcDbLine
10
-77.9423931344833
20
-0.489197054508618
30
0.000000000000000
11
-77.8423931344833
21
-0.475678189046892
31
0.000000000000000
  0
LINE
  5
F10440
330
F10441
100
AcDbEntity
8
Geo
100
AcDbLine
10
-77.8423931344833
20
-0.475678189046892
30
0.000000000000000
11
-77.7423931344833
21
-0.462610764939074
31
0.000000000000000
  0
LINE
  5
F10442
330
F10443
100
AcDbEntity
8
Geo
100
AcDbLine
10
-77.7423931344833
20
-0.462610764939074
30
0.000000000000000
11
-77.6423931344833
21
-0.449995507720624
31
0.000000000000000
  0
LINE
  5
F10444
330
F10445
100
AcDbEntity
8
Geo
100
AcDbLine
10
-77.6423931344833
20
-0.449995507720624
30
0.000000000000000
11
-77.5423931344833
21
-0.437833102270302
31
0.000000000000000
  0
LINE
  5
F10446
330
F10447
100
AcDbEntity
8
Geo
100
AcDbLine
10
-77.5423931344833
20
-0.437833102270302
30
0.000000000000000
11
-77.4423931344833
21
-0.426124194431004
31
0.000000000000000
  0
LINE
  5
F10448
330
F10449
100
AcDbEntity
8
Geo
100
AcDbLine
10
-77.4423931344833
20
-0.426124194431004
30
0.000000000000000
11
-77.3423931344833
21
-0.414869392573545
31
0.000000000000000
  0
LINE
  5
F1044A
330
F1044B
100
AcDbEntity
8
Geo
100
AcDbLine
10
-77.3423931344833
20
-0.414869392573545
30
0.000000000000000
11
-77.2423931344833
21
-0.404069269103194
31
0.000000000000000
  0
LINE
  5
F1044C
330
F1044D
100
AcDbEntity
8
Geo
100
AcDbLine
10
-77.2423931344833
20
-0.404069269103194
30
0.000000000000000
11
-77.1423931344833
21
-0.393724361908707
31
0.000000000000000
  0
LINE
  5
F1044E
330
F1044F
100
AcDbEntity
8
Geo
100
AcDbLine
10
-77.1423931344833
20
-0.393724361908707
30
0.000000000000000
11
-77.0423931344833
21
-0.383835175753662
31
0.000000000000000
  0
LINE
  5
F10450
330
F10451
100
AcDbEntity
8
Geo
100
AcDbLine
10
-77.0423931344833
20
-0.383835175753662
30
0.000000000000000
11
-76.9423931344833
21
-0.374402183609900
31
0.000000000000000
  0
LINE
  5
F10452
330
F10453
100
AcDbEntity
8
Geo
100
AcDbLine
10
-76.9423931344833
20
-0.374402183609900
30
0.000000000000000
11
-76.8423931344833
21
-0.365425827932895
31
0.000000000000000
  0
LINE
  5
F10454
330
F10455
100
AcDbEntity
8
Geo
100
AcDbLine
10
-76.8423931344833
20
-0.365425827932895
30
0.000000000000000
11
-76.7423931344833
21
-0.356906521878872
31
0.000000000000000
  0
LINE
  5
F10456
330
F10457
100
AcDbEntity
8
Geo
100
AcDbLine
10
-76.7423931344833
20
-0.356906521878872
30
0.000000000000000
11
-76.6423931344833
21
-0.348844650463541
31
0.000000000000000
  0
LINE
  5
F10458
330
F10459
100
AcDbEntity
8
Geo
100
AcDbLine
10
-76.6423931344833
20
-0.348844650463541
30
0.000000000000000
11
-76.5423931344833
21
-0.341240571662286
31
0.000000000000000
  0
LINE
  5
F1045A
330
F1045B
100
AcDbEntity
8
Geo
100
AcDbLine
10
-76.5423931344833
20
-0.341240571662286
30
0.000000000000000
11
-76.4423931344833
21
-0.334094617451681
31
0.000000000000000
  0
LINE
  5
F1045C
330
F1045D
100
AcDbEntity
8
Geo
100
AcDbLine
10
-76.4423931344833
20
-0.334094617451681
30
0.000000000000000
11
-76.3423931344833
21
-0.327407094792219
31
0.000000000000000
  0
LINE
  5
F1045E
330
F1045F
100
AcDbEntity
8
Geo
100
AcDbLine
10
-76.3423931344833
20
-0.327407094792219
30
0.000000000000000
11
-76.2423931344833
21
-0.321178286552133
31
0.000000000000000
  0
LINE
  5
F10460
330
F10461
100
AcDbEntity
8
Geo
100
AcDbLine
10
-76.2423931344833
20
-0.321178286552133
30
0.000000000000000
11
-76.1423931344833
21
-0.315408452372216
31
0.000000000000000
  0
LINE
  5
F10462
330
F10463
100
AcDbEntity
8
Geo
100
AcDbLine
10
-76.1423931344833
20
-0.315408452372216
30
0.000000000000000
11
-76.0423931344833
21
-0.310097829471534
31
0.000000000000000
  0
LINE
  5
F10464
330
F10465
100
AcDbEntity
8
Geo
100
AcDbLine
10
-76.0423931344833
20
-0.310097829471534
30
0.000000000000000
11
-75.9423931344833
21
-0.305246633393969
31
0.000000000000000
  0
LINE
  5
F10466
330
F10467
100
AcDbEntity
8
Geo
100
AcDbLine
10
-75.9423931344833
20
-0.305246633393969
30
0.000000000000000
11
-75.8423931344833
21
-0.300855058695491
31
0.000000000000000
  0
LINE
  5
F10468
330
F10469
100
AcDbEntity
8
Geo
100
AcDbLine
10
-75.8423931344833
20
-0.300855058695491
30
0.000000000000000
11
-75.7423931344833
21
-0.296923279572104
31
0.000000000000000
  0
LINE
  5
F1046A
330
F1046B
100
AcDbEntity
8
Geo
100
AcDbLine
10
-75.7423931344833
20
-0.296923279572104
30
0.000000000000000
11
-75.6423931344833
21
-0.293451450428407
31
0.000000000000000
  0
LINE
  5
F1046C
330
F1046D
100
AcDbEntity
8
Geo
100
AcDbLine
10
-75.6423931344833
20
-0.293451450428407
30
0.000000000000000
11
-75.5423931344833
21
-0.290439706386707
31
0.000000000000000
  0
LINE
  5
F1046E
330
F1046F
100
AcDbEntity
8
Geo
100
AcDbLine
10
-75.5423931344833
20
-0.290439706386707
30
0.000000000000000
11
-75.4423931344833
21
-0.287888163736630
31
0.000000000000000
  0
LINE
  5
F10470
330
F10471
100
AcDbEntity
8
Geo
100
AcDbLine
10
-75.4423931344833
20
-0.287888163736630
30
0.000000000000000
11
-75.3423931344833
21
-0.285796920325215
31
0.000000000000000
  0
LINE
  5
F10472
330
F10473
100
AcDbEntity
8
Geo
100
AcDbLine
10
-75.3423931344833
20
-0.285796920325215
30
0.000000000000000
11
-75.2423931344833
21
-0.284166055887419
31
0.000000000000000
  0
LINE
  5
F10474
330
F10475
100
AcDbEntity
8
Geo
100
AcDbLine
10
-75.2423931344833
20
-0.284166055887419
30
0.000000000000000
11
-75.1423931344833
21
-0.282995632317034
31
0.000000000000000
  0
LINE
  5
F10476
330
F10477
100
AcDbEntity
8
Geo
100
AcDbLine
10
-97.1423931344833
20
-1.00332562700511
30
0.000000000000000
11
-97.0423931344833
21
-1.27059842739688
31
0.000000000000000
  0
LINE
  5
F10478
330
F10479
100
AcDbEntity
8
Geo
100
AcDbLine
10
-97.0423931344833
20
-1.27059842739688
30
0.000000000000000
11
-96.9423931344833
21
-1.48083455150000
31
0.000000000000000
  0
LINE
  5
F1047A
330
F1047B
100
AcDbEntity
8
Geo
100
AcDbLine
10
-96.9423931344833
20
-1.48083455150000
30
0.000000000000000
11
-96.8423931344833
21
-1.67803120576200
31
0.000000000000000
  0
LINE
  5
F1047C
330
F1047D
100
AcDbEntity
8
Geo
100
AcDbLine
10
-96.8423931344833
20
-1.67803120576200
30
0.000000000000000
11
-96.7423931344833
21
-1.86423474884506
31
0.000000000000000
  0
LINE
  5
F1047E
330
F1047F
100
AcDbEntity
8
Geo
100
AcDbLine
10
-96.7423931344833
20
-1.86423474884506
30
0.000000000000000
11
-96.6423931344833
21
-2.03882555068666
31
0.000000000000000
  0
LINE
  5
F10480
330
F10481
100
AcDbEntity
8
Geo
100
AcDbLine
10
-96.6423931344833
20
-2.03882555068666
30
0.000000000000000
11
-96.5423931344833
21
-2.20526447501154
31
0.000000000000000
  0
LINE
  5
F10482
330
F10483
100
AcDbEntity
8
Geo
100
AcDbLine
10
-96.5423931344833
20
-2.20526447501154
30
0.000000000000000
11
-96.4423931344833
21
-2.36786311004030
31
0.000000000000000
  0
LINE
  5
F10484
330
F10485
100
AcDbEntity
8
Geo
100
AcDbLine
10
-96.4423931344833
20
-2.36786311004030
30
0.000000000000000
11
-96.3423931344833
21
-2.52638059864389
31
0.000000000000000
  0
LINE
  5
F10486
330
F10487
100
AcDbEntity
8
Geo
100
AcDbLine
10
-96.3423931344833
20
-2.52638059864389
30
0.000000000000000
11
-96.2423931344833
21
-2.68058212908970
31
0.000000000000000
  0
LINE
  5
F10488
330
F10489
100
AcDbEntity
8
Geo
100
AcDbLine
10
-96.2423931344833
20
-2.68058212908970
30
0.000000000000000
11
-96.1423931344833
21
-2.83023928286786
31
0.000000000000000
  0
LINE
  5
F1048A
330
F1048B
100
AcDbEntity
8
Geo
100
AcDbLine
10
-96.1423931344833
20
-2.83023928286786
30
0.000000000000000
11
-96.0423931344833
21
-2.97513037304725
31
0.000000000000000
  0
LINE
  5
F1048C
330
F1048D
100
AcDbEntity
8
Geo
100
AcDbLine
10
-96.0423931344833
20
-2.97513037304725
30
0.000000000000000
11
-95.9423931344833
21
-3.11504077266008
31
0.000000000000000
  0
LINE
  5
F1048E
330
F1048F
100
AcDbEntity
8
Geo
100
AcDbLine
10
-95.9423931344833
20
-3.11504077266008
30
0.000000000000000
11
-95.8423931344833
21
-3.24976323262845
31
0.000000000000000
  0
LINE
  5
F10490
330
F10491
100
AcDbEntity
8
Geo
100
AcDbLine
10
-95.8423931344833
20
-3.24976323262845
30
0.000000000000000
11
-95.7423931344833
21
-3.37909818876215
31
0.000000000000000
  0
LINE
  5
F10492
330
F10493
100
AcDbEntity
8
Geo
100
AcDbLine
10
-95.7423931344833
20
-3.37909818876215
30
0.000000000000000
11
-95.6423931344833
21
-3.50285405737283
31
0.000000000000000
  0
LINE
  5
F10494
330
F10495
100
AcDbEntity
8
Geo
100
AcDbLine
10
-95.6423931344833
20
-3.50285405737283
30
0.000000000000000
11
-95.5423931344833
21
-3.62084751906660
31
0.000000000000000
  0
LINE
  5
F10496
330
F10497
100
AcDbEntity
8
Geo
100
AcDbLine
10
-95.5423931344833
20
-3.62084751906660
30
0.000000000000000
11
-95.4423931344833
21
-3.73290379029486
31
0.000000000000000
  0
LINE
  5
F10498
330
F10499
100
AcDbEntity
8
Geo
100
AcDbLine
10
-95.4423931344833
20
-3.73290379029486
30
0.000000000000000
11
-95.3423931344833
21
-3.83885688226085
31
0.000000000000000
  0
LINE
  5
F1049A
330
F1049B
100
AcDbEntity
8
Geo
100
AcDbLine
10
-95.3423931344833
20
-3.83885688226085
30
0.000000000000000
11
-95.2423931344833
21
-3.93854984679867
31
0.000000000000000
  0
LINE
  5
F1049C
330
F1049D
100
AcDbEntity
8
Geo
100
AcDbLine
10
-95.2423931344833
20
-3.93854984679867
30
0.000000000000000
11
-95.1423931344833
21
-4.03183500886037
31
0.000000000000000
  0
LINE
  5
F1049E
330
F1049F
100
AcDbEntity
8
Geo
100
AcDbLine
10
-95.1423931344833
20
-4.03183500886037
30
0.000000000000000
11
-95.0423931344833
21
-4.11857418526677
31
0.000000000000000
  0
LINE
  5
F104A0
330
F104A1
100
AcDbEntity
8
Geo
100
AcDbLine
10
-95.0423931344833
20
-4.11857418526677
30
0.000000000000000
11
-94.9423931344833
21
-4.19863888939803
31
0.000000000000000
  0
LINE
  5
F104A2
330
F104A3
100
AcDbEntity
8
Geo
100
AcDbLine
10
-94.9423931344833
20
-4.19863888939803
30
0.000000000000000
11
-94.8423931344833
21
-4.27191052152067
31
0.000000000000000
  0
LINE
  5
F104A4
330
F104A5
100
AcDbEntity
8
Geo
100
AcDbLine
10
-94.8423931344833
20
-4.27191052152067
30
0.000000000000000
11
-94.7423931344833
21
-4.33828054446924
31
0.000000000000000
  0
LINE
  5
F104A6
330
F104A7
100
AcDbEntity
8
Geo
100
AcDbLine
10
-94.7423931344833
20
-4.33828054446924
30
0.000000000000000
11
-94.6423931344833
21
-4.39765064442222
31
0.000000000000000
  0
LINE
  5
F104A8
330
F104A9
100
AcDbEntity
8
Geo
100
AcDbLine
10
-94.6423931344833
20
-4.39765064442222
30
0.000000000000000
11
-94.5423931344833
21
-4.44993287653417
31
0.000000000000000
  0
LINE
  5
F104AA
330
F104AB
100
AcDbEntity
8
Geo
100
AcDbLine
10
-94.5423931344833
20
-4.44993287653417
30
0.000000000000000
11
-94.4423931344833
21
-4.49504979520830
31
0.000000000000000
  0
LINE
  5
F104AC
330
F104AD
100
AcDbEntity
8
Geo
100
AcDbLine
10
-94.4423931344833
20
-4.49504979520830
30
0.000000000000000
11
-94.3423931344833
21
-4.53293456881652
31
0.000000000000000
  0
LINE
  5
F104AE
330
F104AF
100
AcDbEntity
8
Geo
100
AcDbLine
10
-94.3423931344833
20
-4.53293456881652
30
0.000000000000000
11
-94.2423931344833
21
-4.56353107869703
31
0.000000000000000
  0
LINE
  5
F104B0
330
F104B1
100
AcDbEntity
8
Geo
100
AcDbLine
10
-94.2423931344833
20
-4.56353107869703
30
0.000000000000000
11
-94.1423931344833
21
-4.58679400228286
31
0.000000000000000
  0
LINE
  5
F104B2
330
F104B3
100
AcDbEntity
8
Geo
100
AcDbLine
10
-94.1423931344833
20
-4.58679400228286
30
0.000000000000000
11
-94.0423931344833
21
-4.60268888023806
31
0.000000000000000
  0
LINE
  5
F104B4
330
F104B5
100
AcDbEntity
8
Geo
100
AcDbLine
10
-94.0423931344833
20
-4.60268888023806
30
0.000000000000000
11
-93.9423931344833
21
-4.61119216750229
31
0.000000000000000
  0
LINE
  5
F104B6
330
F104B7
100
AcDbEntity
8
Geo
100
AcDbLine
10
-85.7423931344834
20
5.38698212867837
30
0.000000000000000
11
-85.6423931344834
21
5.38527381173527
31
0.000000000000000
  0
LINE
  5
F104B8
330
F104B9
100
AcDbEntity
8
Geo
100
AcDbLine
10
-85.6423931344834
20
5.38527381173527
30
0.000000000000000
11
-85.5423931344834
21
5.37616193041491
31
0.000000000000000
  0
LINE
  5
F104BA
330
F104BB
100
AcDbEntity
8
Geo
100
AcDbLine
10
-85.5423931344834
20
5.37616193041491
30
0.000000000000000
11
-85.4423931344834
21
5.35965998213426
31
0.000000000000000
  0
LINE
  5
F104BC
330
F104BD
100
AcDbEntity
8
Geo
100
AcDbLine
10
-85.4423931344834
20
5.35965998213426
30
0.000000000000000
11
-85.3423931344834
21
5.33579241120605
31
0.000000000000000
  0
LINE
  5
F104BE
330
F104BF
100
AcDbEntity
8
Geo
100
AcDbLine
10
-85.3423931344834
20
5.33579241120605
30
0.000000000000000
11
-85.2423931344834
21
5.30459457262950
31
0.000000000000000
  0
LINE
  5
F104C0
330
F104C1
100
AcDbEntity
8
Geo
100
AcDbLine
10
-85.2423931344834
20
5.30459457262950
30
0.000000000000000
11
-85.1423931344834
21
5.26611267971895
31
0.000000000000000
  0
LINE
  5
F104C2
330
F104C3
100
AcDbEntity
8
Geo
100
AcDbLine
10
-85.1423931344834
20
5.26611267971895
30
0.000000000000000
11
-85.0423931344834
21
5.22040373564815
31
0.000000000000000
  0
LINE
  5
F104C4
330
F104C5
100
AcDbEntity
8
Geo
100
AcDbLine
10
-85.0423931344834
20
5.22040373564815
30
0.000000000000000
11
-84.9423931344834
21
5.16753544901160
31
0.000000000000000
  0
LINE
  5
F104C6
330
F104C7
100
AcDbEntity
8
Geo
100
AcDbLine
10
-84.9423931344834
20
5.16753544901160
30
0.000000000000000
11
-84.8423931344834
21
5.10758613352782
31
0.000000000000000
  0
LINE
  5
F104C8
330
F104C9
100
AcDbEntity
8
Geo
100
AcDbLine
10
-84.8423931344834
20
5.10758613352782
30
0.000000000000000
11
-84.7423931344834
21
5.04064459203339
31
0.000000000000000
  0
LINE
  5
F104CA
330
F104CB
100
AcDbEntity
8
Geo
100
AcDbLine
10
-84.7423931344834
20
5.04064459203339
30
0.000000000000000
11
-84.6423931344834
21
4.96680998493947
31
0.000000000000000
  0
LINE
  5
F104CC
330
F104CD
100
AcDbEntity
8
Geo
100
AcDbLine
10
-84.6423931344834
20
4.96680998493947
30
0.000000000000000
11
-84.5423931344834
21
4.88619168334554
31
0.000000000000000
  0
LINE
  5
F104CE
330
F104CF
100
AcDbEntity
8
Geo
100
AcDbLine
10
-84.5423931344834
20
4.88619168334554
30
0.000000000000000
11
-84.4423931344834
21
4.79890910702820
31
0.000000000000000
  0
LINE
  5
F104D0
330
F104D1
100
AcDbEntity
8
Geo
100
AcDbLine
10
-84.4423931344834
20
4.79890910702820
30
0.000000000000000
11
-84.3423931344834
21
4.70509154754483
31
0.000000000000000
  0
LINE
  5
F104D2
330
F104D3
100
AcDbEntity
8
Geo
100
AcDbLine
10
-84.3423931344834
20
4.70509154754483
30
0.000000000000000
11
-84.2423931344834
21
4.60487797671415
31
0.000000000000000
  0
LINE
  5
F104D4
330
F104D5
100
AcDbEntity
8
Geo
100
AcDbLine
10
-84.2423931344834
20
4.60487797671415
30
0.000000000000000
11
-84.1423931344834
21
4.49841684075749
31
0.000000000000000
  0
LINE
  5
F104D6
330
F104D7
100
AcDbEntity
8
Geo
100
AcDbLine
10
-84.1423931344834
20
4.49841684075749
30
0.000000000000000
11
-84.0423931344834
21
4.38586584040560
31
0.000000000000000
  0
LINE
  5
F104D8
330
F104D9
100
AcDbEntity
8
Geo
100
AcDbLine
10
-84.0423931344834
20
4.38586584040560
30
0.000000000000000
11
-83.9423931344834
21
4.26739169729677
31
0.000000000000000
  0
LINE
  5
F104DA
330
F104DB
100
AcDbEntity
8
Geo
100
AcDbLine
10
-83.9423931344834
20
4.26739169729677
30
0.000000000000000
11
-83.8423931344834
21
4.14316990701233
31
0.000000000000000
  0
LINE
  5
F104DC
330
F104DD
100
AcDbEntity
8
Geo
100
AcDbLine
10
-83.8423931344834
20
4.14316990701233
30
0.000000000000000
11
-83.7423931344834
21
4.01338447911528
31
0.000000000000000
  0
LINE
  5
F104DE
330
F104DF
100
AcDbEntity
8
Geo
100
AcDbLine
10
-83.7423931344834
20
4.01338447911528
30
0.000000000000000
11
-83.6423931344834
21
3.87822766457717
31
0.000000000000000
  0
LINE
  5
F104E0
330
F104E1
100
AcDbEntity
8
Geo
100
AcDbLine
10
-83.6423931344834
20
3.87822766457717
30
0.000000000000000
11
-83.5423931344834
21
3.73789967099699
31
0.000000000000000
  0
LINE
  5
F104E2
330
F104E3
100
AcDbEntity
8
Geo
100
AcDbLine
10
-83.5423931344834
20
3.73789967099699
30
0.000000000000000
11
-83.4423931344834
21
3.59260836603402
31
0.000000000000000
  0
LINE
  5
F104E4
330
F104E5
100
AcDbEntity
8
Geo
100
AcDbLine
10
-83.4423931344834
20
3.59260836603402
30
0.000000000000000
11
-83.3423931344834
21
3.44256896949365
31
0.000000000000000
  0
LINE
  5
F104E6
330
F104E7
100
AcDbEntity
8
Geo
100
AcDbLine
10
-83.3423931344834
20
3.44256896949365
30
0.000000000000000
11
-83.2423931344834
21
3.28800373452265
31
0.000000000000000
  0
LINE
  5
F104E8
330
F104E9
100
AcDbEntity
8
Geo
100
AcDbLine
10
-83.2423931344834
20
3.28800373452265
30
0.000000000000000
11
-83.1423931344834
21
3.12914161838590
31
0.000000000000000
  0
LINE
  5
F104EA
330
F104EB
100
AcDbEntity
8
Geo
100
AcDbLine
10
-83.1423931344834
20
3.12914161838590
30
0.000000000000000
11
-83.0423931344834
21
2.96621794331228
31
0.000000000000000
  0
LINE
  5
F104EC
330
F104ED
100
AcDbEntity
8
Geo
100
AcDbLine
10
-83.0423931344834
20
2.96621794331228
30
0.000000000000000
11
-82.9423931344834
21
2.79947404791222
31
0.000000000000000
  0
LINE
  5
F104EE
330
F104EF
100
AcDbEntity
8
Geo
100
AcDbLine
10
-82.9423931344834
20
2.79947404791222
30
0.000000000000000
11
-82.8423931344834
21
2.62915692968311
31
0.000000000000000
  0
LINE
  5
F104F0
330
F104F1
100
AcDbEntity
8
Geo
100
AcDbLine
10
-82.8423931344834
20
2.62915692968311
30
0.000000000000000
11
-82.7423931344834
21
2.45551887913231
31
0.000000000000000
  0
LINE
  5
F104F2
330
F104F3
100
AcDbEntity
8
Geo
100
AcDbLine
10
-82.7423931344834
20
2.45551887913231
30
0.000000000000000
11
-82.6423931344834
21
2.27881710605955
31
0.000000000000000
  0
LINE
  5
F104F4
330
F104F5
100
AcDbEntity
8
Geo
100
AcDbLine
10
-82.6423931344834
20
2.27881710605955
30
0.000000000000000
11
-82.5423931344834
21
2.09931335855240
31
0.000000000000000
  0
LINE
  5
F104F6
330
F104F7
100
AcDbEntity
8
Geo
100
AcDbLine
10
-82.5423931344834
20
2.09931335855240
30
0.000000000000000
11
-82.4423931344834
21
1.91727353525923
31
0.000000000000000
  0
LINE
  5
F104F8
330
F104F9
100
AcDbEntity
8
Geo
100
AcDbLine
10
-82.4423931344834
20
1.91727353525923
30
0.000000000000000
11
-82.3423931344834
21
1.73296729151388
31
0.000000000000000
  0
LINE
  5
F104FA
330
F104FB
100
AcDbEntity
8
Geo
100
AcDbLine
10
-82.3423931344834
20
1.73296729151388
30
0.000000000000000
11
-82.2423931344834
21
1.54666763989565
31
0.000000000000000
  0
LINE
  5
F104FC
330
F104FD
100
AcDbEntity
8
Geo
100
AcDbLine
10
-82.2423931344834
20
1.54666763989565
30
0.000000000000000
11
-82.1423931344834
21
1.35865054581607
31
0.000000000000000
  0
LINE
  5
F104FE
330
F104FF
100
AcDbEntity
8
Geo
100
AcDbLine
10
-82.1423931344834
20
1.35865054581607
30
0.000000000000000
11
-82.0423931344834
21
1.16919451873180
31
0.000000000000000
  0
LINE
  5
F10500
330
F10501
100
AcDbEntity
8
Geo
100
AcDbLine
10
-82.0423931344834
20
1.16919451873180
30
0.000000000000000
11
-81.9423931344834
21
0.978580199588915
31
0.000000000000000
  0
LINE
  5
F10502
330
F10503
100
AcDbEntity
8
Geo
100
AcDbLine
10
-81.9423931344834
20
0.978580199588915
30
0.000000000000000
11
-81.8423931344834
21
0.787089945109895
31
0.000000000000000
  0
LINE
  5
F10504
330
F10505
100
AcDbEntity
8
Geo
100
AcDbLine
10
-81.8423931344834
20
0.787089945109895
30
0.000000000000000
11
-81.7423931344834
21
0.595007409539012
31
0.000000000000000
  0
LINE
  5
F10506
330
F10507
100
AcDbEntity
8
Geo
100
AcDbLine
10
-81.7423931344834
20
0.595007409539012
30
0.000000000000000
11
-81.6423931344834
21
0.402617124465661
31
0.000000000000000
  0
LINE
  5
F10508
330
F10509
100
AcDbEntity
8
Geo
100
AcDbLine
10
-81.6423931344834
20
0.402617124465661
30
0.000000000000000
11
-81.5423931344834
21
0.210204077348154
31
0.000000000000000
  0
LINE
  5
F1050A
330
F1050B
100
AcDbEntity
8
Geo
100
AcDbLine
10
-81.5423931344834
20
0.210204077348154
30
0.000000000000000
11
-81.4423931344834
21
0.0180532893621829
31
0.000000000000000
  0
LINE
  5
F1050C
330
F1050D
100
AcDbEntity
8
Geo
100
AcDbLine
10
-81.4423931344834
20
0.0180532893621829
30
0.000000000000000
11
-81.3423931344834
21
-0.173550606800639
31
0.000000000000000
  0
LINE
  5
F1050E
330
F1050F
100
AcDbEntity
8
Geo
100
AcDbLine
10
-81.3423931344834
20
-0.173550606800639
30
0.000000000000000
11
-81.2423931344834
21
-0.364323788558789
31
0.000000000000000
  0
LINE
  5
F10510
330
F10511
100
AcDbEntity
8
Geo
100
AcDbLine
10
-81.2423931344834
20
-0.364323788558789
30
0.000000000000000
11
-81.1423931344834
21
-0.553983663866818
31
0.000000000000000
  0
LINE
  5
F10512
330
F10513
100
AcDbEntity
8
Geo
100
AcDbLine
10
-81.1423931344834
20
-0.553983663866818
30
0.000000000000000
11
-81.0423931344834
21
-0.742249289818558
31
0.000000000000000
  0
LINE
  5
F10514
330
F10515
100
AcDbEntity
8
Geo
100
AcDbLine
10
-81.0423931344834
20
-0.742249289818558
30
0.000000000000000
11
-80.9423931344834
21
-0.928841788807446
31
0.000000000000000
  0
LINE
  5
F10516
330
F10517
100
AcDbEntity
8
Geo
100
AcDbLine
10
-80.9423931344834
20
-0.928841788807446
30
0.000000000000000
11
-80.8423931344834
21
-1.11348476162754
31
0.000000000000000
  0
LINE
  5
F10518
330
F10519
100
AcDbEntity
8
Geo
100
AcDbLine
10
-80.8423931344834
20
-1.11348476162754
30
0.000000000000000
11
-80.7423931344834
21
-1.29590469690325
31
0.000000000000000
  0
LINE
  5
F1051A
330
F1051B
100
AcDbEntity
8
Geo
100
AcDbLine
10
-80.7423931344834
20
-1.29590469690325
30
0.000000000000000
11
-80.6423931344834
21
-1.47583137624138
31
0.000000000000000
  0
LINE
  5
F1051C
330
F1051D
100
AcDbEntity
8
Geo
100
AcDbLine
10
-80.6423931344834
20
-1.47583137624138
30
0.000000000000000
11
-80.5423931344834
21
-1.65299827450524
31
0.000000000000000
  0
LINE
  5
F1051E
330
F1051F
100
AcDbEntity
8
Geo
100
AcDbLine
10
-80.5423931344834
20
-1.65299827450524
30
0.000000000000000
11
-80.4423931344834
21
-1.82714295461797
31
0.000000000000000
  0
LINE
  5
F10520
330
F10521
100
AcDbEntity
8
Geo
100
AcDbLine
10
-80.4423931344834
20
-1.82714295461797
30
0.000000000000000
11
-80.3423931344834
21
-1.99800745631017
31
0.000000000000000
  0
LINE
  5
F10522
330
F10523
100
AcDbEntity
8
Geo
100
AcDbLine
10
-80.3423931344834
20
-1.99800745631017
30
0.000000000000000
11
-80.2423931344834
21
-2.16533867823615
31
0.000000000000000
  0
LINE
  5
F10524
330
F10525
100
AcDbEntity
8
Geo
100
AcDbLine
10
-80.2423931344834
20
-2.16533867823615
30
0.000000000000000
11
-80.1423931344833
21
-2.32888875289259
31
0.000000000000000
  0
LINE
  5
F10526
330
F10527
100
AcDbEntity
8
Geo
100
AcDbLine
10
-80.1423931344833
20
-2.32888875289259
30
0.000000000000000
11
-80.0423931344833
21
-2.50729379244558
31
0.000000000000000
  0
LINE
  5
F10528
330
F10529
100
AcDbEntity
8
Geo
100
AcDbLine
10
-80.0423931344833
20
-2.50729379244558
30
0.000000000000000
11
-79.9423931344833
21
-2.67701569684164
31
0.000000000000000
  0
LINE
  5
F1052A
330
F1052B
100
AcDbEntity
8
Geo
100
AcDbLine
10
-79.9423931344833
20
-2.67701569684164
30
0.000000000000000
11
-79.8423931344833
21
-2.83806692961136
31
0.000000000000000
  0
LINE
  5
F1052C
330
F1052D
100
AcDbEntity
8
Geo
100
AcDbLine
10
-79.8423931344833
20
-2.83806692961136
30
0.000000000000000
11
-79.7423931344833
21
-2.99049767814653
31
0.000000000000000
  0
LINE
  5
F1052E
330
F1052F
100
AcDbEntity
8
Geo
100
AcDbLine
10
-79.7423931344833
20
-2.99049767814653
30
0.000000000000000
11
-79.6423931344833
21
-3.13439276957536
31
0.000000000000000
  0
LINE
  5
F10530
330
F10531
100
AcDbEntity
8
Geo
100
AcDbLine
10
-79.6423931344833
20
-3.13439276957536
30
0.000000000000000
11
-79.5423931344833
21
-3.26986863937362
31
0.000000000000000
  0
LINE
  5
F10532
330
F10533
100
AcDbEntity
8
Geo
100
AcDbLine
10
-79.5423931344833
20
-3.26986863937362
30
0.000000000000000
11
-79.4423931344833
21
-3.39707036868355
31
0.000000000000000
  0
LINE
  5
F10534
330
F10535
100
AcDbEntity
8
Geo
100
AcDbLine
10
-79.4423931344833
20
-3.39707036868355
30
0.000000000000000
11
-79.3423931344833
21
-3.51616880411813
31
0.000000000000000
  0
LINE
  5
F10536
330
F10537
100
AcDbEntity
8
Geo
100
AcDbLine
10
-79.3423931344833
20
-3.51616880411813
30
0.000000000000000
11
-79.2423931344833
21
-3.62735777174892
31
0.000000000000000
  0
LINE
  5
F10538
330
F10539
100
AcDbEntity
8
Geo
100
AcDbLine
10
-79.2423931344833
20
-3.62735777174892
30
0.000000000000000
11
-79.1423931344833
21
-3.73085139501814
31
0.000000000000000
  0
LINE
  5
F1053A
330
F1053B
100
AcDbEntity
8
Geo
100
AcDbLine
10
-79.1423931344833
20
-3.73085139501814
30
0.000000000000000
11
-79.0423931344833
21
-3.82688152448507
31
0.000000000000000
  0
LINE
  5
F1053C
330
F1053D
100
AcDbEntity
8
Geo
100
AcDbLine
10
-79.0423931344833
20
-3.82688152448507
30
0.000000000000000
11
-78.9423931344833
21
-3.91569528561497
31
0.000000000000000
  0
LINE
  5
F1053E
330
F1053F
100
AcDbEntity
8
Geo
100
AcDbLine
10
-78.9423931344833
20
-3.91569528561497
30
0.000000000000000
11
-78.8423931344833
21
-3.99755274924776
31
0.000000000000000
  0
LINE
  5
F10540
330
F10541
100
AcDbEntity
8
Geo
100
AcDbLine
10
-78.8423931344833
20
-3.99755274924776
30
0.000000000000000
11
-78.7423931344833
21
-4.07272472794263
31
0.000000000000000
  0
LINE
  5
F10542
330
F10543
100
AcDbEntity
8
Geo
100
AcDbLine
10
-78.7423931344833
20
-4.07272472794263
30
0.000000000000000
11
-78.6423931344833
21
-4.14149070008204
31
0.000000000000000
  0
LINE
  5
F10544
330
F10545
100
AcDbEntity
8
Geo
100
AcDbLine
10
-78.6423931344833
20
-4.14149070008204
30
0.000000000000000
11
-78.5423931344833
21
-4.20413686243180
31
0.000000000000000
  0
LINE
  5
F10546
330
F10547
100
AcDbEntity
8
Geo
100
AcDbLine
10
-78.5423931344833
20
-4.20413686243180
30
0.000000000000000
11
-78.4423931344833
21
-4.26095431078899
31
0.000000000000000
  0
LINE
  5
F10548
330
F10549
100
AcDbEntity
8
Geo
100
AcDbLine
10
-78.4423931344833
20
-4.26095431078899
30
0.000000000000000
11
-78.3423931344833
21
-4.31223734740223
31
0.000000000000000
  0
LINE
  5
F1054A
330
F1054B
100
AcDbEntity
8
Geo
100
AcDbLine
10
-78.3423931344833
20
-4.31223734740223
30
0.000000000000000
11
-78.2423931344833
21
-4.35828191301424
31
0.000000000000000
  0
LINE
  5
F1054C
330
F1054D
100
AcDbEntity
8
Geo
100
AcDbLine
10
-78.2423931344833
20
-4.35828191301424
30
0.000000000000000
11
-78.1423931344833
21
-4.39938414064902
31
0.000000000000000
  0
LINE
  5
F1054E
330
F1054F
100
AcDbEntity
8
Geo
100
AcDbLine
10
-78.1423931344833
20
-4.39938414064902
30
0.000000000000000
11
-78.0423931344833
21
-4.43583902763955
31
0.000000000000000
  0
LINE
  5
F10550
330
F10551
100
AcDbEntity
8
Geo
100
AcDbLine
10
-78.0423931344833
20
-4.43583902763955
30
0.000000000000000
11
-77.9423931344833
21
-4.46793922186038
31
0.000000000000000
  0
LINE
  5
F10552
330
F10553
100
AcDbEntity
8
Geo
100
AcDbLine
10
-77.9423931344833
20
-4.46793922186038
30
0.000000000000000
11
-77.8423931344833
21
-4.49597391768710
31
0.000000000000000
  0
LINE
  5
F10554
330
F10555
100
AcDbEntity
8
Geo
100
AcDbLine
10
-77.8423931344833
20
-4.49597391768710
30
0.000000000000000
11
-77.7423931344833
21
-4.52022785684395
31
0.000000000000000
  0
LINE
  5
F10556
330
F10557
100
AcDbEntity
8
Geo
100
AcDbLine
10
-77.7423931344833
20
-4.52022785684395
30
0.000000000000000
11
-77.6423931344833
21
-4.54098042901679
31
0.000000000000000
  0
LINE
  5
F10558
330
F10559
100
AcDbEntity
8
Geo
100
AcDbLine
10
-77.6423931344833
20
-4.54098042901679
30
0.000000000000000
11
-77.5423931344833
21
-4.55850486689419
31
0.000000000000000
  0
LINE
  5
F1055A
330
F1055B
100
AcDbEntity
8
Geo
100
AcDbLine
10
-77.5423931344833
20
-4.55850486689419
30
0.000000000000000
11
-77.4423931344833
21
-4.57306753014806
31
0.000000000000000
  0
LINE
  5
F1055C
330
F1055D
100
AcDbEntity
8
Geo
100
AcDbLine
10
-77.4423931344833
20
-4.57306753014806
30
0.000000000000000
11
-77.3423931344833
21
-4.58492727277262
31
0.000000000000000
  0
LINE
  5
F1055E
330
F1055F
100
AcDbEntity
8
Geo
100
AcDbLine
10
-77.3423931344833
20
-4.58492727277262
30
0.000000000000000
11
-77.2423931344833
21
-4.59433488815877
31
0.000000000000000
  0
LINE
  5
F10560
330
F10561
100
AcDbEntity
8
Geo
100
AcDbLine
10
-77.2423931344833
20
-4.59433488815877
30
0.000000000000000
11
-77.1423931344833
21
-4.60153262628652
31
0.000000000000000
  0
LINE
  5
F10562
330
F10563
100
AcDbEntity
8
Geo
100
AcDbLine
10
-77.1423931344833
20
-4.60153262628652
30
0.000000000000000
11
-77.0423931344833
21
-4.60675377746471
31
0.000000000000000
  0
LINE
  5
F10564
330
F10565
100
AcDbEntity
8
Geo
100
AcDbLine
10
-77.0423931344833
20
-4.60675377746471
30
0.000000000000000
11
-76.9423931344833
21
-4.61022231713045
31
0.000000000000000
  0
LINE
  5
F10566
330
F10567
100
AcDbEntity
8
Geo
100
AcDbLine
10
-76.9423931344833
20
-4.61022231713045
30
0.000000000000000
11
-76.8423931344833
21
-4.61215260633575
31
0.000000000000000
  0
LINE
  5
F10568
330
F10569
100
AcDbEntity
8
Geo
100
AcDbLine
10
-76.8423931344833
20
-4.61215260633575
30
0.000000000000000
11
-76.7423931344833
21
-4.61274915231786
31
0.000000000000000
  0
LINE
  5
F1056A
330
F1056B
100
AcDbEntity
8
Geo
100
AcDbLine
10
-89.0423931344833
20
5.38582274727016
30
0.000000000000000
11
-88.9423931344834
21
5.38671877309404
31
0.000000000000000
  0
LINE
  5
F1056C
330
F1056D
100
AcDbEntity
8
Geo
100
AcDbLine
10
-88.9423931344834
20
5.38671877309404
30
0.000000000000000
11
-88.8423931344834
21
5.38020909412143
31
0.000000000000000
  0
LINE
  5
F1056E
330
F1056F
100
AcDbEntity
8
Geo
100
AcDbLine
10
-88.8423931344834
20
5.38020909412143
30
0.000000000000000
11
-88.7423931344834
21
5.36630335313063
31
0.000000000000000
  0
LINE
  5
F10570
330
F10571
100
AcDbEntity
8
Geo
100
AcDbLine
10
-88.7423931344834
20
5.36630335313063
30
0.000000000000000
11
-88.6423931344834
21
5.34502214867618
31
0.000000000000000
  0
LINE
  5
F10572
330
F10573
100
AcDbEntity
8
Geo
100
AcDbLine
10
-88.6423931344834
20
5.34502214867618
30
0.000000000000000
11
-88.5423931344834
21
5.31639700457627
31
0.000000000000000
  0
LINE
  5
F10574
330
F10575
100
AcDbEntity
8
Geo
100
AcDbLine
10
-88.5423931344834
20
5.31639700457627
30
0.000000000000000
11
-88.4423931344834
21
5.28047032321653
31
0.000000000000000
  0
LINE
  5
F10576
330
F10577
100
AcDbEntity
8
Geo
100
AcDbLine
10
-88.4423931344834
20
5.28047032321653
30
0.000000000000000
11
-88.3423931344834
21
5.23729532273947
31
0.000000000000000
  0
LINE
  5
F10578
330
F10579
100
AcDbEntity
8
Geo
100
AcDbLine
10
-88.3423931344834
20
5.23729532273947
30
0.000000000000000
11
-88.2423931344834
21
5.18693595821247
31
0.000000000000000
  0
LINE
  5
F1057A
330
F1057B
100
AcDbEntity
8
Geo
100
AcDbLine
10
-88.2423931344834
20
5.18693595821247
30
0.000000000000000
11
-88.1423931344834
21
5.12946682689129
31
0.000000000000000
  0
LINE
  5
F1057C
330
F1057D
100
AcDbEntity
8
Geo
100
AcDbLine
10
-88.1423931344834
20
5.12946682689129
30
0.000000000000000
11
-88.0423931344834
21
5.06497305771921
31
0.000000000000000
  0
LINE
  5
F1057E
330
F1057F
100
AcDbEntity
8
Geo
100
AcDbLine
10
-88.0423931344834
20
5.06497305771921
30
0.000000000000000
11
-87.9423931344834
21
4.99355018522567
31
0.000000000000000
  0
LINE
  5
F10580
330
F10581
100
AcDbEntity
8
Geo
100
AcDbLine
10
-87.9423931344834
20
4.99355018522567
30
0.000000000000000
11
-87.8423931344834
21
4.91530400801111
31
0.000000000000000
  0
LINE
  5
F10582
330
F10583
100
AcDbEntity
8
Geo
100
AcDbLine
10
-87.8423931344834
20
4.91530400801111
30
0.000000000000000
11
-87.7423931344834
21
4.83035043202761
31
0.000000000000000
  0
LINE
  5
F10584
330
F10585
100
AcDbEntity
8
Geo
100
AcDbLine
10
-87.7423931344834
20
4.83035043202761
30
0.000000000000000
11
-87.6423931344834
21
4.73881529888764
31
0.000000000000000
  0
LINE
  5
F10586
330
F10587
100
AcDbEntity
8
Geo
100
AcDbLine
10
-87.6423931344834
20
4.73881529888764
30
0.000000000000000
11
-87.5423931344834
21
4.64083419945500
31
0.000000000000000
  0
LINE
  5
F10588
330
F10589
100
AcDbEntity
8
Geo
100
AcDbLine
10
-87.5423931344834
20
4.64083419945500
30
0.000000000000000
11
-87.4423931344834
21
4.53655227299427
31
0.000000000000000
  0
LINE
  5
F1058A
330
F1058B
100
AcDbEntity
8
Geo
100
AcDbLine
10
-87.4423931344834
20
4.53655227299427
30
0.000000000000000
11
-87.3423931344834
21
4.42612399217625
31
0.000000000000000
  0
LINE
  5
F1058C
330
F1058D
100
AcDbEntity
8
Geo
100
AcDbLine
10
-87.3423931344834
20
4.42612399217625
30
0.000000000000000
11
-87.2423931344834
21
4.30971293425778
31
0.000000000000000
  0
LINE
  5
F1058E
330
F1058F
100
AcDbEntity
8
Geo
100
AcDbLine
10
-87.2423931344834
20
4.30971293425778
30
0.000000000000000
11
-87.1423931344834
21
4.18749153877500
31
0.000000000000000
  0
LINE
  5
F10590
330
F10591
100
AcDbEntity
8
Geo
100
AcDbLine
10
-87.1423931344834
20
4.18749153877500
30
0.000000000000000
11
-87.0423931344834
21
4.05964085210889
31
0.000000000000000
  0
LINE
  5
F10592
330
F10593
100
AcDbEntity
8
Geo
100
AcDbLine
10
-87.0423931344834
20
4.05964085210889
30
0.000000000000000
11
-86.9423931344834
21
3.92635025930155
31
0.000000000000000
  0
LINE
  5
F10594
330
F10595
100
AcDbEntity
8
Geo
100
AcDbLine
10
-86.9423931344834
20
3.92635025930155
30
0.000000000000000
11
-86.8423931344834
21
3.78781720352037
31
0.000000000000000
  0
LINE
  5
F10596
330
F10597
100
AcDbEntity
8
Geo
100
AcDbLine
10
-86.8423931344834
20
3.78781720352037
30
0.000000000000000
11
-86.7423931344834
21
3.64424689358576
31
0.000000000000000
  0
LINE
  5
F10598
330
F10599
100
AcDbEntity
8
Geo
100
AcDbLine
10
-86.7423931344834
20
3.64424689358576
30
0.000000000000000
11
-86.6423931344834
21
3.49585199999563
31
0.000000000000000
  0
LINE
  5
F1059A
330
F1059B
100
AcDbEntity
8
Geo
100
AcDbLine
10
-86.6423931344834
20
3.49585199999563
30
0.000000000000000
11
-86.5423931344834
21
3.34285233989683
31
0.000000000000000
  0
LINE
  5
F1059C
330
F1059D
100
AcDbEntity
8
Geo
100
AcDbLine
10
-86.5423931344834
20
3.34285233989683
30
0.000000000000000
11
-86.4423931344834
21
3.18547455147039
31
0.000000000000000
  0
LINE
  5
F1059E
330
F1059F
100
AcDbEntity
8
Geo
100
AcDbLine
10
-86.4423931344834
20
3.18547455147039
30
0.000000000000000
11
-86.3423931344834
21
3.02395175821265
31
0.000000000000000
  0
LINE
  5
F105A0
330
F105A1
100
AcDbEntity
8
Geo
100
AcDbLine
10
-86.3423931344834
20
3.02395175821265
30
0.000000000000000
11
-86.2423931344834
21
2.85852322360975
31
0.000000000000000
  0
LINE
  5
F105A2
330
F105A3
100
AcDbEntity
8
Geo
100
AcDbLine
10
-86.2423931344834
20
2.85852322360975
30
0.000000000000000
11
-86.1423931344834
21
2.68943399671703
31
0.000000000000000
  0
LINE
  5
F105A4
330
F105A5
100
AcDbEntity
8
Geo
100
AcDbLine
10
-86.1423931344834
20
2.68943399671703
30
0.000000000000000
11
-86.0423931344834
21
2.51693454916811
31
0.000000000000000
  0
LINE
  5
F105A6
330
F105A7
100
AcDbEntity
8
Geo
100
AcDbLine
10
-86.0423931344834
20
2.51693454916811
30
0.000000000000000
11
-85.9423931344834
21
2.34128040415170
31
0.000000000000000
  0
LINE
  5
F105A8
330
F105A9
100
AcDbEntity
8
Geo
100
AcDbLine
10
-85.9423931344834
20
2.34128040415170
30
0.000000000000000
11
-85.8423931344834
21
2.16273175790542
31
0.000000000000000
  0
LINE
  5
F105AA
330
F105AB
100
AcDbEntity
8
Geo
100
AcDbLine
10
-85.8423931344834
20
2.16273175790542
30
0.000000000000000
11
-85.7423931344834
21
1.98155309428747
31
0.000000000000000
  0
LINE
  5
F105AC
330
F105AD
100
AcDbEntity
8
Geo
100
AcDbLine
10
-85.7423931344834
20
1.98155309428747
30
0.000000000000000
11
-85.6423931344834
21
1.79801279299710
31
0.000000000000000
  0
LINE
  5
F105AE
330
F105AF
100
AcDbEntity
8
Geo
100
AcDbLine
10
-85.6423931344834
20
1.79801279299710
30
0.000000000000000
11
-85.5423931344834
21
1.61238273202410
31
0.000000000000000
  0
LINE
  5
F105B0
330
F105B1
100
AcDbEntity
8
Geo
100
AcDbLine
10
-85.5423931344834
20
1.61238273202410
30
0.000000000000000
11
-85.4423931344834
21
1.42493788491635
31
0.000000000000000
  0
LINE
  5
F105B2
330
F105B3
100
AcDbEntity
8
Geo
100
AcDbLine
10
-85.4423931344834
20
1.42493788491635
30
0.000000000000000
11
-85.3423931344834
21
1.23595591346185
31
0.000000000000000
  0
LINE
  5
F105B4
330
F105B5
100
AcDbEntity
8
Geo
100
AcDbLine
10
-85.3423931344834
20
1.23595591346185
30
0.000000000000000
11
-85.2423931344834
21
1.04571675638876
31
0.000000000000000
  0
LINE
  5
F105B6
330
F105B7
100
AcDbEntity
8
Geo
100
AcDbLine
10
-85.2423931344834
20
1.04571675638876
30
0.000000000000000
11
-85.1423931344834
21
0.854502214692507
31
0.000000000000000
  0
LINE
  5
F105B8
330
F105B9
100
AcDbEntity
8
Geo
100
AcDbLine
10
-85.1423931344834
20
0.854502214692507
30
0.000000000000000
11
-85.0423931344834
21
0.662595534204397
31
0.000000000000000
  0
LINE
  5
F105BA
330
F105BB
100
AcDbEntity
8
Geo
100
AcDbLine
10
-85.0423931344834
20
0.662595534204397
30
0.000000000000000
11
-84.9423931344834
21
0.470280986019947
31
0.000000000000000
  0
LINE
  5
F105BC
330
F105BD
100
AcDbEntity
8
Geo
100
AcDbLine
10
-84.9423931344834
20
0.470280986019947
30
0.000000000000000
11
-84.8423931344834
21
0.277843445408514
31
0.000000000000000
  0
LINE
  5
F105BE
330
F105BF
100
AcDbEntity
8
Geo
100
AcDbLine
10
-84.8423931344834
20
0.277843445408514
30
0.000000000000000
11
-84.7423931344834
21
0.0855679698279814
31
0.000000000000000
  0
LINE
  5
F105C0
330
F105C1
100
AcDbEntity
8
Geo
100
AcDbLine
10
-84.7423931344834
20
0.0855679698279814
30
0.000000000000000
11
-84.6423931344834
21
-0.106260623330487
31
0.000000000000000
  0
LINE
  5
F105C2
330
F105C3
100
AcDbEntity
8
Geo
100
AcDbLine
10
-84.6423931344834
20
-0.106260623330487
30
0.000000000000000
11
-84.5423931344834
21
-0.297358178642023
31
0.000000000000000
  0
LINE
  5
F105C4
330
F105C5
100
AcDbEntity
8
Geo
100
AcDbLine
10
-84.5423931344834
20
-0.297358178642023
30
0.000000000000000
11
-84.4423931344834
21
-0.487441623567093
31
0.000000000000000
  0
LINE
  5
F105C6
330
F105C7
100
AcDbEntity
8
Geo
100
AcDbLine
10
-84.4423931344834
20
-0.487441623567093
30
0.000000000000000
11
-84.3423931344834
21
-0.676229387766448
31
0.000000000000000
  0
LINE
  5
F105C8
330
F105C9
100
AcDbEntity
8
Geo
100
AcDbLine
10
-84.3423931344834
20
-0.676229387766448
30
0.000000000000000
11
-84.2423931344834
21
-0.863441820190877
31
0.000000000000000
  0
LINE
  5
F105CA
330
F105CB
100
AcDbEntity
8
Geo
100
AcDbLine
10
-84.2423931344834
20
-0.863441820190877
30
0.000000000000000
11
-84.1423931344834
21
-1.04880160332790
31
0.000000000000000
  0
LINE
  5
F105CC
330
F105CD
100
AcDbEntity
8
Geo
100
AcDbLine
10
-84.1423931344834
20
-1.04880160332790
30
0.000000000000000
11
-84.0423931344834
21
-1.23203416399184
31
0.000000000000000
  0
LINE
  5
F105CE
330
F105CF
100
AcDbEntity
8
Geo
100
AcDbLine
10
-84.0423931344834
20
-1.23203416399184
30
0.000000000000000
11
-83.9423931344834
21
-1.41286808004864
31
0.000000000000000
  0
LINE
  5
F105D0
330
F105D1
100
AcDbEntity
8
Geo
100
AcDbLine
10
-83.9423931344834
20
-1.41286808004864
30
0.000000000000000
11
-83.8423931344834
21
-1.59103548247314
31
0.000000000000000
  0
LINE
  5
F105D2
330
F105D3
100
AcDbEntity
8
Geo
100
AcDbLine
10
-83.8423931344834
20
-1.59103548247314
30
0.000000000000000
11
-83.7423931344834
21
-1.76627245214307
31
0.000000000000000
  0
LINE
  5
F105D4
330
F105D5
100
AcDbEntity
8
Geo
100
AcDbLine
10
-83.7423931344834
20
-1.76627245214307
30
0.000000000000000
11
-83.6423931344834
21
-1.93831941078206
31
0.000000000000000
  0
LINE
  5
F105D6
330
F105D7
100
AcDbEntity
8
Geo
100
AcDbLine
10
-83.6423931344834
20
-1.93831941078206
30
0.000000000000000
11
-83.5423931344834
21
-2.10692150547261
31
0.000000000000000
  0
LINE
  5
F105D8
330
F105D9
100
AcDbEntity
8
Geo
100
AcDbLine
10
-83.5423931344834
20
-2.10692150547261
30
0.000000000000000
11
-83.4423931344834
21
-2.27182898616931
31
0.000000000000000
  0
LINE
  5
F105DA
330
F105DB
100
AcDbEntity
8
Geo
100
AcDbLine
10
-83.4423931344834
20
-2.27182898616931
30
0.000000000000000
11
-83.3423931344834
21
-2.43279757565327
31
0.000000000000000
  0
LINE
  5
F105DC
330
F105DD
100
AcDbEntity
8
Geo
100
AcDbLine
10
-83.3423931344834
20
-2.43279757565327
30
0.000000000000000
11
-83.2423931344834
21
-2.58958883137959
31
0.000000000000000
  0
LINE
  5
F105DE
330
F105DF
100
AcDbEntity
8
Geo
100
AcDbLine
10
-83.2423931344834
20
-2.58958883137959
30
0.000000000000000
11
-83.1423931344834
21
-2.74197049868201
31
0.000000000000000
  0
LINE
  5
F105E0
330
F105E1
100
AcDbEntity
8
Geo
100
AcDbLine
10
-83.1423931344834
20
-2.74197049868201
30
0.000000000000000
11
-83.0423931344834
21
-2.88971685481136
31
0.000000000000000
  0
LINE
  5
F105E2
330
F105E3
100
AcDbEntity
8
Geo
100
AcDbLine
10
-83.0423931344834
20
-2.88971685481136
30
0.000000000000000
11
-82.9423931344834
21
-3.03260904329841
31
0.000000000000000
  0
LINE
  5
F105E4
330
F105E5
100
AcDbEntity
8
Geo
100
AcDbLine
10
-82.9423931344834
20
-3.03260904329841
30
0.000000000000000
11
-82.8423931344834
21
-3.17043539814560
31
0.000000000000000
  0
LINE
  5
F105E6
330
F105E7
100
AcDbEntity
8
Geo
100
AcDbLine
10
-82.8423931344834
20
-3.17043539814560
30
0.000000000000000
11
-82.7423931344834
21
-3.30299175736761
31
0.000000000000000
  0
LINE
  5
F105E8
330
F105E9
100
AcDbEntity
8
Geo
100
AcDbLine
10
-82.7423931344834
20
-3.30299175736761
30
0.000000000000000
11
-82.6423931344834
21
-3.43008176541623
31
0.000000000000000
  0
LINE
  5
F105EA
330
F105EB
100
AcDbEntity
8
Geo
100
AcDbLine
10
-82.6423931344834
20
-3.43008176541623
30
0.000000000000000
11
-82.5423931344834
21
-3.55151716404153
31
0.000000000000000
  0
LINE
  5
F105EC
330
F105ED
100
AcDbEntity
8
Geo
100
AcDbLine
10
-82.5423931344834
20
-3.55151716404153
30
0.000000000000000
11
-82.4423931344834
21
-3.66711807115856
31
0.000000000000000
  0
LINE
  5
F105EE
330
F105EF
100
AcDbEntity
8
Geo
100
AcDbLine
10
-82.4423931344834
20
-3.66711807115856
30
0.000000000000000
11
-82.3423931344834
21
-3.77671324730643
31
0.000000000000000
  0
LINE
  5
F105F0
330
F105F1
100
AcDbEntity
8
Geo
100
AcDbLine
10
-82.3423931344834
20
-3.77671324730643
30
0.000000000000000
11
-82.2423931344834
21
-3.88014034930507
31
0.000000000000000
  0
LINE
  5
F105F2
330
F105F3
100
AcDbEntity
8
Geo
100
AcDbLine
10
-82.2423931344834
20
-3.88014034930507
30
0.000000000000000
11
-82.1423931344834
21
-3.97724617073395
31
0.000000000000000
  0
LINE
  5
F105F4
330
F105F5
100
AcDbEntity
8
Geo
100
AcDbLine
10
-82.1423931344834
20
-3.97724617073395
30
0.000000000000000
11
-82.0423931344834
21
-4.06788686887657
31
0.000000000000000
  0
LINE
  5
F105F6
330
F105F7
100
AcDbEntity
8
Geo
100
AcDbLine
10
-82.0423931344834
20
-4.06788686887657
30
0.000000000000000
11
-81.9423931344834
21
-4.15192817779441
31
0.000000000000000
  0
LINE
  5
F105F8
330
F105F9
100
AcDbEntity
8
Geo
100
AcDbLine
10
-81.9423931344834
20
-4.15192817779441
30
0.000000000000000
11
-81.8423931344834
21
-4.22924560721496
31
0.000000000000000
  0
LINE
  5
F105FA
330
F105FB
100
AcDbEntity
8
Geo
100
AcDbLine
10
-81.8423931344834
20
-4.22924560721496
30
0.000000000000000
11
-81.7423931344834
21
-4.29972462693891
31
0.000000000000000
  0
LINE
  5
F105FC
330
F105FD
100
AcDbEntity
8
Geo
100
AcDbLine
10
-81.7423931344834
20
-4.29972462693891
30
0.000000000000000
11
-81.6423931344834
21
-4.36326083649359
31
0.000000000000000
  0
LINE
  5
F105FE
330
F105FF
100
AcDbEntity
8
Geo
100
AcDbLine
10
-81.6423931344834
20
-4.36326083649359
30
0.000000000000000
11
-81.5423931344834
21
-4.41976011978130
31
0.000000000000000
  0
LINE
  5
F10600
330
F10601
100
AcDbEntity
8
Geo
100
AcDbLine
10
-81.5423931344834
20
-4.41976011978130
30
0.000000000000000
11
-81.4423931344834
21
-4.46913878449327
31
0.000000000000000
  0
LINE
  5
F10602
330
F10603
100
AcDbEntity
8
Geo
100
AcDbLine
10
-81.4423931344834
20
-4.46913878449327
30
0.000000000000000
11
-81.3423931344834
21
-4.51132368608300
31
0.000000000000000
  0
LINE
  5
F10604
330
F10605
100
AcDbEntity
8
Geo
100
AcDbLine
10
-81.3423931344834
20
-4.51132368608300
30
0.000000000000000
11
-81.2423931344834
21
-4.54625233611519
31
0.000000000000000
  0
LINE
  5
F10606
330
F10607
100
AcDbEntity
8
Geo
100
AcDbLine
10
-81.2423931344834
20
-4.54625233611519
30
0.000000000000000
11
-81.1423931344834
21
-4.57387299482974
31
0.000000000000000
  0
LINE
  5
F10608
330
F10609
100
AcDbEntity
8
Geo
100
AcDbLine
10
-81.1423931344834
20
-4.57387299482974
30
0.000000000000000
11
-81.0423931344834
21
-4.59414474778380
31
0.000000000000000
  0
LINE
  5
F1060A
330
F1060B
100
AcDbEntity
8
Geo
100
AcDbLine
10
-81.0423931344834
20
-4.59414474778380
30
0.000000000000000
11
-80.9423931344834
21
-4.60703756645827
31
0.000000000000000
  0
LINE
  5
F1060C
330
F1060D
100
AcDbEntity
8
Geo
100
AcDbLine
10
-80.9423931344834
20
-4.60703756645827
30
0.000000000000000
11
-80.8423931344834
21
-4.61253235273900
31
0.000000000000000
  0
LINE
  5
F1060E
330
F1060F
100
AcDbEntity
8
Geo
100
AcDbLine
10
-89.8423931344834
20
5.38647099544168
30
0.000000000000000
11
-89.7423931344834
21
5.38616637919901
31
0.000000000000000
  0
LINE
  5
F10610
330
F10611
100
AcDbEntity
8
Geo
100
AcDbLine
10
-89.7423931344834
20
5.38616637919901
30
0.000000000000000
11
-89.6423931344834
21
5.37845687642014
31
0.000000000000000
  0
LINE
  5
F10612
330
F10613
100
AcDbEntity
8
Geo
100
AcDbLine
10
-89.6423931344834
20
5.37845687642014
30
0.000000000000000
11
-89.5423931344833
21
5.36335390718070
31
0.000000000000000
  0
LINE
  5
F10614
330
F10615
100
AcDbEntity
8
Geo
100
AcDbLine
10
-89.5423931344833
20
5.36335390718070
30
0.000000000000000
11
-89.4423931344834
21
5.34087984348774
31
0.000000000000000
  0
LINE
  5
F10616
330
F10617
100
AcDbEntity
8
Geo
100
AcDbLine
10
-89.4423931344834
20
5.34087984348774
30
0.000000000000000
11
-89.3423931344834
21
5.31106797614016
31
0.000000000000000
  0
LINE
  5
F10618
330
F10619
100
AcDbEntity
8
Geo
100
AcDbLine
10
-89.3423931344834
20
5.31106797614016
30
0.000000000000000
11
-89.2423931344834
21
5.27396246541507
31
0.000000000000000
  0
LINE
  5
F1061A
330
F1061B
100
AcDbEntity
8
Geo
100
AcDbLine
10
-89.2423931344834
20
5.27396246541507
30
0.000000000000000
11
-89.1423931344834
21
5.22961827565324
31
0.000000000000000
  0
LINE
  5
F1061C
330
F1061D
100
AcDbEntity
8
Geo
100
AcDbLine
10
-89.1423931344834
20
5.22961827565324
30
0.000000000000000
11
-89.0423931344833
21
5.17810109384053
31
0.000000000000000
  0
LINE
  5
F1061E
330
F1061F
100
AcDbEntity
8
Geo
100
AcDbLine
10
-89.0423931344833
20
5.17810109384053
30
0.000000000000000
11
-88.9423931344834
21
5.11948723230578
31
0.000000000000000
  0
LINE
  5
F10620
330
F10621
100
AcDbEntity
8
Geo
100
AcDbLine
10
-88.9423931344834
20
5.11948723230578
30
0.000000000000000
11
-88.8423931344834
21
5.05386351567953
31
0.000000000000000
  0
LINE
  5
F10622
330
F10623
100
AcDbEntity
8
Geo
100
AcDbLine
10
-88.8423931344834
20
5.05386351567953
30
0.000000000000000
11
-88.7423931344834
21
4.98132715228080
31
0.000000000000000
  0
LINE
  5
F10624
330
F10625
100
AcDbEntity
8
Geo
100
AcDbLine
10
-88.7423931344834
20
4.98132715228080
30
0.000000000000000
11
-88.6423931344834
21
4.90198559012253
31
0.000000000000000
  0
LINE
  5
F10626
330
F10627
100
AcDbEntity
8
Geo
100
AcDbLine
10
-88.6423931344834
20
4.90198559012253
30
0.000000000000000
11
-88.5423931344834
21
4.81595635774899
31
0.000000000000000
  0
LINE
  5
F10628
330
F10629
100
AcDbEntity
8
Geo
100
AcDbLine
10
-88.5423931344834
20
4.81595635774899
30
0.000000000000000
11
-88.4423931344834
21
4.72336689014094
31
0.000000000000000
  0
LINE
  5
F1062A
330
F1062B
100
AcDbEntity
8
Geo
100
AcDbLine
10
-88.4423931344834
20
4.72336689014094
30
0.000000000000000
11
-88.3423931344834
21
4.62435433994632
31
0.000000000000000
  0
LINE
  5
F1062C
330
F1062D
100
AcDbEntity
8
Geo
100
AcDbLine
10
-88.3423931344834
20
4.62435433994632
30
0.000000000000000
11
-88.2423931344834
21
4.51906537431631
31
0.000000000000000
  0
LINE
  5
F1062E
330
F1062F
100
AcDbEntity
8
Geo
100
AcDbLine
10
-88.2423931344834
20
4.51906537431631
30
0.000000000000000
11
-88.1423931344834
21
4.40765595764738
31
0.000000000000000
  0
LINE
  5
F10630
330
F10631
100
AcDbEntity
8
Geo
100
AcDbLine
10
-88.1423931344834
20
4.40765595764738
30
0.000000000000000
11
-88.0423931344834
21
4.29029112055153
31
0.000000000000000
  0
LINE
  5
F10632
330
F10633
100
AcDbEntity
8
Geo
100
AcDbLine
10
-88.0423931344834
20
4.29029112055153
30
0.000000000000000
11
-87.9423931344834
21
4.16714471539667
31
0.000000000000000
  0
LINE
  5
F10634
330
F10635
100
AcDbEntity
8
Geo
100
AcDbLine
10
-87.9423931344834
20
4.16714471539667
30
0.000000000000000
11
-87.8423931344834
21
4.03839915877930
31
0.000000000000000
  0
LINE
  5
F10636
330
F10637
100
AcDbEntity
8
Geo
100
AcDbLine
10
-87.8423931344834
20
4.03839915877930
30
0.000000000000000
11
-87.7423931344834
21
3.90424516131110
31
0.000000000000000
  0
LINE
  5
F10638
330
F10639
100
AcDbEntity
8
Geo
100
AcDbLine
10
-87.7423931344834
20
3.90424516131110
30
0.000000000000000
11
-87.6423931344834
21
3.76488144511958
31
0.000000000000000
  0
LINE
  5
F1063A
330
F1063B
100
AcDbEntity
8
Geo
100
AcDbLine
10
-87.6423931344834
20
3.76488144511958
30
0.000000000000000
11
-87.5423931344834
21
3.62051444948125
31
0.000000000000000
  0
LINE
  5
F1063C
330
F1063D
100
AcDbEntity
8
Geo
100
AcDbLine
10
-87.5423931344834
20
3.62051444948125
30
0.000000000000000
11
-87.4423931344834
21
3.47135802502342
31
0.000000000000000
  0
LINE
  5
F1063E
330
F1063F
100
AcDbEntity
8
Geo
100
AcDbLine
10
-87.4423931344834
20
3.47135802502342
30
0.000000000000000
11
-87.3423931344834
21
3.31763311694755
31
0.000000000000000
  0
LINE
  5
F10640
330
F10641
100
AcDbEntity
8
Geo
100
AcDbLine
10
-87.3423931344834
20
3.31763311694755
30
0.000000000000000
11
-87.2423931344834
21
3.15956743774348
31
0.000000000000000
  0
LINE
  5
F10642
330
F10643
100
AcDbEntity
8
Geo
100
AcDbLine
10
-87.2423931344834
20
3.15956743774348
30
0.000000000000000
11
-87.1423931344834
21
2.99739512987918
31
0.000000000000000
  0
LINE
  5
F10644
330
F10645
100
AcDbEntity
8
Geo
100
AcDbLine
10
-87.1423931344834
20
2.99739512987918
30
0.000000000000000
11
-87.0423931344834
21
2.83135641896587
31
0.000000000000000
  0
LINE
  5
F10646
330
F10647
100
AcDbEntity
8
Geo
100
AcDbLine
10
-87.0423931344834
20
2.83135641896587
30
0.000000000000000
11
-86.9423931344834
21
2.66169725791219
31
0.000000000000000
  0
LINE
  5
F10648
330
F10649
100
AcDbEntity
8
Geo
100
AcDbLine
10
-86.9423931344834
20
2.66169725791219
30
0.000000000000000
11
-86.8423931344834
21
2.48866896259445
31
0.000000000000000
  0
LINE
  5
F1064A
330
F1064B
100
AcDbEntity
8
Geo
100
AcDbLine
10
-86.8423931344834
20
2.48866896259445
30
0.000000000000000
11
-86.7423931344834
21
2.31252783958279
31
0.000000000000000
  0
LINE
  5
F1064C
330
F1064D
100
AcDbEntity
8
Geo
100
AcDbLine
10
-86.7423931344834
20
2.31252783958279
30
0.000000000000000
11
-86.6423931344834
21
2.13353480647466
31
0.000000000000000
  0
LINE
  5
F1064E
330
F1064F
100
AcDbEntity
8
Geo
100
AcDbLine
10
-86.6423931344834
20
2.13353480647466
30
0.000000000000000
11
-86.5423931344834
21
1.95195500539790
31
0.000000000000000
  0
LINE
  5
F10650
330
F10651
100
AcDbEntity
8
Geo
100
AcDbLine
10
-86.5423931344834
20
1.95195500539790
30
0.000000000000000
11
-86.4423931344834
21
1.76805741025610
31
0.000000000000000
  0
LINE
  5
F10652
330
F10653
100
AcDbEntity
8
Geo
100
AcDbLine
10
-86.4423931344834
20
1.76805741025610
30
0.000000000000000
11
-86.3423931344834
21
1.58211442829794
31
0.000000000000000
  0
LINE
  5
F10654
330
F10655
100
AcDbEntity
8
Geo
100
AcDbLine
10
-86.3423931344834
20
1.58211442829794
30
0.000000000000000
11
-86.2423931344834
21
1.39440149660070
31
0.000000000000000
  0
LINE
  5
F10656
330
F10657
100
AcDbEntity
8
Geo
100
AcDbLine
10
-86.2423931344834
20
1.39440149660070
30
0.000000000000000
11
-86.1423931344834
21
1.20519667406572
31
0.000000000000000
  0
LINE
  5
F10658
330
F10659
100
AcDbEntity
8
Geo
100
AcDbLine
10
-86.1423931344834
20
1.20519667406572
30
0.000000000000000
11
-86.0423931344834
21
1.01478022953014
31
0.000000000000000
  0
LINE
  5
F1065A
330
F1065B
100
AcDbEntity
8
Geo
100
AcDbLine
10
-86.0423931344834
20
1.01478022953014
30
0.000000000000000
11
-85.9423931344834
21
0.823434226605061
31
0.000000000000000
  0
LINE
  5
F1065C
330
F1065D
100
AcDbEntity
8
Geo
100
AcDbLine
10
-85.9423931344834
20
0.823434226605061
30
0.000000000000000
11
-85.8423931344834
21
0.631442105855123
31
0.000000000000000
  0
LINE
  5
F1065E
330
F1065F
100
AcDbEntity
8
Geo
100
AcDbLine
10
-85.8423931344834
20
0.631442105855123
30
0.000000000000000
11
-85.7423931344834
21
0.439088264938376
31
0.000000000000000
  0
LINE
  5
F10660
330
F10661
100
AcDbEntity
8
Geo
100
AcDbLine
10
-85.7423931344834
20
0.439088264938376
30
0.000000000000000
11
-85.6423931344834
21
0.246657637328462
31
0.000000000000000
  0
LINE
  5
F10662
330
F10663
100
AcDbEntity
8
Geo
100
AcDbLine
10
-85.6423931344834
20
0.246657637328462
30
0.000000000000000
11
-85.5423931344834
21
0.0544352702430286
31
0.000000000000000
  0
LINE
  5
F10664
330
F10665
100
AcDbEntity
8
Geo
100
AcDbLine
10
-85.5423931344834
20
0.0544352702430286
30
0.000000000000000
11
-85.4423931344834
21
-0.137294097596294
31
0.000000000000000
  0
LINE
  5
F10666
330
F10667
100
AcDbEntity
8
Geo
100
AcDbLine
10
-85.4423931344834
20
-0.137294097596294
30
0.000000000000000
11
-85.3423931344834
21
-0.328246457746962
31
0.000000000000000
  0
LINE
  5
F10668
330
F10669
100
AcDbEntity
8
Geo
100
AcDbLine
10
-85.3423931344834
20
-0.328246457746962
30
0.000000000000000
11
-85.2423931344834
21
-0.518138952746826
31
0.000000000000000
  0
LINE
  5
F1066A
330
F1066B
100
AcDbEntity
8
Geo
100
AcDbLine
10
-85.2423931344834
20
-0.518138952746826
30
0.000000000000000
11
-85.1423931344834
21
-0.706690295110502
31
0.000000000000000
  0
LINE
  5
F1066C
330
F1066D
100
AcDbEntity
8
Geo
100
AcDbLine
10
-85.1423931344834
20
-0.706690295110502
30
0.000000000000000
11
-85.0423931344834
21
-0.893621184000104
31
0.000000000000000
  0
LINE
  5
F1066E
330
F1066F
100
AcDbEntity
8
Geo
100
AcDbLine
10
-85.0423931344834
20
-0.893621184000104
30
0.000000000000000
11
-84.9423931344834
21
-1.07865471895320
31
0.000000000000000
  0
LINE
  5
F10670
330
F10671
100
AcDbEntity
8
Geo
100
AcDbLine
10
-84.9423931344834
20
-1.07865471895320
30
0.000000000000000
11
-84.8423931344834
21
-1.26151681005508
31
0.000000000000000
  0
LINE
  5
F10672
330
F10673
100
AcDbEntity
8
Geo
100
AcDbLine
10
-84.8423931344834
20
-1.26151681005508
30
0.000000000000000
11
-84.7423931344834
21
-1.44193658394773
31
0.000000000000000
  0
LINE
  5
F10674
330
F10675
100
AcDbEntity
8
Geo
100
AcDbLine
10
-84.7423931344834
20
-1.44193658394773
30
0.000000000000000
11
-84.6423931344834
21
-1.61964678507419
31
0.000000000000000
  0
LINE
  5
F10676
330
F10677
100
AcDbEntity
8
Geo
100
AcDbLine
10
-84.6423931344834
20
-1.61964678507419
30
0.000000000000000
11
-84.5423931344834
21
-1.79438417156384
31
0.000000000000000
  0
LINE
  5
F10678
330
F10679
100
AcDbEntity
8
Geo
100
AcDbLine
10
-84.5423931344834
20
-1.79438417156384
30
0.000000000000000
11
-84.4423931344834
21
-1.96588990517217
31
0.000000000000000
  0
LINE
  5
F1067A
330
F1067B
100
AcDbEntity
8
Geo
100
AcDbLine
10
-84.4423931344834
20
-1.96588990517217
30
0.000000000000000
11
-84.3423931344834
21
-2.13390993469755
31
0.000000000000000
  0
LINE
  5
F1067C
330
F1067D
100
AcDbEntity
8
Geo
100
AcDbLine
10
-84.3423931344834
20
-2.13390993469755
30
0.000000000000000
11
-84.2423931344834
21
-2.29819537230687
31
0.000000000000000
  0
LINE
  5
F1067E
330
F1067F
100
AcDbEntity
8
Geo
100
AcDbLine
10
-84.2423931344834
20
-2.29819537230687
30
0.000000000000000
11
-84.1423931344834
21
-2.45850286221281
31
0.000000000000000
  0
LINE
  5
F10680
330
F10681
100
AcDbEntity
8
Geo
100
AcDbLine
10
-84.1423931344834
20
-2.45850286221281
30
0.000000000000000
11
-84.0423931344834
21
-2.61459494115633
31
0.000000000000000
  0
LINE
  5
F10682
330
F10683
100
AcDbEntity
8
Geo
100
AcDbLine
10
-84.0423931344834
20
-2.61459494115633
30
0.000000000000000
11
-83.9423931344834
21
-2.76624039016076
31
0.000000000000000
  0
LINE
  5
F10684
330
F10685
100
AcDbEntity
8
Geo
100
AcDbLine
10
-83.9423931344834
20
-2.76624039016076
30
0.000000000000000
11
-83.8423931344834
21
-2.91321457703606
31
0.000000000000000
  0
LINE
  5
F10686
330
F10687
100
AcDbEntity
8
Geo
100
AcDbLine
10
-83.8423931344834
20
-2.91321457703606
30
0.000000000000000
11
-83.7423931344834
21
-3.05529978912621
31
0.000000000000000
  0
LINE
  5
F10688
330
F10689
100
AcDbEntity
8
Geo
100
AcDbLine
10
-83.7423931344834
20
-3.05529978912621
30
0.000000000000000
11
-83.6423931344834
21
-3.19228555580666
31
0.000000000000000
  0
LINE
  5
F1068A
330
F1068B
100
AcDbEntity
8
Geo
100
AcDbLine
10
-83.6423931344834
20
-3.19228555580666
30
0.000000000000000
11
-83.5423931344834
21
-3.32396896025418
31
0.000000000000000
  0
LINE
  5
F1068C
330
F1068D
100
AcDbEntity
8
Geo
100
AcDbLine
10
-83.5423931344834
20
-3.32396896025418
30
0.000000000000000
11
-83.4423931344834
21
-3.45015494002720
31
0.000000000000000
  0
LINE
  5
F1068E
330
F1068F
100
AcDbEntity
8
Geo
100
AcDbLine
10
-83.4423931344834
20
-3.45015494002720
30
0.000000000000000
11
-83.3423931344834
21
-3.57065657601163
31
0.000000000000000
  0
LINE
  5
F10690
330
F10691
100
AcDbEntity
8
Geo
100
AcDbLine
10
-83.3423931344834
20
-3.57065657601163
30
0.000000000000000
11
-83.2423931344834
21
-3.68529536930380
31
0.000000000000000
  0
LINE
  5
F10692
330
F10693
100
AcDbEntity
8
Geo
100
AcDbLine
10
-83.2423931344834
20
-3.68529536930380
30
0.000000000000000
11
-83.1423931344834
21
-3.79390150562067
31
0.000000000000000
  0
LINE
  5
F10694
330
F10695
100
AcDbEntity
8
Geo
100
AcDbLine
10
-83.1423931344834
20
-3.79390150562067
30
0.000000000000000
11
-83.0423931344834
21
-3.89631410684547
31
0.000000000000000
  0
LINE
  5
F10696
330
F10697
100
AcDbEntity
8
Geo
100
AcDbLine
10
-83.0423931344834
20
-3.89631410684547
30
0.000000000000000
11
-82.9423931344834
21
-3.99238146933625
31
0.000000000000000
  0
LINE
  5
F10698
330
F10699
100
AcDbEntity
8
Geo
100
AcDbLine
10
-82.9423931344834
20
-3.99238146933625
30
0.000000000000000
11
-82.8423931344834
21
-4.08196128864425
31
0.000000000000000
  0
LINE
  5
F1069A
330
F1069B
100
AcDbEntity
8
Geo
100
AcDbLine
10
-82.8423931344834
20
-4.08196128864425
30
0.000000000000000
11
-82.7423931344834
21
-4.16492087030932
31
0.000000000000000
  0
LINE
  5
F1069C
330
F1069D
100
AcDbEntity
8
Geo
100
AcDbLine
10
-82.7423931344834
20
-4.16492087030932
30
0.000000000000000
11
-82.6423931344834
21
-4.24113732641996
31
0.000000000000000
  0
LINE
  5
F1069E
330
F1069F
100
AcDbEntity
8
Geo
100
AcDbLine
10
-82.6423931344834
20
-4.24113732641996
30
0.000000000000000
11
-82.5423931344834
21
-4.31049775764709
31
0.000000000000000
  0
LINE
  5
F106A0
330
F106A1
100
AcDbEntity
8
Geo
100
AcDbLine
10
-82.5423931344834
20
-4.31049775764709
30
0.000000000000000
11
-82.4423931344834
21
-4.37289942048161
31
0.000000000000000
  0
LINE
  5
F106A2
330
F106A3
100
AcDbEntity
8
Geo
100
AcDbLine
10
-82.4423931344834
20
-4.37289942048161
30
0.000000000000000
11
-82.3423931344834
21
-4.42824987942827
31
0.000000000000000
  0
LINE
  5
F106A4
330
F106A5
100
AcDbEntity
8
Geo
100
AcDbLine
10
-82.3423931344834
20
-4.42824987942827
30
0.000000000000000
11
-82.2423931344834
21
-4.47646714393018
31
0.000000000000000
  0
LINE
  5
F106A6
330
F106A7
100
AcDbEntity
8
Geo
100
AcDbLine
10
-82.2423931344834
20
-4.47646714393018
30
0.000000000000000
11
-82.1423931344834
21
-4.51747978982135
31
0.000000000000000
  0
LINE
  5
F106A8
330
F106A9
100
AcDbEntity
8
Geo
100
AcDbLine
10
-82.1423931344834
20
-4.51747978982135
30
0.000000000000000
11
-82.0423931344834
21
-4.55122706512717
31
0.000000000000000
  0
LINE
  5
F106AA
330
F106AB
100
AcDbEntity
8
Geo
100
AcDbLine
10
-82.0423931344834
20
-4.55122706512717
30
0.000000000000000
11
-81.9423931344834
21
-4.57765898005628
31
0.000000000000000
  0
LINE
  5
F106AC
330
F106AD
100
AcDbEntity
8
Geo
100
AcDbLine
10
-81.9423931344834
20
-4.57765898005628
30
0.000000000000000
11
-81.8423931344834
21
-4.59673638105031
31
0.000000000000000
  0
LINE
  5
F106AE
330
F106AF
100
AcDbEntity
8
Geo
100
AcDbLine
10
-81.8423931344834
20
-4.59673638105031
30
0.000000000000000
11
-81.7423931344834
21
-4.60843100878204
31
0.000000000000000
  0
LINE
  5
F106B0
330
F106B1
100
AcDbEntity
8
Geo
100
AcDbLine
10
-81.7423931344834
20
-4.60843100878204
30
0.000000000000000
11
-81.6423931344834
21
-4.61272554001589
31
0.000000000000000
  0
LINE
  5
F106B2
330
F106B3
100
AcDbEntity
8
Geo
100
AcDbLine
10
-93.1423931344833
20
5.38481812993294
30
0.000000000000000
11
-93.0423931344833
21
5.38711782726567
31
0.000000000000000
  0
LINE
  5
F106B4
330
F106B5
100
AcDbEntity
8
Geo
100
AcDbLine
10
-93.0423931344833
20
5.38711782726567
30
0.000000000000000
11
-92.9423931344833
21
5.38201122868354
31
0.000000000000000
  0
LINE
  5
F106B6
330
F106B7
100
AcDbEntity
8
Geo
100
AcDbLine
10
-92.9423931344833
20
5.38201122868354
30
0.000000000000000
11
-92.8423931344833
21
5.36950589858382
31
0.000000000000000
  0
LINE
  5
F106B8
330
F106B9
100
AcDbEntity
8
Geo
100
AcDbLine
10
-92.8423931344833
20
5.36950589858382
30
0.000000000000000
11
-92.7423931344833
21
5.34962036109438
31
0.000000000000000
  0
LINE
  5
F106BA
330
F106BB
100
AcDbEntity
8
Geo
100
AcDbLine
10
-92.7423931344833
20
5.34962036109438
30
0.000000000000000
11
-92.6423931344833
21
5.32238407263391
31
0.000000000000000
  0
LINE
  5
F106BC
330
F106BD
100
AcDbEntity
8
Geo
100
AcDbLine
10
-92.6423931344833
20
5.32238407263391
30
0.000000000000000
11
-92.5423931344833
21
5.28783737827812
31
0.000000000000000
  0
LINE
  5
F106BE
330
F106BF
100
AcDbEntity
8
Geo
100
AcDbLine
10
-92.5423931344833
20
5.28783737827812
30
0.000000000000000
11
-92.4423931344833
21
5.24603145199673
31
0.000000000000000
  0
LINE
  5
F106C0
330
F106C1
100
AcDbEntity
8
Geo
100
AcDbLine
10
-92.4423931344833
20
5.24603145199673
30
0.000000000000000
11
-92.3423931344833
21
5.19702822084943
31
0.000000000000000
  0
LINE
  5
F106C2
330
F106C3
100
AcDbEntity
8
Geo
100
AcDbLine
10
-92.3423931344833
20
5.19702822084943
30
0.000000000000000
11
-92.2423931344833
21
5.14090027325353
31
0.000000000000000
  0
LINE
  5
F106C4
330
F106C5
100
AcDbEntity
8
Geo
100
AcDbLine
10
-92.2423931344833
20
5.14090027325353
30
0.000000000000000
11
-92.1423931344833
21
5.07773075145873
31
0.000000000000000
  0
LINE
  5
F106C6
330
F106C7
100
AcDbEntity
8
Geo
100
AcDbLine
10
-92.1423931344833
20
5.07773075145873
30
0.000000000000000
11
-92.0423931344833
21
5.00761322838871
31
0.000000000000000
  0
LINE
  5
F106C8
330
F106C9
100
AcDbEntity
8
Geo
100
AcDbLine
10
-92.0423931344833
20
5.00761322838871
30
0.000000000000000
11
-91.9423931344833
21
4.93065156903162
31
0.000000000000000
  0
LINE
  5
F106CA
330
F106CB
100
AcDbEntity
8
Geo
100
AcDbLine
10
-91.9423931344833
20
4.93065156903162
30
0.000000000000000
11
-91.8423931344833
21
4.84695977658508
31
0.000000000000000
  0
LINE
  5
F106CC
330
F106CD
100
AcDbEntity
8
Geo
100
AcDbLine
10
-91.8423931344833
20
4.84695977658508
30
0.000000000000000
11
-91.7423931344834
21
4.75666182358337
31
0.000000000000000
  0
LINE
  5
F106CE
330
F106CF
100
AcDbEntity
8
Geo
100
AcDbLine
10
-91.7423931344834
20
4.75666182358337
30
0.000000000000000
11
-91.6423931344833
21
4.65989146825709
31
0.000000000000000
  0
LINE
  5
F106D0
330
F106D1
100
AcDbEntity
8
Geo
100
AcDbLine
10
-91.6423931344833
20
4.65989146825709
30
0.000000000000000
11
-91.5423931344833
21
4.55679205639729
31
0.000000000000000
  0
LINE
  5
F106D2
330
F106D3
100
AcDbEntity
8
Geo
100
AcDbLine
10
-91.5423931344833
20
4.55679205639729
30
0.000000000000000
11
-91.4423931344834
21
4.44751630901755
31
0.000000000000000
  0
LINE
  5
F106D4
330
F106D5
100
AcDbEntity
8
Geo
100
AcDbLine
10
-91.4423931344834
20
4.44751630901755
30
0.000000000000000
11
-91.3423931344833
21
4.33222609612855
31
0.000000000000000
  0
LINE
  5
F106D6
330
F106D7
100
AcDbEntity
8
Geo
100
AcDbLine
10
-91.3423931344833
20
4.33222609612855
30
0.000000000000000
11
-91.2423931344834
21
4.21109219696026
31
0.000000000000000
  0
LINE
  5
F106D8
330
F106D9
100
AcDbEntity
8
Geo
100
AcDbLine
10
-91.2423931344834
20
4.21109219696026
30
0.000000000000000
11
-91.1423931344833
21
4.08429404698693
31
0.000000000000000
  0
LINE
  5
F106DA
330
F106DB
100
AcDbEntity
8
Geo
100
AcDbLine
10
-91.1423931344833
20
4.08429404698693
30
0.000000000000000
11
-91.0423931344833
21
3.95201947212951
31
0.000000000000000
  0
LINE
  5
F106DC
330
F106DD
100
AcDbEntity
8
Geo
100
AcDbLine
10
-91.0423931344833
20
3.95201947212951
30
0.000000000000000
11
-90.9423931344834
21
3.81446441052944
31
0.000000000000000
  0
LINE
  5
F106DE
330
F106DF
100
AcDbEntity
8
Geo
100
AcDbLine
10
-90.9423931344834
20
3.81446441052944
30
0.000000000000000
11
-90.8423931344833
21
3.67183262230573
31
0.000000000000000
  0
LINE
  5
F106E0
330
F106E1
100
AcDbEntity
8
Geo
100
AcDbLine
10
-90.8423931344833
20
3.67183262230573
30
0.000000000000000
11
-90.7423931344834
21
3.52433538772539
31
0.000000000000000
  0
LINE
  5
F106E2
330
F106E3
100
AcDbEntity
8
Geo
100
AcDbLine
10
-90.7423931344834
20
3.52433538772539
30
0.000000000000000
11
-90.6423931344833
21
3.37219119423427
31
0.000000000000000
  0
LINE
  5
F106E4
330
F106E5
100
AcDbEntity
8
Geo
100
AcDbLine
10
-90.6423931344833
20
3.37219119423427
30
0.000000000000000
11
-90.5423931344833
21
3.21562541281190
31
0.000000000000000
  0
LINE
  5
F106E6
330
F106E7
100
AcDbEntity
8
Geo
100
AcDbLine
10
-90.5423931344833
20
3.21562541281190
30
0.000000000000000
11
-90.4423931344834
21
3.05486996412978
31
0.000000000000000
  0
LINE
  5
F106E8
330
F106E9
100
AcDbEntity
8
Geo
100
AcDbLine
10
-90.4423931344834
20
3.05486996412978
30
0.000000000000000
11
-90.3423931344833
21
2.89016297500763
31
0.000000000000000
  0
LINE
  5
F106EA
330
F106EB
100
AcDbEntity
8
Geo
100
AcDbLine
10
-90.3423931344833
20
2.89016297500763
30
0.000000000000000
11
-90.2423931344834
21
2.72174842567647
31
0.000000000000000
  0
LINE
  5
F106EC
330
F106ED
100
AcDbEntity
8
Geo
100
AcDbLine
10
-90.2423931344834
20
2.72174842567647
30
0.000000000000000
11
-90.1423931344834
21
2.54987578837101
31
0.000000000000000
  0
LINE
  5
F106EE
330
F106EF
100
AcDbEntity
8
Geo
100
AcDbLine
10
-90.1423931344834
20
2.54987578837101
30
0.000000000000000
11
-90.0423931344833
21
2.37479965778682
31
0.000000000000000
  0
LINE
  5
F106F0
330
F106F1
100
AcDbEntity
8
Geo
100
AcDbLine
10
-90.0423931344833
20
2.37479965778682
30
0.000000000000000
11
-89.9423931344834
21
2.19677937394956
31
0.000000000000000
  0
LINE
  5
F106F2
330
F106F3
100
AcDbEntity
8
Geo
100
AcDbLine
10
-89.9423931344834
20
2.19677937394956
30
0.000000000000000
11
-89.8423931344834
21
2.01607863805495
31
0.000000000000000
  0
LINE
  5
F106F4
330
F106F5
100
AcDbEntity
8
Geo
100
AcDbLine
10
-89.8423931344834
20
2.01607863805495
30
0.000000000000000
11
-89.7423931344834
21
1.83296512184855
31
0.000000000000000
  0
LINE
  5
F106F6
330
F106F7
100
AcDbEntity
8
Geo
100
AcDbLine
10
-89.7423931344834
20
1.83296512184855
30
0.000000000000000
11
-89.6423931344834
21
1.64771007112402
31
0.000000000000000
  0
LINE
  5
F106F8
330
F106F9
100
AcDbEntity
8
Geo
100
AcDbLine
10
-89.6423931344834
20
1.64771007112402
30
0.000000000000000
11
-89.5423931344833
21
1.46058790392709
31
0.000000000000000
  0
LINE
  5
F106FA
330
F106FB
100
AcDbEntity
8
Geo
100
AcDbLine
10
-89.5423931344833
20
1.46058790392709
30
0.000000000000000
11
-89.4423931344834
21
1.27187580406046
31
0.000000000000000
  0
LINE
  5
F106FC
330
F106FD
100
AcDbEntity
8
Geo
100
AcDbLine
10
-89.4423931344834
20
1.27187580406046
30
0.000000000000000
11
-89.3423931344834
21
1.08185331049189
31
0.000000000000000
  0
LINE
  5
F106FE
330
F106FF
100
AcDbEntity
8
Geo
100
AcDbLine
10
-89.3423931344834
20
1.08185331049189
30
0.000000000000000
11
-89.2423931344834
21
0.890801903273461
31
0.000000000000000
  0
LINE
  5
F10700
330
F10701
100
AcDbEntity
8
Geo
100
AcDbLine
10
-89.2423931344834
20
0.890801903273461
30
0.000000000000000
11
-89.1423931344834
21
0.699004586585604
31
0.000000000000000
  0
LINE
  5
F10702
330
F10703
100
AcDbEntity
8
Geo
100
AcDbLine
10
-89.1423931344834
20
0.699004586585604
30
0.000000000000000
11
-89.0423931344833
21
0.506745469523394
31
0.000000000000000
  0
LINE
  5
F10704
330
F10705
100
AcDbEntity
8
Geo
100
AcDbLine
10
-89.0423931344833
20
0.506745469523394
30
0.000000000000000
11
-88.9423931344834
21
0.314309345246146
31
0.000000000000000
  0
LINE
  5
F10706
330
F10707
100
AcDbEntity
8
Geo
100
AcDbLine
10
-88.9423931344834
20
0.314309345246146
30
0.000000000000000
11
-88.8423931344834
21
0.121981269113728
31
0.000000000000000
  0
LINE
  5
F10708
330
F10709
100
AcDbEntity
8
Geo
100
AcDbLine
10
-88.8423931344834
20
0.121981269113728
30
0.000000000000000
11
-88.7423931344834
21
-0.0699538635655710
31
0.000000000000000
  0
LINE
  5
F1070A
330
F1070B
100
AcDbEntity
8
Geo
100
AcDbLine
10
-88.7423931344834
20
-0.0699538635655710
30
0.000000000000000
11
-88.6423931344834
21
-0.261211739550042
31
0.000000000000000
  0
LINE
  5
F1070C
330
F1070D
100
AcDbEntity
8
Geo
100
AcDbLine
10
-88.6423931344834
20
-0.261211739550042
30
0.000000000000000
11
-88.5423931344834
21
-0.451509048817364
31
0.000000000000000
  0
LINE
  5
F1070E
330
F1070F
100
AcDbEntity
8
Geo
100
AcDbLine
10
-88.5423931344834
20
-0.451509048817364
30
0.000000000000000
11
-88.4423931344834
21
-0.640563904231340
31
0.000000000000000
  0
LINE
  5
F10710
330
F10711
100
AcDbEntity
8
Geo
100
AcDbLine
10
-88.4423931344834
20
-0.640563904231340
30
0.000000000000000
11
-88.3423931344834
21
-0.828096259100917
31
0.000000000000000
  0
LINE
  5
F10712
330
F10713
100
AcDbEntity
8
Geo
100
AcDbLine
10
-88.3423931344834
20
-0.828096259100917
30
0.000000000000000
11
-88.2423931344834
21
-1.01382832201295
31
0.000000000000000
  0
LINE
  5
F10714
330
F10715
100
AcDbEntity
8
Geo
100
AcDbLine
10
-88.2423931344834
20
-1.01382832201295
30
0.000000000000000
11
-88.1423931344834
21
-1.19748496832425
31
0.000000000000000
  0
LINE
  5
F10716
330
F10717
100
AcDbEntity
8
Geo
100
AcDbLine
10
-88.1423931344834
20
-1.19748496832425
30
0.000000000000000
11
-88.0423931344834
21
-1.37879414770329
31
0.000000000000000
  0
LINE
  5
F10718
330
F10719
100
AcDbEntity
8
Geo
100
AcDbLine
10
-88.0423931344834
20
-1.37879414770329
30
0.000000000000000
11
-87.9423931344834
21
-1.55748728711803
31
0.000000000000000
  0
LINE
  5
F1071A
330
F1071B
100
AcDbEntity
8
Geo
100
AcDbLine
10
-87.9423931344834
20
-1.55748728711803
30
0.000000000000000
11
-87.8423931344834
21
-1.73329968867273
31
0.000000000000000
  0
LINE
  5
F1071C
330
F1071D
100
AcDbEntity
8
Geo
100
AcDbLine
10
-87.8423931344834
20
-1.73329968867273
30
0.000000000000000
11
-87.7423931344834
21
-1.90597092170458
31
0.000000000000000
  0
LINE
  5
F1071E
330
F1071F
100
AcDbEntity
8
Geo
100
AcDbLine
10
-87.7423931344834
20
-1.90597092170458
30
0.000000000000000
11
-87.6423931344834
21
-2.07524520855929
31
0.000000000000000
  0
LINE
  5
F10720
330
F10721
100
AcDbEntity
8
Geo
100
AcDbLine
10
-87.6423931344834
20
-2.07524520855929
30
0.000000000000000
11
-87.5423931344834
21
-2.24087180347416
31
0.000000000000000
  0
LINE
  5
F10722
330
F10723
100
AcDbEntity
8
Geo
100
AcDbLine
10
-87.5423931344834
20
-2.24087180347416
30
0.000000000000000
11
-87.4423931344834
21
-2.40260536400742
31
0.000000000000000
  0
LINE
  5
F10724
330
F10725
100
AcDbEntity
8
Geo
100
AcDbLine
10
-87.4423931344834
20
-2.40260536400742
30
0.000000000000000
11
-87.3423931344834
21
-2.56020631446363
31
0.000000000000000
  0
LINE
  5
F10726
330
F10727
100
AcDbEntity
8
Geo
100
AcDbLine
10
-87.3423931344834
20
-2.56020631446363
30
0.000000000000000
11
-87.2423931344834
21
-2.71344120077685
31
0.000000000000000
  0
LINE
  5
F10728
330
F10729
100
AcDbEntity
8
Geo
100
AcDbLine
10
-87.2423931344834
20
-2.71344120077685
30
0.000000000000000
11
-87.1423931344834
21
-2.86208303632581
31
0.000000000000000
  0
LINE
  5
F1072A
330
F1072B
100
AcDbEntity
8
Geo
100
AcDbLine
10
-87.1423931344834
20
-2.86208303632581
30
0.000000000000000
11
-87.0423931344834
21
-3.00591163816887
31
0.000000000000000
  0
LINE
  5
F1072C
330
F1072D
100
AcDbEntity
8
Geo
100
AcDbLine
10
-87.0423931344834
20
-3.00591163816887
30
0.000000000000000
11
-86.9423931344834
21
-3.14471395320068
31
0.000000000000000
  0
LINE
  5
F1072E
330
F1072F
100
AcDbEntity
8
Geo
100
AcDbLine
10
-86.9423931344834
20
-3.14471395320068
30
0.000000000000000
11
-86.8423931344834
21
-3.27828437374749
31
0.000000000000000
  0
LINE
  5
F10730
330
F10731
100
AcDbEntity
8
Geo
100
AcDbLine
10
-86.8423931344834
20
-3.27828437374749
30
0.000000000000000
11
-86.7423931344834
21
-3.40642504213347
31
0.000000000000000
  0
LINE
  5
F10732
330
F10733
100
AcDbEntity
8
Geo
100
AcDbLine
10
-86.7423931344834
20
-3.40642504213347
30
0.000000000000000
11
-86.6423931344834
21
-3.52894614376701
31
0.000000000000000
  0
LINE
  5
F10734
330
F10735
100
AcDbEntity
8
Geo
100
AcDbLine
10
-86.6423931344834
20
-3.52894614376701
30
0.000000000000000
11
-86.5423931344834
21
-3.64566618831282
31
0.000000000000000
  0
LINE
  5
F10736
330
F10737
100
AcDbEntity
8
Geo
100
AcDbLine
10
-86.5423931344834
20
-3.64566618831282
30
0.000000000000000
11
-86.4423931344834
21
-3.75641227853332
31
0.000000000000000
  0
LINE
  5
F10738
330
F10739
100
AcDbEntity
8
Geo
100
AcDbLine
10
-86.4423931344834
20
-3.75641227853332
30
0.000000000000000
11
-86.3423931344834
21
-3.86102036640103
31
0.000000000000000
  0
LINE
  5
F1073A
330
F1073B
100
AcDbEntity
8
Geo
100
AcDbLine
10
-86.3423931344834
20
-3.86102036640103
30
0.000000000000000
11
-86.2423931344834
21
-3.95933549610273
31
0.000000000000000
  0
LINE
  5
F1073C
330
F1073D
100
AcDbEntity
8
Geo
100
AcDbLine
10
-86.2423931344834
20
-3.95933549610273
30
0.000000000000000
11
-86.1423931344834
21
-4.05121203357528
31
0.000000000000000
  0
LINE
  5
F1073E
330
F1073F
100
AcDbEntity
8
Geo
100
AcDbLine
10
-86.1423931344834
20
-4.05121203357528
30
0.000000000000000
11
-86.0423931344834
21
-4.13651388223310
31
0.000000000000000
  0
LINE
  5
F10740
330
F10741
100
AcDbEntity
8
Geo
100
AcDbLine
10
-86.0423931344834
20
-4.13651388223310
30
0.000000000000000
11
-85.9423931344834
21
-4.21511468456793
31
0.000000000000000
  0
LINE
  5
F10742
330
F10743
100
AcDbEntity
8
Geo
100
AcDbLine
10
-85.9423931344834
20
-4.21511468456793
30
0.000000000000000
11
-85.8423931344834
21
-4.28689800932196
31
0.000000000000000
  0
LINE
  5
F10744
330
F10745
100
AcDbEntity
8
Geo
100
AcDbLine
10
-85.8423931344834
20
-4.28689800932196
30
0.000000000000000
11
-85.7423931344834
21
-4.35175752395736
31
0.000000000000000
  0
LINE
  5
F10746
330
F10747
100
AcDbEntity
8
Geo
100
AcDbLine
10
-85.7423931344834
20
-4.35175752395736
30
0.000000000000000
11
-85.6423931344834
21
-4.40959715216643
31
0.000000000000000
  0
LINE
  5
F10748
330
F10749
100
AcDbEntity
8
Geo
100
AcDbLine
10
-85.6423931344834
20
-4.40959715216643
30
0.000000000000000
11
-85.5423931344834
21
-4.46033121618937
31
0.000000000000000
  0
LINE
  5
F1074A
330
F1074B
100
AcDbEntity
8
Geo
100
AcDbLine
10
-85.5423931344834
20
-4.46033121618937
30
0.000000000000000
11
-85.4423931344834
21
-4.50388456372860
31
0.000000000000000
  0
LINE
  5
F1074C
330
F1074D
100
AcDbEntity
8
Geo
100
AcDbLine
10
-85.4423931344834
20
-4.50388456372860
30
0.000000000000000
11
-85.3423931344834
21
-4.54019267927176
31
0.000000000000000
  0
LINE
  5
F1074E
330
F1074F
100
AcDbEntity
8
Geo
100
AcDbLine
10
-85.3423931344834
20
-4.54019267927176
30
0.000000000000000
11
-85.2423931344834
21
-4.56920177965843
31
0.000000000000000
  0
LINE
  5
F10750
330
F10751
100
AcDbEntity
8
Geo
100
AcDbLine
10
-85.2423931344834
20
-4.56920177965843
30
0.000000000000000
11
-85.1423931344834
21
-4.59086889374905
31
0.000000000000000
  0
LINE
  5
F10752
330
F10753
100
AcDbEntity
8
Geo
100
AcDbLine
10
-85.1423931344834
20
-4.59086889374905
30
0.000000000000000
11
-85.0423931344834
21
-4.60516192607806
31
0.000000000000000
  0
LINE
  5
F10754
330
F10755
100
AcDbEntity
8
Geo
100
AcDbLine
10
-85.0423931344834
20
-4.60516192607806
30
0.000000000000000
11
-84.9423931344834
21
-4.61205970439678
31
0.000000000000000
  0
LINE
  5
F10756
330
F10757
100
AcDbEntity
8
Geo
100
AcDbLine
10
-97.1423931344833
20
4.87856843879879
30
0.000000000000000
11
-97.0423931344833
21
5.17312495732633
31
0.000000000000000
  0
LINE
  5
F10758
330
F10759
100
AcDbEntity
8
Geo
100
AcDbLine
10
-97.1423931344833
20
0.338010460031529
30
0.000000000000000
11
-97.0423931344833
21
0.153674561734106
31
0.000000000000000
  0
LINE
  5
F1075A
330
F1075B
100
AcDbEntity
8
Geo
100
AcDbLine
10
-97.0423931344833
20
5.17312495732633
30
0.000000000000000
11
-96.9423931344833
21
5.26029601726981
31
0.000000000000000
  0
LINE
  5
F1075C
330
F1075D
100
AcDbEntity
8
Geo
100
AcDbLine
10
-97.0423931344833
20
0.153674561734106
30
0.000000000000000
11
-96.9423931344833
21
-0.0380057432150032
31
0.000000000000000
  0
LINE
  5
F1075E
330
F1075F
100
AcDbEntity
8
Geo
100
AcDbLine
10
-96.9423931344833
20
5.26029601726981
30
0.000000000000000
11
-96.8423931344833
21
5.29819232424128
31
0.000000000000000
  0
LINE
  5
F10760
330
F10761
100
AcDbEntity
8
Geo
100
AcDbLine
10
-96.9423931344833
20
-0.0380057432150032
30
0.000000000000000
11
-96.8423931344833
21
-0.231920130430372
31
0.000000000000000
  0
LINE
  5
F10762
330
F10763
100
AcDbEntity
8
Geo
100
AcDbLine
10
-96.8423931344833
20
5.29819232424128
30
0.000000000000000
11
-96.7423931344833
21
5.30199514294609
31
0.000000000000000
  0
LINE
  5
F10764
330
F10765
100
AcDbEntity
8
Geo
100
AcDbLine
10
-96.8423931344833
20
-0.231920130430372
30
0.000000000000000
11
-96.7423931344833
21
-0.425289231716452
31
0.000000000000000
  0
LINE
  5
F10766
330
F10767
100
AcDbEntity
8
Geo
100
AcDbLine
10
-96.7423931344833
20
5.30199514294609
30
0.000000000000000
11
-96.6423931344833
21
5.27700363347509
31
0.000000000000000
  0
LINE
  5
F10768
330
F10769
100
AcDbEntity
8
Geo
100
AcDbLine
10
-96.7423931344833
20
-0.425289231716452
30
0.000000000000000
11
-96.6423931344833
21
-0.615741477810265
31
0.000000000000000
  0
LINE
  5
F1076A
330
F1076B
100
AcDbEntity
8
Geo
100
AcDbLine
10
-96.6423931344833
20
5.27700363347509
30
0.000000000000000
11
-96.5423931344833
21
5.23478638035013
31
0.000000000000000
  0
LINE
  5
F1076C
330
F1076D
100
AcDbEntity
8
Geo
100
AcDbLine
10
-96.6423931344833
20
-0.615741477810265
30
0.000000000000000
11
-96.5423931344833
21
-0.803158817386098
31
0.000000000000000
  0
LINE
  5
F1076E
330
F1076F
100
AcDbEntity
8
Geo
100
AcDbLine
10
-96.5423931344833
20
5.23478638035013
30
0.000000000000000
11
-96.4423931344833
21
5.18538847966806
31
0.000000000000000
  0
LINE
  5
F10770
330
F10771
100
AcDbEntity
8
Geo
100
AcDbLine
10
-96.5423931344833
20
-0.803158817386098
30
0.000000000000000
11
-96.4423931344833
21
-0.988812804801679
31
0.000000000000000
  0
LINE
  5
F10772
330
F10773
100
AcDbEntity
8
Geo
100
AcDbLine
10
-96.4423931344833
20
5.18538847966806
30
0.000000000000000
11
-96.3423931344833
21
5.12888310446960
31
0.000000000000000
  0
LINE
  5
F10774
330
F10775
100
AcDbEntity
8
Geo
100
AcDbLine
10
-96.4423931344833
20
-0.988812804801679
30
0.000000000000000
11
-96.3423931344833
21
-1.17242843106693
31
0.000000000000000
  0
LINE
  5
F10776
330
F10777
100
AcDbEntity
8
Geo
100
AcDbLine
10
-96.3423931344833
20
5.12888310446960
30
0.000000000000000
11
-96.2423931344833
21
5.06535395608744
31
0.000000000000000
  0
LINE
  5
F10778
330
F10779
100
AcDbEntity
8
Geo
100
AcDbLine
10
-96.3423931344833
20
-1.17242843106693
30
0.000000000000000
11
-96.2423931344833
21
-1.35373370661328
31
0.000000000000000
  0
LINE
  5
F1077A
330
F1077B
100
AcDbEntity
8
Geo
100
AcDbLine
10
-96.2423931344833
20
5.06535395608744
30
0.000000000000000
11
-96.1423931344833
21
4.99489514015961
31
0.000000000000000
  0
LINE
  5
F1077C
330
F1077D
100
AcDbEntity
8
Geo
100
AcDbLine
10
-96.2423931344833
20
-1.35373370661328
30
0.000000000000000
11
-96.1423931344833
21
-1.53246006419142
31
0.000000000000000
  0
LINE
  5
F1077E
330
F1077F
100
AcDbEntity
8
Geo
100
AcDbLine
10
-96.1423931344833
20
4.99489514015961
30
0.000000000000000
11
-96.0423931344833
21
4.91761102723090
31
0.000000000000000
  0
LINE
  5
F10780
330
F10781
100
AcDbEntity
8
Geo
100
AcDbLine
10
-96.1423931344833
20
-1.53246006419142
30
0.000000000000000
11
-96.0423931344833
21
-1.70834275669958
31
0.000000000000000
  0
LINE
  5
F10782
330
F10783
100
AcDbEntity
8
Geo
100
AcDbLine
10
-96.0423931344833
20
4.91761102723090
30
0.000000000000000
11
-95.9423931344833
21
4.83361609814893
31
0.000000000000000
  0
LINE
  5
F10784
330
F10785
100
AcDbEntity
8
Geo
100
AcDbLine
10
-96.0423931344833
20
-1.70834275669958
30
0.000000000000000
11
-95.9423931344833
21
-1.88112124935308
31
0.000000000000000
  0
LINE
  5
F10786
330
F10787
100
AcDbEntity
8
Geo
100
AcDbLine
10
-95.9423931344833
20
4.83361609814893
30
0.000000000000000
11
-95.8423931344833
21
4.74303477448387
31
0.000000000000000
  0
LINE
  5
F10788
330
F10789
100
AcDbEntity
8
Geo
100
AcDbLine
10
-95.9423931344833
20
-1.88112124935308
30
0.000000000000000
11
-95.8423931344833
21
-2.05053960561410
31
0.000000000000000
  0
LINE
  5
F1078A
330
F1078B
100
AcDbEntity
8
Geo
100
AcDbLine
10
-95.8423931344833
20
4.74303477448387
30
0.000000000000000
11
-95.7423931344833
21
4.64600123422288
31
0.000000000000000
  0
LINE
  5
F1078C
330
F1078D
100
AcDbEntity
8
Geo
100
AcDbLine
10
-95.8423931344833
20
-2.05053960561410
30
0.000000000000000
11
-95.7423931344833
21
-2.21634686631012
31
0.000000000000000
  0
LINE
  5
F1078E
330
F1078F
100
AcDbEntity
8
Geo
100
AcDbLine
10
-95.7423931344833
20
4.64600123422288
30
0.000000000000000
11
-95.6423931344833
21
4.54265921301247
31
0.000000000000000
  0
LINE
  5
F10790
330
F10791
100
AcDbEntity
8
Geo
100
AcDbLine
10
-95.7423931344833
20
-2.21634686631012
30
0.000000000000000
11
-95.6423931344833
21
-2.37829742137940
31
0.000000000000000
  0
LINE
  5
F10792
330
F10793
100
AcDbEntity
8
Geo
100
AcDbLine
10
-95.6423931344833
20
4.54265921301247
30
0.000000000000000
11
-95.5423931344833
21
4.43316179124313
31
0.000000000000000
  0
LINE
  5
F10794
330
F10795
100
AcDbEntity
8
Geo
100
AcDbLine
10
-95.6423931344833
20
-2.37829742137940
30
0.000000000000000
11
-95.5423931344833
21
-2.53615137369282
31
0.000000000000000
  0
LINE
  5
F10796
330
F10797
100
AcDbEntity
8
Geo
100
AcDbLine
10
-95.5423931344833
20
4.43316179124313
30
0.000000000000000
11
-95.4423931344833
21
4.31767116729149
31
0.000000000000000
  0
LINE
  5
F10798
330
F10799
100
AcDbEntity
8
Geo
100
AcDbLine
10
-95.5423931344833
20
-2.53615137369282
30
0.000000000000000
11
-95.4423931344833
21
-2.68967489441313
31
0.000000000000000
  0
LINE
  5
F1079A
330
F1079B
100
AcDbEntity
8
Geo
100
AcDbLine
10
-95.4423931344833
20
4.31767116729149
30
0.000000000000000
11
-95.3423931344833
21
4.19635841725616
31
0.000000000000000
  0
LINE
  5
F1079C
330
F1079D
100
AcDbEntity
8
Geo
100
AcDbLine
10
-95.4423931344833
20
-2.68967489441313
30
0.000000000000000
11
-95.3423931344833
21
-2.83864056936533
31
0.000000000000000
  0
LINE
  5
F1079E
330
F1079F
100
AcDbEntity
8
Geo
100
AcDbLine
10
-95.3423931344833
20
4.19635841725616
30
0.000000000000000
11
-95.2423931344833
21
4.06940324154289
31
0.000000000000000
  0
LINE
  5
F107A0
330
F107A1
100
AcDbEntity
8
Geo
100
AcDbLine
10
-95.3423931344833
20
-2.83864056936533
30
0.000000000000000
11
-95.2423931344833
21
-2.98282773590492
31
0.000000000000000
  0
LINE
  5
F107A2
330
F107A3
100
AcDbEntity
8
Geo
100
AcDbLine
10
-95.2423931344833
20
4.06940324154289
30
0.000000000000000
11
-95.1423931344833
21
3.93699369867467
31
0.000000000000000
  0
LINE
  5
F107A4
330
F107A5
100
AcDbEntity
8
Geo
100
AcDbLine
10
-95.2423931344833
20
-2.98282773590492
30
0.000000000000000
11
-95.1423931344833
21
-3.12202280978517
31
0.000000000000000
  0
LINE
  5
F107A6
330
F107A7
100
AcDbEntity
8
Geo
100
AcDbLine
10
-95.1423931344833
20
3.93699369867467
30
0.000000000000000
11
-95.0423931344833
21
3.79932592672086
31
0.000000000000000
  0
LINE
  5
F107A8
330
F107A9
100
AcDbEntity
8
Geo
100
AcDbLine
10
-95.1423931344833
20
-3.12202280978517
30
0.000000000000000
11
-95.0423931344833
21
-3.25601960153921
31
0.000000000000000
  0
LINE
  5
F107AA
330
F107AB
100
AcDbEntity
8
Geo
100
AcDbLine
10
-95.0423931344833
20
3.79932592672086
30
0.000000000000000
11
-94.9423931344833
21
3.65660385275816
31
0.000000000000000
  0
LINE
  5
F107AC
330
F107AD
100
AcDbEntity
8
Geo
100
AcDbLine
10
-95.0423931344833
20
-3.25601960153921
30
0.000000000000000
11
-94.9423931344833
21
-3.38461962190812
31
0.000000000000000
  0
LINE
  5
F107AE
330
F107AF
100
AcDbEntity
8
Geo
100
AcDbLine
10
-94.9423931344833
20
3.65660385275816
30
0.000000000000000
11
-94.8423931344833
21
3.50903889079371
31
0.000000000000000
  0
LINE
  5
F107B0
330
F107B1
100
AcDbEntity
8
Geo
100
AcDbLine
10
-94.9423931344833
20
-3.38461962190812
30
0.000000000000000
11
-94.8423931344833
21
-3.50763237586286
31
0.000000000000000
  0
LINE
  5
F107B2
330
F107B3
100
AcDbEntity
8
Geo
100
AcDbLine
10
-94.8423931344833
20
3.50903889079371
30
0.000000000000000
11
-94.7423931344833
21
3.35684962859783
31
0.000000000000000
  0
LINE
  5
F107B4
330
F107B5
100
AcDbEntity
8
Geo
100
AcDbLine
10
-94.8423931344833
20
-3.50763237586286
30
0.000000000000000
11
-94.7423931344833
21
-3.62487564478425
31
0.000000000000000
  0
LINE
  5
F107B6
330
F107B7
100
AcDbEntity
8
Geo
100
AcDbLine
10
-94.7423931344833
20
3.35684962859783
30
0.000000000000000
11
-94.6423931344833
21
3.20026150391027
31
0.000000000000000
  0
LINE
  5
F107B8
330
F107B9
100
AcDbEntity
8
Geo
100
AcDbLine
10
-94.7423931344833
20
-3.62487564478425
30
0.000000000000000
11
-94.6423931344833
21
-3.73617575638318
31
0.000000000000000
  0
LINE
  5
F107BA
330
F107BB
100
AcDbEntity
8
Geo
100
AcDbLine
10
-94.6423931344833
20
3.20026150391027
30
0.000000000000000
11
-94.5423931344833
21
3.03950647049958
31
0.000000000000000
  0
LINE
  5
F107BC
330
F107BD
100
AcDbEntity
8
Geo
100
AcDbLine
10
-94.6423931344833
20
-3.73617575638318
30
0.000000000000000
11
-94.5423931344833
21
-3.84136784196107
31
0.000000000000000
  0
LINE
  5
F107BE
330
F107BF
100
AcDbEntity
8
Geo
100
AcDbLine
10
-94.5423931344833
20
3.03950647049958
30
0.000000000000000
11
-94.4423931344833
21
2.87482265457034
31
0.000000000000000
  0
LINE
  5
F107C0
330
F107C1
100
AcDbEntity
8
Geo
100
AcDbLine
10
-94.5423931344833
20
-3.84136784196107
30
0.000000000000000
11
-94.4423931344833
21
-3.94029608062974
31
0.000000000000000
  0
LINE
  5
F107C2
330
F107C3
100
AcDbEntity
8
Geo
100
AcDbLine
10
-94.4423931344833
20
2.87482265457034
30
0.000000000000000
11
-94.3423931344833
21
2.70645400202714
31
0.000000000000000
  0
LINE
  5
F107C4
330
F107C5
100
AcDbEntity
8
Geo
100
AcDbLine
10
-94.4423931344833
20
-3.94029608062974
30
0.000000000000000
11
-94.3423931344833
21
-4.03281393012857
31
0.000000000000000
  0
LINE
  5
F107C6
330
F107C7
100
AcDbEntity
8
Geo
100
AcDbLine
10
-94.3423931344833
20
2.70645400202714
30
0.000000000000000
11
-94.2423931344833
21
2.53464991711786
31
0.000000000000000
  0
LINE
  5
F107C8
330
F107C9
100
AcDbEntity
8
Geo
100
AcDbLine
10
-94.3423931344833
20
-4.03281393012857
30
0.000000000000000
11
-94.2423931344833
21
-4.11878434389740
31
0.000000000000000
  0
LINE
  5
F107CA
330
F107CB
100
AcDbEntity
8
Geo
100
AcDbLine
10
-94.2423931344833
20
2.53464991711786
30
0.000000000000000
11
-94.1423931344833
21
2.35966489299149
31
0.000000000000000
  0
LINE
  5
F107CC
330
F107CD
100
AcDbEntity
8
Geo
100
AcDbLine
10
-94.2423931344833
20
-4.11878434389740
30
0.000000000000000
11
-94.1423931344833
21
-4.19807997408340
31
0.000000000000000
  0
LINE
  5
F107CE
330
F107CF
100
AcDbEntity
8
Geo
100
AcDbLine
10
-94.1423931344833
20
2.35966489299149
30
0.000000000000000
11
-94.0423931344833
21
2.18175813471783
31
0.000000000000000
  0
LINE
  5
F107D0
330
F107D1
100
AcDbEntity
8
Geo
100
AcDbLine
10
-94.1423931344833
20
-4.19807997408340
30
0.000000000000000
11
-94.0423931344833
21
-4.27058336018126
31
0.000000000000000
  0
LINE
  5
F107D2
330
F107D3
100
AcDbEntity
8
Geo
100
AcDbLine
10
-94.0423931344833
20
2.18175813471783
30
0.000000000000000
11
-93.9423931344833
21
2.00119317532732
31
0.000000000000000
  0
LINE
  5
F107D4
330
F107D5
100
AcDbEntity
8
Geo
100
AcDbLine
10
-94.0423931344833
20
-4.27058336018126
30
0.000000000000000
11
-93.9423931344833
21
-4.33618710302726
31
0.000000000000000
  0
LINE
  5
F107D6
330
F107D7
100
AcDbEntity
8
Geo
100
AcDbLine
10
-93.9423931344833
20
2.00119317532732
30
0.000000000000000
11
-93.8423931344833
21
1.81823748544001
31
0.000000000000000
  0
LINE
  5
F107D8
330
F107D9
100
AcDbEntity
8
Geo
100
AcDbLine
10
-93.9423931344833
20
-4.33618710302726
30
0.000000000000000
11
-93.8423931344833
21
-4.39479402388954
31
0.000000000000000
  0
LINE
  5
F107DA
330
F107DB
100
AcDbEntity
8
Geo
100
AcDbLine
10
-93.8423931344833
20
1.81823748544001
30
0.000000000000000
11
-93.7423931344833
21
1.63316207706163
31
0.000000000000000
  0
LINE
  5
F107DC
330
F107DD
100
AcDbEntity
8
Geo
100
AcDbLine
10
-93.8423931344833
20
-4.39479402388954
30
0.000000000000000
11
-93.7423931344833
21
-4.44631730841876
31
0.000000000000000
  0
LINE
  5
F107DE
330
F107DF
100
AcDbEntity
8
Geo
100
AcDbLine
10
-93.7423931344833
20
1.63316207706163
30
0.000000000000000
11
-93.6423931344833
21
1.44624110213397
31
0.000000000000000
  0
LINE
  5
F107E0
330
F107E1
100
AcDbEntity
8
Geo
100
AcDbLine
10
-93.7423931344833
20
-4.44631730841876
30
0.000000000000000
11
-93.6423931344833
21
-4.49068063524611
31
0.000000000000000
  0
LINE
  5
F107E2
330
F107E3
100
AcDbEntity
8
Geo
100
AcDbLine
10
-93.6423931344833
20
1.44624110213397
30
0.000000000000000
11
-93.5423931344833
21
1.25775144643390
31
0.000000000000000
  0
LINE
  5
F107E4
330
F107E5
100
AcDbEntity
8
Geo
100
AcDbLine
10
-93.6423931344833
20
-4.49068063524611
30
0.000000000000000
11
-93.5423931344833
21
-4.52781828903805
31
0.000000000000000
  0
LINE
  5
F107E6
330
F107E7
100
AcDbEntity
8
Geo
100
AcDbLine
10
-93.5423931344833
20
1.25775144643390
30
0.000000000000000
11
-93.4423931344833
21
1.06797231942295
31
0.000000000000000
  0
LINE
  5
F107E8
330
F107E9
100
AcDbEntity
8
Geo
100
AcDbLine
10
-93.5423931344833
20
-4.52781828903805
30
0.000000000000000
11
-93.4423931344833
21
-4.55767525784033
31
0.000000000000000
  0
LINE
  5
F107EA
330
F107EB
100
AcDbEntity
8
Geo
100
AcDbLine
10
-93.4423931344833
20
1.06797231942295
30
0.000000000000000
11
-93.3423931344833
21
0.877184840654654
31
0.000000000000000
  0
LINE
  5
F107EC
330
F107ED
100
AcDbEntity
8
Geo
100
AcDbLine
10
-93.4423931344833
20
-4.55767525784033
30
0.000000000000000
11
-93.3423931344833
21
-4.58020731456710
31
0.000000000000000
  0
LINE
  5
F107EE
330
F107EF
100
AcDbEntity
8
Geo
100
AcDbLine
10
-93.3423931344833
20
0.877184840654654
30
0.000000000000000
11
-93.2423931344833
21
0.685671623352611
31
0.000000000000000
  0
LINE
  5
F107F0
330
F107F1
100
AcDbEntity
8
Geo
100
AcDbLine
10
-93.3423931344833
20
-4.58020731456710
30
0.000000000000000
11
-93.2423931344833
21
-4.59538108251447
31
0.000000000000000
  0
LINE
  5
F107F2
330
F107F3
100
AcDbEntity
8
Geo
100
AcDbLine
10
-93.2423931344833
20
0.685671623352611
30
0.000000000000000
11
-93.1423931344833
21
0.493716355775875
31
0.000000000000000
  0
LINE
  5
F107F4
330
F107F5
100
AcDbEntity
8
Geo
100
AcDbLine
10
-93.2423931344833
20
-4.59538108251447
30
0.000000000000000
11
-93.1423931344833
21
-4.60317408480136
31
0.000000000000000
  0
LINE
  5
F107F6
330
F107F7
100
AcDbEntity
8
Geo
100
AcDbLine
10
-93.1423931344833
20
0.493716355775875
30
0.000000000000000
11
-93.0423931344833
21
0.301603380991950
31
0.000000000000000
  0
LINE
  5
F107F8
330
F107F9
100
AcDbEntity
8
Geo
100
AcDbLine
10
-93.0423931344833
20
0.301603380991950
30
0.000000000000000
11
-92.9423931344833
21
0.109617275679803
31
0.000000000000000
  0
LINE
  5
F107FA
330
F107FB
100
AcDbEntity
8
Geo
100
AcDbLine
10
-93.0423931344833
20
5.37807647302872
30
0.000000000000000
11
-92.9423931344833
21
5.37108426292224
31
0.000000000000000
  0
LINE
  5
F107FC
330
F107FD
100
AcDbEntity
8
Geo
100
AcDbLine
10
-92.9423931344833
20
0.109617275679803
30
0.000000000000000
11
-92.8423931344833
21
-0.0819575714131642
31
0.000000000000000
  0
LINE
  5
F107FE
330
F107FF
100
AcDbEntity
8
Geo
100
AcDbLine
10
-92.9423931344833
20
5.37108426292224
30
0.000000000000000
11
-92.8423931344833
21
5.35670950739716
31
0.000000000000000
  0
LINE
  5
F10800
330
F10801
100
AcDbEntity
8
Geo
100
AcDbLine
10
-92.8423931344833
20
-0.0819575714131642
30
0.000000000000000
11
-92.7423931344833
21
-0.272837380735777
31
0.000000000000000
  0
LINE
  5
F10802
330
F10803
100
AcDbEntity
8
Geo
100
AcDbLine
10
-92.8423931344833
20
5.35670950739716
30
0.000000000000000
11
-92.7423931344833
21
5.33497349975861
31
0.000000000000000
  0
LINE
  5
F10804
330
F10805
100
AcDbEntity
8
Geo
100
AcDbLine
10
-92.7423931344833
20
-0.272837380735777
30
0.000000000000000
11
-92.6423931344833
21
-0.462739402295324
31
0.000000000000000
  0
LINE
  5
F10806
330
F10807
100
AcDbEntity
8
Geo
100
AcDbLine
10
-92.7423931344833
20
5.33497349975861
30
0.000000000000000
11
-92.6423931344833
21
5.30590843752409
31
0.000000000000000
  0
LINE
  5
F10808
330
F10809
100
AcDbEntity
8
Geo
100
AcDbLine
10
-92.6423931344833
20
-0.462739402295324
30
0.000000000000000
11
-92.5423931344833
21
-0.651382334494736
31
0.000000000000000
  0
LINE
  5
F1080A
330
F1080B
100
AcDbEntity
8
Geo
100
AcDbLine
10
-92.6423931344833
20
5.30590843752409
30
0.000000000000000
11
-92.5423931344833
21
5.26955737472934
31
0.000000000000000
  0
LINE
  5
F1080C
330
F1080D
100
AcDbEntity
8
Geo
100
AcDbLine
10
-92.5423931344833
20
-0.651382334494736
30
0.000000000000000
11
-92.4423931344833
21
-0.838486740824237
31
0.000000000000000
  0
LINE
  5
F1080E
330
F1080F
100
AcDbEntity
8
Geo
100
AcDbLine
10
-92.5423931344833
20
5.26955737472934
30
0.000000000000000
11
-92.4423931344833
21
5.22597415815249
31
0.000000000000000
  0
LINE
  5
F10810
330
F10811
100
AcDbEntity
8
Geo
100
AcDbLine
10
-92.4423931344833
20
-0.838486740824237
30
0.000000000000000
11
-92.3423931344833
21
-1.02377546379025
31
0.000000000000000
  0
LINE
  5
F10812
330
F10813
100
AcDbEntity
8
Geo
100
AcDbLine
10
-92.4423931344833
20
5.22597415815249
30
0.000000000000000
11
-92.3423931344833
21
5.17522334755086
31
0.000000000000000
  0
LINE
  5
F10814
330
F10815
100
AcDbEntity
8
Geo
100
AcDbLine
10
-92.3423931344833
20
-1.02377546379025
30
0.000000000000000
11
-92.2423931344833
21
-1.20697403546843
31
0.000000000000000
  0
LINE
  5
F10816
330
F10817
100
AcDbEntity
8
Geo
100
AcDbLine
10
-92.3423931344833
20
5.17522334755086
30
0.000000000000000
11
-92.2423931344833
21
5.11738012002873
31
0.000000000000000
  0
LINE
  5
F10818
330
F10819
100
AcDbEntity
8
Geo
100
AcDbLine
10
-92.2423931344833
20
-1.20697403546843
30
0.000000000000000
11
-92.1423931344833
21
-1.38781108407255
31
0.000000000000000
  0
LINE
  5
F1081A
330
F1081B
100
AcDbEntity
8
Geo
100
AcDbLine
10
-92.2423931344833
20
5.11738012002873
30
0.000000000000000
11
-92.1423931344833
21
5.05253015867755
31
0.000000000000000
  0
LINE
  5
F1081C
330
F1081D
100
AcDbEntity
8
Geo
100
AcDbLine
10
-92.1423931344833
20
-1.38781108407255
30
0.000000000000000
11
-92.0423931344833
21
-1.56601873593723
31
0.000000000000000
  0
LINE
  5
F1081E
330
F1081F
100
AcDbEntity
8
Geo
100
AcDbLine
10
-92.1423931344833
20
5.05253015867755
30
0.000000000000000
11
-92.0423931344833
21
4.98076952565374
31
0.000000000000000
  0
LINE
  5
F10820
330
F10821
100
AcDbEntity
8
Geo
100
AcDbLine
10
-92.0423931344833
20
-1.56601873593723
30
0.000000000000000
11
-91.9423931344833
21
-1.74133301231874
31
0.000000000000000
  0
LINE
  5
F10822
330
F10823
100
AcDbEntity
8
Geo
100
AcDbLine
10
-92.0423931344833
20
4.98076952565374
30
0.000000000000000
11
-91.9423931344833
21
4.90220451988192
31
0.000000000000000
  0
LINE
  5
F10824
330
F10825
100
AcDbEntity
8
Geo
100
AcDbLine
10
-91.9423931344833
20
-1.74133301231874
30
0.000000000000000
11
-91.8423931344833
21
-1.91349422042641
31
0.000000000000000
  0
LINE
  5
F10826
330
F10827
100
AcDbEntity
8
Geo
100
AcDbLine
10
-91.9423931344833
20
4.90220451988192
30
0.000000000000000
11
-91.8423931344833
21
4.81695151959449
31
0.000000000000000
  0
LINE
  5
F10828
330
F10829
100
AcDbEntity
8
Geo
100
AcDbLine
10
-91.8423931344833
20
-1.91349422042641
30
0.000000000000000
11
-91.7423931344834
21
-2.08224733810514
31
0.000000000000000
  0
LINE
  5
F1082A
330
F1082B
100
AcDbEntity
8
Geo
100
AcDbLine
10
-91.8423931344833
20
4.81695151959449
30
0.000000000000000
11
-91.7423931344834
21
4.72513680994070
31
0.000000000000000
  0
LINE
  5
F1082C
330
F1082D
100
AcDbEntity
8
Geo
100
AcDbLine
10
-91.7423931344834
20
-2.08224733810514
30
0.000000000000000
11
-91.6423931344833
21
-2.24734239159938
31
0.000000000000000
  0
LINE
  5
F1082E
330
F1082F
100
AcDbEntity
8
Geo
100
AcDbLine
10
-91.7423931344834
20
4.72513680994070
30
0.000000000000000
11
-91.6423931344833
21
4.62689639592065
31
0.000000000000000
  0
LINE
  5
F10830
330
F10831
100
AcDbEntity
8
Geo
100
AcDbLine
10
-91.6423931344833
20
-2.24734239159938
30
0.000000000000000
11
-91.5423931344833
21
-2.40853482583894
31
0.000000000000000
  0
LINE
  5
F10832
330
F10833
100
AcDbEntity
8
Geo
100
AcDbLine
10
-91.6423931344833
20
4.62689639592065
30
0.000000000000000
11
-91.5423931344833
21
4.52237580092126
31
0.000000000000000
  0
LINE
  5
F10834
330
F10835
100
AcDbEntity
8
Geo
100
AcDbLine
10
-91.5423931344833
20
-2.40853482583894
30
0.000000000000000
11
-91.4423931344834
21
-2.56558586669799
31
0.000000000000000
  0
LINE
  5
F10836
330
F10837
100
AcDbEntity
8
Geo
100
AcDbLine
10
-91.5423931344833
20
4.52237580092126
30
0.000000000000000
11
-91.4423931344834
21
4.41172985115269
31
0.000000000000000
  0
LINE
  5
F10838
330
F10839
100
AcDbEntity
8
Geo
100
AcDbLine
10
-91.4423931344834
20
-2.56558586669799
30
0.000000000000000
11
-91.3423931344833
21
-2.71826287469090
31
0.000000000000000
  0
LINE
  5
F1083A
330
F1083B
100
AcDbEntity
8
Geo
100
AcDbLine
10
-91.4423931344834
20
4.41172985115269
30
0.000000000000000
11
-91.3423931344833
21
4.29512244630450
31
0.000000000000000
  0
LINE
  5
F1083C
330
F1083D
100
AcDbEntity
8
Geo
100
AcDbLine
10
-91.3423931344833
20
-2.71826287469090
30
0.000000000000000
11
-91.2423931344834
21
-2.86633968958078
31
0.000000000000000
  0
LINE
  5
F1083E
330
F1083F
100
AcDbEntity
8
Geo
100
AcDbLine
10
-91.3423931344833
20
4.29512244630450
30
0.000000000000000
11
-91.2423931344834
21
4.17272631676125
31
0.000000000000000
  0
LINE
  5
F10840
330
F10841
100
AcDbEntity
8
Geo
100
AcDbLine
10
-91.2423931344834
20
-2.86633968958078
30
0.000000000000000
11
-91.1423931344833
21
-3.00959696539029
31
0.000000000000000
  0
LINE
  5
F10842
330
F10843
100
AcDbEntity
8
Geo
100
AcDbLine
10
-91.2423931344834
20
4.17272631676125
30
0.000000000000000
11
-91.1423931344833
21
4.04472276773725
31
0.000000000000000
  0
LINE
  5
F10844
330
F10845
100
AcDbEntity
8
Geo
100
AcDbLine
10
-91.1423931344833
20
-3.00959696539029
30
0.000000000000000
11
-91.0423931344833
21
-3.14782249531853
31
0.000000000000000
  0
LINE
  5
F10846
330
F10847
100
AcDbEntity
8
Geo
100
AcDbLine
10
-91.1423931344833
20
4.04472276773725
30
0.000000000000000
11
-91.0423931344833
21
3.91130141070938
31
0.000000000000000
  0
LINE
  5
F10848
330
F10849
100
AcDbEntity
8
Geo
100
AcDbLine
10
-91.0423931344833
20
-3.14782249531853
30
0.000000000000000
11
-90.9423931344834
21
-3.28081152608270
31
0.000000000000000
  0
LINE
  5
F1084A
330
F1084B
100
AcDbEntity
8
Geo
100
AcDbLine
10
-91.0423931344833
20
3.91130141070938
30
0.000000000000000
11
-90.9423931344834
21
3.77265988254590
31
0.000000000000000
  0
LINE
  5
F1084C
330
F1084D
100
AcDbEntity
8
Geo
100
AcDbLine
10
-90.9423931344834
20
-3.28081152608270
30
0.000000000000000
11
-90.8423931344833
21
-3.40836706121884
31
0.000000000000000
  0
LINE
  5
F1084E
330
F1084F
100
AcDbEntity
8
Geo
100
AcDbLine
10
-90.9423931344834
20
3.77265988254590
30
0.000000000000000
11
-90.8423931344833
21
3.62900355274720
31
0.000000000000000
  0
LINE
  5
F10850
330
F10851
100
AcDbEntity
8
Geo
100
AcDbLine
10
-90.8423931344833
20
-3.40836706121884
30
0.000000000000000
11
-90.7423931344834
21
-3.53030015289241
31
0.000000000000000
  0
LINE
  5
F10852
330
F10853
100
AcDbEntity
8
Geo
100
AcDbLine
10
-90.8423931344833
20
3.62900355274720
30
0.000000000000000
11
-90.7423931344834
21
3.48054521923229
31
0.000000000000000
  0
LINE
  5
F10854
330
F10855
100
AcDbEntity
8
Geo
100
AcDbLine
10
-90.7423931344834
20
-3.53030015289241
30
0.000000000000000
11
-90.6423931344833
21
-3.64643018178645
31
0.000000000000000
  0
LINE
  5
F10856
330
F10857
100
AcDbEntity
8
Geo
100
AcDbLine
10
-90.7423931344834
20
3.48054521923229
30
0.000000000000000
11
-90.6423931344833
21
3.32750479312151
31
0.000000000000000
  0
LINE
  5
F10858
330
F10859
100
AcDbEntity
8
Geo
100
AcDbLine
10
-90.6423931344833
20
-3.64643018178645
30
0.000000000000000
11
-90.5423931344833
21
-3.75658512465271
31
0.000000000000000
  0
LINE
  5
F1085A
330
F1085B
100
AcDbEntity
8
Geo
100
AcDbLine
10
-90.6423931344833
20
3.32750479312151
30
0.000000000000000
11
-90.5423931344833
21
3.17010897298250
31
0.000000000000000
  0
LINE
  5
F1085C
330
F1085D
100
AcDbEntity
8
Geo
100
AcDbLine
10
-90.5423931344833
20
-3.75658512465271
30
0.000000000000000
11
-90.4423931344834
21
-3.86060180912947
31
0.000000000000000
  0
LINE
  5
F1085E
330
F1085F
100
AcDbEntity
8
Geo
100
AcDbLine
10
-90.5423931344833
20
3.17010897298250
30
0.000000000000000
11
-90.4423931344834
21
3.00859090902196
31
0.000000000000000
  0
LINE
  5
F10860
330
F10861
100
AcDbEntity
8
Geo
100
AcDbLine
10
-90.4423931344834
20
-3.86060180912947
30
0.000000000000000
11
-90.3423931344833
21
-3.95832615544853
31
0.000000000000000
  0
LINE
  5
F10862
330
F10863
100
AcDbEntity
8
Geo
100
AcDbLine
10
-90.4423931344834
20
3.00859090902196
30
0.000000000000000
11
-90.3423931344833
21
2.84318985772055
31
0.000000000000000
  0
LINE
  5
F10864
330
F10865
100
AcDbEntity
8
Geo
100
AcDbLine
10
-90.3423931344833
20
-3.95832615544853
30
0.000000000000000
11
-90.2423931344834
21
-4.04961340467331
31
0.000000000000000
  0
LINE
  5
F10866
330
F10867
100
AcDbEntity
8
Geo
100
AcDbLine
10
-90.3423931344833
20
2.84318985772055
30
0.000000000000000
11
-90.2423931344834
21
2.67415082742259
31
0.000000000000000
  0
LINE
  5
F10868
330
F10869
100
AcDbEntity
8
Geo
100
AcDbLine
10
-90.2423931344834
20
-4.04961340467331
30
0.000000000000000
11
-90.1423931344834
21
-4.13432833313011
31
0.000000000000000
  0
LINE
  5
F1086A
330
F1086B
100
AcDbEntity
8
Geo
100
AcDbLine
10
-90.2423931344834
20
2.67415082742259
30
0.000000000000000
11
-90.1423931344834
21
2.50172421540560
31
0.000000000000000
  0
LINE
  5
F1086C
330
F1086D
100
AcDbEntity
8
Geo
100
AcDbLine
10
-90.1423931344834
20
-4.13432833313011
30
0.000000000000000
11
-90.0423931344833
21
-4.21234545271472
31
0.000000000000000
  0
LINE
  5
F1086E
330
F1086F
100
AcDbEntity
8
Geo
100
AcDbLine
10
-90.1423931344834
20
2.50172421540560
30
0.000000000000000
11
-90.0423931344833
21
2.32616543696710
31
0.000000000000000
  0
LINE
  5
F10870
330
F10871
100
AcDbEntity
8
Geo
100
AcDbLine
10
-90.0423931344833
20
-4.21234545271472
30
0.000000000000000
11
-89.9423931344834
21
-4.28354919677779
31
0.000000000000000
  0
LINE
  5
F10872
330
F10873
100
AcDbEntity
8
Geo
100
AcDbLine
10
-90.0423931344833
20
2.32616543696710
30
0.000000000000000
11
-89.9423931344834
21
2.14773454707832
31
0.000000000000000
  0
LINE
  5
F10874
330
F10875
100
AcDbEntity
8
Geo
100
AcDbLine
10
-89.9423931344834
20
-4.28354919677779
30
0.000000000000000
11
-89.8423931344834
21
-4.34783409131352
31
0.000000000000000
  0
LINE
  5
F10876
330
F10877
100
AcDbEntity
8
Geo
100
AcDbLine
10
-89.9423931344834
20
2.14773454707832
30
0.000000000000000
11
-89.8423931344834
21
1.96669585516516
31
0.000000000000000
  0
LINE
  5
F10878
330
F10879
100
AcDbEntity
8
Geo
100
AcDbLine
10
-89.8423931344834
20
-4.34783409131352
30
0.000000000000000
11
-89.7423931344834
21
-4.40510491119817
31
0.000000000000000
  0
LINE
  5
F1087A
330
F1087B
100
AcDbEntity
8
Geo
100
AcDbLine
10
-89.8423931344834
20
1.96669585516516
30
0.000000000000000
11
-89.7423931344834
21
1.78331753358695
31
0.000000000000000
  0
LINE
  5
F1087C
330
F1087D
100
AcDbEntity
8
Geo
100
AcDbLine
10
-89.7423931344834
20
-4.40510491119817
30
0.000000000000000
11
-89.6423931344834
21
-4.45527682124692
31
0.000000000000000
  0
LINE
  5
F1087E
330
F1087F
100
AcDbEntity
8
Geo
100
AcDbLine
10
-89.7423931344834
20
1.78331753358695
30
0.000000000000000
11
-89.6423931344834
21
1.59787122039319
31
0.000000000000000
  0
LINE
  5
F10880
330
F10881
100
AcDbEntity
8
Geo
100
AcDbLine
10
-89.6423931344834
20
-4.45527682124692
30
0.000000000000000
11
-89.5423931344833
21
-4.49827550188007
31
0.000000000000000
  0
LINE
  5
F10882
330
F10883
100
AcDbEntity
8
Geo
100
AcDbLine
10
-89.6423931344834
20
1.59787122039319
30
0.000000000000000
11
-89.5423931344833
21
1.41063161694641
31
0.000000000000000
  0
LINE
  5
F10884
330
F10885
100
AcDbEntity
8
Geo
100
AcDbLine
10
-89.5423931344833
20
-4.49827550188007
30
0.000000000000000
11
-89.4423931344834
21
-4.53403725921256
31
0.000000000000000
  0
LINE
  5
F10886
330
F10887
100
AcDbEntity
8
Geo
100
AcDbLine
10
-89.5423931344833
20
1.41063161694641
30
0.000000000000000
11
-89.4423931344834
21
1.22187608100747
31
0.000000000000000
  0
LINE
  5
F10888
330
F10889
100
AcDbEntity
8
Geo
100
AcDbLine
10
-89.4423931344834
20
-4.53403725921256
30
0.000000000000000
11
-89.3423931344834
21
-4.56250911940361
31
0.000000000000000
  0
LINE
  5
F1088A
330
F1088B
100
AcDbEntity
8
Geo
100
AcDbLine
10
-89.4423931344834
20
1.22187608100747
30
0.000000000000000
11
-89.3423931344834
21
1.03188421588594
31
0.000000000000000
  0
LINE
  5
F1088C
330
F1088D
100
AcDbEntity
8
Geo
100
AcDbLine
10
-89.3423931344834
20
-4.56250911940361
30
0.000000000000000
11
-89.2423931344834
21
-4.58364890712685
31
0.000000000000000
  0
LINE
  5
F1088E
330
F1088F
100
AcDbEntity
8
Geo
100
AcDbLine
10
-89.3423931344834
20
1.03188421588594
30
0.000000000000000
11
-89.2423931344834
21
0.840937456264004
31
0.000000000000000
  0
LINE
  5
F10890
330
F10891
100
AcDbEntity
8
Geo
100
AcDbLine
10
-89.2423931344834
20
-4.58364890712685
30
0.000000000000000
11
-89.1423931344834
21
-4.59742530804447
31
0.000000000000000
  0
LINE
  5
F10892
330
F10893
100
AcDbEntity
8
Geo
100
AcDbLine
10
-89.2423931344834
20
0.840937456264004
30
0.000000000000000
11
-89.1423931344834
21
0.649318651307766
31
0.000000000000000
  0
LINE
  5
F10894
330
F10895
100
AcDbEntity
8
Geo
100
AcDbLine
10
-89.1423931344834
20
-4.59742530804447
30
0.000000000000000
11
-89.0423931344833
21
-4.60381791519320
31
0.000000000000000
  0
LINE
  5
F10896
330
F10897
100
AcDbEntity
8
Geo
100
AcDbLine
10
-89.1423931344834
20
0.649318651307766
30
0.000000000000000
11
-89.0423931344833
21
0.457311645683124
31
0.000000000000000
  0
LINE
  5
F10898
330
F10899
100
AcDbEntity
8
Geo
100
AcDbLine
10
-89.0423931344833
20
0.457311645683124
30
0.000000000000000
11
-88.9423931344834
21
0.265200859097074
31
0.000000000000000
  0
LINE
  5
F1089A
330
F1089B
100
AcDbEntity
8
Geo
100
AcDbLine
10
-88.9423931344834
20
5.37731895457737
30
0.000000000000000
11
-88.8423931344834
21
5.36892651773870
31
0.000000000000000
  0
LINE
  5
F1089C
330
F1089D
100
AcDbEntity
8
Geo
100
AcDbLine
10
-88.9423931344834
20
0.265200859097074
30
0.000000000000000
11
-88.8423931344834
21
0.0732708649872206
31
0.000000000000000
  0
LINE
  5
F1089E
330
F1089F
100
AcDbEntity
8
Geo
100
AcDbLine
10
-88.8423931344834
20
5.36892651773870
30
0.000000000000000
11
-88.7423931344834
21
5.35315473174634
31
0.000000000000000
  0
LINE
  5
F108A0
330
F108A1
100
AcDbEntity
8
Geo
100
AcDbLine
10
-88.8423931344834
20
0.0732708649872206
30
0.000000000000000
11
-88.7423931344834
21
-0.118194031016488
31
0.000000000000000
  0
LINE
  5
F108A2
330
F108A3
100
AcDbEntity
8
Geo
100
AcDbLine
10
-88.7423931344834
20
5.35315473174634
30
0.000000000000000
11
-88.6423931344834
21
5.33002695932467
31
0.000000000000000
  0
LINE
  5
F108A4
330
F108A5
100
AcDbEntity
8
Geo
100
AcDbLine
10
-88.7423931344834
20
-0.118194031016488
30
0.000000000000000
11
-88.6423931344834
21
-0.308910212233266
31
0.000000000000000
  0
LINE
  5
F108A6
330
F108A7
100
AcDbEntity
8
Geo
100
AcDbLine
10
-88.6423931344834
20
5.33002695932467
30
0.000000000000000
11
-88.5423931344834
21
5.29957745961040
31
0.000000000000000
  0
LINE
  5
F108A8
330
F108A9
100
AcDbEntity
8
Geo
100
AcDbLine
10
-88.6423931344834
20
-0.308910212233266
30
0.000000000000000
11
-88.5423931344834
21
-0.498595171052489
31
0.000000000000000
  0
LINE
  5
F108AA
330
F108AB
100
AcDbEntity
8
Geo
100
AcDbLine
10
-88.5423931344834
20
5.29957745961040
30
0.000000000000000
11
-88.4423931344834
21
5.26185133740458
31
0.000000000000000
  0
LINE
  5
F108AC
330
F108AD
100
AcDbEntity
8
Geo
100
AcDbLine
10
-88.5423931344834
20
-0.498595171052489
30
0.000000000000000
11
-88.4423931344834
21
-0.686967927411817
31
0.000000000000000
  0
LINE
  5
F108AE
330
F108AF
100
AcDbEntity
8
Geo
100
AcDbLine
10
-88.4423931344834
20
5.26185133740458
30
0.000000000000000
11
-88.3423931344834
21
5.21690447635888
31
0.000000000000000
  0
LINE
  5
F108B0
330
F108B1
100
AcDbEntity
8
Geo
100
AcDbLine
10
-88.4423931344834
20
-0.686967927411817
30
0.000000000000000
11
-88.3423931344834
21
-0.873749445012565
31
0.000000000000000
  0
LINE
  5
F108B2
330
F108B3
100
AcDbEntity
8
Geo
100
AcDbLine
10
-88.3423931344834
20
5.21690447635888
30
0.000000000000000
11
-88.2423931344834
21
5.16480345619529
31
0.000000000000000
  0
LINE
  5
F108B4
330
F108B5
100
AcDbEntity
8
Geo
100
AcDbLine
10
-88.3423931344834
20
-0.873749445012565
30
0.000000000000000
11
-88.2423931344834
21
-1.05866304465578
31
0.000000000000000
  0
LINE
  5
F108B6
330
F108B7
100
AcDbEntity
8
Geo
100
AcDbLine
10
-88.2423931344834
20
5.16480345619529
30
0.000000000000000
11
-88.1423931344834
21
5.10562545408157
31
0.000000000000000
  0
LINE
  5
F108B8
330
F108B9
100
AcDbEntity
8
Geo
100
AcDbLine
10
-88.2423931344834
20
-1.05866304465578
30
0.000000000000000
11
-88.1423931344834
21
-1.24143481408676
31
0.000000000000000
  0
LINE
  5
F108BA
330
F108BB
100
AcDbEntity
8
Geo
100
AcDbLine
10
-88.1423931344834
20
5.10562545408157
30
0.000000000000000
11
-88.0423931344834
21
5.03945813030892
31
0.000000000000000
  0
LINE
  5
F108BC
330
F108BD
100
AcDbEntity
8
Geo
100
AcDbLine
10
-88.1423931344834
20
-1.24143481408676
30
0.000000000000000
11
-88.0423931344834
21
-1.42179401374085
31
0.000000000000000
  0
LINE
  5
F108BE
330
F108BF
100
AcDbEntity
8
Geo
100
AcDbLine
10
-88.0423931344834
20
5.03945813030892
30
0.000000000000000
11
-87.9423931344834
21
4.96639949844085
31
0.000000000000000
  0
LINE
  5
F108C0
330
F108C1
100
AcDbEntity
8
Geo
100
AcDbLine
10
-88.0423931344834
20
-1.42179401374085
30
0.000000000000000
11
-87.9423931344834
21
-1.59947347778964
31
0.000000000000000
  0
LINE
  5
F108C2
330
F108C3
100
AcDbEntity
8
Geo
100
AcDbLine
10
-87.9423931344834
20
4.96639949844085
30
0.000000000000000
11
-87.8423931344834
21
4.88655778012584
31
0.000000000000000
  0
LINE
  5
F108C4
330
F108C5
100
AcDbEntity
8
Geo
100
AcDbLine
10
-87.9423931344834
20
-1.59947347778964
30
0.000000000000000
11
-87.8423931344834
21
-1.77421000989328
31
0.000000000000000
  0
LINE
  5
F108C6
330
F108C7
100
AcDbEntity
8
Geo
100
AcDbLine
10
-87.8423931344834
20
4.88655778012584
30
0.000000000000000
11
-87.7423931344834
21
4.80005124478878
31
0.000000000000000
  0
LINE
  5
F108C8
330
F108C9
100
AcDbEntity
8
Geo
100
AcDbLine
10
-87.8423931344834
20
-1.77421000989328
30
0.000000000000000
11
-87.7423931344834
21
-1.94574477307287
31
0.000000000000000
  0
LINE
  5
F108CA
330
F108CB
100
AcDbEntity
8
Geo
100
AcDbLine
10
-87.7423931344834
20
4.80005124478878
30
0.000000000000000
11
-87.6423931344834
21
4.70700803443864
31
0.000000000000000
  0
LINE
  5
F108CC
330
F108CD
100
AcDbEntity
8
Geo
100
AcDbLine
10
-87.7423931344834
20
-1.94574477307287
30
0.000000000000000
11
-87.6423931344834
21
-2.11382367312531
31
0.000000000000000
  0
LINE
  5
F108CE
330
F108CF
100
AcDbEntity
8
Geo
100
AcDbLine
10
-87.6423931344834
20
4.70700803443864
30
0.000000000000000
11
-87.5423931344834
21
4.60756597385184
31
0.000000000000000
  0
LINE
  5
F108D0
330
F108D1
100
AcDbEntity
8
Geo
100
AcDbLine
10
-87.6423931344834
20
-2.11382367312531
30
0.000000000000000
11
-87.5423931344834
21
-2.27819773501267
31
0.000000000000000
  0
LINE
  5
F108D2
330
F108D3
100
AcDbEntity
8
Geo
100
AcDbLine
10
-87.5423931344834
20
4.60756597385184
30
0.000000000000000
11
-87.4423931344834
21
4.50187236641269
31
0.000000000000000
  0
LINE
  5
F108D4
330
F108D5
100
AcDbEntity
8
Geo
100
AcDbLine
10
-87.5423931344834
20
-2.27819773501267
30
0.000000000000000
11
-87.4423931344834
21
-2.43862347166862
31
0.000000000000000
  0
LINE
  5
F108D6
330
F108D7
100
AcDbEntity
8
Geo
100
AcDbLine
10
-87.4423931344834
20
4.50187236641269
30
0.000000000000000
11
-87.3423931344834
21
4.39008377591303
31
0.000000000000000
  0
LINE
  5
F108D8
330
F108D9
100
AcDbEntity
8
Geo
100
AcDbLine
10
-87.4423931344834
20
-2.43862347166862
30
0.000000000000000
11
-87.3423931344834
21
-2.59486324467535
31
0.000000000000000
  0
LINE
  5
F108DA
330
F108DB
100
AcDbEntity
8
Geo
100
AcDbLine
10
-87.3423931344834
20
4.39008377591303
30
0.000000000000000
11
-87.2423931344834
21
4.27236579463450
31
0.000000000000000
  0
LINE
  5
F108DC
330
F108DD
100
AcDbEntity
8
Geo
100
AcDbLine
10
-87.3423931344834
20
-2.59486324467535
30
0.000000000000000
11
-87.2423931344834
21
-2.74668561627720
31
0.000000000000000
  0
LINE
  5
F108DE
330
F108DF
100
AcDbEntity
8
Geo
100
AcDbLine
10
-87.2423931344834
20
4.27236579463450
30
0.000000000000000
11
-87.1423931344834
21
4.14889279805699
31
0.000000000000000
  0
LINE
  5
F108E0
330
F108E1
100
AcDbEntity
8
Geo
100
AcDbLine
10
-87.2423931344834
20
-2.74668561627720
30
0.000000000000000
11
-87.1423931344834
21
-2.89386569220892
31
0.000000000000000
  0
LINE
  5
F108E2
330
F108E3
100
AcDbEntity
8
Geo
100
AcDbLine
10
-87.1423931344834
20
4.14889279805699
30
0.000000000000000
11
-87.0423931344834
21
4.01984768655642
31
0.000000000000000
  0
LINE
  5
F108E4
330
F108E5
100
AcDbEntity
8
Geo
100
AcDbLine
10
-87.1423931344834
20
-2.89386569220892
30
0.000000000000000
11
-87.0423931344834
21
-3.03618545483135
31
0.000000000000000
  0
LINE
  5
F108E6
330
F108E7
100
AcDbEntity
8
Geo
100
AcDbLine
10
-87.0423931344834
20
4.01984768655642
30
0.000000000000000
11
-86.9423931344834
21
3.88542161447469
31
0.000000000000000
  0
LINE
  5
F108E8
330
F108E9
100
AcDbEntity
8
Geo
100
AcDbLine
10
-87.0423931344834
20
-3.03618545483135
30
0.000000000000000
11
-86.9423931344834
21
-3.17343408608055
31
0.000000000000000
  0
LINE
  5
F108EA
330
F108EB
100
AcDbEntity
8
Geo
100
AcDbLine
10
-86.9423931344834
20
3.88542161447469
30
0.000000000000000
11
-86.8423931344834
21
3.74581370696307
31
0.000000000000000
  0
LINE
  5
F108EC
330
F108ED
100
AcDbEntity
8
Geo
100
AcDbLine
10
-86.9423931344834
20
-3.17343408608055
30
0.000000000000000
11
-86.8423931344834
21
-3.30540827975236
31
0.000000000000000
  0
LINE
  5
F108EE
330
F108EF
100
AcDbEntity
8
Geo
100
AcDbLine
10
-86.8423931344834
20
3.74581370696307
30
0.000000000000000
11
-86.7423931344834
21
3.60123076501831
31
0.000000000000000
  0
LINE
  5
F108F0
330
F108F1
100
AcDbEntity
8
Geo
100
AcDbLine
10
-86.8423931344834
20
-3.30540827975236
30
0.000000000000000
11
-86.7423931344834
21
-3.43191254265958
31
0.000000000000000
  0
LINE
  5
F108F2
330
F108F3
100
AcDbEntity
8
Geo
100
AcDbLine
10
-86.7423931344834
20
3.60123076501831
30
0.000000000000000
11
-86.6423931344834
21
3.45188695914868
31
0.000000000000000
  0
LINE
  5
F108F4
330
F108F5
100
AcDbEntity
8
Geo
100
AcDbLine
10
-86.7423931344834
20
-3.43191254265958
30
0.000000000000000
11
-86.6423931344834
21
-3.55275948421572
31
0.000000000000000
  0
LINE
  5
F108F6
330
F108F7
100
AcDbEntity
8
Geo
100
AcDbLine
10
-86.6423931344834
20
3.45188695914868
30
0.000000000000000
11
-86.5423931344834
21
3.29800351212348
31
0.000000000000000
  0
LINE
  5
F108F8
330
F108F9
100
AcDbEntity
8
Geo
100
AcDbLine
10
-86.6423931344834
20
-3.55275948421572
30
0.000000000000000
11
-86.5423931344834
21
-3.66777009401647
31
0.000000000000000
  0
LINE
  5
F108FA
330
F108FB
100
AcDbEntity
8
Geo
100
AcDbLine
10
-86.5423931344834
20
3.29800351212348
30
0.000000000000000
11
-86.4423931344834
21
3.13980837127604
31
0.000000000000000
  0
LINE
  5
F108FC
330
F108FD
100
AcDbEntity
8
Geo
100
AcDbLine
10
-86.5423931344834
20
-3.66777009401647
30
0.000000000000000
11
-86.4423931344834
21
-3.77677400700752
31
0.000000000000000
  0
LINE
  5
F108FE
330
F108FF
100
AcDbEntity
8
Geo
100
AcDbLine
10
-86.4423931344834
20
3.13980837127604
30
0.000000000000000
11
-86.3423931344834
21
2.97753587084571
31
0.000000000000000
  0
LINE
  5
F10900
330
F10901
100
AcDbEntity
8
Geo
100
AcDbLine
10
-86.4423931344834
20
-3.77677400700752
30
0.000000000000000
11
-86.3423931344834
21
-3.87960975584607
31
0.000000000000000
  0
LINE
  5
F10902
330
F10903
100
AcDbEntity
8
Geo
100
AcDbLine
10
-86.3423931344834
20
2.97753587084571
30
0.000000000000000
11
-86.2423931344834
21
2.81142638485881
31
0.000000000000000
  0
LINE
  5
F10904
330
F10905
100
AcDbEntity
8
Geo
100
AcDbLine
10
-86.3423931344834
20
-3.87960975584607
30
0.000000000000000
11
-86.2423931344834
21
-3.97612501008222
31
0.000000000000000
  0
LINE
  5
F10906
330
F10907
100
AcDbEntity
8
Geo
100
AcDbLine
10
-86.2423931344834
20
2.81142638485881
30
0.000000000000000
11
-86.1423931344834
21
2.64172597106298
31
0.000000000000000
  0
LINE
  5
F10908
330
F10909
100
AcDbEntity
8
Geo
100
AcDbLine
10
-86.2423931344834
20
-3.97612501008222
30
0.000000000000000
11
-86.1423931344834
21
-4.06617680180578
31
0.000000000000000
  0
LINE
  5
F1090A
330
F1090B
100
AcDbEntity
8
Geo
100
AcDbLine
10
-86.1423931344834
20
2.64172597106298
30
0.000000000000000
11
-86.0423931344834
21
2.46868600644217
31
0.000000000000000
  0
LINE
  5
F1090C
330
F1090D
100
AcDbEntity
8
Geo
100
AcDbLine
10
-86.1423931344834
20
-4.06617680180578
30
0.000000000000000
11
-86.0423931344834
21
-4.14963173742453
31
0.000000000000000
  0
LINE
  5
F1090E
330
F1090F
100
AcDbEntity
8
Geo
100
AcDbLine
10
-86.0423931344834
20
2.46868600644217
30
0.000000000000000
11
-85.9423931344834
21
2.29256281485226
31
0.000000000000000
  0
LINE
  5
F10910
330
F10911
100
AcDbEntity
8
Geo
100
AcDbLine
10
-86.0423931344834
20
-4.14963173742453
30
0.000000000000000
11
-85.9423931344834
21
-4.22636619525986
31
0.000000000000000
  0
LINE
  5
F10912
330
F10913
100
AcDbEntity
8
Geo
100
AcDbLine
10
-85.9423931344834
20
2.29256281485226
30
0.000000000000000
11
-85.8423931344834
21
2.11361728732889
31
0.000000000000000
  0
LINE
  5
F10914
330
F10915
100
AcDbEntity
8
Geo
100
AcDbLine
10
-85.9423931344834
20
-4.22636619525986
30
0.000000000000000
11
-85.8423931344834
21
-4.29626650866747
31
0.000000000000000
  0
LINE
  5
F10916
330
F10917
100
AcDbEntity
8
Geo
100
AcDbLine
10
-85.8423931344834
20
2.11361728732889
30
0.000000000000000
11
-85.7423931344834
21
1.93211449562993
31
0.000000000000000
  0
LINE
  5
F10918
330
F10919
100
AcDbEntity
8
Geo
100
AcDbLine
10
-85.8423931344834
20
-4.29626650866747
30
0.000000000000000
11
-85.7423931344834
21
-4.35922913441154
31
0.000000000000000
  0
LINE
  5
F1091A
330
F1091B
100
AcDbEntity
8
Geo
100
AcDbLine
10
-85.7423931344834
20
1.93211449562993
30
0.000000000000000
11
-85.6423931344834
21
1.74832329958512
31
0.000000000000000
  0
LINE
  5
F1091C
330
F1091D
100
AcDbEntity
8
Geo
100
AcDbLine
10
-85.7423931344834
20
-4.35922913441154
30
0.000000000000000
11
-85.6423931344834
21
-4.41516080604324
31
0.000000000000000
  0
LINE
  5
F1091E
330
F1091F
100
AcDbEntity
8
Geo
100
AcDbLine
10
-85.6423931344834
20
1.74832329958512
30
0.000000000000000
11
-85.5423931344834
21
1.56251594883429
31
0.000000000000000
  0
LINE
  5
F10920
330
F10921
100
AcDbEntity
8
Geo
100
AcDbLine
10
-85.6423931344834
20
-4.41516080604324
30
0.000000000000000
11
-85.5423931344834
21
-4.46397867205617
31
0.000000000000000
  0
LINE
  5
F10922
330
F10923
100
AcDbEntity
8
Geo
100
AcDbLine
10
-85.5423931344834
20
1.56251594883429
30
0.000000000000000
11
-85.4423931344834
21
1.37496767954440
31
0.000000000000000
  0
LINE
  5
F10924
330
F10925
100
AcDbEntity
8
Geo
100
AcDbLine
10
-85.5423931344834
20
-4.46397867205617
30
0.000000000000000
11
-85.4423931344834
21
-4.50561041861415
31
0.000000000000000
  0
LINE
  5
F10926
330
F10927
100
AcDbEntity
8
Geo
100
AcDbLine
10
-85.4423931344834
20
1.37496767954440
30
0.000000000000000
11
-85.3423931344834
21
1.18595630670261
31
0.000000000000000
  0
LINE
  5
F10928
330
F10929
100
AcDbEntity
8
Geo
100
AcDbLine
10
-85.4423931344834
20
-4.50561041861415
30
0.000000000000000
11
-85.3423931344834
21
-4.53999437666964
31
0.000000000000000
  0
LINE
  5
F1092A
330
F1092B
100
AcDbEntity
8
Geo
100
AcDbLine
10
-85.3423931344834
20
1.18595630670261
30
0.000000000000000
11
-85.2423931344834
21
0.995761812589299
31
0.000000000000000
  0
LINE
  5
F1092C
330
F1092D
100
AcDbEntity
8
Geo
100
AcDbLine
10
-85.3423931344834
20
-4.53999437666964
30
0.000000000000000
11
-85.2423931344834
21
-4.56707961331401
31
0.000000000000000
  0
LINE
  5
F1092E
330
F1092F
100
AcDbEntity
8
Geo
100
AcDbLine
10
-85.2423931344834
20
0.995761812589299
30
0.000000000000000
11
-85.1423931344834
21
0.804665932040720
31
0.000000000000000
  0
LINE
  5
F10930
330
F10931
100
AcDbEntity
8
Geo
100
AcDbLine
10
-85.2423931344834
20
-4.56707961331401
30
0.000000000000000
11
-85.1423931344834
21
-4.58682600722435
31
0.000000000000000
  0
LINE
  5
F10932
330
F10933
100
AcDbEntity
8
Geo
100
AcDbLine
10
-85.1423931344834
20
0.804665932040720
30
0.000000000000000
11
-85.0423931344834
21
0.612951735115582
31
0.000000000000000
  0
LINE
  5
F10934
330
F10935
100
AcDbEntity
8
Geo
100
AcDbLine
10
-85.1423931344834
20
-4.58682600722435
30
0.000000000000000
11
-85.0423931344834
21
-4.59920430809519
31
0.000000000000000
  0
LINE
  5
F10936
330
F10937
100
AcDbEntity
8
Geo
100
AcDbLine
10
-85.0423931344834
20
0.612951735115582
30
0.000000000000000
11
-84.9423931344834
21
0.420903207783773
31
0.000000000000000
  0
LINE
  5
F10938
330
F10939
100
AcDbEntity
8
Geo
100
AcDbLine
10
-85.0423931344834
20
-4.59920430809519
30
0.000000000000000
11
-84.9423931344834
21
-4.60419617996687
31
0.000000000000000
  0
LINE
  5
F1093A
330
F1093B
100
AcDbEntity
8
Geo
100
AcDbLine
10
-84.9423931344834
20
0.420903207783773
30
0.000000000000000
11
-84.8423931344834
21
0.228804831258344
31
0.000000000000000
  0
LINE
  5
F1093C
330
F1093D
100
AcDbEntity
8
Geo
100
AcDbLine
10
-84.8423931344834
20
5.37629592375090
30
0.000000000000000
11
-84.7423931344834
21
5.36650370672622
31
0.000000000000000
  0
LINE
  5
F1093E
330
F1093F
100
AcDbEntity
8
Geo
100
AcDbLine
10
-84.8423931344834
20
0.228804831258344
30
0.000000000000000
11
-84.7423931344834
21
0.0369411605938820
31
0.000000000000000
  0
LINE
  5
F10940
330
F10941
100
AcDbEntity
8
Geo
100
AcDbLine
10
-84.7423931344834
20
5.36650370672622
30
0.000000000000000
11
-84.6423931344834
21
5.34933572945439
31
0.000000000000000
  0
LINE
  5
F10942
330
F10943
100
AcDbEntity
8
Geo
100
AcDbLine
10
-84.7423931344834
20
0.0369411605938820
30
0.000000000000000
11
-84.6423931344834
21
-0.154403596824485
31
0.000000000000000
  0
LINE
  5
F10944
330
F10945
100
AcDbEntity
8
Geo
100
AcDbLine
10
-84.6423931344834
20
5.34933572945439
30
0.000000000000000
11
-84.5423931344834
21
5.32481742283596
31
0.000000000000000
  0
LINE
  5
F10946
330
F10947
100
AcDbEntity
8
Geo
100
AcDbLine
10
-84.6423931344834
20
-0.154403596824485
30
0.000000000000000
11
-84.5423931344834
21
-0.344946002277088
31
0.000000000000000
  0
LINE
  5
F10948
330
F10949
100
AcDbEntity
8
Geo
100
AcDbLine
10
-84.5423931344834
20
5.32481742283596
30
0.000000000000000
11
-84.4423931344834
21
5.29298510580401
31
0.000000000000000
  0
LINE
  5
F1094A
330
F1094B
100
AcDbEntity
8
Geo
100
AcDbLine
10
-84.5423931344834
20
-0.344946002277088
30
0.000000000000000
11
-84.4423931344834
21
-0.534403805567100
31
0.000000000000000
  0
LINE
  5
F1094C
330
F1094D
100
AcDbEntity
8
Geo
100
AcDbLine
10
-84.4423931344834
20
5.29298510580401
30
0.000000000000000
11
-84.3423931344834
21
5.25388593152490
31
0.000000000000000
  0
LINE
  5
F1094E
330
F1094F
100
AcDbEntity
8
Geo
100
AcDbLine
10
-84.4423931344834
20
-0.534403805567100
30
0.000000000000000
11
-84.3423931344834
21
-0.722496363117343
31
0.000000000000000
  0
LINE
  5
F10950
330
F10951
100
AcDbEntity
8
Geo
100
AcDbLine
10
-84.3423931344834
20
5.25388593152490
30
0.000000000000000
11
-84.2423931344834
21
5.20757781755044
31
0.000000000000000
  0
LINE
  5
F10952
330
F10953
100
AcDbEntity
8
Geo
100
AcDbLine
10
-84.3423931344834
20
-0.722496363117343
30
0.000000000000000
11
-84.2423931344834
21
-0.908945053687237
31
0.000000000000000
  0
LINE
  5
F10954
330
F10955
100
AcDbEntity
8
Geo
100
AcDbLine
10
-84.2423931344834
20
5.20757781755044
30
0.000000000000000
11
-84.1423931344834
21
5.15412936002463
31
0.000000000000000
  0
LINE
  5
F10956
330
F10957
100
AcDbEntity
8
Geo
100
AcDbLine
10
-84.2423931344834
20
-0.908945053687237
30
0.000000000000000
11
-84.1423931344834
21
-1.09347369109404
31
0.000000000000000
  0
LINE
  5
F10958
330
F10959
100
AcDbEntity
8
Geo
100
AcDbLine
10
-84.1423931344834
20
5.15412936002463
30
0.000000000000000
11
-84.0423931344834
21
5.09361973207232
31
0.000000000000000
  0
LINE
  5
F1095A
330
F1095B
100
AcDbEntity
8
Geo
100
AcDbLine
10
-84.1423931344834
20
-1.09347369109404
30
0.000000000000000
11
-84.0423931344834
21
-1.27580893332706
31
0.000000000000000
  0
LINE
  5
F1095C
330
F1095D
100
AcDbEntity
8
Geo
100
AcDbLine
10
-84.0423931344834
20
5.09361973207232
30
0.000000000000000
11
-83.9423931344834
21
5.02613856652018
31
0.000000000000000
  0
LINE
  5
F1095E
330
F1095F
100
AcDbEntity
8
Geo
100
AcDbLine
10
-84.0423931344834
20
-1.27580893332706
30
0.000000000000000
11
-83.9423931344834
21
-1.45568068744878
31
0.000000000000000
  0
LINE
  5
F10960
330
F10961
100
AcDbEntity
8
Geo
100
AcDbLine
10
-83.9423931344834
20
5.02613856652018
30
0.000000000000000
11
-83.8423931344834
21
4.95178582312370
31
0.000000000000000
  0
LINE
  5
F10962
330
F10963
100
AcDbEntity
8
Geo
100
AcDbLine
10
-83.9423931344834
20
-1.45568068744878
30
0.000000000000000
11
-83.8423931344834
21
-1.63282250968317
31
0.000000000000000
  0
LINE
  5
F10964
330
F10965
100
AcDbEntity
8
Geo
100
AcDbLine
10
-83.8423931344834
20
4.95178582312370
30
0.000000000000000
11
-83.7423931344834
21
4.87067164049695
31
0.000000000000000
  0
LINE
  5
F10966
330
F10967
100
AcDbEntity
8
Geo
100
AcDbLine
10
-83.8423931344834
20
-1.63282250968317
30
0.000000000000000
11
-83.7423931344834
21
-1.80697200009842
31
0.000000000000000
  0
LINE
  5
F10968
330
F10969
100
AcDbEntity
8
Geo
100
AcDbLine
10
-83.7423931344834
20
4.87067164049695
30
0.000000000000000
11
-83.6423931344834
21
4.78291617296441
31
0.000000000000000
  0
LINE
  5
F1096A
330
F1096B
100
AcDbEntity
8
Geo
100
AcDbLine
10
-83.7423931344834
20
-1.80697200009842
30
0.000000000000000
11
-83.6423931344834
21
-1.97787119129968
31
0.000000000000000
  0
LINE
  5
F1096C
330
F1096D
100
AcDbEntity
8
Geo
100
AcDbLine
10
-83.6423931344834
20
4.78291617296441
30
0.000000000000000
11
-83.5423931344834
21
4.68864941257654
31
0.000000000000000
  0
LINE
  5
F1096E
330
F1096F
100
AcDbEntity
8
Geo
100
AcDbLine
10
-83.6423931344834
20
-1.97787119129968
30
0.000000000000000
11
-83.5423931344834
21
-2.14526693055572
31
0.000000000000000
  0
LINE
  5
F10970
330
F10971
100
AcDbEntity
8
Geo
100
AcDbLine
10
-83.5423931344834
20
4.68864941257654
30
0.000000000000000
11
-83.4423931344834
21
4.58801099655273
31
0.000000000000000
  0
LINE
  5
F10972
330
F10973
100
AcDbEntity
8
Geo
100
AcDbLine
10
-83.5423931344834
20
-2.14526693055572
30
0.000000000000000
11
-83.4423931344834
21
-2.30891125479374
31
0.000000000000000
  0
LINE
  5
F10974
330
F10975
100
AcDbEntity
8
Geo
100
AcDbLine
10
-83.4423931344834
20
4.58801099655273
30
0.000000000000000
11
-83.3423931344834
21
4.48115000043689
31
0.000000000000000
  0
LINE
  5
F10976
330
F10977
100
AcDbEntity
8
Geo
100
AcDbLine
10
-83.4423931344834
20
-2.30891125479374
30
0.000000000000000
11
-83.3423931344834
21
-2.46856175790673
31
0.000000000000000
  0
LINE
  5
F10978
330
F10979
100
AcDbEntity
8
Geo
100
AcDbLine
10
-83.3423931344834
20
4.48115000043689
30
0.000000000000000
11
-83.2423931344834
21
4.36822471727207
31
0.000000000000000
  0
LINE
  5
F1097A
330
F1097B
100
AcDbEntity
8
Geo
100
AcDbLine
10
-83.3423931344834
20
-2.46856175790673
30
0.000000000000000
11
-83.2423931344834
21
-2.62398194982929
31
0.000000000000000
  0
LINE
  5
F1097C
330
F1097D
100
AcDbEntity
8
Geo
100
AcDbLine
10
-83.2423931344834
20
4.36822471727207
30
0.000000000000000
11
-83.1423931344834
21
4.24940242312118
31
0.000000000000000
  0
LINE
  5
F1097E
330
F1097F
100
AcDbEntity
8
Geo
100
AcDbLine
10
-83.2423931344834
20
-2.62398194982929
30
0.000000000000000
11
-83.1423931344834
21
-2.77494160685003
31
0.000000000000000
  0
LINE
  5
F10980
330
F10981
100
AcDbEntity
8
Geo
100
AcDbLine
10
-83.1423931344834
20
4.24940242312118
30
0.000000000000000
11
-83.0423931344834
21
4.12485912928117
31
0.000000000000000
  0
LINE
  5
F10982
330
F10983
100
AcDbEntity
8
Geo
100
AcDbLine
10
-83.1423931344834
20
-2.77494160685003
30
0.000000000000000
11
-83.0423931344834
21
-2.92121711264160
31
0.000000000000000
  0
LINE
  5
F10984
330
F10985
100
AcDbEntity
8
Geo
100
AcDbLine
10
-83.0423931344834
20
4.12485912928117
30
0.000000000000000
11
-82.9423931344834
21
3.99477932155781
31
0.000000000000000
  0
LINE
  5
F10986
330
F10987
100
AcDbEntity
8
Geo
100
AcDbLine
10
-83.0423931344834
20
-2.92121711264160
30
0.000000000000000
11
-82.9423931344834
21
-3.06259178950331
31
0.000000000000000
  0
LINE
  5
F10988
330
F10989
100
AcDbEntity
8
Geo
100
AcDbLine
10
-82.9423931344834
20
3.99477932155781
30
0.000000000000000
11
-82.8423931344834
21
3.85935568698706
31
0.000000000000000
  0
LINE
  5
F1098A
330
F1098B
100
AcDbEntity
8
Geo
100
AcDbLine
10
-82.9423931344834
20
-3.06259178950331
30
0.000000000000000
11
-82.8423931344834
21
-3.19885621932544
31
0.000000000000000
  0
LINE
  5
F1098C
330
F1098D
100
AcDbEntity
8
Geo
100
AcDbLine
10
-82.8423931344834
20
3.85935568698706
30
0.000000000000000
11
-82.7423931344834
21
3.71878882840809
31
0.000000000000000
  0
LINE
  5
F1098E
330
F1098F
100
AcDbEntity
8
Geo
100
AcDbLine
10
-82.8423931344834
20
-3.19885621932544
30
0.000000000000000
11
-82.7423931344834
21
-3.32980855380001
31
0.000000000000000
  0
LINE
  5
F10990
330
F10991
100
AcDbEntity
8
Geo
100
AcDbLine
10
-82.7423931344834
20
3.71878882840809
30
0.000000000000000
11
-82.6423931344834
21
3.57328696731052
31
0.000000000000000
  0
LINE
  5
F10992
330
F10993
100
AcDbEntity
8
Geo
100
AcDbLine
10
-82.7423931344834
20
-3.32980855380001
30
0.000000000000000
11
-82.6423931344834
21
-3.45525481341840
31
0.000000000000000
  0
LINE
  5
F10994
330
F10995
100
AcDbEntity
8
Geo
100
AcDbLine
10
-82.6423931344834
20
3.57328696731052
30
0.000000000000000
11
-82.5423931344834
21
3.42306563539628
31
0.000000000000000
  0
LINE
  5
F10996
330
F10997
100
AcDbEntity
8
Geo
100
AcDbLine
10
-82.6423931344834
20
-3.45525481341840
30
0.000000000000000
11
-82.5423931344834
21
-3.57500917481292
31
0.000000000000000
  0
LINE
  5
F10998
330
F10999
100
AcDbEntity
8
Geo
100
AcDbLine
10
-82.5423931344834
20
3.42306563539628
30
0.000000000000000
11
-82.4423931344834
21
3.26834735531274
31
0.000000000000000
  0
LINE
  5
F1099A
330
F1099B
100
AcDbEntity
8
Geo
100
AcDbLine
10
-82.5423931344834
20
-3.57500917481292
30
0.000000000000000
11
-82.4423931344834
21
-3.68889424601670
31
0.000000000000000
  0
LINE
  5
F1099C
330
F1099D
100
AcDbEntity
8
Geo
100
AcDbLine
10
-82.4423931344834
20
3.26834735531274
30
0.000000000000000
11
-82.3423931344834
21
3.10936131103028
31
0.000000000000000
  0
LINE
  5
F1099E
330
F1099F
100
AcDbEntity
8
Geo
100
AcDbLine
10
-82.4423931344834
20
-3.68889424601670
30
0.000000000000000
11
-82.3423931344834
21
-3.79674132923418
31
0.000000000000000
  0
LINE
  5
F109A0
330
F109A1
100
AcDbEntity
8
Geo
100
AcDbLine
10
-82.3423931344834
20
3.10936131103028
30
0.000000000000000
11
-82.2423931344834
21
2.94634300835238
31
0.000000000000000
  0
LINE
  5
F109A2
330
F109A3
100
AcDbEntity
8
Geo
100
AcDbLine
10
-82.3423931344834
20
-3.79674132923418
30
0.000000000000000
11
-82.2423931344834
21
-3.89839067073287
31
0.000000000000000
  0
LINE
  5
F109A4
330
F109A5
100
AcDbEntity
8
Geo
100
AcDbLine
10
-82.2423931344834
20
2.94634300835238
30
0.000000000000000
11
-82.1423931344834
21
2.77953392606120
31
0.000000000000000
  0
LINE
  5
F109A6
330
F109A7
100
AcDbEntity
8
Geo
100
AcDbLine
10
-82.2423931344834
20
-3.89839067073287
30
0.000000000000000
11
-82.1423931344834
21
-3.99369169748638
31
0.000000000000000
  0
LINE
  5
F109A8
330
F109A9
100
AcDbEntity
8
Geo
100
AcDbLine
10
-82.1423931344834
20
2.77953392606120
30
0.000000000000000
11
-82.0423931344834
21
2.60918115821539
31
0.000000000000000
  0
LINE
  5
F109AA
330
F109AB
100
AcDbEntity
8
Geo
100
AcDbLine
10
-82.1423931344834
20
-3.99369169748638
30
0.000000000000000
11
-82.0423931344834
21
-4.08250324021800
31
0.000000000000000
  0
LINE
  5
F109AC
330
F109AD
100
AcDbEntity
8
Geo
100
AcDbLine
10
-82.0423931344834
20
2.60918115821539
30
0.000000000000000
11
-81.9423931344834
21
2.43553704813003
31
0.000000000000000
  0
LINE
  5
F109AE
330
F109AF
100
AcDbEntity
8
Geo
100
AcDbLine
10
-82.0423931344834
20
-4.08250324021800
30
0.000000000000000
11
-81.9423931344834
21
-4.16469374251458
31
0.000000000000000
  0
LINE
  5
F109B0
330
F109B1
100
AcDbEntity
8
Geo
100
AcDbLine
10
-81.9423931344834
20
2.43553704813003
30
0.000000000000000
11
-81.8423931344834
21
2.25885881458082
31
0.000000000000000
  0
LINE
  5
F109B2
330
F109B3
100
AcDbEntity
8
Geo
100
AcDbLine
10
-81.9423931344834
20
-4.16469374251458
30
0.000000000000000
11
-81.8423931344834
21
-4.24014145570082
31
0.000000000000000
  0
LINE
  5
F109B4
330
F109B5
100
AcDbEntity
8
Geo
100
AcDbLine
10
-81.8423931344834
20
2.25885881458082
30
0.000000000000000
11
-81.7423931344834
21
2.07940817078629
31
0.000000000000000
  0
LINE
  5
F109B6
330
F109B7
100
AcDbEntity
8
Geo
100
AcDbLine
10
-81.8423931344834
20
-4.24014145570082
30
0.000000000000000
11
-81.7423931344834
21
-4.30873461918543
31
0.000000000000000
  0
LINE
  5
F109B8
330
F109B9
100
AcDbEntity
8
Geo
100
AcDbLine
10
-81.7423931344834
20
2.07940817078629
30
0.000000000000000
11
-81.6423931344834
21
1.89745093673233
31
0.000000000000000
  0
LINE
  5
F109BA
330
F109BB
100
AcDbEntity
8
Geo
100
AcDbLine
10
-81.7423931344834
20
-4.30873461918543
30
0.000000000000000
11
-81.6423931344834
21
-4.37037162601197
31
0.000000000000000
  0
LINE
  5
F109BC
330
F109BD
100
AcDbEntity
8
Geo
100
AcDbLine
10
-81.6423931344834
20
1.89745093673233
30
0.000000000000000
11
-81.5423931344834
21
1.71325664541349
31
0.000000000000000
  0
LINE
  5
F109BE
330
F109BF
100
AcDbEntity
8
Geo
100
AcDbLine
10
-81.6423931344834
20
-4.37037162601197
30
0.000000000000000
11
-81.5423931344834
21
-4.42496117336902
31
0.000000000000000
  0
LINE
  5
F109C0
330
F109C1
100
AcDbEntity
8
Geo
100
AcDbLine
10
-81.5423931344834
20
1.71325664541349
30
0.000000000000000
11
-81.4423931344834
21
1.52709814357406
31
0.000000000000000
  0
LINE
  5
F109C2
330
F109C3
100
AcDbEntity
8
Geo
100
AcDbLine
10
-81.5423931344834
20
-4.42496117336902
30
0.000000000000000
11
-81.4423931344834
21
-4.47242239783698
31
0.000000000000000
  0
LINE
  5
F109C4
330
F109C5
100
AcDbEntity
8
Geo
100
AcDbLine
10
-81.4423931344834
20
1.52709814357406
30
0.000000000000000
11
-81.3423931344834
21
1.33925118754062
31
0.000000000000000
  0
LINE
  5
F109C6
330
F109C7
100
AcDbEntity
8
Geo
100
AcDbLine
10
-81.4423931344834
20
-4.47242239783698
30
0.000000000000000
11
-81.3423931344834
21
-4.51268499517089
31
0.000000000000000
  0
LINE
  5
F109C8
330
F109C9
100
AcDbEntity
8
Geo
100
AcDbLine
10
-81.3423931344834
20
1.33925118754062
30
0.000000000000000
11
-81.2423931344834
21
1.14999403474459
31
0.000000000000000
  0
LINE
  5
F109CA
330
F109CB
100
AcDbEntity
8
Geo
100
AcDbLine
10
-81.3423931344834
20
-4.51268499517089
30
0.000000000000000
11
-81.2423931344834
21
-4.54568932444202
31
0.000000000000000
  0
LINE
  5
F109CC
330
F109CD
100
AcDbEntity
8
Geo
100
AcDbLine
10
-81.2423931344834
20
1.14999403474459
30
0.000000000000000
11
-81.1423931344834
21
0.959607031539827
31
0.000000000000000
  0
LINE
  5
F109CE
330
F109CF
100
AcDbEntity
8
Geo
100
AcDbLine
10
-81.2423931344834
20
-4.54568932444202
30
0.000000000000000
11
-81.1423931344834
21
-4.57138649638391
31
0.000000000000000
  0
LINE
  5
F109D0
330
F109D1
100
AcDbEntity
8
Geo
100
AcDbLine
10
-81.1423931344834
20
0.959607031539827
30
0.000000000000000
11
-81.0423931344834
21
0.768372197926047
31
0.000000000000000
  0
LINE
  5
F109D2
330
F109D3
100
AcDbEntity
8
Geo
100
AcDbLine
10
-81.1423931344834
20
-4.57138649638391
30
0.000000000000000
11
-81.0423931344834
21
-4.58973844581195
31
0.000000000000000
  0
LINE
  5
F109D4
330
F109D5
100
AcDbEntity
8
Geo
100
AcDbLine
10
-81.0423931344834
20
0.768372197926047
30
0.000000000000000
11
-80.9423931344834
21
0.576572809792931
31
0.000000000000000
  0
LINE
  5
F109D6
330
F109D7
100
AcDbEntity
8
Geo
100
AcDbLine
10
-81.0423931344834
20
-4.58973844581195
30
0.000000000000000
11
-80.9423931344834
21
-4.60071798800930
31
0.000000000000000
  0
LINE
  5
F109D8
330
F109D9
100
AcDbEntity
8
Geo
100
AcDbLine
10
-80.9423931344834
20
0.576572809792931
30
0.000000000000000
11
-80.8423931344834
21
0.384492979303987
31
0.000000000000000
  0
LINE
  5
F109DA
330
F109DB
100
AcDbEntity
8
Geo
100
AcDbLine
10
-80.8423931344834
20
5.37881055435986
30
0.000000000000000
11
-80.7423931344834
21
5.37500743498292
31
0.000000000000000
  0
LINE
  5
F109DC
330
F109DD
100
AcDbEntity
8
Geo
100
AcDbLine
10
-80.8423931344834
20
0.384492979303987
30
0.000000000000000
11
-80.7423931344834
21
0.192417234041588
31
0.000000000000000
  0
LINE
  5
F109DE
330
F109DF
100
AcDbEntity
8
Geo
100
AcDbLine
10
-80.7423931344834
20
5.37500743498292
30
0.000000000000000
11
-80.6423931344834
21
5.36381595879814
31
0.000000000000000
  0
LINE
  5
F109E0
330
F109E1
100
AcDbEntity
8
Geo
100
AcDbLine
10
-80.7423931344834
20
0.192417234041588
30
0.000000000000000
11
-80.6423931344834
21
0.000630095536664710
31
0.000000000000000
  0
LINE
  5
F109E2
330
F109E3
100
AcDbEntity
8
Geo
100
AcDbLine
10
-80.6423931344834
20
5.36381595879814
30
0.000000000000000
11
-80.5423931344834
21
5.34525270372344
31
0.000000000000000
  0
LINE
  5
F109E4
330
F109E5
100
AcDbEntity
8
Geo
100
AcDbLine
10
-80.6423931344834
20
0.000630095536664710
30
0.000000000000000
11
-80.5423931344834
21
-0.190584342192636
31
0.000000000000000
  0
LINE
  5
F109E6
330
F109E7
100
AcDbEntity
8
Geo
100
AcDbLine
10
-80.5423931344834
20
5.34525270372344
30
0.000000000000000
11
-80.4423931344834
21
5.31934516748240
31
0.000000000000000
  0
LINE
  5
F109E8
330
F109E9
100
AcDbEntity
8
Geo
100
AcDbLine
10
-80.5423931344834
20
-0.190584342192636
30
0.000000000000000
11
-80.4423931344834
21
-0.380942833469019
31
0.000000000000000
  0
LINE
  5
F109EA
330
F109EB
100
AcDbEntity
8
Geo
100
AcDbLine
10
-80.4423931344834
20
5.31934516748240
30
0.000000000000000
11
-80.3423931344834
21
5.28613172687198
31
0.000000000000000
  0
LINE
  5
F109EC
330
F109ED
100
AcDbEntity
8
Geo
100
AcDbLine
10
-80.4423931344834
20
-0.380942833469019
30
0.000000000000000
11
-80.3423931344834
21
-0.570163400527463
31
0.000000000000000
  0
LINE
  5
F109EE
330
F109EF
100
AcDbEntity
8
Geo
100
AcDbLine
10
-80.3423931344834
20
5.28613172687198
30
0.000000000000000
11
-80.2423931344834
21
5.24566158091497
31
0.000000000000000
  0
LINE
  5
F109F0
330
F109F1
100
AcDbEntity
8
Geo
100
AcDbLine
10
-80.3423931344834
20
-0.570163400527463
30
0.000000000000000
11
-80.2423931344834
21
-0.757965751208486
31
0.000000000000000
  0
LINE
  5
F109F2
330
F109F3
100
AcDbEntity
8
Geo
100
AcDbLine
10
-80.2423931344834
20
5.24566158091497
30
0.000000000000000
11
-80.1423931344834
21
5.19799467798158
31
0.000000000000000
  0
LINE
  5
F109F4
330
F109F5
100
AcDbEntity
8
Geo
100
AcDbLine
10
-80.2423931344834
20
-0.757965751208486
30
0.000000000000000
11
-80.1423931344834
21
-0.944071694154535
31
0.000000000000000
  0
LINE
  5
F109F6
330
F109F7
100
AcDbEntity
8
Geo
100
AcDbLine
10
-97.1423931344833
20
0.387250847682139
30
0.000000000000000
11
-97.1423931344833
21
0.387250847682139
31
0.000000000000000
  0
LINE
  5
F109F8
330
F109F9
100
AcDbEntity
8
Geo
100
AcDbLine
10
-97.1423931344833
20
0.387250847682139
30
0.000000000000000
11
-97.1423931344833
21
0.387250847682139
31
0.000000000000000
  0
LINE
  5
F109FA
330
F109FB
100
AcDbEntity
8
Geo
100
AcDbLine
10
-98.1423931344833
20
0.387250847682139
30
0.000000000000000
11
-97.8423931344833
21
0.387250847682139
31
0.000000000000000
  0
LINE
  5
F109FC
330
F109FD
100
AcDbEntity
8
Geo
100
AcDbLine
10
-97.7148931344833
20
0.387250847682139
30
0.000000000000000
11
-97.6298931344833
21
0.387250847682139
31
0.000000000000000
  0
LINE
  5
F109FE
330
F109FF
100
AcDbEntity
8
Geo
100
AcDbLine
10
-97.4173931344833
20
0.387250847682139
30
0.000000000000000
11
-96.9923931344833
21
0.387250847682139
31
0.000000000000000
  0
LINE
  5
F10A00
330
F10A01
100
AcDbEntity
8
Geo
100
AcDbLine
10
-96.8648931344833
20
0.387250847682139
30
0.000000000000000
11
-96.7798931344833
21
0.387250847682139
31
0.000000000000000
  0
LINE
  5
F10A02
330
F10A03
100
AcDbEntity
8
Geo
100
AcDbLine
10
-96.5673931344833
20
0.387250847682139
30
0.000000000000000
11
-96.1423931344833
21
0.387250847682139
31
0.000000000000000
  0
LINE
  5
F10A04
330
F10A05
100
AcDbEntity
8
Geo
100
AcDbLine
10
-27.1423931344833
20
4.88725084768214
30
0.000000000000000
11
-27.1423931344833
21
0.387250847682139
31
0.000000000000000
  0
LINE
  5
F10A06
330
F10A07
100
AcDbEntity
8
Geo
100
AcDbLine
10
-96.9855544439199
20
0.387250847682139
30
0.000000000000000
11
-97.1420885479929
21
-4.09529940396661
31
0.000000000000000
  0
ARC
  5
F10A08
330
F10A09
100
AcDbEntity
8
Geo
100
AcDbCircle
10
-96.6423931344833
20
-4.11274915231786
30
0.000000000000000
 40
0.500000000000000
100
AcDbArc
 50
178.000000000000
 51
270.000000000000
  0
LINE
  5
F10A0A
330
F10A0B
100
AcDbEntity
8
Geo
100
AcDbLine
10
-96.6423931344833
20
-4.61274915231786
30
0.000000000000000
11
-75.1423931344833
21
-4.61274915231786
31
0.000000000000000
  0
LINE
  5
F10A0C
330
F10A0D
100
AcDbEntity
8
Geo
100
AcDbLine
10
-75.1423931344833
20
-4.61274915231786
30
0.000000000000000
11
-27.6423931344833
21
-4.61274915231786
31
0.000000000000000
  0
LINE
  5
F10A0E
330
F10A0F
100
AcDbEntity
8
Geo
100
AcDbLine
10
-27.6423931344833
20
-4.61274915231786
30
0.000000000000000
11
-27.1423931344833
21
-4.11274915231786
31
0.000000000000000
  0
LINE
  5
F10A10
330
F10A11
100
AcDbEntity
8
Geo
100
AcDbLine
10
-96.6423931344833
20
5.38725084768214
30
0.000000000000000
11
-96.6423931344833
21
-4.61274915231786
31
0.000000000000000
  0
LINE
  5
F10A12
330
F10A13
100
AcDbEntity
8
Geo
100
AcDbLine
10
-96.6423931344833
20
5.38725084768214
30
0.000000000000000
11
-96.6423931344833
21
-4.61274915231786
31
0.000000000000000
  0
LINE
  5
F10A14
330
F10A15
100
AcDbEntity
8
Geo
100
AcDbLine
10
-75.1423931344833
20
5.38725084768214
30
0.000000000000000
11
-75.1423931344833
21
-4.61274915231786
31
0.000000000000000
  0
LINE
  5
F10A16
330
F10A17
100
AcDbEntity
8
Geo
100
AcDbLine
10
-75.1423931344833
20
5.38725084768214
30
0.000000000000000
11
-75.1423931344833
21
-4.61274915231786
31
0.000000000000000
  0
LINE
  5
F10A18
330
F10A19
100
AcDbEntity
8
Geo
100
AcDbLine
10
-27.6423931344833
20
5.38725084768214
30
0.000000000000000
11
-27.6423931344833
21
-4.61274915231786
31
0.000000000000000
  0
LINE
  5
F10A1A
330
F10A1B
100
AcDbEntity
8
Geo
100
AcDbLine
10
-27.1423931344833
20
4.88725084768214
30
0.000000000000000
11
-27.1423931344833
21
-4.11274915231786
31
0.000000000000000
  0
LWPOLYLINE
  5
F10A1C
330
F10A1D
100
AcDbEntity
8
Rahmen
100
AcDbPolyline
90
   4
70
   1
43
   0.0
 10
-125.619653009631
 20
102.895381004719
 10
134.455327327855
 20
102.895381004719
 10
134.455327327855
 20
-103.087139217360
 10
-125.619653009631
 20
-103.087139217360
  0
TEXT
  5
F10A1E
330
F10A1F
 100
AcDbEntity
8
Text
100
AcDbText
10
-124.639717137975
20
-102.587139217360
30
0.000000000000000
40
1.00000000000000
1
ISBESketcher
100
AcDbText
  0
LWPOLYLINE
  5
F10A20
330
F10A21
100
AcDbEntity
8
Rahmen
100
AcDbPolyline
90
   4
70
   1
43
   0.0
 10
94.4739437642924
 20
-100.147331602392
 10
134.455327327855
 20
-100.147331602392
 10
134.455327327855
 20
-103.087139217360
 10
94.4739437642924
 20
-103.087139217360
  0
TEXT
  5
F10A22
330
F10A23
 100
AcDbEntity
8
Text
100
AcDbText
10
95.5000000000000
20
-102.033948697325
30
0.000000000000000
40
0.750000000000000
1
Created by:
100
AcDbText
  0
TEXT
  5
F10A24
330
F10A25
 100
AcDbEntity
8
Text
100
AcDbText
10
120.148153908026
20
-102.033948697325
30
0.000000000000000
40
0.750000000000000
1
nsarkol
100
AcDbText
  0
LWPOLYLINE
  5
F10A26
330
F10A27
100
AcDbEntity
8
Rahmen
100
AcDbPolyline
90
   4
70
   1
43
   0.0
 10
54.4925602007301
 20
-100.147331602392
 10
94.4739437642924
 20
-100.147331602392
 10
94.4739437642924
 20
-103.087139217360
 10
54.4925602007301
 20
-103.087139217360
  0
TEXT
  5
F10A28
330
F10A29
 100
AcDbEntity
8
Text
100
AcDbText
10
55.5000000000000
20
-102.033948697325
30
0.000000000000000
40
0.750000000000000
1
Created for:
100
AcDbText
  0
TEXT
  5
F10A2A
330
F10A2B
 100
AcDbEntity
8
Text
100
AcDbText
10
0.000000000000000
20
0.250000000000000
30
0.000000000000000
40
0.750000000000000
1

100
AcDbText
  0
LWPOLYLINE
  5
F10A2C
330
F10A2D
100
AcDbEntity
8
Rahmen
100
AcDbPolyline
90
   4
70
   1
43
   0.0
 10
121.128199473334
 20
-97.0115368130927
 10
134.455327327855
 20
-97.0115368130927
 10
134.455327327855
 20
-100.147331602392
 10
121.128199473334
 20
-100.147331602392
  0
TEXT
  5
F10A2E
330
F10A2F
 100
AcDbEntity
8
Text
100
AcDbText
10
122.166666666667
20
-99.0339486973247
30
0.000000000000000
40
0.750000000000000
1
Pages
100
AcDbText
  0
TEXT
  5
F10A30
330
F10A31
 100
AcDbEntity
8
Text
100
AcDbText
10
0.000000000000000
20
0.250000000000000
30
0.000000000000000
40
0.750000000000000
1

100
AcDbText
  0
LWPOLYLINE
  5
F10A32
330
F10A33
100
AcDbEntity
8
Rahmen
100
AcDbPolyline
90
   4
70
   1
43
   0.0
 10
121.128199473334
 20
-94.0717291981249
 10
134.455327327855
 20
-94.0717291981249
 10
134.455327327855
 20
-97.0115368130927
 10
121.128199473334
 20
-97.0115368130927
  0
TEXT
  5
F10A34
330
F10A35
 100
AcDbEntity
8
Text
100
AcDbText
10
122.166666666667
20
-96.0339486973247
30
0.000000000000000
40
0.750000000000000
1
Page
100
AcDbText
  0
TEXT
  5
F10A36
330
F10A37
 100
AcDbEntity
8
Text
100
AcDbText
10
0.000000000000000
20
0.250000000000000
30
0.000000000000000
40
0.750000000000000
1

100
AcDbText
  0
LWPOLYLINE
  5
F10A38
330
F10A39
100
AcDbEntity
8
Rahmen
100
AcDbPolyline
90
   4
70
   1
43
   0.0
 10
54.4925602007301
 20
-94.0717291981249
 10
121.128199473334
 20
-94.0717291981249
 10
121.128199473334
 20
-100.147331602392
 10
54.4925602007301
 20
-100.147331602392
  0
TEXT
  5
F10A3A
330
F10A3B
 100
AcDbEntity
8
Text
100
AcDbText
10
55.5000000000000
20
-96.0339486973247
30
0.000000000000000
40
0.750000000000000
1
Date:
100
AcDbText
  0
TEXT
  5
F10A3C
330
F10A3D
 100
AcDbEntity
8
Text
100
AcDbText
10
84.2075706082064
20
-99.0339486973247
30
0.000000000000000
40
0.750000000000000
1
05.07.2016
100
AcDbText
  0
LWPOLYLINE
  5
F10A3E
330
F10A3F
100
AcDbEntity
8
Rahmen
100
AcDbPolyline
90
   4
70
   1
43
   0.0
 10
54.4925602007301
 20
-88.1921139681893
 10
134.455327327855
 20
-88.1921139681893
 10
134.455327327855
 20
-94.0717291981249
 10
54.4925602007301
 20
-94.0717291981249
  0
TEXT
  5
F10A40
330
F10A41
 100
AcDbEntity
8
Text
100
AcDbText
10
0.000000000000000
20
0.500000000000000
30
0.000000000000000
40
1.50000000000000
1

100
AcDbText
  0
TEXT
  5
F10A42
330
F10A43
 100
AcDbEntity
8
Text
100
AcDbText
10
66.7678148321370
20
-92.7144999329721
30
0.000000000000000
40
2.50000000000000
1
VHRS 4 100 070 10 03 050
100
AcDbText
  0
LWPOLYLINE
  5
F10A44
330
F10A45
100
AcDbEntity
8
Rahmen
100
AcDbPolyline
90
   4
70
   1
43
   0.0
 10
94.4739437642924
 20
-82.1165115639225
 10
134.455327327855
 20
-82.1165115639225
 10
134.455327327855
 20
-88.1921139681893
 10
94.4739437642924
 20
-88.1921139681893
  0
TEXT
  5
F10A46
330
F10A47
 100
AcDbEntity
8
Text
100
AcDbText
10
95.5000000000000
20
-84.0339486973247
30
0.000000000000000
40
0.750000000000000
1
Work piece material:
100
AcDbText
  0
TEXT
  5
F10A48
330
F10A49
 100
AcDbEntity
8
Text
100
AcDbText
10
0.000000000000000
20
0.250000000000000
30
0.000000000000000
40
0.750000000000000
1

100
AcDbText
  0
LWPOLYLINE
  5
F10A4A
330
F10A4B
100
AcDbEntity
8
Rahmen
100
AcDbPolyline
90
   4
70
   1
43
   0.0
 10
54.4925602007301
 20
-82.1165115639225
 10
94.4739437642924
 20
-82.1165115639225
 10
94.4739437642924
 20
-88.1921139681893
 10
54.4925602007301
 20
-88.1921139681893
  0
TEXT
  5
F10A4C
330
F10A4D
 100
AcDbEntity
8
Text
100
AcDbText
10
55.5000000000000
20
-84.0339486973247
30
0.000000000000000
40
0.750000000000000
1
Tool material:
100
AcDbText
  0
TEXT
  5
F10A4E
330
F10A4F
 100
AcDbEntity
8
Text
100
AcDbText
10
0.000000000000000
20
0.250000000000000
30
0.000000000000000
40
0.750000000000000
1

100
AcDbText
  0
LWPOLYLINE
  5
F10A50
330
F10A51
100
AcDbEntity
8
Rahmen
100
AcDbPolyline
90
   4
70
   1
43
   0.0
 10
94.4739437642924
 20
-79.1767039489547
 10
134.455327327855
 20
-79.1767039489547
 10
134.455327327855
 20
-82.1165115639225
 10
94.4739437642924
 20
-82.1165115639225
  0
TEXT
  5
F10A52
330
F10A53
 100
AcDbEntity
8
Text
100
AcDbText
10
0.000000000000000
20
0.500000000000000
30
0.000000000000000
40
1.50000000000000
1

100
AcDbText
  0
TEXT
  5
F10A54
330
F10A55
 100
AcDbEntity
8
Text
100
AcDbText
10
0.000000000000000
20
0.250000000000000
30
0.000000000000000
40
0.750000000000000
1

100
AcDbText
  0
LWPOLYLINE
  5
F10A56
330
F10A57
100
AcDbEntity
8
Rahmen
100
AcDbPolyline
90
   4
70
   1
43
   0.0
 10
54.4925602007301
 20
-79.1767039489547
 10
94.4739437642924
 20
-79.1767039489547
 10
94.4739437642924
 20
-82.1165115639225
 10
54.4925602007301
 20
-82.1165115639225
  0
TEXT
  5
F10A58
330
F10A59
 100
AcDbEntity
8
Text
100
AcDbText
10
55.5000000000000
20
-81.0339486973247
30
0.000000000000000
40
0.750000000000000
1
Scale:
100
AcDbText
  0
TEXT
  5
F10A5A
330
F10A5B
 100
AcDbEntity
8
Text
100
AcDbText
10
81.0300961925161
20
-81.0339486973247
30
0.000000000000000
40
0.750000000000000
1
3 : 1
100
AcDbText
0
VIEWPORT
5
294
102
{ACAD_XDICTIONARY
360
58A
102
}
330
25D
100
AcDbEntity
67
1
8
0
60
1
100
AcDbViewport
10
0.0
20
0.0
30
0.0
40
10.0
41
10.0
68
-1
69
1
12
0.0
22
0.0
13
0.0
23
0.0
14
1.0
24
1.0
15
0.0
25
0.0
16
0.0
26
0.0
36
1.0
17
0.0
27
0.0
37
0.0
42
0.0
43
0.0
44
0.0
45
10.0
50
0.0
51
0.0000000000007958
72
100
90
32800
1

281
0
71
0
74
0
110
0.0
120
0.0
130
0.0
111
1.0
121
0.0
131
0.0
112
0.0
122
1.0
132
0.0
79
0
146
0.0
1001
VD_INVISIBLE_NOT_FOR_READ
1000
VD_INVISIBLE_NOT_FOR_READ
0
VIEWPORT
5
295
102
{ACAD_XDICTIONARY
360
58C
102
}
330
25D
100
AcDbEntity
67
1
8
0
60
1
100
AcDbViewport
10
0.0
20
0.0
30
0.0
40
10.0
41
10.0
68
0
69
2
12
0.0
22
0.0
13
0.0
23
0.0
14
1.0
24
1.0
15
0.0
25
0.0
16
0.0
26
0.0
36
1.0
17
0.0
27
0.0
37
0.0
42
0.0
43
0.0
44
0.0
45
10.0
50
0.0
51
0.0000000000007958
72
100
90
163872
1

281
0
71
0
74
0
110
0.0
120
0.0
130
0.0
111
1.0
121
0.0
131
0.0
112
0.0
122
1.0
132
0.0
79
0
146
0.0
1001
VD_INVISIBLE_NOT_FOR_READ
1000
VD_INVISIBLE_NOT_FOR_READ
0
ENDSEC
0
SECTION
2
OBJECTS
0
DICTIONARY
5
13
330
0
100
AcDbDictionary
281
1
3
ACAD_COLOR
350
FA7
3
ACAD_GROUP
350
14
3
ACAD_LAYOUT
350
FCF
3
ACAD_MATERIAL
350
F7A
3
ACAD_MLEADERSTYLE
350
FCD
3
ACAD_MLINESTYLE
350
16
3
ACAD_PLOTSETTINGS
350
17
3
ACAD_PLOTSTYLENAME
350
18
3
ACAD_SCALELIST
350
FAB
3
ACAD_TABLESTYLE
350
FA8
3
ACAD_VISUALSTYLE
350
F93
3
ACDB_RECOMPOSE_DATA
350
107E
3
AcDbVariableDictionary
350
FF0
3
DWGPROPS
350
107F
0
DICTIONARY
5
F10014
330
F10013
100
AcDbDictionary
280
1
281
1
3
ACAD_MTEXT_2008_RT
360
F10015
0
DICTIONARY
5
F1001E
330
F1001D
100
AcDbDictionary
280
1
281
1
3
ACAD_MTEXT_2008_RT
360
F1001F
0
DICTIONARY
5
F10023
330
F10022
100
AcDbDictionary
280
1
281
1
3
ACAD_MTEXT_2008_RT
360
F10024
0
DICTIONARY
5
F10005
330
F10004
100
AcDbDictionary
280
1
281
1
3
ACAD_MTEXT_2008_RT
360
F10006
0
DICTIONARY
5
F1000F
330
F1000E
100
AcDbDictionary
280
1
281
1
3
ACAD_MTEXT_2008_RT
360
F10010
0
DICTIONARY
5
F1000A
330
F10009
100
AcDbDictionary
280
1
281
1
3
ACAD_MTEXT_2008_RT
360
F1000B
0
DICTIONARY
5
F10019
330
F10018
100
AcDbDictionary
280
1
281
1
3
ACAD_MTEXT_2008_RT
360
F1001A
0
DICTIONARY
5
FA7
102
{ACAD_REACTORS
330
13
102
}
330
13
100
AcDbDictionary
281
1
0
DICTIONARY
5
14
330
13
100
AcDbDictionary
281
1
0
DICTIONARY
5
FCF
102
{ACAD_REACTORS
330
13
102
}
330
13
100
AcDbDictionary
281
1
3
Layout1
350
FD1
3
Model
350
FD0
0
DICTIONARY
5
F7A
102
{ACAD_REACTORS
330
13
102
}
330
13
100
AcDbDictionary
281
1
3
ByBlock
350
F83
3
ByLayer
350
F7B
3
Global
350
F8B
0
DICTIONARY
5
FCD
102
{ACAD_REACTORS
330
13
102
}
330
13
100
AcDbDictionary
281
1
3
Standard
350
FCE
0
DICTIONARY
5
16
330
13
100
AcDbDictionary
281
1
3
Standard
350
FAA
0
DICTIONARY
5
17
102
{ACAD_REACTORS
330
13
102
}
330
13
100
AcDbDictionary
281
1
0
ACDBDICTIONARYWDFLT
5
18
102
{ACAD_REACTORS
330
13
102
}
330
13
100
AcDbDictionary
281
1
3
Normal
350
19
100
AcDbDictionaryWithDefault
340
19
0
DICTIONARY
5
FAB
102
{ACAD_REACTORS
330
13
102
}
330
13
100
AcDbDictionary
281
1
3
A0
350
FAC
3
A1
350
FAD
3
A2
350
FAE
3
A3
350
FAF
3
A4
350
FB0
3
A5
350
FB1
3
A6
350
FB2
3
A7
350
FB3
3
A8
350
FB4
3
A9
350
FB5
3
B0
350
FB6
3
B1
350
FB7
3
B2
350
FB8
3
B3
350
FB9
3
B4
350
FBA
3
B5
350
FBB
3
B6
350
FBC
3
B7
350
FBD
3
B8
350
FBE
3
B9
350
FBF
3
C0
350
FC0
3
C1
350
FC1
3
C2
350
FC2
3
C3
350
FC3
3
C4
350
FC4
3
C5
350
FC5
3
C6
350
FC6
3
C7
350
FC7
3
C8
350
FC8
3
C9
350
FC9
3
D0
350
FCA
3
D1
350
FCB
3
D2
350
FCC
0
DICTIONARY
5
FA8
102
{ACAD_REACTORS
330
13
102
}
330
13
100
AcDbDictionary
281
1
3
Standard
350
FA9
0
DICTIONARY
5
F93
102
{ACAD_REACTORS
330
13
102
}
330
13
100
AcDbDictionary
281
1
3
2dWireframe
350
F99
3
3D Hidden
350
F9B
3
3dWireframe
350
F9A
3
Basic
350
F98
3
Brighten
350
F9F
3
ColorChange
350
FA3
3
Conceptual
350
F9C
3
Dim
350
F9E
3
EdgeColorOff
350
FA6
3
Facepattern
350
FA2
3
Flat
350
F94
3
FlatWithEdges
350
F95
3
Gouraud
350
F96
3
GouraudWithEdges
350
F97
3
JitterOff
350
FA4
3
Linepattern
350
FA1
3
OverhangOff
350
FA5
3
Realistic
350
F9D
3
Thicken
350
FA0
0
XRECORD
5
107E
102
{ACAD_REACTORS
330
13
102
}
330
13
100
AcDbXrecord
280
1
90
1
330
FA9
330
F10013
330
F1001D
330
F10022
330
F10004
330
F1000E
330
F10009
330
F10018
0
XRECORD
5
F10015
102
{ACAD_REACTORS
330
F10014
102
}
330
F10014
100
AcDbXrecord
280
1
40
48458.0
1
48
0
XRECORD
5
F1001F
102
{ACAD_REACTORS
330
F1001E
102
}
330
F1001E
100
AcDbXrecord
280
1
40
48458.0
1
22
0
XRECORD
5
F10024
102
{ACAD_REACTORS
330
F10023
102
}
330
F10023
100
AcDbXrecord
280
1
40
48458.0
1
70
0
XRECORD
5
F10006
102
{ACAD_REACTORS
330
F10005
102
}
330
F10005
100
AcDbXrecord
280
1
40
48458.0
1
2°
0
XRECORD
5
F10010
102
{ACAD_REACTORS
330
F1000F
102
}
330
F1000F
100
AcDbXrecord
280
1
40
48458.0
1
R0.5
0
XRECORD
5
F1000B
102
{ACAD_REACTORS
330
F1000A
102
}
330
F1000A
100
AcDbXrecord
280
1
40
48458.0
1
10
0
LAYOUT
5
FD1
102
{ACAD_XDICTIONARY
360
10A9
102
}
102
{ACAD_REACTORS
330
FCF
102
}
330
FCF
100
AcDbPlotSettings
1

2
Microsoft XPS Document Writer
4

6

40
0.0
41
0.0
42
0.0
43
0.0
44
0.0
45
0.0
46
0.0
47
0.0
48
0.0
49
0.0
140
0.0
141
0.0
142
1.0
143
1.0
70
688
72
0
73
0
74
5
7

75
16
147
1.0
148
0.0
149
0.0
100
AcDbLayout
1
Layout1
70
1
71
1
10
0.0
20
0.0
11
12.0
21
9.0
12
0.0
22
0.0
32
0.0
14
1.000000000000000E+20
24
1.000000000000000E+20
34
1.000000000000000E+20
15
-1.000000000000000E+20
25
-1.000000000000000E+20
35
-1.000000000000000E+20
146
0.0
13
0.0
23
0.0
33
0.0
16
1.0
26
0.0
36
0.0
17
0.0
27
1.0
37
0.0
76
0
330
25D
0
LAYOUT
5
FD0
102
{ACAD_XDICTIONARY
360
10A7
102
}
102
{ACAD_REACTORS
330
FCF
102
}
330
FCF
100
AcDbPlotSettings
1

2
Microsoft XPS Document Writer
4

6

40
0.0
41
0.0
42
0.0
43
0.0
44
0.0
45
0.0
46
0.0
47
0.0
48
0.0
49
0.0
140
0.0
141
0.0
142
1.0
143
1.0
70
1712
72
0
73
0
74
0
7

75
0
147
1.0
148
0.0
149
0.0
100
AcDbLayout
1
Model
70
1
71
0
10
0.0
20
0.0
11
12.0
21
9.0
12
0.0
22
0.0
32
0.0
14
0.0
24
0.0
34
0.0
15
0.0
25
0.0
35
0.0
146
0.0
13
0.0
23
0.0
33
0.0
16
1.0
26
0.0
36
0.0
17
0.0
27
1.0
37
0.0
76
0
330
261
331
26B
0
MATERIAL
5
F83
102
{ACAD_XDICTIONARY
360
F84
102
}
102
{ACAD_REACTORS
330
F7A
102
}
330
F7A
100
AcDbMaterial
1
ByBlock
72
0
43
0.0208333333333333
43
0.0
43
0.0
43
0.0
43
0.0
43
0.0208333333333333
43
0.0
43
0.0
43
0.0
43
0.0
43
1.0
43
0.0
43
0.0
43
0.0
43
0.0
43
1.0
77
0
47
0.0208333333333333
47
0.0
47
0.0
47
0.0
47
0.0
47
0.0208333333333333
47
0.0
47
0.0
47
0.0
47
0.0
47
1.0
47
0.0
47
0.0
47
0.0
47
0.0
47
1.0
171
0
49
0.0208333333333333
49
0.0
49
0.0
49
0.0
49
0.0
49
0.0208333333333333
49
0.0
49
0.0
49
0.0
49
0.0
49
1.0
49
0.0
49
0.0
49
0.0
49
0.0
49
1.0
175
0
142
0.0208333333333333
142
0.0
142
0.0
142
0.0
142
0.0
142
0.0208333333333333
142
0.0
142
0.0
142
0.0
142
0.0
142
1.0
142
0.0
142
0.0
142
0.0
142
0.0
142
1.0
179
0
144
0.0208333333333333
144
0.0
144
0.0
144
0.0
144
0.0
144
0.0208333333333333
144
0.0
144
0.0
144
0.0
144
0.0
144
1.0
144
0.0
144
0.0
144
0.0
144
0.0
144
1.0
147
0.0208333333333333
147
0.0
147
0.0
147
0.0
147
0.0
147
0.0208333333333333
147
0.0
147
0.0
147
0.0
147
0.0
147
1.0
147
0.0
147
0.0
147
0.0
147
0.0
147
1.0
0
MATERIAL
5
F7B
102
{ACAD_XDICTIONARY
360
F7C
102
}
102
{ACAD_REACTORS
330
F7A
102
}
330
F7A
100
AcDbMaterial
1
ByLayer
72
0
43
0.0208333333333333
43
0.0
43
0.0
43
0.0
43
0.0
43
0.0208333333333333
43
0.0
43
0.0
43
0.0
43
0.0
43
1.0
43
0.0
43
0.0
43
0.0
43
0.0
43
1.0
77
0
47
0.0208333333333333
47
0.0
47
0.0
47
0.0
47
0.0
47
0.0208333333333333
47
0.0
47
0.0
47
0.0
47
0.0
47
1.0
47
0.0
47
0.0
47
0.0
47
0.0
47
1.0
171
0
49
0.0208333333333333
49
0.0
49
0.0
49
0.0
49
0.0
49
0.0208333333333333
49
0.0
49
0.0
49
0.0
49
0.0
49
1.0
49
0.0
49
0.0
49
0.0
49
0.0
49
1.0
175
0
142
0.0208333333333333
142
0.0
142
0.0
142
0.0
142
0.0
142
0.0208333333333333
142
0.0
142
0.0
142
0.0
142
0.0
142
1.0
142
0.0
142
0.0
142
0.0
142
0.0
142
1.0
179
0
144
0.0208333333333333
144
0.0
144
0.0
144
0.0
144
0.0
144
0.0208333333333333
144
0.0
144
0.0
144
0.0
144
0.0
144
1.0
144
0.0
144
0.0
144
0.0
144
0.0
144
1.0
147
0.0208333333333333
147
0.0
147
0.0
147
0.0
147
0.0
147
0.0208333333333333
147
0.0
147
0.0
147
0.0
147
0.0
147
1.0
147
0.0
147
0.0
147
0.0
147
0.0
147
1.0
0
MATERIAL
5
F8B
102
{ACAD_XDICTIONARY
360
F8C
102
}
102
{ACAD_REACTORS
330
F7A
102
}
330
F7A
100
AcDbMaterial
1
Global
72
0
43
0.0208333333333333
43
0.0
43
0.0
43
0.0
43
0.0
43
0.0208333333333333
43
0.0
43
0.0
43
0.0
43
0.0
43
1.0
43
0.0
43
0.0
43
0.0
43
0.0
43
1.0
77
0
47
0.0208333333333333
47
0.0
47
0.0
47
0.0
47
0.0
47
0.0208333333333333
47
0.0
47
0.0
47
0.0
47
0.0
47
1.0
47
0.0
47
0.0
47
0.0
47
0.0
47
1.0
171
0
49
0.0208333333333333
49
0.0
49
0.0
49
0.0
49
0.0
49
0.0208333333333333
49
0.0
49
0.0
49
0.0
49
0.0
49
1.0
49
0.0
49
0.0
49
0.0
49
0.0
49
1.0
175
0
142
0.0208333333333333
142
0.0
142
0.0
142
0.0
142
0.0
142
0.0208333333333333
142
0.0
142
0.0
142
0.0
142
0.0
142
1.0
142
0.0
142
0.0
142
0.0
142
0.0
142
1.0
179
0
144
0.0208333333333333
144
0.0
144
0.0
144
0.0
144
0.0
144
0.0208333333333333
144
0.0
144
0.0
144
0.0
144
0.0
144
1.0
144
0.0
144
0.0
144
0.0
144
0.0
144
1.0
147
0.0208333333333333
147
0.0
147
0.0
147
0.0
147
0.0
147
0.0208333333333333
147
0.0
147
0.0
147
0.0
147
0.0
147
1.0
147
0.0
147
0.0
147
0.0
147
0.0
147
1.0
0
MLEADERSTYLE
5
FCE
102
{ACAD_REACTORS
330
FCD
102
}
330
FCD
100
AcDbMLeaderStyle
170
2
171
1
172
0
90
2
40
0.0
41
0.0
173
1
91
-1056964608
340
256
92
-2
290
1
42
0.09
291
1
43
0.36
3
Standard
44
0.18
300

342
253
174
1
178
6
175
1
176
0
93
-1056964608
45
0.18
292
0
297
0
46
0.18
94
-1056964608
47
1.0
49
1.0
140
1.0
293
1
141
0.0
294
1
177
0
142
1.0
295
0
296
0
143
0.125
1001
ACAD_MLEADERVER
1070
2
0
MLINESTYLE
5
FAA
102
{ACAD_REACTORS
330
16
102
}
330
16
100
AcDbMlineStyle
2
STANDARD
70
0
3

62
256
51
90.0
52
90.0
71
2
49
0.5
62
256
6
BYLAYER
49
-0.5
62
256
6
BYLAYER
0
ACDBPLACEHOLDER
5
19
102
{ACAD_REACTORS
330
18
102
}
330
18
0
SCALE
5
FAC
102
{ACAD_REACTORS
330
FAB
102
}
330
FAB
100
AcDbScale
70
0
300
1:1
140
1.0
141
1.0
290
1
0
SCALE
5
FAD
102
{ACAD_REACTORS
330
FAB
102
}
330
FAB
100
AcDbScale
70
0
300
1:2
140
1.0
141
2.0
290
0
0
SCALE
5
FAE
102
{ACAD_REACTORS
330
FAB
102
}
330
FAB
100
AcDbScale
70
0
300
1:4
140
1.0
141
4.0
290
0
0
SCALE
5
FAF
102
{ACAD_REACTORS
330
FAB
102
}
330
FAB
100
AcDbScale
70
0
300
1:5
140
1.0
141
5.0
290
0
0
SCALE
5
FB0
102
{ACAD_REACTORS
330
FAB
102
}
330
FAB
100
AcDbScale
70
0
300
1:8
140
1.0
141
8.0
290
0
0
SCALE
5
FB1
102
{ACAD_REACTORS
330
FAB
102
}
330
FAB
100
AcDbScale
70
0
300
1:10
140
1.0
141
10.0
290
0
0
SCALE
5
FB2
102
{ACAD_REACTORS
330
FAB
102
}
330
FAB
100
AcDbScale
70
0
300
1:16
140
1.0
141
16.0
290
0
0
SCALE
5
FB3
102
{ACAD_REACTORS
330
FAB
102
}
330
FAB
100
AcDbScale
70
0
300
1:20
140
1.0
141
20.0
290
0
0
SCALE
5
FB4
102
{ACAD_REACTORS
330
FAB
102
}
330
FAB
100
AcDbScale
70
0
300
1:30
140
1.0
141
30.0
290
0
0
SCALE
5
FB5
102
{ACAD_REACTORS
330
FAB
102
}
330
FAB
100
AcDbScale
70
0
300
1:40
140
1.0
141
40.0
290
0
0
SCALE
5
FB6
102
{ACAD_REACTORS
330
FAB
102
}
330
FAB
100
AcDbScale
70
0
300
1:50
140
1.0
141
50.0
290
0
0
SCALE
5
FB7
102
{ACAD_REACTORS
330
FAB
102
}
330
FAB
100
AcDbScale
70
0
300
1:100
140
1.0
141
100.0
290
0
0
SCALE
5
FB8
102
{ACAD_REACTORS
330
FAB
102
}
330
FAB
100
AcDbScale
70
0
300
2:1
140
2.0
141
1.0
290
0
0
SCALE
5
FB9
102
{ACAD_REACTORS
330
FAB
102
}
330
FAB
100
AcDbScale
70
0
300
4:1
140
4.0
141
1.0
290
0
0
SCALE
5
FBA
102
{ACAD_REACTORS
330
FAB
102
}
330
FAB
100
AcDbScale
70
0
300
8:1
140
8.0
141
1.0
290
0
0
SCALE
5
FBB
102
{ACAD_REACTORS
330
FAB
102
}
330
FAB
100
AcDbScale
70
0
300
10:1
140
10.0
141
1.0
290
0
0
SCALE
5
FBC
102
{ACAD_REACTORS
330
FAB
102
}
330
FAB
100
AcDbScale
70
0
300
100:1
140
100.0
141
1.0
290
0
0
SCALE
5
FBD
102
{ACAD_REACTORS
330
FAB
102
}
330
FAB
100
AcDbScale
70
0
300
1/128" = 1'-0"
140
0.0078125
141
12.0
290
0
0
SCALE
5
FBE
102
{ACAD_REACTORS
330
FAB
102
}
330
FAB
100
AcDbScale
70
0
300
1/64" = 1'-0"
140
0.015625
141
12.0
290
0
0
SCALE
5
FBF
102
{ACAD_REACTORS
330
FAB
102
}
330
FAB
100
AcDbScale
70
0
300
1/32" = 1'-0"
140
0.03125
141
12.0
290
0
0
SCALE
5
FC0
102
{ACAD_REACTORS
330
FAB
102
}
330
FAB
100
AcDbScale
70
0
300
1/16" = 1'-0"
140
0.0625
141
12.0
290
0
0
SCALE
5
FC1
102
{ACAD_REACTORS
330
FAB
102
}
330
FAB
100
AcDbScale
70
0
300
3/32" = 1'-0"
140
0.09375
141
12.0
290
0
0
SCALE
5
FC2
102
{ACAD_REACTORS
330
FAB
102
}
330
FAB
100
AcDbScale
70
0
300
1/8" = 1'-0"
140
0.125
141
12.0
290
0
0
SCALE
5
FC3
102
{ACAD_REACTORS
330
FAB
102
}
330
FAB
100
AcDbScale
70
0
300
3/16" = 1'-0"
140
0.1875
141
12.0
290
0
0
SCALE
5
FC4
102
{ACAD_REACTORS
330
FAB
102
}
330
FAB
100
AcDbScale
70
0
300
1/4" = 1'-0"
140
0.25
141
12.0
290
0
0
SCALE
5
FC5
102
{ACAD_REACTORS
330
FAB
102
}
330
FAB
100
AcDbScale
70
0
300
3/8" = 1'-0"
140
0.375
141
12.0
290
0
0
SCALE
5
FC6
102
{ACAD_REACTORS
330
FAB
102
}
330
FAB
100
AcDbScale
70
0
300
1/2" = 1'-0"
140
0.5
141
12.0
290
0
0
SCALE
5
FC7
102
{ACAD_REACTORS
330
FAB
102
}
330
FAB
100
AcDbScale
70
0
300
3/4" = 1'-0"
140
0.75
141
12.0
290
0
0
SCALE
5
FC8
102
{ACAD_REACTORS
330
FAB
102
}
330
FAB
100
AcDbScale
70
0
300
1" = 1'-0"
140
1.0
141
12.0
290
0
0
SCALE
5
FC9
102
{ACAD_REACTORS
330
FAB
102
}
330
FAB
100
AcDbScale
70
0
300
1-1/2" = 1'-0"
140
1.5
141
12.0
290
0
0
SCALE
5
FCA
102
{ACAD_REACTORS
330
FAB
102
}
330
FAB
100
AcDbScale
70
0
300
3" = 1'-0"
140
3.0
141
12.0
290
0
0
SCALE
5
FCB
102
{ACAD_REACTORS
330
FAB
102
}
330
FAB
100
AcDbScale
70
0
300
6" = 1'-0"
140
6.0
141
12.0
290
0
0
SCALE
5
FCC
102
{ACAD_REACTORS
330
FAB
102
}
330
FAB
100
AcDbScale
70
0
300
1'-0" = 1'-0"
140
12.0
141
12.0
290
0
0
TABLESTYLE
5
FA9
102
{ACAD_XDICTIONARY
360
FF8
102
}
102
{ACAD_REACTORS
330
FA8
102
}
330
FA8
100
AcDbTableStyle
3
Standard
70
0
71
0
40
0.06
41
0.06
280
0
281
0
7
Standard
140
0.18
170
2
62
0
63
7
283
0
274
-2
284
1
64
0
275
-2
285
1
65
0
276
-2
286
1
66
0
277
-2
287
1
67
0
278
-2
288
1
68
0
279
-2
289
1
69
0
7
Standard
140
0.25
170
5
62
0
63
7
283
0
274
-2
284
1
64
0
275
-2
285
1
65
0
276
-2
286
1
66
0
277
-2
287
1
67
0
278
-2
288
1
68
0
279
-2
289
1
69
0
7
Standard
140
0.18
170
5
62
0
63
7
283
0
274
-2
284
1
64
0
275
-2
285
1
65
0
276
-2
286
1
66
0
277
-2
287
1
67
0
278
-2
288
1
68
0
279
-2
289
1
69
0
0
VISUALSTYLE
5
F99
102
{ACAD_XDICTIONARY
360
108A
102
}
102
{ACAD_REACTORS
330
F93
102
}
330
F93
100
AcDbVisualStyle
2

70
4
71
0
72
2
73
0
90
0
40
-0.6
41
-30.0
62
5
63
7
74
1
91
4
64
7
65
257
75
1
175
1
42
1.0
92
0
66
257
43
1.0
76
1
77
6
78
2
67
7
79
5
170
0
171
0
290
0
174
0
93
1
44
0.0
173
0
291
0
45
0.0
1001
ACAD
1000
AcDbSavedByObjectVersion
1070
0
0
VISUALSTYLE
5
F9B
102
{ACAD_XDICTIONARY
360
108E
102
}
102
{ACAD_REACTORS
330
F93
102
}
330
F93
100
AcDbVisualStyle
2

70
6
71
1
72
2
73
2
90
0
40
-0.6
41
-30.0
62
5
63
7
74
2
91
2
64
7
65
257
75
2
175
1
42
179.0
92
0
66
257
43
1.0
76
1
77
6
78
2
67
7
79
3
170
0
171
0
290
0
174
0
93
1
44
0.0
173
0
291
0
45
0.0
1001
ACAD
1000
AcDbSavedByObjectVersion
1070
0
0
VISUALSTYLE
5
F9A
102
{ACAD_XDICTIONARY
360
108C
102
}
102
{ACAD_REACTORS
330
F93
102
}
330
F93
100
AcDbVisualStyle
2

70
5
71
0
72
2
73
0
90
0
40
-0.6
41
-30.0
62
5
63
7
74
1
91
4
64
7
65
257
75
1
175
1
42
1.0
92
0
66
257
43
1.0
76
1
77
6
78
2
67
7
79
5
170
0
171
0
290
0
174
0
93
1
44
0.0
173
0
291
0
45
0.0
1001
ACAD
1000
AcDbSavedByObjectVersion
1070
0
0
VISUALSTYLE
5
F98
102
{ACAD_XDICTIONARY
360
1088
102
}
102
{ACAD_REACTORS
330
F93
102
}
330
F93
100
AcDbVisualStyle
2

70
7
71
1
72
0
73
1
90
0
40
-0.6
41
-30.0
62
5
63
7
74
0
91
4
64
7
65
257
75
1
175
1
42
1.0
92
8
66
7
43
1.0
76
1
77
6
78
2
67
7
79
5
170
0
171
0
290
0
174
0
93
1
44
0.0
173
0
291
1
45
0.0
1001
ACAD
1000
AcDbSavedByObjectVersion
1070
0
0
VISUALSTYLE
5
F9F
102
{ACAD_XDICTIONARY
360
1096
102
}
102
{ACAD_REACTORS
330
F93
102
}
330
F93
100
AcDbVisualStyle
2

70
12
71
2
72
2
73
0
90
0
40
-0.6
41
-30.0
62
5
63
7
74
1
91
4
64
7
65
257
75
1
175
1
42
1.0
92
8
66
7
43
1.0
76
1
77
6
78
2
67
7
79
5
170
0
171
0
290
0
174
0
93
1
44
50.0
173
0
291
1
45
0.0
1001
ACAD
1000
AcDbSavedByObjectVersion
1070
0
0
VISUALSTYLE
5
FA3
102
{ACAD_XDICTIONARY
360
109E
102
}
102
{ACAD_REACTORS
330
F93
102
}
330
F93
100
AcDbVisualStyle
2

70
16
71
2
72
2
73
3
90
0
40
-0.6
41
-30.0
62
5
63
8
74
1
91
4
64
7
65
257
75
1
175
1
42
1.0
92
8
66
8
43
1.0
76
1
77
6
78
2
67
7
79
5
170
0
171
0
290
0
174
0
93
1
44
0.0
173
0
291
1
45
0.0
1001
ACAD
1000
AcDbSavedByObjectVersion
1070
0
0
VISUALSTYLE
5
F9C
102
{ACAD_XDICTIONARY
360
1090
102
}
102
{ACAD_REACTORS
330
F93
102
}
330
F93
100
AcDbVisualStyle
2

70
9
71
3
72
2
73
0
90
0
40
-0.6
41
-30.0
62
5
63
7
74
2
91
2
64
7
65
257
75
1
175
1
42
179.0
92
8
66
7
43
1.0
76
1
77
6
78
2
67
7
79
3
170
0
171
0
290
0
174
0
93
1
44
0.0
173
0
291
0
45
0.0
1001
ACAD
1000
AcDbSavedByObjectVersion
1070
0
0
VISUALSTYLE
5
F9E
102
{ACAD_XDICTIONARY
360
1094
102
}
102
{ACAD_REACTORS
330
F93
102
}
330
F93
100
AcDbVisualStyle
2

70
11
71
2
72
2
73
0
90
0
40
-0.6
41
-30.0
62
5
63
7
74
1
91
4
64
7
65
257
75
1
175
1
42
1.0
92
8
66
7
43
1.0
76
1
77
6
78
2
67
7
79
5
170
0
171
0
290
0
174
0
93
1
44
-50.0
173
0
291
1
45
0.0
1001
ACAD
1000
AcDbSavedByObjectVersion
1070
0
0
VISUALSTYLE
5
FA6
102
{ACAD_XDICTIONARY
360
10A4
102
}
102
{ACAD_REACTORS
330
F93
102
}
330
F93
100
AcDbVisualStyle
2

70
22
71
2
72
2
73
0
90
0
40
-0.6
41
-30.0
62
5
63
7
74
1
91
4
64
7
65
257
75
1
175
1
42
1.0
92
8
66
7
43
1.0
76
1
77
6
78
2
67
7
79
5
170
0
171
0
290
0
174
0
93
1
44
0.0
173
0
291
1
45
0.0
1001
ACAD
1000
AcDbSavedByObjectVersion
1070
0
0
VISUALSTYLE
5
FA2
102
{ACAD_XDICTIONARY
360
109C
102
}
102
{ACAD_REACTORS
330
F93
102
}
330
F93
100
AcDbVisualStyle
2

70
15
71
2
72
2
73
0
90
0
40
-0.6
41
-30.0
62
5
63
7
74
1
91
4
64
7
65
257
75
1
175
1
42
1.0
92
8
66
7
43
1.0
76
1
77
6
78
2
67
7
79
5
170
0
171
0
290
0
174
0
93
1
44
0.0
173
0
291
1
45
0.0
1001
ACAD
1000
AcDbSavedByObjectVersion
1070
0
0
VISUALSTYLE
5
F94
102
{ACAD_XDICTIONARY
360
1080
102
}
102
{ACAD_REACTORS
330
F93
102
}
330
F93
100
AcDbVisualStyle
2

70
0
71
2
72
1
73
1
90
2
40
-0.6
41
30.0
62
5
63
7
74
0
91
4
64
7
65
257
75
1
175
1
42
1.0
92
8
66
7
43
1.0
76
1
77
6
78
2
67
7
79
5
170
0
171
0
290
0
174
0
93
13
44
0.0
173
0
291
1
45
0.0
1001
ACAD
1000
AcDbSavedByObjectVersion
1070
0
0
VISUALSTYLE
5
F95
102
{ACAD_XDICTIONARY
360
1082
102
}
102
{ACAD_REACTORS
330
F93
102
}
330
F93
100
AcDbVisualStyle
2

70
1
71
2
72
1
73
1
90
2
40
-0.6
41
30.0
62
5
63
7
74
1
91
4
64
7
65
257
75
1
175
1
42
1.0
92
0
66
257
43
1.0
76
1
77
6
78
2
67
7
79
5
170
0
171
0
290
0
174
0
93
13
44
0.0
173
0
291
1
45
0.0
1001
ACAD
1000
AcDbSavedByObjectVersion
1070
0
0
VISUALSTYLE
5
F96
102
{ACAD_XDICTIONARY
360
1084
102
}
102
{ACAD_REACTORS
330
F93
102
}
330
F93
100
AcDbVisualStyle
2

70
2
71
2
72
2
73
1
90
2
40
-0.6
41
30.0
62
5
63
7
74
0
91
4
64
7
65
257
75
1
175
1
42
1.0
92
0
66
7
43
1.0
76
1
77
6
78
2
67
7
79
5
170
0
171
0
290
0
174
0
93
13
44
0.0
173
0
291
1
45
0.0
1001
ACAD
1000
AcDbSavedByObjectVersion
1070
0
0
VISUALSTYLE
5
F97
102
{ACAD_XDICTIONARY
360
1086
102
}
102
{ACAD_REACTORS
330
F93
102
}
330
F93
100
AcDbVisualStyle
2

70
3
71
2
72
2
73
1
90
2
40
-0.6
41
30.0
62
5
63
7
74
1
91
4
64
7
65
257
75
1
175
1
42
1.0
92
0
66
257
43
1.0
76
1
77
6
78
2
67
7
79
5
170
0
171
0
290
0
174
0
93
13
44
0.0
173
0
291
1
45
0.0
1001
ACAD
1000
AcDbSavedByObjectVersion
1070
0
0
VISUALSTYLE
5
FA4
102
{ACAD_XDICTIONARY
360
10A0
102
}
102
{ACAD_REACTORS
330
F93
102
}
330
F93
100
AcDbVisualStyle
2

70
20
71
2
72
2
73
0
90
0
40
-0.6
41
-30.0
62
5
63
7
74
1
91
4
64
7
65
257
75
1
175
1
42
1.0
92
10
66
7
43
1.0
76
1
77
6
78
2
67
7
79
5
170
0
171
0
290
0
174
0
93
1
44
0.0
173
0
291
1
45
0.0
1001
ACAD
1000
AcDbSavedByObjectVersion
1070
0
0
VISUALSTYLE
5
FA1
102
{ACAD_XDICTIONARY
360
109A
102
}
102
{ACAD_REACTORS
330
F93
102
}
330
F93
100
AcDbVisualStyle
2

70
14
71
2
72
2
73
0
90
0
40
-0.6
41
-30.0
62
5
63
7
74
1
91
4
64
7
65
257
75
7
175
7
42
1.0
92
8
66
7
43
1.0
76
1
77
6
78
2
67
7
79
5
170
0
171
0
290
0
174
0
93
1
44
0.0
173
0
291
1
45
0.0
1001
ACAD
1000
AcDbSavedByObjectVersion
1070
0
0
VISUALSTYLE
5
FA5
102
{ACAD_XDICTIONARY
360
10A2
102
}
102
{ACAD_REACTORS
330
F93
102
}
330
F93
100
AcDbVisualStyle
2

70
21
71
2
72
2
73
0
90
0
40
-0.6
41
-30.0
62
5
63
7
74
1
91
4
64
7
65
257
75
1
175
1
42
1.0
92
9
66
7
43
1.0
76
1
77
6
78
2
67
7
79
5
170
0
171
0
290
0
174
0
93
1
44
0.0
173
0
291
1
45
0.0
1001
ACAD
1000
AcDbSavedByObjectVersion
1070
0
0
VISUALSTYLE
5
F9D
102
{ACAD_XDICTIONARY
360
1092
102
}
102
{ACAD_REACTORS
330
F93
102
}
330
F93
100
AcDbVisualStyle
2

70
8
71
2
72
2
73
0
90
0
40
-0.6
41
-30.0
62
5
63
7
74
1
91
0
64
7
65
257
75
1
175
1
42
1.0
92
8
66
8
43
1.0
76
1
77
6
78
2
67
7
79
5
170
0
171
0
290
0
174
0
93
13
44
0.0
173
0
291
0
45
0.0
1001
ACAD
1000
AcDbSavedByObjectVersion
1070
0
0
VISUALSTYLE
5
FA0
102
{ACAD_XDICTIONARY
360
1098
102
}
102
{ACAD_REACTORS
330
F93
102
}
330
F93
100
AcDbVisualStyle
2

70
13
71
2
72
2
73
0
90
0
40
-0.6
41
-30.0
62
5
63
7
74
1
91
4
64
7
65
257
75
1
175
1
42
1.0
92
12
66
7
43
1.0
76
1
77
6
78
2
67
7
79
5
170
0
171
0
290
0
174
0
93
1
44
0.0
173
0
291
1
45
0.0
1001
ACAD
1000
AcDbSavedByObjectVersion
1070
0
0
DICTIONARYVAR
5
FF3
102
{ACAD_REACTORS
330
FF0
102
}
330
FF0
100
DictionaryVariables
280
0
1
1:1
0
DICTIONARYVAR
5
FF2
102
{ACAD_REACTORS
330
FF0
102
}
330
FF0
100
DictionaryVariables
280
0
1
STANDARD
0
DICTIONARYVAR
5
FF1
102
{ACAD_REACTORS
330
FF0
102
}
330
FF0
100
DictionaryVariables
280
0
1
STANDARD
0
DICTIONARYVAR
5
FF6
102
{ACAD_REACTORS
330
FF0
102
}
330
FF0
100
DictionaryVariables
280
0
1
1
0
DICTIONARYVAR
5
FF5
102
{ACAD_REACTORS
330
FF0
102
}
330
FF0
100
DictionaryVariables
280
0
1
0
0
DICTIONARYVAR
5
FF4
102
{ACAD_REACTORS
330
FF0
102
}
330
FF0
100
DictionaryVariables
280
0
1
127
0
DICTIONARYVAR
5
1078
102
{ACAD_REACTORS
330
FF0
102
}
330
FF0
100
DictionaryVariables
280
0
1
2
0
DICTIONARY
5
10A9
330
FD1
100
AcDbDictionary
280
1
281
1
3
ACAD_XREC_ROUNDTRIP
360
10AA
0
DICTIONARY
5
10A7
330
FD0
100
AcDbDictionary
280
1
281
1
3
ACAD_XREC_ROUNDTRIP
360
10A8
0
DICTIONARY
5
F84
330
F83
100
AcDbDictionary
280
1
281
1
3
ACAD_XREC_ROUNDTRIP
360
FFF
3
BUMPTILE
360
F86
3
DIFFUSETILE
360
F85
3
OPACITYTILE
360
F89
3
REFLECTIONTILE
360
F88
3
REFRACTIONTILE
360
F8A
3
SPECULARTILE
360
F87
0
DICTIONARY
5
F7C
330
F7B
100
AcDbDictionary
280
1
281
1
3
ACAD_XREC_ROUNDTRIP
360
FFE
3
BUMPTILE
360
F7E
3
DIFFUSETILE
360
F7D
3
OPACITYTILE
360
F81
3
REFLECTIONTILE
360
F80
3
REFRACTIONTILE
360
F82
3
SPECULARTILE
360
F7F
0
DICTIONARY
5
F8C
330
F8B
100
AcDbDictionary
280
1
281
1
3
ACAD_XREC_ROUNDTRIP
360
1000
3
BUMPTILE
360
F8E
3
DIFFUSETILE
360
F8D
3
OPACITYTILE
360
F91
3
REFLECTIONTILE
360
F90
3
REFRACTIONTILE
360
F92
3
SPECULARTILE
360
F8F
0
DICTIONARY
5
FF8
330
FA9
100
AcDbDictionary
280
1
281
1
3
ACAD_ROUNDTRIP_2008_TABLESTYLE_CELLSTYLEMAP
360
1079
3
ACAD_XREC_ROUNDTRIP
360
10A6
0
DICTIONARY
5
108A
330
F99
100
AcDbDictionary
280
1
281
1
3
ACAD_XREC_ROUNDTRIP
360
108B
0
DICTIONARY
5
108E
330
F9B
100
AcDbDictionary
280
1
281
1
3
ACAD_XREC_ROUNDTRIP
360
108F
0
DICTIONARY
5
108C
330
F9A
100
AcDbDictionary
280
1
281
1
3
ACAD_XREC_ROUNDTRIP
360
108D
0
DICTIONARY
5
1088
330
F98
100
AcDbDictionary
280
1
281
1
3
ACAD_XREC_ROUNDTRIP
360
1089
0
DICTIONARY
5
1096
330
F9F
100
AcDbDictionary
280
1
281
1
3
ACAD_XREC_ROUNDTRIP
360
1097
0
DICTIONARY
5
109E
330
FA3
100
AcDbDictionary
280
1
281
1
3
ACAD_XREC_ROUNDTRIP
360
109F
0
DICTIONARY
5
1090
330
F9C
100
AcDbDictionary
280
1
281
1
3
ACAD_XREC_ROUNDTRIP
360
1091
0
DICTIONARY
5
1094
330
F9E
100
AcDbDictionary
280
1
281
1
3
ACAD_XREC_ROUNDTRIP
360
1095
0
DICTIONARY
5
10A4
330
FA6
100
AcDbDictionary
280
1
281
1
3
ACAD_XREC_ROUNDTRIP
360
10A5
0
DICTIONARY
5
109C
330
FA2
100
AcDbDictionary
280
1
281
1
3
ACAD_XREC_ROUNDTRIP
360
109D
0
DICTIONARY
5
1080
330
F94
100
AcDbDictionary
280
1
281
1
3
ACAD_XREC_ROUNDTRIP
360
1081
0
DICTIONARY
5
1082
330
F95
100
AcDbDictionary
280
1
281
1
3
ACAD_XREC_ROUNDTRIP
360
1083
0
DICTIONARY
5
1084
330
F96
100
AcDbDictionary
280
1
281
1
3
ACAD_XREC_ROUNDTRIP
360
1085
0
DICTIONARY
5
1086
330
F97
100
AcDbDictionary
280
1
281
1
3
ACAD_XREC_ROUNDTRIP
360
1087
0
DICTIONARY
5
10A0
330
FA4
100
AcDbDictionary
280
1
281
1
3
ACAD_XREC_ROUNDTRIP
360
10A1
0
DICTIONARY
5
109A
330
FA1
100
AcDbDictionary
280
1
281
1
3
ACAD_XREC_ROUNDTRIP
360
109B
0
DICTIONARY
5
10A2
330
FA5
100
AcDbDictionary
280
1
281
1
3
ACAD_XREC_ROUNDTRIP
360
10A3
0
DICTIONARY
5
1092
330
F9D
100
AcDbDictionary
280
1
281
1
3
ACAD_XREC_ROUNDTRIP
360
1093
0
DICTIONARY
5
1098
330
FA0
100
AcDbDictionary
280
1
281
1
3
ACAD_XREC_ROUNDTRIP
360
1099
0
XRECORD
5
10AA
102
{ACAD_REACTORS
330
10A9
102
}
330
10A9
100
AcDbXrecord
280
1
102
SHADEPLOT
70
0
102
SHADEPLOTRESLEVEL
70
2
102
SHADEPLOTCUSTOMDPI
70
300
0
XRECORD
5
10A8
102
{ACAD_REACTORS
330
10A7
102
}
330
10A7
100
AcDbXrecord
280
1
102
SHADEPLOT
70
0
102
SHADEPLOTRESLEVEL
70
2
102
SHADEPLOTCUSTOMDPI
70
300
0
XRECORD
5
FFF
102
{ACAD_REACTORS
330
F84
102
}
330
F84
100
AcDbXrecord
280
1
102
MATERIAL
148
0.0
149
0.0
149
0.0
93
0
94
127
282
0
72
0
77
0
171
0
175
0
179
0
273
0
0
XRECORD
5
F86
102
{ACAD_REACTORS
330
F84
102
}
330
F84
100
AcDbXrecord
280
1
270
1
271
1
0
XRECORD
5
F85
102
{ACAD_REACTORS
330
F84
102
}
330
F84
100
AcDbXrecord
280
1
270
1
271
1
0
XRECORD
5
F89
102
{ACAD_REACTORS
330
F84
102
}
330
F84
100
AcDbXrecord
280
1
270
1
271
1
0
XRECORD
5
F88
102
{ACAD_REACTORS
330
F84
102
}
330
F84
100
AcDbXrecord
280
1
270
1
271
1
0
XRECORD
5
F8A
102
{ACAD_REACTORS
330
F84
102
}
330
F84
100
AcDbXrecord
280
1
270
1
271
1
0
XRECORD
5
F87
102
{ACAD_REACTORS
330
F84
102
}
330
F84
100
AcDbXrecord
280
1
270
1
271
1
0
XRECORD
5
FFE
102
{ACAD_REACTORS
330
F7C
102
}
330
F7C
100
AcDbXrecord
280
1
102
MATERIAL
148
0.0
149
0.0
149
0.0
93
0
94
127
282
0
72
0
77
0
171
0
175
0
179
0
273
0
0
XRECORD
5
F7E
102
{ACAD_REACTORS
330
F7C
102
}
330
F7C
100
AcDbXrecord
280
1
270
1
271
1
0
XRECORD
5
F7D
102
{ACAD_REACTORS
330
F7C
102
}
330
F7C
100
AcDbXrecord
280
1
270
1
271
1
0
XRECORD
5
F81
102
{ACAD_REACTORS
330
F7C
102
}
330
F7C
100
AcDbXrecord
280
1
270
1
271
1
0
XRECORD
5
F80
102
{ACAD_REACTORS
330
F7C
102
}
330
F7C
100
AcDbXrecord
280
1
270
1
271
1
0
XRECORD
5
F82
102
{ACAD_REACTORS
330
F7C
102
}
330
F7C
100
AcDbXrecord
280
1
270
1
271
1
0
XRECORD
5
F7F
102
{ACAD_REACTORS
330
F7C
102
}
330
F7C
100
AcDbXrecord
280
1
270
1
271
1
0
XRECORD
5
1000
102
{ACAD_REACTORS
330
F8C
102
}
330
F8C
100
AcDbXrecord
280
1
102
MATERIAL
148
0.0
149
0.0
149
0.0
93
0
94
127
282
0
72
0
77
0
171
0
175
0
179
0
273
0
0
XRECORD
5
F8E
102
{ACAD_REACTORS
330
F8C
102
}
330
F8C
100
AcDbXrecord
280
1
270
1
271
1
0
XRECORD
5
F8D
102
{ACAD_REACTORS
330
F8C
102
}
330
F8C
100
AcDbXrecord
280
1
270
1
271
1
0
XRECORD
5
F91
102
{ACAD_REACTORS
330
F8C
102
}
330
F8C
100
AcDbXrecord
280
1
270
1
271
1
0
XRECORD
5
F90
102
{ACAD_REACTORS
330
F8C
102
}
330
F8C
100
AcDbXrecord
280
1
270
1
271
1
0
XRECORD
5
F92
102
{ACAD_REACTORS
330
F8C
102
}
330
F8C
100
AcDbXrecord
280
1
270
1
271
1
0
XRECORD
5
F8F
102
{ACAD_REACTORS
330
F8C
102
}
330
F8C
100
AcDbXrecord
280
1
270
1
271
1
0
CELLSTYLEMAP
5
1079
102
{ACAD_REACTORS
330
FF8
102
}
330
FF8
100
AcDbCellStyleMap
90
3
300
CELLSTYLE
1
TABLEFORMAT_BEGIN
90
5
170
1
91
0
92
32768
62
257
93
1
300
CONTENTFORMAT
1
CONTENTFORMAT_BEGIN
90
0
91
0
92
512
93
0
300

40
0.0
140
1.0
94
5
62
0
340
253
144
0.25
309
CONTENTFORMAT_END
171
1
301
MARGIN
1
CELLMARGIN_BEGIN
40
0.06
40
0.06
40
0.06
40
0.06
40
0.18
40
0.18
309
CELLMARGIN_END
94
6
95
1
302
GRIDFORMAT
1
GRIDFORMAT_BEGIN
90
0
91
1
62
0
92
-2
340
0
93
0
40
0.045
309
GRIDFORMAT_END
95
2
302
GRIDFORMAT
1
GRIDFORMAT_BEGIN
90
0
91
1
62
0
92
-2
340
0
93
0
40
0.045
309
GRIDFORMAT_END
95
4
302
GRIDFORMAT
1
GRIDFORMAT_BEGIN
90
0
91
1
62
0
92
-2
340
0
93
0
40
0.045
309
GRIDFORMAT_END
95
8
302
GRIDFORMAT
1
GRIDFORMAT_BEGIN
90
0
91
1
62
0
92
-2
340
0
93
0
40
0.045
309
GRIDFORMAT_END
95
16
302
GRIDFORMAT
1
GRIDFORMAT_BEGIN
90
0
91
1
62
0
92
-2
340
0
93
0
40
0.045
309
GRIDFORMAT_END
95
32
302
GRIDFORMAT
1
GRIDFORMAT_BEGIN
90
0
91
1
62
0
92
-2
340
0
93
0
40
0.045
309
GRIDFORMAT_END
309
TABLEFORMAT_END
1
CELLSTYLE_BEGIN
90
1
91
1
300
_TITLE
309
CELLSTYLE_END
300
CELLSTYLE
1
TABLEFORMAT_BEGIN
90
5
170
1
91
0
92
0
62
257
93
1
300
CONTENTFORMAT
1
CONTENTFORMAT_BEGIN
90
0
91
0
92
512
93
0
300

40
0.0
140
1.0
94
5
62
0
340
253
144
0.18
309
CONTENTFORMAT_END
171
1
301
MARGIN
1
CELLMARGIN_BEGIN
40
0.06
40
0.06
40
0.06
40
0.06
40
0.18
40
0.18
309
CELLMARGIN_END
94
6
95
1
302
GRIDFORMAT
1
GRIDFORMAT_BEGIN
90
0
91
1
62
0
92
-2
340
0
93
0
40
0.045
309
GRIDFORMAT_END
95
2
302
GRIDFORMAT
1
GRIDFORMAT_BEGIN
90
0
91
1
62
0
92
-2
340
0
93
0
40
0.045
309
GRIDFORMAT_END
95
4
302
GRIDFORMAT
1
GRIDFORMAT_BEGIN
90
0
91
1
62
0
92
-2
340
0
93
0
40
0.045
309
GRIDFORMAT_END
95
8
302
GRIDFORMAT
1
GRIDFORMAT_BEGIN
90
0
91
1
62
0
92
-2
340
0
93
0
40
0.045
309
GRIDFORMAT_END
95
16
302
GRIDFORMAT
1
GRIDFORMAT_BEGIN
90
0
91
1
62
0
92
-2
340
0
93
0
40
0.045
309
GRIDFORMAT_END
95
32
302
GRIDFORMAT
1
GRIDFORMAT_BEGIN
90
0
91
1
62
0
92
-2
340
0
93
0
40
0.045
309
GRIDFORMAT_END
309
TABLEFORMAT_END
1
CELLSTYLE_BEGIN
90
2
91
1
300
_HEADER
309
CELLSTYLE_END
300
CELLSTYLE
1
TABLEFORMAT_BEGIN
90
5
170
1
91
0
92
0
62
257
93
1
300
CONTENTFORMAT
1
CONTENTFORMAT_BEGIN
90
0
91
0
92
512
93
0
300

40
0.0
140
1.0
94
2
62
0
340
253
144
0.18
309
CONTENTFORMAT_END
171
1
301
MARGIN
1
CELLMARGIN_BEGIN
40
0.06
40
0.06
40
0.06
40
0.06
40
0.18
40
0.18
309
CELLMARGIN_END
94
6
95
1
302
GRIDFORMAT
1
GRIDFORMAT_BEGIN
90
0
91
1
62
0
92
-2
340
0
93
0
40
0.045
309
GRIDFORMAT_END
95
2
302
GRIDFORMAT
1
GRIDFORMAT_BEGIN
90
0
91
1
62
0
92
-2
340
0
93
0
40
0.045
309
GRIDFORMAT_END
95
4
302
GRIDFORMAT
1
GRIDFORMAT_BEGIN
90
0
91
1
62
0
92
-2
340
0
93
0
40
0.045
309
GRIDFORMAT_END
95
8
302
GRIDFORMAT
1
GRIDFORMAT_BEGIN
90
0
91
1
62
0
92
-2
340
0
93
0
40
0.045
309
GRIDFORMAT_END
95
16
302
GRIDFORMAT
1
GRIDFORMAT_BEGIN
90
0
91
1
62
0
92
-2
340
0
93
0
40
0.045
309
GRIDFORMAT_END
95
32
302
GRIDFORMAT
1
GRIDFORMAT_BEGIN
90
0
91
1
62
0
92
-2
340
0
93
0
40
0.045
309
GRIDFORMAT_END
309
TABLEFORMAT_END
1
CELLSTYLE_BEGIN
90
3
91
2
300
_DATA
309
CELLSTYLE_END
0
XRECORD
5
10A6
102
{ACAD_REACTORS
330
FF8
102
}
330
FF8
100
AcDbXrecord
280
1
102
ACAD_ROUNDTRIP_PRE2007_TABLESTYLE
90
512
91
0
1

92
512
93
0
2

94
512
95
0
3

0
XRECORD
5
108B
102
{ACAD_REACTORS
330
108A
102
}
330
108A
100
AcDbXrecord
280
1
102
RTVSPropertyOp0
70
1
102
RTVSPropertyOp1
70
1
102
RTVSPropertyOp2
70
1
102
RTVSPropertyOp3
70
1
102
RTVSPropertyOp4
70
1
102
RTVSPropertyOp5
70
1
102
RTVSPropertyOp6
70
1
102
RTVSPropertyOp7
70
1
102
RTVSPropertyOp8
70
1
102
RTVSPropertyOp9
70
1
102
RTVSPropertyOp10
70
1
102
RTVSPropertyOp11
70
1
102
RTVSPropertyOp12
70
1
102
RTVSPropertyOp13
70
1
102
RTVSPropertyOp14
70
1
102
RTVSPropertyOp15
70
1
102
RTVSPropertyOp16
70
1
102
RTVSPropertyOp17
70
1
102
RTVSPropertyOp18
70
1
102
RTVSPropertyOp19
70
1
102
RTVSPropertyOp20
70
1
102
RTVSPropertyOp21
70
1
102
RTVSPropertyOp22
70
1
102
RTVSPropertyOp23
70
1
102
RTVSPropertyOp24
70
1
102
RTVSPropertyOp25
70
1
102
RTVSPropertyOp26
70
1
102
RTVSPropertyOp27
70
1
0
XRECORD
5
108F
102
{ACAD_REACTORS
330
108E
102
}
330
108E
100
AcDbXrecord
280
1
102
RTVSPropertyOp0
70
1
102
RTVSPropertyOp1
70
1
102
RTVSPropertyOp2
70
1
102
RTVSPropertyOp3
70
1
102
RTVSPropertyOp4
70
1
102
RTVSPropertyOp5
70
1
102
RTVSPropertyOp6
70
1
102
RTVSPropertyOp7
70
1
102
RTVSPropertyOp8
70
1
102
RTVSPropertyOp9
70
1
102
RTVSPropertyOp10
70
1
102
RTVSPropertyOp11
70
1
102
RTVSPropertyOp12
70
1
102
RTVSPropertyOp13
70
1
102
RTVSPropertyOp14
70
1
102
RTVSPropertyOp15
70
1
102
RTVSPropertyOp16
70
1
102
RTVSPropertyOp17
70
1
102
RTVSPropertyOp18
70
1
102
RTVSPropertyOp19
70
1
102
RTVSPropertyOp20
70
1
102
RTVSPropertyOp21
70
1
102
RTVSPropertyOp22
70
1
102
RTVSPropertyOp23
70
1
102
RTVSPropertyOp24
70
1
102
RTVSPropertyOp25
70
1
102
RTVSPropertyOp26
70
1
102
RTVSPropertyOp27
70
1
0
XRECORD
5
108D
102
{ACAD_REACTORS
330
108C
102
}
330
108C
100
AcDbXrecord
280
1
102
RTVSPropertyOp0
70
1
102
RTVSPropertyOp1
70
1
102
RTVSPropertyOp2
70
1
102
RTVSPropertyOp3
70
1
102
RTVSPropertyOp4
70
1
102
RTVSPropertyOp5
70
1
102
RTVSPropertyOp6
70
1
102
RTVSPropertyOp7
70
1
102
RTVSPropertyOp8
70
1
102
RTVSPropertyOp9
70
1
102
RTVSPropertyOp10
70
1
102
RTVSPropertyOp11
70
1
102
RTVSPropertyOp12
70
1
102
RTVSPropertyOp13
70
1
102
RTVSPropertyOp14
70
1
102
RTVSPropertyOp15
70
1
102
RTVSPropertyOp16
70
1
102
RTVSPropertyOp17
70
1
102
RTVSPropertyOp18
70
1
102
RTVSPropertyOp19
70
1
102
RTVSPropertyOp20
70
1
102
RTVSPropertyOp21
70
1
102
RTVSPropertyOp22
70
1
102
RTVSPropertyOp23
70
1
102
RTVSPropertyOp24
70
1
102
RTVSPropertyOp25
70
1
102
RTVSPropertyOp26
70
1
102
RTVSPropertyOp27
70
1
0
XRECORD
5
1089
102
{ACAD_REACTORS
330
1088
102
}
330
1088
100
AcDbXrecord
280
1
102
RTVSPropertyOp0
70
1
102
RTVSPropertyOp1
70
1
102
RTVSPropertyOp2
70
1
102
RTVSPropertyOp3
70
1
102
RTVSPropertyOp4
70
1
102
RTVSPropertyOp5
70
1
102
RTVSPropertyOp6
70
1
102
RTVSPropertyOp7
70
1
102
RTVSPropertyOp8
70
1
102
RTVSPropertyOp9
70
1
102
RTVSPropertyOp10
70
1
102
RTVSPropertyOp11
70
1
102
RTVSPropertyOp12
70
1
102
RTVSPropertyOp13
70
1
102
RTVSPropertyOp14
70
1
102
RTVSPropertyOp15
70
1
102
RTVSPropertyOp16
70
1
102
RTVSPropertyOp17
70
1
102
RTVSPropertyOp18
70
1
102
RTVSPropertyOp19
70
1
102
RTVSPropertyOp20
70
1
102
RTVSPropertyOp21
70
1
102
RTVSPropertyOp22
70
1
102
RTVSPropertyOp23
70
1
102
RTVSPropertyOp24
70
1
102
RTVSPropertyOp25
70
1
102
RTVSPropertyOp26
70
1
102
RTVSPropertyOp27
70
1
0
XRECORD
5
1097
102
{ACAD_REACTORS
330
1096
102
}
330
1096
100
AcDbXrecord
280
1
102
RTVSPropertyOp0
70
1
102
RTVSPropertyOp1
70
1
102
RTVSPropertyOp2
70
1
102
RTVSPropertyOp3
70
1
102
RTVSPropertyOp4
70
1
102
RTVSPropertyOp5
70
1
102
RTVSPropertyOp6
70
1
102
RTVSPropertyOp7
70
1
102
RTVSPropertyOp8
70
1
102
RTVSPropertyOp9
70
1
102
RTVSPropertyOp10
70
1
102
RTVSPropertyOp11
70
1
102
RTVSPropertyOp12
70
1
102
RTVSPropertyOp13
70
1
102
RTVSPropertyOp14
70
1
102
RTVSPropertyOp15
70
1
102
RTVSPropertyOp16
70
1
102
RTVSPropertyOp17
70
1
102
RTVSPropertyOp18
70
1
102
RTVSPropertyOp19
70
1
102
RTVSPropertyOp20
70
1
102
RTVSPropertyOp21
70
1
102
RTVSPropertyOp22
70
1
102
RTVSPropertyOp23
70
1
102
RTVSPropertyOp24
70
1
102
RTVSPropertyOp25
70
1
102
RTVSPropertyOp26
70
1
102
RTVSPropertyOp27
70
1
0
XRECORD
5
109F
102
{ACAD_REACTORS
330
109E
102
}
330
109E
100
AcDbXrecord
280
1
102
RTVSPropertyOp0
70
1
102
RTVSPropertyOp1
70
1
102
RTVSPropertyOp2
70
1
102
RTVSPropertyOp3
70
1
102
RTVSPropertyOp4
70
1
102
RTVSPropertyOp5
70
1
102
RTVSPropertyOp6
70
1
102
RTVSPropertyOp7
70
1
102
RTVSPropertyOp8
70
1
102
RTVSPropertyOp9
70
1
102
RTVSPropertyOp10
70
1
102
RTVSPropertyOp11
70
1
102
RTVSPropertyOp12
70
1
102
RTVSPropertyOp13
70
1
102
RTVSPropertyOp14
70
1
102
RTVSPropertyOp15
70
1
102
RTVSPropertyOp16
70
1
102
RTVSPropertyOp17
70
1
102
RTVSPropertyOp18
70
1
102
RTVSPropertyOp19
70
1
102
RTVSPropertyOp20
70
1
102
RTVSPropertyOp21
70
1
102
RTVSPropertyOp22
70
1
102
RTVSPropertyOp23
70
1
102
RTVSPropertyOp24
70
1
102
RTVSPropertyOp25
70
1
102
RTVSPropertyOp26
70
1
102
RTVSPropertyOp27
70
1
0
XRECORD
5
1091
102
{ACAD_REACTORS
330
1090
102
}
330
1090
100
AcDbXrecord
280
1
102
RTVSPropertyOp0
70
1
102
RTVSPropertyOp1
70
1
102
RTVSPropertyOp2
70
1
102
RTVSPropertyOp3
70
1
102
RTVSPropertyOp4
70
1
102
RTVSPropertyOp5
70
1
102
RTVSPropertyOp6
70
1
102
RTVSPropertyOp7
70
1
102
RTVSPropertyOp8
70
1
102
RTVSPropertyOp9
70
1
102
RTVSPropertyOp10
70
1
102
RTVSPropertyOp11
70
1
102
RTVSPropertyOp12
70
1
102
RTVSPropertyOp13
70
1
102
RTVSPropertyOp14
70
1
102
RTVSPropertyOp15
70
1
102
RTVSPropertyOp16
70
1
102
RTVSPropertyOp17
70
1
102
RTVSPropertyOp18
70
1
102
RTVSPropertyOp19
70
1
102
RTVSPropertyOp20
70
1
102
RTVSPropertyOp21
70
1
102
RTVSPropertyOp22
70
1
102
RTVSPropertyOp23
70
1
102
RTVSPropertyOp24
70
1
102
RTVSPropertyOp25
70
1
102
RTVSPropertyOp26
70
1
102
RTVSPropertyOp27
70
1
0
XRECORD
5
1095
102
{ACAD_REACTORS
330
1094
102
}
330
1094
100
AcDbXrecord
280
1
102
RTVSPropertyOp0
70
1
102
RTVSPropertyOp1
70
1
102
RTVSPropertyOp2
70
1
102
RTVSPropertyOp3
70
1
102
RTVSPropertyOp4
70
1
102
RTVSPropertyOp5
70
1
102
RTVSPropertyOp6
70
1
102
RTVSPropertyOp7
70
1
102
RTVSPropertyOp8
70
1
102
RTVSPropertyOp9
70
1
102
RTVSPropertyOp10
70
1
102
RTVSPropertyOp11
70
1
102
RTVSPropertyOp12
70
1
102
RTVSPropertyOp13
70
1
102
RTVSPropertyOp14
70
1
102
RTVSPropertyOp15
70
1
102
RTVSPropertyOp16
70
1
102
RTVSPropertyOp17
70
1
102
RTVSPropertyOp18
70
1
102
RTVSPropertyOp19
70
1
102
RTVSPropertyOp20
70
1
102
RTVSPropertyOp21
70
1
102
RTVSPropertyOp22
70
1
102
RTVSPropertyOp23
70
1
102
RTVSPropertyOp24
70
1
102
RTVSPropertyOp25
70
1
102
RTVSPropertyOp26
70
1
102
RTVSPropertyOp27
70
1
0
XRECORD
5
10A5
102
{ACAD_REACTORS
330
10A4
102
}
330
10A4
100
AcDbXrecord
280
1
102
RTVSPropertyOp0
70
0
102
RTVSPropertyOp1
70
0
102
RTVSPropertyOp2
70
0
102
RTVSPropertyOp3
70
0
102
RTVSPropertyOp4
70
0
102
RTVSPropertyOp5
70
0
102
RTVSPropertyOp6
70
0
102
RTVSPropertyOp7
70
0
102
RTVSPropertyOp8
70
0
102
RTVSPropertyOp9
70
0
102
RTVSPropertyOp10
70
0
102
RTVSPropertyOp11
70
0
102
RTVSPropertyOp12
70
0
102
RTVSPropertyOp13
70
0
102
RTVSPropertyOp14
70
2
102
RTVSPropertyOp15
70
0
102
RTVSPropertyOp16
70
0
102
RTVSPropertyOp17
70
0
102
RTVSPropertyOp18
70
0
102
RTVSPropertyOp19
70
0
102
RTVSPropertyOp20
70
0
102
RTVSPropertyOp21
70
0
102
RTVSPropertyOp22
70
0
102
RTVSPropertyOp23
70
0
102
RTVSPropertyOp24
70
0
102
RTVSPropertyOp25
70
0
102
RTVSPropertyOp26
70
0
102
RTVSPropertyOp27
70
0
0
XRECORD
5
109D
102
{ACAD_REACTORS
330
109C
102
}
330
109C
100
AcDbXrecord
280
1
102
RTVSPropertyOp0
70
1
102
RTVSPropertyOp1
70
1
102
RTVSPropertyOp2
70
1
102
RTVSPropertyOp3
70
1
102
RTVSPropertyOp4
70
1
102
RTVSPropertyOp5
70
1
102
RTVSPropertyOp6
70
1
102
RTVSPropertyOp7
70
1
102
RTVSPropertyOp8
70
1
102
RTVSPropertyOp9
70
1
102
RTVSPropertyOp10
70
1
102
RTVSPropertyOp11
70
1
102
RTVSPropertyOp12
70
1
102
RTVSPropertyOp13
70
1
102
RTVSPropertyOp14
70
1
102
RTVSPropertyOp15
70
1
102
RTVSPropertyOp16
70
1
102
RTVSPropertyOp17
70
1
102
RTVSPropertyOp18
70
1
102
RTVSPropertyOp19
70
1
102
RTVSPropertyOp20
70
1
102
RTVSPropertyOp21
70
1
102
RTVSPropertyOp22
70
1
102
RTVSPropertyOp23
70
1
102
RTVSPropertyOp24
70
1
102
RTVSPropertyOp25
70
1
102
RTVSPropertyOp26
70
1
102
RTVSPropertyOp27
70
1
0
XRECORD
5
1081
102
{ACAD_REACTORS
330
1080
102
}
330
1080
100
AcDbXrecord
280
1
102
RTVSPropertyOp0
70
1
102
RTVSPropertyOp1
70
1
102
RTVSPropertyOp2
70
1
102
RTVSPropertyOp3
70
1
102
RTVSPropertyOp4
70
1
102
RTVSPropertyOp5
70
1
102
RTVSPropertyOp6
70
1
102
RTVSPropertyOp7
70
1
102
RTVSPropertyOp8
70
1
102
RTVSPropertyOp9
70
1
102
RTVSPropertyOp10
70
1
102
RTVSPropertyOp11
70
1
102
RTVSPropertyOp12
70
1
102
RTVSPropertyOp13
70
1
102
RTVSPropertyOp14
70
1
102
RTVSPropertyOp15
70
1
102
RTVSPropertyOp16
70
1
102
RTVSPropertyOp17
70
1
102
RTVSPropertyOp18
70
1
102
RTVSPropertyOp19
70
1
102
RTVSPropertyOp20
70
1
102
RTVSPropertyOp21
70
1
102
RTVSPropertyOp22
70
1
102
RTVSPropertyOp23
70
1
102
RTVSPropertyOp24
70
1
102
RTVSPropertyOp25
70
1
102
RTVSPropertyOp26
70
1
102
RTVSPropertyOp27
70
1
0
XRECORD
5
1083
102
{ACAD_REACTORS
330
1082
102
}
330
1082
100
AcDbXrecord
280
1
102
RTVSPropertyOp0
70
1
102
RTVSPropertyOp1
70
1
102
RTVSPropertyOp2
70
1
102
RTVSPropertyOp3
70
1
102
RTVSPropertyOp4
70
1
102
RTVSPropertyOp5
70
1
102
RTVSPropertyOp6
70
1
102
RTVSPropertyOp7
70
1
102
RTVSPropertyOp8
70
1
102
RTVSPropertyOp9
70
1
102
RTVSPropertyOp10
70
1
102
RTVSPropertyOp11
70
1
102
RTVSPropertyOp12
70
1
102
RTVSPropertyOp13
70
1
102
RTVSPropertyOp14
70
1
102
RTVSPropertyOp15
70
1
102
RTVSPropertyOp16
70
1
102
RTVSPropertyOp17
70
1
102
RTVSPropertyOp18
70
1
102
RTVSPropertyOp19
70
1
102
RTVSPropertyOp20
70
1
102
RTVSPropertyOp21
70
1
102
RTVSPropertyOp22
70
1
102
RTVSPropertyOp23
70
1
102
RTVSPropertyOp24
70
1
102
RTVSPropertyOp25
70
1
102
RTVSPropertyOp26
70
1
102
RTVSPropertyOp27
70
1
0
XRECORD
5
1085
102
{ACAD_REACTORS
330
1084
102
}
330
1084
100
AcDbXrecord
280
1
102
RTVSPropertyOp0
70
1
102
RTVSPropertyOp1
70
1
102
RTVSPropertyOp2
70
1
102
RTVSPropertyOp3
70
1
102
RTVSPropertyOp4
70
1
102
RTVSPropertyOp5
70
1
102
RTVSPropertyOp6
70
1
102
RTVSPropertyOp7
70
1
102
RTVSPropertyOp8
70
1
102
RTVSPropertyOp9
70
1
102
RTVSPropertyOp10
70
1
102
RTVSPropertyOp11
70
1
102
RTVSPropertyOp12
70
1
102
RTVSPropertyOp13
70
1
102
RTVSPropertyOp14
70
1
102
RTVSPropertyOp15
70
1
102
RTVSPropertyOp16
70
1
102
RTVSPropertyOp17
70
1
102
RTVSPropertyOp18
70
1
102
RTVSPropertyOp19
70
1
102
RTVSPropertyOp20
70
1
102
RTVSPropertyOp21
70
1
102
RTVSPropertyOp22
70
1
102
RTVSPropertyOp23
70
1
102
RTVSPropertyOp24
70
1
102
RTVSPropertyOp25
70
1
102
RTVSPropertyOp26
70
1
102
RTVSPropertyOp27
70
1
0
XRECORD
5
1087
102
{ACAD_REACTORS
330
1086
102
}
330
1086
100
AcDbXrecord
280
1
102
RTVSPropertyOp0
70
1
102
RTVSPropertyOp1
70
1
102
RTVSPropertyOp2
70
1
102
RTVSPropertyOp3
70
1
102
RTVSPropertyOp4
70
1
102
RTVSPropertyOp5
70
1
102
RTVSPropertyOp6
70
1
102
RTVSPropertyOp7
70
1
102
RTVSPropertyOp8
70
1
102
RTVSPropertyOp9
70
1
102
RTVSPropertyOp10
70
1
102
RTVSPropertyOp11
70
1
102
RTVSPropertyOp12
70
1
102
RTVSPropertyOp13
70
1
102
RTVSPropertyOp14
70
1
102
RTVSPropertyOp15
70
1
102
RTVSPropertyOp16
70
1
102
RTVSPropertyOp17
70
1
102
RTVSPropertyOp18
70
1
102
RTVSPropertyOp19
70
1
102
RTVSPropertyOp20
70
1
102
RTVSPropertyOp21
70
1
102
RTVSPropertyOp22
70
1
102
RTVSPropertyOp23
70
1
102
RTVSPropertyOp24
70
1
102
RTVSPropertyOp25
70
1
102
RTVSPropertyOp26
70
1
102
RTVSPropertyOp27
70
1
0
XRECORD
5
10A1
102
{ACAD_REACTORS
330
10A0
102
}
330
10A0
100
AcDbXrecord
280
1
102
RTVSPropertyOp0
70
0
102
RTVSPropertyOp1
70
0
102
RTVSPropertyOp2
70
0
102
RTVSPropertyOp3
70
0
102
RTVSPropertyOp4
70
0
102
RTVSPropertyOp5
70
0
102
RTVSPropertyOp6
70
0
102
RTVSPropertyOp7
70
0
102
RTVSPropertyOp8
70
0
102
RTVSPropertyOp9
70
0
102
RTVSPropertyOp10
70
0
102
RTVSPropertyOp11
70
0
102
RTVSPropertyOp12
70
0
102
RTVSPropertyOp13
70
0
102
RTVSPropertyOp14
70
2
102
RTVSPropertyOp15
70
0
102
RTVSPropertyOp16
70
0
102
RTVSPropertyOp17
70
0
102
RTVSPropertyOp18
70
0
102
RTVSPropertyOp19
70
0
102
RTVSPropertyOp20
70
0
102
RTVSPropertyOp21
70
0
102
RTVSPropertyOp22
70
0
102
RTVSPropertyOp23
70
0
102
RTVSPropertyOp24
70
0
102
RTVSPropertyOp25
70
0
102
RTVSPropertyOp26
70
0
102
RTVSPropertyOp27
70
0
0
XRECORD
5
109B
102
{ACAD_REACTORS
330
109A
102
}
330
109A
100
AcDbXrecord
280
1
102
RTVSPropertyOp0
70
1
102
RTVSPropertyOp1
70
1
102
RTVSPropertyOp2
70
1
102
RTVSPropertyOp3
70
1
102
RTVSPropertyOp4
70
1
102
RTVSPropertyOp5
70
1
102
RTVSPropertyOp6
70
1
102
RTVSPropertyOp7
70
1
102
RTVSPropertyOp8
70
1
102
RTVSPropertyOp9
70
1
102
RTVSPropertyOp10
70
1
102
RTVSPropertyOp11
70
1
102
RTVSPropertyOp12
70
1
102
RTVSPropertyOp13
70
1
102
RTVSPropertyOp14
70
1
102
RTVSPropertyOp15
70
1
102
RTVSPropertyOp16
70
1
102
RTVSPropertyOp17
70
1
102
RTVSPropertyOp18
70
1
102
RTVSPropertyOp19
70
1
102
RTVSPropertyOp20
70
1
102
RTVSPropertyOp21
70
1
102
RTVSPropertyOp22
70
1
102
RTVSPropertyOp23
70
1
102
RTVSPropertyOp24
70
1
102
RTVSPropertyOp25
70
1
102
RTVSPropertyOp26
70
1
102
RTVSPropertyOp27
70
1
0
XRECORD
5
10A3
102
{ACAD_REACTORS
330
10A2
102
}
330
10A2
100
AcDbXrecord
280
1
102
RTVSPropertyOp0
70
0
102
RTVSPropertyOp1
70
0
102
RTVSPropertyOp2
70
0
102
RTVSPropertyOp3
70
0
102
RTVSPropertyOp4
70
0
102
RTVSPropertyOp5
70
0
102
RTVSPropertyOp6
70
0
102
RTVSPropertyOp7
70
0
102
RTVSPropertyOp8
70
0
102
RTVSPropertyOp9
70
0
102
RTVSPropertyOp10
70
0
102
RTVSPropertyOp11
70
0
102
RTVSPropertyOp12
70
0
102
RTVSPropertyOp13
70
0
102
RTVSPropertyOp14
70
2
102
RTVSPropertyOp15
70
0
102
RTVSPropertyOp16
70
0
102
RTVSPropertyOp17
70
0
102
RTVSPropertyOp18
70
0
102
RTVSPropertyOp19
70
0
102
RTVSPropertyOp20
70
0
102
RTVSPropertyOp21
70
0
102
RTVSPropertyOp22
70
0
102
RTVSPropertyOp23
70
0
102
RTVSPropertyOp24
70
0
102
RTVSPropertyOp25
70
0
102
RTVSPropertyOp26
70
0
102
RTVSPropertyOp27
70
0
0
XRECORD
5
1093
102
{ACAD_REACTORS
330
1092
102
}
330
1092
100
AcDbXrecord
280
1
102
RTVSPropertyOp0
70
1
102
RTVSPropertyOp1
70
1
102
RTVSPropertyOp2
70
1
102
RTVSPropertyOp3
70
1
102
RTVSPropertyOp4
70
1
102
RTVSPropertyOp5
70
1
102
RTVSPropertyOp6
70
1
102
RTVSPropertyOp7
70
1
102
RTVSPropertyOp8
70
1
102
RTVSPropertyOp9
70
1
102
RTVSPropertyOp10
70
1
102
RTVSPropertyOp11
70
1
102
RTVSPropertyOp12
70
1
102
RTVSPropertyOp13
70
1
102
RTVSPropertyOp14
70
1
102
RTVSPropertyOp15
70
1
102
RTVSPropertyOp16
70
1
102
RTVSPropertyOp17
70
1
102
RTVSPropertyOp18
70
1
102
RTVSPropertyOp19
70
1
102
RTVSPropertyOp20
70
1
102
RTVSPropertyOp21
70
1
102
RTVSPropertyOp22
70
1
102
RTVSPropertyOp23
70
1
102
RTVSPropertyOp24
70
1
102
RTVSPropertyOp25
70
1
102
RTVSPropertyOp26
70
1
102
RTVSPropertyOp27
70
1
0
XRECORD
5
1099
102
{ACAD_REACTORS
330
1098
102
}
330
1098
100
AcDbXrecord
280
1
102
RTVSPropertyOp0
70
1
102
RTVSPropertyOp1
70
1
102
RTVSPropertyOp2
70
1
102
RTVSPropertyOp3
70
1
102
RTVSPropertyOp4
70
1
102
RTVSPropertyOp5
70
1
102
RTVSPropertyOp6
70
1
102
RTVSPropertyOp7
70
1
102
RTVSPropertyOp8
70
1
102
RTVSPropertyOp9
70
1
102
RTVSPropertyOp10
70
1
102
RTVSPropertyOp11
70
1
102
RTVSPropertyOp12
70
1
102
RTVSPropertyOp13
70
1
102
RTVSPropertyOp14
70
1
102
RTVSPropertyOp15
70
1
102
RTVSPropertyOp16
70
1
102
RTVSPropertyOp17
70
1
102
RTVSPropertyOp18
70
1
102
RTVSPropertyOp19
70
1
102
RTVSPropertyOp20
70
1
102
RTVSPropertyOp21
70
1
102
RTVSPropertyOp22
70
1
102
RTVSPropertyOp23
70
1
102
RTVSPropertyOp24
70
1
102
RTVSPropertyOp25
70
1
102
RTVSPropertyOp26
70
1
102
RTVSPropertyOp27
70
1
0
ENDSEC
0
EOF
