0
SECTION
2
HEADER
9
$ACADVER
1
AC1015
9
$ACADMAINTVER
70
20
9
$DWGCODEPAGE
3
ANSI_1252
9
$INSBASE
10
0.0
20
0.0
30
0.0
9
$EXTMIN
10
-150.000000000000
20
-105.000000000000
30
0.0
9
$EXTMAX
10
150.000000000000
20
105.000000000000
30
0.0
9
$LIMMIN
10
0.0
20
0.0
9
$LIMMAX
10
12.0
20
9.0
9
$ORTHOMODE
70
0
9
$REGENMODE
70
1
9
$FILLMODE
70
1
9
$QTEXTMODE
70
0
9
$MIRRTEXT
70
1
9
$LTSCALE
40
1.0
9
$ATTMODE
70
1
9
$TEXTSIZE
40
0.2
9
$TRACEWID
40
0.05
9
$TEXTSTYLE
7
Standard
9
$CLAYER
8
0
9
$CELTYPE
6
ByLayer
9
$CECOLOR
62
256
9
$CELTSCALE
40
1.0
9
$DISPSILH
70
0
9
$DIMSCALE
40
1.0
9
$DIMASZ
40
2.5
9
$DIMEXO
40
0.625
9
$DIMDLI
40
0.38
9
$DIMRND
40
0.0
9
$DIMDLE
40
0.0
9
$DIMEXE
40
1.25
9
$DIMTP
40
0.0
9
$DIMTM
40
0.000000001
9
$DIMTXT
40
2.5
9
$DIMCEN
40
0.09
9
$DIMTSZ
40
0.0
9
$DIMTOL
70
1
9
$DIMLIM
70
0
9
$DIMTIH
70
0
9
$DIMTOH
70
0
9
$DIMSE1
70
0
9
$DIMSE2
70
0
9
$DIMTAD
70
1
9
$DIMZIN
70
0
9
$DIMBLK
1
VDDIM_DEFAULT
9
$DIMASO
70
1
9
$DIMSHO
70
1
9
$DIMPOST
1

9
$DIMAPOST
1

9
$DIMALT
70
0
9
$DIMALTD
70
2
9
$DIMALTF
40
25.4
9
$DIMLFAC
40
1.00000000000000
9
$DIMTOFL
70
0
9
$DIMTVP
40
0.0
9
$DIMTIX
70
0
9
$DIMSOXD
70
0
9
$DIMSAH
70
0
9
$DIMBLK1
1

9
$DIMBLK2
1

9
$DIMSTYLE
2
BEM-ISBE
9
$DIMCLRD
70
0
9
$DIMCLRE
70
0
9
$DIMCLRT
70
0
9
$DIMTFAC
40
0.5
9
$DIMGAP
40
0.625
9
$DIMJUST
70
0
9
$DIMSD1
70
0
9
$DIMSD2
70
0
9
$DIMTOLJ
70
1
9
$DIMTZIN
70
0
9
$DIMALTZ
70
0
9
$DIMALTTZ
70
0
9
$DIMUPT
70
0
9
$DIMDEC
70
3
9
$DIMTDEC
70
3
9
$DIMALTU
70
2
9
$DIMALTTD
70
2
9
$DIMTXSTY
7
Standard
9
$DIMAUNIT
70
0
9
$DIMADEC
70
3
9
$DIMALTRND
40
0.0
9
$DIMAZIN
70
0
9
$DIMDSEP
70
46
9
$DIMATFIT
70
3
9
$DIMFRAC
70
0
9
$DIMLDRBLK
1

9
$DIMLUNIT
70
2
9
$DIMLWD
70
-2
9
$DIMLWE
70
-2
9
$DIMTMOVE
70
0
9
$LUNITS
70
2
9
$LUPREC
70
4
9
$SKETCHINC
40
0.1
9
$FILLETRAD
40
0.5
9
$AUNITS
70
0
9
$AUPREC
70
0
9
$MENU
1
.
9
$ELEVATION
40
0.0
9
$PELEVATION
40
0.0
9
$THICKNESS
40
0.0
9
$LIMCHECK
70
0
9
$CHAMFERA
40
0.5
9
$CHAMFERB
40
0.5
9
$CHAMFERC
40
1.0
9
$CHAMFERD
40
0.0
9
$SKPOLY
70
0
9
$TDCREATE
40
0.0
9
$TDUCREATE
40
0.0
9
$TDUPDATE
40
0.0
9
$TDUUPDATE
40
0.0
9
$TDINDWG
40
0.0
9
$TDUSRTIMER
40
0.0
9
$USRTIMER
70
1
9
$ANGBASE
50
0.0
9
$ANGDIR
70
0
9
$PDMODE
70
0
9
$PDSIZE
40
0.0
9
$PLINEWID
40
0.0
9
$SPLFRAME
70
0
9
$SPLINETYPE
70
6
9
$SPLINESEGS
70
8
9
$HANDSEED
5
10AB
9
$SURFTAB1
70
6
9
$SURFTAB2
70
6
9
$SURFTYPE
70
6
9
$SURFU
70
6
9
$SURFV
70
6
9
$UCSBASE
2

9
$UCSNAME
2

9
$UCSORG
10
0.0
20
0.0
30
0.0
9
$UCSXDIR
10
1.0
20
0.0
30
0.0
9
$UCSYDIR
10
0.0
20
1.0
30
0.0
9
$UCSORTHOREF
2

9
$UCSORTHOVIEW
70
0
9
$UCSORGTOP
10
0.0
20
0.0
30
0.0
9
$UCSORGBOTTOM
10
0.0
20
0.0
30
0.0
9
$UCSORGLEFT
10
0.0
20
0.0
30
0.0
9
$UCSORGRIGHT
10
0.0
20
0.0
30
0.0
9
$UCSORGFRONT
10
0.0
20
0.0
30
0.0
9
$UCSORGBACK
10
0.0
20
0.0
30
0.0
9
$PUCSBASE
2

9
$PUCSNAME
2

9
$PUCSORG
10
0.0
20
0.0
30
0.0
9
$PUCSXDIR
10
1.0
20
0.0
30
0.0
9
$PUCSYDIR
10
0.0
20
1.0
30
0.0
9
$PUCSORTHOREF
2

9
$PUCSORTHOVIEW
70
0
9
$PUCSORGTOP
10
0.0
20
0.0
30
0.0
9
$PUCSORGBOTTOM
10
0.0
20
0.0
30
0.0
9
$PUCSORGLEFT
10
0.0
20
0.0
30
0.0
9
$PUCSORGRIGHT
10
0.0
20
0.0
30
0.0
9
$PUCSORGFRONT
10
0.0
20
0.0
30
0.0
9
$PUCSORGBACK
10
0.0
20
0.0
30
0.0
9
$USERI1
70
0
9
$USERI2
70
0
9
$USERI3
70
0
9
$USERI4
70
0
9
$USERI5
70
0
9
$USERR1
40
0.0
9
$USERR2
40
0.0
9
$USERR3
40
0.0
9
$USERR4
40
0.0
9
$USERR5
40
0.0
9
$WORLDVIEW
70
1
9
$SHADEDGE
70
3
9
$SHADEDIF
70
70
9
$TILEMODE
70
1
9
$MAXACTVP
70
64
9
$PINSBASE
10
0.0
20
0.0
30
0.0
9
$PLIMCHECK
70
0
9
$PEXTMIN
10
1.000000000000000E+20
20
1.000000000000000E+20
30
1.000000000000000E+20
9
$PEXTMAX
10
-1.000000000000000E+20
20
-1.000000000000000E+20
30
-1.000000000000000E+20
9
$PLIMMIN
10
0.0
20
0.0
9
$PLIMMAX
10
12.0
20
9.0
9
$UNITMODE
70
0
9
$VISRETAIN
70
1
9
$PLINEGEN
70
0
9
$PSLTSCALE
70
1
9
$TREEDEPTH
70
3020
9
$CMLSTYLE
2
Standard
9
$CMLJUST
70
0
9
$CMLSCALE
40
1.0
9
$PROXYGRAPHICS
70
1
9
$MEASUREMENT
70
0
9
$CELWEIGHT
370
-1
9
$ENDCAPS
280
0
9
$JOINSTYLE
280
0
9
$LWDISPLAY
290
0
9
$INSUNITS
70
4
9
$HYPERLINKBASE
1

9
$STYLESHEET
1

9
$XEDIT
290
1
9
$CEPSNTYPE
380
0
9
$PSTYLEMODE
290
0
9
$FINGERPRINTGUID
2
{FAEB1C30-E019-11D5-929B-00C0DF256EC4}
9
$VERSIONGUID
2
{04C5C4E4-4947-4D90-8812-D401569E61F7}
9
$EXTNAMES
290
1
9
$PSVPSCALE
40
0.0
9
$OLESTARTUP
290
0
0
ENDSEC
0
SECTION
2
TABLES
0
TABLE
2
VPORT
5
24A
330
0
100
AcDbSymbolTable
70
1
0
VPORT
5
26B
330
24A
100
AcDbSymbolTableRecord
100
AcDbViewportTableRecord
2
*Active
70
0
10
0.0
20
0.0
11
1.0
21
1.0
12
0.000000000000000
22
0.000000000000000
13
0.0
23
0.0
14
10.0
24
10.0
15
10.0
25
10.0
16
0.0
26
0.0
36
1.0
17
0.0
27
0.0
37
0.0
40
210.000000000000
41
1.42857142857143
42
1.0
43
0.0
44
0.0
50
0.0
51
0.0000000000007958
71
0
72
100
73
1
74
3
75
0
76
0
77
0
78
1
281
0
65
1
110
0.0
120
0.0
130
0.0
111
1.0
121
0.0
131
0.0
112
0.0
122
1.0
132
0.0
79
0
146
0.0
0
ENDTAB
0
TABLE
2
LTYPE
5
247
330
0
100
AcDbSymbolTable
70
25
0
LTYPE
5
256
330
247
100
AcDbSymbolTableRecord
100
AcDbLinetypeTableRecord
2
ByBlock
70
0
3

72
65
73
0
40
0.0
0
LTYPE
5
257
330
247
100
AcDbSymbolTableRecord
100
AcDbLinetypeTableRecord
2
ByLayer
70
0
3

72
65
73
0
40
0.0
0
LTYPE
5
258
330
247
100
AcDbSymbolTableRecord
100
AcDbLinetypeTableRecord
2
Continuous
70
0
3
Solid line
72
65
73
0
40
0.0
0
LTYPE
5
273
330
247
100
AcDbSymbolTableRecord
100
AcDbLinetypeTableRecord
2
CENTER
70
0
3
Center ____ _ ____ _ ____ _ ____ _ ____ _ ____
72
65
73
4
40
2.0
49
1.25
74
0
49
-0.25
74
0
49
0.25
74
0
49
-0.25
74
0
0
LTYPE
5
274
330
247
100
AcDbSymbolTableRecord
100
AcDbLinetypeTableRecord
2
DASHDOT
70
0
3
Dashdot __ . __ . __ . __ . __ . __ . __ . __
72
65
73
4
40
1.0
49
0.5
74
0
49
-0.25
74
0
49
0.0
74
0
49
-0.25
74
0
0
LTYPE
5
275
330
247
100
AcDbSymbolTableRecord
100
AcDbLinetypeTableRecord
2
DASHED
70
0
3
Dashed __ __ __ __ __ __ __ __ __ __ __ __ __ _
72
65
73
2
40
0.75
49
0.5
74
0
49
-0.25
74
0
0
LTYPE
5
276
330
247
100
AcDbSymbolTableRecord
100
AcDbLinetypeTableRecord
2
HIDDEN
70
0
3
Hidden __ __ __ __ __ __ __ __ __ __ __ __ __ __
72
65
73
2
40
0.375
49
0.25
74
0
49
-0.125
74
0
0
LTYPE
5
277
330
247
100
AcDbSymbolTableRecord
100
AcDbLinetypeTableRecord
2
HIDDEN2
70
0
3
Hidden2 _ _ _ _ _ _ _ _ _ _ _ _ _ _ _ _ _
72
65
73
2
40
0.1875
49
0.125
74
0
49
-0.0625
74
0
0
LTYPE
5
278
330
247
100
AcDbSymbolTableRecord
100
AcDbLinetypeTableRecord
2
BORDER
70
0
3
Border __ __ . __ __ . __ __ . __ __ . __ __ .
72
65
73
6
40
1.75
49
0.5
74
0
49
-0.25
74
0
49
0.5
74
0
49
-0.25
74
0
49
0.0
74
0
49
-0.25
74
0
0
LTYPE
5
279
330
247
100
AcDbSymbolTableRecord
100
AcDbLinetypeTableRecord
2
BORDER2
70
0
3
Border2 __.__.__.__.__.__.__.__.__.__.__.
72
65
73
6
40
0.875
49
0.25
74
0
49
-0.125
74
0
49
0.25
74
0
49
-0.125
74
0
49
0.0
74
0
49
-0.125
74
0
0
LTYPE
5
27A
330
247
100
AcDbSymbolTableRecord
100
AcDbLinetypeTableRecord
2
BORDERX2
70
0
3
Borderx2  ____  ____  .  ____  ____  .  ___
72
65
73
6
40
3.5
49
1.0
74
0
49
-0.5
74
0
49
1.0
74
0
49
-0.5
74
0
49
0.0
74
0
49
-0.5
74
0
0
LTYPE
5
27B
330
247
100
AcDbSymbolTableRecord
100
AcDbLinetypeTableRecord
2
CENTER2
70
0
3
Center2  ___ _ ___ _ ___ _ ___ _ ___ _ ___
72
65
73
4
40
1.125
49
0.75
74
0
49
-0.125
74
0
49
0.125
74
0
49
-0.125
74
0
0
LTYPE
5
27C
330
247
100
AcDbSymbolTableRecord
100
AcDbLinetypeTableRecord
2
CENTERX2
70
0
3
Centerx2  ________  __  ________  __  _____
72
65
73
4
40
4.0
49
2.5
74
0
49
-0.5
74
0
49
0.5
74
0
49
-0.5
74
0
0
LTYPE
5
27D
330
247
100
AcDbSymbolTableRecord
100
AcDbLinetypeTableRecord
2
DASHDOT2
70
0
3
Dashdot2  _._._._._._._._._._._._._._._.
72
65
73
4
40
0.5
49
0.25
74
0
49
-0.125
74
0
49
0.0
74
0
49
-0.125
74
0
0
LTYPE
5
27E
330
247
100
AcDbSymbolTableRecord
100
AcDbLinetypeTableRecord
2
DASHDOTX2
70
0
3
Dashdotx2 ____  .  ____  .  ____  .  ___
72
65
73
4
40
2.0
49
1.0
74
0
49
-0.5
74
0
49
0.0
74
0
49
-0.5
74
0
0
LTYPE
5
27F
330
247
100
AcDbSymbolTableRecord
100
AcDbLinetypeTableRecord
2
DASHED2
70
0
3
Dashed2 _ _ _ _ _ _ _ _ _ _ _ _ _ _ _ _ _
72
65
73
2
40
0.375
49
0.25
74
0
49
-0.125
74
0
0
LTYPE
5
280
330
247
100
AcDbSymbolTableRecord
100
AcDbLinetypeTableRecord
2
DASHEDX2
70
0
3
Dashedx2 ____  ____  ____  ____  ____  ___
72
65
73
2
40
1.5
49
1.0
74
0
49
-0.5
74
0
0
LTYPE
5
281
330
247
100
AcDbSymbolTableRecord
100
AcDbLinetypeTableRecord
2
DIVIDE
70
0
3
Divide ____ . . ____ . . ____ . . ____ . . ____
72
65
73
6
40
1.25
49
0.5
74
0
49
-0.25
74
0
49
0.0
74
0
49
-0.25
74
0
49
0.0
74
0
49
-0.25
74
0
0
LTYPE
5
282
330
247
100
AcDbSymbolTableRecord
100
AcDbLinetypeTableRecord
2
DIVIDE2
70
0
3
Divide2 __..__..__..__..__..__..__..__.._
72
65
73
6
40
0.625
49
0.25
74
0
49
-0.125
74
0
49
0.0
74
0
49
-0.125
74
0
49
0.0
74
0
49
-0.125
74
0
0
LTYPE
5
283
330
247
100
AcDbSymbolTableRecord
100
AcDbLinetypeTableRecord
2
DIVIDEX2
70
0
3
Dividex2 ________  .  .  ________  .  .  _
72
65
73
6
40
2.5
49
1.0
74
0
49
-0.5
74
0
49
0.0
74
0
49
-0.5
74
0
49
0.0
74
0
49
-0.5
74
0
0
LTYPE
5
284
330
247
100
AcDbSymbolTableRecord
100
AcDbLinetypeTableRecord
2
DOT
70
0
3
Dot . . . . . . . . . . . . . . . . . . . . . . . .
72
65
73
2
40
0.25
49
0.0
74
0
49
-0.25
74
0
0
LTYPE
5
285
330
247
100
AcDbSymbolTableRecord
100
AcDbLinetypeTableRecord
2
DOT2
70
0
3
Dot2 ........................................
72
65
73
2
40
0.125
49
0.0
74
0
49
-0.125
74
0
0
LTYPE
5
286
330
247
100
AcDbSymbolTableRecord
100
AcDbLinetypeTableRecord
2
DOTX2
70
0
3
Dotx2 .  .  .  .  .  .  .  .  .  .  .  .  .  .
72
65
73
2
40
0.5
49
0.0
74
0
49
-0.5
74
0
0
LTYPE
5
287
330
247
100
AcDbSymbolTableRecord
100
AcDbLinetypeTableRecord
2
HIDDENX2
70
0
3
Hiddenx2 ____ ____ ____ ____ ____ ____ ____
72
65
73
2
40
0.75
49
0.5
74
0
49
-0.25
74
0
0
LTYPE
5
288
330
247
100
AcDbSymbolTableRecord
100
AcDbLinetypeTableRecord
2
PHANTOM
70
0
3
Phantom ______  __  __  ______  __  __  ______
72
65
73
6
40
2.5
49
1.25
74
0
49
-0.25
74
0
49
0.25
74
0
49
-0.25
74
0
49
0.25
74
0
49
-0.25
74
0
0
LTYPE
5
289
330
247
100
AcDbSymbolTableRecord
100
AcDbLinetypeTableRecord
2
PHANTOM2
70
0
3
Phantom2 ___ _ _ ___ _ _ ___ _ _ ___ _ _
72
65
73
6
40
1.25
49
0.625
74
0
49
-0.125
74
0
49
0.125
74
0
49
-0.125
74
0
49
0.125
74
0
49
-0.125
74
0
0
LTYPE
5
28A
330
247
100
AcDbSymbolTableRecord
100
AcDbLinetypeTableRecord
2
PHANTOMX2
70
0
3
Phantomx2 ____________    ____    ____   _
72
65
73
6
40
5.0
49
2.5
74
0
49
-0.5
74
0
49
0.5
74
0
49
-0.5
74
0
49
0.5
74
0
49
-0.5
74
0
0
ENDTAB
0
TABLE
2
LAYER
5
244
330
0
100
AcDbSymbolTable
70
6
0
LAYER
5
252
330
244
100
AcDbSymbolTableRecord
100
AcDbLayerTableRecord
2
0
70
0
62
7
6
Continuous
370
0
390
251
0
LAYER
5
23F
330
244
100
AcDbSymbolTableRecord
100
AcDbLayerTableRecord
2
Bemassung
70
0
 62
   7
6
Continuous
370
0
390
251
0
LAYER
5
240
330
244
100
AcDbSymbolTableRecord
100
AcDbLayerTableRecord
2
Rahmen
70
0
 62
   7
6
Continuous
370
0
390
251
0
LAYER
5
241
330
244
100
AcDbSymbolTableRecord
100
AcDbLayerTableRecord
2
Geo
70
0
 62
   7
6
Continuous
370
0
390
251
0
LAYER
5
33A
330
244
100
AcDbSymbolTableRecord
100
AcDbLayerTableRecord
2
Defpoints
70
0
62
7
6
Continuous
290
0
370
-3
390
251
0
LAYER
5
57E
330
244
100
AcDbSymbolTableRecord
100
AcDbLayerTableRecord
2
Text
70
0
 62
   7
6
Continuous
370
0
390
251
1001
AcAecLayerStandard
1000

1000

0
ENDTAB
0
TABLE
2
STYLE
5
245
330
0
100
AcDbSymbolTable
70
2
0
STYLE
5
253
330
245
100
AcDbSymbolTableRecord
100
AcDbTextStyleTableRecord
2
Standard
70
0
40
0.0
41
1.0
50
0.0
71
0
42
0.2
3
Arial
4

1001
ACAD
1000
Arial
1071
0
0
STYLE
5
132
330
245
100
AcDbSymbolTableRecord
100
AcDbTextStyleTableRecord
2
Beschriftung
70
0
40
0.0
41
1.0
50
0.0
71
0
42
0.2
3
Arial
4

1001
ACAD
1000
Arial
1071
0
1001
AcadAnnotative
1000
AnnotativeData
1070
1
1070
1
0
ENDTAB
0
TABLE
2
VIEW
5
248
330
0
100
AcDbSymbolTable
70
0
0
ENDTAB
0
TABLE
2
UCS
5
249
330
0
100
AcDbSymbolTable
70
0
0
ENDTAB
0
TABLE
2
APPID
5
24B
330
0
100
AcDbSymbolTable
70
13
0
APPID
5
254
330
24B
100
AcDbSymbolTableRecord
100
AcDbRegAppTableRecord
2
ACAD
70
0
0
APPID
5
26C
330
24B
100
AcDbSymbolTableRecord
100
AcDbRegAppTableRecord
2
VD_INVISIBLE_NOT_FOR_READ
70
0
0
APPID
5
26D
330
24B
100
AcDbSymbolTableRecord
100
AcDbRegAppTableRecord
2
VD_TEMPHATCH
70
0
0
APPID
5
26E
330
24B
100
AcDbSymbolTableRecord
100
AcDbRegAppTableRecord
2
VDEXTRAPARAM
70
0
0
APPID
5
26F
330
24B
100
AcDbSymbolTableRecord
100
AcDbRegAppTableRecord
2
PE_URL
70
0
0
APPID
5
270
330
24B
100
AcDbSymbolTableRecord
100
AcDbRegAppTableRecord
2
VD_UNKNOWN
70
0
0
APPID
5
28F
330
24B
100
AcDbSymbolTableRecord
100
AcDbRegAppTableRecord
2
AcadAnnotative
70
0
0
APPID
5
290
330
24B
100
AcDbSymbolTableRecord
100
AcDbRegAppTableRecord
2
ACAD_DSTYLE_DIMJAG
70
0
0
APPID
5
291
330
24B
100
AcDbSymbolTableRecord
100
AcDbRegAppTableRecord
2
ACAD_DSTYLE_DIMTALN
70
0
0
APPID
5
293
330
24B
100
AcDbSymbolTableRecord
100
AcDbRegAppTableRecord
2
ACAD_PSEXT
70
0
0
APPID
5
42A
330
24B
100
AcDbSymbolTableRecord
100
AcDbRegAppTableRecord
2
ACAD_MLEADERVER
70
0
0
APPID
5
532
330
24B
100
AcDbSymbolTableRecord
100
AcDbRegAppTableRecord
2
ACAD_EXEMPT_FROM_CAD_STANDARDS
70
0
0
APPID
5
57F
330
24B
100
AcDbSymbolTableRecord
100
AcDbRegAppTableRecord
2
AcAecLayerStandard
70
0
0
ENDTAB
0
TABLE
2
DIMSTYLE
5
24C
330
0
100
AcDbSymbolTable
70
3
100
AcDbDimStyleTable
71
2
340
27
340
269
0
DIMSTYLE
105
269
330
24C
100
AcDbSymbolTableRecord
100
AcDbDimStyleTableRecord
2
Standard
70
0
172
1
174
1
288
1
340
253
342
23C
0
DIMSTYLE
105
137
330
24C
100
AcDbSymbolTableRecord
100
AcDbDimStyleTableRecord
2
Beschriftung
70
0
41
2.5
42
0.625
44
1.25
73
0
74
0
77
1
140
2.5
147
0.625
172
1
174
1
271
2
288
1
340
253
342
23C
1001
AcadAnnotative
1000
AnnotativeData
1070
1
1070
1
1001
ACAD_DSTYLE_DIMJAG
1070
388
1040
1.5
1001
ACAD_DSTYLE_DIMTALN
1070
392
1070
0
0
DIMSTYLE
105
27
102
{ACAD_REACTORS
330
F10012
330
F1001C
330
F10021
330
F10003
330
F1000D
330
F10008
330
F10017
102
}
330
24C
100
AcDbSymbolTableRecord
100
AcDbDimStyleTableRecord
2
BEM-ISBE
70
0
41
2.5
42
0.625
44
1.25
48
0.000000001
71
1
73
0
74
0
77
1
140
2.5
144
1.00000000000000
146
0.5
147
0.625
171
 3
172
 1
179
 3
271
 3
272
 3
274
 3
340
253
342
23C
1001
ACAD_DSTYLE_DIMJAG
1070
388
1040
1.5
1001
ACAD_DSTYLE_DIMTALN
1070
392
1070
1
0
ENDTAB
0
TABLE
2
BLOCK_RECORD
5
243
330
0
100
AcDbSymbolTable
70
5
0
BLOCK_RECORD
5
261
330
243
100
AcDbSymbolTableRecord
100
AcDbBlockTableRecord
2
*Model_Space
340
FD0
0
BLOCK_RECORD
5
25D
330
243
100
AcDbSymbolTableRecord
100
AcDbBlockTableRecord
2
*Paper_Space
340
FD1
0
BLOCK_RECORD
5
265
330
243
100
AcDbSymbolTableRecord
100
AcDbBlockTableRecord
2
*Paper_Space0
340
0
0
BLOCK_RECORD
5
23C
330
243
100
AcDbSymbolTableRecord
100
AcDbBlockTableRecord
2
VDDIM_DEFAULT
340
0
102
{BLKREFS
102
}
0
BLOCK_RECORD
5
23E
330
243
100
AcDbSymbolTableRecord
100
AcDbBlockTableRecord
2
VDDIM_NONE
340
0
0
BLOCK_RECORD
5
F10011
330
243
100
AcDbSymbolTableRecord
100
AcDbBlockTableRecord
2
*D6
340
0
0
BLOCK_RECORD
5
F1001B
330
243
100
AcDbSymbolTableRecord
100
AcDbBlockTableRecord
2
*D8
340
0
0
BLOCK_RECORD
5
F10020
330
243
100
AcDbSymbolTableRecord
100
AcDbBlockTableRecord
2
*D9
340
0
0
BLOCK_RECORD
5
F10002
330
243
100
AcDbSymbolTableRecord
100
AcDbBlockTableRecord
2
*D3
340
0
0
BLOCK_RECORD
5
F1000C
330
243
100
AcDbSymbolTableRecord
100
AcDbBlockTableRecord
2
*D5
340
0
0
BLOCK_RECORD
5
F10007
330
243
100
AcDbSymbolTableRecord
100
AcDbBlockTableRecord
2
*D4
340
0
0
BLOCK_RECORD
5
F10016
330
243
100
AcDbSymbolTableRecord
100
AcDbBlockTableRecord
2
*D7
340
0
0
ENDTAB
0
ENDSEC
0
SECTION
2
BLOCKS
0
BLOCK
5
262
330
261
100
AcDbEntity
8
0
100
AcDbBlockBegin
2
*Model_Space
70
0
10
0.0
20
0.0
30
0.0
3
*Model_Space
1

0
ENDBLK
5
263
330
261
100
AcDbEntity
8
0
100
AcDbBlockEnd
0
BLOCK
5
25E
330
25D
100
AcDbEntity
67
1
8
0
100
AcDbBlockBegin
2
*Paper_Space
70
0
10
0.0
20
0.0
30
0.0
3
*Paper_Space
1

0
ENDBLK
5
25F
330
25D
100
AcDbEntity
67
1
8
0
100
AcDbBlockEnd
0
BLOCK
5
266
330
265
100
AcDbEntity
8
0
100
AcDbBlockBegin
2
*Paper_Space0
70
0
10
0.0
20
0.0
30
0.0
3
*Paper_Space0
1

0
VIEWPORT
5
296
102
{ACAD_XDICTIONARY
360
58E
102
}
330
265
100
AcDbEntity
8
0
60
1
100
AcDbViewport
10
0.0
20
0.0
30
0.0
40
10.0
41
10.0
69
0
12
0.0
22
0.0
13
0.0
23
0.0
14
1.0
24
1.0
15
0.0
25
0.0
16
0.0
26
0.0
36
1.0
17
0.0
27
0.0
37
0.0
42
0.0
43
0.0
44
0.0
45
10.0
50
0.0
51
0.0000000000007958
72
100
90
163872
1

281
0
71
0
74
0
110
0.0
120
0.0
130
0.0
111
1.0
121
0.0
131
0.0
112
0.0
122
1.0
132
0.0
79
0
146
0.0
1001
VD_INVISIBLE_NOT_FOR_READ
1000
VD_INVISIBLE_NOT_FOR_READ
0
VIEWPORT
5
297
102
{ACAD_XDICTIONARY
360
590
102
}
330
265
100
AcDbEntity
8
0
60
1
100
AcDbViewport
10
0.0
20
0.0
30
0.0
40
10.0
41
10.0
69
0
12
0.0
22
0.0
13
0.0
23
0.0
14
1.0
24
1.0
15
0.0
25
0.0
16
0.0
26
0.0
36
1.0
17
0.0
27
0.0
37
0.0
42
0.0
43
0.0
44
0.0
45
10.0
50
0.0
51
0.0000000000007958
72
100
90
163872
1

281
0
71
0
74
0
110
0.0
120
0.0
130
0.0
111
1.0
121
0.0
131
0.0
112
0.0
122
1.0
132
0.0
79
0
146
0.0
1001
VD_INVISIBLE_NOT_FOR_READ
1000
VD_INVISIBLE_NOT_FOR_READ
0
ENDBLK
5
267
330
265
100
AcDbEntity
8
0
100
AcDbBlockEnd
0
BLOCK
5
28B
330
23C
100
AcDbEntity
8
0
100
AcDbBlockBegin
2
VDDIM_DEFAULT
70
0
10
0.0
20
0.0
30
0.0
3
VDDIM_DEFAULT
1

0
LWPOLYLINE
5
23D
330
23C
100
AcDbEntity
8
0
6
Continuous
62
0
100
AcDbPolyline
90
4
70
0
43
0.0
10
0.0
20
0.0
10
-1.0
20
-0.1665
10
-1.0
20
0.1665
10
0.0
20
0.0
1001
VDEXTRAPARAM
1071
1
1071
0
1071
0
1040
1.0
1000

1000

1040
0.0
1040
0.0
0
HATCH
5
292
330
23C
100
AcDbEntity
8
0
6
Continuous
62
0
100
AcDbHatch
10
0.0
20
0.0
30
0.0
210
0.0
220
0.0
230
1.0
2
SOLID
70
1
71
0
91
1
92
2
72
0
73
1
93
3
10
0.0
20
0.0
10
-1.0
20
-0.1665
10
-1.0
20
0.1665
97
0
75
0
76
1
98
1
10
0.0
20
0.0
1001
VDEXTRAPARAM
1071
1
1071
0
1071
0
1040
1.0
1000

1000

1040
0.0
1040
0.0
1001
VD_TEMPHATCH
1000
VD_TEMPHATCH
0
ENDBLK
5
28C
330
23C
100
AcDbEntity
8
0
100
AcDbBlockEnd
0
BLOCK
5
28D
330
23E
100
AcDbEntity
8
0
100
AcDbBlockBegin
2
VDDIM_NONE
70
0
10
0.0
20
0.0
30
0.0
3
VDDIM_NONE
1

0
ENDBLK
5
28E
330
23E
100
AcDbEntity
8
0
100
AcDbBlockEnd
  0
BLOCK
  5
F10025
330
F10011
100
AcDbEntity
  8
0
100
AcDbBlockBegin
  2
*D6
 70
     1
 10
0.0
 20
0.0
 30
0.0
  3
*D6
  1

  0
LINE
  5
F10026
330
F10011
100
AcDbEntity
  8
Bemassung
 62
     0
370
    -2
100
AcDbLine
10
-78.8450374173297
20
5.45115147946478
30
0.000000000000000
11
-78.8450374173297
21
17.4511514794648
31
0.000000000000000
  0
LINE
  5
F10027
330
F10011
100
AcDbEntity
  8
Bemassung
 62
     0
370
    -2
100
AcDbLine
10
-30.8450374173297
20
4.45115147946478
30
0.000000000000000
11
-30.8450374173297
21
22.4511514794648
31
0.000000000000000
  0
LINE
  5
F10028
330
F10011
100
AcDbEntity
  8
Bemassung
 62
     0
370
    -2
100
AcDbLine
10
-78.8450374173297
20
15.4511514794648
30
0.000000000000000
11
37.7867375842946
21
15.4511514794648
31
0.000000000000000
  0
INSERT
  5
F10029
330
F10011
100
AcDbEntity
  8
Bemassung
 62
     0
370
    -2
100
AcDbBlockReference
  2
VDDIM_DEFAULT
10
-78.8450374173297
20
15.4511514794648
30
0.000000000000000
 41
2.50000000000000
 42
2.50000000000000
 43
2.50000000000000
 50
180.000000000000
  0
INSERT
  5
F1002A
330
F10011
100
AcDbEntity
  8
Bemassung
 62
     0
370
    -2
100
AcDbBlockReference
  2
VDDIM_DEFAULT
10
-30.8450374173297
20
15.4511514794648
30
0.000000000000000
 41
2.50000000000000
 42
2.50000000000000
 43
2.50000000000000
  0
MTEXT
  5
F1002B
330
F10011
100
AcDbEntity
  8
Bemassung
 62
     0
100
AcDbMText
10
-54.8450374173297
20
16.1178181461315
30
0.000000000000000
 40
2.50000000000000
 41
0.0
 71
     8
 72
     1
  1
48
 11
1.00000000000000
 21
0.000000000000000
 31
0.0
 73
     1
 44
1.0
1001
ACAD
1000
MTEXTBEGIN
1070
73
1070
1
1070
44
1040
1.0
1070
74
1070
0
1000
MTEXTEND
  0
POINT
  5
F1002C
330
F10011
100
AcDbEntity
  8
Bemassung
 62
     0
100
AcDbPoint
10
-78.8450374173297
20
5.45115147946478
30
0.000000000000000
  0
POINT
  5
F1002D
330
F10011
100
AcDbEntity
  8
Bemassung
 62
     0
100
AcDbPoint
10
-30.8450374173297
20
4.45115147946478
30
0.000000000000000
  0
ENDBLK
  5
F1002E
330
F10011
100
AcDbEntity
  8
0
100
AcDbBlockEnd
  0
BLOCK
  5
F1002F
330
F1001B
100
AcDbEntity
  8
0
100
AcDbBlockBegin
  2
*D8
 70
     1
 10
0.0
 20
0.0
 30
0.0
  3
*D8
  1

  0
LINE
  5
F10030
330
F1001B
100
AcDbEntity
  8
Bemassung
 62
     0
370
    -2
100
AcDbLine
10
-78.8450374173297
20
-4.54884852053522
30
0.000000000000000
11
-78.8450374173297
21
-11.5488485205352
31
0.000000000000000
  0
LINE
  5
F10031
330
F1001B
100
AcDbEntity
  8
Bemassung
 62
     0
370
    -2
100
AcDbLine
10
-100.845037417330
20
-11.5488485205352
30
0.000000000000000
11
-100.845037417330
21
22.4511514794648
31
0.000000000000000
  0
LINE
  5
F10032
330
F1001B
100
AcDbEntity
  8
Bemassung
 62
     0
370
    -2
100
AcDbLine
10
-67.2675204675681
20
-9.54884852053522
30
0.000000000000000
11
-100.845037417330
21
-9.54884852053522
31
0.000000000000000
  0
INSERT
  5
F10033
330
F1001B
100
AcDbEntity
  8
Bemassung
 62
     0
370
    -2
100
AcDbBlockReference
  2
VDDIM_DEFAULT
10
-78.8450374173297
20
-9.54884852053522
30
0.000000000000000
 41
2.50000000000000
 42
2.50000000000000
 43
2.50000000000000
  0
INSERT
  5
F10034
330
F1001B
100
AcDbEntity
  8
Bemassung
 62
     0
370
    -2
100
AcDbBlockReference
  2
VDDIM_DEFAULT
10
-100.845037417330
20
-9.54884852053522
30
0.000000000000000
 41
2.50000000000000
 42
2.50000000000000
 43
2.50000000000000
 50
180.000000000000
  0
MTEXT
  5
F10035
330
F1001B
100
AcDbEntity
  8
Bemassung
 62
     0
100
AcDbMText
10
-89.8450374173297
20
-8.88218185386855
30
0.000000000000000
 40
2.50000000000000
 41
0.0
 71
     8
 72
     1
  1
22
 11
1.00000000000000
 21
0.000000000000000
 31
0.0
 73
     1
 44
1.0
1001
ACAD
1000
MTEXTBEGIN
1070
73
1070
1
1070
44
1040
1.0
1070
74
1070
0
1000
MTEXTEND
  0
POINT
  5
F10036
330
F1001B
100
AcDbEntity
  8
Bemassung
 62
     0
100
AcDbPoint
10
-78.8450374173297
20
-4.54884852053522
30
0.000000000000000
  0
POINT
  5
F10037
330
F1001B
100
AcDbEntity
  8
Bemassung
 62
     0
100
AcDbPoint
10
-100.845037417330
20
-11.5488485205352
30
0.000000000000000
  0
ENDBLK
  5
F10038
330
F1001B
100
AcDbEntity
  8
0
100
AcDbBlockEnd
  0
BLOCK
  5
F10039
330
F10020
100
AcDbEntity
  8
0
100
AcDbBlockBegin
  2
*D9
 70
     1
 10
0.0
 20
0.0
 30
0.0
  3
*D9
  1

  0
LINE
  5
F1003A
330
F10020
100
AcDbEntity
  8
Bemassung
 62
     0
370
    -2
100
AcDbLine
10
-30.8450374173297
20
4.45115147946478
30
0.000000000000000
11
-30.8450374173297
21
22.4511514794648
31
0.000000000000000
  0
LINE
  5
F1003B
330
F10020
100
AcDbEntity
  8
Bemassung
 62
     0
370
    -2
100
AcDbLine
10
-100.845037417330
20
-11.5488485205352
30
0.000000000000000
11
-100.845037417330
21
22.4511514794648
31
0.000000000000000
  0
LINE
  5
F1003C
330
F10020
100
AcDbEntity
  8
Bemassung
 62
     0
370
    -2
100
AcDbLine
10
4.74403077823865
20
20.4511514794648
30
0.000000000000000
11
-100.845037417330
21
20.4511514794648
31
0.000000000000000
  0
INSERT
  5
F1003D
330
F10020
100
AcDbEntity
  8
Bemassung
 62
     0
370
    -2
100
AcDbBlockReference
  2
VDDIM_DEFAULT
10
-30.8450374173297
20
20.4511514794648
30
0.000000000000000
 41
2.50000000000000
 42
2.50000000000000
 43
2.50000000000000
  0
INSERT
  5
F1003E
330
F10020
100
AcDbEntity
  8
Bemassung
 62
     0
370
    -2
100
AcDbBlockReference
  2
VDDIM_DEFAULT
10
-100.845037417330
20
20.4511514794648
30
0.000000000000000
 41
2.50000000000000
 42
2.50000000000000
 43
2.50000000000000
 50
180.000000000000
  0
MTEXT
  5
F1003F
330
F10020
100
AcDbEntity
  8
Bemassung
 62
     0
100
AcDbMText
10
-65.8450374173297
20
21.1178181461315
30
0.000000000000000
 40
2.50000000000000
 41
0.0
 71
     8
 72
     1
  1
70
 11
1.00000000000000
 21
0.000000000000000
 31
0.0
 73
     1
 44
1.0
1001
ACAD
1000
MTEXTBEGIN
1070
73
1070
1
1070
44
1040
1.0
1070
74
1070
0
1000
MTEXTEND
  0
POINT
  5
F10040
330
F10020
100
AcDbEntity
  8
Bemassung
 62
     0
100
AcDbPoint
10
-30.8450374173297
20
4.45115147946478
30
0.000000000000000
  0
POINT
  5
F10041
330
F10020
100
AcDbEntity
  8
Bemassung
 62
     0
100
AcDbPoint
10
-100.845037417330
20
-11.5488485205352
30
0.000000000000000
  0
ENDBLK
  5
F10042
330
F10020
100
AcDbEntity
  8
0
100
AcDbBlockEnd
  0
BLOCK
  5
F10043
330
F10002
100
AcDbEntity
  8
0
100
AcDbBlockBegin
  2
*D3
 70
     1
 10
0.0
 20
0.0
 30
0.0
  3
*D3
  1

 0
ARC
  5
F10044
330
F10002
100
AcDbEntity
  8
Bemassung
 62
     0
370
   -2
100
AcDbCircle
10
-100.844732830839
20
4.93370173111353
30
0.000000000000000
 40
18.9091232513799
100
AcDbArc
 50
90.0000000000000
 51
101.104014981225
  0
LINE
  5
F10045
330
F10002
100
AcDbEntity
  8
Bemassung
 62
     0
370
    -2
100
AcDbLine
10
-100.844732830839
20
4.93370173111353
30
0.000000000000000
11
-100.844732830839
21
25.8428249824934
31
0.000000000000000
  0
LINE
  5
F10046
330
F10002
100
AcDbEntity
  8
Bemassung
 62
     0
370
    -2
100
AcDbLine
10
-100.844732830839
20
4.93370173111353
30
0.000000000000000
11
-101.574450708803
21
25.8300877095543
31
0.000000000000000
  0
INSERT
  5
F10047
330
F10002
100
AcDbEntity
  8
Bemassung
 62
     0
370
    -2
100
AcDbBlockReference
  2
VDDIM_DEFAULT
10
-100.844732830839
20
23.8428249824934
30
0.000000000000000
 41
2.50000000000000
 42
2.50000000000000
 43
2.50000000000000
 50
179.848496819447
  0
INSERT
  5
F10048
330
F10002
100
AcDbEntity
  8
Bemassung
 62
     0
370
    -2
100
AcDbBlockReference
  2
VDDIM_DEFAULT
10
-101.504651715398
20
23.8313060555161
30
0.000000000000000
 41
2.50000000000000
 42
2.50000000000000
 43
2.50000000000000
 50
2.15150318055596
  0
MTEXT
  5
F10049
330
F10002
100
AcDbEntity
  8
Bemassung
 62
     0
100
AcDbMText
10
-105.341004611508
20
23.3004783184801
30
0.000000000000000
 40
2.50000000000000
 41
0.0
 71
     8
 72
     1
  1
2°
 11
0.969586238827524
 21
0.244749924364229
 31
0.0
 73
     1
 44
1.0
1001
ACAD
1000
MTEXTBEGIN
1070
73
1070
1
1070
44
1040
1.0
1070
74
1070
0
1000
MTEXTEND
  0
POINT
  5
F1004A
330
F10002
100
AcDbEntity
  8
Bemassung
 62
     0
100
AcDbPoint
10
-100.844732830839
20
4.93370173111353
30
0.000000000000000
  0
POINT
  5
F1004B
330
F10002
100
AcDbEntity
  8
Bemassung
 62
     0
100
AcDbPoint
10
-100.844732830839
20
23.8428249824934
30
0.000000000000000
  0
POINT
  5
F1004C
330
F10002
100
AcDbEntity
  8
Bemassung
 62
     0
100
AcDbPoint
10
-101.504651715398
20
23.8313060555161
30
0.000000000000000
  0
POINT
  5
F1004D
330
F10002
100
AcDbEntity
  8
Bemassung
 62
     0
100
AcDbPoint
10
-101.174742535195
20
23.8399450314339
30
0.000000000000000
  0
ENDBLK
  5
F1004E
330
F10002
100
AcDbEntity
  8
0
100
AcDbBlockEnd
  0
BLOCK
  5
F1004F
330
F1000C
100
AcDbEntity
  8
0
100
AcDbBlockBegin
  2
*D5
 70
     1
 10
0.0
 20
0.0
 30
0.0
  3
*D5
  1

  0
LINE
  5
F10050
330
F1000C
100
AcDbEntity
  8
Bemassung
 62
     0
370
    -2
100
AcDbLine
10
-100.704707317499
20
5.29848066469428
30
0.000000000000000
11
-113.670860605519
21
17.8197493473631
31
0.000000000000000
  0
INSERT
  5
F10051
330
F1000C
100
AcDbEntity
  8
Bemassung
 62
     0
370
    -2
100
AcDbBlockReference
  2
VDDIM_DEFAULT
10
-100.704707317499
20
5.29848066469428
30
0.000000000000000
 41
2.50000000000000
 42
2.50000000000000
 43
2.50000000000000
 50
316.000000000000
  0
MTEXT
  5
F10052
330
F1000C
100
AcDbEntity
  8
Bemassung
 62
     0
100
AcDbMText
10
-107.898105320886
20
12.2450643692842
30
0.000000000000000
 40
2.50000000000000
 41
0.0
 71
     8
 72
     1
  1
R0.5
 11
0.719339800338653
 21
-0.694658370458996
 31
0.0
 73
     1
 44
1.0
1001
ACAD
1000
MTEXTBEGIN
1070
73
1070
1
1070
44
1040
1.0
1070
74
1070
0
1000
MTEXTEND
  0
POINT
  5
F10053
330
F1000C
100
AcDbEntity
  8
Bemassung
 62
     0
100
AcDbPoint
10
-100.704707317499
20
5.29848066469428
30
0.000000000000000
  0
POINT
  5
F10054
330
F1000C
100
AcDbEntity
  8
Bemassung
 62
     0
100
AcDbPoint
10
-100.345037417330
20
4.95115147946478
30
0.000000000000000
  0
ENDBLK
  5
F10055
330
F1000C
100
AcDbEntity
  8
0
100
AcDbBlockEnd
  0
BLOCK
  5
F10056
330
F10007
100
AcDbEntity
  8
0
100
AcDbBlockBegin
  2
*D4
 70
     1
 10
0.0
 20
0.0
 30
0.0
  3
*D4
  1

  0
LINE
  5
F10057
330
F10007
100
AcDbEntity
  8
Bemassung
 62
     0
370
    -2
100
AcDbLine
10
-100.345037417330
20
-4.54884852053522
30
0.000000000000000
11
-112.845037417330
21
-4.54884852053522
31
0.000000000000000
  0
LINE
  5
F10058
330
F10007
100
AcDbEntity
  8
Bemassung
 62
     0
370
    -2
100
AcDbLine
10
-100.345037417330
20
5.45115147946478
30
0.000000000000000
11
-112.845037417330
21
5.45115147946478
31
0.000000000000000
  0
LINE
  5
F10059
330
F10007
100
AcDbEntity
  8
Bemassung
 62
     0
370
    -2
100
AcDbLine
10
-110.845037417330
20
-4.54884852053522
30
0.000000000000000
11
-110.845037417330
21
5.45115147946478
31
0.000000000000000
  0
INSERT
  5
F1005A
330
F10007
100
AcDbEntity
  8
Bemassung
 62
     0
370
    -2
100
AcDbBlockReference
  2
VDDIM_DEFAULT
10
-110.845037417330
20
-4.54884852053522
30
0.000000000000000
 41
2.50000000000000
 42
2.50000000000000
 43
2.50000000000000
 50
270.000000000000
  0
INSERT
  5
F1005B
330
F10007
100
AcDbEntity
  8
Bemassung
 62
     0
370
    -2
100
AcDbBlockReference
  2
VDDIM_DEFAULT
10
-110.845037417330
20
5.45115147946478
30
0.000000000000000
 41
2.50000000000000
 42
2.50000000000000
 43
2.50000000000000
 50
90.0000000000000
  0
MTEXT
  5
F1005C
330
F10007
100
AcDbEntity
  8
Bemassung
 62
     0
100
AcDbMText
10
-110.178370750663
20
0.451151479464784
30
0.000000000000000
 40
2.50000000000000
 41
0.0
 71
     8
 72
     1
  1
10
 11
6.12323399573677e-017
 21
1.00000000000000
 31
0.0
 73
     1
 44
1.0
1001
ACAD
1000
MTEXTBEGIN
1070
73
1070
1
1070
44
1040
1.0
1070
74
1070
0
1000
MTEXTEND
  0
POINT
  5
F1005D
330
F10007
100
AcDbEntity
  8
Bemassung
 62
     0
100
AcDbPoint
10
-100.345037417330
20
-4.54884852053522
30
0.000000000000000
  0
POINT
  5
F1005E
330
F10007
100
AcDbEntity
  8
Bemassung
 62
     0
100
AcDbPoint
10
-100.345037417330
20
5.45115147946478
30
0.000000000000000
  0
ENDBLK
  5
F1005F
330
F10007
100
AcDbEntity
  8
0
100
AcDbBlockEnd
  0
BLOCK
  5
F10060
330
F10016
100
AcDbEntity
  8
0
100
AcDbBlockBegin
  2
*D7
 70
     1
 10
0.0
 20
0.0
 30
0.0
  3
*D7
  1

  0
LINE
  5
F10061
330
F10016
100
AcDbEntity
  8
Bemassung
 62
     0
370
    -2
100
AcDbLine
10
-31.8450374173297
20
-4.54884852053522
30
0.000000000000000
11
-18.8450374173297
21
-4.54884852053522
31
0.000000000000000
  0
LINE
  5
F10062
330
F10016
100
AcDbEntity
  8
Bemassung
 62
     0
370
    -2
100
AcDbLine
10
-31.8450374173297
20
5.45115147946478
30
0.000000000000000
11
-18.8450374173297
21
5.45115147946478
31
0.000000000000000
  0
LINE
  5
F10063
330
F10016
100
AcDbEntity
  8
Bemassung
 62
     0
370
    -2
100
AcDbLine
10
-20.8450374173297
20
-4.54884852053522
30
0.000000000000000
11
-20.8450374173297
21
5.45115147946478
31
0.000000000000000
  0
INSERT
  5
F10064
330
F10016
100
AcDbEntity
  8
Bemassung
 62
     0
370
    -2
100
AcDbBlockReference
  2
VDDIM_DEFAULT
10
-20.8450374173297
20
-4.54884852053522
30
0.000000000000000
 41
2.50000000000000
 42
2.50000000000000
 43
2.50000000000000
 50
270.000000000000
  0
INSERT
  5
F10065
330
F10016
100
AcDbEntity
  8
Bemassung
 62
     0
370
    -2
100
AcDbBlockReference
  2
VDDIM_DEFAULT
10
-20.8450374173297
20
5.45115147946478
30
0.000000000000000
 41
2.50000000000000
 42
2.50000000000000
 43
2.50000000000000
 50
90.0000000000000
  0
MTEXT
  5
F10066
330
F10016
100
AcDbEntity
  8
Bemassung
 62
     0
100
AcDbMText
10
-20.1783707506630
20
0.451151479464784
30
0.000000000000000
 40
2.50000000000000
 41
0.0
 71
     8
 72
     1
  1
10h6
 11
6.12323399573677e-017
 21
1.00000000000000
 31
0.0
 73
     1
 44
1.0
  0
POINT
  5
F10067
330
F10016
100
AcDbEntity
  8
Bemassung
 62
     0
100
AcDbPoint
10
-31.8450374173297
20
-4.54884852053522
30
0.000000000000000
  0
POINT
  5
F10068
330
F10016
100
AcDbEntity
  8
Bemassung
 62
     0
100
AcDbPoint
10
-31.8450374173297
20
5.45115147946478
30
0.000000000000000
  0
ENDBLK
  5
F10069
330
F10016
100
AcDbEntity
  8
0
100
AcDbBlockEnd
0
ENDSEC
0
SECTION
2
ENTITIES
  0
DIMENSION
  5
F10012
330
261
100
AcDbEntity
  8
Bemassung
100
AcDbDimension
  2
*D6
10
-30.8450374173297
20
15.4511514794648
30
0.000000000000000
11
-54.8450374173297
21
16.1178181461315
31
0.000000000000000
 70
32
 1
48
 71
     8
  3
BEM-ISBE
100
AcDbAlignedDimension
13
-78.8450374173297
23
5.45115147946478
33
0.000000000000000
14
-30.8450374173297
24
4.45115147946478
34
0.000000000000000
100
AcDbRotatedDimension
1001
ACAD
1000
DSTYLE
1002
{
1070
284
1070
8
1070
78
1070
8
1070
144
1040
1.00000000000000
1070
147
1040
0.625
1070
 72
1070
 0
1070
 71
1070
 0
1002
}
  0
DIMENSION
  5
F1001C
330
261
100
AcDbEntity
  8
Bemassung
100
AcDbDimension
  2
*D8
10
-100.845037417330
20
-9.54884852053522
30
0.000000000000000
11
-89.8450374173297
21
-8.88218185386855
31
0.000000000000000
 70
32
 1
22
 71
     8
  3
BEM-ISBE
100
AcDbAlignedDimension
13
-78.8450374173297
23
-4.54884852053522
33
0.000000000000000
14
-100.845037417330
24
-11.5488485205352
34
0.000000000000000
100
AcDbRotatedDimension
1001
ACAD
1000
DSTYLE
1002
{
1070
284
1070
8
1070
78
1070
8
1070
144
1040
1.00000000000000
1070
147
1040
0.625
1070
 72
1070
 0
1070
 71
1070
 0
1002
}
  0
DIMENSION
  5
F10021
330
261
100
AcDbEntity
  8
Bemassung
100
AcDbDimension
  2
*D9
10
-100.845037417330
20
20.4511514794648
30
0.000000000000000
11
-65.8450374173297
21
21.1178181461315
31
0.000000000000000
 70
32
 1
70
 71
     8
  3
BEM-ISBE
100
AcDbAlignedDimension
13
-30.8450374173297
23
4.45115147946478
33
0.000000000000000
14
-100.845037417330
24
-11.5488485205352
34
0.000000000000000
100
AcDbRotatedDimension
1001
ACAD
1000
DSTYLE
1002
{
1070
284
1070
8
1070
78
1070
8
1070
144
1040
1.00000000000000
1070
147
1040
0.625
1070
 72
1070
 0
1070
 71
1070
 0
1002
}
  0
DIMENSION
  5
F10003
330
261
100
AcDbEntity
  8
Bemassung
100
AcDbDimension
  2
*D3
10
-100.844732830839
20
4.93370173111353
30
0.000000000000000
11
-105.341004611508
21
23.3004783184801
31
0.000000000000000
 70
34
 1
2°
 71
     8
  3
BEM-ISBE
100
AcDb2LineAngularDimension
13
-100.844732830839
23
4.93370173111353
33
0.000000000000000
14
-104.486454677419
24
23.4888305134212
34
0.000000000000000
15
-100.844732830839
25
23.8428249824934
35
0.000000000000000
16
-101.174742535195
26
23.8399450314339
36
0.000000000000000
1001
ACAD
1000
DSTYLE
1002
{
1070
284
1070
8
1070
79
1070
2
1070
147
1040
0.625
1070
 72
1070
 0
1070
 71
1070
 0
1002
}
  0
DIMENSION
  5
F1000D
330
261
100
AcDbEntity
  8
Bemassung
100
AcDbDimension
  2
*D5
10
-100.345037417330
20
4.95115147946478
30
0.000000000000000
11
-107.898105320886
21
12.2450643692842
31
0.000000000000000
 70
164
 1
R0.5
 71
     8
  3
BEM-ISBE
100
AcDbRadialDimension
15
-100.704707317499
25
5.29848066469428
35
0.000000000000000
40
0.0
1001
ACAD
1000
DSTYLE
1002
{
1070
284
1070
8
1070
78
1070
8
1070
144
1040
1.00000000000000
1070
147
1040
0.625
1070
 72
1070
 0
1070
 71
1070
 0
1002
}
  0
DIMENSION
  5
F10008
330
261
100
AcDbEntity
  8
Bemassung
100
AcDbDimension
  2
*D4
10
-110.845037417330
20
5.45115147946478
30
0.000000000000000
11
-110.178370750663
21
0.451151479464784
31
0.000000000000000
 70
32
 1
10
 71
     8
  3
BEM-ISBE
100
AcDbAlignedDimension
13
-100.345037417330
23
-4.54884852053522
33
0.000000000000000
14
-100.345037417330
24
5.45115147946478
34
0.000000000000000
50
90.0000000000000
100
AcDbRotatedDimension
1001
ACAD
1000
DSTYLE
1002
{
1070
284
1070
8
1070
78
1070
8
1070
144
1040
1.00000000000000
1070
147
1040
0.625
1070
 72
1070
 0
1070
 71
1070
 0
1002
}
  0
DIMENSION
  5
F10017
330
261
100
AcDbEntity
  8
Bemassung
100
AcDbDimension
  2
*D7
10
-20.8450374173297
20
5.45115147946478
30
0.000000000000000
11
-20.1783707506630
21
0.451151479464784
31
0.000000000000000
 70
32
 1
10h6
 71
     8
  3
BEM-ISBE
100
AcDbAlignedDimension
13
-31.8450374173297
23
-4.54884852053522
33
0.000000000000000
14
-31.8450374173297
24
5.45115147946478
34
0.000000000000000
50
90.0000000000000
100
AcDbRotatedDimension
1001
ACAD
1000
DSTYLE
1002
{
1070
284
1070
8
1070
78
1070
8
1070
144
1040
1.00000000000000
1070
147
1040
0.625
1070
 72
1070
 0
1070
 71
1070
 0
1002
}
  0
LINE
  5
F1006A
330
F1006B
100
AcDbEntity
8
Geo
100
AcDbLine
10
-100.688198726766
20
0.451151479464784
30
0.000000000000000
11
-100.844732830839
21
4.93370173111353
31
0.000000000000000
  0
ARC
  5
F1006C
330
F1006D
100
AcDbEntity
8
Geo
100
AcDbCircle
10
-100.345037417330
20
4.95115147946478
30
0.000000000000000
 40
0.500000000000000
100
AcDbArc
 50
90.0000000000000
 51
182.000000000000
  0
LINE
  5
F1006E
330
F1006F
100
AcDbEntity
8
Geo
100
AcDbLine
10
-100.345037417330
20
5.45115147946478
30
0.000000000000000
11
-78.8450374173297
21
5.45115147946478
31
0.000000000000000
  0
LINE
  5
F10070
330
F10071
100
AcDbEntity
8
Geo
100
AcDbLine
10
-78.8450374173297
20
5.45115147946478
30
0.000000000000000
11
-31.8450374173297
21
5.45115147946478
31
0.000000000000000
  0
LINE
  5
F10072
330
F10073
100
AcDbEntity
8
Geo
100
AcDbLine
10
-31.8450374173297
20
5.45115147946478
30
0.000000000000000
11
-30.8450374173297
21
4.45115147946478
31
0.000000000000000
  0
LINE
  5
F10074
330
F10075
100
AcDbEntity
8
Geo
100
AcDbLine
10
-97.6450374173297
20
5.44959449464921
30
0.000000000000000
11
-97.5450374173297
21
5.45069359531503
31
0.000000000000000
  0
LINE
  5
F10076
330
F10077
100
AcDbEntity
8
Geo
100
AcDbLine
10
-97.5450374173297
20
5.45069359531503
30
0.000000000000000
11
-97.4450374173297
21
5.44438688128617
31
0.000000000000000
  0
LINE
  5
F10078
330
F10079
100
AcDbEntity
8
Geo
100
AcDbLine
10
-97.4450374173297
20
5.44438688128617
30
0.000000000000000
11
-97.3450374173297
21
5.43068369468925
31
0.000000000000000
  0
LINE
  5
F1007A
330
F1007B
100
AcDbEntity
8
Geo
100
AcDbLine
10
-97.3450374173297
20
5.43068369468925
30
0.000000000000000
11
-97.2450374173297
21
5.40960433403525
31
0.000000000000000
  0
LINE
  5
F1007C
330
F1007D
100
AcDbEntity
8
Geo
100
AcDbLine
10
-97.2450374173297
20
5.40960433403525
30
0.000000000000000
11
-97.1450374173297
21
5.38118002415144
31
0.000000000000000
  0
LINE
  5
F1007E
330
F1007F
100
AcDbEntity
8
Geo
100
AcDbLine
10
-97.1450374173297
20
5.38118002415144
30
0.000000000000000
11
-97.0450374173297
21
5.34545286992802
31
0.000000000000000
  0
LINE
  5
F10080
330
F10081
100
AcDbEntity
8
Geo
100
AcDbLine
10
-97.0450374173297
20
5.34545286992802
30
0.000000000000000
11
-96.9450374173297
21
5.30247579394820
31
0.000000000000000
  0
LINE
  5
F10082
330
F10083
100
AcDbEntity
8
Geo
100
AcDbLine
10
-96.9450374173297
20
5.30247579394820
30
0.000000000000000
11
-96.8450374173297
21
5.25231245809411
31
0.000000000000000
  0
LINE
  5
F10084
330
F10085
100
AcDbEntity
8
Geo
100
AcDbLine
10
-96.8450374173297
20
5.25231245809411
30
0.000000000000000
11
-96.7450374173297
21
5.19503716924451
31
0.000000000000000
  0
LINE
  5
F10086
330
F10087
100
AcDbEntity
8
Geo
100
AcDbLine
10
-96.7450374173297
20
5.19503716924451
30
0.000000000000000
11
-96.6450374173297
21
5.13073476920409
31
0.000000000000000
  0
LINE
  5
F10088
330
F10089
100
AcDbEntity
8
Geo
100
AcDbLine
10
-96.6450374173297
20
5.13073476920409
30
0.000000000000000
11
-96.5450374173297
21
5.05950050902746
31
0.000000000000000
  0
LINE
  5
F1008A
330
F1008B
100
AcDbEntity
8
Geo
100
AcDbLine
10
-96.5450374173297
20
5.05950050902746
30
0.000000000000000
11
-96.4450374173297
21
4.98143990792391
31
0.000000000000000
  0
LINE
  5
F1008C
330
F1008D
100
AcDbEntity
8
Geo
100
AcDbLine
10
-96.4450374173297
20
4.98143990792391
30
0.000000000000000
11
-96.3450374173297
21
4.89666859695190
31
0.000000000000000
  0
LINE
  5
F1008E
330
F1008F
100
AcDbEntity
8
Geo
100
AcDbLine
10
-96.3450374173297
20
4.89666859695190
30
0.000000000000000
11
-96.2450374173297
21
4.80531214773497
31
0.000000000000000
  0
LINE
  5
F10090
330
F10091
100
AcDbEntity
8
Geo
100
AcDbLine
10
-96.2450374173297
20
4.80531214773497
30
0.000000000000000
11
-96.1450374173297
21
4.70750588645269
31
0.000000000000000
  0
LINE
  5
F10092
330
F10093
100
AcDbEntity
8
Geo
100
AcDbLine
10
-96.1450374173297
20
4.70750588645269
30
0.000000000000000
11
-96.0450374173297
21
4.60339469338214
31
0.000000000000000
  0
LINE
  5
F10094
330
F10095
100
AcDbEntity
8
Geo
100
AcDbLine
10
-96.0450374173297
20
4.60339469338214
30
0.000000000000000
11
-95.9450374173297
21
4.49313278828697
31
0.000000000000000
  0
LINE
  5
F10096
330
F10097
100
AcDbEntity
8
Geo
100
AcDbLine
10
-95.9450374173297
20
4.49313278828697
30
0.000000000000000
11
-95.8450374173297
21
4.37688350197192
31
0.000000000000000
  0
LINE
  5
F10098
330
F10099
100
AcDbEntity
8
Geo
100
AcDbLine
10
-95.8450374173297
20
4.37688350197192
30
0.000000000000000
11
-95.7450374173297
21
4.25481903434106
31
0.000000000000000
  0
LINE
  5
F1009A
330
F1009B
100
AcDbEntity
8
Geo
100
AcDbLine
10
-95.7450374173297
20
4.25481903434106
30
0.000000000000000
11
-95.6450374173297
21
4.12712019931839
31
0.000000000000000
  0
LINE
  5
F1009C
330
F1009D
100
AcDbEntity
8
Geo
100
AcDbLine
10
-95.6450374173297
20
4.12712019931839
30
0.000000000000000
11
-95.5450374173297
21
3.99397615700836
31
0.000000000000000
  0
LINE
  5
F1009E
330
F1009F
100
AcDbEntity
8
Geo
100
AcDbLine
10
-95.5450374173297
20
3.99397615700836
30
0.000000000000000
11
-95.4450374173297
21
3.85558413349332
31
0.000000000000000
  0
LINE
  5
F100A0
330
F100A1
100
AcDbEntity
8
Geo
100
AcDbLine
10
-95.4450374173297
20
3.85558413349332
30
0.000000000000000
11
-95.3450374173297
21
3.71214912868279
31
0.000000000000000
  0
LINE
  5
F100A2
330
F100A3
100
AcDbEntity
8
Geo
100
AcDbLine
10
-95.3450374173297
20
3.71214912868279
30
0.000000000000000
11
-95.2450374173297
21
3.56388361264738
31
0.000000000000000
  0
LINE
  5
F100A4
330
F100A5
100
AcDbEntity
8
Geo
100
AcDbLine
10
-95.2450374173297
20
3.56388361264738
30
0.000000000000000
11
-95.1450374173297
21
3.41100721088716
31
0.000000000000000
  0
LINE
  5
F100A6
330
F100A7
100
AcDbEntity
8
Geo
100
AcDbLine
10
-95.1450374173297
20
3.41100721088716
30
0.000000000000000
11
-95.0450374173297
21
3.25374637900076
31
0.000000000000000
  0
LINE
  5
F100A8
330
F100A9
100
AcDbEntity
8
Geo
100
AcDbLine
10
-95.0450374173297
20
3.25374637900076
30
0.000000000000000
11
-94.9450374173297
21
3.09233406723694
31
0.000000000000000
  0
LINE
  5
F100AA
330
F100AB
100
AcDbEntity
8
Geo
100
AcDbLine
10
-94.9450374173297
20
3.09233406723694
30
0.000000000000000
11
-94.8450374173297
21
2.92700937542580
31
0.000000000000000
  0
LINE
  5
F100AC
330
F100AD
100
AcDbEntity
8
Geo
100
AcDbLine
10
-94.8450374173297
20
2.92700937542580
30
0.000000000000000
11
-94.7450374173297
21
2.75801719880045
31
0.000000000000000
  0
LINE
  5
F100AE
330
F100AF
100
AcDbEntity
8
Geo
100
AcDbLine
10
-94.7450374173297
20
2.75801719880045
30
0.000000000000000
11
-94.6450374173297
21
2.58560786523411
31
0.000000000000000
  0
LINE
  5
F100B0
330
F100B1
100
AcDbEntity
8
Geo
100
AcDbLine
10
-94.6450374173297
20
2.58560786523411
30
0.000000000000000
11
-94.5450374173297
21
2.41003676442979
31
0.000000000000000
  0
LINE
  5
F100B2
330
F100B3
100
AcDbEntity
8
Geo
100
AcDbLine
10
-94.5450374173297
20
2.41003676442979
30
0.000000000000000
11
-94.4450374173297
21
2.23156396961180
31
0.000000000000000
  0
LINE
  5
F100B4
330
F100B5
100
AcDbEntity
8
Geo
100
AcDbLine
10
-94.4450374173297
20
2.23156396961180
30
0.000000000000000
11
-94.3450374173297
21
2.05045385227976
31
0.000000000000000
  0
LINE
  5
F100B6
330
F100B7
100
AcDbEntity
8
Geo
100
AcDbLine
10
-94.3450374173297
20
2.05045385227976
30
0.000000000000000
11
-94.2450374173297
21
1.86697469059538
31
0.000000000000000
  0
LINE
  5
F100B8
330
F100B9
100
AcDbEntity
8
Geo
100
AcDbLine
10
-94.2450374173297
20
1.86697469059538
30
0.000000000000000
11
-94.1450374173297
21
1.68139827198244
31
0.000000000000000
  0
LINE
  5
F100BA
330
F100BB
100
AcDbEntity
8
Geo
100
AcDbLine
10
-94.1450374173297
20
1.68139827198244
30
0.000000000000000
11
-94.0450374173297
21
1.49399949052848
31
0.000000000000000
  0
LINE
  5
F100BC
330
F100BD
100
AcDbEntity
8
Geo
100
AcDbLine
10
-94.0450374173297
20
1.49399949052848
30
0.000000000000000
11
-93.9450374173297
21
1.30505593978451
31
0.000000000000000
  0
LINE
  5
F100BE
330
F100BF
100
AcDbEntity
8
Geo
100
AcDbLine
10
-93.9450374173297
20
1.30505593978451
30
0.000000000000000
11
-93.8450374173297
21
1.11484750156613
31
0.000000000000000
  0
LINE
  5
F100C0
330
F100C1
100
AcDbEntity
8
Geo
100
AcDbLine
10
-93.8450374173297
20
1.11484750156613
30
0.000000000000000
11
-93.7450374173297
21
0.923655931364991
31
0.000000000000000
  0
LINE
  5
F100C2
330
F100C3
100
AcDbEntity
8
Geo
100
AcDbLine
10
-93.7450374173297
20
0.923655931364991
30
0.000000000000000
11
-93.6450374173297
21
0.731764440984740
31
0.000000000000000
  0
LINE
  5
F100C4
330
F100C5
100
AcDbEntity
8
Geo
100
AcDbLine
10
-93.6450374173297
20
0.731764440984740
30
0.000000000000000
11
-93.5450374173297
21
0.539457279019818
31
0.000000000000000
  0
LINE
  5
F100C6
330
F100C7
100
AcDbEntity
8
Geo
100
AcDbLine
10
-93.5450374173297
20
0.539457279019818
30
0.000000000000000
11
-93.4450374173297
21
0.347019309798387
31
0.000000000000000
  0
LINE
  5
F100C8
330
F100C9
100
AcDbEntity
8
Geo
100
AcDbLine
10
-93.4450374173297
20
0.347019309798387
30
0.000000000000000
11
-93.3450374173297
21
0.154735591413220
31
0.000000000000000
  0
LINE
  5
F100CA
330
F100CB
100
AcDbEntity
8
Geo
100
AcDbLine
10
-93.3450374173297
20
0.154735591413220
30
0.000000000000000
11
-93.2450374173297
21
-0.0371090465344588
31
0.000000000000000
  0
LINE
  5
F100CC
330
F100CD
100
AcDbEntity
8
Geo
100
AcDbLine
10
-93.2450374173297
20
-0.0371090465344588
30
0.000000000000000
11
-93.1450374173297
21
-0.228230424852660
31
0.000000000000000
  0
LINE
  5
F100CE
330
F100CF
100
AcDbEntity
8
Geo
100
AcDbLine
10
-93.1450374173297
20
-0.228230424852660
30
0.000000000000000
11
-93.0450374173297
21
-0.418345435712860
31
0.000000000000000
  0
LINE
  5
F100D0
330
F100D1
100
AcDbEntity
8
Geo
100
AcDbLine
10
-93.0450374173297
20
-0.418345435712860
30
0.000000000000000
11
-92.9450374173297
21
-0.607172462017236
31
0.000000000000000
  0
LINE
  5
F100D2
330
F100D3
100
AcDbEntity
8
Geo
100
AcDbLine
10
-92.9450374173297
20
-0.607172462017236
30
0.000000000000000
11
-92.8450374173297
21
-0.794431794557676
31
0.000000000000000
  0
LINE
  5
F100D4
330
F100D5
100
AcDbEntity
8
Geo
100
AcDbLine
10
-92.8450374173297
20
-0.794431794557676
30
0.000000000000000
11
-92.7450374173297
21
-0.979846046348630
31
0.000000000000000
  0
LINE
  5
F100D6
330
F100D7
100
AcDbEntity
8
Geo
100
AcDbLine
10
-92.7450374173297
20
-0.979846046348630
30
0.000000000000000
11
-92.6450374173297
21
-1.16314056352006
31
0.000000000000000
  0
LINE
  5
F100D8
330
F100D9
100
AcDbEntity
8
Geo
100
AcDbLine
10
-92.6450374173297
20
-1.16314056352006
30
0.000000000000000
11
-92.5450374173297
21
-1.34404383216185
31
0.000000000000000
  0
LINE
  5
F100DA
330
F100DB
100
AcDbEntity
8
Geo
100
AcDbLine
10
-92.5450374173297
20
-1.34404383216185
30
0.000000000000000
11
-92.4450374173297
21
-1.52228788051694
31
0.000000000000000
  0
LINE
  5
F100DC
330
F100DD
100
AcDbEntity
8
Geo
100
AcDbLine
10
-92.4450374173297
20
-1.52228788051694
30
0.000000000000000
11
-92.3450374173297
21
-1.69760867592755
31
0.000000000000000
  0
LINE
  5
F100DE
330
F100DF
100
AcDbEntity
8
Geo
100
AcDbLine
10
-92.3450374173297
20
-1.69760867592755
30
0.000000000000000
11
-92.2450374173297
21
-1.86974651594636
31
0.000000000000000
  0
LINE
  5
F100E0
330
F100E1
100
AcDbEntity
8
Geo
100
AcDbLine
10
-92.2450374173297
20
-1.86974651594636
30
0.000000000000000
11
-92.1450374173297
21
-2.03844641303341
31
0.000000000000000
  0
LINE
  5
F100E2
330
F100E3
100
AcDbEntity
8
Geo
100
AcDbLine
10
-92.1450374173297
20
-2.03844641303341
30
0.000000000000000
11
-92.0450374173297
21
-2.20345847226874
31
0.000000000000000
  0
LINE
  5
F100E4
330
F100E5
100
AcDbEntity
8
Geo
100
AcDbLine
10
-92.0450374173297
20
-2.20345847226874
30
0.000000000000000
11
-91.9450374173297
21
-2.36453826152141
31
0.000000000000000
  0
LINE
  5
F100E6
330
F100E7
100
AcDbEntity
8
Geo
100
AcDbLine
10
-91.9450374173297
20
-2.36453826152141
30
0.000000000000000
11
-91.8450374173297
21
-2.52144717352647
31
0.000000000000000
  0
LINE
  5
F100E8
330
F100E9
100
AcDbEntity
8
Geo
100
AcDbLine
10
-91.8450374173297
20
-2.52144717352647
30
0.000000000000000
11
-91.7450374173297
21
-2.67395277933357
31
0.000000000000000
  0
LINE
  5
F100EA
330
F100EB
100
AcDbEntity
8
Geo
100
AcDbLine
10
-91.7450374173297
20
-2.67395277933357
30
0.000000000000000
11
-91.6450374173297
21
-2.82182917260362
31
0.000000000000000
  0
LINE
  5
F100EC
330
F100ED
100
AcDbEntity
8
Geo
100
AcDbLine
10
-91.6450374173297
20
-2.82182917260362
30
0.000000000000000
11
-91.5450374173297
21
-2.96485730424354
31
0.000000000000000
  0
LINE
  5
F100EE
330
F100EF
100
AcDbEntity
8
Geo
100
AcDbLine
10
-91.5450374173297
20
-2.96485730424354
30
0.000000000000000
11
-91.4450374173297
21
-3.10282530688337
31
0.000000000000000
  0
LINE
  5
F100F0
330
F100F1
100
AcDbEntity
8
Geo
100
AcDbLine
10
-91.4450374173297
20
-3.10282530688337
30
0.000000000000000
11
-91.3450374173297
21
-3.23552880871514
31
0.000000000000000
  0
LINE
  5
F100F2
330
F100F3
100
AcDbEntity
8
Geo
100
AcDbLine
10
-91.3450374173297
20
-3.23552880871514
30
0.000000000000000
11
-91.2450374173297
21
-3.36277123622848
31
0.000000000000000
  0
LINE
  5
F100F4
330
F100F5
100
AcDbEntity
8
Geo
100
AcDbLine
10
-91.2450374173297
20
-3.36277123622848
30
0.000000000000000
11
-91.1450374173297
21
-3.48436410539472
31
0.000000000000000
  0
LINE
  5
F100F6
330
F100F7
100
AcDbEntity
8
Geo
100
AcDbLine
10
-91.1450374173297
20
-3.48436410539472
30
0.000000000000000
11
-91.0450374173297
21
-3.60012730086802
31
0.000000000000000
  0
LINE
  5
F100F8
330
F100F9
100
AcDbEntity
8
Geo
100
AcDbLine
10
-91.0450374173297
20
-3.60012730086802
30
0.000000000000000
11
-90.9450374173297
21
-3.70988934278999
31
0.000000000000000
  0
LINE
  5
F100FA
330
F100FB
100
AcDbEntity
8
Geo
100
AcDbLine
10
-90.9450374173297
20
-3.70988934278999
30
0.000000000000000
11
-90.8450374173297
21
-3.81348764080250
31
0.000000000000000
  0
LINE
  5
F100FC
330
F100FD
100
AcDbEntity
8
Geo
100
AcDbLine
10
-90.8450374173297
20
-3.81348764080250
30
0.000000000000000
11
-90.7450374173297
21
-3.91076873489263
31
0.000000000000000
  0
LINE
  5
F100FE
330
F100FF
100
AcDbEntity
8
Geo
100
AcDbLine
10
-90.7450374173297
20
-3.91076873489263
30
0.000000000000000
11
-90.6450374173297
21
-4.00158852271271
31
0.000000000000000
  0
LINE
  5
F10100
330
F10101
100
AcDbEntity
8
Geo
100
AcDbLine
10
-90.6450374173297
20
-4.00158852271271
30
0.000000000000000
11
-90.5450374173297
21
-4.08581247303896
31
0.000000000000000
  0
LINE
  5
F10102
330
F10103
100
AcDbEntity
8
Geo
100
AcDbLine
10
-90.5450374173297
20
-4.08581247303896
30
0.000000000000000
11
-90.4450374173297
21
-4.16331582505239
31
0.000000000000000
  0
LINE
  5
F10104
330
F10105
100
AcDbEntity
8
Geo
100
AcDbLine
10
-90.4450374173297
20
-4.16331582505239
30
0.000000000000000
11
-90.3450374173297
21
-4.23398377314681
31
0.000000000000000
  0
LINE
  5
F10106
330
F10107
100
AcDbEntity
8
Geo
100
AcDbLine
10
-90.3450374173297
20
-4.23398377314681
30
0.000000000000000
11
-90.2450374173297
21
-4.29771163699025
31
0.000000000000000
  0
LINE
  5
F10108
330
F10109
100
AcDbEntity
8
Geo
100
AcDbLine
10
-90.2450374173297
20
-4.29771163699025
30
0.000000000000000
11
-90.1450374173297
21
-4.35440501658775
31
0.000000000000000
  0
LINE
  5
F1010A
330
F1010B
100
AcDbEntity
8
Geo
100
AcDbLine
10
-90.1450374173297
20
-4.35440501658775
30
0.000000000000000
11
-90.0450374173297
21
-4.40397993211596
31
0.000000000000000
  0
LINE
  5
F1010C
330
F1010D
100
AcDbEntity
8
Geo
100
AcDbLine
10
-90.0450374173297
20
-4.40397993211596
30
0.000000000000000
11
-89.9450374173297
21
-4.44636294832233
31
0.000000000000000
  0
LINE
  5
F1010E
330
F1010F
100
AcDbEntity
8
Geo
100
AcDbLine
10
-89.9450374173297
20
-4.44636294832233
30
0.000000000000000
11
-89.8450374173297
21
-4.48149128330465
31
0.000000000000000
  0
LINE
  5
F10110
330
F10111
100
AcDbEntity
8
Geo
100
AcDbLine
10
-89.8450374173297
20
-4.48149128330465
30
0.000000000000000
11
-89.7450374173297
21
-4.50931290150979
31
0.000000000000000
  0
LINE
  5
F10112
330
F10113
100
AcDbEntity
8
Geo
100
AcDbLine
10
-89.7450374173297
20
-4.50931290150979
30
0.000000000000000
11
-89.6450374173297
21
-4.52978659081388
31
0.000000000000000
  0
LINE
  5
F10114
330
F10115
100
AcDbEntity
8
Geo
100
AcDbLine
10
-89.6450374173297
20
-4.52978659081388
30
0.000000000000000
11
-89.5450374173297
21
-4.54288202356980
31
0.000000000000000
  0
LINE
  5
F10116
330
F10117
100
AcDbEntity
8
Geo
100
AcDbLine
10
-89.5450374173297
20
-4.54288202356980
30
0.000000000000000
11
-89.4450374173297
21
-4.54857980153145
31
0.000000000000000
  0
LINE
  5
F10118
330
F10119
100
AcDbEntity
8
Geo
100
AcDbLine
10
-80.5450374173296
20
5.45115147946478
30
0.000000000000000
11
-80.4450374173296
21
5.45115146983876
31
0.000000000000000
  0
LINE
  5
F1011A
330
F1011B
100
AcDbEntity
8
Geo
100
AcDbLine
10
-80.4450374173296
20
5.45115146983876
30
0.000000000000000
11
-80.3450374173296
21
5.45060868385498
31
0.000000000000000
  0
LINE
  5
F1011C
330
F1011D
100
AcDbEntity
8
Geo
100
AcDbLine
10
-80.3450374173296
20
5.45060868385498
30
0.000000000000000
11
-80.2450374173296
21
5.44911077579643
31
0.000000000000000
  0
LINE
  5
F1011E
330
F1011F
100
AcDbEntity
8
Geo
100
AcDbLine
10
-80.2450374173296
20
5.44911077579643
30
0.000000000000000
11
-80.1450374173296
21
5.44683158838823
31
0.000000000000000
  0
LINE
  5
F10120
330
F10121
100
AcDbEntity
8
Geo
100
AcDbLine
10
-80.1450374173296
20
5.44683158838823
30
0.000000000000000
11
-80.0450374173296
21
5.44393451091235
31
0.000000000000000
  0
LINE
  5
F10122
330
F10123
100
AcDbEntity
8
Geo
100
AcDbLine
10
-80.0450374173296
20
5.44393451091235
30
0.000000000000000
11
-79.9450374173296
21
5.44057241047287
31
0.000000000000000
  0
LINE
  5
F10124
330
F10125
100
AcDbEntity
8
Geo
100
AcDbLine
10
-79.9450374173296
20
5.44057241047287
30
0.000000000000000
11
-79.8450374173296
21
5.43688758644369
31
0.000000000000000
  0
LINE
  5
F10126
330
F10127
100
AcDbEntity
8
Geo
100
AcDbLine
10
-79.8450374173296
20
5.43688758644369
30
0.000000000000000
11
-79.7450374173296
21
5.43301174435914
31
0.000000000000000
  0
LINE
  5
F10128
330
F10129
100
AcDbEntity
8
Geo
100
AcDbLine
10
-79.7450374173296
20
5.43301174435914
30
0.000000000000000
11
-79.6450374173296
21
5.42906598575882
31
0.000000000000000
  0
LINE
  5
F1012A
330
F1012B
100
AcDbEntity
8
Geo
100
AcDbLine
10
-79.6450374173296
20
5.42906598575882
30
0.000000000000000
11
-79.5450374173296
21
5.42516081075345
31
0.000000000000000
  0
LINE
  5
F1012C
330
F1012D
100
AcDbEntity
8
Geo
100
AcDbLine
10
-79.5450374173296
20
5.42516081075345
30
0.000000000000000
11
-79.4450374173296
21
5.42139613033610
31
0.000000000000000
  0
LINE
  5
F1012E
330
F1012F
100
AcDbEntity
8
Geo
100
AcDbLine
10
-79.4450374173296
20
5.42139613033610
30
0.000000000000000
11
-79.3450374173296
21
5.41786128572275
31
0.000000000000000
  0
LINE
  5
F10130
330
F10131
100
AcDbEntity
8
Geo
100
AcDbLine
10
-79.3450374173296
20
5.41786128572275
30
0.000000000000000
11
-79.2450374173296
21
5.41463507226604
31
0.000000000000000
  0
LINE
  5
F10132
330
F10133
100
AcDbEntity
8
Geo
100
AcDbLine
10
-79.2450374173296
20
5.41463507226604
30
0.000000000000000
11
-79.1450374173296
21
5.41178576574671
31
0.000000000000000
  0
LINE
  5
F10134
330
F10135
100
AcDbEntity
8
Geo
100
AcDbLine
10
-79.1450374173296
20
5.41178576574671
30
0.000000000000000
11
-79.0450374173296
21
5.40937114910689
31
0.000000000000000
  0
LINE
  5
F10136
330
F10137
100
AcDbEntity
8
Geo
100
AcDbLine
10
-79.0450374173296
20
5.40937114910689
30
0.000000000000000
11
-78.9450374173296
21
5.40743853794869
31
0.000000000000000
  0
LINE
  5
F10138
330
F10139
100
AcDbEntity
8
Geo
100
AcDbLine
10
-78.9450374173296
20
5.40743853794869
30
0.000000000000000
11
-78.8450374173297
21
5.40602480338021
31
0.000000000000000
  0
LINE
  5
F1013A
330
F1013B
100
AcDbEntity
8
Geo
100
AcDbLine
10
-100.845037417330
20
4.95115147946478
30
0.000000000000000
11
-100.745037417330
21
5.24759636284503
31
0.000000000000000
  0
LINE
  5
F1013C
330
F1013D
100
AcDbEntity
8
Geo
100
AcDbLine
10
-100.745037417330
20
5.24759636284503
30
0.000000000000000
11
-100.645037417330
21
5.33664012916897
31
0.000000000000000
  0
LINE
  5
F1013E
330
F1013F
100
AcDbEntity
8
Geo
100
AcDbLine
10
-100.645037417330
20
5.33664012916897
30
0.000000000000000
11
-100.545037417330
21
5.37639071001132
31
0.000000000000000
  0
LINE
  5
F10140
330
F10141
100
AcDbEntity
8
Geo
100
AcDbLine
10
-100.545037417330
20
5.37639071001132
30
0.000000000000000
11
-100.445037417330
21
5.38202662334417
31
0.000000000000000
  0
LINE
  5
F10142
330
F10143
100
AcDbEntity
8
Geo
100
AcDbLine
10
-100.445037417330
20
5.38202662334417
30
0.000000000000000
11
-100.345037417330
21
5.35884431389788
31
0.000000000000000
  0
LINE
  5
F10144
330
F10145
100
AcDbEntity
8
Geo
100
AcDbLine
10
-100.345037417330
20
5.35884431389788
30
0.000000000000000
11
-100.245037417330
21
5.31840968622884
31
0.000000000000000
  0
LINE
  5
F10146
330
F10147
100
AcDbEntity
8
Geo
100
AcDbLine
10
-100.245037417330
20
5.31840968622884
30
0.000000000000000
11
-100.145037417330
21
5.27076519583334
31
0.000000000000000
  0
LINE
  5
F10148
330
F10149
100
AcDbEntity
8
Geo
100
AcDbLine
10
-100.145037417330
20
5.27076519583334
30
0.000000000000000
11
-100.045037417330
21
5.21598141842789
31
0.000000000000000
  0
LINE
  5
F1014A
330
F1014B
100
AcDbEntity
8
Geo
100
AcDbLine
10
-100.045037417330
20
5.21598141842789
30
0.000000000000000
11
-99.9450374173297
21
5.15413950514481
31
0.000000000000000
  0
LINE
  5
F1014C
330
F1014D
100
AcDbEntity
8
Geo
100
AcDbLine
10
-99.9450374173297
20
5.15413950514481
30
0.000000000000000
11
-99.8450374173297
21
5.08533106232315
31
0.000000000000000
  0
LINE
  5
F1014E
330
F1014F
100
AcDbEntity
8
Geo
100
AcDbLine
10
-99.8450374173297
20
5.08533106232315
30
0.000000000000000
11
-99.7450374173297
21
5.00965801581234
31
0.000000000000000
  0
LINE
  5
F10150
330
F10151
100
AcDbEntity
8
Geo
100
AcDbLine
10
-99.7450374173297
20
5.00965801581234
30
0.000000000000000
11
-99.6450374173297
21
4.92723245998960
31
0.000000000000000
  0
LINE
  5
F10152
330
F10153
100
AcDbEntity
8
Geo
100
AcDbLine
10
-99.6450374173297
20
4.92723245998960
30
0.000000000000000
11
-99.5450374173297
21
4.83817649171467
31
0.000000000000000
  0
LINE
  5
F10154
330
F10155
100
AcDbEntity
8
Geo
100
AcDbLine
10
-99.5450374173297
20
4.83817649171467
30
0.000000000000000
11
-99.4450374173297
21
4.74262202946794
31
0.000000000000000
  0
LINE
  5
F10156
330
F10157
100
AcDbEntity
8
Geo
100
AcDbLine
10
-99.4450374173297
20
4.74262202946794
30
0.000000000000000
11
-99.3450374173297
21
4.64071061793975
31
0.000000000000000
  0
LINE
  5
F10158
330
F10159
100
AcDbEntity
8
Geo
100
AcDbLine
10
-99.3450374173297
20
4.64071061793975
30
0.000000000000000
11
-99.2450374173297
21
4.53259321836045
31
0.000000000000000
  0
LINE
  5
F1015A
330
F1015B
100
AcDbEntity
8
Geo
100
AcDbLine
10
-99.2450374173297
20
4.53259321836045
30
0.000000000000000
11
-99.1450374173297
21
4.41842998488178
31
0.000000000000000
  0
LINE
  5
F1015C
330
F1015D
100
AcDbEntity
8
Geo
100
AcDbLine
10
-99.1450374173297
20
4.41842998488178
30
0.000000000000000
11
-99.0450374173297
21
4.29839002734069
31
0.000000000000000
  0
LINE
  5
F1015E
330
F1015F
100
AcDbEntity
8
Geo
100
AcDbLine
10
-99.0450374173297
20
4.29839002734069
30
0.000000000000000
11
-98.9450374173297
21
4.17265116075721
31
0.000000000000000
  0
LINE
  5
F10160
330
F10161
100
AcDbEntity
8
Geo
100
AcDbLine
10
-98.9450374173297
20
4.17265116075721
30
0.000000000000000
11
-98.8450374173297
21
4.04139964193732
31
0.000000000000000
  0
LINE
  5
F10162
330
F10163
100
AcDbEntity
8
Geo
100
AcDbLine
10
-98.8450374173297
20
4.04139964193732
30
0.000000000000000
11
-98.7450374173297
21
3.90482989357100
31
0.000000000000000
  0
LINE
  5
F10164
330
F10165
100
AcDbEntity
8
Geo
100
AcDbLine
10
-98.7450374173297
20
3.90482989357100
30
0.000000000000000
11
-98.6450374173297
21
3.76314421623414
31
0.000000000000000
  0
LINE
  5
F10166
330
F10167
100
AcDbEntity
8
Geo
100
AcDbLine
10
-98.6450374173297
20
3.76314421623414
30
0.000000000000000
11
-98.5450374173297
21
3.61655248872103
31
0.000000000000000
  0
LINE
  5
F10168
330
F10169
100
AcDbEntity
8
Geo
100
AcDbLine
10
-98.5450374173297
20
3.61655248872103
30
0.000000000000000
11
-98.4450374173297
21
3.46527185715117
31
0.000000000000000
  0
LINE
  5
F1016A
330
F1016B
100
AcDbEntity
8
Geo
100
AcDbLine
10
-98.4450374173297
20
3.46527185715117
30
0.000000000000000
11
-98.3450374173297
21
3.30952641331104
31
0.000000000000000
  0
LINE
  5
F1016C
330
F1016D
100
AcDbEntity
8
Geo
100
AcDbLine
10
-98.3450374173297
20
3.30952641331104
30
0.000000000000000
11
-98.2450374173297
21
3.14954686270724
31
0.000000000000000
  0
LINE
  5
F1016E
330
F1016F
100
AcDbEntity
8
Geo
100
AcDbLine
10
-98.2450374173297
20
3.14954686270724
30
0.000000000000000
11
-98.1450374173297
21
2.98557018282275
31
0.000000000000000
  0
LINE
  5
F10170
330
F10171
100
AcDbEntity
8
Geo
100
AcDbLine
10
-98.1450374173297
20
2.98557018282275
30
0.000000000000000
11
-98.0450374173297
21
2.81783927208254
31
0.000000000000000
  0
LINE
  5
F10172
330
F10173
100
AcDbEntity
8
Geo
100
AcDbLine
10
-98.0450374173297
20
2.81783927208254
30
0.000000000000000
11
-97.9450374173297
21
2.64660259004846
31
0.000000000000000
  0
LINE
  5
F10174
330
F10175
100
AcDbEntity
8
Geo
100
AcDbLine
10
-97.9450374173297
20
2.64660259004846
30
0.000000000000000
11
-97.8450374173297
21
2.47211378937642
31
0.000000000000000
  0
LINE
  5
F10176
330
F10177
100
AcDbEntity
8
Geo
100
AcDbLine
10
-97.8450374173297
20
2.47211378937642
30
0.000000000000000
11
-97.7450374173297
21
2.29463134008110
31
0.000000000000000
  0
LINE
  5
F10178
330
F10179
100
AcDbEntity
8
Geo
100
AcDbLine
10
-97.7450374173297
20
2.29463134008110
30
0.000000000000000
11
-97.6450374173297
21
2.11441814666467
31
0.000000000000000
  0
LINE
  5
F1017A
330
F1017B
100
AcDbEntity
8
Geo
100
AcDbLine
10
-97.6450374173297
20
2.11441814666467
30
0.000000000000000
11
-97.5450374173297
21
1.93174115867672
31
0.000000000000000
  0
LINE
  5
F1017C
330
F1017D
100
AcDbEntity
8
Geo
100
AcDbLine
10
-97.5450374173297
20
1.93174115867672
30
0.000000000000000
11
-97.4450374173297
21
1.74687097528227
31
0.000000000000000
  0
LINE
  5
F1017E
330
F1017F
100
AcDbEntity
8
Geo
100
AcDbLine
10
-97.4450374173297
20
1.74687097528227
30
0.000000000000000
11
-97.3450374173297
21
1.56008144442360
31
0.000000000000000
  0
LINE
  5
F10180
330
F10181
100
AcDbEntity
8
Geo
100
AcDbLine
10
-97.3450374173297
20
1.56008144442360
30
0.000000000000000
11
-97.2450374173297
21
1.37164925716969
31
0.000000000000000
  0
LINE
  5
F10182
330
F10183
100
AcDbEntity
8
Geo
100
AcDbLine
10
-97.2450374173297
20
1.37164925716969
30
0.000000000000000
11
-97.1450374173297
21
1.18185353785413
31
0.000000000000000
  0
LINE
  5
F10184
330
F10185
100
AcDbEntity
8
Geo
100
AcDbLine
10
-97.1450374173297
20
1.18185353785413
30
0.000000000000000
11
-97.0450374173297
21
0.990975430608626
31
0.000000000000000
  0
LINE
  5
F10186
330
F10187
100
AcDbEntity
8
Geo
100
AcDbLine
10
-97.0450374173297
20
0.990975430608626
30
0.000000000000000
11
-96.9450374173297
21
0.799297682904597
31
0.000000000000000
  0
LINE
  5
F10188
330
F10189
100
AcDbEntity
8
Geo
100
AcDbLine
10
-96.9450374173297
20
0.799297682904597
30
0.000000000000000
11
-96.8450374173297
21
0.607104226719757
31
0.000000000000000
  0
LINE
  5
F1018A
330
F1018B
100
AcDbEntity
8
Geo
100
AcDbLine
10
-96.8450374173297
20
0.607104226719757
30
0.000000000000000
11
-96.7450374173297
21
0.414679757950056
31
0.000000000000000
  0
LINE
  5
F1018C
330
F1018D
100
AcDbEntity
8
Geo
100
AcDbLine
10
-96.7450374173297
20
0.414679757950056
30
0.000000000000000
11
-96.6450374173297
21
0.222309314690067
31
0.000000000000000
  0
LINE
  5
F1018E
330
F1018F
100
AcDbEntity
8
Geo
100
AcDbLine
10
-96.6450374173297
20
0.222309314690067
30
0.000000000000000
11
-96.5450374173297
21
0.0302778550064495
31
0.000000000000000
  0
LINE
  5
F10190
330
F10191
100
AcDbEntity
8
Geo
100
AcDbLine
10
-96.5450374173297
20
0.0302778550064495
30
0.000000000000000
11
-96.4450374173297
21
-0.161130165170032
31
0.000000000000000
  0
LINE
  5
F10192
330
F10193
100
AcDbEntity
8
Geo
100
AcDbLine
10
-96.4450374173297
20
-0.161130165170032
30
0.000000000000000
11
-96.3450374173297
21
-0.351631213408673
31
0.000000000000000
  0
LINE
  5
F10194
330
F10195
100
AcDbEntity
8
Geo
100
AcDbLine
10
-96.3450374173297
20
-0.351631213408673
30
0.000000000000000
11
-96.2450374173297
21
-0.540943100775030
31
0.000000000000000
  0
LINE
  5
F10196
330
F10197
100
AcDbEntity
8
Geo
100
AcDbLine
10
-96.2450374173297
20
-0.540943100775030
30
0.000000000000000
11
-96.1450374173297
21
-0.728785399836977
31
0.000000000000000
  0
LINE
  5
F10198
330
F10199
100
AcDbEntity
8
Geo
100
AcDbLine
10
-96.1450374173297
20
-0.728785399836977
30
0.000000000000000
11
-96.0450374173297
21
-0.914879860061478
31
0.000000000000000
  0
LINE
  5
F1019A
330
F1019B
100
AcDbEntity
8
Geo
100
AcDbLine
10
-96.0450374173297
20
-0.914879860061478
30
0.000000000000000
11
-95.9450374173297
21
-1.09895081998671
31
0.000000000000000
  0
LINE
  5
F1019C
330
F1019D
100
AcDbEntity
8
Geo
100
AcDbLine
10
-95.9450374173297
20
-1.09895081998671
30
0.000000000000000
11
-95.8450374173297
21
-1.28072561555898
31
0.000000000000000
  0
LINE
  5
F1019E
330
F1019F
100
AcDbEntity
8
Geo
100
AcDbLine
10
-95.8450374173297
20
-1.28072561555898
30
0.000000000000000
11
-95.7450374173297
21
-1.45993498402962
31
0.000000000000000
  0
LINE
  5
F101A0
330
F101A1
100
AcDbEntity
8
Geo
100
AcDbLine
10
-95.7450374173297
20
-1.45993498402962
30
0.000000000000000
11
-95.6450374173297
21
-1.63631346281354
31
0.000000000000000
  0
LINE
  5
F101A2
330
F101A3
100
AcDbEntity
8
Geo
100
AcDbLine
10
-95.6450374173297
20
-1.63631346281354
30
0.000000000000000
11
-95.5450374173297
21
-1.80959978271851
31
0.000000000000000
  0
LINE
  5
F101A4
330
F101A5
100
AcDbEntity
8
Geo
100
AcDbLine
10
-95.5450374173297
20
-1.80959978271851
30
0.000000000000000
11
-95.4450374173297
21
-1.97953725496294
31
0.000000000000000
  0
LINE
  5
F101A6
330
F101A7
100
AcDbEntity
8
Geo
100
AcDbLine
10
-95.4450374173297
20
-1.97953725496294
30
0.000000000000000
11
-95.3450374173297
21
-2.14587415140852
31
0.000000000000000
  0
LINE
  5
F101A8
330
F101A9
100
AcDbEntity
8
Geo
100
AcDbLine
10
-95.3450374173297
20
-2.14587415140852
30
0.000000000000000
11
-95.2450374173297
21
-2.30836407744484
31
0.000000000000000
  0
LINE
  5
F101AA
330
F101AB
100
AcDbEntity
8
Geo
100
AcDbLine
10
-95.2450374173297
20
-2.30836407744484
30
0.000000000000000
11
-95.1450374173297
21
-2.46676633697330
31
0.000000000000000
  0
LINE
  5
F101AC
330
F101AD
100
AcDbEntity
8
Geo
100
AcDbLine
10
-95.1450374173297
20
-2.46676633697330
30
0.000000000000000
11
-95.0450374173297
21
-2.62084628894997
31
0.000000000000000
  0
LINE
  5
F101AE
330
F101AF
100
AcDbEntity
8
Geo
100
AcDbLine
10
-95.0450374173297
20
-2.62084628894997
30
0.000000000000000
11
-94.9450374173297
21
-2.77037569495899
31
0.000000000000000
  0
LINE
  5
F101B0
330
F101B1
100
AcDbEntity
8
Geo
100
AcDbLine
10
-94.9450374173297
20
-2.77037569495899
30
0.000000000000000
11
-94.8450374173297
21
-2.91513305730186
31
0.000000000000000
  0
LINE
  5
F101B2
330
F101B3
100
AcDbEntity
8
Geo
100
AcDbLine
10
-94.8450374173297
20
-2.91513305730186
30
0.000000000000000
11
-94.7450374173297
21
-3.05490394710160
31
0.000000000000000
  0
LINE
  5
F101B4
330
F101B5
100
AcDbEntity
8
Geo
100
AcDbLine
10
-94.7450374173297
20
-3.05490394710160
30
0.000000000000000
11
-94.6450374173297
21
-3.18948132193603
31
0.000000000000000
  0
LINE
  5
F101B6
330
F101B7
100
AcDbEntity
8
Geo
100
AcDbLine
10
-94.6450374173297
20
-3.18948132193603
30
0.000000000000000
11
-94.5450374173297
21
-3.31866583252933
31
0.000000000000000
  0
LINE
  5
F101B8
330
F101B9
100
AcDbEntity
8
Geo
100
AcDbLine
10
-94.5450374173297
20
-3.31866583252933
30
0.000000000000000
11
-94.4450374173297
21
-3.44226611804792
31
0.000000000000000
  0
LINE
  5
F101BA
330
F101BB
100
AcDbEntity
8
Geo
100
AcDbLine
10
-94.4450374173297
20
-3.44226611804792
30
0.000000000000000
11
-94.3450374173297
21
-3.56009908956294
31
0.000000000000000
  0
LINE
  5
F101BC
330
F101BD
100
AcDbEntity
8
Geo
100
AcDbLine
10
-94.3450374173297
20
-3.56009908956294
30
0.000000000000000
11
-94.2450374173297
21
-3.67199020125964
31
0.000000000000000
  0
LINE
  5
F101BE
330
F101BF
100
AcDbEntity
8
Geo
100
AcDbLine
10
-94.2450374173297
20
-3.67199020125964
30
0.000000000000000
11
-94.1450374173297
21
-3.77777370899187
31
0.000000000000000
  0
LINE
  5
F101C0
330
F101C1
100
AcDbEntity
8
Geo
100
AcDbLine
10
-94.1450374173297
20
-3.77777370899187
30
0.000000000000000
11
-94.0450374173297
21
-3.87729291579860
31
0.000000000000000
  0
LINE
  5
F101C2
330
F101C3
100
AcDbEntity
8
Geo
100
AcDbLine
10
-94.0450374173297
20
-3.87729291579860
30
0.000000000000000
11
-93.9450374173297
21
-3.97040040401896
31
0.000000000000000
  0
LINE
  5
F101C4
330
F101C5
100
AcDbEntity
8
Geo
100
AcDbLine
10
-93.9450374173297
20
-3.97040040401896
30
0.000000000000000
11
-93.8450374173297
21
-4.05695825366178
31
0.000000000000000
  0
LINE
  5
F101C6
330
F101C7
100
AcDbEntity
8
Geo
100
AcDbLine
10
-93.8450374173297
20
-4.05695825366178
30
0.000000000000000
11
-93.7450374173297
21
-4.13683824670631
31
0.000000000000000
  0
LINE
  5
F101C8
330
F101C9
100
AcDbEntity
8
Geo
100
AcDbLine
10
-93.7450374173297
20
-4.13683824670631
30
0.000000000000000
11
-93.6450374173297
21
-4.20992205703134
31
0.000000000000000
  0
LINE
  5
F101CA
330
F101CB
100
AcDbEntity
8
Geo
100
AcDbLine
10
-93.6450374173297
20
-4.20992205703134
30
0.000000000000000
11
-93.5450374173297
21
-4.27610142569158
31
0.000000000000000
  0
LINE
  5
F101CC
330
F101CD
100
AcDbEntity
8
Geo
100
AcDbLine
10
-93.5450374173297
20
-4.27610142569158
30
0.000000000000000
11
-93.4450374173297
21
-4.33527832128144
31
0.000000000000000
  0
LINE
  5
F101CE
330
F101CF
100
AcDbEntity
8
Geo
100
AcDbLine
10
-93.4450374173297
20
-4.33527832128144
30
0.000000000000000
11
-93.3450374173297
21
-4.38736508514883
31
0.000000000000000
  0
LINE
  5
F101D0
330
F101D1
100
AcDbEntity
8
Geo
100
AcDbLine
10
-93.3450374173297
20
-4.38736508514883
30
0.000000000000000
11
-93.2450374173297
21
-4.43228456124379
31
0.000000000000000
  0
LINE
  5
F101D2
330
F101D3
100
AcDbEntity
8
Geo
100
AcDbLine
10
-93.2450374173297
20
-4.43228456124379
30
0.000000000000000
11
-93.1450374173297
21
-4.46997021040966
31
0.000000000000000
  0
LINE
  5
F101D4
330
F101D5
100
AcDbEntity
8
Geo
100
AcDbLine
10
-93.1450374173297
20
-4.46997021040966
30
0.000000000000000
11
-93.0450374173297
21
-4.50036620894739
31
0.000000000000000
  0
LINE
  5
F101D6
330
F101D7
100
AcDbEntity
8
Geo
100
AcDbLine
10
-93.0450374173297
20
-4.50036620894739
30
0.000000000000000
11
-92.9450374173297
21
-4.52342753130717
31
0.000000000000000
  0
LINE
  5
F101D8
330
F101D9
100
AcDbEntity
8
Geo
100
AcDbLine
10
-92.9450374173297
20
-4.52342753130717
30
0.000000000000000
11
-92.8450374173297
21
-4.53912001678466
31
0.000000000000000
  0
LINE
  5
F101DA
330
F101DB
100
AcDbEntity
8
Geo
100
AcDbLine
10
-92.8450374173297
20
-4.53912001678466
30
0.000000000000000
11
-92.7450374173297
21
-4.54742042012324
31
0.000000000000000
  0
LINE
  5
F101DC
330
F101DD
100
AcDbEntity
8
Geo
100
AcDbLine
10
-84.5450374173297
20
5.45093467988592
30
0.000000000000000
11
-84.4450374173297
21
5.44902329435374
31
0.000000000000000
  0
LINE
  5
F101DE
330
F101DF
100
AcDbEntity
8
Geo
100
AcDbLine
10
-84.4450374173297
20
5.44902329435374
30
0.000000000000000
11
-84.3450374173297
21
5.43970856834134
31
0.000000000000000
  0
LINE
  5
F101E0
330
F101E1
100
AcDbEntity
8
Geo
100
AcDbLine
10
-84.3450374173297
20
5.43970856834134
30
0.000000000000000
11
-84.2450374173297
21
5.42300429973924
31
0.000000000000000
  0
LINE
  5
F101E2
330
F101E3
100
AcDbEntity
8
Geo
100
AcDbLine
10
-84.2450374173297
20
5.42300429973924
30
0.000000000000000
11
-84.1450374173297
21
5.39893523255700
31
0.000000000000000
  0
LINE
  5
F101E4
330
F101E5
100
AcDbEntity
8
Geo
100
AcDbLine
10
-84.1450374173297
20
5.39893523255700
30
0.000000000000000
11
-84.0450374173297
21
5.36753702026994
31
0.000000000000000
  0
LINE
  5
F101E6
330
F101E7
100
AcDbEntity
8
Geo
100
AcDbLine
10
-84.0450374173297
20
5.36753702026994
30
0.000000000000000
11
-83.9450374173297
21
5.32885617300570
31
0.000000000000000
  0
LINE
  5
F101E8
330
F101E9
100
AcDbEntity
8
Geo
100
AcDbLine
10
-83.9450374173297
20
5.32885617300570
30
0.000000000000000
11
-83.8450374173297
21
5.28294998864883
31
0.000000000000000
  0
LINE
  5
F101EA
330
F101EB
100
AcDbEntity
8
Geo
100
AcDbLine
10
-83.8450374173297
20
5.28294998864883
30
0.000000000000000
11
-83.7450374173297
21
5.28905475289810
31
0.000000000000000
  0
LINE
  5
F101EC
330
F101ED
100
AcDbEntity
8
Geo
100
AcDbLine
10
-83.7450374173297
20
5.28905475289810
30
0.000000000000000
11
-83.6450374173297
21
5.29493326828029
31
0.000000000000000
  0
LINE
  5
F101EE
330
F101EF
100
AcDbEntity
8
Geo
100
AcDbLine
10
-83.6450374173297
20
5.29493326828029
30
0.000000000000000
11
-83.5450374173297
21
5.30059174521286
31
0.000000000000000
  0
LINE
  5
F101F0
330
F101F1
100
AcDbEntity
8
Geo
100
AcDbLine
10
-83.5450374173297
20
5.30059174521286
30
0.000000000000000
11
-83.4450374173297
21
5.30603628582499
31
0.000000000000000
  0
LINE
  5
F101F2
330
F101F3
100
AcDbEntity
8
Geo
100
AcDbLine
10
-83.4450374173297
20
5.30603628582499
30
0.000000000000000
11
-83.3450374173297
21
5.31127288278697
31
0.000000000000000
  0
LINE
  5
F101F4
330
F101F5
100
AcDbEntity
8
Geo
100
AcDbLine
10
-83.3450374173297
20
5.31127288278697
30
0.000000000000000
11
-83.2450374173297
21
5.31630741819250
31
0.000000000000000
  0
LINE
  5
F101F6
330
F101F7
100
AcDbEntity
8
Geo
100
AcDbLine
10
-83.2450374173297
20
5.31630741819250
30
0.000000000000000
11
-83.1450374173297
21
5.32114566249241
31
0.000000000000000
  0
LINE
  5
F101F8
330
F101F9
100
AcDbEntity
8
Geo
100
AcDbLine
10
-83.1450374173297
20
5.32114566249241
30
0.000000000000000
11
-83.0450374173297
21
5.32579327347802
31
0.000000000000000
  0
LINE
  5
F101FA
330
F101FB
100
AcDbEntity
8
Geo
100
AcDbLine
10
-83.0450374173297
20
5.32579327347802
30
0.000000000000000
11
-82.9450374173296
21
5.33025579531242
31
0.000000000000000
  0
LINE
  5
F101FC
330
F101FD
100
AcDbEntity
8
Geo
100
AcDbLine
10
-82.9450374173296
20
5.33025579531242
30
0.000000000000000
11
-82.8450374173297
21
5.33453865760802
31
0.000000000000000
  0
LINE
  5
F101FE
330
F101FF
100
AcDbEntity
8
Geo
100
AcDbLine
10
-82.8450374173297
20
5.33453865760802
30
0.000000000000000
11
-82.7450374173297
21
5.33864717454892
31
0.000000000000000
  0
LINE
  5
F10200
330
F10201
100
AcDbEntity
8
Geo
100
AcDbLine
10
-82.7450374173297
20
5.33864717454892
30
0.000000000000000
11
-82.6450374173296
21
5.34258654405627
31
0.000000000000000
  0
LINE
  5
F10202
330
F10203
100
AcDbEntity
8
Geo
100
AcDbLine
10
-82.6450374173296
20
5.34258654405627
30
0.000000000000000
11
-82.5450374173296
21
5.34636184699522
31
0.000000000000000
  0
LINE
  5
F10204
330
F10205
100
AcDbEntity
8
Geo
100
AcDbLine
10
-82.5450374173296
20
5.34636184699522
30
0.000000000000000
11
-82.4450374173296
21
5.34997804642192
31
0.000000000000000
  0
LINE
  5
F10206
330
F10207
100
AcDbEntity
8
Geo
100
AcDbLine
10
-82.4450374173296
20
5.34997804642192
30
0.000000000000000
11
-82.3450374173297
21
5.35343998686901
31
0.000000000000000
  0
LINE
  5
F10208
330
F10209
100
AcDbEntity
8
Geo
100
AcDbLine
10
-82.3450374173297
20
5.35343998686901
30
0.000000000000000
11
-82.2450374173296
21
5.35675239366821
31
0.000000000000000
  0
LINE
  5
F1020A
330
F1020B
100
AcDbEntity
8
Geo
100
AcDbLine
10
-82.2450374173296
20
5.35675239366821
30
0.000000000000000
11
-82.1450374173296
21
5.35991987230852
31
0.000000000000000
  0
LINE
  5
F1020C
330
F1020D
100
AcDbEntity
8
Geo
100
AcDbLine
10
-82.1450374173296
20
5.35991987230852
30
0.000000000000000
11
-82.0450374173296
21
5.36294690782870
31
0.000000000000000
  0
LINE
  5
F1020E
330
F1020F
100
AcDbEntity
8
Geo
100
AcDbLine
10
-82.0450374173296
20
5.36294690782870
30
0.000000000000000
11
-81.9450374173296
21
5.36583786424253
31
0.000000000000000
  0
LINE
  5
F10210
330
F10211
100
AcDbEntity
8
Geo
100
AcDbLine
10
-81.9450374173296
20
5.36583786424253
30
0.000000000000000
11
-81.8450374173296
21
5.36859698399573
31
0.000000000000000
  0
LINE
  5
F10212
330
F10213
100
AcDbEntity
8
Geo
100
AcDbLine
10
-81.8450374173296
20
5.36859698399573
30
0.000000000000000
11
-81.7450374173296
21
5.37122838745308
31
0.000000000000000
  0
LINE
  5
F10214
330
F10215
100
AcDbEntity
8
Geo
100
AcDbLine
10
-81.7450374173296
20
5.37122838745308
30
0.000000000000000
11
-81.6450374173296
21
5.37373607241445
31
0.000000000000000
  0
LINE
  5
F10216
330
F10217
100
AcDbEntity
8
Geo
100
AcDbLine
10
-81.6450374173296
20
5.37373607241445
30
0.000000000000000
11
-81.5450374173296
21
5.37612391365870
31
0.000000000000000
  0
LINE
  5
F10218
330
F10219
100
AcDbEntity
8
Geo
100
AcDbLine
10
-81.5450374173296
20
5.37612391365870
30
0.000000000000000
11
-81.4450374173296
21
5.37839566251406
31
0.000000000000000
  0
LINE
  5
F1021A
330
F1021B
100
AcDbEntity
8
Geo
100
AcDbLine
10
-81.4450374173296
20
5.37839566251406
30
0.000000000000000
11
-81.3450374173296
21
5.38055494645395
31
0.000000000000000
  0
LINE
  5
F1021C
330
F1021D
100
AcDbEntity
8
Geo
100
AcDbLine
10
-81.3450374173296
20
5.38055494645395
30
0.000000000000000
11
-81.2450374173296
21
5.38260526871709
31
0.000000000000000
  0
LINE
  5
F1021E
330
F1021F
100
AcDbEntity
8
Geo
100
AcDbLine
10
-81.2450374173296
20
5.38260526871709
30
0.000000000000000
11
-81.1450374173296
21
5.38455000795075
31
0.000000000000000
  0
LINE
  5
F10220
330
F10221
100
AcDbEntity
8
Geo
100
AcDbLine
10
-81.1450374173296
20
5.38455000795075
30
0.000000000000000
11
-81.0450374173296
21
5.38639241787622
31
0.000000000000000
  0
LINE
  5
F10222
330
F10223
100
AcDbEntity
8
Geo
100
AcDbLine
10
-81.0450374173296
20
5.38639241787622
30
0.000000000000000
11
-80.9450374173296
21
5.38813562697537
31
0.000000000000000
  0
LINE
  5
F10224
330
F10225
100
AcDbEntity
8
Geo
100
AcDbLine
10
-80.9450374173296
20
5.38813562697537
30
0.000000000000000
11
-80.8450374173296
21
5.38978263819739
31
0.000000000000000
  0
LINE
  5
F10226
330
F10227
100
AcDbEntity
8
Geo
100
AcDbLine
10
-80.8450374173296
20
5.38978263819739
30
0.000000000000000
11
-80.7450374173296
21
5.39133632868470
31
0.000000000000000
  0
LINE
  5
F10228
330
F10229
100
AcDbEntity
8
Geo
100
AcDbLine
10
-80.7450374173296
20
5.39133632868470
30
0.000000000000000
11
-80.6450374173296
21
5.39279944951725
31
0.000000000000000
  0
LINE
  5
F1022A
330
F1022B
100
AcDbEntity
8
Geo
100
AcDbLine
10
-80.6450374173296
20
5.39279944951725
30
0.000000000000000
11
-80.5450374173296
21
5.39417462547423
31
0.000000000000000
  0
LINE
  5
F1022C
330
F1022D
100
AcDbEntity
8
Geo
100
AcDbLine
10
-80.5450374173296
20
5.39417462547423
30
0.000000000000000
11
-80.4450374173296
21
5.39546435481238
31
0.000000000000000
  0
LINE
  5
F1022E
330
F1022F
100
AcDbEntity
8
Geo
100
AcDbLine
10
-80.4450374173296
20
5.39546435481238
30
0.000000000000000
11
-80.3450374173296
21
5.39667100906020
31
0.000000000000000
  0
LINE
  5
F10230
330
F10231
100
AcDbEntity
8
Geo
100
AcDbLine
10
-80.3450374173296
20
5.39667100906020
30
0.000000000000000
11
-80.2450374173296
21
5.39779683282716
31
0.000000000000000
  0
LINE
  5
F10232
330
F10233
100
AcDbEntity
8
Geo
100
AcDbLine
10
-80.2450374173296
20
5.39779683282716
30
0.000000000000000
11
-80.1450374173296
21
5.39884394362733
31
0.000000000000000
  0
LINE
  5
F10234
330
F10235
100
AcDbEntity
8
Geo
100
AcDbLine
10
-80.1450374173296
20
5.39884394362733
30
0.000000000000000
11
-80.0450374173296
21
5.39981433171673
31
0.000000000000000
  0
LINE
  5
F10236
330
F10237
100
AcDbEntity
8
Geo
100
AcDbLine
10
-80.0450374173296
20
5.39981433171673
30
0.000000000000000
11
-79.9450374173296
21
5.40070985994360
31
0.000000000000000
  0
LINE
  5
F10238
330
F10239
100
AcDbEntity
8
Geo
100
AcDbLine
10
-79.9450374173296
20
5.40070985994360
30
0.000000000000000
11
-79.8450374173296
21
5.40153226361131
31
0.000000000000000
  0
LINE
  5
F1023A
330
F1023B
100
AcDbEntity
8
Geo
100
AcDbLine
10
-79.8450374173296
20
5.40153226361131
30
0.000000000000000
11
-79.7450374173296
21
5.40228315035297
31
0.000000000000000
  0
LINE
  5
F1023C
330
F1023D
100
AcDbEntity
8
Geo
100
AcDbLine
10
-79.7450374173296
20
5.40228315035297
30
0.000000000000000
11
-79.6450374173296
21
5.40296400001756
31
0.000000000000000
  0
LINE
  5
F1023E
330
F1023F
100
AcDbEntity
8
Geo
100
AcDbLine
10
-79.6450374173296
20
5.40296400001756
30
0.000000000000000
11
-79.5450374173296
21
5.40357616456684
31
0.000000000000000
  0
LINE
  5
F10240
330
F10241
100
AcDbEntity
8
Geo
100
AcDbLine
10
-79.5450374173296
20
5.40357616456684
30
0.000000000000000
11
-79.4450374173296
21
5.40412086798274
31
0.000000000000000
  0
LINE
  5
F10242
330
F10243
100
AcDbEntity
8
Geo
100
AcDbLine
10
-79.4450374173296
20
5.40412086798274
30
0.000000000000000
11
-79.3450374173296
21
5.40459920618473
31
0.000000000000000
  0
LINE
  5
F10244
330
F10245
100
AcDbEntity
8
Geo
100
AcDbLine
10
-79.3450374173296
20
5.40459920618473
30
0.000000000000000
11
-79.2450374173296
21
5.40501214695695
31
0.000000000000000
  0
LINE
  5
F10246
330
F10247
100
AcDbEntity
8
Geo
100
AcDbLine
10
-79.2450374173296
20
5.40501214695695
30
0.000000000000000
11
-79.1450374173296
21
5.40536052988449
31
0.000000000000000
  0
LINE
  5
F10248
330
F10249
100
AcDbEntity
8
Geo
100
AcDbLine
10
-79.1450374173296
20
5.40536052988449
30
0.000000000000000
11
-79.0450374173296
21
5.40564506629890
31
0.000000000000000
  0
LINE
  5
F1024A
330
F1024B
100
AcDbEntity
8
Geo
100
AcDbLine
10
-79.0450374173296
20
5.40564506629890
30
0.000000000000000
11
-78.9450374173296
21
5.40586633923231
31
0.000000000000000
  0
LINE
  5
F1024C
330
F1024D
100
AcDbEntity
8
Geo
100
AcDbLine
10
-78.9450374173296
20
5.40586633923231
30
0.000000000000000
11
-78.8450374173297
21
5.40602480338021
31
0.000000000000000
  0
LINE
  5
F1024E
330
F1024F
100
AcDbEntity
8
Geo
100
AcDbLine
10
-100.845037417330
20
4.73090580279297
30
0.000000000000000
11
-100.745037417330
21
4.95576420212140
31
0.000000000000000
  0
LINE
  5
F10250
330
F10251
100
AcDbEntity
8
Geo
100
AcDbLine
10
-100.745037417330
20
4.95576420212140
30
0.000000000000000
11
-100.645037417330
21
4.98108050113415
31
0.000000000000000
  0
LINE
  5
F10252
330
F10253
100
AcDbEntity
8
Geo
100
AcDbLine
10
-100.645037417330
20
4.98108050113415
30
0.000000000000000
11
-100.545037417330
21
4.95880365828046
31
0.000000000000000
  0
LINE
  5
F10254
330
F10255
100
AcDbEntity
8
Geo
100
AcDbLine
10
-100.545037417330
20
4.95880365828046
30
0.000000000000000
11
-100.445037417330
21
4.90422840959300
31
0.000000000000000
  0
LINE
  5
F10256
330
F10257
100
AcDbEntity
8
Geo
100
AcDbLine
10
-100.445037417330
20
4.90422840959300
30
0.000000000000000
11
-100.345037417330
21
4.82312509664018
31
0.000000000000000
  0
LINE
  5
F10258
330
F10259
100
AcDbEntity
8
Geo
100
AcDbLine
10
-100.345037417330
20
4.82312509664018
30
0.000000000000000
11
-100.245037417330
21
4.72653032836208
31
0.000000000000000
  0
LINE
  5
F1025A
330
F1025B
100
AcDbEntity
8
Geo
100
AcDbLine
10
-100.245037417330
20
4.72653032836208
30
0.000000000000000
11
-100.145037417330
21
4.62360244741669
31
0.000000000000000
  0
LINE
  5
F1025C
330
F1025D
100
AcDbEntity
8
Geo
100
AcDbLine
10
-100.145037417330
20
4.62360244741669
30
0.000000000000000
11
-100.045037417330
21
4.51449392072911
31
0.000000000000000
  0
LINE
  5
F1025E
330
F1025F
100
AcDbEntity
8
Geo
100
AcDbLine
10
-100.045037417330
20
4.51449392072911
30
0.000000000000000
11
-99.9450374173297
21
4.39936637060623
31
0.000000000000000
  0
LINE
  5
F10260
330
F10261
100
AcDbEntity
8
Geo
100
AcDbLine
10
-99.9450374173297
20
4.39936637060623
30
0.000000000000000
11
-99.8450374173297
21
4.27839033532591
31
0.000000000000000
  0
LINE
  5
F10262
330
F10263
100
AcDbEntity
8
Geo
100
AcDbLine
10
-99.8450374173297
20
4.27839033532591
30
0.000000000000000
11
-99.7450374173297
21
4.15174501651882
31
0.000000000000000
  0
LINE
  5
F10264
330
F10265
100
AcDbEntity
8
Geo
100
AcDbLine
10
-99.7450374173297
20
4.15174501651882
30
0.000000000000000
11
-99.6450374173297
21
4.01961801371734
31
0.000000000000000
  0
LINE
  5
F10266
330
F10267
100
AcDbEntity
8
Geo
100
AcDbLine
10
-99.6450374173297
20
4.01961801371734
30
0.000000000000000
11
-99.5450374173297
21
3.88220504646463
31
0.000000000000000
  0
LINE
  5
F10268
330
F10269
100
AcDbEntity
8
Geo
100
AcDbLine
10
-99.5450374173297
20
3.88220504646463
30
0.000000000000000
11
-99.4450374173297
21
3.73970966439553
31
0.000000000000000
  0
LINE
  5
F1026A
330
F1026B
100
AcDbEntity
8
Geo
100
AcDbLine
10
-99.4450374173297
20
3.73970966439553
30
0.000000000000000
11
-99.3450374173297
21
3.59234294571881
31
0.000000000000000
  0
LINE
  5
F1026C
330
F1026D
100
AcDbEntity
8
Geo
100
AcDbLine
10
-99.3450374173297
20
3.59234294571881
30
0.000000000000000
11
-99.2450374173297
21
3.44032318454730
31
0.000000000000000
  0
LINE
  5
F1026E
330
F1026F
100
AcDbEntity
8
Geo
100
AcDbLine
10
-99.2450374173297
20
3.44032318454730
30
0.000000000000000
11
-99.1450374173297
21
3.28387556753910
31
0.000000000000000
  0
LINE
  5
F10270
330
F10271
100
AcDbEntity
8
Geo
100
AcDbLine
10
-99.1450374173297
20
3.28387556753910
30
0.000000000000000
11
-99.0450374173297
21
3.12323184032895
31
0.000000000000000
  0
LINE
  5
F10272
330
F10273
100
AcDbEntity
8
Geo
100
AcDbLine
10
-99.0450374173297
20
3.12323184032895
30
0.000000000000000
11
-98.9450374173297
21
2.95862996424370
31
0.000000000000000
  0
LINE
  5
F10274
330
F10275
100
AcDbEntity
8
Geo
100
AcDbLine
10
-98.9450374173297
20
2.95862996424370
30
0.000000000000000
11
-98.8450374173297
21
2.79031376381057
31
0.000000000000000
  0
LINE
  5
F10276
330
F10277
100
AcDbEntity
8
Geo
100
AcDbLine
10
-98.8450374173297
20
2.79031376381057
30
0.000000000000000
11
-98.7450374173297
21
2.61853256558019
31
0.000000000000000
  0
LINE
  5
F10278
330
F10279
100
AcDbEntity
8
Geo
100
AcDbLine
10
-98.7450374173297
20
2.61853256558019
30
0.000000000000000
11
-98.6450374173297
21
2.44354082879957
31
0.000000000000000
  0
LINE
  5
F1027A
330
F1027B
100
AcDbEntity
8
Geo
100
AcDbLine
10
-98.6450374173297
20
2.44354082879957
30
0.000000000000000
11
-98.5450374173297
21
2.26559776848192
31
0.000000000000000
  0
LINE
  5
F1027C
330
F1027D
100
AcDbEntity
8
Geo
100
AcDbLine
10
-98.5450374173297
20
2.26559776848192
30
0.000000000000000
11
-98.4450374173297
21
2.08496697143189
31
0.000000000000000
  0
LINE
  5
F1027E
330
F1027F
100
AcDbEntity
8
Geo
100
AcDbLine
10
-98.4450374173297
20
2.08496697143189
30
0.000000000000000
11
-98.3450374173297
21
1.90191600579473
31
0.000000000000000
  0
LINE
  5
F10280
330
F10281
100
AcDbEntity
8
Geo
100
AcDbLine
10
-98.3450374173297
20
1.90191600579473
30
0.000000000000000
11
-98.2450374173297
21
1.71671602470802
31
0.000000000000000
  0
LINE
  5
F10282
330
F10283
100
AcDbEntity
8
Geo
100
AcDbLine
10
-98.2450374173297
20
1.71671602470802
30
0.000000000000000
11
-98.1450374173297
21
1.52964136464291
31
0.000000000000000
  0
LINE
  5
F10284
330
F10285
100
AcDbEntity
8
Geo
100
AcDbLine
10
-98.1450374173297
20
1.52964136464291
30
0.000000000000000
11
-98.0450374173297
21
1.34096913902987
31
0.000000000000000
  0
LINE
  5
F10286
330
F10287
100
AcDbEntity
8
Geo
100
AcDbLine
10
-98.0450374173297
20
1.34096913902987
30
0.000000000000000
11
-97.9450374173297
21
1.15097882777097
31
0.000000000000000
  0
LINE
  5
F10288
330
F10289
100
AcDbEntity
8
Geo
100
AcDbLine
10
-97.9450374173297
20
1.15097882777097
30
0.000000000000000
11
-97.8450374173297
21
0.959951863246678
31
0.000000000000000
  0
LINE
  5
F1028A
330
F1028B
100
AcDbEntity
8
Geo
100
AcDbLine
10
-97.8450374173297
20
0.959951863246678
30
0.000000000000000
11
-97.7450374173297
21
0.768171213430505
31
0.000000000000000
  0
LINE
  5
F1028C
330
F1028D
100
AcDbEntity
8
Geo
100
AcDbLine
10
-97.7450374173297
20
0.768171213430505
30
0.000000000000000
11
-97.6450374173297
21
0.575920962728910
31
0.000000000000000
  0
LINE
  5
F1028E
330
F1028F
100
AcDbEntity
8
Geo
100
AcDbLine
10
-97.6450374173297
20
0.575920962728910
30
0.000000000000000
11
-97.5450374173297
21
0.383485891167485
31
0.000000000000000
  0
LINE
  5
F10290
330
F10291
100
AcDbEntity
8
Geo
100
AcDbLine
10
-97.5450374173297
20
0.383485891167485
30
0.000000000000000
11
-97.4450374173297
21
0.191151052546703
31
0.000000000000000
  0
LINE
  5
F10292
330
F10293
100
AcDbEntity
8
Geo
100
AcDbLine
10
-97.4450374173297
20
0.191151052546703
30
0.000000000000000
11
-97.3450374173297
21
-0.000798647807878305
31
0.000000000000000
  0
LINE
  5
F10294
330
F10295
100
AcDbEntity
8
Geo
100
AcDbLine
10
-97.3450374173297
20
-0.000798647807878305
30
0.000000000000000
11
-97.2450374173297
21
-0.192078875075474
31
0.000000000000000
  0
LINE
  5
F10296
330
F10297
100
AcDbEntity
8
Geo
100
AcDbLine
10
-97.2450374173297
20
-0.192078875075474
30
0.000000000000000
11
-97.1450374173297
21
-0.382406286124836
31
0.000000000000000
  0
LINE
  5
F10298
330
F10299
100
AcDbEntity
8
Geo
100
AcDbLine
10
-97.1450374173297
20
-0.382406286124836
30
0.000000000000000
11
-97.0450374173297
21
-0.571498949230043
31
0.000000000000000
  0
LINE
  5
F1029A
330
F1029B
100
AcDbEntity
8
Geo
100
AcDbLine
10
-97.0450374173297
20
-0.571498949230043
30
0.000000000000000
11
-96.9450374173297
21
-0.759076761695562
31
0.000000000000000
  0
LINE
  5
F1029C
330
F1029D
100
AcDbEntity
8
Geo
100
AcDbLine
10
-96.9450374173297
20
-0.759076761695562
30
0.000000000000000
11
-96.8450374173297
21
-0.944861864771976
31
0.000000000000000
  0
LINE
  5
F1029E
330
F1029F
100
AcDbEntity
8
Geo
100
AcDbLine
10
-96.8450374173297
20
-0.944861864771976
30
0.000000000000000
11
-96.7450374173297
21
-1.12857905524777
31
0.000000000000000
  0
LINE
  5
F102A0
330
F102A1
100
AcDbEntity
8
Geo
100
AcDbLine
10
-96.7450374173297
20
-1.12857905524777
30
0.000000000000000
11
-96.6450374173297
21
-1.30995619310744
31
0.000000000000000
  0
LINE
  5
F102A2
330
F102A3
100
AcDbEntity
8
Geo
100
AcDbLine
10
-96.6450374173297
20
-1.30995619310744
30
0.000000000000000
11
-96.5450374173297
21
-1.48872460465213
31
0.000000000000000
  0
LINE
  5
F102A4
330
F102A5
100
AcDbEntity
8
Geo
100
AcDbLine
10
-96.5450374173297
20
-1.48872460465213
30
0.000000000000000
11
-96.4450374173297
21
-1.66461948048561
31
0.000000000000000
  0
LINE
  5
F102A6
330
F102A7
100
AcDbEntity
8
Geo
100
AcDbLine
10
-96.4450374173297
20
-1.66461948048561
30
0.000000000000000
11
-96.3450374173297
21
-1.83738026777604
31
0.000000000000000
  0
LINE
  5
F102A8
330
F102A9
100
AcDbEntity
8
Geo
100
AcDbLine
10
-96.3450374173297
20
-1.83738026777604
30
0.000000000000000
11
-96.2450374173297
21
-2.00675105621253
31
0.000000000000000
  0
LINE
  5
F102AA
330
F102AB
100
AcDbEntity
8
Geo
100
AcDbLine
10
-96.2450374173297
20
-2.00675105621253
30
0.000000000000000
11
-96.1450374173297
21
-2.17248095708472
31
0.000000000000000
  0
LINE
  5
F102AC
330
F102AD
100
AcDbEntity
8
Geo
100
AcDbLine
10
-96.1450374173297
20
-2.17248095708472
30
0.000000000000000
11
-96.0450374173297
21
-2.33432447492387
31
0.000000000000000
  0
LINE
  5
F102AE
330
F102AF
100
AcDbEntity
8
Geo
100
AcDbLine
10
-96.0450374173297
20
-2.33432447492387
30
0.000000000000000
11
-95.9450374173297
21
-2.49204187115494
31
0.000000000000000
  0
LINE
  5
F102B0
330
F102B1
100
AcDbEntity
8
Geo
100
AcDbLine
10
-95.9450374173297
20
-2.49204187115494
30
0.000000000000000
11
-95.8450374173297
21
-2.64539951922103
31
0.000000000000000
  0
LINE
  5
F102B2
330
F102B3
100
AcDbEntity
8
Geo
100
AcDbLine
10
-95.8450374173297
20
-2.64539951922103
30
0.000000000000000
11
-95.7450374173297
21
-2.79417025065406
31
0.000000000000000
  0
LINE
  5
F102B4
330
F102B5
100
AcDbEntity
8
Geo
100
AcDbLine
10
-95.7450374173297
20
-2.79417025065406
30
0.000000000000000
11
-95.6450374173297
21
-2.93813369157910
31
0.000000000000000
  0
LINE
  5
F102B6
330
F102B7
100
AcDbEntity
8
Geo
100
AcDbLine
10
-95.6450374173297
20
-2.93813369157910
30
0.000000000000000
11
-95.5450374173297
21
-3.07707658915385
31
0.000000000000000
  0
LINE
  5
F102B8
330
F102B9
100
AcDbEntity
8
Geo
100
AcDbLine
10
-95.5450374173297
20
-3.07707658915385
30
0.000000000000000
11
-95.4450374173297
21
-3.21079312745984
31
0.000000000000000
  0
LINE
  5
F102BA
330
F102BB
100
AcDbEntity
8
Geo
100
AcDbLine
10
-95.4450374173297
20
-3.21079312745984
30
0.000000000000000
11
-95.3450374173297
21
-3.33908523237720
31
0.000000000000000
  0
LINE
  5
F102BC
330
F102BD
100
AcDbEntity
8
Geo
100
AcDbLine
10
-95.3450374173297
20
-3.33908523237720
30
0.000000000000000
11
-95.2450374173297
21
-3.46176286499161
31
0.000000000000000
  0
LINE
  5
F102BE
330
F102BF
100
AcDbEntity
8
Geo
100
AcDbLine
10
-95.2450374173297
20
-3.46176286499161
30
0.000000000000000
11
-95.1450374173297
21
-3.57864430309867
31
0.000000000000000
  0
LINE
  5
F102C0
330
F102C1
100
AcDbEntity
8
Geo
100
AcDbLine
10
-95.1450374173297
20
-3.57864430309867
30
0.000000000000000
11
-95.0450374173297
21
-3.68955641038872
31
0.000000000000000
  0
LINE
  5
F102C2
330
F102C3
100
AcDbEntity
8
Geo
100
AcDbLine
10
-95.0450374173297
20
-3.68955641038872
30
0.000000000000000
11
-94.9450374173297
21
-3.79433489291344
31
0.000000000000000
  0
LINE
  5
F102C4
330
F102C5
100
AcDbEntity
8
Geo
100
AcDbLine
10
-94.9450374173297
20
-3.79433489291344
30
0.000000000000000
11
-94.8450374173297
21
-3.89282454245426
31
0.000000000000000
  0
LINE
  5
F102C6
330
F102C7
100
AcDbEntity
8
Geo
100
AcDbLine
10
-94.8450374173297
20
-3.89282454245426
30
0.000000000000000
11
-94.7450374173297
21
-3.98487946643201
31
0.000000000000000
  0
LINE
  5
F102C8
330
F102C9
100
AcDbEntity
8
Geo
100
AcDbLine
10
-94.7450374173297
20
-3.98487946643201
30
0.000000000000000
11
-94.6450374173297
21
-4.07036330401747
31
0.000000000000000
  0
LINE
  5
F102CA
330
F102CB
100
AcDbEntity
8
Geo
100
AcDbLine
10
-94.6450374173297
20
-4.07036330401747
30
0.000000000000000
11
-94.5450374173297
21
-4.14914942812242
31
0.000000000000000
  0
LINE
  5
F102CC
330
F102CD
100
AcDbEntity
8
Geo
100
AcDbLine
10
-94.5450374173297
20
-4.14914942812242
30
0.000000000000000
11
-94.4450374173297
21
-4.22112113297218
31
0.000000000000000
  0
LINE
  5
F102CE
330
F102CF
100
AcDbEntity
8
Geo
100
AcDbLine
10
-94.4450374173297
20
-4.22112113297218
30
0.000000000000000
11
-94.3450374173297
21
-4.28617180698173
31
0.000000000000000
  0
LINE
  5
F102D0
330
F102D1
100
AcDbEntity
8
Geo
100
AcDbLine
10
-94.3450374173297
20
-4.28617180698173
30
0.000000000000000
11
-94.2450374173297
21
-4.34420509067929
31
0.000000000000000
  0
LINE
  5
F102D2
330
F102D3
100
AcDbEntity
8
Geo
100
AcDbLine
10
-94.2450374173297
20
-4.34420509067929
30
0.000000000000000
11
-94.1450374173297
21
-4.39513501944343
31
0.000000000000000
  0
LINE
  5
F102D4
330
F102D5
100
AcDbEntity
8
Geo
100
AcDbLine
10
-94.1450374173297
20
-4.39513501944343
30
0.000000000000000
11
-94.0450374173297
21
-4.43888615084242
31
0.000000000000000
  0
LINE
  5
F102D6
330
F102D7
100
AcDbEntity
8
Geo
100
AcDbLine
10
-94.0450374173297
20
-4.43888615084242
30
0.000000000000000
11
-93.9450374173297
21
-4.47539367638694
31
0.000000000000000
  0
LINE
  5
F102D8
330
F102D9
100
AcDbEntity
8
Geo
100
AcDbLine
10
-93.9450374173297
20
-4.47539367638694
30
0.000000000000000
11
-93.8450374173297
21
-4.50460351753082
31
0.000000000000000
  0
LINE
  5
F102DA
330
F102DB
100
AcDbEntity
8
Geo
100
AcDbLine
10
-93.8450374173297
20
-4.50460351753082
30
0.000000000000000
11
-93.7450374173297
21
-4.52647240577750
31
0.000000000000000
  0
LINE
  5
F102DC
330
F102DD
100
AcDbEntity
8
Geo
100
AcDbLine
10
-93.7450374173297
20
-4.52647240577750
30
0.000000000000000
11
-93.6450374173297
21
-4.54096794677364
31
0.000000000000000
  0
LINE
  5
F102DE
330
F102DF
100
AcDbEntity
8
Geo
100
AcDbLine
10
-93.6450374173297
20
-4.54096794677364
30
0.000000000000000
11
-93.5450374173297
21
-4.54806866829476
31
0.000000000000000
  0
LINE
  5
F102E0
330
F102E1
100
AcDbEntity
8
Geo
100
AcDbLine
10
-85.3450374173297
20
5.45112786716281
30
0.000000000000000
11
-85.2450374173297
21
5.44801594041570
31
0.000000000000000
  0
LINE
  5
F102E2
330
F102E3
100
AcDbEntity
8
Geo
100
AcDbLine
10
-85.2450374173297
20
5.44801594041570
30
0.000000000000000
11
-85.1450374173297
21
5.43750216538034
31
0.000000000000000
  0
LINE
  5
F102E4
330
F102E5
100
AcDbEntity
8
Geo
100
AcDbLine
10
-85.1450374173297
20
5.43750216538034
30
0.000000000000000
11
-85.0450374173297
21
5.41960211609689
31
0.000000000000000
  0
LINE
  5
F102E6
330
F102E7
100
AcDbEntity
8
Geo
100
AcDbLine
10
-85.0450374173297
20
5.41960211609689
30
0.000000000000000
11
-84.9450374173297
21
5.39434230788313
31
0.000000000000000
  0
LINE
  5
F102E8
330
F102E9
100
AcDbEntity
8
Geo
100
AcDbLine
10
-84.9450374173297
20
5.39434230788313
30
0.000000000000000
11
-84.8450374173297
21
5.36176015805740
31
0.000000000000000
  0
LINE
  5
F102EA
330
F102EB
100
AcDbEntity
8
Geo
100
AcDbLine
10
-84.8450374173297
20
5.36176015805740
30
0.000000000000000
11
-84.7450374173297
21
5.32190393051235
31
0.000000000000000
  0
LINE
  5
F102EC
330
F102ED
100
AcDbEntity
8
Geo
100
AcDbLine
10
-84.7450374173297
20
5.32190393051235
30
0.000000000000000
11
-84.6450374173297
21
5.27483266422169
31
0.000000000000000
  0
LINE
  5
F102EE
330
F102EF
100
AcDbEntity
8
Geo
100
AcDbLine
10
-84.6450374173297
20
5.27483266422169
30
0.000000000000000
11
-84.5450374173297
21
5.22061608578590
31
0.000000000000000
  0
LINE
  5
F102F0
330
F102F1
100
AcDbEntity
8
Geo
100
AcDbLine
10
-84.5450374173297
20
5.22061608578590
30
0.000000000000000
11
-84.4450374173297
21
5.15933450614624
31
0.000000000000000
  0
LINE
  5
F102F2
330
F102F3
100
AcDbEntity
8
Geo
100
AcDbLine
10
-84.4450374173297
20
5.15933450614624
30
0.000000000000000
11
-84.3450374173297
21
5.09107870162033
31
0.000000000000000
  0
LINE
  5
F102F4
330
F102F5
100
AcDbEntity
8
Geo
100
AcDbLine
10
-84.3450374173297
20
5.09107870162033
30
0.000000000000000
11
-84.2450374173297
21
5.01594977943528
31
0.000000000000000
  0
LINE
  5
F102F6
330
F102F7
100
AcDbEntity
8
Geo
100
AcDbLine
10
-84.2450374173297
20
5.01594977943528
30
0.000000000000000
11
-84.1450374173297
21
4.93405902795770
31
0.000000000000000
  0
LINE
  5
F102F8
330
F102F9
100
AcDbEntity
8
Geo
100
AcDbLine
10
-84.1450374173297
20
4.93405902795770
30
0.000000000000000
11
-84.0450374173297
21
4.84552775184242
31
0.000000000000000
  0
LINE
  5
F102FA
330
F102FB
100
AcDbEntity
8
Geo
100
AcDbLine
10
-84.0450374173297
20
4.84552775184242
30
0.000000000000000
11
-83.9450374173297
21
4.75048709234407
31
0.000000000000000
  0
LINE
  5
F102FC
330
F102FD
100
AcDbEntity
8
Geo
100
AcDbLine
10
-83.9450374173297
20
4.75048709234407
30
0.000000000000000
11
-83.8450374173297
21
4.64907783305766
31
0.000000000000000
  0
LINE
  5
F102FE
330
F102FF
100
AcDbEntity
8
Geo
100
AcDbLine
10
-83.8450374173297
20
4.64907783305766
30
0.000000000000000
11
-83.7450374173297
21
4.52811252003259
31
0.000000000000000
  0
LINE
  5
F10300
330
F10301
100
AcDbEntity
8
Geo
100
AcDbLine
10
-83.7450374173297
20
4.52811252003259
30
0.000000000000000
11
-83.6450374173297
21
4.40213497020631
31
0.000000000000000
  0
LINE
  5
F10302
330
F10303
100
AcDbEntity
8
Geo
100
AcDbLine
10
-83.6450374173297
20
4.40213497020631
30
0.000000000000000
11
-83.5450374173297
21
4.27179608940619
31
0.000000000000000
  0
LINE
  5
F10304
330
F10305
100
AcDbEntity
8
Geo
100
AcDbLine
10
-83.5450374173297
20
4.27179608940619
30
0.000000000000000
11
-83.4450374173297
21
4.13772372157019
31
0.000000000000000
  0
LINE
  5
F10306
330
F10307
100
AcDbEntity
8
Geo
100
AcDbLine
10
-83.4450374173297
20
4.13772372157019
30
0.000000000000000
11
-83.3450374173297
21
4.00052131551024
31
0.000000000000000
  0
LINE
  5
F10308
330
F10309
100
AcDbEntity
8
Geo
100
AcDbLine
10
-83.3450374173297
20
4.00052131551024
30
0.000000000000000
11
-83.2450374173297
21
3.86076686208448
31
0.000000000000000
  0
LINE
  5
F1030A
330
F1030B
100
AcDbEntity
8
Geo
100
AcDbLine
10
-83.2450374173297
20
3.86076686208448
30
0.000000000000000
11
-83.1450374173297
21
3.71901208410574
31
0.000000000000000
  0
LINE
  5
F1030C
330
F1030D
100
AcDbEntity
8
Geo
100
AcDbLine
10
-83.1450374173297
20
3.71901208410574
30
0.000000000000000
11
-83.0450374173297
21
3.57578186111623
31
0.000000000000000
  0
LINE
  5
F1030E
330
F1030F
100
AcDbEntity
8
Geo
100
AcDbLine
10
-83.0450374173297
20
3.57578186111623
30
0.000000000000000
11
-82.9450374173296
21
3.43157387113843
31
0.000000000000000
  0
LINE
  5
F10310
330
F10311
100
AcDbEntity
8
Geo
100
AcDbLine
10
-82.9450374173296
20
3.43157387113843
30
0.000000000000000
11
-82.8450374173297
21
3.28685843164915
31
0.000000000000000
  0
LINE
  5
F10312
330
F10313
100
AcDbEntity
8
Geo
100
AcDbLine
10
-82.8450374173297
20
3.28685843164915
30
0.000000000000000
11
-82.7450374173297
21
3.14207852229820
31
0.000000000000000
  0
LINE
  5
F10314
330
F10315
100
AcDbEntity
8
Geo
100
AcDbLine
10
-82.7450374173297
20
3.14207852229820
30
0.000000000000000
11
-82.6450374173296
21
2.99764997228650
31
0.000000000000000
  0
LINE
  5
F10316
330
F10317
100
AcDbEntity
8
Geo
100
AcDbLine
10
-82.6450374173296
20
2.99764997228650
30
0.000000000000000
11
-82.5450374173296
21
2.85396179581321
31
0.000000000000000
  0
LINE
  5
F10318
330
F10319
100
AcDbEntity
8
Geo
100
AcDbLine
10
-82.5450374173296
20
2.85396179581321
30
0.000000000000000
11
-82.4450374173296
21
2.71137665958077
31
0.000000000000000
  0
LINE
  5
F1031A
330
F1031B
100
AcDbEntity
8
Geo
100
AcDbLine
10
-82.4450374173296
20
2.71137665958077
30
0.000000000000000
11
-82.3450374173297
21
2.57023146699578
31
0.000000000000000
  0
LINE
  5
F1031C
330
F1031D
100
AcDbEntity
8
Geo
100
AcDbLine
10
-82.3450374173297
20
2.57023146699578
30
0.000000000000000
11
-82.2450374173296
21
2.43083804440746
31
0.000000000000000
  0
LINE
  5
F1031E
330
F1031F
100
AcDbEntity
8
Geo
100
AcDbLine
10
-82.2450374173296
20
2.43083804440746
30
0.000000000000000
11
-82.1450374173296
21
2.29348391547144
31
0.000000000000000
  0
LINE
  5
F10320
330
F10321
100
AcDbEntity
8
Geo
100
AcDbLine
10
-82.1450374173296
20
2.29348391547144
30
0.000000000000000
11
-82.0450374173296
21
2.15843315050284
31
0.000000000000000
  0
LINE
  5
F10322
330
F10323
100
AcDbEntity
8
Geo
100
AcDbLine
10
-82.0450374173296
20
2.15843315050284
30
0.000000000000000
11
-81.9450374173296
21
2.02592727847786
31
0.000000000000000
  0
LINE
  5
F10324
330
F10325
100
AcDbEntity
8
Geo
100
AcDbLine
10
-81.9450374173296
20
2.02592727847786
30
0.000000000000000
11
-81.8450374173296
21
1.89618625014812
31
0.000000000000000
  0
LINE
  5
F10326
330
F10327
100
AcDbEntity
8
Geo
100
AcDbLine
10
-81.8450374173296
20
1.89618625014812
30
0.000000000000000
11
-81.7450374173296
21
1.76940944153797
31
0.000000000000000
  0
LINE
  5
F10328
330
F10329
100
AcDbEntity
8
Geo
100
AcDbLine
10
-81.7450374173296
20
1.76940944153797
30
0.000000000000000
11
-81.6450374173296
21
1.64577668789446
31
0.000000000000000
  0
LINE
  5
F1032A
330
F1032B
100
AcDbEntity
8
Geo
100
AcDbLine
10
-81.6450374173296
20
1.64577668789446
30
0.000000000000000
11
-81.5450374173296
21
1.52544933894531
31
0.000000000000000
  0
LINE
  5
F1032C
330
F1032D
100
AcDbEntity
8
Geo
100
AcDbLine
10
-81.5450374173296
20
1.52544933894531
30
0.000000000000000
11
-81.4450374173296
21
1.40857132708801
31
0.000000000000000
  0
LINE
  5
F1032E
330
F1032F
100
AcDbEntity
8
Geo
100
AcDbLine
10
-81.4450374173296
20
1.40857132708801
30
0.000000000000000
11
-81.3450374173296
21
1.29527024087596
31
0.000000000000000
  0
LINE
  5
F10330
330
F10331
100
AcDbEntity
8
Geo
100
AcDbLine
10
-81.3450374173296
20
1.29527024087596
30
0.000000000000000
11
-81.2450374173296
21
1.18565839688322
31
0.000000000000000
  0
LINE
  5
F10332
330
F10333
100
AcDbEntity
8
Geo
100
AcDbLine
10
-81.2450374173296
20
1.18565839688322
30
0.000000000000000
11
-81.1450374173296
21
1.07983390371407
31
0.000000000000000
  0
LINE
  5
F10334
330
F10335
100
AcDbEntity
8
Geo
100
AcDbLine
10
-81.1450374173296
20
1.07983390371407
30
0.000000000000000
11
-81.0450374173296
21
0.977881712573700
31
0.000000000000000
  0
LINE
  5
F10336
330
F10337
100
AcDbEntity
8
Geo
100
AcDbLine
10
-81.0450374173296
20
0.977881712573700
30
0.000000000000000
11
-80.9450374173296
21
0.879874649431598
31
0.000000000000000
  0
LINE
  5
F10338
330
F10339
100
AcDbEntity
8
Geo
100
AcDbLine
10
-80.9450374173296
20
0.879874649431598
30
0.000000000000000
11
-80.8450374173296
21
0.785874424386714
31
0.000000000000000
  0
LINE
  5
F1033A
330
F1033B
100
AcDbEntity
8
Geo
100
AcDbLine
10
-80.8450374173296
20
0.785874424386714
30
0.000000000000000
11
-80.7450374173296
21
0.695932614383030
31
0.000000000000000
  0
LINE
  5
F1033C
330
F1033D
100
AcDbEntity
8
Geo
100
AcDbLine
10
-80.7450374173296
20
0.695932614383030
30
0.000000000000000
11
-80.6450374173296
21
0.610091615925209
31
0.000000000000000
  0
LINE
  5
F1033E
330
F1033F
100
AcDbEntity
8
Geo
100
AcDbLine
10
-80.6450374173296
20
0.610091615925209
30
0.000000000000000
11
-80.5450374173296
21
0.528385564906314
31
0.000000000000000
  0
LINE
  5
F10340
330
F10341
100
AcDbEntity
8
Geo
100
AcDbLine
10
-80.5450374173296
20
0.528385564906314
30
0.000000000000000
11
-80.4450374173296
21
0.450841221083583
31
0.000000000000000
  0
LINE
  5
F10342
330
F10343
100
AcDbEntity
8
Geo
100
AcDbLine
10
-80.4450374173296
20
0.450841221083583
30
0.000000000000000
11
-80.3450374173296
21
0.377478815124480
31
0.000000000000000
  0
LINE
  5
F10344
330
F10345
100
AcDbEntity
8
Geo
100
AcDbLine
10
-80.3450374173296
20
0.377478815124480
30
0.000000000000000
11
-80.2450374173296
21
0.308312856494553
31
0.000000000000000
  0
LINE
  5
F10346
330
F10347
100
AcDbEntity
8
Geo
100
AcDbLine
10
-80.2450374173296
20
0.308312856494553
30
0.000000000000000
11
-80.1450374173296
21
0.243352900772185
31
0.000000000000000
  0
LINE
  5
F10348
330
F10349
100
AcDbEntity
8
Geo
100
AcDbLine
10
-80.1450374173296
20
0.243352900772185
30
0.000000000000000
11
-80.0450374173296
21
0.182604275254272
31
0.000000000000000
  0
LINE
  5
F1034A
330
F1034B
100
AcDbEntity
8
Geo
100
AcDbLine
10
-80.0450374173296
20
0.182604275254272
30
0.000000000000000
11
-79.9450374173296
21
0.126068761962843
31
0.000000000000000
  0
LINE
  5
F1034C
330
F1034D
100
AcDbEntity
8
Geo
100
AcDbLine
10
-79.9450374173296
20
0.126068761962843
30
0.000000000000000
11
-79.8450374173296
21
0.0737452373769942
31
0.000000000000000
  0
LINE
  5
F1034E
330
F1034F
100
AcDbEntity
8
Geo
100
AcDbLine
10
-79.8450374173296
20
0.0737452373769942
30
0.000000000000000
11
-79.7450374173296
21
0.0256302683991614
31
0.000000000000000
  0
LINE
  5
F10350
330
F10351
100
AcDbEntity
8
Geo
100
AcDbLine
10
-79.7450374173296
20
0.0256302683991614
30
0.000000000000000
11
-79.6450374173296
21
-0.0182813357787115
31
0.000000000000000
  0
LINE
  5
F10352
330
F10353
100
AcDbEntity
8
Geo
100
AcDbLine
10
-79.6450374173296
20
-0.0182813357787115
30
0.000000000000000
11
-79.5450374173296
21
-0.0579960161131921
31
0.000000000000000
  0
LINE
  5
F10354
330
F10355
100
AcDbEntity
8
Geo
100
AcDbLine
10
-79.5450374173296
20
-0.0579960161131921
30
0.000000000000000
11
-79.4450374173296
21
-0.0935210005496139
31
0.000000000000000
  0
LINE
  5
F10356
330
F10357
100
AcDbEntity
8
Geo
100
AcDbLine
10
-79.4450374173296
20
-0.0935210005496139
30
0.000000000000000
11
-79.3450374173296
21
-0.124863885279024
31
0.000000000000000
  0
LINE
  5
F10358
330
F10359
100
AcDbEntity
8
Geo
100
AcDbLine
10
-79.3450374173296
20
-0.124863885279024
30
0.000000000000000
11
-79.2450374173296
21
-0.152032260363108
31
0.000000000000000
  0
LINE
  5
F1035A
330
F1035B
100
AcDbEntity
8
Geo
100
AcDbLine
10
-79.2450374173296
20
-0.152032260363108
30
0.000000000000000
11
-79.1450374173296
21
-0.175033379633708
31
0.000000000000000
  0
LINE
  5
F1035C
330
F1035D
100
AcDbEntity
8
Geo
100
AcDbLine
10
-79.1450374173296
20
-0.175033379633708
30
0.000000000000000
11
-79.0450374173296
21
-0.193873874745549
31
0.000000000000000
  0
LINE
  5
F1035E
330
F1035F
100
AcDbEntity
8
Geo
100
AcDbLine
10
-79.0450374173296
20
-0.193873874745549
30
0.000000000000000
11
-78.9450374173296
21
-0.208559513247186
31
0.000000000000000
  0
LINE
  5
F10360
330
F10361
100
AcDbEntity
8
Geo
100
AcDbLine
10
-78.9450374173296
20
-0.208559513247186
30
0.000000000000000
11
-78.8450374173297
21
-0.219095000534390
31
0.000000000000000
  0
LINE
  5
F10362
330
F10363
100
AcDbEntity
8
Geo
100
AcDbLine
10
-100.845037417330
20
0.451151479464768
30
0.000000000000000
11
-100.745037417330
21
0.266445007744157
31
0.000000000000000
  0
LINE
  5
F10364
330
F10365
100
AcDbEntity
8
Geo
100
AcDbLine
10
-100.745037417330
20
0.266445007744157
30
0.000000000000000
11
-100.645037417330
21
0.0743217385848586
31
0.000000000000000
  0
LINE
  5
F10366
330
F10367
100
AcDbEntity
8
Geo
100
AcDbLine
10
-100.645037417330
20
0.0743217385848586
30
0.000000000000000
11
-100.545037417330
21
-0.120107347465424
31
0.000000000000000
  0
LINE
  5
F10368
330
F10369
100
AcDbEntity
8
Geo
100
AcDbLine
10
-100.545037417330
20
-0.120107347465424
30
0.000000000000000
11
-100.445037417330
21
-0.314062119788482
31
0.000000000000000
  0
LINE
  5
F1036A
330
F1036B
100
AcDbEntity
8
Geo
100
AcDbLine
10
-100.445037417330
20
-0.314062119788482
30
0.000000000000000
11
-100.345037417330
21
-0.505170141567657
31
0.000000000000000
  0
LINE
  5
F1036C
330
F1036D
100
AcDbEntity
8
Geo
100
AcDbLine
10
-100.345037417330
20
-0.505170141567657
30
0.000000000000000
11
-100.245037417330
21
-0.693312390077635
31
0.000000000000000
  0
LINE
  5
F1036E
330
F1036F
100
AcDbEntity
8
Geo
100
AcDbLine
10
-100.245037417330
20
-0.693312390077635
30
0.000000000000000
11
-100.145037417330
21
-0.879759345869562
31
0.000000000000000
  0
LINE
  5
F10370
330
F10371
100
AcDbEntity
8
Geo
100
AcDbLine
10
-100.145037417330
20
-0.879759345869562
30
0.000000000000000
11
-100.045037417330
21
-1.06423482533042
31
0.000000000000000
  0
LINE
  5
F10372
330
F10373
100
AcDbEntity
8
Geo
100
AcDbLine
10
-100.045037417330
20
-1.06423482533042
30
0.000000000000000
11
-99.9450374173297
21
-1.24646556519231
31
0.000000000000000
  0
LINE
  5
F10374
330
F10375
100
AcDbEntity
8
Geo
100
AcDbLine
10
-99.9450374173297
20
-1.24646556519231
30
0.000000000000000
11
-99.8450374173297
21
-1.42618162731694
31
0.000000000000000
  0
LINE
  5
F10376
330
F10377
100
AcDbEntity
8
Geo
100
AcDbLine
10
-99.8450374173297
20
-1.42618162731694
30
0.000000000000000
11
-99.7450374173297
21
-1.60311679855459
31
0.000000000000000
  0
LINE
  5
F10378
330
F10379
100
AcDbEntity
8
Geo
100
AcDbLine
10
-99.7450374173297
20
-1.60311679855459
30
0.000000000000000
11
-99.6450374173297
21
-1.77700898508531
31
0.000000000000000
  0
LINE
  5
F1037A
330
F1037B
100
AcDbEntity
8
Geo
100
AcDbLine
10
-99.6450374173297
20
-1.77700898508531
30
0.000000000000000
11
-99.5450374173297
21
-1.94760060065812
31
0.000000000000000
  0
LINE
  5
F1037C
330
F1037D
100
AcDbEntity
8
Geo
100
AcDbLine
10
-99.5450374173297
20
-1.94760060065812
30
0.000000000000000
11
-99.4450374173297
21
-2.11463894815312
31
0.000000000000000
  0
LINE
  5
F1037E
330
F1037F
100
AcDbEntity
8
Geo
100
AcDbLine
10
-99.4450374173297
20
-2.11463894815312
30
0.000000000000000
11
-99.3450374173297
21
-2.27787659390145
31
0.000000000000000
  0
LINE
  5
F10380
330
F10381
100
AcDbEntity
8
Geo
100
AcDbLine
10
-99.3450374173297
20
-2.27787659390145
30
0.000000000000000
11
-99.2450374173297
21
-2.43707173420835
31
0.000000000000000
  0
LINE
  5
F10382
330
F10383
100
AcDbEntity
8
Geo
100
AcDbLine
10
-99.2450374173297
20
-2.43707173420835
30
0.000000000000000
11
-99.1450374173297
21
-2.59198855353672
31
0.000000000000000
  0
LINE
  5
F10384
330
F10385
100
AcDbEntity
8
Geo
100
AcDbLine
10
-99.1450374173297
20
-2.59198855353672
30
0.000000000000000
11
-99.0450374173297
21
-2.74239757382026
31
0.000000000000000
  0
LINE
  5
F10386
330
F10387
100
AcDbEntity
8
Geo
100
AcDbLine
10
-99.0450374173297
20
-2.74239757382026
30
0.000000000000000
11
-98.9450374173297
21
-2.88807599438908
31
0.000000000000000
  0
LINE
  5
F10388
330
F10389
100
AcDbEntity
8
Geo
100
AcDbLine
10
-98.9450374173297
20
-2.88807599438908
30
0.000000000000000
11
-98.8450374173297
21
-3.02880802200397
31
0.000000000000000
  0
LINE
  5
F1038A
330
F1038B
100
AcDbEntity
8
Geo
100
AcDbLine
10
-98.8450374173297
20
-3.02880802200397
30
0.000000000000000
11
-98.7450374173297
21
-3.16438519051063
31
0.000000000000000
  0
LINE
  5
F1038C
330
F1038D
100
AcDbEntity
8
Geo
100
AcDbLine
10
-98.7450374173297
20
-3.16438519051063
30
0.000000000000000
11
-98.6450374173297
21
-3.29460666964030
31
0.000000000000000
  0
LINE
  5
F1038E
330
F1038F
100
AcDbEntity
8
Geo
100
AcDbLine
10
-98.6450374173297
20
-3.29460666964030
30
0.000000000000000
11
-98.5450374173297
21
-3.41927956249936
31
0.000000000000000
  0
LINE
  5
F10390
330
F10391
100
AcDbEntity
8
Geo
100
AcDbLine
10
-98.5450374173297
20
-3.41927956249936
30
0.000000000000000
11
-98.4450374173297
21
-3.53821919130721
31
0.000000000000000
  0
LINE
  5
F10392
330
F10393
100
AcDbEntity
8
Geo
100
AcDbLine
10
-98.4450374173297
20
-3.53821919130721
30
0.000000000000000
11
-98.3450374173297
21
-3.65124937095921
31
0.000000000000000
  0
LINE
  5
F10394
330
F10395
100
AcDbEntity
8
Geo
100
AcDbLine
10
-98.3450374173297
20
-3.65124937095921
30
0.000000000000000
11
-98.2450374173297
21
-3.75820267000944
31
0.000000000000000
  0
LINE
  5
F10396
330
F10397
100
AcDbEntity
8
Geo
100
AcDbLine
10
-98.2450374173297
20
-3.75820267000944
30
0.000000000000000
11
-98.1450374173297
21
-3.85892065868667
31
0.000000000000000
  0
LINE
  5
F10398
330
F10399
100
AcDbEntity
8
Geo
100
AcDbLine
10
-98.1450374173297
20
-3.85892065868667
30
0.000000000000000
11
-98.0450374173297
21
-3.95325414357610
31
0.000000000000000
  0
LINE
  5
F1039A
330
F1039B
100
AcDbEntity
8
Geo
100
AcDbLine
10
-98.0450374173297
20
-3.95325414357610
30
0.000000000000000
11
-97.9450374173297
21
-4.04106338861944
31
0.000000000000000
  0
LINE
  5
F1039C
330
F1039D
100
AcDbEntity
8
Geo
100
AcDbLine
10
-97.9450374173297
20
-4.04106338861944
30
0.000000000000000
11
-97.8450374173297
21
-4.12221832210568
31
0.000000000000000
  0
LINE
  5
F1039E
330
F1039F
100
AcDbEntity
8
Geo
100
AcDbLine
10
-97.8450374173297
20
-4.12221832210568
30
0.000000000000000
11
-97.7450374173297
21
-4.19659872934615
31
0.000000000000000
  0
LINE
  5
F103A0
330
F103A1
100
AcDbEntity
8
Geo
100
AcDbLine
10
-97.7450374173297
20
-4.19659872934615
30
0.000000000000000
11
-97.6450374173297
21
-4.26409443074837
31
0.000000000000000
  0
LINE
  5
F103A2
330
F103A3
100
AcDbEntity
8
Geo
100
AcDbLine
10
-97.6450374173297
20
-4.26409443074837
30
0.000000000000000
11
-97.5450374173297
21
-4.32460544502490
31
0.000000000000000
  0
LINE
  5
F103A4
330
F103A5
100
AcDbEntity
8
Geo
100
AcDbLine
10
-97.5450374173297
20
-4.32460544502490
30
0.000000000000000
11
-97.4450374173297
21
-4.37804213729553
31
0.000000000000000
  0
LINE
  5
F103A6
330
F103A7
100
AcDbEntity
8
Geo
100
AcDbLine
10
-97.4450374173297
20
-4.37804213729553
30
0.000000000000000
11
-97.3450374173297
21
-4.42432535186325
31
0.000000000000000
  0
LINE
  5
F103A8
330
F103A9
100
AcDbEntity
8
Geo
100
AcDbLine
10
-97.3450374173297
20
-4.42432535186325
30
0.000000000000000
11
-97.2450374173297
21
-4.46338652946753
31
0.000000000000000
  0
LINE
  5
F103AA
330
F103AB
100
AcDbEntity
8
Geo
100
AcDbLine
10
-97.2450374173297
20
-4.46338652946753
30
0.000000000000000
11
-97.1450374173297
21
-4.49516780884098
31
0.000000000000000
  0
LINE
  5
F103AC
330
F103AD
100
AcDbEntity
8
Geo
100
AcDbLine
10
-97.1450374173297
20
-4.49516780884098
30
0.000000000000000
11
-97.0450374173297
21
-4.51962211241923
31
0.000000000000000
  0
LINE
  5
F103AE
330
F103AF
100
AcDbEntity
8
Geo
100
AcDbLine
10
-97.0450374173297
20
-4.51962211241923
30
0.000000000000000
11
-96.9450374173297
21
-4.53671321607683
31
0.000000000000000
  0
LINE
  5
F103B0
330
F103B1
100
AcDbEntity
8
Geo
100
AcDbLine
10
-96.9450374173297
20
-4.53671321607683
30
0.000000000000000
11
-96.8450374173297
21
-4.54641580278601
31
0.000000000000000
  0
LINE
  5
F103B2
330
F103B3
100
AcDbEntity
8
Geo
100
AcDbLine
10
-88.6450374173297
20
5.45046203154370
30
0.000000000000000
11
-88.5450374173297
21
5.44995433818283
31
0.000000000000000
  0
LINE
  5
F103B4
330
F103B5
100
AcDbEntity
8
Geo
100
AcDbLine
10
-88.5450374173297
20
5.44995433818283
30
0.000000000000000
11
-88.4450374173297
21
5.44204192518783
31
0.000000000000000
  0
LINE
  5
F103B6
330
F103B7
100
AcDbEntity
8
Geo
100
AcDbLine
10
-88.4450374173297
20
5.44204192518783
30
0.000000000000000
11
-88.3450374173297
21
5.42673651320493
31
0.000000000000000
  0
LINE
  5
F103B8
330
F103B9
100
AcDbEntity
8
Geo
100
AcDbLine
10
-88.3450374173297
20
5.42673651320493
30
0.000000000000000
11
-88.2450374173297
21
5.40406077411933
31
0.000000000000000
  0
LINE
  5
F103BA
330
F103BB
100
AcDbEntity
8
Geo
100
AcDbLine
10
-88.2450374173297
20
5.40406077411933
30
0.000000000000000
11
-88.1450374173297
21
5.37404829747142
31
0.000000000000000
  0
LINE
  5
F103BC
330
F103BD
100
AcDbEntity
8
Geo
100
AcDbLine
10
-88.1450374173297
20
5.37404829747142
30
0.000000000000000
11
-88.0450374173297
21
5.33674354070057
31
0.000000000000000
  0
LINE
  5
F103BE
330
F103BF
100
AcDbEntity
8
Geo
100
AcDbLine
10
-88.0450374173297
20
5.33674354070057
30
0.000000000000000
11
-87.9450374173297
21
5.29220176329045
31
0.000000000000000
  0
LINE
  5
F103C0
330
F103C1
100
AcDbEntity
8
Geo
100
AcDbLine
10
-87.9450374173297
20
5.29220176329045
30
0.000000000000000
11
-87.8450374173297
21
5.24048894491321
31
0.000000000000000
  0
LINE
  5
F103C2
330
F103C3
100
AcDbEntity
8
Geo
100
AcDbLine
10
-87.8450374173297
20
5.24048894491321
30
0.000000000000000
11
-87.7450374173297
21
5.18168168769387
31
0.000000000000000
  0
LINE
  5
F103C4
330
F103C5
100
AcDbEntity
8
Geo
100
AcDbLine
10
-87.7450374173297
20
5.18168168769387
30
0.000000000000000
11
-87.6450374173297
21
5.11586710273972
31
0.000000000000000
  0
LINE
  5
F103C6
330
F103C7
100
AcDbEntity
8
Geo
100
AcDbLine
10
-87.6450374173297
20
5.11586710273972
30
0.000000000000000
11
-87.5450374173297
21
5.04314268110276
31
0.000000000000000
  0
LINE
  5
F103C8
330
F103C9
100
AcDbEntity
8
Geo
100
AcDbLine
10
-87.5450374173297
20
5.04314268110276
30
0.000000000000000
11
-87.4450374173297
21
4.96361614936634
31
0.000000000000000
  0
LINE
  5
F103CA
330
F103CB
100
AcDbEntity
8
Geo
100
AcDbLine
10
-87.4450374173297
20
4.96361614936634
30
0.000000000000000
11
-87.3450374173297
21
4.87740531006991
31
0.000000000000000
  0
LINE
  5
F103CC
330
F103CD
100
AcDbEntity
8
Geo
100
AcDbLine
10
-87.3450374173297
20
4.87740531006991
30
0.000000000000000
11
-87.2450374173297
21
4.78463786720830
31
0.000000000000000
  0
LINE
  5
F103CE
330
F103CF
100
AcDbEntity
8
Geo
100
AcDbLine
10
-87.2450374173297
20
4.78463786720830
30
0.000000000000000
11
-87.1450374173297
21
4.68545123706395
31
0.000000000000000
  0
LINE
  5
F103D0
330
F103D1
100
AcDbEntity
8
Geo
100
AcDbLine
10
-87.1450374173297
20
4.68545123706395
30
0.000000000000000
11
-87.0450374173297
21
4.57999234465241
31
0.000000000000000
  0
LINE
  5
F103D2
330
F103D3
100
AcDbEntity
8
Geo
100
AcDbLine
10
-87.0450374173297
20
4.57999234465241
30
0.000000000000000
11
-86.9450374173297
21
4.46841740608247
31
0.000000000000000
  0
LINE
  5
F103D4
330
F103D5
100
AcDbEntity
8
Geo
100
AcDbLine
10
-86.9450374173297
20
4.46841740608247
30
0.000000000000000
11
-86.8450374173297
21
4.35089169715349
31
0.000000000000000
  0
LINE
  5
F103D6
330
F103D7
100
AcDbEntity
8
Geo
100
AcDbLine
10
-86.8450374173297
20
4.35089169715349
30
0.000000000000000
11
-86.7450374173297
21
4.22758930853258
31
0.000000000000000
  0
LINE
  5
F103D8
330
F103D9
100
AcDbEntity
8
Geo
100
AcDbLine
10
-86.7450374173297
20
4.22758930853258
30
0.000000000000000
11
-86.6450374173297
21
4.09869288787433
31
0.000000000000000
  0
LINE
  5
F103DA
330
F103DB
100
AcDbEntity
8
Geo
100
AcDbLine
10
-86.6450374173297
20
4.09869288787433
30
0.000000000000000
11
-86.5450374173297
21
3.96439336926514
31
0.000000000000000
  0
LINE
  5
F103DC
330
F103DD
100
AcDbEntity
8
Geo
100
AcDbLine
10
-86.5450374173297
20
3.96439336926514
30
0.000000000000000
11
-86.4450374173297
21
3.82488969039275
31
0.000000000000000
  0
LINE
  5
F103DE
330
F103DF
100
AcDbEntity
8
Geo
100
AcDbLine
10
-86.4450374173297
20
3.82488969039275
30
0.000000000000000
11
-86.3450374173297
21
3.68038849786021
31
0.000000000000000
  0
LINE
  5
F103E0
330
F103E1
100
AcDbEntity
8
Geo
100
AcDbLine
10
-86.3450374173297
20
3.68038849786021
30
0.000000000000000
11
-86.2450374173297
21
3.53110384108049
31
0.000000000000000
  0
LINE
  5
F103E2
330
F103E3
100
AcDbEntity
8
Geo
100
AcDbLine
10
-86.2450374173297
20
3.53110384108049
30
0.000000000000000
11
-86.1450374173297
21
3.37725685520543
31
0.000000000000000
  0
LINE
  5
F103E4
330
F103E5
100
AcDbEntity
8
Geo
100
AcDbLine
10
-86.1450374173297
20
3.37725685520543
30
0.000000000000000
11
-86.0450374173297
21
3.21907543355851
31
0.000000000000000
  0
LINE
  5
F103E6
330
F103E7
100
AcDbEntity
8
Geo
100
AcDbLine
10
-86.0450374173297
20
3.21907543355851
30
0.000000000000000
11
-85.9450374173297
21
3.05679389005683
31
0.000000000000000
  0
LINE
  5
F103E8
330
F103E9
100
AcDbEntity
8
Geo
100
AcDbLine
10
-85.9450374173297
20
3.05679389005683
30
0.000000000000000
11
-85.8450374173297
21
2.89065261212222
31
0.000000000000000
  0
LINE
  5
F103EA
330
F103EB
100
AcDbEntity
8
Geo
100
AcDbLine
10
-85.8450374173297
20
2.89065261212222
30
0.000000000000000
11
-85.7450374173297
21
2.72089770459568
31
0.000000000000000
  0
LINE
  5
F103EC
330
F103ED
100
AcDbEntity
8
Geo
100
AcDbLine
10
-85.7450374173297
20
2.72089770459568
30
0.000000000000000
11
-85.6450374173297
21
2.54778062518264
31
0.000000000000000
  0
LINE
  5
F103EE
330
F103EF
100
AcDbEntity
8
Geo
100
AcDbLine
10
-85.6450374173297
20
2.54778062518264
30
0.000000000000000
11
-85.5450374173297
21
2.37155781196902
31
0.000000000000000
  0
LINE
  5
F103F0
330
F103F1
100
AcDbEntity
8
Geo
100
AcDbLine
10
-85.5450374173297
20
2.37155781196902
30
0.000000000000000
11
-85.4450374173297
21
2.19249030355983
31
0.000000000000000
  0
LINE
  5
F103F2
330
F103F3
100
AcDbEntity
8
Geo
100
AcDbLine
10
-85.4450374173297
20
2.19249030355983
30
0.000000000000000
11
-85.3450374173297
21
2.01084335240307
31
0.000000000000000
  0
LINE
  5
F103F4
330
F103F5
100
AcDbEntity
8
Geo
100
AcDbLine
10
-85.3450374173297
20
2.01084335240307
30
0.000000000000000
11
-85.2450374173297
21
1.82688603187165
31
0.000000000000000
  0
LINE
  5
F103F6
330
F103F7
100
AcDbEntity
8
Geo
100
AcDbLine
10
-85.2450374173297
20
1.82688603187165
30
0.000000000000000
11
-85.1450374173297
21
1.64089083768538
31
0.000000000000000
  0
LINE
  5
F103F8
330
F103F9
100
AcDbEntity
8
Geo
100
AcDbLine
10
-85.1450374173297
20
1.64089083768538
30
0.000000000000000
11
-85.0450374173297
21
1.45313328426345
31
0.000000000000000
  0
LINE
  5
F103FA
330
F103FB
100
AcDbEntity
8
Geo
100
AcDbLine
10
-85.0450374173297
20
1.45313328426345
30
0.000000000000000
11
-84.9450374173297
21
1.26389149660530
31
0.000000000000000
  0
LINE
  5
F103FC
330
F103FD
100
AcDbEntity
8
Geo
100
AcDbLine
10
-84.9450374173297
20
1.26389149660530
30
0.000000000000000
11
-84.8450374173297
21
1.07344579830446
31
0.000000000000000
  0
LINE
  5
F103FE
330
F103FF
100
AcDbEntity
8
Geo
100
AcDbLine
10
-84.8450374173297
20
1.07344579830446
30
0.000000000000000
11
-84.7450374173297
21
0.882078296305571
31
0.000000000000000
  0
LINE
  5
F10400
330
F10401
100
AcDbEntity
8
Geo
100
AcDbLine
10
-84.7450374173297
20
0.882078296305571
30
0.000000000000000
11
-84.6450374173297
21
0.690072463019828
31
0.000000000000000
  0
LINE
  5
F10402
330
F10403
100
AcDbEntity
8
Geo
100
AcDbLine
10
-84.6450374173297
20
0.690072463019828
30
0.000000000000000
11
-84.5450374173297
21
0.497712716417649
31
0.000000000000000
  0
LINE
  5
F10404
330
F10405
100
AcDbEntity
8
Geo
100
AcDbLine
10
-84.5450374173297
20
0.497712716417649
30
0.000000000000000
11
-84.4450374173297
21
0.305283998720751
31
0.000000000000000
  0
LINE
  5
F10406
330
F10407
100
AcDbEntity
8
Geo
100
AcDbLine
10
-84.4450374173297
20
0.305283998720751
30
0.000000000000000
11
-84.3450374173297
21
0.113071354317633
31
0.000000000000000
  0
LINE
  5
F10408
330
F10409
100
AcDbEntity
8
Geo
100
AcDbLine
10
-84.3450374173297
20
0.113071354317633
30
0.000000000000000
11
-84.2450374173297
21
-0.0786404924722672
31
0.000000000000000
  0
LINE
  5
F1040A
330
F1040B
100
AcDbEntity
8
Geo
100
AcDbLine
10
-84.2450374173297
20
-0.0786404924722672
30
0.000000000000000
11
-84.1450374173297
21
-0.269567559160315
31
0.000000000000000
  0
LINE
  5
F1040C
330
F1040D
100
AcDbEntity
8
Geo
100
AcDbLine
10
-84.1450374173297
20
-0.269567559160315
30
0.000000000000000
11
-84.0450374173297
21
-0.459427025751533
31
0.000000000000000
  0
LINE
  5
F1040E
330
F1040F
100
AcDbEntity
8
Geo
100
AcDbLine
10
-84.0450374173297
20
-0.459427025751533
30
0.000000000000000
11
-83.9450374173297
21
-0.647937653685461
31
0.000000000000000
  0
LINE
  5
F10410
330
F10411
100
AcDbEntity
8
Geo
100
AcDbLine
10
-83.9450374173297
20
-0.647937653685461
30
0.000000000000000
11
-83.8450374173297
21
-0.834820202434509
31
0.000000000000000
  0
LINE
  5
F10412
330
F10413
100
AcDbEntity
8
Geo
100
AcDbLine
10
-83.8450374173297
20
-0.834820202434509
30
0.000000000000000
11
-83.7450374173297
21
-0.811659637410265
31
0.000000000000000
  0
LINE
  5
F10414
330
F10415
100
AcDbEntity
8
Geo
100
AcDbLine
10
-83.7450374173297
20
-0.811659637410265
30
0.000000000000000
11
-83.6450374173297
21
-0.788920285530796
31
0.000000000000000
  0
LINE
  5
F10416
330
F10417
100
AcDbEntity
8
Geo
100
AcDbLine
10
-83.6450374173297
20
-0.788920285530796
30
0.000000000000000
11
-83.5450374173297
21
-0.766604287896351
31
0.000000000000000
  0
LINE
  5
F10418
330
F10419
100
AcDbEntity
8
Geo
100
AcDbLine
10
-83.5450374173297
20
-0.766604287896351
30
0.000000000000000
11
-83.4450374173297
21
-0.744713695616770
31
0.000000000000000
  0
LINE
  5
F1041A
330
F1041B
100
AcDbEntity
8
Geo
100
AcDbLine
10
-83.4450374173297
20
-0.744713695616770
30
0.000000000000000
11
-83.3450374173297
21
-0.723250472581280
31
0.000000000000000
  0
LINE
  5
F1041C
330
F1041D
100
AcDbEntity
8
Geo
100
AcDbLine
10
-83.3450374173297
20
-0.723250472581280
30
0.000000000000000
11
-83.2450374173297
21
-0.702216498182640
31
0.000000000000000
  0
LINE
  5
F1041E
330
F1041F
100
AcDbEntity
8
Geo
100
AcDbLine
10
-83.2450374173297
20
-0.702216498182640
30
0.000000000000000
11
-83.1450374173297
21
-0.681613569994781
31
0.000000000000000
  0
LINE
  5
F10420
330
F10421
100
AcDbEntity
8
Geo
100
AcDbLine
10
-83.1450374173297
20
-0.681613569994781
30
0.000000000000000
11
-83.0450374173297
21
-0.661443406403118
31
0.000000000000000
  0
LINE
  5
F10422
330
F10423
100
AcDbEntity
8
Geo
100
AcDbLine
10
-83.0450374173297
20
-0.661443406403118
30
0.000000000000000
11
-82.9450374173296
21
-0.641707649186772
31
0.000000000000000
  0
LINE
  5
F10424
330
F10425
100
AcDbEntity
8
Geo
100
AcDbLine
10
-82.9450374173296
20
-0.641707649186772
30
0.000000000000000
11
-82.8450374173297
21
-0.622407866051930
31
0.000000000000000
  0
LINE
  5
F10426
330
F10427
100
AcDbEntity
8
Geo
100
AcDbLine
10
-82.8450374173297
20
-0.622407866051930
30
0.000000000000000
11
-82.7450374173297
21
-0.603545553115683
31
0.000000000000000
  0
LINE
  5
F10428
330
F10429
100
AcDbEntity
8
Geo
100
AcDbLine
10
-82.7450374173297
20
-0.603545553115683
30
0.000000000000000
11
-82.6450374173296
21
-0.585122137339632
31
0.000000000000000
  0
LINE
  5
F1042A
330
F1042B
100
AcDbEntity
8
Geo
100
AcDbLine
10
-82.6450374173296
20
-0.585122137339632
30
0.000000000000000
11
-82.5450374173296
21
-0.567138978912665
31
0.000000000000000
  0
LINE
  5
F1042C
330
F1042D
100
AcDbEntity
8
Geo
100
AcDbLine
10
-82.5450374173296
20
-0.567138978912665
30
0.000000000000000
11
-82.4450374173296
21
-0.549597373582276
31
0.000000000000000
  0
LINE
  5
F1042E
330
F1042F
100
AcDbEntity
8
Geo
100
AcDbLine
10
-82.4450374173296
20
-0.549597373582276
30
0.000000000000000
11
-82.3450374173297
21
-0.532498554933880
31
0.000000000000000
  0
LINE
  5
F10430
330
F10431
100
AcDbEntity
8
Geo
100
AcDbLine
10
-82.3450374173297
20
-0.532498554933880
30
0.000000000000000
11
-82.2450374173296
21
-0.515843696617576
31
0.000000000000000
  0
LINE
  5
F10432
330
F10433
100
AcDbEntity
8
Geo
100
AcDbLine
10
-82.2450374173296
20
-0.515843696617576
30
0.000000000000000
11
-82.1450374173296
21
-0.499633914521844
31
0.000000000000000
  0
LINE
  5
F10434
330
F10435
100
AcDbEntity
8
Geo
100
AcDbLine
10
-82.1450374173296
20
-0.499633914521844
30
0.000000000000000
11
-82.0450374173296
21
-0.483870268893719
31
0.000000000000000
  0
LINE
  5
F10436
330
F10437
100
AcDbEntity
8
Geo
100
AcDbLine
10
-82.0450374173296
20
-0.483870268893719
30
0.000000000000000
11
-81.9450374173296
21
-0.468553766404956
31
0.000000000000000
  0
LINE
  5
F10438
330
F10439
100
AcDbEntity
8
Geo
100
AcDbLine
10
-81.9450374173296
20
-0.468553766404956
30
0.000000000000000
11
-81.8450374173296
21
-0.453685362163787
31
0.000000000000000
  0
LINE
  5
F1043A
330
F1043B
100
AcDbEntity
8
Geo
100
AcDbLine
10
-81.8450374173296
20
-0.453685362163787
30
0.000000000000000
11
-81.7450374173296
21
-0.439265961671862
31
0.000000000000000
  0
LINE
  5
F1043C
330
F1043D
100
AcDbEntity
8
Geo
100
AcDbLine
10
-81.7450374173296
20
-0.439265961671862
30
0.000000000000000
11
-81.6450374173296
21
-0.425296422725973
31
0.000000000000000
  0
LINE
  5
F1043E
330
F1043F
100
AcDbEntity
8
Geo
100
AcDbLine
10
-81.6450374173296
20
-0.425296422725973
30
0.000000000000000
11
-81.5450374173296
21
-0.411777557264248
31
0.000000000000000
  0
LINE
  5
F10440
330
F10441
100
AcDbEntity
8
Geo
100
AcDbLine
10
-81.5450374173296
20
-0.411777557264248
30
0.000000000000000
11
-81.4450374173296
21
-0.398710133156430
31
0.000000000000000
  0
LINE
  5
F10442
330
F10443
100
AcDbEntity
8
Geo
100
AcDbLine
10
-81.4450374173296
20
-0.398710133156430
30
0.000000000000000
11
-81.3450374173296
21
-0.386094875937979
31
0.000000000000000
  0
LINE
  5
F10444
330
F10445
100
AcDbEntity
8
Geo
100
AcDbLine
10
-81.3450374173296
20
-0.386094875937979
30
0.000000000000000
11
-81.2450374173296
21
-0.373932470487658
31
0.000000000000000
  0
LINE
  5
F10446
330
F10447
100
AcDbEntity
8
Geo
100
AcDbLine
10
-81.2450374173296
20
-0.373932470487658
30
0.000000000000000
11
-81.1450374173296
21
-0.362223562648360
31
0.000000000000000
  0
LINE
  5
F10448
330
F10449
100
AcDbEntity
8
Geo
100
AcDbLine
10
-81.1450374173296
20
-0.362223562648360
30
0.000000000000000
11
-81.0450374173296
21
-0.350968760790901
31
0.000000000000000
  0
LINE
  5
F1044A
330
F1044B
100
AcDbEntity
8
Geo
100
AcDbLine
10
-81.0450374173296
20
-0.350968760790901
30
0.000000000000000
11
-80.9450374173296
21
-0.340168637320550
31
0.000000000000000
  0
LINE
  5
F1044C
330
F1044D
100
AcDbEntity
8
Geo
100
AcDbLine
10
-80.9450374173296
20
-0.340168637320550
30
0.000000000000000
11
-80.8450374173296
21
-0.329823730126062
31
0.000000000000000
  0
LINE
  5
F1044E
330
F1044F
100
AcDbEntity
8
Geo
100
AcDbLine
10
-80.8450374173296
20
-0.329823730126062
30
0.000000000000000
11
-80.7450374173296
21
-0.319934543971017
31
0.000000000000000
  0
LINE
  5
F10450
330
F10451
100
AcDbEntity
8
Geo
100
AcDbLine
10
-80.7450374173296
20
-0.319934543971017
30
0.000000000000000
11
-80.6450374173296
21
-0.310501551827256
31
0.000000000000000
  0
LINE
  5
F10452
330
F10453
100
AcDbEntity
8
Geo
100
AcDbLine
10
-80.6450374173296
20
-0.310501551827256
30
0.000000000000000
11
-80.5450374173296
21
-0.301525196150251
31
0.000000000000000
  0
LINE
  5
F10454
330
F10455
100
AcDbEntity
8
Geo
100
AcDbLine
10
-80.5450374173296
20
-0.301525196150251
30
0.000000000000000
11
-80.4450374173296
21
-0.293005890096228
31
0.000000000000000
  0
LINE
  5
F10456
330
F10457
100
AcDbEntity
8
Geo
100
AcDbLine
10
-80.4450374173296
20
-0.293005890096228
30
0.000000000000000
11
-80.3450374173296
21
-0.284944018680897
31
0.000000000000000
  0
LINE
  5
F10458
330
F10459
100
AcDbEntity
8
Geo
100
AcDbLine
10
-80.3450374173296
20
-0.284944018680897
30
0.000000000000000
11
-80.2450374173296
21
-0.277339939879642
31
0.000000000000000
  0
LINE
  5
F1045A
330
F1045B
100
AcDbEntity
8
Geo
100
AcDbLine
10
-80.2450374173296
20
-0.277339939879642
30
0.000000000000000
11
-80.1450374173296
21
-0.270193985669037
31
0.000000000000000
  0
LINE
  5
F1045C
330
F1045D
100
AcDbEntity
8
Geo
100
AcDbLine
10
-80.1450374173296
20
-0.270193985669037
30
0.000000000000000
11
-80.0450374173296
21
-0.263506463009575
31
0.000000000000000
  0
LINE
  5
F1045E
330
F1045F
100
AcDbEntity
8
Geo
100
AcDbLine
10
-80.0450374173296
20
-0.263506463009575
30
0.000000000000000
11
-79.9450374173296
21
-0.257277654769489
31
0.000000000000000
  0
LINE
  5
F10460
330
F10461
100
AcDbEntity
8
Geo
100
AcDbLine
10
-79.9450374173296
20
-0.257277654769489
30
0.000000000000000
11
-79.8450374173296
21
-0.251507820589571
31
0.000000000000000
  0
LINE
  5
F10462
330
F10463
100
AcDbEntity
8
Geo
100
AcDbLine
10
-79.8450374173296
20
-0.251507820589571
30
0.000000000000000
11
-79.7450374173296
21
-0.246197197688890
31
0.000000000000000
  0
LINE
  5
F10464
330
F10465
100
AcDbEntity
8
Geo
100
AcDbLine
10
-79.7450374173296
20
-0.246197197688890
30
0.000000000000000
11
-79.6450374173296
21
-0.241346001611325
31
0.000000000000000
  0
LINE
  5
F10466
330
F10467
100
AcDbEntity
8
Geo
100
AcDbLine
10
-79.6450374173296
20
-0.241346001611325
30
0.000000000000000
11
-79.5450374173296
21
-0.236954426912846
31
0.000000000000000
  0
LINE
  5
F10468
330
F10469
100
AcDbEntity
8
Geo
100
AcDbLine
10
-79.5450374173296
20
-0.236954426912846
30
0.000000000000000
11
-79.4450374173296
21
-0.233022647789459
31
0.000000000000000
  0
LINE
  5
F1046A
330
F1046B
100
AcDbEntity
8
Geo
100
AcDbLine
10
-79.4450374173296
20
-0.233022647789459
30
0.000000000000000
11
-79.3450374173296
21
-0.229550818645763
31
0.000000000000000
  0
LINE
  5
F1046C
330
F1046D
100
AcDbEntity
8
Geo
100
AcDbLine
10
-79.3450374173296
20
-0.229550818645763
30
0.000000000000000
11
-79.2450374173296
21
-0.226539074604062
31
0.000000000000000
  0
LINE
  5
F1046E
330
F1046F
100
AcDbEntity
8
Geo
100
AcDbLine
10
-79.2450374173296
20
-0.226539074604062
30
0.000000000000000
11
-79.1450374173296
21
-0.223987531953986
31
0.000000000000000
  0
LINE
  5
F10470
330
F10471
100
AcDbEntity
8
Geo
100
AcDbLine
10
-79.1450374173296
20
-0.223987531953986
30
0.000000000000000
11
-79.0450374173296
21
-0.221896288542571
31
0.000000000000000
  0
LINE
  5
F10472
330
F10473
100
AcDbEntity
8
Geo
100
AcDbLine
10
-79.0450374173296
20
-0.221896288542571
30
0.000000000000000
11
-78.9450374173296
21
-0.220265424104775
31
0.000000000000000
  0
LINE
  5
F10474
330
F10475
100
AcDbEntity
8
Geo
100
AcDbLine
10
-78.9450374173296
20
-0.220265424104775
30
0.000000000000000
11
-78.8450374173297
21
-0.219095000534389
31
0.000000000000000
  0
LINE
  5
F10476
330
F10477
100
AcDbEntity
8
Geo
100
AcDbLine
10
-100.845037417330
20
-0.939424995222466
30
0.000000000000000
11
-100.745037417330
21
-1.20669779561423
31
0.000000000000000
  0
LINE
  5
F10478
330
F10479
100
AcDbEntity
8
Geo
100
AcDbLine
10
-100.745037417330
20
-1.20669779561423
30
0.000000000000000
11
-100.645037417330
21
-1.41693391971736
31
0.000000000000000
  0
LINE
  5
F1047A
330
F1047B
100
AcDbEntity
8
Geo
100
AcDbLine
10
-100.645037417330
20
-1.41693391971736
30
0.000000000000000
11
-100.545037417330
21
-1.61413057397935
31
0.000000000000000
  0
LINE
  5
F1047C
330
F1047D
100
AcDbEntity
8
Geo
100
AcDbLine
10
-100.545037417330
20
-1.61413057397935
30
0.000000000000000
11
-100.445037417330
21
-1.80033411706242
31
0.000000000000000
  0
LINE
  5
F1047E
330
F1047F
100
AcDbEntity
8
Geo
100
AcDbLine
10
-100.445037417330
20
-1.80033411706242
30
0.000000000000000
11
-100.345037417330
21
-1.97492491890401
31
0.000000000000000
  0
LINE
  5
F10480
330
F10481
100
AcDbEntity
8
Geo
100
AcDbLine
10
-100.345037417330
20
-1.97492491890401
30
0.000000000000000
11
-100.245037417330
21
-2.14136384322889
31
0.000000000000000
  0
LINE
  5
F10482
330
F10483
100
AcDbEntity
8
Geo
100
AcDbLine
10
-100.245037417330
20
-2.14136384322889
30
0.000000000000000
11
-100.145037417330
21
-2.30396247825766
31
0.000000000000000
  0
LINE
  5
F10484
330
F10485
100
AcDbEntity
8
Geo
100
AcDbLine
10
-100.145037417330
20
-2.30396247825766
30
0.000000000000000
11
-100.045037417330
21
-2.46247996686125
31
0.000000000000000
  0
LINE
  5
F10486
330
F10487
100
AcDbEntity
8
Geo
100
AcDbLine
10
-100.045037417330
20
-2.46247996686125
30
0.000000000000000
11
-99.9450374173297
21
-2.61668149730705
31
0.000000000000000
  0
LINE
  5
F10488
330
F10489
100
AcDbEntity
8
Geo
100
AcDbLine
10
-99.9450374173297
20
-2.61668149730705
30
0.000000000000000
11
-99.8450374173297
21
-2.76633865108521
31
0.000000000000000
  0
LINE
  5
F1048A
330
F1048B
100
AcDbEntity
8
Geo
100
AcDbLine
10
-99.8450374173297
20
-2.76633865108521
30
0.000000000000000
11
-99.7450374173297
21
-2.91122974126461
31
0.000000000000000
  0
LINE
  5
F1048C
330
F1048D
100
AcDbEntity
8
Geo
100
AcDbLine
10
-99.7450374173297
20
-2.91122974126461
30
0.000000000000000
11
-99.6450374173297
21
-3.05114014087744
31
0.000000000000000
  0
LINE
  5
F1048E
330
F1048F
100
AcDbEntity
8
Geo
100
AcDbLine
10
-99.6450374173297
20
-3.05114014087744
30
0.000000000000000
11
-99.5450374173297
21
-3.18586260084581
31
0.000000000000000
  0
LINE
  5
F10490
330
F10491
100
AcDbEntity
8
Geo
100
AcDbLine
10
-99.5450374173297
20
-3.18586260084581
30
0.000000000000000
11
-99.4450374173297
21
-3.31519755697951
31
0.000000000000000
  0
LINE
  5
F10492
330
F10493
100
AcDbEntity
8
Geo
100
AcDbLine
10
-99.4450374173297
20
-3.31519755697951
30
0.000000000000000
11
-99.3450374173297
21
-3.43895342559018
31
0.000000000000000
  0
LINE
  5
F10494
330
F10495
100
AcDbEntity
8
Geo
100
AcDbLine
10
-99.3450374173297
20
-3.43895342559018
30
0.000000000000000
11
-99.2450374173297
21
-3.55694688728396
31
0.000000000000000
  0
LINE
  5
F10496
330
F10497
100
AcDbEntity
8
Geo
100
AcDbLine
10
-99.2450374173297
20
-3.55694688728396
30
0.000000000000000
11
-99.1450374173297
21
-3.66900315851221
31
0.000000000000000
  0
LINE
  5
F10498
330
F10499
100
AcDbEntity
8
Geo
100
AcDbLine
10
-99.1450374173297
20
-3.66900315851221
30
0.000000000000000
11
-99.0450374173297
21
-3.77495625047820
31
0.000000000000000
  0
LINE
  5
F1049A
330
F1049B
100
AcDbEntity
8
Geo
100
AcDbLine
10
-99.0450374173297
20
-3.77495625047820
30
0.000000000000000
11
-98.9450374173297
21
-3.87464921501603
31
0.000000000000000
  0
LINE
  5
F1049C
330
F1049D
100
AcDbEntity
8
Geo
100
AcDbLine
10
-98.9450374173297
20
-3.87464921501603
30
0.000000000000000
11
-98.8450374173297
21
-3.96793437707773
31
0.000000000000000
  0
LINE
  5
F1049E
330
F1049F
100
AcDbEntity
8
Geo
100
AcDbLine
10
-98.8450374173297
20
-3.96793437707773
30
0.000000000000000
11
-98.7450374173297
21
-4.05467355348413
31
0.000000000000000
  0
LINE
  5
F104A0
330
F104A1
100
AcDbEntity
8
Geo
100
AcDbLine
10
-98.7450374173297
20
-4.05467355348413
30
0.000000000000000
11
-98.6450374173297
21
-4.13473825761538
31
0.000000000000000
  0
LINE
  5
F104A2
330
F104A3
100
AcDbEntity
8
Geo
100
AcDbLine
10
-98.6450374173297
20
-4.13473825761538
30
0.000000000000000
11
-98.5450374173297
21
-4.20800988973803
31
0.000000000000000
  0
LINE
  5
F104A4
330
F104A5
100
AcDbEntity
8
Geo
100
AcDbLine
10
-98.5450374173297
20
-4.20800988973803
30
0.000000000000000
11
-98.4450374173297
21
-4.27437991268660
31
0.000000000000000
  0
LINE
  5
F104A6
330
F104A7
100
AcDbEntity
8
Geo
100
AcDbLine
10
-98.4450374173297
20
-4.27437991268660
30
0.000000000000000
11
-98.3450374173297
21
-4.33375001263958
31
0.000000000000000
  0
LINE
  5
F104A8
330
F104A9
100
AcDbEntity
8
Geo
100
AcDbLine
10
-98.3450374173297
20
-4.33375001263958
30
0.000000000000000
11
-98.2450374173297
21
-4.38603224475153
31
0.000000000000000
  0
LINE
  5
F104AA
330
F104AB
100
AcDbEntity
8
Geo
100
AcDbLine
10
-98.2450374173297
20
-4.38603224475153
30
0.000000000000000
11
-98.1450374173297
21
-4.43114916342566
31
0.000000000000000
  0
LINE
  5
F104AC
330
F104AD
100
AcDbEntity
8
Geo
100
AcDbLine
10
-98.1450374173297
20
-4.43114916342566
30
0.000000000000000
11
-98.0450374173297
21
-4.46903393703387
31
0.000000000000000
  0
LINE
  5
F104AE
330
F104AF
100
AcDbEntity
8
Geo
100
AcDbLine
10
-98.0450374173297
20
-4.46903393703387
30
0.000000000000000
11
-97.9450374173297
21
-4.49963044691439
31
0.000000000000000
  0
LINE
  5
F104B0
330
F104B1
100
AcDbEntity
8
Geo
100
AcDbLine
10
-97.9450374173297
20
-4.49963044691439
30
0.000000000000000
11
-97.8450374173297
21
-4.52289337050022
31
0.000000000000000
  0
LINE
  5
F104B2
330
F104B3
100
AcDbEntity
8
Geo
100
AcDbLine
10
-97.8450374173297
20
-4.52289337050022
30
0.000000000000000
11
-97.7450374173297
21
-4.53878824845541
31
0.000000000000000
  0
LINE
  5
F104B4
330
F104B5
100
AcDbEntity
8
Geo
100
AcDbLine
10
-97.7450374173297
20
-4.53878824845541
30
0.000000000000000
11
-97.6450374173297
21
-4.54729153571964
31
0.000000000000000
  0
LINE
  5
F104B6
330
F104B7
100
AcDbEntity
8
Geo
100
AcDbLine
10
-89.4450374173297
20
5.45088276046101
30
0.000000000000000
11
-89.3450374173297
21
5.44917444351792
31
0.000000000000000
  0
LINE
  5
F104B8
330
F104B9
100
AcDbEntity
8
Geo
100
AcDbLine
10
-89.3450374173297
20
5.44917444351792
30
0.000000000000000
11
-89.2450374173297
21
5.44006256219756
31
0.000000000000000
  0
LINE
  5
F104BA
330
F104BB
100
AcDbEntity
8
Geo
100
AcDbLine
10
-89.2450374173297
20
5.44006256219756
30
0.000000000000000
11
-89.1450374173297
21
5.42356061391690
31
0.000000000000000
  0
LINE
  5
F104BC
330
F104BD
100
AcDbEntity
8
Geo
100
AcDbLine
10
-89.1450374173297
20
5.42356061391690
30
0.000000000000000
11
-89.0450374173297
21
5.39969304298870
31
0.000000000000000
  0
LINE
  5
F104BE
330
F104BF
100
AcDbEntity
8
Geo
100
AcDbLine
10
-89.0450374173297
20
5.39969304298870
30
0.000000000000000
11
-88.9450374173297
21
5.36849520441215
31
0.000000000000000
  0
LINE
  5
F104C0
330
F104C1
100
AcDbEntity
8
Geo
100
AcDbLine
10
-88.9450374173297
20
5.36849520441215
30
0.000000000000000
11
-88.8450374173297
21
5.33001331150159
31
0.000000000000000
  0
LINE
  5
F104C2
330
F104C3
100
AcDbEntity
8
Geo
100
AcDbLine
10
-88.8450374173297
20
5.33001331150159
30
0.000000000000000
11
-88.7450374173297
21
5.28430436743080
31
0.000000000000000
  0
LINE
  5
F104C4
330
F104C5
100
AcDbEntity
8
Geo
100
AcDbLine
10
-88.7450374173297
20
5.28430436743080
30
0.000000000000000
11
-88.6450374173297
21
5.23143608079424
31
0.000000000000000
  0
LINE
  5
F104C6
330
F104C7
100
AcDbEntity
8
Geo
100
AcDbLine
10
-88.6450374173297
20
5.23143608079424
30
0.000000000000000
11
-88.5450374173297
21
5.17148676531046
31
0.000000000000000
  0
LINE
  5
F104C8
330
F104C9
100
AcDbEntity
8
Geo
100
AcDbLine
10
-88.5450374173297
20
5.17148676531046
30
0.000000000000000
11
-88.4450374173297
21
5.10454522381604
31
0.000000000000000
  0
LINE
  5
F104CA
330
F104CB
100
AcDbEntity
8
Geo
100
AcDbLine
10
-88.4450374173297
20
5.10454522381604
30
0.000000000000000
11
-88.3450374173297
21
5.03071061672211
31
0.000000000000000
  0
LINE
  5
F104CC
330
F104CD
100
AcDbEntity
8
Geo
100
AcDbLine
10
-88.3450374173297
20
5.03071061672211
30
0.000000000000000
11
-88.2450374173297
21
4.95009231512818
31
0.000000000000000
  0
LINE
  5
F104CE
330
F104CF
100
AcDbEntity
8
Geo
100
AcDbLine
10
-88.2450374173297
20
4.95009231512818
30
0.000000000000000
11
-88.1450374173297
21
4.86280973881084
31
0.000000000000000
  0
LINE
  5
F104D0
330
F104D1
100
AcDbEntity
8
Geo
100
AcDbLine
10
-88.1450374173297
20
4.86280973881084
30
0.000000000000000
11
-88.0450374173297
21
4.76899217932747
31
0.000000000000000
  0
LINE
  5
F104D2
330
F104D3
100
AcDbEntity
8
Geo
100
AcDbLine
10
-88.0450374173297
20
4.76899217932747
30
0.000000000000000
11
-87.9450374173297
21
4.66877860849679
31
0.000000000000000
  0
LINE
  5
F104D4
330
F104D5
100
AcDbEntity
8
Geo
100
AcDbLine
10
-87.9450374173297
20
4.66877860849679
30
0.000000000000000
11
-87.8450374173297
21
4.56231747254013
31
0.000000000000000
  0
LINE
  5
F104D6
330
F104D7
100
AcDbEntity
8
Geo
100
AcDbLine
10
-87.8450374173297
20
4.56231747254013
30
0.000000000000000
11
-87.7450374173297
21
4.44976647218824
31
0.000000000000000
  0
LINE
  5
F104D8
330
F104D9
100
AcDbEntity
8
Geo
100
AcDbLine
10
-87.7450374173297
20
4.44976647218824
30
0.000000000000000
11
-87.6450374173297
21
4.33129232907942
31
0.000000000000000
  0
LINE
  5
F104DA
330
F104DB
100
AcDbEntity
8
Geo
100
AcDbLine
10
-87.6450374173297
20
4.33129232907942
30
0.000000000000000
11
-87.5450374173297
21
4.20707053879498
31
0.000000000000000
  0
LINE
  5
F104DC
330
F104DD
100
AcDbEntity
8
Geo
100
AcDbLine
10
-87.5450374173297
20
4.20707053879498
30
0.000000000000000
11
-87.4450374173297
21
4.07728511089793
31
0.000000000000000
  0
LINE
  5
F104DE
330
F104DF
100
AcDbEntity
8
Geo
100
AcDbLine
10
-87.4450374173297
20
4.07728511089793
30
0.000000000000000
11
-87.3450374173297
21
3.94212829635981
31
0.000000000000000
  0
LINE
  5
F104E0
330
F104E1
100
AcDbEntity
8
Geo
100
AcDbLine
10
-87.3450374173297
20
3.94212829635981
30
0.000000000000000
11
-87.2450374173297
21
3.80180030277964
31
0.000000000000000
  0
LINE
  5
F104E2
330
F104E3
100
AcDbEntity
8
Geo
100
AcDbLine
10
-87.2450374173297
20
3.80180030277964
30
0.000000000000000
11
-87.1450374173297
21
3.65650899781666
31
0.000000000000000
  0
LINE
  5
F104E4
330
F104E5
100
AcDbEntity
8
Geo
100
AcDbLine
10
-87.1450374173297
20
3.65650899781666
30
0.000000000000000
11
-87.0450374173297
21
3.50646960127629
31
0.000000000000000
  0
LINE
  5
F104E6
330
F104E7
100
AcDbEntity
8
Geo
100
AcDbLine
10
-87.0450374173297
20
3.50646960127629
30
0.000000000000000
11
-86.9450374173297
21
3.35190436630530
31
0.000000000000000
  0
LINE
  5
F104E8
330
F104E9
100
AcDbEntity
8
Geo
100
AcDbLine
10
-86.9450374173297
20
3.35190436630530
30
0.000000000000000
11
-86.8450374173297
21
3.19304225016855
31
0.000000000000000
  0
LINE
  5
F104EA
330
F104EB
100
AcDbEntity
8
Geo
100
AcDbLine
10
-86.8450374173297
20
3.19304225016855
30
0.000000000000000
11
-86.7450374173297
21
3.03011857509493
31
0.000000000000000
  0
LINE
  5
F104EC
330
F104ED
100
AcDbEntity
8
Geo
100
AcDbLine
10
-86.7450374173297
20
3.03011857509493
30
0.000000000000000
11
-86.6450374173297
21
2.86337467969486
31
0.000000000000000
  0
LINE
  5
F104EE
330
F104EF
100
AcDbEntity
8
Geo
100
AcDbLine
10
-86.6450374173297
20
2.86337467969486
30
0.000000000000000
11
-86.5450374173297
21
2.69305756146575
31
0.000000000000000
  0
LINE
  5
F104F0
330
F104F1
100
AcDbEntity
8
Geo
100
AcDbLine
10
-86.5450374173297
20
2.69305756146575
30
0.000000000000000
11
-86.4450374173297
21
2.51941951091496
31
0.000000000000000
  0
LINE
  5
F104F2
330
F104F3
100
AcDbEntity
8
Geo
100
AcDbLine
10
-86.4450374173297
20
2.51941951091496
30
0.000000000000000
11
-86.3450374173297
21
2.34271773784219
31
0.000000000000000
  0
LINE
  5
F104F4
330
F104F5
100
AcDbEntity
8
Geo
100
AcDbLine
10
-86.3450374173297
20
2.34271773784219
30
0.000000000000000
11
-86.2450374173297
21
2.16321399033504
31
0.000000000000000
  0
LINE
  5
F104F6
330
F104F7
100
AcDbEntity
8
Geo
100
AcDbLine
10
-86.2450374173297
20
2.16321399033504
30
0.000000000000000
11
-86.1450374173297
21
1.98117416704187
31
0.000000000000000
  0
LINE
  5
F104F8
330
F104F9
100
AcDbEntity
8
Geo
100
AcDbLine
10
-86.1450374173297
20
1.98117416704187
30
0.000000000000000
11
-86.0450374173297
21
1.79686792329653
31
0.000000000000000
  0
LINE
  5
F104FA
330
F104FB
100
AcDbEntity
8
Geo
100
AcDbLine
10
-86.0450374173297
20
1.79686792329653
30
0.000000000000000
11
-85.9450374173297
21
1.61056827167829
31
0.000000000000000
  0
LINE
  5
F104FC
330
F104FD
100
AcDbEntity
8
Geo
100
AcDbLine
10
-85.9450374173297
20
1.61056827167829
30
0.000000000000000
11
-85.8450374173297
21
1.42255117759871
31
0.000000000000000
  0
LINE
  5
F104FE
330
F104FF
100
AcDbEntity
8
Geo
100
AcDbLine
10
-85.8450374173297
20
1.42255117759871
30
0.000000000000000
11
-85.7450374173297
21
1.23309515051444
31
0.000000000000000
  0
LINE
  5
F10500
330
F10501
100
AcDbEntity
8
Geo
100
AcDbLine
10
-85.7450374173297
20
1.23309515051444
30
0.000000000000000
11
-85.6450374173297
21
1.04248083137156
31
0.000000000000000
  0
LINE
  5
F10502
330
F10503
100
AcDbEntity
8
Geo
100
AcDbLine
10
-85.6450374173297
20
1.04248083137156
30
0.000000000000000
11
-85.5450374173297
21
0.850990576892539
31
0.000000000000000
  0
LINE
  5
F10504
330
F10505
100
AcDbEntity
8
Geo
100
AcDbLine
10
-85.5450374173297
20
0.850990576892539
30
0.000000000000000
11
-85.4450374173297
21
0.658908041321656
31
0.000000000000000
  0
LINE
  5
F10506
330
F10507
100
AcDbEntity
8
Geo
100
AcDbLine
10
-85.4450374173297
20
0.658908041321656
30
0.000000000000000
11
-85.3450374173297
21
0.466517756248305
31
0.000000000000000
  0
LINE
  5
F10508
330
F10509
100
AcDbEntity
8
Geo
100
AcDbLine
10
-85.3450374173297
20
0.466517756248305
30
0.000000000000000
11
-85.2450374173297
21
0.274104709130798
31
0.000000000000000
  0
LINE
  5
F1050A
330
F1050B
100
AcDbEntity
8
Geo
100
AcDbLine
10
-85.2450374173297
20
0.274104709130798
30
0.000000000000000
11
-85.1450374173297
21
0.0819539211448271
31
0.000000000000000
  0
LINE
  5
F1050C
330
F1050D
100
AcDbEntity
8
Geo
100
AcDbLine
10
-85.1450374173297
20
0.0819539211448271
30
0.000000000000000
11
-85.0450374173297
21
-0.109649975017995
31
0.000000000000000
  0
LINE
  5
F1050E
330
F1050F
100
AcDbEntity
8
Geo
100
AcDbLine
10
-85.0450374173297
20
-0.109649975017995
30
0.000000000000000
11
-84.9450374173297
21
-0.300423156776144
31
0.000000000000000
  0
LINE
  5
F10510
330
F10511
100
AcDbEntity
8
Geo
100
AcDbLine
10
-84.9450374173297
20
-0.300423156776144
30
0.000000000000000
11
-84.8450374173297
21
-0.490083032084174
31
0.000000000000000
  0
LINE
  5
F10512
330
F10513
100
AcDbEntity
8
Geo
100
AcDbLine
10
-84.8450374173297
20
-0.490083032084174
30
0.000000000000000
11
-84.7450374173297
21
-0.678348658035913
31
0.000000000000000
  0
LINE
  5
F10514
330
F10515
100
AcDbEntity
8
Geo
100
AcDbLine
10
-84.7450374173297
20
-0.678348658035913
30
0.000000000000000
11
-84.6450374173297
21
-0.864941157024801
31
0.000000000000000
  0
LINE
  5
F10516
330
F10517
100
AcDbEntity
8
Geo
100
AcDbLine
10
-84.6450374173297
20
-0.864941157024801
30
0.000000000000000
11
-84.5450374173297
21
-1.04958412984490
31
0.000000000000000
  0
LINE
  5
F10518
330
F10519
100
AcDbEntity
8
Geo
100
AcDbLine
10
-84.5450374173297
20
-1.04958412984490
30
0.000000000000000
11
-84.4450374173297
21
-1.23200406512060
31
0.000000000000000
  0
LINE
  5
F1051A
330
F1051B
100
AcDbEntity
8
Geo
100
AcDbLine
10
-84.4450374173297
20
-1.23200406512060
30
0.000000000000000
11
-84.3450374173297
21
-1.41193074445874
31
0.000000000000000
  0
LINE
  5
F1051C
330
F1051D
100
AcDbEntity
8
Geo
100
AcDbLine
10
-84.3450374173297
20
-1.41193074445874
30
0.000000000000000
11
-84.2450374173297
21
-1.58909764272259
31
0.000000000000000
  0
LINE
  5
F1051E
330
F1051F
100
AcDbEntity
8
Geo
100
AcDbLine
10
-84.2450374173297
20
-1.58909764272259
30
0.000000000000000
11
-84.1450374173297
21
-1.76324232283532
31
0.000000000000000
  0
LINE
  5
F10520
330
F10521
100
AcDbEntity
8
Geo
100
AcDbLine
10
-84.1450374173297
20
-1.76324232283532
30
0.000000000000000
11
-84.0450374173297
21
-1.93410682452752
31
0.000000000000000
  0
LINE
  5
F10522
330
F10523
100
AcDbEntity
8
Geo
100
AcDbLine
10
-84.0450374173297
20
-1.93410682452752
30
0.000000000000000
11
-83.9450374173297
21
-2.10143804645350
31
0.000000000000000
  0
LINE
  5
F10524
330
F10525
100
AcDbEntity
8
Geo
100
AcDbLine
10
-83.9450374173297
20
-2.10143804645350
30
0.000000000000000
11
-83.8450374173297
21
-2.26498812110995
31
0.000000000000000
  0
LINE
  5
F10526
330
F10527
100
AcDbEntity
8
Geo
100
AcDbLine
10
-83.8450374173297
20
-2.26498812110995
30
0.000000000000000
11
-83.7450374173297
21
-2.44339316066294
31
0.000000000000000
  0
LINE
  5
F10528
330
F10529
100
AcDbEntity
8
Geo
100
AcDbLine
10
-83.7450374173297
20
-2.44339316066294
30
0.000000000000000
11
-83.6450374173297
21
-2.61311506505900
31
0.000000000000000
  0
LINE
  5
F1052A
330
F1052B
100
AcDbEntity
8
Geo
100
AcDbLine
10
-83.6450374173297
20
-2.61311506505900
30
0.000000000000000
11
-83.5450374173297
21
-2.77416629782871
31
0.000000000000000
  0
LINE
  5
F1052C
330
F1052D
100
AcDbEntity
8
Geo
100
AcDbLine
10
-83.5450374173297
20
-2.77416629782871
30
0.000000000000000
11
-83.4450374173297
21
-2.92659704636388
31
0.000000000000000
  0
LINE
  5
F1052E
330
F1052F
100
AcDbEntity
8
Geo
100
AcDbLine
10
-83.4450374173297
20
-2.92659704636388
30
0.000000000000000
11
-83.3450374173297
21
-3.07049213779272
31
0.000000000000000
  0
LINE
  5
F10530
330
F10531
100
AcDbEntity
8
Geo
100
AcDbLine
10
-83.3450374173297
20
-3.07049213779272
30
0.000000000000000
11
-83.2450374173297
21
-3.20596800759098
31
0.000000000000000
  0
LINE
  5
F10532
330
F10533
100
AcDbEntity
8
Geo
100
AcDbLine
10
-83.2450374173297
20
-3.20596800759098
30
0.000000000000000
11
-83.1450374173297
21
-3.33316973690090
31
0.000000000000000
  0
LINE
  5
F10534
330
F10535
100
AcDbEntity
8
Geo
100
AcDbLine
10
-83.1450374173297
20
-3.33316973690090
30
0.000000000000000
11
-83.0450374173297
21
-3.45226817233549
31
0.000000000000000
  0
LINE
  5
F10536
330
F10537
100
AcDbEntity
8
Geo
100
AcDbLine
10
-83.0450374173297
20
-3.45226817233549
30
0.000000000000000
11
-82.9450374173296
21
-3.56345713996628
31
0.000000000000000
  0
LINE
  5
F10538
330
F10539
100
AcDbEntity
8
Geo
100
AcDbLine
10
-82.9450374173296
20
-3.56345713996628
30
0.000000000000000
11
-82.8450374173297
21
-3.66695076323550
31
0.000000000000000
  0
LINE
  5
F1053A
330
F1053B
100
AcDbEntity
8
Geo
100
AcDbLine
10
-82.8450374173297
20
-3.66695076323550
30
0.000000000000000
11
-82.7450374173297
21
-3.76298089270243
31
0.000000000000000
  0
LINE
  5
F1053C
330
F1053D
100
AcDbEntity
8
Geo
100
AcDbLine
10
-82.7450374173297
20
-3.76298089270243
30
0.000000000000000
11
-82.6450374173296
21
-3.85179465383233
31
0.000000000000000
  0
LINE
  5
F1053E
330
F1053F
100
AcDbEntity
8
Geo
100
AcDbLine
10
-82.6450374173296
20
-3.85179465383233
30
0.000000000000000
11
-82.5450374173296
21
-3.93365211746512
31
0.000000000000000
  0
LINE
  5
F10540
330
F10541
100
AcDbEntity
8
Geo
100
AcDbLine
10
-82.5450374173296
20
-3.93365211746512
30
0.000000000000000
11
-82.4450374173296
21
-4.00882409615999
31
0.000000000000000
  0
LINE
  5
F10542
330
F10543
100
AcDbEntity
8
Geo
100
AcDbLine
10
-82.4450374173296
20
-4.00882409615999
30
0.000000000000000
11
-82.3450374173297
21
-4.07759006829940
31
0.000000000000000
  0
LINE
  5
F10544
330
F10545
100
AcDbEntity
8
Geo
100
AcDbLine
10
-82.3450374173297
20
-4.07759006829940
30
0.000000000000000
11
-82.2450374173296
21
-4.14023623064916
31
0.000000000000000
  0
LINE
  5
F10546
330
F10547
100
AcDbEntity
8
Geo
100
AcDbLine
10
-82.2450374173296
20
-4.14023623064916
30
0.000000000000000
11
-82.1450374173296
21
-4.19705367900635
31
0.000000000000000
  0
LINE
  5
F10548
330
F10549
100
AcDbEntity
8
Geo
100
AcDbLine
10
-82.1450374173296
20
-4.19705367900635
30
0.000000000000000
11
-82.0450374173296
21
-4.24833671561959
31
0.000000000000000
  0
LINE
  5
F1054A
330
F1054B
100
AcDbEntity
8
Geo
100
AcDbLine
10
-82.0450374173296
20
-4.24833671561959
30
0.000000000000000
11
-81.9450374173296
21
-4.29438128123160
31
0.000000000000000
  0
LINE
  5
F1054C
330
F1054D
100
AcDbEntity
8
Geo
100
AcDbLine
10
-81.9450374173296
20
-4.29438128123160
30
0.000000000000000
11
-81.8450374173296
21
-4.33548350886638
31
0.000000000000000
  0
LINE
  5
F1054E
330
F1054F
100
AcDbEntity
8
Geo
100
AcDbLine
10
-81.8450374173296
20
-4.33548350886638
30
0.000000000000000
11
-81.7450374173296
21
-4.37193839585690
31
0.000000000000000
  0
LINE
  5
F10550
330
F10551
100
AcDbEntity
8
Geo
100
AcDbLine
10
-81.7450374173296
20
-4.37193839585690
30
0.000000000000000
11
-81.6450374173296
21
-4.40403859007773
31
0.000000000000000
  0
LINE
  5
F10552
330
F10553
100
AcDbEntity
8
Geo
100
AcDbLine
10
-81.6450374173296
20
-4.40403859007773
30
0.000000000000000
11
-81.5450374173296
21
-4.43207328590446
31
0.000000000000000
  0
LINE
  5
F10554
330
F10555
100
AcDbEntity
8
Geo
100
AcDbLine
10
-81.5450374173296
20
-4.43207328590446
30
0.000000000000000
11
-81.4450374173296
21
-4.45632722506130
31
0.000000000000000
  0
LINE
  5
F10556
330
F10557
100
AcDbEntity
8
Geo
100
AcDbLine
10
-81.4450374173296
20
-4.45632722506130
30
0.000000000000000
11
-81.3450374173296
21
-4.47707979723415
31
0.000000000000000
  0
LINE
  5
F10558
330
F10559
100
AcDbEntity
8
Geo
100
AcDbLine
10
-81.3450374173296
20
-4.47707979723415
30
0.000000000000000
11
-81.2450374173296
21
-4.49460423511155
31
0.000000000000000
  0
LINE
  5
F1055A
330
F1055B
100
AcDbEntity
8
Geo
100
AcDbLine
10
-81.2450374173296
20
-4.49460423511155
30
0.000000000000000
11
-81.1450374173296
21
-4.50916689836541
31
0.000000000000000
  0
LINE
  5
F1055C
330
F1055D
100
AcDbEntity
8
Geo
100
AcDbLine
10
-81.1450374173296
20
-4.50916689836541
30
0.000000000000000
11
-81.0450374173296
21
-4.52102664098997
31
0.000000000000000
  0
LINE
  5
F1055E
330
F1055F
100
AcDbEntity
8
Geo
100
AcDbLine
10
-81.0450374173296
20
-4.52102664098997
30
0.000000000000000
11
-80.9450374173296
21
-4.53043425637612
31
0.000000000000000
  0
LINE
  5
F10560
330
F10561
100
AcDbEntity
8
Geo
100
AcDbLine
10
-80.9450374173296
20
-4.53043425637612
30
0.000000000000000
11
-80.8450374173296
21
-4.53763199450387
31
0.000000000000000
  0
LINE
  5
F10562
330
F10563
100
AcDbEntity
8
Geo
100
AcDbLine
10
-80.8450374173296
20
-4.53763199450387
30
0.000000000000000
11
-80.7450374173296
21
-4.54285314568206
31
0.000000000000000
  0
LINE
  5
F10564
330
F10565
100
AcDbEntity
8
Geo
100
AcDbLine
10
-80.7450374173296
20
-4.54285314568206
30
0.000000000000000
11
-80.6450374173296
21
-4.54632168534780
31
0.000000000000000
  0
LINE
  5
F10566
330
F10567
100
AcDbEntity
8
Geo
100
AcDbLine
10
-80.6450374173296
20
-4.54632168534780
30
0.000000000000000
11
-80.5450374173296
21
-4.54825197455311
31
0.000000000000000
  0
LINE
  5
F10568
330
F10569
100
AcDbEntity
8
Geo
100
AcDbLine
10
-80.5450374173296
20
-4.54825197455311
30
0.000000000000000
11
-80.4450374173296
21
-4.54884852053522
31
0.000000000000000
  0
LINE
  5
F1056A
330
F1056B
100
AcDbEntity
8
Geo
100
AcDbLine
10
-92.7450374173297
20
5.44972337905281
30
0.000000000000000
11
-92.6450374173297
21
5.45061940487669
31
0.000000000000000
  0
LINE
  5
F1056C
330
F1056D
100
AcDbEntity
8
Geo
100
AcDbLine
10
-92.6450374173297
20
5.45061940487669
30
0.000000000000000
11
-92.5450374173297
21
5.44410972590408
31
0.000000000000000
  0
LINE
  5
F1056E
330
F1056F
100
AcDbEntity
8
Geo
100
AcDbLine
10
-92.5450374173297
20
5.44410972590408
30
0.000000000000000
11
-92.4450374173297
21
5.43020398491328
31
0.000000000000000
  0
LINE
  5
F10570
330
F10571
100
AcDbEntity
8
Geo
100
AcDbLine
10
-92.4450374173297
20
5.43020398491328
30
0.000000000000000
11
-92.3450374173297
21
5.40892278045883
31
0.000000000000000
  0
LINE
  5
F10572
330
F10573
100
AcDbEntity
8
Geo
100
AcDbLine
10
-92.3450374173297
20
5.40892278045883
30
0.000000000000000
11
-92.2450374173297
21
5.38029763635891
31
0.000000000000000
  0
LINE
  5
F10574
330
F10575
100
AcDbEntity
8
Geo
100
AcDbLine
10
-92.2450374173297
20
5.38029763635891
30
0.000000000000000
11
-92.1450374173297
21
5.34437095499918
31
0.000000000000000
  0
LINE
  5
F10576
330
F10577
100
AcDbEntity
8
Geo
100
AcDbLine
10
-92.1450374173297
20
5.34437095499918
30
0.000000000000000
11
-92.0450374173297
21
5.30119595452211
31
0.000000000000000
  0
LINE
  5
F10578
330
F10579
100
AcDbEntity
8
Geo
100
AcDbLine
10
-92.0450374173297
20
5.30119595452211
30
0.000000000000000
11
-91.9450374173297
21
5.25083658999511
31
0.000000000000000
  0
LINE
  5
F1057A
330
F1057B
100
AcDbEntity
8
Geo
100
AcDbLine
10
-91.9450374173297
20
5.25083658999511
30
0.000000000000000
11
-91.8450374173297
21
5.19336745867394
31
0.000000000000000
  0
LINE
  5
F1057C
330
F1057D
100
AcDbEntity
8
Geo
100
AcDbLine
10
-91.8450374173297
20
5.19336745867394
30
0.000000000000000
11
-91.7450374173297
21
5.12887368950186
31
0.000000000000000
  0
LINE
  5
F1057E
330
F1057F
100
AcDbEntity
8
Geo
100
AcDbLine
10
-91.7450374173297
20
5.12887368950186
30
0.000000000000000
11
-91.6450374173297
21
5.05745081700832
31
0.000000000000000
  0
LINE
  5
F10580
330
F10581
100
AcDbEntity
8
Geo
100
AcDbLine
10
-91.6450374173297
20
5.05745081700832
30
0.000000000000000
11
-91.5450374173297
21
4.97920463979375
31
0.000000000000000
  0
LINE
  5
F10582
330
F10583
100
AcDbEntity
8
Geo
100
AcDbLine
10
-91.5450374173297
20
4.97920463979375
30
0.000000000000000
11
-91.4450374173297
21
4.89425106381026
31
0.000000000000000
  0
LINE
  5
F10584
330
F10585
100
AcDbEntity
8
Geo
100
AcDbLine
10
-91.4450374173297
20
4.89425106381026
30
0.000000000000000
11
-91.3450374173297
21
4.80271593067029
31
0.000000000000000
  0
LINE
  5
F10586
330
F10587
100
AcDbEntity
8
Geo
100
AcDbLine
10
-91.3450374173297
20
4.80271593067029
30
0.000000000000000
11
-91.2450374173297
21
4.70473483123765
31
0.000000000000000
  0
LINE
  5
F10588
330
F10589
100
AcDbEntity
8
Geo
100
AcDbLine
10
-91.2450374173297
20
4.70473483123765
30
0.000000000000000
11
-91.1450374173297
21
4.60045290477691
31
0.000000000000000
  0
LINE
  5
F1058A
330
F1058B
100
AcDbEntity
8
Geo
100
AcDbLine
10
-91.1450374173297
20
4.60045290477691
30
0.000000000000000
11
-91.0450374173297
21
4.49002462395889
31
0.000000000000000
  0
LINE
  5
F1058C
330
F1058D
100
AcDbEntity
8
Geo
100
AcDbLine
10
-91.0450374173297
20
4.49002462395889
30
0.000000000000000
11
-90.9450374173297
21
4.37361356604042
31
0.000000000000000
  0
LINE
  5
F1058E
330
F1058F
100
AcDbEntity
8
Geo
100
AcDbLine
10
-90.9450374173297
20
4.37361356604042
30
0.000000000000000
11
-90.8450374173297
21
4.25139217055764
31
0.000000000000000
  0
LINE
  5
F10590
330
F10591
100
AcDbEntity
8
Geo
100
AcDbLine
10
-90.8450374173297
20
4.25139217055764
30
0.000000000000000
11
-90.7450374173297
21
4.12354148389153
31
0.000000000000000
  0
LINE
  5
F10592
330
F10593
100
AcDbEntity
8
Geo
100
AcDbLine
10
-90.7450374173297
20
4.12354148389153
30
0.000000000000000
11
-90.6450374173297
21
3.99025089108419
31
0.000000000000000
  0
LINE
  5
F10594
330
F10595
100
AcDbEntity
8
Geo
100
AcDbLine
10
-90.6450374173297
20
3.99025089108419
30
0.000000000000000
11
-90.5450374173297
21
3.85171783530301
31
0.000000000000000
  0
LINE
  5
F10596
330
F10597
100
AcDbEntity
8
Geo
100
AcDbLine
10
-90.5450374173297
20
3.85171783530301
30
0.000000000000000
11
-90.4450374173297
21
3.70814752536841
31
0.000000000000000
  0
LINE
  5
F10598
330
F10599
100
AcDbEntity
8
Geo
100
AcDbLine
10
-90.4450374173297
20
3.70814752536841
30
0.000000000000000
11
-90.3450374173297
21
3.55975263177827
31
0.000000000000000
  0
LINE
  5
F1059A
330
F1059B
100
AcDbEntity
8
Geo
100
AcDbLine
10
-90.3450374173297
20
3.55975263177827
30
0.000000000000000
11
-90.2450374173297
21
3.40675297167948
31
0.000000000000000
  0
LINE
  5
F1059C
330
F1059D
100
AcDbEntity
8
Geo
100
AcDbLine
10
-90.2450374173297
20
3.40675297167948
30
0.000000000000000
11
-90.1450374173297
21
3.24937518325304
31
0.000000000000000
  0
LINE
  5
F1059E
330
F1059F
100
AcDbEntity
8
Geo
100
AcDbLine
10
-90.1450374173297
20
3.24937518325304
30
0.000000000000000
11
-90.0450374173297
21
3.08785238999529
31
0.000000000000000
  0
LINE
  5
F105A0
330
F105A1
100
AcDbEntity
8
Geo
100
AcDbLine
10
-90.0450374173297
20
3.08785238999529
30
0.000000000000000
11
-89.9450374173297
21
2.92242385539240
31
0.000000000000000
  0
LINE
  5
F105A2
330
F105A3
100
AcDbEntity
8
Geo
100
AcDbLine
10
-89.9450374173297
20
2.92242385539240
30
0.000000000000000
11
-89.8450374173297
21
2.75333462849967
31
0.000000000000000
  0
LINE
  5
F105A4
330
F105A5
100
AcDbEntity
8
Geo
100
AcDbLine
10
-89.8450374173297
20
2.75333462849967
30
0.000000000000000
11
-89.7450374173297
21
2.58083518095075
31
0.000000000000000
  0
LINE
  5
F105A6
330
F105A7
100
AcDbEntity
8
Geo
100
AcDbLine
10
-89.7450374173297
20
2.58083518095075
30
0.000000000000000
11
-89.6450374173297
21
2.40518103593435
31
0.000000000000000
  0
LINE
  5
F105A8
330
F105A9
100
AcDbEntity
8
Geo
100
AcDbLine
10
-89.6450374173297
20
2.40518103593435
30
0.000000000000000
11
-89.5450374173297
21
2.22663238968807
31
0.000000000000000
  0
LINE
  5
F105AA
330
F105AB
100
AcDbEntity
8
Geo
100
AcDbLine
10
-89.5450374173297
20
2.22663238968807
30
0.000000000000000
11
-89.4450374173297
21
2.04545372607012
31
0.000000000000000
  0
LINE
  5
F105AC
330
F105AD
100
AcDbEntity
8
Geo
100
AcDbLine
10
-89.4450374173297
20
2.04545372607012
30
0.000000000000000
11
-89.3450374173297
21
1.86191342477975
31
0.000000000000000
  0
LINE
  5
F105AE
330
F105AF
100
AcDbEntity
8
Geo
100
AcDbLine
10
-89.3450374173297
20
1.86191342477975
30
0.000000000000000
11
-89.2450374173297
21
1.67628336380675
31
0.000000000000000
  0
LINE
  5
F105B0
330
F105B1
100
AcDbEntity
8
Geo
100
AcDbLine
10
-89.2450374173297
20
1.67628336380675
30
0.000000000000000
11
-89.1450374173297
21
1.48883851669899
31
0.000000000000000
  0
LINE
  5
F105B2
330
F105B3
100
AcDbEntity
8
Geo
100
AcDbLine
10
-89.1450374173297
20
1.48883851669899
30
0.000000000000000
11
-89.0450374173297
21
1.29985654524449
31
0.000000000000000
  0
LINE
  5
F105B4
330
F105B5
100
AcDbEntity
8
Geo
100
AcDbLine
10
-89.0450374173297
20
1.29985654524449
30
0.000000000000000
11
-88.9450374173297
21
1.10961738817140
31
0.000000000000000
  0
LINE
  5
F105B6
330
F105B7
100
AcDbEntity
8
Geo
100
AcDbLine
10
-88.9450374173297
20
1.10961738817140
30
0.000000000000000
11
-88.8450374173297
21
0.918402846475151
31
0.000000000000000
  0
LINE
  5
F105B8
330
F105B9
100
AcDbEntity
8
Geo
100
AcDbLine
10
-88.8450374173297
20
0.918402846475151
30
0.000000000000000
11
-88.7450374173297
21
0.726496165987041
31
0.000000000000000
  0
LINE
  5
F105BA
330
F105BB
100
AcDbEntity
8
Geo
100
AcDbLine
10
-88.7450374173297
20
0.726496165987041
30
0.000000000000000
11
-88.6450374173297
21
0.534181617802591
31
0.000000000000000
  0
LINE
  5
F105BC
330
F105BD
100
AcDbEntity
8
Geo
100
AcDbLine
10
-88.6450374173297
20
0.534181617802591
30
0.000000000000000
11
-88.5450374173297
21
0.341744077191159
31
0.000000000000000
  0
LINE
  5
F105BE
330
F105BF
100
AcDbEntity
8
Geo
100
AcDbLine
10
-88.5450374173297
20
0.341744077191159
30
0.000000000000000
11
-88.4450374173297
21
0.149468601610626
31
0.000000000000000
  0
LINE
  5
F105C0
330
F105C1
100
AcDbEntity
8
Geo
100
AcDbLine
10
-88.4450374173297
20
0.149468601610626
30
0.000000000000000
11
-88.3450374173297
21
-0.0423599915478428
31
0.000000000000000
  0
LINE
  5
F105C2
330
F105C3
100
AcDbEntity
8
Geo
100
AcDbLine
10
-88.3450374173297
20
-0.0423599915478428
30
0.000000000000000
11
-88.2450374173297
21
-0.233457546859379
31
0.000000000000000
  0
LINE
  5
F105C4
330
F105C5
100
AcDbEntity
8
Geo
100
AcDbLine
10
-88.2450374173297
20
-0.233457546859379
30
0.000000000000000
11
-88.1450374173297
21
-0.423540991784449
31
0.000000000000000
  0
LINE
  5
F105C6
330
F105C7
100
AcDbEntity
8
Geo
100
AcDbLine
10
-88.1450374173297
20
-0.423540991784449
30
0.000000000000000
11
-88.0450374173297
21
-0.612328755983804
31
0.000000000000000
  0
LINE
  5
F105C8
330
F105C9
100
AcDbEntity
8
Geo
100
AcDbLine
10
-88.0450374173297
20
-0.612328755983804
30
0.000000000000000
11
-87.9450374173297
21
-0.799541188408233
31
0.000000000000000
  0
LINE
  5
F105CA
330
F105CB
100
AcDbEntity
8
Geo
100
AcDbLine
10
-87.9450374173297
20
-0.799541188408233
30
0.000000000000000
11
-87.8450374173297
21
-0.984900971545260
31
0.000000000000000
  0
LINE
  5
F105CC
330
F105CD
100
AcDbEntity
8
Geo
100
AcDbLine
10
-87.8450374173297
20
-0.984900971545260
30
0.000000000000000
11
-87.7450374173297
21
-1.16813353220919
31
0.000000000000000
  0
LINE
  5
F105CE
330
F105CF
100
AcDbEntity
8
Geo
100
AcDbLine
10
-87.7450374173297
20
-1.16813353220919
30
0.000000000000000
11
-87.6450374173297
21
-1.34896744826599
31
0.000000000000000
  0
LINE
  5
F105D0
330
F105D1
100
AcDbEntity
8
Geo
100
AcDbLine
10
-87.6450374173297
20
-1.34896744826599
30
0.000000000000000
11
-87.5450374173297
21
-1.52713485069049
31
0.000000000000000
  0
LINE
  5
F105D2
330
F105D3
100
AcDbEntity
8
Geo
100
AcDbLine
10
-87.5450374173297
20
-1.52713485069049
30
0.000000000000000
11
-87.4450374173297
21
-1.70237182036042
31
0.000000000000000
  0
LINE
  5
F105D4
330
F105D5
100
AcDbEntity
8
Geo
100
AcDbLine
10
-87.4450374173297
20
-1.70237182036042
30
0.000000000000000
11
-87.3450374173297
21
-1.87441877899942
31
0.000000000000000
  0
LINE
  5
F105D6
330
F105D7
100
AcDbEntity
8
Geo
100
AcDbLine
10
-87.3450374173297
20
-1.87441877899942
30
0.000000000000000
11
-87.2450374173297
21
-2.04302087368997
31
0.000000000000000
  0
LINE
  5
F105D8
330
F105D9
100
AcDbEntity
8
Geo
100
AcDbLine
10
-87.2450374173297
20
-2.04302087368997
30
0.000000000000000
11
-87.1450374173297
21
-2.20792835438667
31
0.000000000000000
  0
LINE
  5
F105DA
330
F105DB
100
AcDbEntity
8
Geo
100
AcDbLine
10
-87.1450374173297
20
-2.20792835438667
30
0.000000000000000
11
-87.0450374173297
21
-2.36889694387062
31
0.000000000000000
  0
LINE
  5
F105DC
330
F105DD
100
AcDbEntity
8
Geo
100
AcDbLine
10
-87.0450374173297
20
-2.36889694387062
30
0.000000000000000
11
-86.9450374173297
21
-2.52568819959695
31
0.000000000000000
  0
LINE
  5
F105DE
330
F105DF
100
AcDbEntity
8
Geo
100
AcDbLine
10
-86.9450374173297
20
-2.52568819959695
30
0.000000000000000
11
-86.8450374173297
21
-2.67806986689937
31
0.000000000000000
  0
LINE
  5
F105E0
330
F105E1
100
AcDbEntity
8
Geo
100
AcDbLine
10
-86.8450374173297
20
-2.67806986689937
30
0.000000000000000
11
-86.7450374173297
21
-2.82581622302872
31
0.000000000000000
  0
LINE
  5
F105E2
330
F105E3
100
AcDbEntity
8
Geo
100
AcDbLine
10
-86.7450374173297
20
-2.82581622302872
30
0.000000000000000
11
-86.6450374173297
21
-2.96870841151576
31
0.000000000000000
  0
LINE
  5
F105E4
330
F105E5
100
AcDbEntity
8
Geo
100
AcDbLine
10
-86.6450374173297
20
-2.96870841151576
30
0.000000000000000
11
-86.5450374173297
21
-3.10653476636296
31
0.000000000000000
  0
LINE
  5
F105E6
330
F105E7
100
AcDbEntity
8
Geo
100
AcDbLine
10
-86.5450374173297
20
-3.10653476636296
30
0.000000000000000
11
-86.4450374173297
21
-3.23909112558497
31
0.000000000000000
  0
LINE
  5
F105E8
330
F105E9
100
AcDbEntity
8
Geo
100
AcDbLine
10
-86.4450374173297
20
-3.23909112558497
30
0.000000000000000
11
-86.3450374173297
21
-3.36618113363359
31
0.000000000000000
  0
LINE
  5
F105EA
330
F105EB
100
AcDbEntity
8
Geo
100
AcDbLine
10
-86.3450374173297
20
-3.36618113363359
30
0.000000000000000
11
-86.2450374173297
21
-3.48761653225889
31
0.000000000000000
  0
LINE
  5
F105EC
330
F105ED
100
AcDbEntity
8
Geo
100
AcDbLine
10
-86.2450374173297
20
-3.48761653225889
30
0.000000000000000
11
-86.1450374173297
21
-3.60321743937592
31
0.000000000000000
  0
LINE
  5
F105EE
330
F105EF
100
AcDbEntity
8
Geo
100
AcDbLine
10
-86.1450374173297
20
-3.60321743937592
30
0.000000000000000
11
-86.0450374173297
21
-3.71281261552379
31
0.000000000000000
  0
LINE
  5
F105F0
330
F105F1
100
AcDbEntity
8
Geo
100
AcDbLine
10
-86.0450374173297
20
-3.71281261552379
30
0.000000000000000
11
-85.9450374173297
21
-3.81623971752243
31
0.000000000000000
  0
LINE
  5
F105F2
330
F105F3
100
AcDbEntity
8
Geo
100
AcDbLine
10
-85.9450374173297
20
-3.81623971752243
30
0.000000000000000
11
-85.8450374173297
21
-3.91334553895131
31
0.000000000000000
  0
LINE
  5
F105F4
330
F105F5
100
AcDbEntity
8
Geo
100
AcDbLine
10
-85.8450374173297
20
-3.91334553895131
30
0.000000000000000
11
-85.7450374173297
21
-4.00398623709392
31
0.000000000000000
  0
LINE
  5
F105F6
330
F105F7
100
AcDbEntity
8
Geo
100
AcDbLine
10
-85.7450374173297
20
-4.00398623709392
30
0.000000000000000
11
-85.6450374173297
21
-4.08802754601177
31
0.000000000000000
  0
LINE
  5
F105F8
330
F105F9
100
AcDbEntity
8
Geo
100
AcDbLine
10
-85.6450374173297
20
-4.08802754601177
30
0.000000000000000
11
-85.5450374173297
21
-4.16534497543232
31
0.000000000000000
  0
LINE
  5
F105FA
330
F105FB
100
AcDbEntity
8
Geo
100
AcDbLine
10
-85.5450374173297
20
-4.16534497543232
30
0.000000000000000
11
-85.4450374173297
21
-4.23582399515626
31
0.000000000000000
  0
LINE
  5
F105FC
330
F105FD
100
AcDbEntity
8
Geo
100
AcDbLine
10
-85.4450374173297
20
-4.23582399515626
30
0.000000000000000
11
-85.3450374173297
21
-4.29936020471095
31
0.000000000000000
  0
LINE
  5
F105FE
330
F105FF
100
AcDbEntity
8
Geo
100
AcDbLine
10
-85.3450374173297
20
-4.29936020471095
30
0.000000000000000
11
-85.2450374173297
21
-4.35585948799866
31
0.000000000000000
  0
LINE
  5
F10600
330
F10601
100
AcDbEntity
8
Geo
100
AcDbLine
10
-85.2450374173297
20
-4.35585948799866
30
0.000000000000000
11
-85.1450374173297
21
-4.40523815271062
31
0.000000000000000
  0
LINE
  5
F10602
330
F10603
100
AcDbEntity
8
Geo
100
AcDbLine
10
-85.1450374173297
20
-4.40523815271062
30
0.000000000000000
11
-85.0450374173297
21
-4.44742305430035
31
0.000000000000000
  0
LINE
  5
F10604
330
F10605
100
AcDbEntity
8
Geo
100
AcDbLine
10
-85.0450374173297
20
-4.44742305430035
30
0.000000000000000
11
-84.9450374173297
21
-4.48235170433254
31
0.000000000000000
  0
LINE
  5
F10606
330
F10607
100
AcDbEntity
8
Geo
100
AcDbLine
10
-84.9450374173297
20
-4.48235170433254
30
0.000000000000000
11
-84.8450374173297
21
-4.50997236304709
31
0.000000000000000
  0
LINE
  5
F10608
330
F10609
100
AcDbEntity
8
Geo
100
AcDbLine
10
-84.8450374173297
20
-4.50997236304709
30
0.000000000000000
11
-84.7450374173297
21
-4.53024411600115
31
0.000000000000000
  0
LINE
  5
F1060A
330
F1060B
100
AcDbEntity
8
Geo
100
AcDbLine
10
-84.7450374173297
20
-4.53024411600115
30
0.000000000000000
11
-84.6450374173297
21
-4.54313693467562
31
0.000000000000000
  0
LINE
  5
F1060C
330
F1060D
100
AcDbEntity
8
Geo
100
AcDbLine
10
-84.6450374173297
20
-4.54313693467562
30
0.000000000000000
11
-84.5450374173297
21
-4.54863172095635
31
0.000000000000000
  0
LINE
  5
F1060E
330
F1060F
100
AcDbEntity
8
Geo
100
AcDbLine
10
-93.5450374173297
20
5.45037162722433
30
0.000000000000000
11
-93.4450374173297
21
5.45006701098165
31
0.000000000000000
  0
LINE
  5
F10610
330
F10611
100
AcDbEntity
8
Geo
100
AcDbLine
10
-93.4450374173297
20
5.45006701098165
30
0.000000000000000
11
-93.3450374173297
21
5.44235750820279
31
0.000000000000000
  0
LINE
  5
F10612
330
F10613
100
AcDbEntity
8
Geo
100
AcDbLine
10
-93.3450374173297
20
5.44235750820279
30
0.000000000000000
11
-93.2450374173297
21
5.42725453896335
31
0.000000000000000
  0
LINE
  5
F10614
330
F10615
100
AcDbEntity
8
Geo
100
AcDbLine
10
-93.2450374173297
20
5.42725453896335
30
0.000000000000000
11
-93.1450374173297
21
5.40478047527038
31
0.000000000000000
  0
LINE
  5
F10616
330
F10617
100
AcDbEntity
8
Geo
100
AcDbLine
10
-93.1450374173297
20
5.40478047527038
30
0.000000000000000
11
-93.0450374173297
21
5.37496860792280
31
0.000000000000000
  0
LINE
  5
F10618
330
F10619
100
AcDbEntity
8
Geo
100
AcDbLine
10
-93.0450374173297
20
5.37496860792280
30
0.000000000000000
11
-92.9450374173297
21
5.33786309719771
31
0.000000000000000
  0
LINE
  5
F1061A
330
F1061B
100
AcDbEntity
8
Geo
100
AcDbLine
10
-92.9450374173297
20
5.33786309719771
30
0.000000000000000
11
-92.8450374173297
21
5.29351890743589
31
0.000000000000000
  0
LINE
  5
F1061C
330
F1061D
100
AcDbEntity
8
Geo
100
AcDbLine
10
-92.8450374173297
20
5.29351890743589
30
0.000000000000000
11
-92.7450374173297
21
5.24200172562317
31
0.000000000000000
  0
LINE
  5
F1061E
330
F1061F
100
AcDbEntity
8
Geo
100
AcDbLine
10
-92.7450374173297
20
5.24200172562317
30
0.000000000000000
11
-92.6450374173297
21
5.18338786408842
31
0.000000000000000
  0
LINE
  5
F10620
330
F10621
100
AcDbEntity
8
Geo
100
AcDbLine
10
-92.6450374173297
20
5.18338786408842
30
0.000000000000000
11
-92.5450374173297
21
5.11776414746218
31
0.000000000000000
  0
LINE
  5
F10622
330
F10623
100
AcDbEntity
8
Geo
100
AcDbLine
10
-92.5450374173297
20
5.11776414746218
30
0.000000000000000
11
-92.4450374173297
21
5.04522778406345
31
0.000000000000000
  0
LINE
  5
F10624
330
F10625
100
AcDbEntity
8
Geo
100
AcDbLine
10
-92.4450374173297
20
5.04522778406345
30
0.000000000000000
11
-92.3450374173297
21
4.96588622190518
31
0.000000000000000
  0
LINE
  5
F10626
330
F10627
100
AcDbEntity
8
Geo
100
AcDbLine
10
-92.3450374173297
20
4.96588622190518
30
0.000000000000000
11
-92.2450374173297
21
4.87985698953164
31
0.000000000000000
  0
LINE
  5
F10628
330
F10629
100
AcDbEntity
8
Geo
100
AcDbLine
10
-92.2450374173297
20
4.87985698953164
30
0.000000000000000
11
-92.1450374173297
21
4.78726752192358
31
0.000000000000000
  0
LINE
  5
F1062A
330
F1062B
100
AcDbEntity
8
Geo
100
AcDbLine
10
-92.1450374173297
20
4.78726752192358
30
0.000000000000000
11
-92.0450374173297
21
4.68825497172897
31
0.000000000000000
  0
LINE
  5
F1062C
330
F1062D
100
AcDbEntity
8
Geo
100
AcDbLine
10
-92.0450374173297
20
4.68825497172897
30
0.000000000000000
11
-91.9450374173297
21
4.58296600609895
31
0.000000000000000
  0
LINE
  5
F1062E
330
F1062F
100
AcDbEntity
8
Geo
100
AcDbLine
10
-91.9450374173297
20
4.58296600609895
30
0.000000000000000
11
-91.8450374173297
21
4.47155658943002
31
0.000000000000000
  0
LINE
  5
F10630
330
F10631
100
AcDbEntity
8
Geo
100
AcDbLine
10
-91.8450374173297
20
4.47155658943002
30
0.000000000000000
11
-91.7450374173297
21
4.35419175233418
31
0.000000000000000
  0
LINE
  5
F10632
330
F10633
100
AcDbEntity
8
Geo
100
AcDbLine
10
-91.7450374173297
20
4.35419175233418
30
0.000000000000000
11
-91.6450374173297
21
4.23104534717932
31
0.000000000000000
  0
LINE
  5
F10634
330
F10635
100
AcDbEntity
8
Geo
100
AcDbLine
10
-91.6450374173297
20
4.23104534717932
30
0.000000000000000
11
-91.5450374173297
21
4.10229979056194
31
0.000000000000000
  0
LINE
  5
F10636
330
F10637
100
AcDbEntity
8
Geo
100
AcDbLine
10
-91.5450374173297
20
4.10229979056194
30
0.000000000000000
11
-91.4450374173297
21
3.96814579309374
31
0.000000000000000
  0
LINE
  5
F10638
330
F10639
100
AcDbEntity
8
Geo
100
AcDbLine
10
-91.4450374173297
20
3.96814579309374
30
0.000000000000000
11
-91.3450374173297
21
3.82878207690223
31
0.000000000000000
  0
LINE
  5
F1063A
330
F1063B
100
AcDbEntity
8
Geo
100
AcDbLine
10
-91.3450374173297
20
3.82878207690223
30
0.000000000000000
11
-91.2450374173297
21
3.68441508126390
31
0.000000000000000
  0
LINE
  5
F1063C
330
F1063D
100
AcDbEntity
8
Geo
100
AcDbLine
10
-91.2450374173297
20
3.68441508126390
30
0.000000000000000
11
-91.1450374173297
21
3.53525865680606
31
0.000000000000000
  0
LINE
  5
F1063E
330
F1063F
100
AcDbEntity
8
Geo
100
AcDbLine
10
-91.1450374173297
20
3.53525865680606
30
0.000000000000000
11
-91.0450374173297
21
3.38153374873020
31
0.000000000000000
  0
LINE
  5
F10640
330
F10641
100
AcDbEntity
8
Geo
100
AcDbLine
10
-91.0450374173297
20
3.38153374873020
30
0.000000000000000
11
-90.9450374173297
21
3.22346806952613
31
0.000000000000000
  0
LINE
  5
F10642
330
F10643
100
AcDbEntity
8
Geo
100
AcDbLine
10
-90.9450374173297
20
3.22346806952613
30
0.000000000000000
11
-90.8450374173297
21
3.06129576166182
31
0.000000000000000
  0
LINE
  5
F10644
330
F10645
100
AcDbEntity
8
Geo
100
AcDbLine
10
-90.8450374173297
20
3.06129576166182
30
0.000000000000000
11
-90.7450374173297
21
2.89525705074852
31
0.000000000000000
  0
LINE
  5
F10646
330
F10647
100
AcDbEntity
8
Geo
100
AcDbLine
10
-90.7450374173297
20
2.89525705074852
30
0.000000000000000
11
-90.6450374173297
21
2.72559788969484
31
0.000000000000000
  0
LINE
  5
F10648
330
F10649
100
AcDbEntity
8
Geo
100
AcDbLine
10
-90.6450374173297
20
2.72559788969484
30
0.000000000000000
11
-90.5450374173297
21
2.55256959437709
31
0.000000000000000
  0
LINE
  5
F1064A
330
F1064B
100
AcDbEntity
8
Geo
100
AcDbLine
10
-90.5450374173297
20
2.55256959437709
30
0.000000000000000
11
-90.4450374173297
21
2.37642847136544
31
0.000000000000000
  0
LINE
  5
F1064C
330
F1064D
100
AcDbEntity
8
Geo
100
AcDbLine
10
-90.4450374173297
20
2.37642847136544
30
0.000000000000000
11
-90.3450374173297
21
2.19743543825731
31
0.000000000000000
  0
LINE
  5
F1064E
330
F1064F
100
AcDbEntity
8
Geo
100
AcDbLine
10
-90.3450374173297
20
2.19743543825731
30
0.000000000000000
11
-90.2450374173297
21
2.01585563718055
31
0.000000000000000
  0
LINE
  5
F10650
330
F10651
100
AcDbEntity
8
Geo
100
AcDbLine
10
-90.2450374173297
20
2.01585563718055
30
0.000000000000000
11
-90.1450374173297
21
1.83195804203875
31
0.000000000000000
  0
LINE
  5
F10652
330
F10653
100
AcDbEntity
8
Geo
100
AcDbLine
10
-90.1450374173297
20
1.83195804203875
30
0.000000000000000
11
-90.0450374173297
21
1.64601506008058
31
0.000000000000000
  0
LINE
  5
F10654
330
F10655
100
AcDbEntity
8
Geo
100
AcDbLine
10
-90.0450374173297
20
1.64601506008058
30
0.000000000000000
11
-89.9450374173297
21
1.45830212838334
31
0.000000000000000
  0
LINE
  5
F10656
330
F10657
100
AcDbEntity
8
Geo
100
AcDbLine
10
-89.9450374173297
20
1.45830212838334
30
0.000000000000000
11
-89.8450374173297
21
1.26909730584836
31
0.000000000000000
  0
LINE
  5
F10658
330
F10659
100
AcDbEntity
8
Geo
100
AcDbLine
10
-89.8450374173297
20
1.26909730584836
30
0.000000000000000
11
-89.7450374173297
21
1.07868086131278
31
0.000000000000000
  0
LINE
  5
F1065A
330
F1065B
100
AcDbEntity
8
Geo
100
AcDbLine
10
-89.7450374173297
20
1.07868086131278
30
0.000000000000000
11
-89.6450374173297
21
0.887334858387705
31
0.000000000000000
  0
LINE
  5
F1065C
330
F1065D
100
AcDbEntity
8
Geo
100
AcDbLine
10
-89.6450374173297
20
0.887334858387705
30
0.000000000000000
11
-89.5450374173297
21
0.695342737637767
31
0.000000000000000
  0
LINE
  5
F1065E
330
F1065F
100
AcDbEntity
8
Geo
100
AcDbLine
10
-89.5450374173297
20
0.695342737637767
30
0.000000000000000
11
-89.4450374173297
21
0.502988896721021
31
0.000000000000000
  0
LINE
  5
F10660
330
F10661
100
AcDbEntity
8
Geo
100
AcDbLine
10
-89.4450374173297
20
0.502988896721021
30
0.000000000000000
11
-89.3450374173297
21
0.310558269111107
31
0.000000000000000
  0
LINE
  5
F10662
330
F10663
100
AcDbEntity
8
Geo
100
AcDbLine
10
-89.3450374173297
20
0.310558269111107
30
0.000000000000000
11
-89.2450374173297
21
0.118335902025673
31
0.000000000000000
  0
LINE
  5
F10664
330
F10665
100
AcDbEntity
8
Geo
100
AcDbLine
10
-89.2450374173297
20
0.118335902025673
30
0.000000000000000
11
-89.1450374173297
21
-0.0733934658136495
31
0.000000000000000
  0
LINE
  5
F10666
330
F10667
100
AcDbEntity
8
Geo
100
AcDbLine
10
-89.1450374173297
20
-0.0733934658136495
30
0.000000000000000
11
-89.0450374173297
21
-0.264345825964318
31
0.000000000000000
  0
LINE
  5
F10668
330
F10669
100
AcDbEntity
8
Geo
100
AcDbLine
10
-89.0450374173297
20
-0.264345825964318
30
0.000000000000000
11
-88.9450374173297
21
-0.454238320964182
31
0.000000000000000
  0
LINE
  5
F1066A
330
F1066B
100
AcDbEntity
8
Geo
100
AcDbLine
10
-88.9450374173297
20
-0.454238320964182
30
0.000000000000000
11
-88.8450374173297
21
-0.642789663327858
31
0.000000000000000
  0
LINE
  5
F1066C
330
F1066D
100
AcDbEntity
8
Geo
100
AcDbLine
10
-88.8450374173297
20
-0.642789663327858
30
0.000000000000000
11
-88.7450374173297
21
-0.829720552217459
31
0.000000000000000
  0
LINE
  5
F1066E
330
F1066F
100
AcDbEntity
8
Geo
100
AcDbLine
10
-88.7450374173297
20
-0.829720552217459
30
0.000000000000000
11
-88.6450374173297
21
-1.01475408717056
31
0.000000000000000
  0
LINE
  5
F10670
330
F10671
100
AcDbEntity
8
Geo
100
AcDbLine
10
-88.6450374173297
20
-1.01475408717056
30
0.000000000000000
11
-88.5450374173297
21
-1.19761617827244
31
0.000000000000000
  0
LINE
  5
F10672
330
F10673
100
AcDbEntity
8
Geo
100
AcDbLine
10
-88.5450374173297
20
-1.19761617827244
30
0.000000000000000
11
-88.4450374173297
21
-1.37803595216508
31
0.000000000000000
  0
LINE
  5
F10674
330
F10675
100
AcDbEntity
8
Geo
100
AcDbLine
10
-88.4450374173297
20
-1.37803595216508
30
0.000000000000000
11
-88.3450374173297
21
-1.55574615329155
31
0.000000000000000
  0
LINE
  5
F10676
330
F10677
100
AcDbEntity
8
Geo
100
AcDbLine
10
-88.3450374173297
20
-1.55574615329155
30
0.000000000000000
11
-88.2450374173297
21
-1.73048353978120
31
0.000000000000000
  0
LINE
  5
F10678
330
F10679
100
AcDbEntity
8
Geo
100
AcDbLine
10
-88.2450374173297
20
-1.73048353978120
30
0.000000000000000
11
-88.1450374173297
21
-1.90198927338953
31
0.000000000000000
  0
LINE
  5
F1067A
330
F1067B
100
AcDbEntity
8
Geo
100
AcDbLine
10
-88.1450374173297
20
-1.90198927338953
30
0.000000000000000
11
-88.0450374173297
21
-2.07000930291490
31
0.000000000000000
  0
LINE
  5
F1067C
330
F1067D
100
AcDbEntity
8
Geo
100
AcDbLine
10
-88.0450374173297
20
-2.07000930291490
30
0.000000000000000
11
-87.9450374173297
21
-2.23429474052423
31
0.000000000000000
  0
LINE
  5
F1067E
330
F1067F
100
AcDbEntity
8
Geo
100
AcDbLine
10
-87.9450374173297
20
-2.23429474052423
30
0.000000000000000
11
-87.8450374173297
21
-2.39460223043016
31
0.000000000000000
  0
LINE
  5
F10680
330
F10681
100
AcDbEntity
8
Geo
100
AcDbLine
10
-87.8450374173297
20
-2.39460223043016
30
0.000000000000000
11
-87.7450374173297
21
-2.55069430937369
31
0.000000000000000
  0
LINE
  5
F10682
330
F10683
100
AcDbEntity
8
Geo
100
AcDbLine
10
-87.7450374173297
20
-2.55069430937369
30
0.000000000000000
11
-87.6450374173297
21
-2.70233975837811
31
0.000000000000000
  0
LINE
  5
F10684
330
F10685
100
AcDbEntity
8
Geo
100
AcDbLine
10
-87.6450374173297
20
-2.70233975837811
30
0.000000000000000
11
-87.5450374173297
21
-2.84931394525341
31
0.000000000000000
  0
LINE
  5
F10686
330
F10687
100
AcDbEntity
8
Geo
100
AcDbLine
10
-87.5450374173297
20
-2.84931394525341
30
0.000000000000000
11
-87.4450374173297
21
-2.99139915734356
31
0.000000000000000
  0
LINE
  5
F10688
330
F10689
100
AcDbEntity
8
Geo
100
AcDbLine
10
-87.4450374173297
20
-2.99139915734356
30
0.000000000000000
11
-87.3450374173297
21
-3.12838492402402
31
0.000000000000000
  0
LINE
  5
F1068A
330
F1068B
100
AcDbEntity
8
Geo
100
AcDbLine
10
-87.3450374173297
20
-3.12838492402402
30
0.000000000000000
11
-87.2450374173297
21
-3.26006832847153
31
0.000000000000000
  0
LINE
  5
F1068C
330
F1068D
100
AcDbEntity
8
Geo
100
AcDbLine
10
-87.2450374173297
20
-3.26006832847153
30
0.000000000000000
11
-87.1450374173297
21
-3.38625430824456
31
0.000000000000000
  0
LINE
  5
F1068E
330
F1068F
100
AcDbEntity
8
Geo
100
AcDbLine
10
-87.1450374173297
20
-3.38625430824456
30
0.000000000000000
11
-87.0450374173297
21
-3.50675594422899
31
0.000000000000000
  0
LINE
  5
F10690
330
F10691
100
AcDbEntity
8
Geo
100
AcDbLine
10
-87.0450374173297
20
-3.50675594422899
30
0.000000000000000
11
-86.9450374173297
21
-3.62139473752116
31
0.000000000000000
  0
LINE
  5
F10692
330
F10693
100
AcDbEntity
8
Geo
100
AcDbLine
10
-86.9450374173297
20
-3.62139473752116
30
0.000000000000000
11
-86.8450374173297
21
-3.73000087383802
31
0.000000000000000
  0
LINE
  5
F10694
330
F10695
100
AcDbEntity
8
Geo
100
AcDbLine
10
-86.8450374173297
20
-3.73000087383802
30
0.000000000000000
11
-86.7450374173297
21
-3.83241347506282
31
0.000000000000000
  0
LINE
  5
F10696
330
F10697
100
AcDbEntity
8
Geo
100
AcDbLine
10
-86.7450374173297
20
-3.83241347506282
30
0.000000000000000
11
-86.6450374173297
21
-3.92848083755360
31
0.000000000000000
  0
LINE
  5
F10698
330
F10699
100
AcDbEntity
8
Geo
100
AcDbLine
10
-86.6450374173297
20
-3.92848083755360
30
0.000000000000000
11
-86.5450374173297
21
-4.01806065686161
31
0.000000000000000
  0
LINE
  5
F1069A
330
F1069B
100
AcDbEntity
8
Geo
100
AcDbLine
10
-86.5450374173297
20
-4.01806065686161
30
0.000000000000000
11
-86.4450374173297
21
-4.10102023852667
31
0.000000000000000
  0
LINE
  5
F1069C
330
F1069D
100
AcDbEntity
8
Geo
100
AcDbLine
10
-86.4450374173297
20
-4.10102023852667
30
0.000000000000000
11
-86.3450374173297
21
-4.17723669463731
31
0.000000000000000
  0
LINE
  5
F1069E
330
F1069F
100
AcDbEntity
8
Geo
100
AcDbLine
10
-86.3450374173297
20
-4.17723669463731
30
0.000000000000000
11
-86.2450374173297
21
-4.24659712586444
31
0.000000000000000
  0
LINE
  5
F106A0
330
F106A1
100
AcDbEntity
8
Geo
100
AcDbLine
10
-86.2450374173297
20
-4.24659712586444
30
0.000000000000000
11
-86.1450374173297
21
-4.30899878869897
31
0.000000000000000
  0
LINE
  5
F106A2
330
F106A3
100
AcDbEntity
8
Geo
100
AcDbLine
10
-86.1450374173297
20
-4.30899878869897
30
0.000000000000000
11
-86.0450374173297
21
-4.36434924764563
31
0.000000000000000
  0
LINE
  5
F106A4
330
F106A5
100
AcDbEntity
8
Geo
100
AcDbLine
10
-86.0450374173297
20
-4.36434924764563
30
0.000000000000000
11
-85.9450374173297
21
-4.41256651214754
31
0.000000000000000
  0
LINE
  5
F106A6
330
F106A7
100
AcDbEntity
8
Geo
100
AcDbLine
10
-85.9450374173297
20
-4.41256651214754
30
0.000000000000000
11
-85.8450374173297
21
-4.45357915803870
31
0.000000000000000
  0
LINE
  5
F106A8
330
F106A9
100
AcDbEntity
8
Geo
100
AcDbLine
10
-85.8450374173297
20
-4.45357915803870
30
0.000000000000000
11
-85.7450374173297
21
-4.48732643334453
31
0.000000000000000
  0
LINE
  5
F106AA
330
F106AB
100
AcDbEntity
8
Geo
100
AcDbLine
10
-85.7450374173297
20
-4.48732643334453
30
0.000000000000000
11
-85.6450374173297
21
-4.51375834827364
31
0.000000000000000
  0
LINE
  5
F106AC
330
F106AD
100
AcDbEntity
8
Geo
100
AcDbLine
10
-85.6450374173297
20
-4.51375834827364
30
0.000000000000000
11
-85.5450374173297
21
-4.53283574926767
31
0.000000000000000
  0
LINE
  5
F106AE
330
F106AF
100
AcDbEntity
8
Geo
100
AcDbLine
10
-85.5450374173297
20
-4.53283574926767
30
0.000000000000000
11
-85.4450374173297
21
-4.54453037699940
31
0.000000000000000
  0
LINE
  5
F106B0
330
F106B1
100
AcDbEntity
8
Geo
100
AcDbLine
10
-85.4450374173297
20
-4.54453037699940
30
0.000000000000000
11
-85.3450374173297
21
-4.54882490823324
31
0.000000000000000
  0
LINE
  5
F106B2
330
F106B3
100
AcDbEntity
8
Geo
100
AcDbLine
10
-96.8450374173297
20
5.44871876171558
30
0.000000000000000
11
-96.7450374173297
21
5.45101845904832
31
0.000000000000000
  0
LINE
  5
F106B4
330
F106B5
100
AcDbEntity
8
Geo
100
AcDbLine
10
-96.7450374173297
20
5.45101845904832
30
0.000000000000000
11
-96.6450374173297
21
5.44591186046618
31
0.000000000000000
  0
LINE
  5
F106B6
330
F106B7
100
AcDbEntity
8
Geo
100
AcDbLine
10
-96.6450374173297
20
5.44591186046618
30
0.000000000000000
11
-96.5450374173297
21
5.43340653036646
31
0.000000000000000
  0
LINE
  5
F106B8
330
F106B9
100
AcDbEntity
8
Geo
100
AcDbLine
10
-96.5450374173297
20
5.43340653036646
30
0.000000000000000
11
-96.4450374173297
21
5.41352099287703
31
0.000000000000000
  0
LINE
  5
F106BA
330
F106BB
100
AcDbEntity
8
Geo
100
AcDbLine
10
-96.4450374173297
20
5.41352099287703
30
0.000000000000000
11
-96.3450374173297
21
5.38628470441655
31
0.000000000000000
  0
LINE
  5
F106BC
330
F106BD
100
AcDbEntity
8
Geo
100
AcDbLine
10
-96.3450374173297
20
5.38628470441655
30
0.000000000000000
11
-96.2450374173297
21
5.35173801006077
31
0.000000000000000
  0
LINE
  5
F106BE
330
F106BF
100
AcDbEntity
8
Geo
100
AcDbLine
10
-96.2450374173297
20
5.35173801006077
30
0.000000000000000
11
-96.1450374173297
21
5.30993208377937
31
0.000000000000000
  0
LINE
  5
F106C0
330
F106C1
100
AcDbEntity
8
Geo
100
AcDbLine
10
-96.1450374173297
20
5.30993208377937
30
0.000000000000000
11
-96.0450374173297
21
5.26092885263208
31
0.000000000000000
  0
LINE
  5
F106C2
330
F106C3
100
AcDbEntity
8
Geo
100
AcDbLine
10
-96.0450374173297
20
5.26092885263208
30
0.000000000000000
11
-95.9450374173297
21
5.20480090503617
31
0.000000000000000
  0
LINE
  5
F106C4
330
F106C5
100
AcDbEntity
8
Geo
100
AcDbLine
10
-95.9450374173297
20
5.20480090503617
30
0.000000000000000
11
-95.8450374173297
21
5.14163138324137
31
0.000000000000000
  0
LINE
  5
F106C6
330
F106C7
100
AcDbEntity
8
Geo
100
AcDbLine
10
-95.8450374173297
20
5.14163138324137
30
0.000000000000000
11
-95.7450374173297
21
5.07151386017135
31
0.000000000000000
  0
LINE
  5
F106C8
330
F106C9
100
AcDbEntity
8
Geo
100
AcDbLine
10
-95.7450374173297
20
5.07151386017135
30
0.000000000000000
11
-95.6450374173297
21
4.99455220081426
31
0.000000000000000
  0
LINE
  5
F106CA
330
F106CB
100
AcDbEntity
8
Geo
100
AcDbLine
10
-95.6450374173297
20
4.99455220081426
30
0.000000000000000
11
-95.5450374173297
21
4.91086040836773
31
0.000000000000000
  0
LINE
  5
F106CC
330
F106CD
100
AcDbEntity
8
Geo
100
AcDbLine
10
-95.5450374173297
20
4.91086040836773
30
0.000000000000000
11
-95.4450374173297
21
4.82056245536602
31
0.000000000000000
  0
LINE
  5
F106CE
330
F106CF
100
AcDbEntity
8
Geo
100
AcDbLine
10
-95.4450374173297
20
4.82056245536602
30
0.000000000000000
11
-95.3450374173297
21
4.72379210003974
31
0.000000000000000
  0
LINE
  5
F106D0
330
F106D1
100
AcDbEntity
8
Geo
100
AcDbLine
10
-95.3450374173297
20
4.72379210003974
30
0.000000000000000
11
-95.2450374173297
21
4.62069268817994
31
0.000000000000000
  0
LINE
  5
F106D2
330
F106D3
100
AcDbEntity
8
Geo
100
AcDbLine
10
-95.2450374173297
20
4.62069268817994
30
0.000000000000000
11
-95.1450374173297
21
4.51141694080019
31
0.000000000000000
  0
LINE
  5
F106D4
330
F106D5
100
AcDbEntity
8
Geo
100
AcDbLine
10
-95.1450374173297
20
4.51141694080019
30
0.000000000000000
11
-95.0450374173297
21
4.39612672791119
31
0.000000000000000
  0
LINE
  5
F106D6
330
F106D7
100
AcDbEntity
8
Geo
100
AcDbLine
10
-95.0450374173297
20
4.39612672791119
30
0.000000000000000
11
-94.9450374173297
21
4.27499282874291
31
0.000000000000000
  0
LINE
  5
F106D8
330
F106D9
100
AcDbEntity
8
Geo
100
AcDbLine
10
-94.9450374173297
20
4.27499282874291
30
0.000000000000000
11
-94.8450374173297
21
4.14819467876957
31
0.000000000000000
  0
LINE
  5
F106DA
330
F106DB
100
AcDbEntity
8
Geo
100
AcDbLine
10
-94.8450374173297
20
4.14819467876957
30
0.000000000000000
11
-94.7450374173297
21
4.01592010391215
31
0.000000000000000
  0
LINE
  5
F106DC
330
F106DD
100
AcDbEntity
8
Geo
100
AcDbLine
10
-94.7450374173297
20
4.01592010391215
30
0.000000000000000
11
-94.6450374173297
21
3.87836504231208
31
0.000000000000000
  0
LINE
  5
F106DE
330
F106DF
100
AcDbEntity
8
Geo
100
AcDbLine
10
-94.6450374173297
20
3.87836504231208
30
0.000000000000000
11
-94.5450374173297
21
3.73573325408838
31
0.000000000000000
  0
LINE
  5
F106E0
330
F106E1
100
AcDbEntity
8
Geo
100
AcDbLine
10
-94.5450374173297
20
3.73573325408838
30
0.000000000000000
11
-94.4450374173297
21
3.58823601950804
31
0.000000000000000
  0
LINE
  5
F106E2
330
F106E3
100
AcDbEntity
8
Geo
100
AcDbLine
10
-94.4450374173297
20
3.58823601950804
30
0.000000000000000
11
-94.3450374173297
21
3.43609182601692
31
0.000000000000000
  0
LINE
  5
F106E4
330
F106E5
100
AcDbEntity
8
Geo
100
AcDbLine
10
-94.3450374173297
20
3.43609182601692
30
0.000000000000000
11
-94.2450374173297
21
3.27952604459454
31
0.000000000000000
  0
LINE
  5
F106E6
330
F106E7
100
AcDbEntity
8
Geo
100
AcDbLine
10
-94.2450374173297
20
3.27952604459454
30
0.000000000000000
11
-94.1450374173297
21
3.11877059591242
31
0.000000000000000
  0
LINE
  5
F106E8
330
F106E9
100
AcDbEntity
8
Geo
100
AcDbLine
10
-94.1450374173297
20
3.11877059591242
30
0.000000000000000
11
-94.0450374173297
21
2.95406360679027
31
0.000000000000000
  0
LINE
  5
F106EA
330
F106EB
100
AcDbEntity
8
Geo
100
AcDbLine
10
-94.0450374173297
20
2.95406360679027
30
0.000000000000000
11
-93.9450374173297
21
2.78564905745911
31
0.000000000000000
  0
LINE
  5
F106EC
330
F106ED
100
AcDbEntity
8
Geo
100
AcDbLine
10
-93.9450374173297
20
2.78564905745911
30
0.000000000000000
11
-93.8450374173297
21
2.61377642015365
31
0.000000000000000
  0
LINE
  5
F106EE
330
F106EF
100
AcDbEntity
8
Geo
100
AcDbLine
10
-93.8450374173297
20
2.61377642015365
30
0.000000000000000
11
-93.7450374173297
21
2.43870028956947
31
0.000000000000000
  0
LINE
  5
F106F0
330
F106F1
100
AcDbEntity
8
Geo
100
AcDbLine
10
-93.7450374173297
20
2.43870028956947
30
0.000000000000000
11
-93.6450374173297
21
2.26068000573221
31
0.000000000000000
  0
LINE
  5
F106F2
330
F106F3
100
AcDbEntity
8
Geo
100
AcDbLine
10
-93.6450374173297
20
2.26068000573221
30
0.000000000000000
11
-93.5450374173297
21
2.07997926983759
31
0.000000000000000
  0
LINE
  5
F106F4
330
F106F5
100
AcDbEntity
8
Geo
100
AcDbLine
10
-93.5450374173297
20
2.07997926983759
30
0.000000000000000
11
-93.4450374173297
21
1.89686575363119
31
0.000000000000000
  0
LINE
  5
F106F6
330
F106F7
100
AcDbEntity
8
Geo
100
AcDbLine
10
-93.4450374173297
20
1.89686575363119
30
0.000000000000000
11
-93.3450374173297
21
1.71161070290667
31
0.000000000000000
  0
LINE
  5
F106F8
330
F106F9
100
AcDbEntity
8
Geo
100
AcDbLine
10
-93.3450374173297
20
1.71161070290667
30
0.000000000000000
11
-93.2450374173297
21
1.52448853570973
31
0.000000000000000
  0
LINE
  5
F106FA
330
F106FB
100
AcDbEntity
8
Geo
100
AcDbLine
10
-93.2450374173297
20
1.52448853570973
30
0.000000000000000
11
-93.1450374173297
21
1.33577643584310
31
0.000000000000000
  0
LINE
  5
F106FC
330
F106FD
100
AcDbEntity
8
Geo
100
AcDbLine
10
-93.1450374173297
20
1.33577643584310
30
0.000000000000000
11
-93.0450374173297
21
1.14575394227453
31
0.000000000000000
  0
LINE
  5
F106FE
330
F106FF
100
AcDbEntity
8
Geo
100
AcDbLine
10
-93.0450374173297
20
1.14575394227453
30
0.000000000000000
11
-92.9450374173297
21
0.954702535056105
31
0.000000000000000
  0
LINE
  5
F10700
330
F10701
100
AcDbEntity
8
Geo
100
AcDbLine
10
-92.9450374173297
20
0.954702535056105
30
0.000000000000000
11
-92.8450374173297
21
0.762905218368248
31
0.000000000000000
  0
LINE
  5
F10702
330
F10703
100
AcDbEntity
8
Geo
100
AcDbLine
10
-92.8450374173297
20
0.762905218368248
30
0.000000000000000
11
-92.7450374173297
21
0.570646101306038
31
0.000000000000000
  0
LINE
  5
F10704
330
F10705
100
AcDbEntity
8
Geo
100
AcDbLine
10
-92.7450374173297
20
0.570646101306038
30
0.000000000000000
11
-92.6450374173297
21
0.378209977028791
31
0.000000000000000
  0
LINE
  5
F10706
330
F10707
100
AcDbEntity
8
Geo
100
AcDbLine
10
-92.6450374173297
20
0.378209977028791
30
0.000000000000000
11
-92.5450374173297
21
0.185881900896373
31
0.000000000000000
  0
LINE
  5
F10708
330
F10709
100
AcDbEntity
8
Geo
100
AcDbLine
10
-92.5450374173297
20
0.185881900896373
30
0.000000000000000
11
-92.4450374173297
21
-0.00605323178292672
31
0.000000000000000
  0
LINE
  5
F1070A
330
F1070B
100
AcDbEntity
8
Geo
100
AcDbLine
10
-92.4450374173297
20
-0.00605323178292672
30
0.000000000000000
11
-92.3450374173297
21
-0.197311107767398
31
0.000000000000000
  0
LINE
  5
F1070C
330
F1070D
100
AcDbEntity
8
Geo
100
AcDbLine
10
-92.3450374173297
20
-0.197311107767398
30
0.000000000000000
11
-92.2450374173297
21
-0.387608417034720
31
0.000000000000000
  0
LINE
  5
F1070E
330
F1070F
100
AcDbEntity
8
Geo
100
AcDbLine
10
-92.2450374173297
20
-0.387608417034720
30
0.000000000000000
11
-92.1450374173297
21
-0.576663272448696
31
0.000000000000000
  0
LINE
  5
F10710
330
F10711
100
AcDbEntity
8
Geo
100
AcDbLine
10
-92.1450374173297
20
-0.576663272448696
30
0.000000000000000
11
-92.0450374173297
21
-0.764195627318273
31
0.000000000000000
  0
LINE
  5
F10712
330
F10713
100
AcDbEntity
8
Geo
100
AcDbLine
10
-92.0450374173297
20
-0.764195627318273
30
0.000000000000000
11
-91.9450374173297
21
-0.949927690230309
31
0.000000000000000
  0
LINE
  5
F10714
330
F10715
100
AcDbEntity
8
Geo
100
AcDbLine
10
-91.9450374173297
20
-0.949927690230309
30
0.000000000000000
11
-91.8450374173297
21
-1.13358433654161
31
0.000000000000000
  0
LINE
  5
F10716
330
F10717
100
AcDbEntity
8
Geo
100
AcDbLine
10
-91.8450374173297
20
-1.13358433654161
30
0.000000000000000
11
-91.7450374173297
21
-1.31489351592065
31
0.000000000000000
  0
LINE
  5
F10718
330
F10719
100
AcDbEntity
8
Geo
100
AcDbLine
10
-91.7450374173297
20
-1.31489351592065
30
0.000000000000000
11
-91.6450374173297
21
-1.49358665533539
31
0.000000000000000
  0
LINE
  5
F1071A
330
F1071B
100
AcDbEntity
8
Geo
100
AcDbLine
10
-91.6450374173297
20
-1.49358665533539
30
0.000000000000000
11
-91.5450374173297
21
-1.66939905689008
31
0.000000000000000
  0
LINE
  5
F1071C
330
F1071D
100
AcDbEntity
8
Geo
100
AcDbLine
10
-91.5450374173297
20
-1.66939905689008
30
0.000000000000000
11
-91.4450374173297
21
-1.84207028992194
31
0.000000000000000
  0
LINE
  5
F1071E
330
F1071F
100
AcDbEntity
8
Geo
100
AcDbLine
10
-91.4450374173297
20
-1.84207028992194
30
0.000000000000000
11
-91.3450374173297
21
-2.01134457677665
31
0.000000000000000
  0
LINE
  5
F10720
330
F10721
100
AcDbEntity
8
Geo
100
AcDbLine
10
-91.3450374173297
20
-2.01134457677665
30
0.000000000000000
11
-91.2450374173297
21
-2.17697117169152
31
0.000000000000000
  0
LINE
  5
F10722
330
F10723
100
AcDbEntity
8
Geo
100
AcDbLine
10
-91.2450374173297
20
-2.17697117169152
30
0.000000000000000
11
-91.1450374173297
21
-2.33870473222478
31
0.000000000000000
  0
LINE
  5
F10724
330
F10725
100
AcDbEntity
8
Geo
100
AcDbLine
10
-91.1450374173297
20
-2.33870473222478
30
0.000000000000000
11
-91.0450374173297
21
-2.49630568268098
31
0.000000000000000
  0
LINE
  5
F10726
330
F10727
100
AcDbEntity
8
Geo
100
AcDbLine
10
-91.0450374173297
20
-2.49630568268098
30
0.000000000000000
11
-90.9450374173297
21
-2.64954056899420
31
0.000000000000000
  0
LINE
  5
F10728
330
F10729
100
AcDbEntity
8
Geo
100
AcDbLine
10
-90.9450374173297
20
-2.64954056899420
30
0.000000000000000
11
-90.8450374173297
21
-2.79818240454317
31
0.000000000000000
  0
LINE
  5
F1072A
330
F1072B
100
AcDbEntity
8
Geo
100
AcDbLine
10
-90.8450374173297
20
-2.79818240454317
30
0.000000000000000
11
-90.7450374173297
21
-2.94201100638622
31
0.000000000000000
  0
LINE
  5
F1072C
330
F1072D
100
AcDbEntity
8
Geo
100
AcDbLine
10
-90.7450374173297
20
-2.94201100638622
30
0.000000000000000
11
-90.6450374173297
21
-3.08081332141804
31
0.000000000000000
  0
LINE
  5
F1072E
330
F1072F
100
AcDbEntity
8
Geo
100
AcDbLine
10
-90.6450374173297
20
-3.08081332141804
30
0.000000000000000
11
-90.5450374173297
21
-3.21438374196485
31
0.000000000000000
  0
LINE
  5
F10730
330
F10731
100
AcDbEntity
8
Geo
100
AcDbLine
10
-90.5450374173297
20
-3.21438374196485
30
0.000000000000000
11
-90.4450374173297
21
-3.34252441035083
31
0.000000000000000
  0
LINE
  5
F10732
330
F10733
100
AcDbEntity
8
Geo
100
AcDbLine
10
-90.4450374173297
20
-3.34252441035083
30
0.000000000000000
11
-90.3450374173297
21
-3.46504551198436
31
0.000000000000000
  0
LINE
  5
F10734
330
F10735
100
AcDbEntity
8
Geo
100
AcDbLine
10
-90.3450374173297
20
-3.46504551198436
30
0.000000000000000
11
-90.2450374173297
21
-3.58176555653018
31
0.000000000000000
  0
LINE
  5
F10736
330
F10737
100
AcDbEntity
8
Geo
100
AcDbLine
10
-90.2450374173297
20
-3.58176555653018
30
0.000000000000000
11
-90.1450374173297
21
-3.69251164675067
31
0.000000000000000
  0
LINE
  5
F10738
330
F10739
100
AcDbEntity
8
Geo
100
AcDbLine
10
-90.1450374173297
20
-3.69251164675067
30
0.000000000000000
11
-90.0450374173297
21
-3.79711973461839
31
0.000000000000000
  0
LINE
  5
F1073A
330
F1073B
100
AcDbEntity
8
Geo
100
AcDbLine
10
-90.0450374173297
20
-3.79711973461839
30
0.000000000000000
11
-89.9450374173297
21
-3.89543486432009
31
0.000000000000000
  0
LINE
  5
F1073C
330
F1073D
100
AcDbEntity
8
Geo
100
AcDbLine
10
-89.9450374173297
20
-3.89543486432009
30
0.000000000000000
11
-89.8450374173297
21
-3.98731140179263
31
0.000000000000000
  0
LINE
  5
F1073E
330
F1073F
100
AcDbEntity
8
Geo
100
AcDbLine
10
-89.8450374173297
20
-3.98731140179263
30
0.000000000000000
11
-89.7450374173297
21
-4.07261325045045
31
0.000000000000000
  0
LINE
  5
F10740
330
F10741
100
AcDbEntity
8
Geo
100
AcDbLine
10
-89.7450374173297
20
-4.07261325045045
30
0.000000000000000
11
-89.6450374173297
21
-4.15121405278528
31
0.000000000000000
  0
LINE
  5
F10742
330
F10743
100
AcDbEntity
8
Geo
100
AcDbLine
10
-89.6450374173297
20
-4.15121405278528
30
0.000000000000000
11
-89.5450374173297
21
-4.22299737753932
31
0.000000000000000
  0
LINE
  5
F10744
330
F10745
100
AcDbEntity
8
Geo
100
AcDbLine
10
-89.5450374173297
20
-4.22299737753932
30
0.000000000000000
11
-89.4450374173297
21
-4.28785689217471
31
0.000000000000000
  0
LINE
  5
F10746
330
F10747
100
AcDbEntity
8
Geo
100
AcDbLine
10
-89.4450374173297
20
-4.28785689217471
30
0.000000000000000
11
-89.3450374173297
21
-4.34569652038378
31
0.000000000000000
  0
LINE
  5
F10748
330
F10749
100
AcDbEntity
8
Geo
100
AcDbLine
10
-89.3450374173297
20
-4.34569652038378
30
0.000000000000000
11
-89.2450374173297
21
-4.39643058440672
31
0.000000000000000
  0
LINE
  5
F1074A
330
F1074B
100
AcDbEntity
8
Geo
100
AcDbLine
10
-89.2450374173297
20
-4.39643058440672
30
0.000000000000000
11
-89.1450374173297
21
-4.43998393194596
31
0.000000000000000
  0
LINE
  5
F1074C
330
F1074D
100
AcDbEntity
8
Geo
100
AcDbLine
10
-89.1450374173297
20
-4.43998393194596
30
0.000000000000000
11
-89.0450374173297
21
-4.47629204748912
31
0.000000000000000
  0
LINE
  5
F1074E
330
F1074F
100
AcDbEntity
8
Geo
100
AcDbLine
10
-89.0450374173297
20
-4.47629204748912
30
0.000000000000000
11
-88.9450374173297
21
-4.50530114787578
31
0.000000000000000
  0
LINE
  5
F10750
330
F10751
100
AcDbEntity
8
Geo
100
AcDbLine
10
-88.9450374173297
20
-4.50530114787578
30
0.000000000000000
11
-88.8450374173297
21
-4.52696826196641
31
0.000000000000000
  0
LINE
  5
F10752
330
F10753
100
AcDbEntity
8
Geo
100
AcDbLine
10
-88.8450374173297
20
-4.52696826196641
30
0.000000000000000
11
-88.7450374173297
21
-4.54126129429541
31
0.000000000000000
  0
LINE
  5
F10754
330
F10755
100
AcDbEntity
8
Geo
100
AcDbLine
10
-88.7450374173297
20
-4.54126129429541
30
0.000000000000000
11
-88.6450374173297
21
-4.54815907261413
31
0.000000000000000
  0
LINE
  5
F10756
330
F10757
100
AcDbEntity
8
Geo
100
AcDbLine
10
-100.845037417330
20
4.94246907058144
30
0.000000000000000
11
-100.745037417330
21
5.23702558910898
31
0.000000000000000
  0
LINE
  5
F10758
330
F10759
100
AcDbEntity
8
Geo
100
AcDbLine
10
-100.845037417330
20
0.401911091814174
30
0.000000000000000
11
-100.745037417330
21
0.217575193516750
31
0.000000000000000
  0
LINE
  5
F1075A
330
F1075B
100
AcDbEntity
8
Geo
100
AcDbLine
10
-100.745037417330
20
5.23702558910898
30
0.000000000000000
11
-100.645037417330
21
5.32419664905246
31
0.000000000000000
  0
LINE
  5
F1075C
330
F1075D
100
AcDbEntity
8
Geo
100
AcDbLine
10
-100.745037417330
20
0.217575193516750
30
0.000000000000000
11
-100.645037417330
21
0.0258948885676411
31
0.000000000000000
  0
LINE
  5
F1075E
330
F1075F
100
AcDbEntity
8
Geo
100
AcDbLine
10
-100.645037417330
20
5.32419664905246
30
0.000000000000000
11
-100.545037417330
21
5.36209295602392
31
0.000000000000000
  0
LINE
  5
F10760
330
F10761
100
AcDbEntity
8
Geo
100
AcDbLine
10
-100.645037417330
20
0.0258948885676411
30
0.000000000000000
11
-100.545037417330
21
-0.168019498647728
31
0.000000000000000
  0
LINE
  5
F10762
330
F10763
100
AcDbEntity
8
Geo
100
AcDbLine
10
-100.545037417330
20
5.36209295602392
30
0.000000000000000
11
-100.445037417330
21
5.36589577472874
31
0.000000000000000
  0
LINE
  5
F10764
330
F10765
100
AcDbEntity
8
Geo
100
AcDbLine
10
-100.545037417330
20
-0.168019498647728
30
0.000000000000000
11
-100.445037417330
21
-0.361388599933808
31
0.000000000000000
  0
LINE
  5
F10766
330
F10767
100
AcDbEntity
8
Geo
100
AcDbLine
10
-100.445037417330
20
5.36589577472874
30
0.000000000000000
11
-100.345037417330
21
5.34090426525773
31
0.000000000000000
  0
LINE
  5
F10768
330
F10769
100
AcDbEntity
8
Geo
100
AcDbLine
10
-100.445037417330
20
-0.361388599933808
30
0.000000000000000
11
-100.345037417330
21
-0.551840846027621
31
0.000000000000000
  0
LINE
  5
F1076A
330
F1076B
100
AcDbEntity
8
Geo
100
AcDbLine
10
-100.345037417330
20
5.34090426525773
30
0.000000000000000
11
-100.245037417330
21
5.29868701213277
31
0.000000000000000
  0
LINE
  5
F1076C
330
F1076D
100
AcDbEntity
8
Geo
100
AcDbLine
10
-100.345037417330
20
-0.551840846027621
30
0.000000000000000
11
-100.245037417330
21
-0.739258185603453
31
0.000000000000000
  0
LINE
  5
F1076E
330
F1076F
100
AcDbEntity
8
Geo
100
AcDbLine
10
-100.245037417330
20
5.29868701213277
30
0.000000000000000
11
-100.145037417330
21
5.24928911145071
31
0.000000000000000
  0
LINE
  5
F10770
330
F10771
100
AcDbEntity
8
Geo
100
AcDbLine
10
-100.245037417330
20
-0.739258185603453
30
0.000000000000000
11
-100.145037417330
21
-0.924912173019035
31
0.000000000000000
  0
LINE
  5
F10772
330
F10773
100
AcDbEntity
8
Geo
100
AcDbLine
10
-100.145037417330
20
5.24928911145071
30
0.000000000000000
11
-100.045037417330
21
5.19278373625225
31
0.000000000000000
  0
LINE
  5
F10774
330
F10775
100
AcDbEntity
8
Geo
100
AcDbLine
10
-100.145037417330
20
-0.924912173019035
30
0.000000000000000
11
-100.045037417330
21
-1.10852779928429
31
0.000000000000000
  0
LINE
  5
F10776
330
F10777
100
AcDbEntity
8
Geo
100
AcDbLine
10
-100.045037417330
20
5.19278373625225
30
0.000000000000000
11
-99.9450374173297
21
5.12925458787009
31
0.000000000000000
  0
LINE
  5
F10778
330
F10779
100
AcDbEntity
8
Geo
100
AcDbLine
10
-100.045037417330
20
-1.10852779928429
30
0.000000000000000
11
-99.9450374173297
21
-1.28983307483064
31
0.000000000000000
  0
LINE
  5
F1077A
330
F1077B
100
AcDbEntity
8
Geo
100
AcDbLine
10
-99.9450374173297
20
5.12925458787009
30
0.000000000000000
11
-99.8450374173297
21
5.05879577194225
31
0.000000000000000
  0
LINE
  5
F1077C
330
F1077D
100
AcDbEntity
8
Geo
100
AcDbLine
10
-99.9450374173297
20
-1.28983307483064
30
0.000000000000000
11
-99.8450374173297
21
-1.46855943240877
31
0.000000000000000
  0
LINE
  5
F1077E
330
F1077F
100
AcDbEntity
8
Geo
100
AcDbLine
10
-99.8450374173297
20
5.05879577194225
30
0.000000000000000
11
-99.7450374173297
21
4.98151165901354
31
0.000000000000000
  0
LINE
  5
F10780
330
F10781
100
AcDbEntity
8
Geo
100
AcDbLine
10
-99.8450374173297
20
-1.46855943240877
30
0.000000000000000
11
-99.7450374173297
21
-1.64444212491694
31
0.000000000000000
  0
LINE
  5
F10782
330
F10783
100
AcDbEntity
8
Geo
100
AcDbLine
10
-99.7450374173297
20
4.98151165901354
30
0.000000000000000
11
-99.6450374173297
21
4.89751672993158
31
0.000000000000000
  0
LINE
  5
F10784
330
F10785
100
AcDbEntity
8
Geo
100
AcDbLine
10
-99.7450374173297
20
-1.64444212491694
30
0.000000000000000
11
-99.6450374173297
21
-1.81722061757044
31
0.000000000000000
  0
LINE
  5
F10786
330
F10787
100
AcDbEntity
8
Geo
100
AcDbLine
10
-99.6450374173297
20
4.89751672993158
30
0.000000000000000
11
-99.5450374173297
21
4.80693540626652
31
0.000000000000000
  0
LINE
  5
F10788
330
F10789
100
AcDbEntity
8
Geo
100
AcDbLine
10
-99.6450374173297
20
-1.81722061757044
30
0.000000000000000
11
-99.5450374173297
21
-1.98663897383146
31
0.000000000000000
  0
LINE
  5
F1078A
330
F1078B
100
AcDbEntity
8
Geo
100
AcDbLine
10
-99.5450374173297
20
4.80693540626652
30
0.000000000000000
11
-99.4450374173297
21
4.70990186600552
31
0.000000000000000
  0
LINE
  5
F1078C
330
F1078D
100
AcDbEntity
8
Geo
100
AcDbLine
10
-99.5450374173297
20
-1.98663897383146
30
0.000000000000000
11
-99.4450374173297
21
-2.15244623452748
31
0.000000000000000
  0
LINE
  5
F1078E
330
F1078F
100
AcDbEntity
8
Geo
100
AcDbLine
10
-99.4450374173297
20
4.70990186600552
30
0.000000000000000
11
-99.3450374173297
21
4.60655984479512
31
0.000000000000000
  0
LINE
  5
F10790
330
F10791
100
AcDbEntity
8
Geo
100
AcDbLine
10
-99.4450374173297
20
-2.15244623452748
30
0.000000000000000
11
-99.3450374173297
21
-2.31439678959676
31
0.000000000000000
  0
LINE
  5
F10792
330
F10793
100
AcDbEntity
8
Geo
100
AcDbLine
10
-99.3450374173297
20
4.60655984479512
30
0.000000000000000
11
-99.2450374173297
21
4.49706242302577
31
0.000000000000000
  0
LINE
  5
F10794
330
F10795
100
AcDbEntity
8
Geo
100
AcDbLine
10
-99.3450374173297
20
-2.31439678959676
30
0.000000000000000
11
-99.2450374173297
21
-2.47225074191017
31
0.000000000000000
  0
LINE
  5
F10796
330
F10797
100
AcDbEntity
8
Geo
100
AcDbLine
10
-99.2450374173297
20
4.49706242302577
30
0.000000000000000
11
-99.1450374173297
21
4.38157179907413
31
0.000000000000000
  0
LINE
  5
F10798
330
F10799
100
AcDbEntity
8
Geo
100
AcDbLine
10
-99.2450374173297
20
-2.47225074191017
30
0.000000000000000
11
-99.1450374173297
21
-2.62577426263049
31
0.000000000000000
  0
LINE
  5
F1079A
330
F1079B
100
AcDbEntity
8
Geo
100
AcDbLine
10
-99.1450374173297
20
4.38157179907413
30
0.000000000000000
11
-99.0450374173297
21
4.26025904903880
31
0.000000000000000
  0
LINE
  5
F1079C
330
F1079D
100
AcDbEntity
8
Geo
100
AcDbLine
10
-99.1450374173297
20
-2.62577426263049
30
0.000000000000000
11
-99.0450374173297
21
-2.77473993758269
31
0.000000000000000
  0
LINE
  5
F1079E
330
F1079F
100
AcDbEntity
8
Geo
100
AcDbLine
10
-99.0450374173297
20
4.26025904903880
30
0.000000000000000
11
-98.9450374173297
21
4.13330387332554
31
0.000000000000000
  0
LINE
  5
F107A0
330
F107A1
100
AcDbEntity
8
Geo
100
AcDbLine
10
-99.0450374173297
20
-2.77473993758269
30
0.000000000000000
11
-98.9450374173297
21
-2.91892710412227
31
0.000000000000000
  0
LINE
  5
F107A2
330
F107A3
100
AcDbEntity
8
Geo
100
AcDbLine
10
-98.9450374173297
20
4.13330387332554
30
0.000000000000000
11
-98.8450374173297
21
4.00089433045732
31
0.000000000000000
  0
LINE
  5
F107A4
330
F107A5
100
AcDbEntity
8
Geo
100
AcDbLine
10
-98.9450374173297
20
-2.91892710412227
30
0.000000000000000
11
-98.8450374173297
21
-3.05812217800253
31
0.000000000000000
  0
LINE
  5
F107A6
330
F107A7
100
AcDbEntity
8
Geo
100
AcDbLine
10
-98.8450374173297
20
4.00089433045732
30
0.000000000000000
11
-98.7450374173297
21
3.86322655850351
31
0.000000000000000
  0
LINE
  5
F107A8
330
F107A9
100
AcDbEntity
8
Geo
100
AcDbLine
10
-98.8450374173297
20
-3.05812217800253
30
0.000000000000000
11
-98.7450374173297
21
-3.19211896975656
31
0.000000000000000
  0
LINE
  5
F107AA
330
F107AB
100
AcDbEntity
8
Geo
100
AcDbLine
10
-98.7450374173297
20
3.86322655850351
30
0.000000000000000
11
-98.6450374173297
21
3.72050448454080
31
0.000000000000000
  0
LINE
  5
F107AC
330
F107AD
100
AcDbEntity
8
Geo
100
AcDbLine
10
-98.7450374173297
20
-3.19211896975656
30
0.000000000000000
11
-98.6450374173297
21
-3.32071899012547
31
0.000000000000000
  0
LINE
  5
F107AE
330
F107AF
100
AcDbEntity
8
Geo
100
AcDbLine
10
-98.6450374173297
20
3.72050448454080
30
0.000000000000000
11
-98.5450374173297
21
3.57293952257635
31
0.000000000000000
  0
LINE
  5
F107B0
330
F107B1
100
AcDbEntity
8
Geo
100
AcDbLine
10
-98.6450374173297
20
-3.32071899012547
30
0.000000000000000
11
-98.5450374173297
21
-3.44373174408021
31
0.000000000000000
  0
LINE
  5
F107B2
330
F107B3
100
AcDbEntity
8
Geo
100
AcDbLine
10
-98.5450374173297
20
3.57293952257635
30
0.000000000000000
11
-98.4450374173297
21
3.42075026038047
31
0.000000000000000
  0
LINE
  5
F107B4
330
F107B5
100
AcDbEntity
8
Geo
100
AcDbLine
10
-98.5450374173297
20
-3.44373174408021
30
0.000000000000000
11
-98.4450374173297
21
-3.56097501300161
31
0.000000000000000
  0
LINE
  5
F107B6
330
F107B7
100
AcDbEntity
8
Geo
100
AcDbLine
10
-98.4450374173297
20
3.42075026038047
30
0.000000000000000
11
-98.3450374173297
21
3.26416213569291
31
0.000000000000000
  0
LINE
  5
F107B8
330
F107B9
100
AcDbEntity
8
Geo
100
AcDbLine
10
-98.4450374173297
20
-3.56097501300161
30
0.000000000000000
11
-98.3450374173297
21
-3.67227512460053
31
0.000000000000000
  0
LINE
  5
F107BA
330
F107BB
100
AcDbEntity
8
Geo
100
AcDbLine
10
-98.3450374173297
20
3.26416213569291
30
0.000000000000000
11
-98.2450374173297
21
3.10340710228222
31
0.000000000000000
  0
LINE
  5
F107BC
330
F107BD
100
AcDbEntity
8
Geo
100
AcDbLine
10
-98.3450374173297
20
-3.67227512460053
30
0.000000000000000
11
-98.2450374173297
21
-3.77746721017843
31
0.000000000000000
  0
LINE
  5
F107BE
330
F107BF
100
AcDbEntity
8
Geo
100
AcDbLine
10
-98.2450374173297
20
3.10340710228222
30
0.000000000000000
11
-98.1450374173297
21
2.93872328635298
31
0.000000000000000
  0
LINE
  5
F107C0
330
F107C1
100
AcDbEntity
8
Geo
100
AcDbLine
10
-98.2450374173297
20
-3.77746721017843
30
0.000000000000000
11
-98.1450374173297
21
-3.87639544884710
31
0.000000000000000
  0
LINE
  5
F107C2
330
F107C3
100
AcDbEntity
8
Geo
100
AcDbLine
10
-98.1450374173297
20
2.93872328635298
30
0.000000000000000
11
-98.0450374173297
21
2.77035463380979
31
0.000000000000000
  0
LINE
  5
F107C4
330
F107C5
100
AcDbEntity
8
Geo
100
AcDbLine
10
-98.1450374173297
20
-3.87639544884710
30
0.000000000000000
11
-98.0450374173297
21
-3.96891329834592
31
0.000000000000000
  0
LINE
  5
F107C6
330
F107C7
100
AcDbEntity
8
Geo
100
AcDbLine
10
-98.0450374173297
20
2.77035463380979
30
0.000000000000000
11
-97.9450374173297
21
2.59855054890050
31
0.000000000000000
  0
LINE
  5
F107C8
330
F107C9
100
AcDbEntity
8
Geo
100
AcDbLine
10
-98.0450374173297
20
-3.96891329834592
30
0.000000000000000
11
-97.9450374173297
21
-4.05488371211475
31
0.000000000000000
  0
LINE
  5
F107CA
330
F107CB
100
AcDbEntity
8
Geo
100
AcDbLine
10
-97.9450374173297
20
2.59855054890050
30
0.000000000000000
11
-97.8450374173297
21
2.42356552477414
31
0.000000000000000
  0
LINE
  5
F107CC
330
F107CD
100
AcDbEntity
8
Geo
100
AcDbLine
10
-97.9450374173297
20
-4.05488371211475
30
0.000000000000000
11
-97.8450374173297
21
-4.13417934230075
31
0.000000000000000
  0
LINE
  5
F107CE
330
F107CF
100
AcDbEntity
8
Geo
100
AcDbLine
10
-97.8450374173297
20
2.42356552477414
30
0.000000000000000
11
-97.7450374173297
21
2.24565876650047
31
0.000000000000000
  0
LINE
  5
F107D0
330
F107D1
100
AcDbEntity
8
Geo
100
AcDbLine
10
-97.8450374173297
20
-4.13417934230075
30
0.000000000000000
11
-97.7450374173297
21
-4.20668272839861
31
0.000000000000000
  0
LINE
  5
F107D2
330
F107D3
100
AcDbEntity
8
Geo
100
AcDbLine
10
-97.7450374173297
20
2.24565876650047
30
0.000000000000000
11
-97.6450374173297
21
2.06509380710996
31
0.000000000000000
  0
LINE
  5
F107D4
330
F107D5
100
AcDbEntity
8
Geo
100
AcDbLine
10
-97.7450374173297
20
-4.20668272839861
30
0.000000000000000
11
-97.6450374173297
21
-4.27228647124462
31
0.000000000000000
  0
LINE
  5
F107D6
330
F107D7
100
AcDbEntity
8
Geo
100
AcDbLine
10
-97.6450374173297
20
2.06509380710996
30
0.000000000000000
11
-97.5450374173297
21
1.88213811722265
31
0.000000000000000
  0
LINE
  5
F107D8
330
F107D9
100
AcDbEntity
8
Geo
100
AcDbLine
10
-97.6450374173297
20
-4.27228647124462
30
0.000000000000000
11
-97.5450374173297
21
-4.33089339210690
31
0.000000000000000
  0
LINE
  5
F107DA
330
F107DB
100
AcDbEntity
8
Geo
100
AcDbLine
10
-97.5450374173297
20
1.88213811722265
30
0.000000000000000
11
-97.4450374173297
21
1.69706270884428
31
0.000000000000000
  0
LINE
  5
F107DC
330
F107DD
100
AcDbEntity
8
Geo
100
AcDbLine
10
-97.5450374173297
20
-4.33089339210690
30
0.000000000000000
11
-97.4450374173297
21
-4.38241667663612
31
0.000000000000000
  0
LINE
  5
F107DE
330
F107DF
100
AcDbEntity
8
Geo
100
AcDbLine
10
-97.4450374173297
20
1.69706270884428
30
0.000000000000000
11
-97.3450374173297
21
1.51014173391661
31
0.000000000000000
  0
LINE
  5
F107E0
330
F107E1
100
AcDbEntity
8
Geo
100
AcDbLine
10
-97.4450374173297
20
-4.38241667663612
30
0.000000000000000
11
-97.3450374173297
21
-4.42678000346347
31
0.000000000000000
  0
LINE
  5
F107E2
330
F107E3
100
AcDbEntity
8
Geo
100
AcDbLine
10
-97.3450374173297
20
1.51014173391661
30
0.000000000000000
11
-97.2450374173297
21
1.32165207821655
31
0.000000000000000
  0
LINE
  5
F107E4
330
F107E5
100
AcDbEntity
8
Geo
100
AcDbLine
10
-97.3450374173297
20
-4.42678000346347
30
0.000000000000000
11
-97.2450374173297
21
-4.46391765725541
31
0.000000000000000
  0
LINE
  5
F107E6
330
F107E7
100
AcDbEntity
8
Geo
100
AcDbLine
10
-97.2450374173297
20
1.32165207821655
30
0.000000000000000
11
-97.1450374173297
21
1.13187295120559
31
0.000000000000000
  0
LINE
  5
F107E8
330
F107E9
100
AcDbEntity
8
Geo
100
AcDbLine
10
-97.2450374173297
20
-4.46391765725541
30
0.000000000000000
11
-97.1450374173297
21
-4.49377462605768
31
0.000000000000000
  0
LINE
  5
F107EA
330
F107EB
100
AcDbEntity
8
Geo
100
AcDbLine
10
-97.1450374173297
20
1.13187295120559
30
0.000000000000000
11
-97.0450374173297
21
0.941085472437299
31
0.000000000000000
  0
LINE
  5
F107EC
330
F107ED
100
AcDbEntity
8
Geo
100
AcDbLine
10
-97.1450374173297
20
-4.49377462605768
30
0.000000000000000
11
-97.0450374173297
21
-4.51630668278445
31
0.000000000000000
  0
LINE
  5
F107EE
330
F107EF
100
AcDbEntity
8
Geo
100
AcDbLine
10
-97.0450374173297
20
0.941085472437299
30
0.000000000000000
11
-96.9450374173297
21
0.749572255135255
31
0.000000000000000
  0
LINE
  5
F107F0
330
F107F1
100
AcDbEntity
8
Geo
100
AcDbLine
10
-97.0450374173297
20
-4.51630668278445
30
0.000000000000000
11
-96.9450374173297
21
-4.53148045073183
31
0.000000000000000
  0
LINE
  5
F107F2
330
F107F3
100
AcDbEntity
8
Geo
100
AcDbLine
10
-96.9450374173297
20
0.749572255135255
30
0.000000000000000
11
-96.8450374173297
21
0.557616987558520
31
0.000000000000000
  0
LINE
  5
F107F4
330
F107F5
100
AcDbEntity
8
Geo
100
AcDbLine
10
-96.9450374173297
20
-4.53148045073183
30
0.000000000000000
11
-96.8450374173297
21
-4.53927345301871
31
0.000000000000000
  0
LINE
  5
F107F6
330
F107F7
100
AcDbEntity
8
Geo
100
AcDbLine
10
-96.8450374173297
20
0.557616987558520
30
0.000000000000000
11
-96.7450374173297
21
0.365504012774595
31
0.000000000000000
  0
LINE
  5
F107F8
330
F107F9
100
AcDbEntity
8
Geo
100
AcDbLine
10
-96.7450374173297
20
0.365504012774595
30
0.000000000000000
11
-96.6450374173297
21
0.173517907462448
31
0.000000000000000
  0
LINE
  5
F107FA
330
F107FB
100
AcDbEntity
8
Geo
100
AcDbLine
10
-96.7450374173297
20
5.44197710481137
30
0.000000000000000
11
-96.6450374173297
21
5.43498489470488
31
0.000000000000000
  0
LINE
  5
F107FC
330
F107FD
100
AcDbEntity
8
Geo
100
AcDbLine
10
-96.6450374173297
20
0.173517907462448
30
0.000000000000000
11
-96.5450374173297
21
-0.0180569396305199
31
0.000000000000000
  0
LINE
  5
F107FE
330
F107FF
100
AcDbEntity
8
Geo
100
AcDbLine
10
-96.6450374173297
20
5.43498489470488
30
0.000000000000000
11
-96.5450374173297
21
5.42061013917981
31
0.000000000000000
  0
LINE
  5
F10800
330
F10801
100
AcDbEntity
8
Geo
100
AcDbLine
10
-96.5450374173297
20
-0.0180569396305199
30
0.000000000000000
11
-96.4450374173297
21
-0.208936748953132
31
0.000000000000000
  0
LINE
  5
F10802
330
F10803
100
AcDbEntity
8
Geo
100
AcDbLine
10
-96.5450374173297
20
5.42061013917981
30
0.000000000000000
11
-96.4450374173297
21
5.39887413154125
31
0.000000000000000
  0
LINE
  5
F10804
330
F10805
100
AcDbEntity
8
Geo
100
AcDbLine
10
-96.4450374173297
20
-0.208936748953132
30
0.000000000000000
11
-96.3450374173297
21
-0.398838770512679
31
0.000000000000000
  0
LINE
  5
F10806
330
F10807
100
AcDbEntity
8
Geo
100
AcDbLine
10
-96.4450374173297
20
5.39887413154125
30
0.000000000000000
11
-96.3450374173297
21
5.36980906930673
31
0.000000000000000
  0
LINE
  5
F10808
330
F10809
100
AcDbEntity
8
Geo
100
AcDbLine
10
-96.3450374173297
20
-0.398838770512679
30
0.000000000000000
11
-96.2450374173297
21
-0.587481702712092
31
0.000000000000000
  0
LINE
  5
F1080A
330
F1080B
100
AcDbEntity
8
Geo
100
AcDbLine
10
-96.3450374173297
20
5.36980906930673
30
0.000000000000000
11
-96.2450374173297
21
5.33345800651198
31
0.000000000000000
  0
LINE
  5
F1080C
330
F1080D
100
AcDbEntity
8
Geo
100
AcDbLine
10
-96.2450374173297
20
-0.587481702712092
30
0.000000000000000
11
-96.1450374173297
21
-0.774586109041593
31
0.000000000000000
  0
LINE
  5
F1080E
330
F1080F
100
AcDbEntity
8
Geo
100
AcDbLine
10
-96.2450374173297
20
5.33345800651198
30
0.000000000000000
11
-96.1450374173297
21
5.28987478993513
31
0.000000000000000
  0
LINE
  5
F10810
330
F10811
100
AcDbEntity
8
Geo
100
AcDbLine
10
-96.1450374173297
20
-0.774586109041593
30
0.000000000000000
11
-96.0450374173297
21
-0.959874832007610
31
0.000000000000000
  0
LINE
  5
F10812
330
F10813
100
AcDbEntity
8
Geo
100
AcDbLine
10
-96.1450374173297
20
5.28987478993513
30
0.000000000000000
11
-96.0450374173297
21
5.23912397933351
31
0.000000000000000
  0
LINE
  5
F10814
330
F10815
100
AcDbEntity
8
Geo
100
AcDbLine
10
-96.0450374173297
20
-0.959874832007610
30
0.000000000000000
11
-95.9450374173297
21
-1.14307340368578
31
0.000000000000000
  0
LINE
  5
F10816
330
F10817
100
AcDbEntity
8
Geo
100
AcDbLine
10
-96.0450374173297
20
5.23912397933351
30
0.000000000000000
11
-95.9450374173297
21
5.18128075181138
31
0.000000000000000
  0
LINE
  5
F10818
330
F10819
100
AcDbEntity
8
Geo
100
AcDbLine
10
-95.9450374173297
20
-1.14307340368578
30
0.000000000000000
11
-95.8450374173297
21
-1.32391045228991
31
0.000000000000000
  0
LINE
  5
F1081A
330
F1081B
100
AcDbEntity
8
Geo
100
AcDbLine
10
-95.9450374173297
20
5.18128075181138
30
0.000000000000000
11
-95.8450374173297
21
5.11643079046020
31
0.000000000000000
  0
LINE
  5
F1081C
330
F1081D
100
AcDbEntity
8
Geo
100
AcDbLine
10
-95.8450374173297
20
-1.32391045228991
30
0.000000000000000
11
-95.7450374173297
21
-1.50211810415458
31
0.000000000000000
  0
LINE
  5
F1081E
330
F1081F
100
AcDbEntity
8
Geo
100
AcDbLine
10
-95.8450374173297
20
5.11643079046020
30
0.000000000000000
11
-95.7450374173297
21
5.04467015743638
31
0.000000000000000
  0
LINE
  5
F10820
330
F10821
100
AcDbEntity
8
Geo
100
AcDbLine
10
-95.7450374173297
20
-1.50211810415458
30
0.000000000000000
11
-95.6450374173297
21
-1.67743238053610
31
0.000000000000000
  0
LINE
  5
F10822
330
F10823
100
AcDbEntity
8
Geo
100
AcDbLine
10
-95.7450374173297
20
5.04467015743638
30
0.000000000000000
11
-95.6450374173297
21
4.96610515166457
31
0.000000000000000
  0
LINE
  5
F10824
330
F10825
100
AcDbEntity
8
Geo
100
AcDbLine
10
-95.6450374173297
20
-1.67743238053610
30
0.000000000000000
11
-95.5450374173297
21
-1.84959358864376
31
0.000000000000000
  0
LINE
  5
F10826
330
F10827
100
AcDbEntity
8
Geo
100
AcDbLine
10
-95.6450374173297
20
4.96610515166457
30
0.000000000000000
11
-95.5450374173297
21
4.88085215137714
31
0.000000000000000
  0
LINE
  5
F10828
330
F10829
100
AcDbEntity
8
Geo
100
AcDbLine
10
-95.5450374173297
20
-1.84959358864376
30
0.000000000000000
11
-95.4450374173297
21
-2.01834670632249
31
0.000000000000000
  0
LINE
  5
F1082A
330
F1082B
100
AcDbEntity
8
Geo
100
AcDbLine
10
-95.5450374173297
20
4.88085215137714
30
0.000000000000000
11
-95.4450374173297
21
4.78903744172335
31
0.000000000000000
  0
LINE
  5
F1082C
330
F1082D
100
AcDbEntity
8
Geo
100
AcDbLine
10
-95.4450374173297
20
-2.01834670632249
30
0.000000000000000
11
-95.3450374173297
21
-2.18344175981674
31
0.000000000000000
  0
LINE
  5
F1082E
330
F1082F
100
AcDbEntity
8
Geo
100
AcDbLine
10
-95.4450374173297
20
4.78903744172335
30
0.000000000000000
11
-95.3450374173297
21
4.69079702770330
31
0.000000000000000
  0
LINE
  5
F10830
330
F10831
100
AcDbEntity
8
Geo
100
AcDbLine
10
-95.3450374173297
20
-2.18344175981674
30
0.000000000000000
11
-95.2450374173297
21
-2.34463419405629
31
0.000000000000000
  0
LINE
  5
F10832
330
F10833
100
AcDbEntity
8
Geo
100
AcDbLine
10
-95.3450374173297
20
4.69079702770330
30
0.000000000000000
11
-95.2450374173297
21
4.58627643270391
31
0.000000000000000
  0
LINE
  5
F10834
330
F10835
100
AcDbEntity
8
Geo
100
AcDbLine
10
-95.2450374173297
20
-2.34463419405629
30
0.000000000000000
11
-95.1450374173297
21
-2.50168523491534
31
0.000000000000000
  0
LINE
  5
F10836
330
F10837
100
AcDbEntity
8
Geo
100
AcDbLine
10
-95.2450374173297
20
4.58627643270391
30
0.000000000000000
11
-95.1450374173297
21
4.47563048293534
31
0.000000000000000
  0
LINE
  5
F10838
330
F10839
100
AcDbEntity
8
Geo
100
AcDbLine
10
-95.1450374173297
20
-2.50168523491534
30
0.000000000000000
11
-95.0450374173297
21
-2.65436224290826
31
0.000000000000000
  0
LINE
  5
F1083A
330
F1083B
100
AcDbEntity
8
Geo
100
AcDbLine
10
-95.1450374173297
20
4.47563048293534
30
0.000000000000000
11
-95.0450374173297
21
4.35902307808714
31
0.000000000000000
  0
LINE
  5
F1083C
330
F1083D
100
AcDbEntity
8
Geo
100
AcDbLine
10
-95.0450374173297
20
-2.65436224290826
30
0.000000000000000
11
-94.9450374173297
21
-2.80243905779814
31
0.000000000000000
  0
LINE
  5
F1083E
330
F1083F
100
AcDbEntity
8
Geo
100
AcDbLine
10
-95.0450374173297
20
4.35902307808714
30
0.000000000000000
11
-94.9450374173297
21
4.23662694854389
31
0.000000000000000
  0
LINE
  5
F10840
330
F10841
100
AcDbEntity
8
Geo
100
AcDbLine
10
-94.9450374173297
20
-2.80243905779814
30
0.000000000000000
11
-94.8450374173297
21
-2.94569633360764
31
0.000000000000000
  0
LINE
  5
F10842
330
F10843
100
AcDbEntity
8
Geo
100
AcDbLine
10
-94.9450374173297
20
4.23662694854389
30
0.000000000000000
11
-94.8450374173297
21
4.10862339951989
31
0.000000000000000
  0
LINE
  5
F10844
330
F10845
100
AcDbEntity
8
Geo
100
AcDbLine
10
-94.8450374173297
20
-2.94569633360764
30
0.000000000000000
11
-94.7450374173297
21
-3.08392186353588
31
0.000000000000000
  0
LINE
  5
F10846
330
F10847
100
AcDbEntity
8
Geo
100
AcDbLine
10
-94.8450374173297
20
4.10862339951989
30
0.000000000000000
11
-94.7450374173297
21
3.97520204249203
31
0.000000000000000
  0
LINE
  5
F10848
330
F10849
100
AcDbEntity
8
Geo
100
AcDbLine
10
-94.7450374173297
20
-3.08392186353588
30
0.000000000000000
11
-94.6450374173297
21
-3.21691089430006
31
0.000000000000000
  0
LINE
  5
F1084A
330
F1084B
100
AcDbEntity
8
Geo
100
AcDbLine
10
-94.7450374173297
20
3.97520204249203
30
0.000000000000000
11
-94.6450374173297
21
3.83656051432854
31
0.000000000000000
  0
LINE
  5
F1084C
330
F1084D
100
AcDbEntity
8
Geo
100
AcDbLine
10
-94.6450374173297
20
-3.21691089430006
30
0.000000000000000
11
-94.5450374173297
21
-3.34446642943620
31
0.000000000000000
  0
LINE
  5
F1084E
330
F1084F
100
AcDbEntity
8
Geo
100
AcDbLine
10
-94.6450374173297
20
3.83656051432854
30
0.000000000000000
11
-94.5450374173297
21
3.69290418452985
31
0.000000000000000
  0
LINE
  5
F10850
330
F10851
100
AcDbEntity
8
Geo
100
AcDbLine
10
-94.5450374173297
20
-3.34446642943620
30
0.000000000000000
11
-94.4450374173297
21
-3.46639952110977
31
0.000000000000000
  0
LINE
  5
F10852
330
F10853
100
AcDbEntity
8
Geo
100
AcDbLine
10
-94.5450374173297
20
3.69290418452985
30
0.000000000000000
11
-94.4450374173297
21
3.54444585101494
31
0.000000000000000
  0
LINE
  5
F10854
330
F10855
100
AcDbEntity
8
Geo
100
AcDbLine
10
-94.4450374173297
20
-3.46639952110977
30
0.000000000000000
11
-94.3450374173297
21
-3.58252955000380
31
0.000000000000000
  0
LINE
  5
F10856
330
F10857
100
AcDbEntity
8
Geo
100
AcDbLine
10
-94.4450374173297
20
3.54444585101494
30
0.000000000000000
11
-94.3450374173297
21
3.39140542490415
31
0.000000000000000
  0
LINE
  5
F10858
330
F10859
100
AcDbEntity
8
Geo
100
AcDbLine
10
-94.3450374173297
20
-3.58252955000380
30
0.000000000000000
11
-94.2450374173297
21
-3.69268449287006
31
0.000000000000000
  0
LINE
  5
F1085A
330
F1085B
100
AcDbEntity
8
Geo
100
AcDbLine
10
-94.3450374173297
20
3.39140542490415
30
0.000000000000000
11
-94.2450374173297
21
3.23400960476515
31
0.000000000000000
  0
LINE
  5
F1085C
330
F1085D
100
AcDbEntity
8
Geo
100
AcDbLine
10
-94.2450374173297
20
-3.69268449287006
30
0.000000000000000
11
-94.1450374173297
21
-3.79670117734683
31
0.000000000000000
  0
LINE
  5
F1085E
330
F1085F
100
AcDbEntity
8
Geo
100
AcDbLine
10
-94.2450374173297
20
3.23400960476515
30
0.000000000000000
11
-94.1450374173297
21
3.07249154080461
31
0.000000000000000
  0
LINE
  5
F10860
330
F10861
100
AcDbEntity
8
Geo
100
AcDbLine
10
-94.1450374173297
20
-3.79670117734683
30
0.000000000000000
11
-94.0450374173297
21
-3.89442552366588
31
0.000000000000000
  0
LINE
  5
F10862
330
F10863
100
AcDbEntity
8
Geo
100
AcDbLine
10
-94.1450374173297
20
3.07249154080461
30
0.000000000000000
11
-94.0450374173297
21
2.90709048950319
31
0.000000000000000
  0
LINE
  5
F10864
330
F10865
100
AcDbEntity
8
Geo
100
AcDbLine
10
-94.0450374173297
20
-3.89442552366588
30
0.000000000000000
11
-93.9450374173297
21
-3.98571277289066
31
0.000000000000000
  0
LINE
  5
F10866
330
F10867
100
AcDbEntity
8
Geo
100
AcDbLine
10
-94.0450374173297
20
2.90709048950319
30
0.000000000000000
11
-93.9450374173297
21
2.73805145920524
31
0.000000000000000
  0
LINE
  5
F10868
330
F10869
100
AcDbEntity
8
Geo
100
AcDbLine
10
-93.9450374173297
20
-3.98571277289066
30
0.000000000000000
11
-93.8450374173297
21
-4.07042770134746
31
0.000000000000000
  0
LINE
  5
F1086A
330
F1086B
100
AcDbEntity
8
Geo
100
AcDbLine
10
-93.9450374173297
20
2.73805145920524
30
0.000000000000000
11
-93.8450374173297
21
2.56562484718825
31
0.000000000000000
  0
LINE
  5
F1086C
330
F1086D
100
AcDbEntity
8
Geo
100
AcDbLine
10
-93.8450374173297
20
-4.07042770134746
30
0.000000000000000
11
-93.7450374173297
21
-4.14844482093208
31
0.000000000000000
  0
LINE
  5
F1086E
330
F1086F
100
AcDbEntity
8
Geo
100
AcDbLine
10
-93.8450374173297
20
2.56562484718825
30
0.000000000000000
11
-93.7450374173297
21
2.39006606874974
31
0.000000000000000
  0
LINE
  5
F10870
330
F10871
100
AcDbEntity
8
Geo
100
AcDbLine
10
-93.7450374173297
20
-4.14844482093208
30
0.000000000000000
11
-93.6450374173297
21
-4.21964856499515
31
0.000000000000000
  0
LINE
  5
F10872
330
F10873
100
AcDbEntity
8
Geo
100
AcDbLine
10
-93.7450374173297
20
2.39006606874974
30
0.000000000000000
11
-93.6450374173297
21
2.21163517886097
31
0.000000000000000
  0
LINE
  5
F10874
330
F10875
100
AcDbEntity
8
Geo
100
AcDbLine
10
-93.6450374173297
20
-4.21964856499515
30
0.000000000000000
11
-93.5450374173297
21
-4.28393345953088
31
0.000000000000000
  0
LINE
  5
F10876
330
F10877
100
AcDbEntity
8
Geo
100
AcDbLine
10
-93.6450374173297
20
2.21163517886097
30
0.000000000000000
11
-93.5450374173297
21
2.03059648694780
31
0.000000000000000
  0
LINE
  5
F10878
330
F10879
100
AcDbEntity
8
Geo
100
AcDbLine
10
-93.5450374173297
20
-4.28393345953088
30
0.000000000000000
11
-93.4450374173297
21
-4.34120427941553
31
0.000000000000000
  0
LINE
  5
F1087A
330
F1087B
100
AcDbEntity
8
Geo
100
AcDbLine
10
-93.5450374173297
20
2.03059648694780
30
0.000000000000000
11
-93.4450374173297
21
1.84721816536960
31
0.000000000000000
  0
LINE
  5
F1087C
330
F1087D
100
AcDbEntity
8
Geo
100
AcDbLine
10
-93.4450374173297
20
-4.34120427941553
30
0.000000000000000
11
-93.3450374173297
21
-4.39137618946427
31
0.000000000000000
  0
LINE
  5
F1087E
330
F1087F
100
AcDbEntity
8
Geo
100
AcDbLine
10
-93.4450374173297
20
1.84721816536960
30
0.000000000000000
11
-93.3450374173297
21
1.66177185217583
31
0.000000000000000
  0
LINE
  5
F10880
330
F10881
100
AcDbEntity
8
Geo
100
AcDbLine
10
-93.3450374173297
20
-4.39137618946427
30
0.000000000000000
11
-93.2450374173297
21
-4.43437487009742
31
0.000000000000000
  0
LINE
  5
F10882
330
F10883
100
AcDbEntity
8
Geo
100
AcDbLine
10
-93.3450374173297
20
1.66177185217583
30
0.000000000000000
11
-93.2450374173297
21
1.47453224872905
31
0.000000000000000
  0
LINE
  5
F10884
330
F10885
100
AcDbEntity
8
Geo
100
AcDbLine
10
-93.2450374173297
20
-4.43437487009742
30
0.000000000000000
11
-93.1450374173297
21
-4.47013662742991
31
0.000000000000000
  0
LINE
  5
F10886
330
F10887
100
AcDbEntity
8
Geo
100
AcDbLine
10
-93.2450374173297
20
1.47453224872905
30
0.000000000000000
11
-93.1450374173297
21
1.28577671279012
31
0.000000000000000
  0
LINE
  5
F10888
330
F10889
100
AcDbEntity
8
Geo
100
AcDbLine
10
-93.1450374173297
20
-4.47013662742991
30
0.000000000000000
11
-93.0450374173297
21
-4.49860848762097
31
0.000000000000000
  0
LINE
  5
F1088A
330
F1088B
100
AcDbEntity
8
Geo
100
AcDbLine
10
-93.1450374173297
20
1.28577671279012
30
0.000000000000000
11
-93.0450374173297
21
1.09578484766858
31
0.000000000000000
  0
LINE
  5
F1088C
330
F1088D
100
AcDbEntity
8
Geo
100
AcDbLine
10
-93.0450374173297
20
-4.49860848762097
30
0.000000000000000
11
-92.9450374173297
21
-4.51974827534420
31
0.000000000000000
  0
LINE
  5
F1088E
330
F1088F
100
AcDbEntity
8
Geo
100
AcDbLine
10
-93.0450374173297
20
1.09578484766858
30
0.000000000000000
11
-92.9450374173297
21
0.904838088046648
31
0.000000000000000
  0
LINE
  5
F10890
330
F10891
100
AcDbEntity
8
Geo
100
AcDbLine
10
-92.9450374173297
20
-4.51974827534420
30
0.000000000000000
11
-92.8450374173297
21
-4.53352467626182
31
0.000000000000000
  0
LINE
  5
F10892
330
F10893
100
AcDbEntity
8
Geo
100
AcDbLine
10
-92.9450374173297
20
0.904838088046648
30
0.000000000000000
11
-92.8450374173297
21
0.713219283090411
31
0.000000000000000
  0
LINE
  5
F10894
330
F10895
100
AcDbEntity
8
Geo
100
AcDbLine
10
-92.8450374173297
20
-4.53352467626182
30
0.000000000000000
11
-92.7450374173297
21
-4.53991728341056
31
0.000000000000000
  0
LINE
  5
F10896
330
F10897
100
AcDbEntity
8
Geo
100
AcDbLine
10
-92.8450374173297
20
0.713219283090411
30
0.000000000000000
11
-92.7450374173297
21
0.521212277465768
31
0.000000000000000
  0
LINE
  5
F10898
330
F10899
100
AcDbEntity
8
Geo
100
AcDbLine
10
-92.7450374173297
20
0.521212277465768
30
0.000000000000000
11
-92.6450374173297
21
0.329101490879719
31
0.000000000000000
  0
LINE
  5
F1089A
330
F1089B
100
AcDbEntity
8
Geo
100
AcDbLine
10
-92.6450374173297
20
5.44121958636001
30
0.000000000000000
11
-92.5450374173297
21
5.43282714952134
31
0.000000000000000
  0
LINE
  5
F1089C
330
F1089D
100
AcDbEntity
8
Geo
100
AcDbLine
10
-92.6450374173297
20
0.329101490879719
30
0.000000000000000
11
-92.5450374173297
21
0.137171496769865
31
0.000000000000000
  0
LINE
  5
F1089E
330
F1089F
100
AcDbEntity
8
Geo
100
AcDbLine
10
-92.5450374173297
20
5.43282714952134
30
0.000000000000000
11
-92.4450374173297
21
5.41705536352898
31
0.000000000000000
  0
LINE
  5
F108A0
330
F108A1
100
AcDbEntity
8
Geo
100
AcDbLine
10
-92.5450374173297
20
0.137171496769865
30
0.000000000000000
11
-92.4450374173297
21
-0.0542933992338432
31
0.000000000000000
  0
LINE
  5
F108A2
330
F108A3
100
AcDbEntity
8
Geo
100
AcDbLine
10
-92.4450374173297
20
5.41705536352898
30
0.000000000000000
11
-92.3450374173297
21
5.39392759110731
31
0.000000000000000
  0
LINE
  5
F108A4
330
F108A5
100
AcDbEntity
8
Geo
100
AcDbLine
10
-92.4450374173297
20
-0.0542933992338432
30
0.000000000000000
11
-92.3450374173297
21
-0.245009580450621
31
0.000000000000000
  0
LINE
  5
F108A6
330
F108A7
100
AcDbEntity
8
Geo
100
AcDbLine
10
-92.3450374173297
20
5.39392759110731
30
0.000000000000000
11
-92.2450374173297
21
5.36347809139304
31
0.000000000000000
  0
LINE
  5
F108A8
330
F108A9
100
AcDbEntity
8
Geo
100
AcDbLine
10
-92.3450374173297
20
-0.245009580450621
30
0.000000000000000
11
-92.2450374173297
21
-0.434694539269844
31
0.000000000000000
  0
LINE
  5
F108AA
330
F108AB
100
AcDbEntity
8
Geo
100
AcDbLine
10
-92.2450374173297
20
5.36347809139304
30
0.000000000000000
11
-92.1450374173297
21
5.32575196918722
31
0.000000000000000
  0
LINE
  5
F108AC
330
F108AD
100
AcDbEntity
8
Geo
100
AcDbLine
10
-92.2450374173297
20
-0.434694539269844
30
0.000000000000000
11
-92.1450374173297
21
-0.623067295629172
31
0.000000000000000
  0
LINE
  5
F108AE
330
F108AF
100
AcDbEntity
8
Geo
100
AcDbLine
10
-92.1450374173297
20
5.32575196918722
30
0.000000000000000
11
-92.0450374173297
21
5.28080510814153
31
0.000000000000000
  0
LINE
  5
F108B0
330
F108B1
100
AcDbEntity
8
Geo
100
AcDbLine
10
-92.1450374173297
20
-0.623067295629172
30
0.000000000000000
11
-92.0450374173297
21
-0.809848813229921
31
0.000000000000000
  0
LINE
  5
F108B2
330
F108B3
100
AcDbEntity
8
Geo
100
AcDbLine
10
-92.0450374173297
20
5.28080510814153
30
0.000000000000000
11
-91.9450374173297
21
5.22870408797793
31
0.000000000000000
  0
LINE
  5
F108B4
330
F108B5
100
AcDbEntity
8
Geo
100
AcDbLine
10
-92.0450374173297
20
-0.809848813229921
30
0.000000000000000
11
-91.9450374173297
21
-0.994762412873138
31
0.000000000000000
  0
LINE
  5
F108B6
330
F108B7
100
AcDbEntity
8
Geo
100
AcDbLine
10
-91.9450374173297
20
5.22870408797793
30
0.000000000000000
11
-91.8450374173297
21
5.16952608586422
31
0.000000000000000
  0
LINE
  5
F108B8
330
F108B9
100
AcDbEntity
8
Geo
100
AcDbLine
10
-91.9450374173297
20
-0.994762412873138
30
0.000000000000000
11
-91.8450374173297
21
-1.17753418230411
31
0.000000000000000
  0
LINE
  5
F108BA
330
F108BB
100
AcDbEntity
8
Geo
100
AcDbLine
10
-91.8450374173297
20
5.16952608586422
30
0.000000000000000
11
-91.7450374173297
21
5.10335876209157
31
0.000000000000000
  0
LINE
  5
F108BC
330
F108BD
100
AcDbEntity
8
Geo
100
AcDbLine
10
-91.8450374173297
20
-1.17753418230411
30
0.000000000000000
11
-91.7450374173297
21
-1.35789338195820
31
0.000000000000000
  0
LINE
  5
F108BE
330
F108BF
100
AcDbEntity
8
Geo
100
AcDbLine
10
-91.7450374173297
20
5.10335876209157
30
0.000000000000000
11
-91.6450374173297
21
5.03030013022349
31
0.000000000000000
  0
LINE
  5
F108C0
330
F108C1
100
AcDbEntity
8
Geo
100
AcDbLine
10
-91.7450374173297
20
-1.35789338195820
30
0.000000000000000
11
-91.6450374173297
21
-1.53557284600699
31
0.000000000000000
  0
LINE
  5
F108C2
330
F108C3
100
AcDbEntity
8
Geo
100
AcDbLine
10
-91.6450374173297
20
5.03030013022349
30
0.000000000000000
11
-91.5450374173297
21
4.95045841190848
31
0.000000000000000
  0
LINE
  5
F108C4
330
F108C5
100
AcDbEntity
8
Geo
100
AcDbLine
10
-91.6450374173297
20
-1.53557284600699
30
0.000000000000000
11
-91.5450374173297
21
-1.71030937811063
31
0.000000000000000
  0
LINE
  5
F108C6
330
F108C7
100
AcDbEntity
8
Geo
100
AcDbLine
10
-91.5450374173297
20
4.95045841190848
30
0.000000000000000
11
-91.4450374173297
21
4.86395187657143
31
0.000000000000000
  0
LINE
  5
F108C8
330
F108C9
100
AcDbEntity
8
Geo
100
AcDbLine
10
-91.5450374173297
20
-1.71030937811063
30
0.000000000000000
11
-91.4450374173297
21
-1.88184414129022
31
0.000000000000000
  0
LINE
  5
F108CA
330
F108CB
100
AcDbEntity
8
Geo
100
AcDbLine
10
-91.4450374173297
20
4.86395187657143
30
0.000000000000000
11
-91.3450374173297
21
4.77090866622128
31
0.000000000000000
  0
LINE
  5
F108CC
330
F108CD
100
AcDbEntity
8
Geo
100
AcDbLine
10
-91.4450374173297
20
-1.88184414129022
30
0.000000000000000
11
-91.3450374173297
21
-2.04992304134266
31
0.000000000000000
  0
LINE
  5
F108CE
330
F108CF
100
AcDbEntity
8
Geo
100
AcDbLine
10
-91.3450374173297
20
4.77090866622128
30
0.000000000000000
11
-91.2450374173297
21
4.67146660563449
31
0.000000000000000
  0
LINE
  5
F108D0
330
F108D1
100
AcDbEntity
8
Geo
100
AcDbLine
10
-91.3450374173297
20
-2.04992304134266
30
0.000000000000000
11
-91.2450374173297
21
-2.21429710323003
31
0.000000000000000
  0
LINE
  5
F108D2
330
F108D3
100
AcDbEntity
8
Geo
100
AcDbLine
10
-91.2450374173297
20
4.67146660563449
30
0.000000000000000
11
-91.1450374173297
21
4.56577299819534
31
0.000000000000000
  0
LINE
  5
F108D4
330
F108D5
100
AcDbEntity
8
Geo
100
AcDbLine
10
-91.2450374173297
20
-2.21429710323003
30
0.000000000000000
11
-91.1450374173297
21
-2.37472283988597
31
0.000000000000000
  0
LINE
  5
F108D6
330
F108D7
100
AcDbEntity
8
Geo
100
AcDbLine
10
-91.1450374173297
20
4.56577299819534
30
0.000000000000000
11
-91.0450374173297
21
4.45398440769567
31
0.000000000000000
  0
LINE
  5
F108D8
330
F108D9
100
AcDbEntity
8
Geo
100
AcDbLine
10
-91.1450374173297
20
-2.37472283988597
30
0.000000000000000
11
-91.0450374173297
21
-2.53096261289271
31
0.000000000000000
  0
LINE
  5
F108DA
330
F108DB
100
AcDbEntity
8
Geo
100
AcDbLine
10
-91.0450374173297
20
4.45398440769567
30
0.000000000000000
11
-90.9450374173297
21
4.33626642641715
31
0.000000000000000
  0
LINE
  5
F108DC
330
F108DD
100
AcDbEntity
8
Geo
100
AcDbLine
10
-91.0450374173297
20
-2.53096261289271
30
0.000000000000000
11
-90.9450374173297
21
-2.68278498449455
31
0.000000000000000
  0
LINE
  5
F108DE
330
F108DF
100
AcDbEntity
8
Geo
100
AcDbLine
10
-90.9450374173297
20
4.33626642641715
30
0.000000000000000
11
-90.8450374173297
21
4.21279342983964
31
0.000000000000000
  0
LINE
  5
F108E0
330
F108E1
100
AcDbEntity
8
Geo
100
AcDbLine
10
-90.9450374173297
20
-2.68278498449455
30
0.000000000000000
11
-90.8450374173297
21
-2.82996506042628
31
0.000000000000000
  0
LINE
  5
F108E2
330
F108E3
100
AcDbEntity
8
Geo
100
AcDbLine
10
-90.8450374173297
20
4.21279342983964
30
0.000000000000000
11
-90.7450374173297
21
4.08374831833906
31
0.000000000000000
  0
LINE
  5
F108E4
330
F108E5
100
AcDbEntity
8
Geo
100
AcDbLine
10
-90.8450374173297
20
-2.82996506042628
30
0.000000000000000
11
-90.7450374173297
21
-2.97228482304871
31
0.000000000000000
  0
LINE
  5
F108E6
330
F108E7
100
AcDbEntity
8
Geo
100
AcDbLine
10
-90.7450374173297
20
4.08374831833906
30
0.000000000000000
11
-90.6450374173297
21
3.94932224625734
31
0.000000000000000
  0
LINE
  5
F108E8
330
F108E9
100
AcDbEntity
8
Geo
100
AcDbLine
10
-90.7450374173297
20
-2.97228482304871
30
0.000000000000000
11
-90.6450374173297
21
-3.10953345429791
31
0.000000000000000
  0
LINE
  5
F108EA
330
F108EB
100
AcDbEntity
8
Geo
100
AcDbLine
10
-90.6450374173297
20
3.94932224625734
30
0.000000000000000
11
-90.5450374173297
21
3.80971433874571
31
0.000000000000000
  0
LINE
  5
F108EC
330
F108ED
100
AcDbEntity
8
Geo
100
AcDbLine
10
-90.6450374173297
20
-3.10953345429791
30
0.000000000000000
11
-90.5450374173297
21
-3.24150764796972
31
0.000000000000000
  0
LINE
  5
F108EE
330
F108EF
100
AcDbEntity
8
Geo
100
AcDbLine
10
-90.5450374173297
20
3.80971433874571
30
0.000000000000000
11
-90.4450374173297
21
3.66513139680095
31
0.000000000000000
  0
LINE
  5
F108F0
330
F108F1
100
AcDbEntity
8
Geo
100
AcDbLine
10
-90.5450374173297
20
-3.24150764796972
30
0.000000000000000
11
-90.4450374173297
21
-3.36801191087693
31
0.000000000000000
  0
LINE
  5
F108F2
330
F108F3
100
AcDbEntity
8
Geo
100
AcDbLine
10
-90.4450374173297
20
3.66513139680095
30
0.000000000000000
11
-90.3450374173297
21
3.51578759093132
31
0.000000000000000
  0
LINE
  5
F108F4
330
F108F5
100
AcDbEntity
8
Geo
100
AcDbLine
10
-90.4450374173297
20
-3.36801191087693
30
0.000000000000000
11
-90.3450374173297
21
-3.48885885243308
31
0.000000000000000
  0
LINE
  5
F108F6
330
F108F7
100
AcDbEntity
8
Geo
100
AcDbLine
10
-90.3450374173297
20
3.51578759093132
30
0.000000000000000
11
-90.2450374173297
21
3.36190414390612
31
0.000000000000000
  0
LINE
  5
F108F8
330
F108F9
100
AcDbEntity
8
Geo
100
AcDbLine
10
-90.3450374173297
20
-3.48885885243308
30
0.000000000000000
11
-90.2450374173297
21
-3.60386946223383
31
0.000000000000000
  0
LINE
  5
F108FA
330
F108FB
100
AcDbEntity
8
Geo
100
AcDbLine
10
-90.2450374173297
20
3.36190414390612
30
0.000000000000000
11
-90.1450374173297
21
3.20370900305868
31
0.000000000000000
  0
LINE
  5
F108FC
330
F108FD
100
AcDbEntity
8
Geo
100
AcDbLine
10
-90.2450374173297
20
-3.60386946223383
30
0.000000000000000
11
-90.1450374173297
21
-3.71287337522487
31
0.000000000000000
  0
LINE
  5
F108FE
330
F108FF
100
AcDbEntity
8
Geo
100
AcDbLine
10
-90.1450374173297
20
3.20370900305868
30
0.000000000000000
11
-90.0450374173297
21
3.04143650262835
31
0.000000000000000
  0
LINE
  5
F10900
330
F10901
100
AcDbEntity
8
Geo
100
AcDbLine
10
-90.1450374173297
20
-3.71287337522487
30
0.000000000000000
11
-90.0450374173297
21
-3.81570912406343
31
0.000000000000000
  0
LINE
  5
F10902
330
F10903
100
AcDbEntity
8
Geo
100
AcDbLine
10
-90.0450374173297
20
3.04143650262835
30
0.000000000000000
11
-89.9450374173297
21
2.87532701664145
31
0.000000000000000
  0
LINE
  5
F10904
330
F10905
100
AcDbEntity
8
Geo
100
AcDbLine
10
-90.0450374173297
20
-3.81570912406343
30
0.000000000000000
11
-89.9450374173297
21
-3.91222437829957
31
0.000000000000000
  0
LINE
  5
F10906
330
F10907
100
AcDbEntity
8
Geo
100
AcDbLine
10
-89.9450374173297
20
2.87532701664145
30
0.000000000000000
11
-89.8450374173297
21
2.70562660284563
31
0.000000000000000
  0
LINE
  5
F10908
330
F10909
100
AcDbEntity
8
Geo
100
AcDbLine
10
-89.9450374173297
20
-3.91222437829957
30
0.000000000000000
11
-89.8450374173297
21
-4.00227617002314
31
0.000000000000000
  0
LINE
  5
F1090A
330
F1090B
100
AcDbEntity
8
Geo
100
AcDbLine
10
-89.8450374173297
20
2.70562660284563
30
0.000000000000000
11
-89.7450374173297
21
2.53258663822482
31
0.000000000000000
  0
LINE
  5
F1090C
330
F1090D
100
AcDbEntity
8
Geo
100
AcDbLine
10
-89.8450374173297
20
-4.00227617002314
30
0.000000000000000
11
-89.7450374173297
21
-4.08573110564189
31
0.000000000000000
  0
LINE
  5
F1090E
330
F1090F
100
AcDbEntity
8
Geo
100
AcDbLine
10
-89.7450374173297
20
2.53258663822482
30
0.000000000000000
11
-89.6450374173297
21
2.35646344663490
31
0.000000000000000
  0
LINE
  5
F10910
330
F10911
100
AcDbEntity
8
Geo
100
AcDbLine
10
-89.7450374173297
20
-4.08573110564189
30
0.000000000000000
11
-89.6450374173297
21
-4.16246556347722
31
0.000000000000000
  0
LINE
  5
F10912
330
F10913
100
AcDbEntity
8
Geo
100
AcDbLine
10
-89.6450374173297
20
2.35646344663490
30
0.000000000000000
11
-89.5450374173297
21
2.17751791911153
31
0.000000000000000
  0
LINE
  5
F10914
330
F10915
100
AcDbEntity
8
Geo
100
AcDbLine
10
-89.6450374173297
20
-4.16246556347722
30
0.000000000000000
11
-89.5450374173297
21
-4.23236587688482
31
0.000000000000000
  0
LINE
  5
F10916
330
F10917
100
AcDbEntity
8
Geo
100
AcDbLine
10
-89.5450374173297
20
2.17751791911153
30
0.000000000000000
11
-89.4450374173297
21
1.99601512741258
31
0.000000000000000
  0
LINE
  5
F10918
330
F10919
100
AcDbEntity
8
Geo
100
AcDbLine
10
-89.5450374173297
20
-4.23236587688482
30
0.000000000000000
11
-89.4450374173297
21
-4.29532850262889
31
0.000000000000000
  0
LINE
  5
F1091A
330
F1091B
100
AcDbEntity
8
Geo
100
AcDbLine
10
-89.4450374173297
20
1.99601512741258
30
0.000000000000000
11
-89.3450374173297
21
1.81222393136776
31
0.000000000000000
  0
LINE
  5
F1091C
330
F1091D
100
AcDbEntity
8
Geo
100
AcDbLine
10
-89.4450374173297
20
-4.29532850262889
30
0.000000000000000
11
-89.3450374173297
21
-4.35126017426060
31
0.000000000000000
  0
LINE
  5
F1091E
330
F1091F
100
AcDbEntity
8
Geo
100
AcDbLine
10
-89.3450374173297
20
1.81222393136776
30
0.000000000000000
11
-89.2450374173297
21
1.62641658061693
31
0.000000000000000
  0
LINE
  5
F10920
330
F10921
100
AcDbEntity
8
Geo
100
AcDbLine
10
-89.3450374173297
20
-4.35126017426060
30
0.000000000000000
11
-89.2450374173297
21
-4.40007804027353
31
0.000000000000000
  0
LINE
  5
F10922
330
F10923
100
AcDbEntity
8
Geo
100
AcDbLine
10
-89.2450374173297
20
1.62641658061693
30
0.000000000000000
11
-89.1450374173297
21
1.43886831132704
31
0.000000000000000
  0
LINE
  5
F10924
330
F10925
100
AcDbEntity
8
Geo
100
AcDbLine
10
-89.2450374173297
20
-4.40007804027353
30
0.000000000000000
11
-89.1450374173297
21
-4.44170978683151
31
0.000000000000000
  0
LINE
  5
F10926
330
F10927
100
AcDbEntity
8
Geo
100
AcDbLine
10
-89.1450374173297
20
1.43886831132704
30
0.000000000000000
11
-89.0450374173297
21
1.24985693848525
31
0.000000000000000
  0
LINE
  5
F10928
330
F10929
100
AcDbEntity
8
Geo
100
AcDbLine
10
-89.1450374173297
20
-4.44170978683151
30
0.000000000000000
11
-89.0450374173297
21
-4.47609374488700
31
0.000000000000000
  0
LINE
  5
F1092A
330
F1092B
100
AcDbEntity
8
Geo
100
AcDbLine
10
-89.0450374173297
20
1.24985693848525
30
0.000000000000000
11
-88.9450374173297
21
1.05966244437194
31
0.000000000000000
  0
LINE
  5
F1092C
330
F1092D
100
AcDbEntity
8
Geo
100
AcDbLine
10
-89.0450374173297
20
-4.47609374488700
30
0.000000000000000
11
-88.9450374173297
21
-4.50317898153136
31
0.000000000000000
  0
LINE
  5
F1092E
330
F1092F
100
AcDbEntity
8
Geo
100
AcDbLine
10
-88.9450374173297
20
1.05966244437194
30
0.000000000000000
11
-88.8450374173297
21
0.868566563823364
31
0.000000000000000
  0
LINE
  5
F10930
330
F10931
100
AcDbEntity
8
Geo
100
AcDbLine
10
-88.9450374173297
20
-4.50317898153136
30
0.000000000000000
11
-88.8450374173297
21
-4.52292537544171
31
0.000000000000000
  0
LINE
  5
F10932
330
F10933
100
AcDbEntity
8
Geo
100
AcDbLine
10
-88.8450374173297
20
0.868566563823364
30
0.000000000000000
11
-88.7450374173297
21
0.676852366898226
31
0.000000000000000
  0
LINE
  5
F10934
330
F10935
100
AcDbEntity
8
Geo
100
AcDbLine
10
-88.8450374173297
20
-4.52292537544171
30
0.000000000000000
11
-88.7450374173297
21
-4.53530367631254
31
0.000000000000000
  0
LINE
  5
F10936
330
F10937
100
AcDbEntity
8
Geo
100
AcDbLine
10
-88.7450374173297
20
0.676852366898226
30
0.000000000000000
11
-88.6450374173297
21
0.484803839566418
31
0.000000000000000
  0
LINE
  5
F10938
330
F10939
100
AcDbEntity
8
Geo
100
AcDbLine
10
-88.7450374173297
20
-4.53530367631254
30
0.000000000000000
11
-88.6450374173297
21
-4.54029554818423
31
0.000000000000000
  0
LINE
  5
F1093A
330
F1093B
100
AcDbEntity
8
Geo
100
AcDbLine
10
-88.6450374173297
20
0.484803839566418
30
0.000000000000000
11
-88.5450374173297
21
0.292705463040988
31
0.000000000000000
  0
LINE
  5
F1093C
330
F1093D
100
AcDbEntity
8
Geo
100
AcDbLine
10
-88.5450374173297
20
5.44019655553355
30
0.000000000000000
11
-88.4450374173297
21
5.43040433850886
31
0.000000000000000
  0
LINE
  5
F1093E
330
F1093F
100
AcDbEntity
8
Geo
100
AcDbLine
10
-88.5450374173297
20
0.292705463040988
30
0.000000000000000
11
-88.4450374173297
21
0.100841792376526
31
0.000000000000000
  0
LINE
  5
F10940
330
F10941
100
AcDbEntity
8
Geo
100
AcDbLine
10
-88.4450374173297
20
5.43040433850886
30
0.000000000000000
11
-88.3450374173297
21
5.41323636123703
31
0.000000000000000
  0
LINE
  5
F10942
330
F10943
100
AcDbEntity
8
Geo
100
AcDbLine
10
-88.4450374173297
20
0.100841792376526
30
0.000000000000000
11
-88.3450374173297
21
-0.0905029650418403
31
0.000000000000000
  0
LINE
  5
F10944
330
F10945
100
AcDbEntity
8
Geo
100
AcDbLine
10
-88.3450374173297
20
5.41323636123703
30
0.000000000000000
11
-88.2450374173297
21
5.38871805461861
31
0.000000000000000
  0
LINE
  5
F10946
330
F10947
100
AcDbEntity
8
Geo
100
AcDbLine
10
-88.3450374173297
20
-0.0905029650418403
30
0.000000000000000
11
-88.2450374173297
21
-0.281045370494444
31
0.000000000000000
  0
LINE
  5
F10948
330
F10949
100
AcDbEntity
8
Geo
100
AcDbLine
10
-88.2450374173297
20
5.38871805461861
30
0.000000000000000
11
-88.1450374173297
21
5.35688573758665
31
0.000000000000000
  0
LINE
  5
F1094A
330
F1094B
100
AcDbEntity
8
Geo
100
AcDbLine
10
-88.2450374173297
20
-0.281045370494444
30
0.000000000000000
11
-88.1450374173297
21
-0.470503173784455
31
0.000000000000000
  0
LINE
  5
F1094C
330
F1094D
100
AcDbEntity
8
Geo
100
AcDbLine
10
-88.1450374173297
20
5.35688573758665
30
0.000000000000000
11
-88.0450374173297
21
5.31778656330754
31
0.000000000000000
  0
LINE
  5
F1094E
330
F1094F
100
AcDbEntity
8
Geo
100
AcDbLine
10
-88.1450374173297
20
-0.470503173784455
30
0.000000000000000
11
-88.0450374173297
21
-0.658595731334699
31
0.000000000000000
  0
LINE
  5
F10950
330
F10951
100
AcDbEntity
8
Geo
100
AcDbLine
10
-88.0450374173297
20
5.31778656330754
30
0.000000000000000
11
-87.9450374173297
21
5.27147844933308
31
0.000000000000000
  0
LINE
  5
F10952
330
F10953
100
AcDbEntity
8
Geo
100
AcDbLine
10
-88.0450374173297
20
-0.658595731334699
30
0.000000000000000
11
-87.9450374173297
21
-0.845044421904592
31
0.000000000000000
  0
LINE
  5
F10954
330
F10955
100
AcDbEntity
8
Geo
100
AcDbLine
10
-87.9450374173297
20
5.27147844933308
30
0.000000000000000
11
-87.8450374173297
21
5.21802999180727
31
0.000000000000000
  0
LINE
  5
F10956
330
F10957
100
AcDbEntity
8
Geo
100
AcDbLine
10
-87.9450374173297
20
-0.845044421904592
30
0.000000000000000
11
-87.8450374173297
21
-1.02957305931140
31
0.000000000000000
  0
LINE
  5
F10958
330
F10959
100
AcDbEntity
8
Geo
100
AcDbLine
10
-87.8450374173297
20
5.21802999180727
30
0.000000000000000
11
-87.7450374173297
21
5.15752036385496
31
0.000000000000000
  0
LINE
  5
F1095A
330
F1095B
100
AcDbEntity
8
Geo
100
AcDbLine
10
-87.8450374173297
20
-1.02957305931140
30
0.000000000000000
11
-87.7450374173297
21
-1.21190830154441
31
0.000000000000000
  0
LINE
  5
F1095C
330
F1095D
100
AcDbEntity
8
Geo
100
AcDbLine
10
-87.7450374173297
20
5.15752036385496
30
0.000000000000000
11
-87.6450374173297
21
5.09003919830283
31
0.000000000000000
  0
LINE
  5
F1095E
330
F1095F
100
AcDbEntity
8
Geo
100
AcDbLine
10
-87.7450374173297
20
-1.21190830154441
30
0.000000000000000
11
-87.6450374173297
21
-1.39178005566613
31
0.000000000000000
  0
LINE
  5
F10960
330
F10961
100
AcDbEntity
8
Geo
100
AcDbLine
10
-87.6450374173297
20
5.09003919830283
30
0.000000000000000
11
-87.5450374173297
21
5.01568645490634
31
0.000000000000000
  0
LINE
  5
F10962
330
F10963
100
AcDbEntity
8
Geo
100
AcDbLine
10
-87.6450374173297
20
-1.39178005566613
30
0.000000000000000
11
-87.5450374173297
21
-1.56892187790052
31
0.000000000000000
  0
LINE
  5
F10964
330
F10965
100
AcDbEntity
8
Geo
100
AcDbLine
10
-87.5450374173297
20
5.01568645490634
30
0.000000000000000
11
-87.4450374173297
21
4.93457227227959
31
0.000000000000000
  0
LINE
  5
F10966
330
F10967
100
AcDbEntity
8
Geo
100
AcDbLine
10
-87.5450374173297
20
-1.56892187790052
30
0.000000000000000
11
-87.4450374173297
21
-1.74307136831578
31
0.000000000000000
  0
LINE
  5
F10968
330
F10969
100
AcDbEntity
8
Geo
100
AcDbLine
10
-87.4450374173297
20
4.93457227227959
30
0.000000000000000
11
-87.3450374173297
21
4.84681680474705
31
0.000000000000000
  0
LINE
  5
F1096A
330
F1096B
100
AcDbEntity
8
Geo
100
AcDbLine
10
-87.4450374173297
20
-1.74307136831578
30
0.000000000000000
11
-87.3450374173297
21
-1.91397055951704
31
0.000000000000000
  0
LINE
  5
F1096C
330
F1096D
100
AcDbEntity
8
Geo
100
AcDbLine
10
-87.3450374173297
20
4.84681680474705
30
0.000000000000000
11
-87.2450374173297
21
4.75255004435918
31
0.000000000000000
  0
LINE
  5
F1096E
330
F1096F
100
AcDbEntity
8
Geo
100
AcDbLine
10
-87.3450374173297
20
-1.91397055951704
30
0.000000000000000
11
-87.2450374173297
21
-2.08136629877308
31
0.000000000000000
  0
LINE
  5
F10970
330
F10971
100
AcDbEntity
8
Geo
100
AcDbLine
10
-87.2450374173297
20
4.75255004435918
30
0.000000000000000
11
-87.1450374173297
21
4.65191162833537
31
0.000000000000000
  0
LINE
  5
F10972
330
F10973
100
AcDbEntity
8
Geo
100
AcDbLine
10
-87.2450374173297
20
-2.08136629877308
30
0.000000000000000
11
-87.1450374173297
21
-2.24501062301110
31
0.000000000000000
  0
LINE
  5
F10974
330
F10975
100
AcDbEntity
8
Geo
100
AcDbLine
10
-87.1450374173297
20
4.65191162833537
30
0.000000000000000
11
-87.0450374173297
21
4.54505063221954
31
0.000000000000000
  0
LINE
  5
F10976
330
F10977
100
AcDbEntity
8
Geo
100
AcDbLine
10
-87.1450374173297
20
-2.24501062301110
30
0.000000000000000
11
-87.0450374173297
21
-2.40466112612409
31
0.000000000000000
  0
LINE
  5
F10978
330
F10979
100
AcDbEntity
8
Geo
100
AcDbLine
10
-87.0450374173297
20
4.54505063221954
30
0.000000000000000
11
-86.9450374173297
21
4.43212534905472
31
0.000000000000000
  0
LINE
  5
F1097A
330
F1097B
100
AcDbEntity
8
Geo
100
AcDbLine
10
-87.0450374173297
20
-2.40466112612409
30
0.000000000000000
11
-86.9450374173297
21
-2.56008131804665
31
0.000000000000000
  0
LINE
  5
F1097C
330
F1097D
100
AcDbEntity
8
Geo
100
AcDbLine
10
-86.9450374173297
20
4.43212534905472
30
0.000000000000000
11
-86.8450374173297
21
4.31330305490382
31
0.000000000000000
  0
LINE
  5
F1097E
330
F1097F
100
AcDbEntity
8
Geo
100
AcDbLine
10
-86.9450374173297
20
-2.56008131804665
30
0.000000000000000
11
-86.8450374173297
21
-2.71104097506738
31
0.000000000000000
  0
LINE
  5
F10980
330
F10981
100
AcDbEntity
8
Geo
100
AcDbLine
10
-86.8450374173297
20
4.31330305490382
30
0.000000000000000
11
-86.7450374173297
21
4.18875976106381
31
0.000000000000000
  0
LINE
  5
F10982
330
F10983
100
AcDbEntity
8
Geo
100
AcDbLine
10
-86.8450374173297
20
-2.71104097506738
30
0.000000000000000
11
-86.7450374173297
21
-2.85731648085896
31
0.000000000000000
  0
LINE
  5
F10984
330
F10985
100
AcDbEntity
8
Geo
100
AcDbLine
10
-86.7450374173297
20
4.18875976106381
30
0.000000000000000
11
-86.6450374173297
21
4.05867995334045
31
0.000000000000000
  0
LINE
  5
F10986
330
F10987
100
AcDbEntity
8
Geo
100
AcDbLine
10
-86.7450374173297
20
-2.85731648085896
30
0.000000000000000
11
-86.6450374173297
21
-2.99869115772067
31
0.000000000000000
  0
LINE
  5
F10988
330
F10989
100
AcDbEntity
8
Geo
100
AcDbLine
10
-86.6450374173297
20
4.05867995334045
30
0.000000000000000
11
-86.5450374173297
21
3.92325631876971
31
0.000000000000000
  0
LINE
  5
F1098A
330
F1098B
100
AcDbEntity
8
Geo
100
AcDbLine
10
-86.6450374173297
20
-2.99869115772067
30
0.000000000000000
11
-86.5450374173297
21
-3.13495558754280
31
0.000000000000000
  0
LINE
  5
F1098C
330
F1098D
100
AcDbEntity
8
Geo
100
AcDbLine
10
-86.5450374173297
20
3.92325631876971
30
0.000000000000000
11
-86.4450374173297
21
3.78268946019073
31
0.000000000000000
  0
LINE
  5
F1098E
330
F1098F
100
AcDbEntity
8
Geo
100
AcDbLine
10
-86.5450374173297
20
-3.13495558754280
30
0.000000000000000
11
-86.4450374173297
21
-3.26590792201737
31
0.000000000000000
  0
LINE
  5
F10990
330
F10991
100
AcDbEntity
8
Geo
100
AcDbLine
10
-86.4450374173297
20
3.78268946019073
30
0.000000000000000
11
-86.3450374173297
21
3.63718759909317
31
0.000000000000000
  0
LINE
  5
F10992
330
F10993
100
AcDbEntity
8
Geo
100
AcDbLine
10
-86.4450374173297
20
-3.26590792201737
30
0.000000000000000
11
-86.3450374173297
21
-3.39135418163575
31
0.000000000000000
  0
LINE
  5
F10994
330
F10995
100
AcDbEntity
8
Geo
100
AcDbLine
10
-86.3450374173297
20
3.63718759909317
30
0.000000000000000
11
-86.2450374173297
21
3.48696626717892
31
0.000000000000000
  0
LINE
  5
F10996
330
F10997
100
AcDbEntity
8
Geo
100
AcDbLine
10
-86.3450374173297
20
-3.39135418163575
30
0.000000000000000
11
-86.2450374173297
21
-3.51110854303027
31
0.000000000000000
  0
LINE
  5
F10998
330
F10999
100
AcDbEntity
8
Geo
100
AcDbLine
10
-86.2450374173297
20
3.48696626717892
30
0.000000000000000
11
-86.1450374173297
21
3.33224798709538
31
0.000000000000000
  0
LINE
  5
F1099A
330
F1099B
100
AcDbEntity
8
Geo
100
AcDbLine
10
-86.2450374173297
20
-3.51110854303027
30
0.000000000000000
11
-86.1450374173297
21
-3.62499361423406
31
0.000000000000000
  0
LINE
  5
F1099C
330
F1099D
100
AcDbEntity
8
Geo
100
AcDbLine
10
-86.1450374173297
20
3.33224798709538
30
0.000000000000000
11
-86.0450374173297
21
3.17326194281292
31
0.000000000000000
  0
LINE
  5
F1099E
330
F1099F
100
AcDbEntity
8
Geo
100
AcDbLine
10
-86.1450374173297
20
-3.62499361423406
30
0.000000000000000
11
-86.0450374173297
21
-3.73284069745153
31
0.000000000000000
  0
LINE
  5
F109A0
330
F109A1
100
AcDbEntity
8
Geo
100
AcDbLine
10
-86.0450374173297
20
3.17326194281292
30
0.000000000000000
11
-85.9450374173297
21
3.01024364013503
31
0.000000000000000
  0
LINE
  5
F109A2
330
F109A3
100
AcDbEntity
8
Geo
100
AcDbLine
10
-86.0450374173297
20
-3.73284069745153
30
0.000000000000000
11
-85.9450374173297
21
-3.83449003895022
31
0.000000000000000
  0
LINE
  5
F109A4
330
F109A5
100
AcDbEntity
8
Geo
100
AcDbLine
10
-85.9450374173297
20
3.01024364013503
30
0.000000000000000
11
-85.8450374173297
21
2.84343455784384
31
0.000000000000000
  0
LINE
  5
F109A6
330
F109A7
100
AcDbEntity
8
Geo
100
AcDbLine
10
-85.9450374173297
20
-3.83449003895022
30
0.000000000000000
11
-85.8450374173297
21
-3.92979106570373
31
0.000000000000000
  0
LINE
  5
F109A8
330
F109A9
100
AcDbEntity
8
Geo
100
AcDbLine
10
-85.8450374173297
20
2.84343455784384
30
0.000000000000000
11
-85.7450374173297
21
2.67308178999803
31
0.000000000000000
  0
LINE
  5
F109AA
330
F109AB
100
AcDbEntity
8
Geo
100
AcDbLine
10
-85.8450374173297
20
-3.92979106570373
30
0.000000000000000
11
-85.7450374173297
21
-4.01860260843536
31
0.000000000000000
  0
LINE
  5
F109AC
330
F109AD
100
AcDbEntity
8
Geo
100
AcDbLine
10
-85.7450374173297
20
2.67308178999803
30
0.000000000000000
11
-85.6450374173297
21
2.49943767991267
31
0.000000000000000
  0
LINE
  5
F109AE
330
F109AF
100
AcDbEntity
8
Geo
100
AcDbLine
10
-85.7450374173297
20
-4.01860260843536
30
0.000000000000000
11
-85.6450374173297
21
-4.10079311073193
31
0.000000000000000
  0
LINE
  5
F109B0
330
F109B1
100
AcDbEntity
8
Geo
100
AcDbLine
10
-85.6450374173297
20
2.49943767991267
30
0.000000000000000
11
-85.5450374173297
21
2.32275944636347
31
0.000000000000000
  0
LINE
  5
F109B2
330
F109B3
100
AcDbEntity
8
Geo
100
AcDbLine
10
-85.6450374173297
20
-4.10079311073193
30
0.000000000000000
11
-85.5450374173297
21
-4.17624082391817
31
0.000000000000000
  0
LINE
  5
F109B4
330
F109B5
100
AcDbEntity
8
Geo
100
AcDbLine
10
-85.5450374173297
20
2.32275944636347
30
0.000000000000000
11
-85.4450374173297
21
2.14330880256893
31
0.000000000000000
  0
LINE
  5
F109B6
330
F109B7
100
AcDbEntity
8
Geo
100
AcDbLine
10
-85.5450374173297
20
-4.17624082391817
30
0.000000000000000
11
-85.4450374173297
21
-4.24483398740279
31
0.000000000000000
  0
LINE
  5
F109B8
330
F109B9
100
AcDbEntity
8
Geo
100
AcDbLine
10
-85.4450374173297
20
2.14330880256893
30
0.000000000000000
11
-85.3450374173297
21
1.96135156851498
31
0.000000000000000
  0
LINE
  5
F109BA
330
F109BB
100
AcDbEntity
8
Geo
100
AcDbLine
10
-85.4450374173297
20
-4.24483398740279
30
0.000000000000000
11
-85.3450374173297
21
-4.30647099422932
31
0.000000000000000
  0
LINE
  5
F109BC
330
F109BD
100
AcDbEntity
8
Geo
100
AcDbLine
10
-85.3450374173297
20
1.96135156851498
30
0.000000000000000
11
-85.2450374173297
21
1.77715727719613
31
0.000000000000000
  0
LINE
  5
F109BE
330
F109BF
100
AcDbEntity
8
Geo
100
AcDbLine
10
-85.3450374173297
20
-4.30647099422932
30
0.000000000000000
11
-85.2450374173297
21
-4.36106054158638
31
0.000000000000000
  0
LINE
  5
F109C0
330
F109C1
100
AcDbEntity
8
Geo
100
AcDbLine
10
-85.2450374173297
20
1.77715727719613
30
0.000000000000000
11
-85.1450374173297
21
1.59099877535670
31
0.000000000000000
  0
LINE
  5
F109C2
330
F109C3
100
AcDbEntity
8
Geo
100
AcDbLine
10
-85.2450374173297
20
-4.36106054158638
30
0.000000000000000
11
-85.1450374173297
21
-4.40852176605434
31
0.000000000000000
  0
LINE
  5
F109C4
330
F109C5
100
AcDbEntity
8
Geo
100
AcDbLine
10
-85.1450374173297
20
1.59099877535670
30
0.000000000000000
11
-85.0450374173297
21
1.40315181932327
31
0.000000000000000
  0
LINE
  5
F109C6
330
F109C7
100
AcDbEntity
8
Geo
100
AcDbLine
10
-85.1450374173297
20
-4.40852176605434
30
0.000000000000000
11
-85.0450374173297
21
-4.44878436338824
31
0.000000000000000
  0
LINE
  5
F109C8
330
F109C9
100
AcDbEntity
8
Geo
100
AcDbLine
10
-85.0450374173297
20
1.40315181932327
30
0.000000000000000
11
-84.9450374173297
21
1.21389466652723
31
0.000000000000000
  0
LINE
  5
F109CA
330
F109CB
100
AcDbEntity
8
Geo
100
AcDbLine
10
-85.0450374173297
20
-4.44878436338824
30
0.000000000000000
11
-84.9450374173297
21
-4.48178869265937
31
0.000000000000000
  0
LINE
  5
F109CC
330
F109CD
100
AcDbEntity
8
Geo
100
AcDbLine
10
-84.9450374173297
20
1.21389466652723
30
0.000000000000000
11
-84.8450374173297
21
1.02350766332247
31
0.000000000000000
  0
LINE
  5
F109CE
330
F109CF
100
AcDbEntity
8
Geo
100
AcDbLine
10
-84.9450374173297
20
-4.48178869265937
30
0.000000000000000
11
-84.8450374173297
21
-4.50748586460126
31
0.000000000000000
  0
LINE
  5
F109D0
330
F109D1
100
AcDbEntity
8
Geo
100
AcDbLine
10
-84.8450374173297
20
1.02350766332247
30
0.000000000000000
11
-84.7450374173297
21
0.832272829708691
31
0.000000000000000
  0
LINE
  5
F109D2
330
F109D3
100
AcDbEntity
8
Geo
100
AcDbLine
10
-84.8450374173297
20
-4.50748586460126
30
0.000000000000000
11
-84.7450374173297
21
-4.52583781402930
31
0.000000000000000
  0
LINE
  5
F109D4
330
F109D5
100
AcDbEntity
8
Geo
100
AcDbLine
10
-84.7450374173297
20
0.832272829708691
30
0.000000000000000
11
-84.6450374173297
21
0.640473441575575
31
0.000000000000000
  0
LINE
  5
F109D6
330
F109D7
100
AcDbEntity
8
Geo
100
AcDbLine
10
-84.7450374173297
20
-4.52583781402930
30
0.000000000000000
11
-84.6450374173297
21
-4.53681735622666
31
0.000000000000000
  0
LINE
  5
F109D8
330
F109D9
100
AcDbEntity
8
Geo
100
AcDbLine
10
-84.6450374173297
20
0.640473441575575
30
0.000000000000000
11
-84.5450374173297
21
0.448393611086632
31
0.000000000000000
  0
LINE
  5
F109DA
330
F109DB
100
AcDbEntity
8
Geo
100
AcDbLine
10
-84.5450374173297
20
5.44271118614250
30
0.000000000000000
11
-84.4450374173297
21
5.43890806676556
31
0.000000000000000
  0
LINE
  5
F109DC
330
F109DD
100
AcDbEntity
8
Geo
100
AcDbLine
10
-84.5450374173297
20
0.448393611086632
30
0.000000000000000
11
-84.4450374173297
21
0.256317865824233
31
0.000000000000000
  0
LINE
  5
F109DE
330
F109DF
100
AcDbEntity
8
Geo
100
AcDbLine
10
-84.4450374173297
20
5.43890806676556
30
0.000000000000000
11
-84.3450374173297
21
5.42771659058079
31
0.000000000000000
  0
LINE
  5
F109E0
330
F109E1
100
AcDbEntity
8
Geo
100
AcDbLine
10
-84.4450374173297
20
0.256317865824233
30
0.000000000000000
11
-84.3450374173297
21
0.0645307273193090
31
0.000000000000000
  0
LINE
  5
F109E2
330
F109E3
100
AcDbEntity
8
Geo
100
AcDbLine
10
-84.3450374173297
20
5.42771659058079
30
0.000000000000000
11
-84.2450374173297
21
5.40915333550608
31
0.000000000000000
  0
LINE
  5
F109E4
330
F109E5
100
AcDbEntity
8
Geo
100
AcDbLine
10
-84.3450374173297
20
0.0645307273193090
30
0.000000000000000
11
-84.2450374173297
21
-0.126683710409992
31
0.000000000000000
  0
LINE
  5
F109E6
330
F109E7
100
AcDbEntity
8
Geo
100
AcDbLine
10
-84.2450374173297
20
5.40915333550608
30
0.000000000000000
11
-84.1450374173297
21
5.38324579926504
31
0.000000000000000
  0
LINE
  5
F109E8
330
F109E9
100
AcDbEntity
8
Geo
100
AcDbLine
10
-84.2450374173297
20
-0.126683710409992
30
0.000000000000000
11
-84.1450374173297
21
-0.317042201686375
31
0.000000000000000
  0
LINE
  5
F109EA
330
F109EB
100
AcDbEntity
8
Geo
100
AcDbLine
10
-84.1450374173297
20
5.38324579926504
30
0.000000000000000
11
-84.0450374173297
21
5.35003235865462
31
0.000000000000000
  0
LINE
  5
F109EC
330
F109ED
100
AcDbEntity
8
Geo
100
AcDbLine
10
-84.1450374173297
20
-0.317042201686375
30
0.000000000000000
11
-84.0450374173297
21
-0.506262768744819
31
0.000000000000000
  0
LINE
  5
F109EE
330
F109EF
100
AcDbEntity
8
Geo
100
AcDbLine
10
-84.0450374173297
20
5.35003235865462
30
0.000000000000000
11
-83.9450374173297
21
5.30956221269761
31
0.000000000000000
  0
LINE
  5
F109F0
330
F109F1
100
AcDbEntity
8
Geo
100
AcDbLine
10
-84.0450374173297
20
-0.506262768744819
30
0.000000000000000
11
-83.9450374173297
21
-0.694065119425842
31
0.000000000000000
  0
LINE
  5
F109F2
330
F109F3
100
AcDbEntity
8
Geo
100
AcDbLine
10
-83.9450374173297
20
5.30956221269761
30
0.000000000000000
11
-83.8450374173297
21
5.26189530976422
31
0.000000000000000
  0
LINE
  5
F109F4
330
F109F5
100
AcDbEntity
8
Geo
100
AcDbLine
10
-83.9450374173297
20
-0.694065119425842
30
0.000000000000000
11
-83.8450374173297
21
-0.880171062371891
31
0.000000000000000
  0
LINE
  5
F109F6
330
F109F7
100
AcDbEntity
8
Geo
100
AcDbLine
10
-100.845037417330
20
0.451151479464784
30
0.000000000000000
11
-100.845037417330
21
0.451151479464784
31
0.000000000000000
  0
LINE
  5
F109F8
330
F109F9
100
AcDbEntity
8
Geo
100
AcDbLine
10
-100.845037417330
20
0.451151479464784
30
0.000000000000000
11
-100.845037417330
21
0.451151479464784
31
0.000000000000000
  0
LINE
  5
F109FA
330
F109FB
100
AcDbEntity
8
Geo
100
AcDbLine
10
-101.845037417330
20
0.451151479464784
30
0.000000000000000
11
-101.545037417330
21
0.451151479464784
31
0.000000000000000
  0
LINE
  5
F109FC
330
F109FD
100
AcDbEntity
8
Geo
100
AcDbLine
10
-101.417537417330
20
0.451151479464784
30
0.000000000000000
11
-101.332537417330
21
0.451151479464784
31
0.000000000000000
  0
LINE
  5
F109FE
330
F109FF
100
AcDbEntity
8
Geo
100
AcDbLine
10
-101.120037417330
20
0.451151479464784
30
0.000000000000000
11
-100.695037417330
21
0.451151479464784
31
0.000000000000000
  0
LINE
  5
F10A00
330
F10A01
100
AcDbEntity
8
Geo
100
AcDbLine
10
-100.567537417330
20
0.451151479464784
30
0.000000000000000
11
-100.482537417330
21
0.451151479464784
31
0.000000000000000
  0
LINE
  5
F10A02
330
F10A03
100
AcDbEntity
8
Geo
100
AcDbLine
10
-100.270037417330
20
0.451151479464784
30
0.000000000000000
11
-99.8450374173297
21
0.451151479464784
31
0.000000000000000
  0
LINE
  5
F10A04
330
F10A05
100
AcDbEntity
8
Geo
100
AcDbLine
10
-30.8450374173297
20
4.45115147946478
30
0.000000000000000
11
-30.8450374173297
21
0.451151479464784
31
0.000000000000000
  0
LINE
  5
F10A06
330
F10A07
100
AcDbEntity
8
Geo
100
AcDbLine
10
-100.688198726766
20
0.451151479464784
30
0.000000000000000
11
-100.844732830839
21
-4.03139877218397
31
0.000000000000000
  0
ARC
  5
F10A08
330
F10A09
100
AcDbEntity
8
Geo
100
AcDbCircle
10
-100.345037417330
20
-4.04884852053522
30
0.000000000000000
 40
0.500000000000000
100
AcDbArc
 50
178.000000000000
 51
270.000000000000
  0
LINE
  5
F10A0A
330
F10A0B
100
AcDbEntity
8
Geo
100
AcDbLine
10
-100.345037417330
20
-4.54884852053522
30
0.000000000000000
11
-78.8450374173297
21
-4.54884852053522
31
0.000000000000000
  0
LINE
  5
F10A0C
330
F10A0D
100
AcDbEntity
8
Geo
100
AcDbLine
10
-78.8450374173297
20
-4.54884852053522
30
0.000000000000000
11
-31.8450374173297
21
-4.54884852053522
31
0.000000000000000
  0
LINE
  5
F10A0E
330
F10A0F
100
AcDbEntity
8
Geo
100
AcDbLine
10
-31.8450374173297
20
-4.54884852053522
30
0.000000000000000
11
-30.8450374173297
21
-3.54884852053522
31
0.000000000000000
  0
LINE
  5
F10A10
330
F10A11
100
AcDbEntity
8
Geo
100
AcDbLine
10
-100.345037417330
20
5.45115147946478
30
0.000000000000000
11
-100.345037417330
21
-4.54884852053522
31
0.000000000000000
  0
LINE
  5
F10A12
330
F10A13
100
AcDbEntity
8
Geo
100
AcDbLine
10
-100.345037417330
20
5.45115147946478
30
0.000000000000000
11
-100.345037417330
21
-4.54884852053522
31
0.000000000000000
  0
LINE
  5
F10A14
330
F10A15
100
AcDbEntity
8
Geo
100
AcDbLine
10
-78.8450374173297
20
5.45115147946478
30
0.000000000000000
11
-78.8450374173297
21
-4.54884852053522
31
0.000000000000000
  0
LINE
  5
F10A16
330
F10A17
100
AcDbEntity
8
Geo
100
AcDbLine
10
-78.8450374173297
20
5.45115147946478
30
0.000000000000000
11
-78.8450374173297
21
-4.54884852053522
31
0.000000000000000
  0
LINE
  5
F10A18
330
F10A19
100
AcDbEntity
8
Geo
100
AcDbLine
10
-31.8450374173297
20
5.45115147946478
30
0.000000000000000
11
-31.8450374173297
21
-4.54884852053522
31
0.000000000000000
  0
LINE
  5
F10A1A
330
F10A1B
100
AcDbEntity
8
Geo
100
AcDbLine
10
-30.8450374173297
20
4.45115147946478
30
0.000000000000000
11
-30.8450374173297
21
-3.54884852053522
31
0.000000000000000
  0
LWPOLYLINE
  5
F10A1C
330
F10A1D
100
AcDbEntity
8
Rahmen
100
AcDbPolyline
90
   4
70
   1
43
   0.0
 10
-134.609993577736
 20
92.9575011434214
 10
134.400739006350
 20
92.9575011434214
 10
134.400739006350
 20
-102.964200625095
 10
-134.609993577736
 20
-102.964200625095
  0
TEXT
  5
F10A1E
330
F10A1F
 100
AcDbEntity
8
Text
100
AcDbText
10
-133.532514007974
20
-102.464200625095
30
0.000000000000000
40
1.00000000000000
1
ISBESketcher
100
AcDbText
  0
LWPOLYLINE
  5
F10A20
330
F10A21
100
AcDbEntity
8
Rahmen
100
AcDbPolyline
90
   4
70
   1
43
   0.0
 10
94.3544149968360
 20
-100.090921772395
 10
134.400739006350
 20
-100.090921772395
 10
134.400739006350
 20
-102.964200625095
 10
94.3544149968360
 20
-102.964200625095
  0
TEXT
  5
F10A22
330
F10A23
 100
AcDbEntity
8
Text
100
AcDbText
10
95.5000000000000
20
-101.968319713175
30
0.000000000000000
40
0.750000000000000
1
Created by:
100
AcDbText
  0
TEXT
  5
F10A24
330
F10A25
 100
AcDbEntity
8
Text
100
AcDbText
10
120.345040860475
20
-101.968319713175
30
0.000000000000000
40
0.750000000000000
1
nsarkol
100
AcDbText
  0
LWPOLYLINE
  5
F10A26
330
F10A27
100
AcDbEntity
8
Rahmen
100
AcDbPolyline
90
   4
70
   1
43
   0.0
 10
54.4876709156163
 20
-100.090921772395
 10
94.3544149968360
 20
-100.090921772395
 10
94.3544149968360
 20
-102.964200625095
 10
54.4876709156163
 20
-102.964200625095
  0
TEXT
  5
F10A28
330
F10A29
 100
AcDbEntity
8
Text
100
AcDbText
10
55.5000000000000
20
-101.968319713175
30
0.000000000000000
40
0.750000000000000
1
Created for:
100
AcDbText
  0
TEXT
  5
F10A2A
330
F10A2B
 100
AcDbEntity
8
Text
100
AcDbText
10
0.000000000000000
20
0.250000000000000
30
0.000000000000000
40
0.750000000000000
1

100
AcDbText
  0
LWPOLYLINE
  5
F10A2C
330
F10A2D
100
AcDbEntity
8
Rahmen
100
AcDbPolyline
90
   4
70
   1
43
   0.0
 10
121.111824312610
 20
-97.0380629914003
 10
134.400739006350
 20
-97.0380629914003
 10
134.400739006350
 20
-100.090921772395
 10
121.111824312610
 20
-100.090921772395
  0
TEXT
  5
F10A2E
330
F10A2F
 100
AcDbEntity
8
Text
100
AcDbText
10
122.166666666667
20
-98.9683197131751
30
0.000000000000000
40
0.750000000000000
1
Pages
100
AcDbText
  0
TEXT
  5
F10A30
330
F10A31
 100
AcDbEntity
8
Text
100
AcDbText
10
0.000000000000000
20
0.250000000000000
30
0.000000000000000
40
0.750000000000000
1

100
AcDbText
  0
LWPOLYLINE
  5
F10A32
330
F10A33
100
AcDbEntity
8
Rahmen
100
AcDbPolyline
90
   4
70
   1
43
   0.0
 10
121.111824312610
 20
-94.1647841386998
 10
134.400739006350
 20
-94.1647841386998
 10
134.400739006350
 20
-97.0380629914003
 10
121.111824312610
 20
-97.0380629914003
  0
TEXT
  5
F10A34
330
F10A35
 100
AcDbEntity
8
Text
100
AcDbText
10
122.166666666667
20
-95.9683197131751
30
0.000000000000000
40
0.750000000000000
1
Page
100
AcDbText
  0
TEXT
  5
F10A36
330
F10A37
 100
AcDbEntity
8
Text
100
AcDbText
10
0.000000000000000
20
0.250000000000000
30
0.000000000000000
40
0.750000000000000
1

100
AcDbText
  0
LWPOLYLINE
  5
F10A38
330
F10A39
100
AcDbEntity
8
Rahmen
100
AcDbPolyline
90
   4
70
   1
43
   0.0
 10
54.4876709156163
 20
-94.1647841386998
 10
121.111824312610
 20
-94.1647841386998
 10
121.111824312610
 20
-100.090921772395
 10
54.4876709156163
 20
-100.090921772395
  0
TEXT
  5
F10A3A
330
F10A3B
 100
AcDbEntity
8
Text
100
AcDbText
10
55.5000000000000
20
-95.9683197131751
30
0.000000000000000
40
0.750000000000000
1
Date:
100
AcDbText
  0
TEXT
  5
F10A3C
330
F10A3D
 100
AcDbEntity
8
Text
100
AcDbText
10
84.5111046598984
20
-98.9683197131751
30
0.000000000000000
40
0.750000000000000
1
05.07.2016
100
AcDbText
  0
LWPOLYLINE
  5
F10A3E
330
F10A3F
100
AcDbEntity
8
Rahmen
100
AcDbPolyline
90
   4
70
   1
43
   0.0
 10
54.4876709156163
 20
-88.0590665767112
 10
134.400739006350
 20
-88.0590665767112
 10
134.400739006350
 20
-94.1647841386998
 10
54.4876709156163
 20
-94.1647841386998
  0
TEXT
  5
F10A40
330
F10A41
 100
AcDbEntity
8
Text
100
AcDbText
10
0.000000000000000
20
0.500000000000000
30
0.000000000000000
40
1.50000000000000
1

100
AcDbText
  0
TEXT
  5
F10A42
330
F10A43
 100
AcDbEntity
8
Text
100
AcDbText
10
65.4978415805542
20
-92.6807856627796
30
0.000000000000000
40
2.50000000000000
1
VHVTR 5 100 070 10 03 050
100
AcDbText
  0
LWPOLYLINE
  5
F10A44
330
F10A45
100
AcDbEntity
8
Rahmen
100
AcDbPolyline
90
   4
70
   1
43
   0.0
 10
94.3544149968360
 20
-82.1329289430164
 10
134.400739006350
 20
-82.1329289430164
 10
134.400739006350
 20
-88.0590665767112
 10
94.3544149968360
 20
-88.0590665767112
  0
TEXT
  5
F10A46
330
F10A47
 100
AcDbEntity
8
Text
100
AcDbText
10
95.5000000000000
20
-83.9683197131751
30
0.000000000000000
40
0.750000000000000
1
Work piece material:
100
AcDbText
  0
TEXT
  5
F10A48
330
F10A49
 100
AcDbEntity
8
Text
100
AcDbText
10
0.000000000000000
20
0.250000000000000
30
0.000000000000000
40
0.750000000000000
1

100
AcDbText
  0
LWPOLYLINE
  5
F10A4A
330
F10A4B
100
AcDbEntity
8
Rahmen
100
AcDbPolyline
90
   4
70
   1
43
   0.0
 10
54.4876709156163
 20
-82.1329289430164
 10
94.3544149968360
 20
-82.1329289430164
 10
94.3544149968360
 20
-88.0590665767112
 10
54.4876709156163
 20
-88.0590665767112
  0
TEXT
  5
F10A4C
330
F10A4D
 100
AcDbEntity
8
Text
100
AcDbText
10
55.5000000000000
20
-83.9683197131751
30
0.000000000000000
40
0.750000000000000
1
Tool material:
100
AcDbText
  0
TEXT
  5
F10A4E
330
F10A4F
 100
AcDbEntity
8
Text
100
AcDbText
10
0.000000000000000
20
0.250000000000000
30
0.000000000000000
40
0.750000000000000
1

100
AcDbText
  0
LWPOLYLINE
  5
F10A50
330
F10A51
100
AcDbEntity
8
Rahmen
100
AcDbPolyline
90
   4
70
   1
43
   0.0
 10
94.3544149968360
 20
-79.0800701620221
 10
134.400739006350
 20
-79.0800701620221
 10
134.400739006350
 20
-82.1329289430164
 10
94.3544149968360
 20
-82.1329289430164
  0
TEXT
  5
F10A52
330
F10A53
 100
AcDbEntity
8
Text
100
AcDbText
10
0.000000000000000
20
0.500000000000000
30
0.000000000000000
40
1.50000000000000
1

100
AcDbText
  0
TEXT
  5
F10A54
330
F10A55
 100
AcDbEntity
8
Text
100
AcDbText
10
0.000000000000000
20
0.250000000000000
30
0.000000000000000
40
0.750000000000000
1

100
AcDbText
  0
LWPOLYLINE
  5
F10A56
330
F10A57
100
AcDbEntity
8
Rahmen
100
AcDbPolyline
90
   4
70
   1
43
   0.0
 10
54.4876709156163
 20
-79.0800701620221
 10
94.3544149968360
 20
-79.0800701620221
 10
94.3544149968360
 20
-82.1329289430164
 10
54.4876709156163
 20
-82.1329289430164
  0
TEXT
  5
F10A58
330
F10A59
 100
AcDbEntity
8
Text
100
AcDbText
10
55.5000000000000
20
-80.9683197131751
30
0.000000000000000
40
0.750000000000000
1
Scale:
100
AcDbText
  0
TEXT
  5
F10A5A
330
F10A5B
 100
AcDbEntity
8
Text
100
AcDbText
10
81.1531505377966
20
-80.9683197131751
30
0.000000000000000
40
0.750000000000000
1
3 : 1
100
AcDbText
0
VIEWPORT
5
294
102
{ACAD_XDICTIONARY
360
58A
102
}
330
25D
100
AcDbEntity
67
1
8
0
60
1
100
AcDbViewport
10
0.0
20
0.0
30
0.0
40
10.0
41
10.0
68
-1
69
1
12
0.0
22
0.0
13
0.0
23
0.0
14
1.0
24
1.0
15
0.0
25
0.0
16
0.0
26
0.0
36
1.0
17
0.0
27
0.0
37
0.0
42
0.0
43
0.0
44
0.0
45
10.0
50
0.0
51
0.0000000000007958
72
100
90
32800
1

281
0
71
0
74
0
110
0.0
120
0.0
130
0.0
111
1.0
121
0.0
131
0.0
112
0.0
122
1.0
132
0.0
79
0
146
0.0
1001
VD_INVISIBLE_NOT_FOR_READ
1000
VD_INVISIBLE_NOT_FOR_READ
0
VIEWPORT
5
295
102
{ACAD_XDICTIONARY
360
58C
102
}
330
25D
100
AcDbEntity
67
1
8
0
60
1
100
AcDbViewport
10
0.0
20
0.0
30
0.0
40
10.0
41
10.0
68
0
69
2
12
0.0
22
0.0
13
0.0
23
0.0
14
1.0
24
1.0
15
0.0
25
0.0
16
0.0
26
0.0
36
1.0
17
0.0
27
0.0
37
0.0
42
0.0
43
0.0
44
0.0
45
10.0
50
0.0
51
0.0000000000007958
72
100
90
163872
1

281
0
71
0
74
0
110
0.0
120
0.0
130
0.0
111
1.0
121
0.0
131
0.0
112
0.0
122
1.0
132
0.0
79
0
146
0.0
1001
VD_INVISIBLE_NOT_FOR_READ
1000
VD_INVISIBLE_NOT_FOR_READ
0
ENDSEC
0
SECTION
2
OBJECTS
0
DICTIONARY
5
13
330
0
100
AcDbDictionary
281
1
3
ACAD_COLOR
350
FA7
3
ACAD_GROUP
350
14
3
ACAD_LAYOUT
350
FCF
3
ACAD_MATERIAL
350
F7A
3
ACAD_MLEADERSTYLE
350
FCD
3
ACAD_MLINESTYLE
350
16
3
ACAD_PLOTSETTINGS
350
17
3
ACAD_PLOTSTYLENAME
350
18
3
ACAD_SCALELIST
350
FAB
3
ACAD_TABLESTYLE
350
FA8
3
ACAD_VISUALSTYLE
350
F93
3
ACDB_RECOMPOSE_DATA
350
107E
3
AcDbVariableDictionary
350
FF0
3
DWGPROPS
350
107F
0
DICTIONARY
5
F10014
330
F10013
100
AcDbDictionary
280
1
281
1
3
ACAD_MTEXT_2008_RT
360
F10015
0
DICTIONARY
5
F1001E
330
F1001D
100
AcDbDictionary
280
1
281
1
3
ACAD_MTEXT_2008_RT
360
F1001F
0
DICTIONARY
5
F10023
330
F10022
100
AcDbDictionary
280
1
281
1
3
ACAD_MTEXT_2008_RT
360
F10024
0
DICTIONARY
5
F10005
330
F10004
100
AcDbDictionary
280
1
281
1
3
ACAD_MTEXT_2008_RT
360
F10006
0
DICTIONARY
5
F1000F
330
F1000E
100
AcDbDictionary
280
1
281
1
3
ACAD_MTEXT_2008_RT
360
F10010
0
DICTIONARY
5
F1000A
330
F10009
100
AcDbDictionary
280
1
281
1
3
ACAD_MTEXT_2008_RT
360
F1000B
0
DICTIONARY
5
F10019
330
F10018
100
AcDbDictionary
280
1
281
1
3
ACAD_MTEXT_2008_RT
360
F1001A
0
DICTIONARY
5
FA7
102
{ACAD_REACTORS
330
13
102
}
330
13
100
AcDbDictionary
281
1
0
DICTIONARY
5
14
330
13
100
AcDbDictionary
281
1
0
DICTIONARY
5
FCF
102
{ACAD_REACTORS
330
13
102
}
330
13
100
AcDbDictionary
281
1
3
Layout1
350
FD1
3
Model
350
FD0
0
DICTIONARY
5
F7A
102
{ACAD_REACTORS
330
13
102
}
330
13
100
AcDbDictionary
281
1
3
ByBlock
350
F83
3
ByLayer
350
F7B
3
Global
350
F8B
0
DICTIONARY
5
FCD
102
{ACAD_REACTORS
330
13
102
}
330
13
100
AcDbDictionary
281
1
3
Standard
350
FCE
0
DICTIONARY
5
16
330
13
100
AcDbDictionary
281
1
3
Standard
350
FAA
0
DICTIONARY
5
17
102
{ACAD_REACTORS
330
13
102
}
330
13
100
AcDbDictionary
281
1
0
ACDBDICTIONARYWDFLT
5
18
102
{ACAD_REACTORS
330
13
102
}
330
13
100
AcDbDictionary
281
1
3
Normal
350
19
100
AcDbDictionaryWithDefault
340
19
0
DICTIONARY
5
FAB
102
{ACAD_REACTORS
330
13
102
}
330
13
100
AcDbDictionary
281
1
3
A0
350
FAC
3
A1
350
FAD
3
A2
350
FAE
3
A3
350
FAF
3
A4
350
FB0
3
A5
350
FB1
3
A6
350
FB2
3
A7
350
FB3
3
A8
350
FB4
3
A9
350
FB5
3
B0
350
FB6
3
B1
350
FB7
3
B2
350
FB8
3
B3
350
FB9
3
B4
350
FBA
3
B5
350
FBB
3
B6
350
FBC
3
B7
350
FBD
3
B8
350
FBE
3
B9
350
FBF
3
C0
350
FC0
3
C1
350
FC1
3
C2
350
FC2
3
C3
350
FC3
3
C4
350
FC4
3
C5
350
FC5
3
C6
350
FC6
3
C7
350
FC7
3
C8
350
FC8
3
C9
350
FC9
3
D0
350
FCA
3
D1
350
FCB
3
D2
350
FCC
0
DICTIONARY
5
FA8
102
{ACAD_REACTORS
330
13
102
}
330
13
100
AcDbDictionary
281
1
3
Standard
350
FA9
0
DICTIONARY
5
F93
102
{ACAD_REACTORS
330
13
102
}
330
13
100
AcDbDictionary
281
1
3
2dWireframe
350
F99
3
3D Hidden
350
F9B
3
3dWireframe
350
F9A
3
Basic
350
F98
3
Brighten
350
F9F
3
ColorChange
350
FA3
3
Conceptual
350
F9C
3
Dim
350
F9E
3
EdgeColorOff
350
FA6
3
Facepattern
350
FA2
3
Flat
350
F94
3
FlatWithEdges
350
F95
3
Gouraud
350
F96
3
GouraudWithEdges
350
F97
3
JitterOff
350
FA4
3
Linepattern
350
FA1
3
OverhangOff
350
FA5
3
Realistic
350
F9D
3
Thicken
350
FA0
0
XRECORD
5
107E
102
{ACAD_REACTORS
330
13
102
}
330
13
100
AcDbXrecord
280
1
90
1
330
FA9
330
F10013
330
F1001D
330
F10022
330
F10004
330
F1000E
330
F10009
330
F10018
0
XRECORD
5
F10015
102
{ACAD_REACTORS
330
F10014
102
}
330
F10014
100
AcDbXrecord
280
1
40
48458.0
1
48
0
XRECORD
5
F1001F
102
{ACAD_REACTORS
330
F1001E
102
}
330
F1001E
100
AcDbXrecord
280
1
40
48458.0
1
22
0
XRECORD
5
F10024
102
{ACAD_REACTORS
330
F10023
102
}
330
F10023
100
AcDbXrecord
280
1
40
48458.0
1
70
0
XRECORD
5
F10006
102
{ACAD_REACTORS
330
F10005
102
}
330
F10005
100
AcDbXrecord
280
1
40
48458.0
1
2°
0
XRECORD
5
F10010
102
{ACAD_REACTORS
330
F1000F
102
}
330
F1000F
100
AcDbXrecord
280
1
40
48458.0
1
R0.5
0
XRECORD
5
F1000B
102
{ACAD_REACTORS
330
F1000A
102
}
330
F1000A
100
AcDbXrecord
280
1
40
48458.0
1
10
0
LAYOUT
5
FD1
102
{ACAD_XDICTIONARY
360
10A9
102
}
102
{ACAD_REACTORS
330
FCF
102
}
330
FCF
100
AcDbPlotSettings
1

2
Microsoft XPS Document Writer
4

6

40
0.0
41
0.0
42
0.0
43
0.0
44
0.0
45
0.0
46
0.0
47
0.0
48
0.0
49
0.0
140
0.0
141
0.0
142
1.0
143
1.0
70
688
72
0
73
0
74
5
7

75
16
147
1.0
148
0.0
149
0.0
100
AcDbLayout
1
Layout1
70
1
71
1
10
0.0
20
0.0
11
12.0
21
9.0
12
0.0
22
0.0
32
0.0
14
1.000000000000000E+20
24
1.000000000000000E+20
34
1.000000000000000E+20
15
-1.000000000000000E+20
25
-1.000000000000000E+20
35
-1.000000000000000E+20
146
0.0
13
0.0
23
0.0
33
0.0
16
1.0
26
0.0
36
0.0
17
0.0
27
1.0
37
0.0
76
0
330
25D
0
LAYOUT
5
FD0
102
{ACAD_XDICTIONARY
360
10A7
102
}
102
{ACAD_REACTORS
330
FCF
102
}
330
FCF
100
AcDbPlotSettings
1

2
Microsoft XPS Document Writer
4

6

40
0.0
41
0.0
42
0.0
43
0.0
44
0.0
45
0.0
46
0.0
47
0.0
48
0.0
49
0.0
140
0.0
141
0.0
142
1.0
143
1.0
70
1712
72
0
73
0
74
0
7

75
0
147
1.0
148
0.0
149
0.0
100
AcDbLayout
1
Model
70
1
71
0
10
0.0
20
0.0
11
12.0
21
9.0
12
0.0
22
0.0
32
0.0
14
0.0
24
0.0
34
0.0
15
0.0
25
0.0
35
0.0
146
0.0
13
0.0
23
0.0
33
0.0
16
1.0
26
0.0
36
0.0
17
0.0
27
1.0
37
0.0
76
0
330
261
331
26B
0
MATERIAL
5
F83
102
{ACAD_XDICTIONARY
360
F84
102
}
102
{ACAD_REACTORS
330
F7A
102
}
330
F7A
100
AcDbMaterial
1
ByBlock
72
0
43
0.0208333333333333
43
0.0
43
0.0
43
0.0
43
0.0
43
0.0208333333333333
43
0.0
43
0.0
43
0.0
43
0.0
43
1.0
43
0.0
43
0.0
43
0.0
43
0.0
43
1.0
77
0
47
0.0208333333333333
47
0.0
47
0.0
47
0.0
47
0.0
47
0.0208333333333333
47
0.0
47
0.0
47
0.0
47
0.0
47
1.0
47
0.0
47
0.0
47
0.0
47
0.0
47
1.0
171
0
49
0.0208333333333333
49
0.0
49
0.0
49
0.0
49
0.0
49
0.0208333333333333
49
0.0
49
0.0
49
0.0
49
0.0
49
1.0
49
0.0
49
0.0
49
0.0
49
0.0
49
1.0
175
0
142
0.0208333333333333
142
0.0
142
0.0
142
0.0
142
0.0
142
0.0208333333333333
142
0.0
142
0.0
142
0.0
142
0.0
142
1.0
142
0.0
142
0.0
142
0.0
142
0.0
142
1.0
179
0
144
0.0208333333333333
144
0.0
144
0.0
144
0.0
144
0.0
144
0.0208333333333333
144
0.0
144
0.0
144
0.0
144
0.0
144
1.0
144
0.0
144
0.0
144
0.0
144
0.0
144
1.0
147
0.0208333333333333
147
0.0
147
0.0
147
0.0
147
0.0
147
0.0208333333333333
147
0.0
147
0.0
147
0.0
147
0.0
147
1.0
147
0.0
147
0.0
147
0.0
147
0.0
147
1.0
0
MATERIAL
5
F7B
102
{ACAD_XDICTIONARY
360
F7C
102
}
102
{ACAD_REACTORS
330
F7A
102
}
330
F7A
100
AcDbMaterial
1
ByLayer
72
0
43
0.0208333333333333
43
0.0
43
0.0
43
0.0
43
0.0
43
0.0208333333333333
43
0.0
43
0.0
43
0.0
43
0.0
43
1.0
43
0.0
43
0.0
43
0.0
43
0.0
43
1.0
77
0
47
0.0208333333333333
47
0.0
47
0.0
47
0.0
47
0.0
47
0.0208333333333333
47
0.0
47
0.0
47
0.0
47
0.0
47
1.0
47
0.0
47
0.0
47
0.0
47
0.0
47
1.0
171
0
49
0.0208333333333333
49
0.0
49
0.0
49
0.0
49
0.0
49
0.0208333333333333
49
0.0
49
0.0
49
0.0
49
0.0
49
1.0
49
0.0
49
0.0
49
0.0
49
0.0
49
1.0
175
0
142
0.0208333333333333
142
0.0
142
0.0
142
0.0
142
0.0
142
0.0208333333333333
142
0.0
142
0.0
142
0.0
142
0.0
142
1.0
142
0.0
142
0.0
142
0.0
142
0.0
142
1.0
179
0
144
0.0208333333333333
144
0.0
144
0.0
144
0.0
144
0.0
144
0.0208333333333333
144
0.0
144
0.0
144
0.0
144
0.0
144
1.0
144
0.0
144
0.0
144
0.0
144
0.0
144
1.0
147
0.0208333333333333
147
0.0
147
0.0
147
0.0
147
0.0
147
0.0208333333333333
147
0.0
147
0.0
147
0.0
147
0.0
147
1.0
147
0.0
147
0.0
147
0.0
147
0.0
147
1.0
0
MATERIAL
5
F8B
102
{ACAD_XDICTIONARY
360
F8C
102
}
102
{ACAD_REACTORS
330
F7A
102
}
330
F7A
100
AcDbMaterial
1
Global
72
0
43
0.0208333333333333
43
0.0
43
0.0
43
0.0
43
0.0
43
0.0208333333333333
43
0.0
43
0.0
43
0.0
43
0.0
43
1.0
43
0.0
43
0.0
43
0.0
43
0.0
43
1.0
77
0
47
0.0208333333333333
47
0.0
47
0.0
47
0.0
47
0.0
47
0.0208333333333333
47
0.0
47
0.0
47
0.0
47
0.0
47
1.0
47
0.0
47
0.0
47
0.0
47
0.0
47
1.0
171
0
49
0.0208333333333333
49
0.0
49
0.0
49
0.0
49
0.0
49
0.0208333333333333
49
0.0
49
0.0
49
0.0
49
0.0
49
1.0
49
0.0
49
0.0
49
0.0
49
0.0
49
1.0
175
0
142
0.0208333333333333
142
0.0
142
0.0
142
0.0
142
0.0
142
0.0208333333333333
142
0.0
142
0.0
142
0.0
142
0.0
142
1.0
142
0.0
142
0.0
142
0.0
142
0.0
142
1.0
179
0
144
0.0208333333333333
144
0.0
144
0.0
144
0.0
144
0.0
144
0.0208333333333333
144
0.0
144
0.0
144
0.0
144
0.0
144
1.0
144
0.0
144
0.0
144
0.0
144
0.0
144
1.0
147
0.0208333333333333
147
0.0
147
0.0
147
0.0
147
0.0
147
0.0208333333333333
147
0.0
147
0.0
147
0.0
147
0.0
147
1.0
147
0.0
147
0.0
147
0.0
147
0.0
147
1.0
0
MLEADERSTYLE
5
FCE
102
{ACAD_REACTORS
330
FCD
102
}
330
FCD
100
AcDbMLeaderStyle
170
2
171
1
172
0
90
2
40
0.0
41
0.0
173
1
91
-1056964608
340
256
92
-2
290
1
42
0.09
291
1
43
0.36
3
Standard
44
0.18
300

342
253
174
1
178
6
175
1
176
0
93
-1056964608
45
0.18
292
0
297
0
46
0.18
94
-1056964608
47
1.0
49
1.0
140
1.0
293
1
141
0.0
294
1
177
0
142
1.0
295
0
296
0
143
0.125
1001
ACAD_MLEADERVER
1070
2
0
MLINESTYLE
5
FAA
102
{ACAD_REACTORS
330
16
102
}
330
16
100
AcDbMlineStyle
2
STANDARD
70
0
3

62
256
51
90.0
52
90.0
71
2
49
0.5
62
256
6
BYLAYER
49
-0.5
62
256
6
BYLAYER
0
ACDBPLACEHOLDER
5
19
102
{ACAD_REACTORS
330
18
102
}
330
18
0
SCALE
5
FAC
102
{ACAD_REACTORS
330
FAB
102
}
330
FAB
100
AcDbScale
70
0
300
1:1
140
1.0
141
1.0
290
1
0
SCALE
5
FAD
102
{ACAD_REACTORS
330
FAB
102
}
330
FAB
100
AcDbScale
70
0
300
1:2
140
1.0
141
2.0
290
0
0
SCALE
5
FAE
102
{ACAD_REACTORS
330
FAB
102
}
330
FAB
100
AcDbScale
70
0
300
1:4
140
1.0
141
4.0
290
0
0
SCALE
5
FAF
102
{ACAD_REACTORS
330
FAB
102
}
330
FAB
100
AcDbScale
70
0
300
1:5
140
1.0
141
5.0
290
0
0
SCALE
5
FB0
102
{ACAD_REACTORS
330
FAB
102
}
330
FAB
100
AcDbScale
70
0
300
1:8
140
1.0
141
8.0
290
0
0
SCALE
5
FB1
102
{ACAD_REACTORS
330
FAB
102
}
330
FAB
100
AcDbScale
70
0
300
1:10
140
1.0
141
10.0
290
0
0
SCALE
5
FB2
102
{ACAD_REACTORS
330
FAB
102
}
330
FAB
100
AcDbScale
70
0
300
1:16
140
1.0
141
16.0
290
0
0
SCALE
5
FB3
102
{ACAD_REACTORS
330
FAB
102
}
330
FAB
100
AcDbScale
70
0
300
1:20
140
1.0
141
20.0
290
0
0
SCALE
5
FB4
102
{ACAD_REACTORS
330
FAB
102
}
330
FAB
100
AcDbScale
70
0
300
1:30
140
1.0
141
30.0
290
0
0
SCALE
5
FB5
102
{ACAD_REACTORS
330
FAB
102
}
330
FAB
100
AcDbScale
70
0
300
1:40
140
1.0
141
40.0
290
0
0
SCALE
5
FB6
102
{ACAD_REACTORS
330
FAB
102
}
330
FAB
100
AcDbScale
70
0
300
1:50
140
1.0
141
50.0
290
0
0
SCALE
5
FB7
102
{ACAD_REACTORS
330
FAB
102
}
330
FAB
100
AcDbScale
70
0
300
1:100
140
1.0
141
100.0
290
0
0
SCALE
5
FB8
102
{ACAD_REACTORS
330
FAB
102
}
330
FAB
100
AcDbScale
70
0
300
2:1
140
2.0
141
1.0
290
0
0
SCALE
5
FB9
102
{ACAD_REACTORS
330
FAB
102
}
330
FAB
100
AcDbScale
70
0
300
4:1
140
4.0
141
1.0
290
0
0
SCALE
5
FBA
102
{ACAD_REACTORS
330
FAB
102
}
330
FAB
100
AcDbScale
70
0
300
8:1
140
8.0
141
1.0
290
0
0
SCALE
5
FBB
102
{ACAD_REACTORS
330
FAB
102
}
330
FAB
100
AcDbScale
70
0
300
10:1
140
10.0
141
1.0
290
0
0
SCALE
5
FBC
102
{ACAD_REACTORS
330
FAB
102
}
330
FAB
100
AcDbScale
70
0
300
100:1
140
100.0
141
1.0
290
0
0
SCALE
5
FBD
102
{ACAD_REACTORS
330
FAB
102
}
330
FAB
100
AcDbScale
70
0
300
1/128" = 1'-0"
140
0.0078125
141
12.0
290
0
0
SCALE
5
FBE
102
{ACAD_REACTORS
330
FAB
102
}
330
FAB
100
AcDbScale
70
0
300
1/64" = 1'-0"
140
0.015625
141
12.0
290
0
0
SCALE
5
FBF
102
{ACAD_REACTORS
330
FAB
102
}
330
FAB
100
AcDbScale
70
0
300
1/32" = 1'-0"
140
0.03125
141
12.0
290
0
0
SCALE
5
FC0
102
{ACAD_REACTORS
330
FAB
102
}
330
FAB
100
AcDbScale
70
0
300
1/16" = 1'-0"
140
0.0625
141
12.0
290
0
0
SCALE
5
FC1
102
{ACAD_REACTORS
330
FAB
102
}
330
FAB
100
AcDbScale
70
0
300
3/32" = 1'-0"
140
0.09375
141
12.0
290
0
0
SCALE
5
FC2
102
{ACAD_REACTORS
330
FAB
102
}
330
FAB
100
AcDbScale
70
0
300
1/8" = 1'-0"
140
0.125
141
12.0
290
0
0
SCALE
5
FC3
102
{ACAD_REACTORS
330
FAB
102
}
330
FAB
100
AcDbScale
70
0
300
3/16" = 1'-0"
140
0.1875
141
12.0
290
0
0
SCALE
5
FC4
102
{ACAD_REACTORS
330
FAB
102
}
330
FAB
100
AcDbScale
70
0
300
1/4" = 1'-0"
140
0.25
141
12.0
290
0
0
SCALE
5
FC5
102
{ACAD_REACTORS
330
FAB
102
}
330
FAB
100
AcDbScale
70
0
300
3/8" = 1'-0"
140
0.375
141
12.0
290
0
0
SCALE
5
FC6
102
{ACAD_REACTORS
330
FAB
102
}
330
FAB
100
AcDbScale
70
0
300
1/2" = 1'-0"
140
0.5
141
12.0
290
0
0
SCALE
5
FC7
102
{ACAD_REACTORS
330
FAB
102
}
330
FAB
100
AcDbScale
70
0
300
3/4" = 1'-0"
140
0.75
141
12.0
290
0
0
SCALE
5
FC8
102
{ACAD_REACTORS
330
FAB
102
}
330
FAB
100
AcDbScale
70
0
300
1" = 1'-0"
140
1.0
141
12.0
290
0
0
SCALE
5
FC9
102
{ACAD_REACTORS
330
FAB
102
}
330
FAB
100
AcDbScale
70
0
300
1-1/2" = 1'-0"
140
1.5
141
12.0
290
0
0
SCALE
5
FCA
102
{ACAD_REACTORS
330
FAB
102
}
330
FAB
100
AcDbScale
70
0
300
3" = 1'-0"
140
3.0
141
12.0
290
0
0
SCALE
5
FCB
102
{ACAD_REACTORS
330
FAB
102
}
330
FAB
100
AcDbScale
70
0
300
6" = 1'-0"
140
6.0
141
12.0
290
0
0
SCALE
5
FCC
102
{ACAD_REACTORS
330
FAB
102
}
330
FAB
100
AcDbScale
70
0
300
1'-0" = 1'-0"
140
12.0
141
12.0
290
0
0
TABLESTYLE
5
FA9
102
{ACAD_XDICTIONARY
360
FF8
102
}
102
{ACAD_REACTORS
330
FA8
102
}
330
FA8
100
AcDbTableStyle
3
Standard
70
0
71
0
40
0.06
41
0.06
280
0
281
0
7
Standard
140
0.18
170
2
62
0
63
7
283
0
274
-2
284
1
64
0
275
-2
285
1
65
0
276
-2
286
1
66
0
277
-2
287
1
67
0
278
-2
288
1
68
0
279
-2
289
1
69
0
7
Standard
140
0.25
170
5
62
0
63
7
283
0
274
-2
284
1
64
0
275
-2
285
1
65
0
276
-2
286
1
66
0
277
-2
287
1
67
0
278
-2
288
1
68
0
279
-2
289
1
69
0
7
Standard
140
0.18
170
5
62
0
63
7
283
0
274
-2
284
1
64
0
275
-2
285
1
65
0
276
-2
286
1
66
0
277
-2
287
1
67
0
278
-2
288
1
68
0
279
-2
289
1
69
0
0
VISUALSTYLE
5
F99
102
{ACAD_XDICTIONARY
360
108A
102
}
102
{ACAD_REACTORS
330
F93
102
}
330
F93
100
AcDbVisualStyle
2

70
4
71
0
72
2
73
0
90
0
40
-0.6
41
-30.0
62
5
63
7
74
1
91
4
64
7
65
257
75
1
175
1
42
1.0
92
0
66
257
43
1.0
76
1
77
6
78
2
67
7
79
5
170
0
171
0
290
0
174
0
93
1
44
0.0
173
0
291
0
45
0.0
1001
ACAD
1000
AcDbSavedByObjectVersion
1070
0
0
VISUALSTYLE
5
F9B
102
{ACAD_XDICTIONARY
360
108E
102
}
102
{ACAD_REACTORS
330
F93
102
}
330
F93
100
AcDbVisualStyle
2

70
6
71
1
72
2
73
2
90
0
40
-0.6
41
-30.0
62
5
63
7
74
2
91
2
64
7
65
257
75
2
175
1
42
179.0
92
0
66
257
43
1.0
76
1
77
6
78
2
67
7
79
3
170
0
171
0
290
0
174
0
93
1
44
0.0
173
0
291
0
45
0.0
1001
ACAD
1000
AcDbSavedByObjectVersion
1070
0
0
VISUALSTYLE
5
F9A
102
{ACAD_XDICTIONARY
360
108C
102
}
102
{ACAD_REACTORS
330
F93
102
}
330
F93
100
AcDbVisualStyle
2

70
5
71
0
72
2
73
0
90
0
40
-0.6
41
-30.0
62
5
63
7
74
1
91
4
64
7
65
257
75
1
175
1
42
1.0
92
0
66
257
43
1.0
76
1
77
6
78
2
67
7
79
5
170
0
171
0
290
0
174
0
93
1
44
0.0
173
0
291
0
45
0.0
1001
ACAD
1000
AcDbSavedByObjectVersion
1070
0
0
VISUALSTYLE
5
F98
102
{ACAD_XDICTIONARY
360
1088
102
}
102
{ACAD_REACTORS
330
F93
102
}
330
F93
100
AcDbVisualStyle
2

70
7
71
1
72
0
73
1
90
0
40
-0.6
41
-30.0
62
5
63
7
74
0
91
4
64
7
65
257
75
1
175
1
42
1.0
92
8
66
7
43
1.0
76
1
77
6
78
2
67
7
79
5
170
0
171
0
290
0
174
0
93
1
44
0.0
173
0
291
1
45
0.0
1001
ACAD
1000
AcDbSavedByObjectVersion
1070
0
0
VISUALSTYLE
5
F9F
102
{ACAD_XDICTIONARY
360
1096
102
}
102
{ACAD_REACTORS
330
F93
102
}
330
F93
100
AcDbVisualStyle
2

70
12
71
2
72
2
73
0
90
0
40
-0.6
41
-30.0
62
5
63
7
74
1
91
4
64
7
65
257
75
1
175
1
42
1.0
92
8
66
7
43
1.0
76
1
77
6
78
2
67
7
79
5
170
0
171
0
290
0
174
0
93
1
44
50.0
173
0
291
1
45
0.0
1001
ACAD
1000
AcDbSavedByObjectVersion
1070
0
0
VISUALSTYLE
5
FA3
102
{ACAD_XDICTIONARY
360
109E
102
}
102
{ACAD_REACTORS
330
F93
102
}
330
F93
100
AcDbVisualStyle
2

70
16
71
2
72
2
73
3
90
0
40
-0.6
41
-30.0
62
5
63
8
74
1
91
4
64
7
65
257
75
1
175
1
42
1.0
92
8
66
8
43
1.0
76
1
77
6
78
2
67
7
79
5
170
0
171
0
290
0
174
0
93
1
44
0.0
173
0
291
1
45
0.0
1001
ACAD
1000
AcDbSavedByObjectVersion
1070
0
0
VISUALSTYLE
5
F9C
102
{ACAD_XDICTIONARY
360
1090
102
}
102
{ACAD_REACTORS
330
F93
102
}
330
F93
100
AcDbVisualStyle
2

70
9
71
3
72
2
73
0
90
0
40
-0.6
41
-30.0
62
5
63
7
74
2
91
2
64
7
65
257
75
1
175
1
42
179.0
92
8
66
7
43
1.0
76
1
77
6
78
2
67
7
79
3
170
0
171
0
290
0
174
0
93
1
44
0.0
173
0
291
0
45
0.0
1001
ACAD
1000
AcDbSavedByObjectVersion
1070
0
0
VISUALSTYLE
5
F9E
102
{ACAD_XDICTIONARY
360
1094
102
}
102
{ACAD_REACTORS
330
F93
102
}
330
F93
100
AcDbVisualStyle
2

70
11
71
2
72
2
73
0
90
0
40
-0.6
41
-30.0
62
5
63
7
74
1
91
4
64
7
65
257
75
1
175
1
42
1.0
92
8
66
7
43
1.0
76
1
77
6
78
2
67
7
79
5
170
0
171
0
290
0
174
0
93
1
44
-50.0
173
0
291
1
45
0.0
1001
ACAD
1000
AcDbSavedByObjectVersion
1070
0
0
VISUALSTYLE
5
FA6
102
{ACAD_XDICTIONARY
360
10A4
102
}
102
{ACAD_REACTORS
330
F93
102
}
330
F93
100
AcDbVisualStyle
2

70
22
71
2
72
2
73
0
90
0
40
-0.6
41
-30.0
62
5
63
7
74
1
91
4
64
7
65
257
75
1
175
1
42
1.0
92
8
66
7
43
1.0
76
1
77
6
78
2
67
7
79
5
170
0
171
0
290
0
174
0
93
1
44
0.0
173
0
291
1
45
0.0
1001
ACAD
1000
AcDbSavedByObjectVersion
1070
0
0
VISUALSTYLE
5
FA2
102
{ACAD_XDICTIONARY
360
109C
102
}
102
{ACAD_REACTORS
330
F93
102
}
330
F93
100
AcDbVisualStyle
2

70
15
71
2
72
2
73
0
90
0
40
-0.6
41
-30.0
62
5
63
7
74
1
91
4
64
7
65
257
75
1
175
1
42
1.0
92
8
66
7
43
1.0
76
1
77
6
78
2
67
7
79
5
170
0
171
0
290
0
174
0
93
1
44
0.0
173
0
291
1
45
0.0
1001
ACAD
1000
AcDbSavedByObjectVersion
1070
0
0
VISUALSTYLE
5
F94
102
{ACAD_XDICTIONARY
360
1080
102
}
102
{ACAD_REACTORS
330
F93
102
}
330
F93
100
AcDbVisualStyle
2

70
0
71
2
72
1
73
1
90
2
40
-0.6
41
30.0
62
5
63
7
74
0
91
4
64
7
65
257
75
1
175
1
42
1.0
92
8
66
7
43
1.0
76
1
77
6
78
2
67
7
79
5
170
0
171
0
290
0
174
0
93
13
44
0.0
173
0
291
1
45
0.0
1001
ACAD
1000
AcDbSavedByObjectVersion
1070
0
0
VISUALSTYLE
5
F95
102
{ACAD_XDICTIONARY
360
1082
102
}
102
{ACAD_REACTORS
330
F93
102
}
330
F93
100
AcDbVisualStyle
2

70
1
71
2
72
1
73
1
90
2
40
-0.6
41
30.0
62
5
63
7
74
1
91
4
64
7
65
257
75
1
175
1
42
1.0
92
0
66
257
43
1.0
76
1
77
6
78
2
67
7
79
5
170
0
171
0
290
0
174
0
93
13
44
0.0
173
0
291
1
45
0.0
1001
ACAD
1000
AcDbSavedByObjectVersion
1070
0
0
VISUALSTYLE
5
F96
102
{ACAD_XDICTIONARY
360
1084
102
}
102
{ACAD_REACTORS
330
F93
102
}
330
F93
100
AcDbVisualStyle
2

70
2
71
2
72
2
73
1
90
2
40
-0.6
41
30.0
62
5
63
7
74
0
91
4
64
7
65
257
75
1
175
1
42
1.0
92
0
66
7
43
1.0
76
1
77
6
78
2
67
7
79
5
170
0
171
0
290
0
174
0
93
13
44
0.0
173
0
291
1
45
0.0
1001
ACAD
1000
AcDbSavedByObjectVersion
1070
0
0
VISUALSTYLE
5
F97
102
{ACAD_XDICTIONARY
360
1086
102
}
102
{ACAD_REACTORS
330
F93
102
}
330
F93
100
AcDbVisualStyle
2

70
3
71
2
72
2
73
1
90
2
40
-0.6
41
30.0
62
5
63
7
74
1
91
4
64
7
65
257
75
1
175
1
42
1.0
92
0
66
257
43
1.0
76
1
77
6
78
2
67
7
79
5
170
0
171
0
290
0
174
0
93
13
44
0.0
173
0
291
1
45
0.0
1001
ACAD
1000
AcDbSavedByObjectVersion
1070
0
0
VISUALSTYLE
5
FA4
102
{ACAD_XDICTIONARY
360
10A0
102
}
102
{ACAD_REACTORS
330
F93
102
}
330
F93
100
AcDbVisualStyle
2

70
20
71
2
72
2
73
0
90
0
40
-0.6
41
-30.0
62
5
63
7
74
1
91
4
64
7
65
257
75
1
175
1
42
1.0
92
10
66
7
43
1.0
76
1
77
6
78
2
67
7
79
5
170
0
171
0
290
0
174
0
93
1
44
0.0
173
0
291
1
45
0.0
1001
ACAD
1000
AcDbSavedByObjectVersion
1070
0
0
VISUALSTYLE
5
FA1
102
{ACAD_XDICTIONARY
360
109A
102
}
102
{ACAD_REACTORS
330
F93
102
}
330
F93
100
AcDbVisualStyle
2

70
14
71
2
72
2
73
0
90
0
40
-0.6
41
-30.0
62
5
63
7
74
1
91
4
64
7
65
257
75
7
175
7
42
1.0
92
8
66
7
43
1.0
76
1
77
6
78
2
67
7
79
5
170
0
171
0
290
0
174
0
93
1
44
0.0
173
0
291
1
45
0.0
1001
ACAD
1000
AcDbSavedByObjectVersion
1070
0
0
VISUALSTYLE
5
FA5
102
{ACAD_XDICTIONARY
360
10A2
102
}
102
{ACAD_REACTORS
330
F93
102
}
330
F93
100
AcDbVisualStyle
2

70
21
71
2
72
2
73
0
90
0
40
-0.6
41
-30.0
62
5
63
7
74
1
91
4
64
7
65
257
75
1
175
1
42
1.0
92
9
66
7
43
1.0
76
1
77
6
78
2
67
7
79
5
170
0
171
0
290
0
174
0
93
1
44
0.0
173
0
291
1
45
0.0
1001
ACAD
1000
AcDbSavedByObjectVersion
1070
0
0
VISUALSTYLE
5
F9D
102
{ACAD_XDICTIONARY
360
1092
102
}
102
{ACAD_REACTORS
330
F93
102
}
330
F93
100
AcDbVisualStyle
2

70
8
71
2
72
2
73
0
90
0
40
-0.6
41
-30.0
62
5
63
7
74
1
91
0
64
7
65
257
75
1
175
1
42
1.0
92
8
66
8
43
1.0
76
1
77
6
78
2
67
7
79
5
170
0
171
0
290
0
174
0
93
13
44
0.0
173
0
291
0
45
0.0
1001
ACAD
1000
AcDbSavedByObjectVersion
1070
0
0
VISUALSTYLE
5
FA0
102
{ACAD_XDICTIONARY
360
1098
102
}
102
{ACAD_REACTORS
330
F93
102
}
330
F93
100
AcDbVisualStyle
2

70
13
71
2
72
2
73
0
90
0
40
-0.6
41
-30.0
62
5
63
7
74
1
91
4
64
7
65
257
75
1
175
1
42
1.0
92
12
66
7
43
1.0
76
1
77
6
78
2
67
7
79
5
170
0
171
0
290
0
174
0
93
1
44
0.0
173
0
291
1
45
0.0
1001
ACAD
1000
AcDbSavedByObjectVersion
1070
0
0
DICTIONARYVAR
5
FF3
102
{ACAD_REACTORS
330
FF0
102
}
330
FF0
100
DictionaryVariables
280
0
1
1:1
0
DICTIONARYVAR
5
FF2
102
{ACAD_REACTORS
330
FF0
102
}
330
FF0
100
DictionaryVariables
280
0
1
STANDARD
0
DICTIONARYVAR
5
FF1
102
{ACAD_REACTORS
330
FF0
102
}
330
FF0
100
DictionaryVariables
280
0
1
STANDARD
0
DICTIONARYVAR
5
FF6
102
{ACAD_REACTORS
330
FF0
102
}
330
FF0
100
DictionaryVariables
280
0
1
1
0
DICTIONARYVAR
5
FF5
102
{ACAD_REACTORS
330
FF0
102
}
330
FF0
100
DictionaryVariables
280
0
1
0
0
DICTIONARYVAR
5
FF4
102
{ACAD_REACTORS
330
FF0
102
}
330
FF0
100
DictionaryVariables
280
0
1
127
0
DICTIONARYVAR
5
1078
102
{ACAD_REACTORS
330
FF0
102
}
330
FF0
100
DictionaryVariables
280
0
1
2
0
DICTIONARY
5
10A9
330
FD1
100
AcDbDictionary
280
1
281
1
3
ACAD_XREC_ROUNDTRIP
360
10AA
0
DICTIONARY
5
10A7
330
FD0
100
AcDbDictionary
280
1
281
1
3
ACAD_XREC_ROUNDTRIP
360
10A8
0
DICTIONARY
5
F84
330
F83
100
AcDbDictionary
280
1
281
1
3
ACAD_XREC_ROUNDTRIP
360
FFF
3
BUMPTILE
360
F86
3
DIFFUSETILE
360
F85
3
OPACITYTILE
360
F89
3
REFLECTIONTILE
360
F88
3
REFRACTIONTILE
360
F8A
3
SPECULARTILE
360
F87
0
DICTIONARY
5
F7C
330
F7B
100
AcDbDictionary
280
1
281
1
3
ACAD_XREC_ROUNDTRIP
360
FFE
3
BUMPTILE
360
F7E
3
DIFFUSETILE
360
F7D
3
OPACITYTILE
360
F81
3
REFLECTIONTILE
360
F80
3
REFRACTIONTILE
360
F82
3
SPECULARTILE
360
F7F
0
DICTIONARY
5
F8C
330
F8B
100
AcDbDictionary
280
1
281
1
3
ACAD_XREC_ROUNDTRIP
360
1000
3
BUMPTILE
360
F8E
3
DIFFUSETILE
360
F8D
3
OPACITYTILE
360
F91
3
REFLECTIONTILE
360
F90
3
REFRACTIONTILE
360
F92
3
SPECULARTILE
360
F8F
0
DICTIONARY
5
FF8
330
FA9
100
AcDbDictionary
280
1
281
1
3
ACAD_ROUNDTRIP_2008_TABLESTYLE_CELLSTYLEMAP
360
1079
3
ACAD_XREC_ROUNDTRIP
360
10A6
0
DICTIONARY
5
108A
330
F99
100
AcDbDictionary
280
1
281
1
3
ACAD_XREC_ROUNDTRIP
360
108B
0
DICTIONARY
5
108E
330
F9B
100
AcDbDictionary
280
1
281
1
3
ACAD_XREC_ROUNDTRIP
360
108F
0
DICTIONARY
5
108C
330
F9A
100
AcDbDictionary
280
1
281
1
3
ACAD_XREC_ROUNDTRIP
360
108D
0
DICTIONARY
5
1088
330
F98
100
AcDbDictionary
280
1
281
1
3
ACAD_XREC_ROUNDTRIP
360
1089
0
DICTIONARY
5
1096
330
F9F
100
AcDbDictionary
280
1
281
1
3
ACAD_XREC_ROUNDTRIP
360
1097
0
DICTIONARY
5
109E
330
FA3
100
AcDbDictionary
280
1
281
1
3
ACAD_XREC_ROUNDTRIP
360
109F
0
DICTIONARY
5
1090
330
F9C
100
AcDbDictionary
280
1
281
1
3
ACAD_XREC_ROUNDTRIP
360
1091
0
DICTIONARY
5
1094
330
F9E
100
AcDbDictionary
280
1
281
1
3
ACAD_XREC_ROUNDTRIP
360
1095
0
DICTIONARY
5
10A4
330
FA6
100
AcDbDictionary
280
1
281
1
3
ACAD_XREC_ROUNDTRIP
360
10A5
0
DICTIONARY
5
109C
330
FA2
100
AcDbDictionary
280
1
281
1
3
ACAD_XREC_ROUNDTRIP
360
109D
0
DICTIONARY
5
1080
330
F94
100
AcDbDictionary
280
1
281
1
3
ACAD_XREC_ROUNDTRIP
360
1081
0
DICTIONARY
5
1082
330
F95
100
AcDbDictionary
280
1
281
1
3
ACAD_XREC_ROUNDTRIP
360
1083
0
DICTIONARY
5
1084
330
F96
100
AcDbDictionary
280
1
281
1
3
ACAD_XREC_ROUNDTRIP
360
1085
0
DICTIONARY
5
1086
330
F97
100
AcDbDictionary
280
1
281
1
3
ACAD_XREC_ROUNDTRIP
360
1087
0
DICTIONARY
5
10A0
330
FA4
100
AcDbDictionary
280
1
281
1
3
ACAD_XREC_ROUNDTRIP
360
10A1
0
DICTIONARY
5
109A
330
FA1
100
AcDbDictionary
280
1
281
1
3
ACAD_XREC_ROUNDTRIP
360
109B
0
DICTIONARY
5
10A2
330
FA5
100
AcDbDictionary
280
1
281
1
3
ACAD_XREC_ROUNDTRIP
360
10A3
0
DICTIONARY
5
1092
330
F9D
100
AcDbDictionary
280
1
281
1
3
ACAD_XREC_ROUNDTRIP
360
1093
0
DICTIONARY
5
1098
330
FA0
100
AcDbDictionary
280
1
281
1
3
ACAD_XREC_ROUNDTRIP
360
1099
0
XRECORD
5
10AA
102
{ACAD_REACTORS
330
10A9
102
}
330
10A9
100
AcDbXrecord
280
1
102
SHADEPLOT
70
0
102
SHADEPLOTRESLEVEL
70
2
102
SHADEPLOTCUSTOMDPI
70
300
0
XRECORD
5
10A8
102
{ACAD_REACTORS
330
10A7
102
}
330
10A7
100
AcDbXrecord
280
1
102
SHADEPLOT
70
0
102
SHADEPLOTRESLEVEL
70
2
102
SHADEPLOTCUSTOMDPI
70
300
0
XRECORD
5
FFF
102
{ACAD_REACTORS
330
F84
102
}
330
F84
100
AcDbXrecord
280
1
102
MATERIAL
148
0.0
149
0.0
149
0.0
93
0
94
127
282
0
72
0
77
0
171
0
175
0
179
0
273
0
0
XRECORD
5
F86
102
{ACAD_REACTORS
330
F84
102
}
330
F84
100
AcDbXrecord
280
1
270
1
271
1
0
XRECORD
5
F85
102
{ACAD_REACTORS
330
F84
102
}
330
F84
100
AcDbXrecord
280
1
270
1
271
1
0
XRECORD
5
F89
102
{ACAD_REACTORS
330
F84
102
}
330
F84
100
AcDbXrecord
280
1
270
1
271
1
0
XRECORD
5
F88
102
{ACAD_REACTORS
330
F84
102
}
330
F84
100
AcDbXrecord
280
1
270
1
271
1
0
XRECORD
5
F8A
102
{ACAD_REACTORS
330
F84
102
}
330
F84
100
AcDbXrecord
280
1
270
1
271
1
0
XRECORD
5
F87
102
{ACAD_REACTORS
330
F84
102
}
330
F84
100
AcDbXrecord
280
1
270
1
271
1
0
XRECORD
5
FFE
102
{ACAD_REACTORS
330
F7C
102
}
330
F7C
100
AcDbXrecord
280
1
102
MATERIAL
148
0.0
149
0.0
149
0.0
93
0
94
127
282
0
72
0
77
0
171
0
175
0
179
0
273
0
0
XRECORD
5
F7E
102
{ACAD_REACTORS
330
F7C
102
}
330
F7C
100
AcDbXrecord
280
1
270
1
271
1
0
XRECORD
5
F7D
102
{ACAD_REACTORS
330
F7C
102
}
330
F7C
100
AcDbXrecord
280
1
270
1
271
1
0
XRECORD
5
F81
102
{ACAD_REACTORS
330
F7C
102
}
330
F7C
100
AcDbXrecord
280
1
270
1
271
1
0
XRECORD
5
F80
102
{ACAD_REACTORS
330
F7C
102
}
330
F7C
100
AcDbXrecord
280
1
270
1
271
1
0
XRECORD
5
F82
102
{ACAD_REACTORS
330
F7C
102
}
330
F7C
100
AcDbXrecord
280
1
270
1
271
1
0
XRECORD
5
F7F
102
{ACAD_REACTORS
330
F7C
102
}
330
F7C
100
AcDbXrecord
280
1
270
1
271
1
0
XRECORD
5
1000
102
{ACAD_REACTORS
330
F8C
102
}
330
F8C
100
AcDbXrecord
280
1
102
MATERIAL
148
0.0
149
0.0
149
0.0
93
0
94
127
282
0
72
0
77
0
171
0
175
0
179
0
273
0
0
XRECORD
5
F8E
102
{ACAD_REACTORS
330
F8C
102
}
330
F8C
100
AcDbXrecord
280
1
270
1
271
1
0
XRECORD
5
F8D
102
{ACAD_REACTORS
330
F8C
102
}
330
F8C
100
AcDbXrecord
280
1
270
1
271
1
0
XRECORD
5
F91
102
{ACAD_REACTORS
330
F8C
102
}
330
F8C
100
AcDbXrecord
280
1
270
1
271
1
0
XRECORD
5
F90
102
{ACAD_REACTORS
330
F8C
102
}
330
F8C
100
AcDbXrecord
280
1
270
1
271
1
0
XRECORD
5
F92
102
{ACAD_REACTORS
330
F8C
102
}
330
F8C
100
AcDbXrecord
280
1
270
1
271
1
0
XRECORD
5
F8F
102
{ACAD_REACTORS
330
F8C
102
}
330
F8C
100
AcDbXrecord
280
1
270
1
271
1
0
CELLSTYLEMAP
5
1079
102
{ACAD_REACTORS
330
FF8
102
}
330
FF8
100
AcDbCellStyleMap
90
3
300
CELLSTYLE
1
TABLEFORMAT_BEGIN
90
5
170
1
91
0
92
32768
62
257
93
1
300
CONTENTFORMAT
1
CONTENTFORMAT_BEGIN
90
0
91
0
92
512
93
0
300

40
0.0
140
1.0
94
5
62
0
340
253
144
0.25
309
CONTENTFORMAT_END
171
1
301
MARGIN
1
CELLMARGIN_BEGIN
40
0.06
40
0.06
40
0.06
40
0.06
40
0.18
40
0.18
309
CELLMARGIN_END
94
6
95
1
302
GRIDFORMAT
1
GRIDFORMAT_BEGIN
90
0
91
1
62
0
92
-2
340
0
93
0
40
0.045
309
GRIDFORMAT_END
95
2
302
GRIDFORMAT
1
GRIDFORMAT_BEGIN
90
0
91
1
62
0
92
-2
340
0
93
0
40
0.045
309
GRIDFORMAT_END
95
4
302
GRIDFORMAT
1
GRIDFORMAT_BEGIN
90
0
91
1
62
0
92
-2
340
0
93
0
40
0.045
309
GRIDFORMAT_END
95
8
302
GRIDFORMAT
1
GRIDFORMAT_BEGIN
90
0
91
1
62
0
92
-2
340
0
93
0
40
0.045
309
GRIDFORMAT_END
95
16
302
GRIDFORMAT
1
GRIDFORMAT_BEGIN
90
0
91
1
62
0
92
-2
340
0
93
0
40
0.045
309
GRIDFORMAT_END
95
32
302
GRIDFORMAT
1
GRIDFORMAT_BEGIN
90
0
91
1
62
0
92
-2
340
0
93
0
40
0.045
309
GRIDFORMAT_END
309
TABLEFORMAT_END
1
CELLSTYLE_BEGIN
90
1
91
1
300
_TITLE
309
CELLSTYLE_END
300
CELLSTYLE
1
TABLEFORMAT_BEGIN
90
5
170
1
91
0
92
0
62
257
93
1
300
CONTENTFORMAT
1
CONTENTFORMAT_BEGIN
90
0
91
0
92
512
93
0
300

40
0.0
140
1.0
94
5
62
0
340
253
144
0.18
309
CONTENTFORMAT_END
171
1
301
MARGIN
1
CELLMARGIN_BEGIN
40
0.06
40
0.06
40
0.06
40
0.06
40
0.18
40
0.18
309
CELLMARGIN_END
94
6
95
1
302
GRIDFORMAT
1
GRIDFORMAT_BEGIN
90
0
91
1
62
0
92
-2
340
0
93
0
40
0.045
309
GRIDFORMAT_END
95
2
302
GRIDFORMAT
1
GRIDFORMAT_BEGIN
90
0
91
1
62
0
92
-2
340
0
93
0
40
0.045
309
GRIDFORMAT_END
95
4
302
GRIDFORMAT
1
GRIDFORMAT_BEGIN
90
0
91
1
62
0
92
-2
340
0
93
0
40
0.045
309
GRIDFORMAT_END
95
8
302
GRIDFORMAT
1
GRIDFORMAT_BEGIN
90
0
91
1
62
0
92
-2
340
0
93
0
40
0.045
309
GRIDFORMAT_END
95
16
302
GRIDFORMAT
1
GRIDFORMAT_BEGIN
90
0
91
1
62
0
92
-2
340
0
93
0
40
0.045
309
GRIDFORMAT_END
95
32
302
GRIDFORMAT
1
GRIDFORMAT_BEGIN
90
0
91
1
62
0
92
-2
340
0
93
0
40
0.045
309
GRIDFORMAT_END
309
TABLEFORMAT_END
1
CELLSTYLE_BEGIN
90
2
91
1
300
_HEADER
309
CELLSTYLE_END
300
CELLSTYLE
1
TABLEFORMAT_BEGIN
90
5
170
1
91
0
92
0
62
257
93
1
300
CONTENTFORMAT
1
CONTENTFORMAT_BEGIN
90
0
91
0
92
512
93
0
300

40
0.0
140
1.0
94
2
62
0
340
253
144
0.18
309
CONTENTFORMAT_END
171
1
301
MARGIN
1
CELLMARGIN_BEGIN
40
0.06
40
0.06
40
0.06
40
0.06
40
0.18
40
0.18
309
CELLMARGIN_END
94
6
95
1
302
GRIDFORMAT
1
GRIDFORMAT_BEGIN
90
0
91
1
62
0
92
-2
340
0
93
0
40
0.045
309
GRIDFORMAT_END
95
2
302
GRIDFORMAT
1
GRIDFORMAT_BEGIN
90
0
91
1
62
0
92
-2
340
0
93
0
40
0.045
309
GRIDFORMAT_END
95
4
302
GRIDFORMAT
1
GRIDFORMAT_BEGIN
90
0
91
1
62
0
92
-2
340
0
93
0
40
0.045
309
GRIDFORMAT_END
95
8
302
GRIDFORMAT
1
GRIDFORMAT_BEGIN
90
0
91
1
62
0
92
-2
340
0
93
0
40
0.045
309
GRIDFORMAT_END
95
16
302
GRIDFORMAT
1
GRIDFORMAT_BEGIN
90
0
91
1
62
0
92
-2
340
0
93
0
40
0.045
309
GRIDFORMAT_END
95
32
302
GRIDFORMAT
1
GRIDFORMAT_BEGIN
90
0
91
1
62
0
92
-2
340
0
93
0
40
0.045
309
GRIDFORMAT_END
309
TABLEFORMAT_END
1
CELLSTYLE_BEGIN
90
3
91
2
300
_DATA
309
CELLSTYLE_END
0
XRECORD
5
10A6
102
{ACAD_REACTORS
330
FF8
102
}
330
FF8
100
AcDbXrecord
280
1
102
ACAD_ROUNDTRIP_PRE2007_TABLESTYLE
90
512
91
0
1

92
512
93
0
2

94
512
95
0
3

0
XRECORD
5
108B
102
{ACAD_REACTORS
330
108A
102
}
330
108A
100
AcDbXrecord
280
1
102
RTVSPropertyOp0
70
1
102
RTVSPropertyOp1
70
1
102
RTVSPropertyOp2
70
1
102
RTVSPropertyOp3
70
1
102
RTVSPropertyOp4
70
1
102
RTVSPropertyOp5
70
1
102
RTVSPropertyOp6
70
1
102
RTVSPropertyOp7
70
1
102
RTVSPropertyOp8
70
1
102
RTVSPropertyOp9
70
1
102
RTVSPropertyOp10
70
1
102
RTVSPropertyOp11
70
1
102
RTVSPropertyOp12
70
1
102
RTVSPropertyOp13
70
1
102
RTVSPropertyOp14
70
1
102
RTVSPropertyOp15
70
1
102
RTVSPropertyOp16
70
1
102
RTVSPropertyOp17
70
1
102
RTVSPropertyOp18
70
1
102
RTVSPropertyOp19
70
1
102
RTVSPropertyOp20
70
1
102
RTVSPropertyOp21
70
1
102
RTVSPropertyOp22
70
1
102
RTVSPropertyOp23
70
1
102
RTVSPropertyOp24
70
1
102
RTVSPropertyOp25
70
1
102
RTVSPropertyOp26
70
1
102
RTVSPropertyOp27
70
1
0
XRECORD
5
108F
102
{ACAD_REACTORS
330
108E
102
}
330
108E
100
AcDbXrecord
280
1
102
RTVSPropertyOp0
70
1
102
RTVSPropertyOp1
70
1
102
RTVSPropertyOp2
70
1
102
RTVSPropertyOp3
70
1
102
RTVSPropertyOp4
70
1
102
RTVSPropertyOp5
70
1
102
RTVSPropertyOp6
70
1
102
RTVSPropertyOp7
70
1
102
RTVSPropertyOp8
70
1
102
RTVSPropertyOp9
70
1
102
RTVSPropertyOp10
70
1
102
RTVSPropertyOp11
70
1
102
RTVSPropertyOp12
70
1
102
RTVSPropertyOp13
70
1
102
RTVSPropertyOp14
70
1
102
RTVSPropertyOp15
70
1
102
RTVSPropertyOp16
70
1
102
RTVSPropertyOp17
70
1
102
RTVSPropertyOp18
70
1
102
RTVSPropertyOp19
70
1
102
RTVSPropertyOp20
70
1
102
RTVSPropertyOp21
70
1
102
RTVSPropertyOp22
70
1
102
RTVSPropertyOp23
70
1
102
RTVSPropertyOp24
70
1
102
RTVSPropertyOp25
70
1
102
RTVSPropertyOp26
70
1
102
RTVSPropertyOp27
70
1
0
XRECORD
5
108D
102
{ACAD_REACTORS
330
108C
102
}
330
108C
100
AcDbXrecord
280
1
102
RTVSPropertyOp0
70
1
102
RTVSPropertyOp1
70
1
102
RTVSPropertyOp2
70
1
102
RTVSPropertyOp3
70
1
102
RTVSPropertyOp4
70
1
102
RTVSPropertyOp5
70
1
102
RTVSPropertyOp6
70
1
102
RTVSPropertyOp7
70
1
102
RTVSPropertyOp8
70
1
102
RTVSPropertyOp9
70
1
102
RTVSPropertyOp10
70
1
102
RTVSPropertyOp11
70
1
102
RTVSPropertyOp12
70
1
102
RTVSPropertyOp13
70
1
102
RTVSPropertyOp14
70
1
102
RTVSPropertyOp15
70
1
102
RTVSPropertyOp16
70
1
102
RTVSPropertyOp17
70
1
102
RTVSPropertyOp18
70
1
102
RTVSPropertyOp19
70
1
102
RTVSPropertyOp20
70
1
102
RTVSPropertyOp21
70
1
102
RTVSPropertyOp22
70
1
102
RTVSPropertyOp23
70
1
102
RTVSPropertyOp24
70
1
102
RTVSPropertyOp25
70
1
102
RTVSPropertyOp26
70
1
102
RTVSPropertyOp27
70
1
0
XRECORD
5
1089
102
{ACAD_REACTORS
330
1088
102
}
330
1088
100
AcDbXrecord
280
1
102
RTVSPropertyOp0
70
1
102
RTVSPropertyOp1
70
1
102
RTVSPropertyOp2
70
1
102
RTVSPropertyOp3
70
1
102
RTVSPropertyOp4
70
1
102
RTVSPropertyOp5
70
1
102
RTVSPropertyOp6
70
1
102
RTVSPropertyOp7
70
1
102
RTVSPropertyOp8
70
1
102
RTVSPropertyOp9
70
1
102
RTVSPropertyOp10
70
1
102
RTVSPropertyOp11
70
1
102
RTVSPropertyOp12
70
1
102
RTVSPropertyOp13
70
1
102
RTVSPropertyOp14
70
1
102
RTVSPropertyOp15
70
1
102
RTVSPropertyOp16
70
1
102
RTVSPropertyOp17
70
1
102
RTVSPropertyOp18
70
1
102
RTVSPropertyOp19
70
1
102
RTVSPropertyOp20
70
1
102
RTVSPropertyOp21
70
1
102
RTVSPropertyOp22
70
1
102
RTVSPropertyOp23
70
1
102
RTVSPropertyOp24
70
1
102
RTVSPropertyOp25
70
1
102
RTVSPropertyOp26
70
1
102
RTVSPropertyOp27
70
1
0
XRECORD
5
1097
102
{ACAD_REACTORS
330
1096
102
}
330
1096
100
AcDbXrecord
280
1
102
RTVSPropertyOp0
70
1
102
RTVSPropertyOp1
70
1
102
RTVSPropertyOp2
70
1
102
RTVSPropertyOp3
70
1
102
RTVSPropertyOp4
70
1
102
RTVSPropertyOp5
70
1
102
RTVSPropertyOp6
70
1
102
RTVSPropertyOp7
70
1
102
RTVSPropertyOp8
70
1
102
RTVSPropertyOp9
70
1
102
RTVSPropertyOp10
70
1
102
RTVSPropertyOp11
70
1
102
RTVSPropertyOp12
70
1
102
RTVSPropertyOp13
70
1
102
RTVSPropertyOp14
70
1
102
RTVSPropertyOp15
70
1
102
RTVSPropertyOp16
70
1
102
RTVSPropertyOp17
70
1
102
RTVSPropertyOp18
70
1
102
RTVSPropertyOp19
70
1
102
RTVSPropertyOp20
70
1
102
RTVSPropertyOp21
70
1
102
RTVSPropertyOp22
70
1
102
RTVSPropertyOp23
70
1
102
RTVSPropertyOp24
70
1
102
RTVSPropertyOp25
70
1
102
RTVSPropertyOp26
70
1
102
RTVSPropertyOp27
70
1
0
XRECORD
5
109F
102
{ACAD_REACTORS
330
109E
102
}
330
109E
100
AcDbXrecord
280
1
102
RTVSPropertyOp0
70
1
102
RTVSPropertyOp1
70
1
102
RTVSPropertyOp2
70
1
102
RTVSPropertyOp3
70
1
102
RTVSPropertyOp4
70
1
102
RTVSPropertyOp5
70
1
102
RTVSPropertyOp6
70
1
102
RTVSPropertyOp7
70
1
102
RTVSPropertyOp8
70
1
102
RTVSPropertyOp9
70
1
102
RTVSPropertyOp10
70
1
102
RTVSPropertyOp11
70
1
102
RTVSPropertyOp12
70
1
102
RTVSPropertyOp13
70
1
102
RTVSPropertyOp14
70
1
102
RTVSPropertyOp15
70
1
102
RTVSPropertyOp16
70
1
102
RTVSPropertyOp17
70
1
102
RTVSPropertyOp18
70
1
102
RTVSPropertyOp19
70
1
102
RTVSPropertyOp20
70
1
102
RTVSPropertyOp21
70
1
102
RTVSPropertyOp22
70
1
102
RTVSPropertyOp23
70
1
102
RTVSPropertyOp24
70
1
102
RTVSPropertyOp25
70
1
102
RTVSPropertyOp26
70
1
102
RTVSPropertyOp27
70
1
0
XRECORD
5
1091
102
{ACAD_REACTORS
330
1090
102
}
330
1090
100
AcDbXrecord
280
1
102
RTVSPropertyOp0
70
1
102
RTVSPropertyOp1
70
1
102
RTVSPropertyOp2
70
1
102
RTVSPropertyOp3
70
1
102
RTVSPropertyOp4
70
1
102
RTVSPropertyOp5
70
1
102
RTVSPropertyOp6
70
1
102
RTVSPropertyOp7
70
1
102
RTVSPropertyOp8
70
1
102
RTVSPropertyOp9
70
1
102
RTVSPropertyOp10
70
1
102
RTVSPropertyOp11
70
1
102
RTVSPropertyOp12
70
1
102
RTVSPropertyOp13
70
1
102
RTVSPropertyOp14
70
1
102
RTVSPropertyOp15
70
1
102
RTVSPropertyOp16
70
1
102
RTVSPropertyOp17
70
1
102
RTVSPropertyOp18
70
1
102
RTVSPropertyOp19
70
1
102
RTVSPropertyOp20
70
1
102
RTVSPropertyOp21
70
1
102
RTVSPropertyOp22
70
1
102
RTVSPropertyOp23
70
1
102
RTVSPropertyOp24
70
1
102
RTVSPropertyOp25
70
1
102
RTVSPropertyOp26
70
1
102
RTVSPropertyOp27
70
1
0
XRECORD
5
1095
102
{ACAD_REACTORS
330
1094
102
}
330
1094
100
AcDbXrecord
280
1
102
RTVSPropertyOp0
70
1
102
RTVSPropertyOp1
70
1
102
RTVSPropertyOp2
70
1
102
RTVSPropertyOp3
70
1
102
RTVSPropertyOp4
70
1
102
RTVSPropertyOp5
70
1
102
RTVSPropertyOp6
70
1
102
RTVSPropertyOp7
70
1
102
RTVSPropertyOp8
70
1
102
RTVSPropertyOp9
70
1
102
RTVSPropertyOp10
70
1
102
RTVSPropertyOp11
70
1
102
RTVSPropertyOp12
70
1
102
RTVSPropertyOp13
70
1
102
RTVSPropertyOp14
70
1
102
RTVSPropertyOp15
70
1
102
RTVSPropertyOp16
70
1
102
RTVSPropertyOp17
70
1
102
RTVSPropertyOp18
70
1
102
RTVSPropertyOp19
70
1
102
RTVSPropertyOp20
70
1
102
RTVSPropertyOp21
70
1
102
RTVSPropertyOp22
70
1
102
RTVSPropertyOp23
70
1
102
RTVSPropertyOp24
70
1
102
RTVSPropertyOp25
70
1
102
RTVSPropertyOp26
70
1
102
RTVSPropertyOp27
70
1
0
XRECORD
5
10A5
102
{ACAD_REACTORS
330
10A4
102
}
330
10A4
100
AcDbXrecord
280
1
102
RTVSPropertyOp0
70
0
102
RTVSPropertyOp1
70
0
102
RTVSPropertyOp2
70
0
102
RTVSPropertyOp3
70
0
102
RTVSPropertyOp4
70
0
102
RTVSPropertyOp5
70
0
102
RTVSPropertyOp6
70
0
102
RTVSPropertyOp7
70
0
102
RTVSPropertyOp8
70
0
102
RTVSPropertyOp9
70
0
102
RTVSPropertyOp10
70
0
102
RTVSPropertyOp11
70
0
102
RTVSPropertyOp12
70
0
102
RTVSPropertyOp13
70
0
102
RTVSPropertyOp14
70
2
102
RTVSPropertyOp15
70
0
102
RTVSPropertyOp16
70
0
102
RTVSPropertyOp17
70
0
102
RTVSPropertyOp18
70
0
102
RTVSPropertyOp19
70
0
102
RTVSPropertyOp20
70
0
102
RTVSPropertyOp21
70
0
102
RTVSPropertyOp22
70
0
102
RTVSPropertyOp23
70
0
102
RTVSPropertyOp24
70
0
102
RTVSPropertyOp25
70
0
102
RTVSPropertyOp26
70
0
102
RTVSPropertyOp27
70
0
0
XRECORD
5
109D
102
{ACAD_REACTORS
330
109C
102
}
330
109C
100
AcDbXrecord
280
1
102
RTVSPropertyOp0
70
1
102
RTVSPropertyOp1
70
1
102
RTVSPropertyOp2
70
1
102
RTVSPropertyOp3
70
1
102
RTVSPropertyOp4
70
1
102
RTVSPropertyOp5
70
1
102
RTVSPropertyOp6
70
1
102
RTVSPropertyOp7
70
1
102
RTVSPropertyOp8
70
1
102
RTVSPropertyOp9
70
1
102
RTVSPropertyOp10
70
1
102
RTVSPropertyOp11
70
1
102
RTVSPropertyOp12
70
1
102
RTVSPropertyOp13
70
1
102
RTVSPropertyOp14
70
1
102
RTVSPropertyOp15
70
1
102
RTVSPropertyOp16
70
1
102
RTVSPropertyOp17
70
1
102
RTVSPropertyOp18
70
1
102
RTVSPropertyOp19
70
1
102
RTVSPropertyOp20
70
1
102
RTVSPropertyOp21
70
1
102
RTVSPropertyOp22
70
1
102
RTVSPropertyOp23
70
1
102
RTVSPropertyOp24
70
1
102
RTVSPropertyOp25
70
1
102
RTVSPropertyOp26
70
1
102
RTVSPropertyOp27
70
1
0
XRECORD
5
1081
102
{ACAD_REACTORS
330
1080
102
}
330
1080
100
AcDbXrecord
280
1
102
RTVSPropertyOp0
70
1
102
RTVSPropertyOp1
70
1
102
RTVSPropertyOp2
70
1
102
RTVSPropertyOp3
70
1
102
RTVSPropertyOp4
70
1
102
RTVSPropertyOp5
70
1
102
RTVSPropertyOp6
70
1
102
RTVSPropertyOp7
70
1
102
RTVSPropertyOp8
70
1
102
RTVSPropertyOp9
70
1
102
RTVSPropertyOp10
70
1
102
RTVSPropertyOp11
70
1
102
RTVSPropertyOp12
70
1
102
RTVSPropertyOp13
70
1
102
RTVSPropertyOp14
70
1
102
RTVSPropertyOp15
70
1
102
RTVSPropertyOp16
70
1
102
RTVSPropertyOp17
70
1
102
RTVSPropertyOp18
70
1
102
RTVSPropertyOp19
70
1
102
RTVSPropertyOp20
70
1
102
RTVSPropertyOp21
70
1
102
RTVSPropertyOp22
70
1
102
RTVSPropertyOp23
70
1
102
RTVSPropertyOp24
70
1
102
RTVSPropertyOp25
70
1
102
RTVSPropertyOp26
70
1
102
RTVSPropertyOp27
70
1
0
XRECORD
5
1083
102
{ACAD_REACTORS
330
1082
102
}
330
1082
100
AcDbXrecord
280
1
102
RTVSPropertyOp0
70
1
102
RTVSPropertyOp1
70
1
102
RTVSPropertyOp2
70
1
102
RTVSPropertyOp3
70
1
102
RTVSPropertyOp4
70
1
102
RTVSPropertyOp5
70
1
102
RTVSPropertyOp6
70
1
102
RTVSPropertyOp7
70
1
102
RTVSPropertyOp8
70
1
102
RTVSPropertyOp9
70
1
102
RTVSPropertyOp10
70
1
102
RTVSPropertyOp11
70
1
102
RTVSPropertyOp12
70
1
102
RTVSPropertyOp13
70
1
102
RTVSPropertyOp14
70
1
102
RTVSPropertyOp15
70
1
102
RTVSPropertyOp16
70
1
102
RTVSPropertyOp17
70
1
102
RTVSPropertyOp18
70
1
102
RTVSPropertyOp19
70
1
102
RTVSPropertyOp20
70
1
102
RTVSPropertyOp21
70
1
102
RTVSPropertyOp22
70
1
102
RTVSPropertyOp23
70
1
102
RTVSPropertyOp24
70
1
102
RTVSPropertyOp25
70
1
102
RTVSPropertyOp26
70
1
102
RTVSPropertyOp27
70
1
0
XRECORD
5
1085
102
{ACAD_REACTORS
330
1084
102
}
330
1084
100
AcDbXrecord
280
1
102
RTVSPropertyOp0
70
1
102
RTVSPropertyOp1
70
1
102
RTVSPropertyOp2
70
1
102
RTVSPropertyOp3
70
1
102
RTVSPropertyOp4
70
1
102
RTVSPropertyOp5
70
1
102
RTVSPropertyOp6
70
1
102
RTVSPropertyOp7
70
1
102
RTVSPropertyOp8
70
1
102
RTVSPropertyOp9
70
1
102
RTVSPropertyOp10
70
1
102
RTVSPropertyOp11
70
1
102
RTVSPropertyOp12
70
1
102
RTVSPropertyOp13
70
1
102
RTVSPropertyOp14
70
1
102
RTVSPropertyOp15
70
1
102
RTVSPropertyOp16
70
1
102
RTVSPropertyOp17
70
1
102
RTVSPropertyOp18
70
1
102
RTVSPropertyOp19
70
1
102
RTVSPropertyOp20
70
1
102
RTVSPropertyOp21
70
1
102
RTVSPropertyOp22
70
1
102
RTVSPropertyOp23
70
1
102
RTVSPropertyOp24
70
1
102
RTVSPropertyOp25
70
1
102
RTVSPropertyOp26
70
1
102
RTVSPropertyOp27
70
1
0
XRECORD
5
1087
102
{ACAD_REACTORS
330
1086
102
}
330
1086
100
AcDbXrecord
280
1
102
RTVSPropertyOp0
70
1
102
RTVSPropertyOp1
70
1
102
RTVSPropertyOp2
70
1
102
RTVSPropertyOp3
70
1
102
RTVSPropertyOp4
70
1
102
RTVSPropertyOp5
70
1
102
RTVSPropertyOp6
70
1
102
RTVSPropertyOp7
70
1
102
RTVSPropertyOp8
70
1
102
RTVSPropertyOp9
70
1
102
RTVSPropertyOp10
70
1
102
RTVSPropertyOp11
70
1
102
RTVSPropertyOp12
70
1
102
RTVSPropertyOp13
70
1
102
RTVSPropertyOp14
70
1
102
RTVSPropertyOp15
70
1
102
RTVSPropertyOp16
70
1
102
RTVSPropertyOp17
70
1
102
RTVSPropertyOp18
70
1
102
RTVSPropertyOp19
70
1
102
RTVSPropertyOp20
70
1
102
RTVSPropertyOp21
70
1
102
RTVSPropertyOp22
70
1
102
RTVSPropertyOp23
70
1
102
RTVSPropertyOp24
70
1
102
RTVSPropertyOp25
70
1
102
RTVSPropertyOp26
70
1
102
RTVSPropertyOp27
70
1
0
XRECORD
5
10A1
102
{ACAD_REACTORS
330
10A0
102
}
330
10A0
100
AcDbXrecord
280
1
102
RTVSPropertyOp0
70
0
102
RTVSPropertyOp1
70
0
102
RTVSPropertyOp2
70
0
102
RTVSPropertyOp3
70
0
102
RTVSPropertyOp4
70
0
102
RTVSPropertyOp5
70
0
102
RTVSPropertyOp6
70
0
102
RTVSPropertyOp7
70
0
102
RTVSPropertyOp8
70
0
102
RTVSPropertyOp9
70
0
102
RTVSPropertyOp10
70
0
102
RTVSPropertyOp11
70
0
102
RTVSPropertyOp12
70
0
102
RTVSPropertyOp13
70
0
102
RTVSPropertyOp14
70
2
102
RTVSPropertyOp15
70
0
102
RTVSPropertyOp16
70
0
102
RTVSPropertyOp17
70
0
102
RTVSPropertyOp18
70
0
102
RTVSPropertyOp19
70
0
102
RTVSPropertyOp20
70
0
102
RTVSPropertyOp21
70
0
102
RTVSPropertyOp22
70
0
102
RTVSPropertyOp23
70
0
102
RTVSPropertyOp24
70
0
102
RTVSPropertyOp25
70
0
102
RTVSPropertyOp26
70
0
102
RTVSPropertyOp27
70
0
0
XRECORD
5
109B
102
{ACAD_REACTORS
330
109A
102
}
330
109A
100
AcDbXrecord
280
1
102
RTVSPropertyOp0
70
1
102
RTVSPropertyOp1
70
1
102
RTVSPropertyOp2
70
1
102
RTVSPropertyOp3
70
1
102
RTVSPropertyOp4
70
1
102
RTVSPropertyOp5
70
1
102
RTVSPropertyOp6
70
1
102
RTVSPropertyOp7
70
1
102
RTVSPropertyOp8
70
1
102
RTVSPropertyOp9
70
1
102
RTVSPropertyOp10
70
1
102
RTVSPropertyOp11
70
1
102
RTVSPropertyOp12
70
1
102
RTVSPropertyOp13
70
1
102
RTVSPropertyOp14
70
1
102
RTVSPropertyOp15
70
1
102
RTVSPropertyOp16
70
1
102
RTVSPropertyOp17
70
1
102
RTVSPropertyOp18
70
1
102
RTVSPropertyOp19
70
1
102
RTVSPropertyOp20
70
1
102
RTVSPropertyOp21
70
1
102
RTVSPropertyOp22
70
1
102
RTVSPropertyOp23
70
1
102
RTVSPropertyOp24
70
1
102
RTVSPropertyOp25
70
1
102
RTVSPropertyOp26
70
1
102
RTVSPropertyOp27
70
1
0
XRECORD
5
10A3
102
{ACAD_REACTORS
330
10A2
102
}
330
10A2
100
AcDbXrecord
280
1
102
RTVSPropertyOp0
70
0
102
RTVSPropertyOp1
70
0
102
RTVSPropertyOp2
70
0
102
RTVSPropertyOp3
70
0
102
RTVSPropertyOp4
70
0
102
RTVSPropertyOp5
70
0
102
RTVSPropertyOp6
70
0
102
RTVSPropertyOp7
70
0
102
RTVSPropertyOp8
70
0
102
RTVSPropertyOp9
70
0
102
RTVSPropertyOp10
70
0
102
RTVSPropertyOp11
70
0
102
RTVSPropertyOp12
70
0
102
RTVSPropertyOp13
70
0
102
RTVSPropertyOp14
70
2
102
RTVSPropertyOp15
70
0
102
RTVSPropertyOp16
70
0
102
RTVSPropertyOp17
70
0
102
RTVSPropertyOp18
70
0
102
RTVSPropertyOp19
70
0
102
RTVSPropertyOp20
70
0
102
RTVSPropertyOp21
70
0
102
RTVSPropertyOp22
70
0
102
RTVSPropertyOp23
70
0
102
RTVSPropertyOp24
70
0
102
RTVSPropertyOp25
70
0
102
RTVSPropertyOp26
70
0
102
RTVSPropertyOp27
70
0
0
XRECORD
5
1093
102
{ACAD_REACTORS
330
1092
102
}
330
1092
100
AcDbXrecord
280
1
102
RTVSPropertyOp0
70
1
102
RTVSPropertyOp1
70
1
102
RTVSPropertyOp2
70
1
102
RTVSPropertyOp3
70
1
102
RTVSPropertyOp4
70
1
102
RTVSPropertyOp5
70
1
102
RTVSPropertyOp6
70
1
102
RTVSPropertyOp7
70
1
102
RTVSPropertyOp8
70
1
102
RTVSPropertyOp9
70
1
102
RTVSPropertyOp10
70
1
102
RTVSPropertyOp11
70
1
102
RTVSPropertyOp12
70
1
102
RTVSPropertyOp13
70
1
102
RTVSPropertyOp14
70
1
102
RTVSPropertyOp15
70
1
102
RTVSPropertyOp16
70
1
102
RTVSPropertyOp17
70
1
102
RTVSPropertyOp18
70
1
102
RTVSPropertyOp19
70
1
102
RTVSPropertyOp20
70
1
102
RTVSPropertyOp21
70
1
102
RTVSPropertyOp22
70
1
102
RTVSPropertyOp23
70
1
102
RTVSPropertyOp24
70
1
102
RTVSPropertyOp25
70
1
102
RTVSPropertyOp26
70
1
102
RTVSPropertyOp27
70
1
0
XRECORD
5
1099
102
{ACAD_REACTORS
330
1098
102
}
330
1098
100
AcDbXrecord
280
1
102
RTVSPropertyOp0
70
1
102
RTVSPropertyOp1
70
1
102
RTVSPropertyOp2
70
1
102
RTVSPropertyOp3
70
1
102
RTVSPropertyOp4
70
1
102
RTVSPropertyOp5
70
1
102
RTVSPropertyOp6
70
1
102
RTVSPropertyOp7
70
1
102
RTVSPropertyOp8
70
1
102
RTVSPropertyOp9
70
1
102
RTVSPropertyOp10
70
1
102
RTVSPropertyOp11
70
1
102
RTVSPropertyOp12
70
1
102
RTVSPropertyOp13
70
1
102
RTVSPropertyOp14
70
1
102
RTVSPropertyOp15
70
1
102
RTVSPropertyOp16
70
1
102
RTVSPropertyOp17
70
1
102
RTVSPropertyOp18
70
1
102
RTVSPropertyOp19
70
1
102
RTVSPropertyOp20
70
1
102
RTVSPropertyOp21
70
1
102
RTVSPropertyOp22
70
1
102
RTVSPropertyOp23
70
1
102
RTVSPropertyOp24
70
1
102
RTVSPropertyOp25
70
1
102
RTVSPropertyOp26
70
1
102
RTVSPropertyOp27
70
1
0
ENDSEC
0
EOF
