0
SECTION
2
HEADER
9
$ACADVER
1
AC1015
9
$ACADMAINTVER
70
20
9
$DWGCODEPAGE
3
ANSI_1252
9
$INSBASE
10
0.0
20
0.0
30
0.0
9
$EXTMIN
10
-150.000000000000
20
-105.000000000000
30
0.0
9
$EXTMAX
10
150.000000000000
20
105.000000000000
30
0.0
9
$LIMMIN
10
0.0
20
0.0
9
$LIMMAX
10
12.0
20
9.0
9
$ORTHOMODE
70
0
9
$REGENMODE
70
1
9
$FILLMODE
70
1
9
$QTEXTMODE
70
0
9
$MIRRTEXT
70
1
9
$LTSCALE
40
1.0
9
$ATTMODE
70
1
9
$TEXTSIZE
40
0.2
9
$TRACEWID
40
0.05
9
$TEXTSTYLE
7
Standard
9
$CLAYER
8
0
9
$CELTYPE
6
ByLayer
9
$CECOLOR
62
256
9
$CELTSCALE
40
1.0
9
$DISPSILH
70
0
9
$DIMSCALE
40
1.0
9
$DIMASZ
40
2.5
9
$DIMEXO
40
0.625
9
$DIMDLI
40
0.38
9
$DIMRND
40
0.0
9
$DIMDLE
40
0.0
9
$DIMEXE
40
1.25
9
$DIMTP
40
0.0
9
$DIMTM
40
0.000000001
9
$DIMTXT
40
2.5
9
$DIMCEN
40
0.09
9
$DIMTSZ
40
0.0
9
$DIMTOL
70
1
9
$DIMLIM
70
0
9
$DIMTIH
70
0
9
$DIMTOH
70
0
9
$DIMSE1
70
0
9
$DIMSE2
70
0
9
$DIMTAD
70
1
9
$DIMZIN
70
0
9
$DIMBLK
1
VDDIM_DEFAULT
9
$DIMASO
70
1
9
$DIMSHO
70
1
9
$DIMPOST
1

9
$DIMAPOST
1

9
$DIMALT
70
0
9
$DIMALTD
70
2
9
$DIMALTF
40
25.4
9
$DIMLFAC
40
1.00000000000000
9
$DIMTOFL
70
0
9
$DIMTVP
40
0.0
9
$DIMTIX
70
0
9
$DIMSOXD
70
0
9
$DIMSAH
70
0
9
$DIMBLK1
1

9
$DIMBLK2
1

9
$DIMSTYLE
2
BEM-ISBE
9
$DIMCLRD
70
0
9
$DIMCLRE
70
0
9
$DIMCLRT
70
0
9
$DIMTFAC
40
0.5
9
$DIMGAP
40
0.625
9
$DIMJUST
70
0
9
$DIMSD1
70
0
9
$DIMSD2
70
0
9
$DIMTOLJ
70
1
9
$DIMTZIN
70
0
9
$DIMALTZ
70
0
9
$DIMALTTZ
70
0
9
$DIMUPT
70
0
9
$DIMDEC
70
3
9
$DIMTDEC
70
3
9
$DIMALTU
70
2
9
$DIMALTTD
70
2
9
$DIMTXSTY
7
Standard
9
$DIMAUNIT
70
0
9
$DIMADEC
70
3
9
$DIMALTRND
40
0.0
9
$DIMAZIN
70
0
9
$DIMDSEP
70
46
9
$DIMATFIT
70
3
9
$DIMFRAC
70
0
9
$DIMLDRBLK
1

9
$DIMLUNIT
70
2
9
$DIMLWD
70
-2
9
$DIMLWE
70
-2
9
$DIMTMOVE
70
0
9
$LUNITS
70
2
9
$LUPREC
70
4
9
$SKETCHINC
40
0.1
9
$FILLETRAD
40
0.5
9
$AUNITS
70
0
9
$AUPREC
70
0
9
$MENU
1
.
9
$ELEVATION
40
0.0
9
$PELEVATION
40
0.0
9
$THICKNESS
40
0.0
9
$LIMCHECK
70
0
9
$CHAMFERA
40
0.5
9
$CHAMFERB
40
0.5
9
$CHAMFERC
40
1.0
9
$CHAMFERD
40
0.0
9
$SKPOLY
70
0
9
$TDCREATE
40
0.0
9
$TDUCREATE
40
0.0
9
$TDUPDATE
40
0.0
9
$TDUUPDATE
40
0.0
9
$TDINDWG
40
0.0
9
$TDUSRTIMER
40
0.0
9
$USRTIMER
70
1
9
$ANGBASE
50
0.0
9
$ANGDIR
70
0
9
$PDMODE
70
0
9
$PDSIZE
40
0.0
9
$PLINEWID
40
0.0
9
$SPLFRAME
70
0
9
$SPLINETYPE
70
6
9
$SPLINESEGS
70
8
9
$HANDSEED
5
10AB
9
$SURFTAB1
70
6
9
$SURFTAB2
70
6
9
$SURFTYPE
70
6
9
$SURFU
70
6
9
$SURFV
70
6
9
$UCSBASE
2

9
$UCSNAME
2

9
$UCSORG
10
0.0
20
0.0
30
0.0
9
$UCSXDIR
10
1.0
20
0.0
30
0.0
9
$UCSYDIR
10
0.0
20
1.0
30
0.0
9
$UCSORTHOREF
2

9
$UCSORTHOVIEW
70
0
9
$UCSORGTOP
10
0.0
20
0.0
30
0.0
9
$UCSORGBOTTOM
10
0.0
20
0.0
30
0.0
9
$UCSORGLEFT
10
0.0
20
0.0
30
0.0
9
$UCSORGRIGHT
10
0.0
20
0.0
30
0.0
9
$UCSORGFRONT
10
0.0
20
0.0
30
0.0
9
$UCSORGBACK
10
0.0
20
0.0
30
0.0
9
$PUCSBASE
2

9
$PUCSNAME
2

9
$PUCSORG
10
0.0
20
0.0
30
0.0
9
$PUCSXDIR
10
1.0
20
0.0
30
0.0
9
$PUCSYDIR
10
0.0
20
1.0
30
0.0
9
$PUCSORTHOREF
2

9
$PUCSORTHOVIEW
70
0
9
$PUCSORGTOP
10
0.0
20
0.0
30
0.0
9
$PUCSORGBOTTOM
10
0.0
20
0.0
30
0.0
9
$PUCSORGLEFT
10
0.0
20
0.0
30
0.0
9
$PUCSORGRIGHT
10
0.0
20
0.0
30
0.0
9
$PUCSORGFRONT
10
0.0
20
0.0
30
0.0
9
$PUCSORGBACK
10
0.0
20
0.0
30
0.0
9
$USERI1
70
0
9
$USERI2
70
0
9
$USERI3
70
0
9
$USERI4
70
0
9
$USERI5
70
0
9
$USERR1
40
0.0
9
$USERR2
40
0.0
9
$USERR3
40
0.0
9
$USERR4
40
0.0
9
$USERR5
40
0.0
9
$WORLDVIEW
70
1
9
$SHADEDGE
70
3
9
$SHADEDIF
70
70
9
$TILEMODE
70
1
9
$MAXACTVP
70
64
9
$PINSBASE
10
0.0
20
0.0
30
0.0
9
$PLIMCHECK
70
0
9
$PEXTMIN
10
1.000000000000000E+20
20
1.000000000000000E+20
30
1.000000000000000E+20
9
$PEXTMAX
10
-1.000000000000000E+20
20
-1.000000000000000E+20
30
-1.000000000000000E+20
9
$PLIMMIN
10
0.0
20
0.0
9
$PLIMMAX
10
12.0
20
9.0
9
$UNITMODE
70
0
9
$VISRETAIN
70
1
9
$PLINEGEN
70
0
9
$PSLTSCALE
70
1
9
$TREEDEPTH
70
3020
9
$CMLSTYLE
2
Standard
9
$CMLJUST
70
0
9
$CMLSCALE
40
1.0
9
$PROXYGRAPHICS
70
1
9
$MEASUREMENT
70
0
9
$CELWEIGHT
370
-1
9
$ENDCAPS
280
0
9
$JOINSTYLE
280
0
9
$LWDISPLAY
290
0
9
$INSUNITS
70
4
9
$HYPERLINKBASE
1

9
$STYLESHEET
1

9
$XEDIT
290
1
9
$CEPSNTYPE
380
0
9
$PSTYLEMODE
290
0
9
$FINGERPRINTGUID
2
{FAEB1C30-E019-11D5-929B-00C0DF256EC4}
9
$VERSIONGUID
2
{04C5C4E4-4947-4D90-8812-D401569E61F7}
9
$EXTNAMES
290
1
9
$PSVPSCALE
40
0.0
9
$OLESTARTUP
290
0
0
ENDSEC
0
SECTION
2
TABLES
0
TABLE
2
VPORT
5
24A
330
0
100
AcDbSymbolTable
70
1
0
VPORT
5
26B
330
24A
100
AcDbSymbolTableRecord
100
AcDbViewportTableRecord
2
*Active
70
0
10
0.0
20
0.0
11
1.0
21
1.0
12
0.000000000000000
22
0.000000000000000
13
0.0
23
0.0
14
10.0
24
10.0
15
10.0
25
10.0
16
0.0
26
0.0
36
1.0
17
0.0
27
0.0
37
0.0
40
210.000000000000
41
1.42857142857143
42
1.0
43
0.0
44
0.0
50
0.0
51
0.0000000000007958
71
0
72
100
73
1
74
3
75
0
76
0
77
0
78
1
281
0
65
1
110
0.0
120
0.0
130
0.0
111
1.0
121
0.0
131
0.0
112
0.0
122
1.0
132
0.0
79
0
146
0.0
0
ENDTAB
0
TABLE
2
LTYPE
5
247
330
0
100
AcDbSymbolTable
70
25
0
LTYPE
5
256
330
247
100
AcDbSymbolTableRecord
100
AcDbLinetypeTableRecord
2
ByBlock
70
0
3

72
65
73
0
40
0.0
0
LTYPE
5
257
330
247
100
AcDbSymbolTableRecord
100
AcDbLinetypeTableRecord
2
ByLayer
70
0
3

72
65
73
0
40
0.0
0
LTYPE
5
258
330
247
100
AcDbSymbolTableRecord
100
AcDbLinetypeTableRecord
2
Continuous
70
0
3
Solid line
72
65
73
0
40
0.0
0
LTYPE
5
273
330
247
100
AcDbSymbolTableRecord
100
AcDbLinetypeTableRecord
2
CENTER
70
0
3
Center ____ _ ____ _ ____ _ ____ _ ____ _ ____
72
65
73
4
40
2.0
49
1.25
74
0
49
-0.25
74
0
49
0.25
74
0
49
-0.25
74
0
0
LTYPE
5
274
330
247
100
AcDbSymbolTableRecord
100
AcDbLinetypeTableRecord
2
DASHDOT
70
0
3
Dashdot __ . __ . __ . __ . __ . __ . __ . __
72
65
73
4
40
1.0
49
0.5
74
0
49
-0.25
74
0
49
0.0
74
0
49
-0.25
74
0
0
LTYPE
5
275
330
247
100
AcDbSymbolTableRecord
100
AcDbLinetypeTableRecord
2
DASHED
70
0
3
Dashed __ __ __ __ __ __ __ __ __ __ __ __ __ _
72
65
73
2
40
0.75
49
0.5
74
0
49
-0.25
74
0
0
LTYPE
5
276
330
247
100
AcDbSymbolTableRecord
100
AcDbLinetypeTableRecord
2
HIDDEN
70
0
3
Hidden __ __ __ __ __ __ __ __ __ __ __ __ __ __
72
65
73
2
40
0.375
49
0.25
74
0
49
-0.125
74
0
0
LTYPE
5
277
330
247
100
AcDbSymbolTableRecord
100
AcDbLinetypeTableRecord
2
HIDDEN2
70
0
3
Hidden2 _ _ _ _ _ _ _ _ _ _ _ _ _ _ _ _ _
72
65
73
2
40
0.1875
49
0.125
74
0
49
-0.0625
74
0
0
LTYPE
5
278
330
247
100
AcDbSymbolTableRecord
100
AcDbLinetypeTableRecord
2
BORDER
70
0
3
Border __ __ . __ __ . __ __ . __ __ . __ __ .
72
65
73
6
40
1.75
49
0.5
74
0
49
-0.25
74
0
49
0.5
74
0
49
-0.25
74
0
49
0.0
74
0
49
-0.25
74
0
0
LTYPE
5
279
330
247
100
AcDbSymbolTableRecord
100
AcDbLinetypeTableRecord
2
BORDER2
70
0
3
Border2 __.__.__.__.__.__.__.__.__.__.__.
72
65
73
6
40
0.875
49
0.25
74
0
49
-0.125
74
0
49
0.25
74
0
49
-0.125
74
0
49
0.0
74
0
49
-0.125
74
0
0
LTYPE
5
27A
330
247
100
AcDbSymbolTableRecord
100
AcDbLinetypeTableRecord
2
BORDERX2
70
0
3
Borderx2  ____  ____  .  ____  ____  .  ___
72
65
73
6
40
3.5
49
1.0
74
0
49
-0.5
74
0
49
1.0
74
0
49
-0.5
74
0
49
0.0
74
0
49
-0.5
74
0
0
LTYPE
5
27B
330
247
100
AcDbSymbolTableRecord
100
AcDbLinetypeTableRecord
2
CENTER2
70
0
3
Center2  ___ _ ___ _ ___ _ ___ _ ___ _ ___
72
65
73
4
40
1.125
49
0.75
74
0
49
-0.125
74
0
49
0.125
74
0
49
-0.125
74
0
0
LTYPE
5
27C
330
247
100
AcDbSymbolTableRecord
100
AcDbLinetypeTableRecord
2
CENTERX2
70
0
3
Centerx2  ________  __  ________  __  _____
72
65
73
4
40
4.0
49
2.5
74
0
49
-0.5
74
0
49
0.5
74
0
49
-0.5
74
0
0
LTYPE
5
27D
330
247
100
AcDbSymbolTableRecord
100
AcDbLinetypeTableRecord
2
DASHDOT2
70
0
3
Dashdot2  _._._._._._._._._._._._._._._.
72
65
73
4
40
0.5
49
0.25
74
0
49
-0.125
74
0
49
0.0
74
0
49
-0.125
74
0
0
LTYPE
5
27E
330
247
100
AcDbSymbolTableRecord
100
AcDbLinetypeTableRecord
2
DASHDOTX2
70
0
3
Dashdotx2 ____  .  ____  .  ____  .  ___
72
65
73
4
40
2.0
49
1.0
74
0
49
-0.5
74
0
49
0.0
74
0
49
-0.5
74
0
0
LTYPE
5
27F
330
247
100
AcDbSymbolTableRecord
100
AcDbLinetypeTableRecord
2
DASHED2
70
0
3
Dashed2 _ _ _ _ _ _ _ _ _ _ _ _ _ _ _ _ _
72
65
73
2
40
0.375
49
0.25
74
0
49
-0.125
74
0
0
LTYPE
5
280
330
247
100
AcDbSymbolTableRecord
100
AcDbLinetypeTableRecord
2
DASHEDX2
70
0
3
Dashedx2 ____  ____  ____  ____  ____  ___
72
65
73
2
40
1.5
49
1.0
74
0
49
-0.5
74
0
0
LTYPE
5
281
330
247
100
AcDbSymbolTableRecord
100
AcDbLinetypeTableRecord
2
DIVIDE
70
0
3
Divide ____ . . ____ . . ____ . . ____ . . ____
72
65
73
6
40
1.25
49
0.5
74
0
49
-0.25
74
0
49
0.0
74
0
49
-0.25
74
0
49
0.0
74
0
49
-0.25
74
0
0
LTYPE
5
282
330
247
100
AcDbSymbolTableRecord
100
AcDbLinetypeTableRecord
2
DIVIDE2
70
0
3
Divide2 __..__..__..__..__..__..__..__.._
72
65
73
6
40
0.625
49
0.25
74
0
49
-0.125
74
0
49
0.0
74
0
49
-0.125
74
0
49
0.0
74
0
49
-0.125
74
0
0
LTYPE
5
283
330
247
100
AcDbSymbolTableRecord
100
AcDbLinetypeTableRecord
2
DIVIDEX2
70
0
3
Dividex2 ________  .  .  ________  .  .  _
72
65
73
6
40
2.5
49
1.0
74
0
49
-0.5
74
0
49
0.0
74
0
49
-0.5
74
0
49
0.0
74
0
49
-0.5
74
0
0
LTYPE
5
284
330
247
100
AcDbSymbolTableRecord
100
AcDbLinetypeTableRecord
2
DOT
70
0
3
Dot . . . . . . . . . . . . . . . . . . . . . . . .
72
65
73
2
40
0.25
49
0.0
74
0
49
-0.25
74
0
0
LTYPE
5
285
330
247
100
AcDbSymbolTableRecord
100
AcDbLinetypeTableRecord
2
DOT2
70
0
3
Dot2 ........................................
72
65
73
2
40
0.125
49
0.0
74
0
49
-0.125
74
0
0
LTYPE
5
286
330
247
100
AcDbSymbolTableRecord
100
AcDbLinetypeTableRecord
2
DOTX2
70
0
3
Dotx2 .  .  .  .  .  .  .  .  .  .  .  .  .  .
72
65
73
2
40
0.5
49
0.0
74
0
49
-0.5
74
0
0
LTYPE
5
287
330
247
100
AcDbSymbolTableRecord
100
AcDbLinetypeTableRecord
2
HIDDENX2
70
0
3
Hiddenx2 ____ ____ ____ ____ ____ ____ ____
72
65
73
2
40
0.75
49
0.5
74
0
49
-0.25
74
0
0
LTYPE
5
288
330
247
100
AcDbSymbolTableRecord
100
AcDbLinetypeTableRecord
2
PHANTOM
70
0
3
Phantom ______  __  __  ______  __  __  ______
72
65
73
6
40
2.5
49
1.25
74
0
49
-0.25
74
0
49
0.25
74
0
49
-0.25
74
0
49
0.25
74
0
49
-0.25
74
0
0
LTYPE
5
289
330
247
100
AcDbSymbolTableRecord
100
AcDbLinetypeTableRecord
2
PHANTOM2
70
0
3
Phantom2 ___ _ _ ___ _ _ ___ _ _ ___ _ _
72
65
73
6
40
1.25
49
0.625
74
0
49
-0.125
74
0
49
0.125
74
0
49
-0.125
74
0
49
0.125
74
0
49
-0.125
74
0
0
LTYPE
5
28A
330
247
100
AcDbSymbolTableRecord
100
AcDbLinetypeTableRecord
2
PHANTOMX2
70
0
3
Phantomx2 ____________    ____    ____   _
72
65
73
6
40
5.0
49
2.5
74
0
49
-0.5
74
0
49
0.5
74
0
49
-0.5
74
0
49
0.5
74
0
49
-0.5
74
0
0
ENDTAB
0
TABLE
2
LAYER
5
244
330
0
100
AcDbSymbolTable
70
6
0
LAYER
5
252
330
244
100
AcDbSymbolTableRecord
100
AcDbLayerTableRecord
2
0
70
0
62
7
6
Continuous
370
0
390
251
0
LAYER
5
23F
330
244
100
AcDbSymbolTableRecord
100
AcDbLayerTableRecord
2
Bemassung
70
0
 62
   7
6
Continuous
370
0
390
251
0
LAYER
5
240
330
244
100
AcDbSymbolTableRecord
100
AcDbLayerTableRecord
2
Rahmen
70
0
 62
   7
6
Continuous
370
0
390
251
0
LAYER
5
241
330
244
100
AcDbSymbolTableRecord
100
AcDbLayerTableRecord
2
Geo
70
0
 62
   7
6
Continuous
370
0
390
251
0
LAYER
5
33A
330
244
100
AcDbSymbolTableRecord
100
AcDbLayerTableRecord
2
Defpoints
70
0
62
7
6
Continuous
290
0
370
-3
390
251
0
LAYER
5
57E
330
244
100
AcDbSymbolTableRecord
100
AcDbLayerTableRecord
2
Text
70
0
 62
   7
6
Continuous
370
0
390
251
1001
AcAecLayerStandard
1000

1000

0
ENDTAB
0
TABLE
2
STYLE
5
245
330
0
100
AcDbSymbolTable
70
2
0
STYLE
5
253
330
245
100
AcDbSymbolTableRecord
100
AcDbTextStyleTableRecord
2
Standard
70
0
40
0.0
41
1.0
50
0.0
71
0
42
0.2
3
Arial
4

1001
ACAD
1000
Arial
1071
0
0
STYLE
5
132
330
245
100
AcDbSymbolTableRecord
100
AcDbTextStyleTableRecord
2
Beschriftung
70
0
40
0.0
41
1.0
50
0.0
71
0
42
0.2
3
Arial
4

1001
ACAD
1000
Arial
1071
0
1001
AcadAnnotative
1000
AnnotativeData
1070
1
1070
1
0
ENDTAB
0
TABLE
2
VIEW
5
248
330
0
100
AcDbSymbolTable
70
0
0
ENDTAB
0
TABLE
2
UCS
5
249
330
0
100
AcDbSymbolTable
70
0
0
ENDTAB
0
TABLE
2
APPID
5
24B
330
0
100
AcDbSymbolTable
70
13
0
APPID
5
254
330
24B
100
AcDbSymbolTableRecord
100
AcDbRegAppTableRecord
2
ACAD
70
0
0
APPID
5
26C
330
24B
100
AcDbSymbolTableRecord
100
AcDbRegAppTableRecord
2
VD_INVISIBLE_NOT_FOR_READ
70
0
0
APPID
5
26D
330
24B
100
AcDbSymbolTableRecord
100
AcDbRegAppTableRecord
2
VD_TEMPHATCH
70
0
0
APPID
5
26E
330
24B
100
AcDbSymbolTableRecord
100
AcDbRegAppTableRecord
2
VDEXTRAPARAM
70
0
0
APPID
5
26F
330
24B
100
AcDbSymbolTableRecord
100
AcDbRegAppTableRecord
2
PE_URL
70
0
0
APPID
5
270
330
24B
100
AcDbSymbolTableRecord
100
AcDbRegAppTableRecord
2
VD_UNKNOWN
70
0
0
APPID
5
28F
330
24B
100
AcDbSymbolTableRecord
100
AcDbRegAppTableRecord
2
AcadAnnotative
70
0
0
APPID
5
290
330
24B
100
AcDbSymbolTableRecord
100
AcDbRegAppTableRecord
2
ACAD_DSTYLE_DIMJAG
70
0
0
APPID
5
291
330
24B
100
AcDbSymbolTableRecord
100
AcDbRegAppTableRecord
2
ACAD_DSTYLE_DIMTALN
70
0
0
APPID
5
293
330
24B
100
AcDbSymbolTableRecord
100
AcDbRegAppTableRecord
2
ACAD_PSEXT
70
0
0
APPID
5
42A
330
24B
100
AcDbSymbolTableRecord
100
AcDbRegAppTableRecord
2
ACAD_MLEADERVER
70
0
0
APPID
5
532
330
24B
100
AcDbSymbolTableRecord
100
AcDbRegAppTableRecord
2
ACAD_EXEMPT_FROM_CAD_STANDARDS
70
0
0
APPID
5
57F
330
24B
100
AcDbSymbolTableRecord
100
AcDbRegAppTableRecord
2
AcAecLayerStandard
70
0
0
ENDTAB
0
TABLE
2
DIMSTYLE
5
24C
330
0
100
AcDbSymbolTable
70
3
100
AcDbDimStyleTable
71
2
340
27
340
269
0
DIMSTYLE
105
269
330
24C
100
AcDbSymbolTableRecord
100
AcDbDimStyleTableRecord
2
Standard
70
0
172
1
174
1
288
1
340
253
342
23C
0
DIMSTYLE
105
137
330
24C
100
AcDbSymbolTableRecord
100
AcDbDimStyleTableRecord
2
Beschriftung
70
0
41
2.5
42
0.625
44
1.25
73
0
74
0
77
1
140
2.5
147
0.625
172
1
174
1
271
2
288
1
340
253
342
23C
1001
AcadAnnotative
1000
AnnotativeData
1070
1
1070
1
1001
ACAD_DSTYLE_DIMJAG
1070
388
1040
1.5
1001
ACAD_DSTYLE_DIMTALN
1070
392
1070
0
0
DIMSTYLE
105
27
102
{ACAD_REACTORS
330
F10017
330
F1001C
330
F10026
330
F1002B
330
F10003
330
F1000D
330
F10008
330
F10012
330
F10021
102
}
330
24C
100
AcDbSymbolTableRecord
100
AcDbDimStyleTableRecord
2
BEM-ISBE
70
0
41
2.5
42
0.625
44
1.25
48
0.000000001
71
1
73
0
74
0
77
1
140
2.5
144
1.00000000000000
146
0.5
147
0.625
171
 3
172
 1
179
 3
271
 3
272
 3
274
 3
340
253
342
23C
1001
ACAD_DSTYLE_DIMJAG
1070
388
1040
1.5
1001
ACAD_DSTYLE_DIMTALN
1070
392
1070
1
0
ENDTAB
0
TABLE
2
BLOCK_RECORD
5
243
330
0
100
AcDbSymbolTable
70
5
0
BLOCK_RECORD
5
261
330
243
100
AcDbSymbolTableRecord
100
AcDbBlockTableRecord
2
*Model_Space
340
FD0
0
BLOCK_RECORD
5
25D
330
243
100
AcDbSymbolTableRecord
100
AcDbBlockTableRecord
2
*Paper_Space
340
FD1
0
BLOCK_RECORD
5
265
330
243
100
AcDbSymbolTableRecord
100
AcDbBlockTableRecord
2
*Paper_Space0
340
0
0
BLOCK_RECORD
5
23C
330
243
100
AcDbSymbolTableRecord
100
AcDbBlockTableRecord
2
VDDIM_DEFAULT
340
0
102
{BLKREFS
102
}
0
BLOCK_RECORD
5
23E
330
243
100
AcDbSymbolTableRecord
100
AcDbBlockTableRecord
2
VDDIM_NONE
340
0
0
BLOCK_RECORD
5
F10016
330
243
100
AcDbSymbolTableRecord
100
AcDbBlockTableRecord
2
*D7
340
0
0
BLOCK_RECORD
5
F1001B
330
243
100
AcDbSymbolTableRecord
100
AcDbBlockTableRecord
2
*D8
340
0
0
BLOCK_RECORD
5
F10025
330
243
100
AcDbSymbolTableRecord
100
AcDbBlockTableRecord
2
*D10
340
0
0
BLOCK_RECORD
5
F1002A
330
243
100
AcDbSymbolTableRecord
100
AcDbBlockTableRecord
2
*D11
340
0
0
BLOCK_RECORD
5
F10002
330
243
100
AcDbSymbolTableRecord
100
AcDbBlockTableRecord
2
*D3
340
0
0
BLOCK_RECORD
5
F1000C
330
243
100
AcDbSymbolTableRecord
100
AcDbBlockTableRecord
2
*D5
340
0
0
BLOCK_RECORD
5
F10007
330
243
100
AcDbSymbolTableRecord
100
AcDbBlockTableRecord
2
*D4
340
0
0
BLOCK_RECORD
5
F10011
330
243
100
AcDbSymbolTableRecord
100
AcDbBlockTableRecord
2
*D6
340
0
0
BLOCK_RECORD
5
F10020
330
243
100
AcDbSymbolTableRecord
100
AcDbBlockTableRecord
2
*D9
340
0
0
ENDTAB
0
ENDSEC
0
SECTION
2
BLOCKS
0
BLOCK
5
262
330
261
100
AcDbEntity
8
0
100
AcDbBlockBegin
2
*Model_Space
70
0
10
0.0
20
0.0
30
0.0
3
*Model_Space
1

0
ENDBLK
5
263
330
261
100
AcDbEntity
8
0
100
AcDbBlockEnd
0
BLOCK
5
25E
330
25D
100
AcDbEntity
67
1
8
0
100
AcDbBlockBegin
2
*Paper_Space
70
0
10
0.0
20
0.0
30
0.0
3
*Paper_Space
1

0
ENDBLK
5
25F
330
25D
100
AcDbEntity
67
1
8
0
100
AcDbBlockEnd
0
BLOCK
5
266
330
265
100
AcDbEntity
8
0
100
AcDbBlockBegin
2
*Paper_Space0
70
0
10
0.0
20
0.0
30
0.0
3
*Paper_Space0
1

0
VIEWPORT
5
296
102
{ACAD_XDICTIONARY
360
58E
102
}
330
265
100
AcDbEntity
8
0
60
1
100
AcDbViewport
10
0.0
20
0.0
30
0.0
40
10.0
41
10.0
69
0
12
0.0
22
0.0
13
0.0
23
0.0
14
1.0
24
1.0
15
0.0
25
0.0
16
0.0
26
0.0
36
1.0
17
0.0
27
0.0
37
0.0
42
0.0
43
0.0
44
0.0
45
10.0
50
0.0
51
0.0000000000007958
72
100
90
163872
1

281
0
71
0
74
0
110
0.0
120
0.0
130
0.0
111
1.0
121
0.0
131
0.0
112
0.0
122
1.0
132
0.0
79
0
146
0.0
1001
VD_INVISIBLE_NOT_FOR_READ
1000
VD_INVISIBLE_NOT_FOR_READ
0
VIEWPORT
5
297
102
{ACAD_XDICTIONARY
360
590
102
}
330
265
100
AcDbEntity
8
0
60
1
100
AcDbViewport
10
0.0
20
0.0
30
0.0
40
10.0
41
10.0
69
0
12
0.0
22
0.0
13
0.0
23
0.0
14
1.0
24
1.0
15
0.0
25
0.0
16
0.0
26
0.0
36
1.0
17
0.0
27
0.0
37
0.0
42
0.0
43
0.0
44
0.0
45
10.0
50
0.0
51
0.0000000000007958
72
100
90
163872
1

281
0
71
0
74
0
110
0.0
120
0.0
130
0.0
111
1.0
121
0.0
131
0.0
112
0.0
122
1.0
132
0.0
79
0
146
0.0
1001
VD_INVISIBLE_NOT_FOR_READ
1000
VD_INVISIBLE_NOT_FOR_READ
0
ENDBLK
5
267
330
265
100
AcDbEntity
8
0
100
AcDbBlockEnd
0
BLOCK
5
28B
330
23C
100
AcDbEntity
8
0
100
AcDbBlockBegin
2
VDDIM_DEFAULT
70
0
10
0.0
20
0.0
30
0.0
3
VDDIM_DEFAULT
1

0
LWPOLYLINE
5
23D
330
23C
100
AcDbEntity
8
0
6
Continuous
62
0
100
AcDbPolyline
90
4
70
0
43
0.0
10
0.0
20
0.0
10
-1.0
20
-0.1665
10
-1.0
20
0.1665
10
0.0
20
0.0
1001
VDEXTRAPARAM
1071
1
1071
0
1071
0
1040
1.0
1000

1000

1040
0.0
1040
0.0
0
HATCH
5
292
330
23C
100
AcDbEntity
8
0
6
Continuous
62
0
100
AcDbHatch
10
0.0
20
0.0
30
0.0
210
0.0
220
0.0
230
1.0
2
SOLID
70
1
71
0
91
1
92
2
72
0
73
1
93
3
10
0.0
20
0.0
10
-1.0
20
-0.1665
10
-1.0
20
0.1665
97
0
75
0
76
1
98
1
10
0.0
20
0.0
1001
VDEXTRAPARAM
1071
1
1071
0
1071
0
1040
1.0
1000

1000

1040
0.0
1040
0.0
1001
VD_TEMPHATCH
1000
VD_TEMPHATCH
0
ENDBLK
5
28C
330
23C
100
AcDbEntity
8
0
100
AcDbBlockEnd
0
BLOCK
5
28D
330
23E
100
AcDbEntity
8
0
100
AcDbBlockBegin
2
VDDIM_NONE
70
0
10
0.0
20
0.0
30
0.0
3
VDDIM_NONE
1

0
ENDBLK
5
28E
330
23E
100
AcDbEntity
8
0
100
AcDbBlockEnd
  0
BLOCK
  5
F1002F
330
F10016
100
AcDbEntity
  8
0
100
AcDbBlockBegin
  2
*D7
 70
     1
 10
0.0
 20
0.0
 30
0.0
  3
*D7
  1

  0
LINE
  5
F10030
330
F10016
100
AcDbEntity
  8
Bemassung
 62
     0
370
    -2
100
AcDbLine
10
-89.0811529847386
20
-14.4919570649109
30
0.000000000000000
11
-89.0811529847386
21
28.5080429350891
31
0.000000000000000
  0
LINE
  5
F10031
330
F10016
100
AcDbEntity
  8
Bemassung
 62
     0
370
    -2
100
AcDbLine
10
-59.0811529847386
20
6.20804293508912
30
0.000000000000000
11
-59.0811529847386
21
18.5080429350891
31
0.000000000000000
  0
LINE
  5
F10032
330
F10016
100
AcDbEntity
  8
Bemassung
 62
     0
370
    -2
100
AcDbLine
10
-89.0811529847386
20
16.5080429350891
30
0.000000000000000
11
-58.3886893719728
21
16.5080429350891
31
0.000000000000000
  0
INSERT
  5
F10033
330
F10016
100
AcDbEntity
  8
Bemassung
 62
     0
370
    -2
100
AcDbBlockReference
  2
VDDIM_DEFAULT
10
-89.0811529847386
20
16.5080429350891
30
0.000000000000000
 41
2.50000000000000
 42
2.50000000000000
 43
2.50000000000000
 50
180.000000000000
  0
INSERT
  5
F10034
330
F10016
100
AcDbEntity
  8
Bemassung
 62
     0
370
    -2
100
AcDbBlockReference
  2
VDDIM_DEFAULT
10
-59.0811529847386
20
16.5080429350891
30
0.000000000000000
 41
2.50000000000000
 42
2.50000000000000
 43
2.50000000000000
  0
MTEXT
  5
F10035
330
F10016
100
AcDbEntity
  8
Bemassung
 62
     0
100
AcDbMText
10
-74.0811529847386
20
17.1747096017558
30
0.000000000000000
 40
2.50000000000000
 41
0.0
 71
     8
 72
     1
  1
30
 11
1.00000000000000
 21
0.000000000000000
 31
0.0
 73
     1
 44
1.0
1001
ACAD
1000
MTEXTBEGIN
1070
73
1070
1
1070
44
1040
1.0
1070
74
1070
0
1000
MTEXTEND
  0
POINT
  5
F10036
330
F10016
100
AcDbEntity
  8
Bemassung
 62
     0
100
AcDbPoint
10
-89.0811529847386
20
-14.4919570649109
30
0.000000000000000
  0
POINT
  5
F10037
330
F10016
100
AcDbEntity
  8
Bemassung
 62
     0
100
AcDbPoint
10
-59.0811529847386
20
6.20804293508912
30
0.000000000000000
  0
ENDBLK
  5
F10038
330
F10016
100
AcDbEntity
  8
0
100
AcDbBlockEnd
  0
BLOCK
  5
F10039
330
F1001B
100
AcDbEntity
  8
0
100
AcDbBlockBegin
  2
*D8
 70
     1
 10
0.0
 20
0.0
 30
0.0
  3
*D8
  1

  0
LINE
  5
F1003A
330
F1001B
100
AcDbEntity
  8
Bemassung
 62
     0
370
    -2
100
AcDbLine
10
-59.0811529847386
20
6.20804293508912
30
0.000000000000000
11
-59.0811529847386
21
23.5080429350891
31
0.000000000000000
  0
LINE
  5
F1003B
330
F1001B
100
AcDbEntity
  8
Bemassung
 62
     0
370
    -2
100
AcDbLine
10
-0.0811529847385515
20
5.50804293508912
30
0.000000000000000
11
-0.0811529847385515
21
28.5080429350891
31
0.000000000000000
  0
LINE
  5
F1003C
330
F1001B
100
AcDbEntity
  8
Bemassung
 62
     0
370
    -2
100
AcDbLine
10
-59.0811529847386
20
21.5080429350891
30
0.000000000000000
11
30.6106607028666
21
21.5080429350891
31
0.000000000000000
  0
INSERT
  5
F1003D
330
F1001B
100
AcDbEntity
  8
Bemassung
 62
     0
370
    -2
100
AcDbBlockReference
  2
VDDIM_DEFAULT
10
-59.0811529847386
20
21.5080429350891
30
0.000000000000000
 41
2.50000000000000
 42
2.50000000000000
 43
2.50000000000000
 50
180.000000000000
  0
INSERT
  5
F1003E
330
F1001B
100
AcDbEntity
  8
Bemassung
 62
     0
370
    -2
100
AcDbBlockReference
  2
VDDIM_DEFAULT
10
-0.0811529847385515
20
21.5080429350891
30
0.000000000000000
 41
2.50000000000000
 42
2.50000000000000
 43
2.50000000000000
  0
MTEXT
  5
F1003F
330
F1001B
100
AcDbEntity
  8
Bemassung
 62
     0
100
AcDbMText
10
-29.5811529847386
20
22.1747096017558
30
0.000000000000000
 40
2.50000000000000
 41
0.0
 71
     8
 72
     1
  1
59
 11
1.00000000000000
 21
0.000000000000000
 31
0.0
 73
     1
 44
1.0
1001
ACAD
1000
MTEXTBEGIN
1070
73
1070
1
1070
44
1040
1.0
1070
74
1070
0
1000
MTEXTEND
  0
POINT
  5
F10040
330
F1001B
100
AcDbEntity
  8
Bemassung
 62
     0
100
AcDbPoint
10
-59.0811529847386
20
6.20804293508912
30
0.000000000000000
  0
POINT
  5
F10041
330
F1001B
100
AcDbEntity
  8
Bemassung
 62
     0
100
AcDbPoint
10
-0.0811529847385515
20
5.50804293508912
30
0.000000000000000
  0
ENDBLK
  5
F10042
330
F1001B
100
AcDbEntity
  8
0
100
AcDbBlockEnd
  0
BLOCK
  5
F10043
330
F10025
100
AcDbEntity
  8
0
100
AcDbBlockBegin
  2
*D10
 70
     1
 10
0.0
 20
0.0
 30
0.0
  3
*D10
  1

  0
LINE
  5
F10044
330
F10025
100
AcDbEntity
  8
Bemassung
 62
     0
370
    -2
100
AcDbLine
10
-72.0811529847386
20
-7.19195706491088
30
0.000000000000000
11
-72.0811529847386
21
-14.4919570649109
31
0.000000000000000
  0
LINE
  5
F10045
330
F10025
100
AcDbEntity
  8
Bemassung
 62
     0
370
    -2
100
AcDbLine
10
-89.0811529847386
20
-14.4919570649109
30
0.000000000000000
11
-89.0811529847386
21
28.5080429350891
31
0.000000000000000
  0
LINE
  5
F10046
330
F10025
100
AcDbEntity
  8
Bemassung
 62
     0
370
    -2
100
AcDbLine
10
-71.4044046003090
20
-12.4919570649109
30
0.000000000000000
11
-89.0811529847386
21
-12.4919570649109
31
0.000000000000000
  0
INSERT
  5
F10047
330
F10025
100
AcDbEntity
  8
Bemassung
 62
     0
370
    -2
100
AcDbBlockReference
  2
VDDIM_DEFAULT
10
-72.0811529847386
20
-12.4919570649109
30
0.000000000000000
 41
2.50000000000000
 42
2.50000000000000
 43
2.50000000000000
  0
INSERT
  5
F10048
330
F10025
100
AcDbEntity
  8
Bemassung
 62
     0
370
    -2
100
AcDbBlockReference
  2
VDDIM_DEFAULT
10
-89.0811529847386
20
-12.4919570649109
30
0.000000000000000
 41
2.50000000000000
 42
2.50000000000000
 43
2.50000000000000
 50
180.000000000000
  0
MTEXT
  5
F10049
330
F10025
100
AcDbEntity
  8
Bemassung
 62
     0
100
AcDbMText
10
-80.5811529847386
20
-11.8252903982442
30
0.000000000000000
 40
2.50000000000000
 41
0.0
 71
     8
 72
     1
  1
17
 11
1.00000000000000
 21
0.000000000000000
 31
0.0
 73
     1
 44
1.0
1001
ACAD
1000
MTEXTBEGIN
1070
73
1070
1
1070
44
1040
1.0
1070
74
1070
0
1000
MTEXTEND
  0
POINT
  5
F1004A
330
F10025
100
AcDbEntity
  8
Bemassung
 62
     0
100
AcDbPoint
10
-72.0811529847386
20
-7.19195706491088
30
0.000000000000000
  0
POINT
  5
F1004B
330
F10025
100
AcDbEntity
  8
Bemassung
 62
     0
100
AcDbPoint
10
-89.0811529847386
20
-14.4919570649109
30
0.000000000000000
  0
ENDBLK
  5
F1004C
330
F10025
100
AcDbEntity
  8
0
100
AcDbBlockEnd
  0
BLOCK
  5
F1004D
330
F1002A
100
AcDbEntity
  8
0
100
AcDbBlockBegin
  2
*D11
 70
     1
 10
0.0
 20
0.0
 30
0.0
  3
*D11
  1

  0
LINE
  5
F1004E
330
F1002A
100
AcDbEntity
  8
Bemassung
 62
     0
370
    -2
100
AcDbLine
10
-0.0811529847385515
20
5.50804293508912
30
0.000000000000000
11
-0.0811529847385515
21
28.5080429350891
31
0.000000000000000
  0
LINE
  5
F1004F
330
F1002A
100
AcDbEntity
  8
Bemassung
 62
     0
370
    -2
100
AcDbLine
10
-89.0811529847386
20
-14.4919570649109
30
0.000000000000000
11
-89.0811529847386
21
28.5080429350891
31
0.000000000000000
  0
LINE
  5
F10050
330
F1002A
100
AcDbEntity
  8
Bemassung
 62
     0
370
    -2
100
AcDbLine
10
0.533805242792397
20
26.5080429350891
30
0.000000000000000
11
-89.0811529847386
21
26.5080429350891
31
0.000000000000000
  0
INSERT
  5
F10051
330
F1002A
100
AcDbEntity
  8
Bemassung
 62
     0
370
    -2
100
AcDbBlockReference
  2
VDDIM_DEFAULT
10
-0.0811529847385515
20
26.5080429350891
30
0.000000000000000
 41
2.50000000000000
 42
2.50000000000000
 43
2.50000000000000
  0
INSERT
  5
F10052
330
F1002A
100
AcDbEntity
  8
Bemassung
 62
     0
370
    -2
100
AcDbBlockReference
  2
VDDIM_DEFAULT
10
-89.0811529847386
20
26.5080429350891
30
0.000000000000000
 41
2.50000000000000
 42
2.50000000000000
 43
2.50000000000000
 50
180.000000000000
  0
MTEXT
  5
F10053
330
F1002A
100
AcDbEntity
  8
Bemassung
 62
     0
100
AcDbMText
10
-44.5811529847386
20
27.1747096017558
30
0.000000000000000
 40
2.50000000000000
 41
0.0
 71
     8
 72
     1
  1
89
 11
1.00000000000000
 21
0.000000000000000
 31
0.0
 73
     1
 44
1.0
1001
ACAD
1000
MTEXTBEGIN
1070
73
1070
1
1070
44
1040
1.0
1070
74
1070
0
1000
MTEXTEND
  0
POINT
  5
F10054
330
F1002A
100
AcDbEntity
  8
Bemassung
 62
     0
100
AcDbPoint
10
-0.0811529847385515
20
5.50804293508912
30
0.000000000000000
  0
POINT
  5
F10055
330
F1002A
100
AcDbEntity
  8
Bemassung
 62
     0
100
AcDbPoint
10
-89.0811529847386
20
-14.4919570649109
30
0.000000000000000
  0
ENDBLK
  5
F10056
330
F1002A
100
AcDbEntity
  8
0
100
AcDbBlockEnd
  0
BLOCK
  5
F10057
330
F10002
100
AcDbEntity
  8
0
100
AcDbBlockBegin
  2
*D3
 70
     1
 10
0.0
 20
0.0
 30
0.0
  3
*D3
  1

 0
ARC
  5
F10058
330
F10002
100
AcDbEntity
  8
Bemassung
 62
     0
370
   -2
100
AcDbCircle
10
-89.0805438117577
20
5.47314343838662
30
0.000000000000000
 40
18.9091232513799
100
AcDbArc
 50
90.0000000000000
 51
102.413169999820
  0
LINE
  5
F10059
330
F10002
100
AcDbEntity
  8
Bemassung
 62
     0
370
    -2
100
AcDbLine
10
-89.0805438117577
20
5.47314343838662
30
0.000000000000000
11
-89.0805438117577
21
26.3822666897665
31
0.000000000000000
  0
LINE
  5
F1005A
330
F10002
100
AcDbEntity
  8
Bemassung
 62
     0
370
    -2
100
AcDbLine
10
-89.0805438117577
20
5.47314343838662
30
0.000000000000000
11
-89.8102616897214
21
26.3695294168274
31
0.000000000000000
  0
INSERT
  5
F1005B
330
F10002
100
AcDbEntity
  8
Bemassung
 62
     0
370
    -2
100
AcDbBlockReference
  2
VDDIM_DEFAULT
10
-89.0805438117577
20
24.3822666897665
30
0.000000000000000
 41
2.50000000000000
 42
2.50000000000000
 43
2.50000000000000
 50
179.848496819447
  0
INSERT
  5
F1005C
330
F10002
100
AcDbEntity
  8
Bemassung
 62
     0
370
    -2
100
AcDbBlockReference
  2
VDDIM_DEFAULT
10
-89.7404626963164
20
24.3707477627892
30
0.000000000000000
 41
2.50000000000000
 42
2.50000000000000
 43
2.50000000000000
 50
2.15150318055782
  0
MTEXT
  5
F1005D
330
F10002
100
AcDbEntity
  8
Bemassung
 62
     0
100
AcDbMText
10
-93.5768155924267
20
23.8399200257532
30
0.000000000000000
 40
2.50000000000000
 41
0.0
 71
     8
 72
     1
  1
2°
 11
0.970142500145332
 21
0.242535625036333
 31
0.0
 73
     1
 44
1.0
1001
ACAD
1000
MTEXTBEGIN
1070
73
1070
1
1070
44
1040
1.0
1070
74
1070
0
1000
MTEXTEND
  0
POINT
  5
F1005E
330
F10002
100
AcDbEntity
  8
Bemassung
 62
     0
100
AcDbPoint
10
-89.0805438117577
20
5.47314343838662
30
0.000000000000000
  0
POINT
  5
F1005F
330
F10002
100
AcDbEntity
  8
Bemassung
 62
     0
100
AcDbPoint
10
-89.0805438117577
20
24.3822666897665
30
0.000000000000000
  0
POINT
  5
F10060
330
F10002
100
AcDbEntity
  8
Bemassung
 62
     0
100
AcDbPoint
10
-89.7404626963164
20
24.3707477627892
30
0.000000000000000
  0
POINT
  5
F10061
330
F10002
100
AcDbEntity
  8
Bemassung
 62
     0
100
AcDbPoint
10
-89.4105535161134
20
24.3793867387069
30
0.000000000000000
  0
ENDBLK
  5
F10062
330
F10002
100
AcDbEntity
  8
0
100
AcDbBlockEnd
  0
BLOCK
  5
F10063
330
F1000C
100
AcDbEntity
  8
0
100
AcDbBlockBegin
  2
*D5
 70
     1
 10
0.0
 20
0.0
 30
0.0
  3
*D5
  1

  0
LINE
  5
F10064
330
F1000C
100
AcDbEntity
  8
Bemassung
 62
     0
370
    -2
100
AcDbLine
10
-88.8004927850772
20
6.20270130554812
30
0.000000000000000
11
-99.9682781116802
21
16.9873062349037
31
0.000000000000000
  0
INSERT
  5
F10065
330
F1000C
100
AcDbEntity
  8
Bemassung
 62
     0
370
    -2
100
AcDbBlockReference
  2
VDDIM_DEFAULT
10
-88.8004927850772
20
6.20270130554812
30
0.000000000000000
 41
2.50000000000000
 42
2.50000000000000
 43
2.50000000000000
 50
316.000000000000
  0
MTEXT
  5
F10066
330
F1000C
100
AcDbEntity
  8
Bemassung
 62
     0
100
AcDbMText
10
-95.9938907884637
20
13.1492850101381
30
0.000000000000000
 40
2.50000000000000
 41
0.0
 71
     8
 72
     1
  1
R1
 11
0.719339800338653
 21
-0.694658370458996
 31
0.0
 73
     1
 44
1.0
1001
ACAD
1000
MTEXTBEGIN
1070
73
1070
1
1070
44
1040
1.0
1070
74
1070
0
1000
MTEXTEND
  0
POINT
  5
F10067
330
F1000C
100
AcDbEntity
  8
Bemassung
 62
     0
100
AcDbPoint
10
-88.8004927850772
20
6.20270130554812
30
0.000000000000000
  0
POINT
  5
F10068
330
F1000C
100
AcDbEntity
  8
Bemassung
 62
     0
100
AcDbPoint
10
-88.0811529847386
20
5.50804293508912
30
0.000000000000000
  0
ENDBLK
  5
F10069
330
F1000C
100
AcDbEntity
  8
0
100
AcDbBlockEnd
  0
BLOCK
  5
F1006A
330
F10007
100
AcDbEntity
  8
0
100
AcDbBlockBegin
  2
*D4
 70
     1
 10
0.0
 20
0.0
 30
0.0
  3
*D4
  1

  0
LINE
  5
F1006B
330
F10007
100
AcDbEntity
  8
Bemassung
 62
     0
370
    -2
100
AcDbLine
10
-88.0811529847386
20
-7.49195706491088
30
0.000000000000000
11
-101.081152984739
21
-7.49195706491088
31
0.000000000000000
  0
LINE
  5
F1006C
330
F10007
100
AcDbEntity
  8
Bemassung
 62
     0
370
    -2
100
AcDbLine
10
-88.0811529847386
20
6.50804293508912
30
0.000000000000000
11
-101.081152984739
21
6.50804293508912
31
0.000000000000000
  0
LINE
  5
F1006D
330
F10007
100
AcDbEntity
  8
Bemassung
 62
     0
370
    -2
100
AcDbLine
10
-99.0811529847386
20
-7.49195706491088
30
0.000000000000000
11
-99.0811529847386
21
6.50804293508912
31
0.000000000000000
  0
INSERT
  5
F1006E
330
F10007
100
AcDbEntity
  8
Bemassung
 62
     0
370
    -2
100
AcDbBlockReference
  2
VDDIM_DEFAULT
10
-99.0811529847386
20
-7.49195706491088
30
0.000000000000000
 41
2.50000000000000
 42
2.50000000000000
 43
2.50000000000000
 50
270.000000000000
  0
INSERT
  5
F1006F
330
F10007
100
AcDbEntity
  8
Bemassung
 62
     0
370
    -2
100
AcDbBlockReference
  2
VDDIM_DEFAULT
10
-99.0811529847386
20
6.50804293508912
30
0.000000000000000
 41
2.50000000000000
 42
2.50000000000000
 43
2.50000000000000
 50
90.0000000000000
  0
MTEXT
  5
F10070
330
F10007
100
AcDbEntity
  8
Bemassung
 62
     0
100
AcDbMText
10
-98.4144863180719
20
-0.491957064910878
30
0.000000000000000
 40
2.50000000000000
 41
0.0
 71
     8
 72
     1
  1
14
 11
6.12323399573677e-017
 21
1.00000000000000
 31
0.0
 73
     1
 44
1.0
1001
ACAD
1000
MTEXTBEGIN
1070
73
1070
1
1070
44
1040
1.0
1070
74
1070
0
1000
MTEXTEND
  0
POINT
  5
F10071
330
F10007
100
AcDbEntity
  8
Bemassung
 62
     0
100
AcDbPoint
10
-88.0811529847386
20
-7.49195706491088
30
0.000000000000000
  0
POINT
  5
F10072
330
F10007
100
AcDbEntity
  8
Bemassung
 62
     0
100
AcDbPoint
10
-88.0811529847386
20
6.50804293508912
30
0.000000000000000
  0
ENDBLK
  5
F10073
330
F10007
100
AcDbEntity
  8
0
100
AcDbBlockEnd
  0
BLOCK
  5
F10074
330
F10011
100
AcDbEntity
  8
0
100
AcDbBlockBegin
  2
*D6
 70
     1
 10
0.0
 20
0.0
 30
0.0
  3
*D6
  1

  0
LINE
  5
F10075
330
F10011
100
AcDbEntity
  8
Bemassung
 62
     0
370
    -2
100
AcDbLine
10
-72.0811529847386
20
-7.19195706491088
30
0.000000000000000
11
-66.0811529847386
21
-7.19195706491088
31
0.000000000000000
  0
LINE
  5
F10076
330
F10011
100
AcDbEntity
  8
Bemassung
 62
     0
370
    -2
100
AcDbLine
10
-72.0811529847386
20
6.20804293508912
30
0.000000000000000
11
-66.0811529847386
21
6.20804293508912
31
0.000000000000000
  0
LINE
  5
F10077
330
F10011
100
AcDbEntity
  8
Bemassung
 62
     0
370
    -2
100
AcDbLine
10
-68.0811529847386
20
-28.7219880669103
30
0.000000000000000
11
-68.0811529847386
21
6.20804293508912
31
0.000000000000000
  0
INSERT
  5
F10078
330
F10011
100
AcDbEntity
  8
Bemassung
 62
     0
370
    -2
100
AcDbBlockReference
  2
VDDIM_DEFAULT
10
-68.0811529847386
20
-7.19195706491088
30
0.000000000000000
 41
2.50000000000000
 42
2.50000000000000
 43
2.50000000000000
 50
270.000000000000
  0
INSERT
  5
F10079
330
F10011
100
AcDbEntity
  8
Bemassung
 62
     0
370
    -2
100
AcDbBlockReference
  2
VDDIM_DEFAULT
10
-68.0811529847386
20
6.20804293508912
30
0.000000000000000
 41
2.50000000000000
 42
2.50000000000000
 43
2.50000000000000
 50
90.0000000000000
  0
MTEXT
  5
F1007A
330
F10011
100
AcDbEntity
  8
Bemassung
 62
     0
100
AcDbMText
10
-67.4144863180719
20
-12.8179196414192
30
0.000000000000000
 40
2.50000000000000
 41
0.0
 71
     8
 72
     1
  1
13.4
 11
6.12323399573677e-017
 21
1.00000000000000
 31
0.0
 73
     1
 44
1.0
1001
ACAD
1000
MTEXTBEGIN
1070
73
1070
1
1070
44
1040
1.0
1070
74
1070
0
1000
MTEXTEND
  0
POINT
  5
F1007B
330
F10011
100
AcDbEntity
  8
Bemassung
 62
     0
100
AcDbPoint
10
-72.0811529847386
20
-7.19195706491088
30
0.000000000000000
  0
POINT
  5
F1007C
330
F10011
100
AcDbEntity
  8
Bemassung
 62
     0
100
AcDbPoint
10
-72.0811529847386
20
6.20804293508912
30
0.000000000000000
  0
ENDBLK
  5
F1007D
330
F10011
100
AcDbEntity
  8
0
100
AcDbBlockEnd
  0
BLOCK
  5
F1007E
330
F10020
100
AcDbEntity
  8
0
100
AcDbBlockBegin
  2
*D9
 70
     1
 10
0.0
 20
0.0
 30
0.0
  3
*D9
  1

  0
LINE
  5
F1007F
330
F10020
100
AcDbEntity
  8
Bemassung
 62
     0
370
    -2
100
AcDbLine
10
-1.08115298473855
20
-7.49195706491088
30
0.000000000000000
11
11.9188470152614
21
-7.49195706491088
31
0.000000000000000
  0
LINE
  5
F10080
330
F10020
100
AcDbEntity
  8
Bemassung
 62
     0
370
    -2
100
AcDbLine
10
-1.08115298473855
20
6.50804293508912
30
0.000000000000000
11
11.9188470152614
21
6.50804293508912
31
0.000000000000000
  0
LINE
  5
F10081
330
F10020
100
AcDbEntity
  8
Bemassung
 62
     0
370
    -2
100
AcDbLine
10
9.91884701526145
20
-7.49195706491088
30
0.000000000000000
11
9.91884701526145
21
6.50804293508912
31
0.000000000000000
  0
INSERT
  5
F10082
330
F10020
100
AcDbEntity
  8
Bemassung
 62
     0
370
    -2
100
AcDbBlockReference
  2
VDDIM_DEFAULT
10
9.91884701526145
20
-7.49195706491088
30
0.000000000000000
 41
2.50000000000000
 42
2.50000000000000
 43
2.50000000000000
 50
270.000000000000
  0
INSERT
  5
F10083
330
F10020
100
AcDbEntity
  8
Bemassung
 62
     0
370
    -2
100
AcDbBlockReference
  2
VDDIM_DEFAULT
10
9.91884701526145
20
6.50804293508912
30
0.000000000000000
 41
2.50000000000000
 42
2.50000000000000
 43
2.50000000000000
 50
90.0000000000000
  0
MTEXT
  5
F10084
330
F10020
100
AcDbEntity
  8
Bemassung
 62
     0
100
AcDbMText
10
10.5855136819281
20
-0.491957064910878
30
0.000000000000000
 40
2.50000000000000
 41
0.0
 71
     8
 72
     1
  1
14h6
 11
6.12323399573677e-017
 21
1.00000000000000
 31
0.0
 73
     1
 44
1.0
  0
POINT
  5
F10085
330
F10020
100
AcDbEntity
  8
Bemassung
 62
     0
100
AcDbPoint
10
-1.08115298473855
20
-7.49195706491088
30
0.000000000000000
  0
POINT
  5
F10086
330
F10020
100
AcDbEntity
  8
Bemassung
 62
     0
100
AcDbPoint
10
-1.08115298473855
20
6.50804293508912
30
0.000000000000000
  0
ENDBLK
  5
F10087
330
F10020
100
AcDbEntity
  8
0
100
AcDbBlockEnd
0
ENDSEC
0
SECTION
2
ENTITIES
  0
DIMENSION
  5
F10017
330
261
100
AcDbEntity
  8
Bemassung
100
AcDbDimension
  2
*D7
10
-59.0811529847386
20
16.5080429350891
30
0.000000000000000
11
-74.0811529847386
21
17.1747096017558
31
0.000000000000000
 70
32
 1
30
 71
     8
  3
BEM-ISBE
100
AcDbAlignedDimension
13
-89.0811529847386
23
-14.4919570649109
33
0.000000000000000
14
-59.0811529847386
24
6.20804293508912
34
0.000000000000000
100
AcDbRotatedDimension
1001
ACAD
1000
DSTYLE
1002
{
1070
284
1070
8
1070
78
1070
8
1070
144
1040
1.00000000000000
1070
147
1040
0.625
1070
 72
1070
 0
1070
 71
1070
 0
1002
}
  0
DIMENSION
  5
F1001C
330
261
100
AcDbEntity
  8
Bemassung
100
AcDbDimension
  2
*D8
10
-0.0811529847385515
20
21.5080429350891
30
0.000000000000000
11
-29.5811529847386
21
22.1747096017558
31
0.000000000000000
 70
32
 1
59
 71
     8
  3
BEM-ISBE
100
AcDbAlignedDimension
13
-59.0811529847386
23
6.20804293508912
33
0.000000000000000
14
-0.0811529847385515
24
5.50804293508912
34
0.000000000000000
100
AcDbRotatedDimension
1001
ACAD
1000
DSTYLE
1002
{
1070
284
1070
8
1070
78
1070
8
1070
144
1040
1.00000000000000
1070
147
1040
0.625
1070
 72
1070
 0
1070
 71
1070
 0
1002
}
  0
DIMENSION
  5
F10026
330
261
100
AcDbEntity
  8
Bemassung
100
AcDbDimension
  2
*D10
10
-89.0811529847386
20
-12.4919570649109
30
0.000000000000000
11
-80.5811529847386
21
-11.8252903982442
31
0.000000000000000
 70
32
 1
17
 71
     8
  3
BEM-ISBE
100
AcDbAlignedDimension
13
-72.0811529847386
23
-7.19195706491088
33
0.000000000000000
14
-89.0811529847386
24
-14.4919570649109
34
0.000000000000000
100
AcDbRotatedDimension
1001
ACAD
1000
DSTYLE
1002
{
1070
284
1070
8
1070
78
1070
8
1070
144
1040
1.00000000000000
1070
147
1040
0.625
1070
 72
1070
 0
1070
 71
1070
 0
1002
}
  0
DIMENSION
  5
F1002B
330
261
100
AcDbEntity
  8
Bemassung
100
AcDbDimension
  2
*D11
10
-89.0811529847386
20
26.5080429350891
30
0.000000000000000
11
-44.5811529847386
21
27.1747096017558
31
0.000000000000000
 70
32
 1
89
 71
     8
  3
BEM-ISBE
100
AcDbAlignedDimension
13
-0.0811529847385515
23
5.50804293508912
33
0.000000000000000
14
-89.0811529847386
24
-14.4919570649109
34
0.000000000000000
100
AcDbRotatedDimension
1001
ACAD
1000
DSTYLE
1002
{
1070
284
1070
8
1070
78
1070
8
1070
144
1040
1.00000000000000
1070
147
1040
0.625
1070
 72
1070
 0
1070
 71
1070
 0
1002
}
  0
DIMENSION
  5
F10003
330
261
100
AcDbEntity
  8
Bemassung
100
AcDbDimension
  2
*D3
10
-89.0805438117577
20
5.47314343838662
30
0.000000000000000
11
-93.5768155924267
21
23.8399200257532
31
0.000000000000000
 70
34
 1
2°
 71
     8
  3
BEM-ISBE
100
AcDb2LineAngularDimension
13
-89.0805438117577
23
5.47314343838662
33
0.000000000000000
14
-93.1452455279515
24
23.9402261017162
34
0.000000000000000
15
-89.0805438117577
25
24.3822666897665
35
0.000000000000000
16
-89.4105535161134
26
24.3793867387069
36
0.000000000000000
1001
ACAD
1000
DSTYLE
1002
{
1070
284
1070
8
1070
79
1070
2
1070
147
1040
0.625
1070
 72
1070
 0
1070
 71
1070
 0
1002
}
  0
DIMENSION
  5
F1000D
330
261
100
AcDbEntity
  8
Bemassung
100
AcDbDimension
  2
*D5
10
-88.0811529847386
20
5.50804293508912
30
0.000000000000000
11
-95.9938907884637
21
13.1492850101381
31
0.000000000000000
 70
164
 1
R1
 71
     8
  3
BEM-ISBE
100
AcDbRadialDimension
15
-88.8004927850772
25
6.20270130554812
35
0.000000000000000
40
0.0
1001
ACAD
1000
DSTYLE
1002
{
1070
284
1070
8
1070
78
1070
8
1070
144
1040
1.00000000000000
1070
147
1040
0.625
1070
 72
1070
 0
1070
 71
1070
 0
1002
}
  0
DIMENSION
  5
F10008
330
261
100
AcDbEntity
  8
Bemassung
100
AcDbDimension
  2
*D4
10
-99.0811529847386
20
6.50804293508912
30
0.000000000000000
11
-98.4144863180719
21
-0.491957064910878
31
0.000000000000000
 70
32
 1
14
 71
     8
  3
BEM-ISBE
100
AcDbAlignedDimension
13
-88.0811529847386
23
-7.49195706491088
33
0.000000000000000
14
-88.0811529847386
24
6.50804293508912
34
0.000000000000000
50
90.0000000000000
100
AcDbRotatedDimension
1001
ACAD
1000
DSTYLE
1002
{
1070
284
1070
8
1070
78
1070
8
1070
144
1040
1.00000000000000
1070
147
1040
0.625
1070
 72
1070
 0
1070
 71
1070
 0
1002
}
  0
DIMENSION
  5
F10012
330
261
100
AcDbEntity
  8
Bemassung
100
AcDbDimension
  2
*D6
10
-68.0811529847386
20
6.20804293508912
30
0.000000000000000
11
-67.4144863180719
21
-12.8179196414192
31
0.000000000000000
 70
32
 1
13.4
 71
     8
  3
BEM-ISBE
100
AcDbAlignedDimension
13
-72.0811529847386
23
-7.19195706491088
33
0.000000000000000
14
-72.0811529847386
24
6.20804293508912
34
0.000000000000000
50
90.0000000000000
100
AcDbRotatedDimension
1001
ACAD
1000
DSTYLE
1002
{
1070
284
1070
8
1070
78
1070
8
1070
144
1040
1.00000000000000
1070
147
1040
0.625
1070
 72
1070
 0
1070
 71
1070
 0
1002
}
  0
DIMENSION
  5
F10021
330
261
100
AcDbEntity
  8
Bemassung
100
AcDbDimension
  2
*D9
10
9.91884701526145
20
6.50804293508912
30
0.000000000000000
11
10.5855136819281
21
-0.491957064910878
31
0.000000000000000
 70
32
 1
14h6
 71
     8
  3
BEM-ISBE
100
AcDbAlignedDimension
13
-1.08115298473855
23
-7.49195706491088
33
0.000000000000000
14
-1.08115298473855
24
6.50804293508912
34
0.000000000000000
50
90.0000000000000
100
AcDbRotatedDimension
1001
ACAD
1000
DSTYLE
1002
{
1070
284
1070
8
1070
78
1070
8
1070
144
1040
1.00000000000000
1070
147
1040
0.625
1070
 72
1070
 0
1070
 71
1070
 0
1002
}
  0
LINE
  5
F10088
330
F10089
100
AcDbEntity
8
Geo
100
AcDbLine
10
-88.8722379120869
20
-0.491957064910878
30
0.000000000000000
11
-89.0805438117577
21
5.47314343838662
31
0.000000000000000
  0
ARC
  5
F1008A
330
F1008B
100
AcDbEntity
8
Geo
100
AcDbCircle
10
-88.0811529847386
20
5.50804293508912
30
0.000000000000000
 40
1.00000000000000
100
AcDbArc
 50
90.0000000000000
 51
182.000000000000
  0
LINE
  5
F1008C
330
F1008D
100
AcDbEntity
8
Geo
100
AcDbLine
10
-88.0811529847386
20
6.50804293508912
30
0.000000000000000
11
-72.0811529847386
21
6.50804293508912
31
0.000000000000000
  0
LINE
  5
F1008E
330
F1008F
100
AcDbEntity
8
Geo
100
AcDbLine
10
-72.0811529847386
20
6.50804293508912
30
0.000000000000000
11
-72.0811529847386
21
6.20804293508912
31
0.000000000000000
  0
LINE
  5
F10090
330
F10091
100
AcDbEntity
8
Geo
100
AcDbLine
10
-72.0811529847386
20
6.20804293508912
30
0.000000000000000
11
-59.0811529847386
21
6.20804293508912
31
0.000000000000000
  0
LINE
  5
F10092
330
F10093
100
AcDbEntity
8
Geo
100
AcDbLine
10
-59.0811529847386
20
6.20804293508912
30
0.000000000000000
11
-59.0811529847386
21
6.50804293508912
31
0.000000000000000
  0
LINE
  5
F10094
330
F10095
100
AcDbEntity
8
Geo
100
AcDbLine
10
-59.0811529847386
20
6.50804293508912
30
0.000000000000000
11
-1.08115298473855
21
6.50804293508912
31
0.000000000000000
  0
LINE
  5
F10096
330
F10097
100
AcDbEntity
8
Geo
100
AcDbLine
10
-1.08115298473855
20
6.50804293508912
30
0.000000000000000
11
-0.0811529847385515
21
5.50804293508912
31
0.000000000000000
  0
LINE
  5
F10098
330
F10099
100
AcDbEntity
8
Geo
100
AcDbLine
10
-85.8811529847385
20
6.50586315634732
30
0.000000000000000
11
-85.7811529847386
21
6.50740189727947
31
0.000000000000000
  0
LINE
  5
F1009A
330
F1009B
100
AcDbEntity
8
Geo
100
AcDbLine
10
-85.7811529847386
20
6.50740189727947
30
0.000000000000000
11
-85.6811529847385
21
6.49857249763907
31
0.000000000000000
  0
LINE
  5
F1009C
330
F1009D
100
AcDbEntity
8
Geo
100
AcDbLine
10
-85.6811529847385
20
6.49857249763907
30
0.000000000000000
11
-85.5811529847386
21
6.47938803640337
31
0.000000000000000
  0
LINE
  5
F1009E
330
F1009F
100
AcDbEntity
8
Geo
100
AcDbLine
10
-85.5811529847386
20
6.47938803640337
30
0.000000000000000
11
-85.4811529847385
21
6.44987693148778
31
0.000000000000000
  0
LINE
  5
F100A0
330
F100A1
100
AcDbEntity
8
Geo
100
AcDbLine
10
-85.4811529847385
20
6.44987693148778
30
0.000000000000000
11
-85.3811529847385
21
6.41008289765045
31
0.000000000000000
  0
LINE
  5
F100A2
330
F100A3
100
AcDbEntity
8
Geo
100
AcDbLine
10
-85.3811529847385
20
6.41008289765045
30
0.000000000000000
11
-85.2811529847386
21
6.36006488173765
31
0.000000000000000
  0
LINE
  5
F100A4
330
F100A5
100
AcDbEntity
8
Geo
100
AcDbLine
10
-85.2811529847386
20
6.36006488173765
30
0.000000000000000
11
-85.1811529847385
21
6.29989697536590
31
0.000000000000000
  0
LINE
  5
F100A6
330
F100A7
100
AcDbEntity
8
Geo
100
AcDbLine
10
-85.1811529847385
20
6.29989697536590
30
0.000000000000000
11
-85.0811529847386
21
6.22966830517018
31
0.000000000000000
  0
LINE
  5
F100A8
330
F100A9
100
AcDbEntity
8
Geo
100
AcDbLine
10
-85.0811529847386
20
6.22966830517018
30
0.000000000000000
11
-84.9811529847385
21
6.14948290078074
31
0.000000000000000
  0
LINE
  5
F100AA
330
F100AB
100
AcDbEntity
8
Geo
100
AcDbLine
10
-84.9811529847385
20
6.14948290078074
30
0.000000000000000
11
-84.8811529847385
21
6.05945954072415
31
0.000000000000000
  0
LINE
  5
F100AC
330
F100AD
100
AcDbEntity
8
Geo
100
AcDbLine
10
-84.8811529847385
20
6.05945954072415
30
0.000000000000000
11
-84.7811529847386
21
5.95973157647687
31
0.000000000000000
  0
LINE
  5
F100AE
330
F100AF
100
AcDbEntity
8
Geo
100
AcDbLine
10
-84.7811529847386
20
5.95973157647687
30
0.000000000000000
11
-84.6811529847385
21
5.85044673493190
31
0.000000000000000
  0
LINE
  5
F100B0
330
F100B1
100
AcDbEntity
8
Geo
100
AcDbLine
10
-84.6811529847385
20
5.85044673493190
30
0.000000000000000
11
-84.5811529847386
21
5.73176689957108
31
0.000000000000000
  0
LINE
  5
F100B2
330
F100B3
100
AcDbEntity
8
Geo
100
AcDbLine
10
-84.5811529847386
20
5.73176689957108
30
0.000000000000000
11
-84.4811529847386
21
5.60386787066739
31
0.000000000000000
  0
LINE
  5
F100B4
330
F100B5
100
AcDbEntity
8
Geo
100
AcDbLine
10
-84.4811529847386
20
5.60386787066739
30
0.000000000000000
11
-84.3811529847385
21
5.46693910487219
31
0.000000000000000
  0
LINE
  5
F100B6
330
F100B7
100
AcDbEntity
8
Geo
100
AcDbLine
10
-84.3811529847385
20
5.46693910487219
30
0.000000000000000
11
-84.2811529847386
21
5.32118343457342
31
0.000000000000000
  0
LINE
  5
F100B8
330
F100B9
100
AcDbEntity
8
Geo
100
AcDbLine
10
-84.2811529847386
20
5.32118343457342
30
0.000000000000000
11
-84.1811529847386
21
5.16681676744019
31
0.000000000000000
  0
LINE
  5
F100BA
330
F100BB
100
AcDbEntity
8
Geo
100
AcDbLine
10
-84.1811529847386
20
5.16681676744019
30
0.000000000000000
11
-84.0811529847386
21
5.00406776659911
31
0.000000000000000
  0
LINE
  5
F100BC
330
F100BD
100
AcDbEntity
8
Geo
100
AcDbLine
10
-84.0811529847386
20
5.00406776659911
30
0.000000000000000
11
-83.9811529847386
21
4.83317751191591
31
0.000000000000000
  0
LINE
  5
F100BE
330
F100BF
100
AcDbEntity
8
Geo
100
AcDbLine
10
-83.9811529847386
20
4.83317751191591
30
0.000000000000000
11
-83.8811529847385
21
4.65439914288417
31
0.000000000000000
  0
LINE
  5
F100C0
330
F100C1
100
AcDbEntity
8
Geo
100
AcDbLine
10
-83.8811529847385
20
4.65439914288417
30
0.000000000000000
11
-83.7811529847386
21
4.46799748365012
31
0.000000000000000
  0
LINE
  5
F100C2
330
F100C3
100
AcDbEntity
8
Geo
100
AcDbLine
10
-83.7811529847386
20
4.46799748365012
30
0.000000000000000
11
-83.6811529847386
21
4.27424865072907
31
0.000000000000000
  0
LINE
  5
F100C4
330
F100C5
100
AcDbEntity
8
Geo
100
AcDbLine
10
-83.6811529847386
20
4.27424865072907
30
0.000000000000000
11
-83.5811529847386
21
4.07343964399433
31
0.000000000000000
  0
LINE
  5
F100C6
330
F100C7
100
AcDbEntity
8
Geo
100
AcDbLine
10
-83.5811529847386
20
4.07343964399433
30
0.000000000000000
11
-83.4811529847386
21
3.86586792154475
31
0.000000000000000
  0
LINE
  5
F100C8
330
F100C9
100
AcDbEntity
8
Geo
100
AcDbLine
10
-83.4811529847386
20
3.86586792154475
30
0.000000000000000
11
-83.3811529847385
21
3.65184095908045
31
0.000000000000000
  0
LINE
  5
F100CA
330
F100CB
100
AcDbEntity
8
Geo
100
AcDbLine
10
-83.3811529847385
20
3.65184095908045
30
0.000000000000000
11
-83.2811529847386
21
3.43167579443949
31
0.000000000000000
  0
LINE
  5
F100CC
330
F100CD
100
AcDbEntity
8
Geo
100
AcDbLine
10
-83.2811529847386
20
3.43167579443949
30
0.000000000000000
11
-83.1811529847386
21
3.20569855797015
31
0.000000000000000
  0
LINE
  5
F100CE
330
F100CF
100
AcDbEntity
8
Geo
100
AcDbLine
10
-83.1811529847386
20
3.20569855797015
30
0.000000000000000
11
-83.0811529847386
21
2.97424398943454
31
0.000000000000000
  0
LINE
  5
F100D0
330
F100D1
100
AcDbEntity
8
Geo
100
AcDbLine
10
-83.0811529847386
20
2.97424398943454
30
0.000000000000000
11
-82.9811529847386
21
2.73765494215905
31
0.000000000000000
  0
LINE
  5
F100D2
330
F100D3
100
AcDbEntity
8
Geo
100
AcDbLine
10
-82.9811529847386
20
2.73765494215905
30
0.000000000000000
11
-82.8811529847386
21
2.49628187516618
31
0.000000000000000
  0
LINE
  5
F100D4
330
F100D5
100
AcDbEntity
8
Geo
100
AcDbLine
10
-82.8811529847386
20
2.49628187516618
30
0.000000000000000
11
-82.7811529847386
21
2.25048233404013
31
0.000000000000000
  0
LINE
  5
F100D6
330
F100D7
100
AcDbEntity
8
Geo
100
AcDbLine
10
-82.7811529847386
20
2.25048233404013
30
0.000000000000000
11
-82.6811529847386
21
2.00062042129495
31
0.000000000000000
  0
LINE
  5
F100D8
330
F100D9
100
AcDbEntity
8
Geo
100
AcDbLine
10
-82.6811529847386
20
2.00062042129495
30
0.000000000000000
11
-82.5811529847386
21
1.74706625703009
31
0.000000000000000
  0
LINE
  5
F100DA
330
F100DB
100
AcDbEntity
8
Geo
100
AcDbLine
10
-82.5811529847386
20
1.74706625703009
30
0.000000000000000
11
-82.4811529847386
21
1.49019543067196
31
0.000000000000000
  0
LINE
  5
F100DC
330
F100DD
100
AcDbEntity
8
Geo
100
AcDbLine
10
-82.4811529847386
20
1.49019543067196
30
0.000000000000000
11
-82.3811529847386
21
1.23038844461385
31
0.000000000000000
  0
LINE
  5
F100DE
330
F100DF
100
AcDbEntity
8
Geo
100
AcDbLine
10
-82.3811529847386
20
1.23038844461385
30
0.000000000000000
11
-82.2811529847386
21
0.968030150578293
31
0.000000000000000
  0
LINE
  5
F100E0
330
F100E1
100
AcDbEntity
8
Geo
100
AcDbLine
10
-82.2811529847386
20
0.968030150578293
30
0.000000000000000
11
-82.1811529847386
21
0.703509179536733
31
0.000000000000000
  0
LINE
  5
F100E2
330
F100E3
100
AcDbEntity
8
Geo
100
AcDbLine
10
-82.1811529847386
20
0.703509179536733
30
0.000000000000000
11
-82.0811529847386
21
0.437217366031009
31
0.000000000000000
  0
LINE
  5
F100E4
330
F100E5
100
AcDbEntity
8
Geo
100
AcDbLine
10
-82.0811529847386
20
0.437217366031009
30
0.000000000000000
11
-81.9811529847386
21
0.169549167749412
31
0.000000000000000
  0
LINE
  5
F100E6
330
F100E7
100
AcDbEntity
8
Geo
100
AcDbLine
10
-81.9811529847386
20
0.169549167749412
30
0.000000000000000
11
-81.8811529847386
21
-0.0990989187829384
31
0.000000000000000
  0
LINE
  5
F100E8
330
F100E9
100
AcDbEntity
8
Geo
100
AcDbLine
10
-81.8811529847386
20
-0.0990989187829384
30
0.000000000000000
11
-81.7811529847386
21
-0.368328945533830
31
0.000000000000000
  0
LINE
  5
F100EA
330
F100EB
100
AcDbEntity
8
Geo
100
AcDbLine
10
-81.7811529847386
20
-0.368328945533830
30
0.000000000000000
11
-81.6811529847386
21
-0.637742102443833
31
0.000000000000000
  0
LINE
  5
F100EC
330
F100ED
100
AcDbEntity
8
Geo
100
AcDbLine
10
-81.6811529847386
20
-0.637742102443833
30
0.000000000000000
11
-81.5811529847386
21
-0.906939308183067
31
0.000000000000000
  0
LINE
  5
F100EE
330
F100EF
100
AcDbEntity
8
Geo
100
AcDbLine
10
-81.5811529847386
20
-0.906939308183067
30
0.000000000000000
11
-81.4811529847386
21
-1.17552180130982
31
0.000000000000000
  0
LINE
  5
F100F0
330
F100F1
100
AcDbEntity
8
Geo
100
AcDbLine
10
-81.4811529847386
20
-1.17552180130982
30
0.000000000000000
11
-81.3811529847386
21
-1.44309173095530
31
0.000000000000000
  0
LINE
  5
F100F2
330
F100F3
100
AcDbEntity
8
Geo
100
AcDbLine
10
-81.3811529847386
20
-1.44309173095530
30
0.000000000000000
11
-81.2811529847386
21
-1.70925274615958
31
0.000000000000000
  0
LINE
  5
F100F4
330
F100F5
100
AcDbEntity
8
Geo
100
AcDbLine
10
-81.2811529847386
20
-1.70925274615958
30
0.000000000000000
11
-81.1811529847386
21
-1.97361058298571
31
0.000000000000000
  0
LINE
  5
F100F6
330
F100F7
100
AcDbEntity
8
Geo
100
AcDbLine
10
-81.1811529847386
20
-1.97361058298571
30
0.000000000000000
11
-81.0811529847386
21
-2.23577364854232
31
0.000000000000000
  0
LINE
  5
F100F8
330
F100F9
100
AcDbEntity
8
Geo
100
AcDbLine
10
-81.0811529847386
20
-2.23577364854232
30
0.000000000000000
11
-80.9811529847386
21
-2.49535360104966
31
0.000000000000000
  0
LINE
  5
F100FA
330
F100FB
100
AcDbEntity
8
Geo
100
AcDbLine
10
-80.9811529847386
20
-2.49535360104966
30
0.000000000000000
11
-80.8811529847386
21
-2.75196592508967
31
0.000000000000000
  0
LINE
  5
F100FC
330
F100FD
100
AcDbEntity
8
Geo
100
AcDbLine
10
-80.8811529847386
20
-2.75196592508967
30
0.000000000000000
11
-80.7811529847386
21
-3.00523050118817
31
0.000000000000000
  0
LINE
  5
F100FE
330
F100FF
100
AcDbEntity
8
Geo
100
AcDbLine
10
-80.7811529847386
20
-3.00523050118817
30
0.000000000000000
11
-80.6811529847386
21
-3.25477216888529
31
0.000000000000000
  0
LINE
  5
F10100
330
F10101
100
AcDbEntity
8
Geo
100
AcDbLine
10
-80.6811529847386
20
-3.25477216888529
30
0.000000000000000
11
-80.5811529847386
21
-3.50022128246014
31
0.000000000000000
  0
LINE
  5
F10102
330
F10103
100
AcDbEntity
8
Geo
100
AcDbLine
10
-80.5811529847386
20
-3.50022128246014
30
0.000000000000000
11
-80.4811529847386
21
-3.74121425848648
31
0.000000000000000
  0
LINE
  5
F10104
330
F10105
100
AcDbEntity
8
Geo
100
AcDbLine
10
-80.4811529847386
20
-3.74121425848648
30
0.000000000000000
11
-80.3811529847386
21
-3.97739411440835
31
0.000000000000000
  0
LINE
  5
F10106
330
F10107
100
AcDbEntity
8
Geo
100
AcDbLine
10
-80.3811529847386
20
-3.97739411440835
30
0.000000000000000
11
-80.2811529847386
21
-4.20841099733781
31
0.000000000000000
  0
LINE
  5
F10108
330
F10109
100
AcDbEntity
8
Geo
100
AcDbLine
10
-80.2811529847386
20
-4.20841099733781
30
0.000000000000000
11
-80.1811529847386
21
-4.43392270229154
31
0.000000000000000
  0
LINE
  5
F1010A
330
F1010B
100
AcDbEntity
8
Geo
100
AcDbLine
10
-80.1811529847386
20
-4.43392270229154
30
0.000000000000000
11
-80.0811529847386
21
-4.65359517909863
31
0.000000000000000
  0
LINE
  5
F1010C
330
F1010D
100
AcDbEntity
8
Geo
100
AcDbLine
10
-80.0811529847386
20
-4.65359517909863
30
0.000000000000000
11
-79.9811529847386
21
-4.86710302722857
31
0.000000000000000
  0
LINE
  5
F1010E
330
F1010F
100
AcDbEntity
8
Geo
100
AcDbLine
10
-79.9811529847386
20
-4.86710302722857
30
0.000000000000000
11
-79.8811529847386
21
-5.07412997780664
31
0.000000000000000
  0
LINE
  5
F10110
330
F10111
100
AcDbEntity
8
Geo
100
AcDbLine
10
-79.8811529847386
20
-5.07412997780664
30
0.000000000000000
11
-79.7811529847386
21
-5.27436936210253
31
0.000000000000000
  0
LINE
  5
F10112
330
F10113
100
AcDbEntity
8
Geo
100
AcDbLine
10
-79.7811529847386
20
-5.27436936210253
30
0.000000000000000
11
-79.6811529847386
21
-5.46752456579830
31
0.000000000000000
  0
LINE
  5
F10114
330
F10115
100
AcDbEntity
8
Geo
100
AcDbLine
10
-79.6811529847386
20
-5.46752456579830
30
0.000000000000000
11
-79.5811529847386
21
-5.65330946836277
31
0.000000000000000
  0
LINE
  5
F10116
330
F10117
100
AcDbEntity
8
Geo
100
AcDbLine
10
-79.5811529847386
20
-5.65330946836277
30
0.000000000000000
11
-79.4811529847386
21
-5.83144886688144
31
0.000000000000000
  0
LINE
  5
F10118
330
F10119
100
AcDbEntity
8
Geo
100
AcDbLine
10
-79.4811529847386
20
-5.83144886688144
30
0.000000000000000
11
-79.3811529847386
21
-6.00167888371418
31
0.000000000000000
  0
LINE
  5
F1011A
330
F1011B
100
AcDbEntity
8
Geo
100
AcDbLine
10
-79.3811529847386
20
-6.00167888371418
30
0.000000000000000
11
-79.2811529847386
21
-6.16374735737681
31
0.000000000000000
  0
LINE
  5
F1011C
330
F1011D
100
AcDbEntity
8
Geo
100
AcDbLine
10
-79.2811529847386
20
-6.16374735737681
30
0.000000000000000
11
-79.1811529847386
21
-6.31741421606756
31
0.000000000000000
  0
LINE
  5
F1011E
330
F1011F
100
AcDbEntity
8
Geo
100
AcDbLine
10
-79.1811529847386
20
-6.31741421606756
30
0.000000000000000
11
-79.0811529847386
21
-6.46245183328507
31
0.000000000000000
  0
LINE
  5
F10120
330
F10121
100
AcDbEntity
8
Geo
100
AcDbLine
10
-79.0811529847386
20
-6.46245183328507
30
0.000000000000000
11
-78.9811529847386
21
-6.59864536501125
31
0.000000000000000
  0
LINE
  5
F10122
330
F10123
100
AcDbEntity
8
Geo
100
AcDbLine
10
-78.9811529847386
20
-6.59864536501125
30
0.000000000000000
11
-78.8811529847386
21
-6.72579306795937
31
0.000000000000000
  0
LINE
  5
F10124
330
F10125
100
AcDbEntity
8
Geo
100
AcDbLine
10
-78.8811529847386
20
-6.72579306795937
30
0.000000000000000
11
-78.7811529847386
21
-6.84370659841612
31
0.000000000000000
  0
LINE
  5
F10126
330
F10127
100
AcDbEntity
8
Geo
100
AcDbLine
10
-78.7811529847386
20
-6.84370659841612
30
0.000000000000000
11
-78.6811529847386
21
-6.95221129123492
31
0.000000000000000
  0
LINE
  5
F10128
330
F10129
100
AcDbEntity
8
Geo
100
AcDbLine
10
-78.6811529847386
20
-6.95221129123492
30
0.000000000000000
11
-78.5811529847386
21
-7.05114641856711
31
0.000000000000000
  0
LINE
  5
F1012A
330
F1012B
100
AcDbEntity
8
Geo
100
AcDbLine
10
-78.5811529847386
20
-7.05114641856711
30
0.000000000000000
11
-78.4811529847386
21
-7.14036542794792
31
0.000000000000000
  0
LINE
  5
F1012C
330
F1012D
100
AcDbEntity
8
Geo
100
AcDbLine
10
-78.4811529847386
20
-7.14036542794792
30
0.000000000000000
11
-78.3811529847386
21
-7.21973615938442
31
0.000000000000000
  0
LINE
  5
F1012E
330
F1012F
100
AcDbEntity
8
Geo
100
AcDbLine
10
-78.3811529847386
20
-7.21973615938442
30
0.000000000000000
11
-78.2811529847386
21
-7.28914104112391
31
0.000000000000000
  0
LINE
  5
F10130
330
F10131
100
AcDbEntity
8
Geo
100
AcDbLine
10
-78.2811529847386
20
-7.28914104112391
30
0.000000000000000
11
-78.1811529847386
21
-7.34847726381284
31
0.000000000000000
  0
LINE
  5
F10132
330
F10133
100
AcDbEntity
8
Geo
100
AcDbLine
10
-78.1811529847386
20
-7.34847726381284
30
0.000000000000000
11
-78.0811529847386
21
-7.39765693278809
31
0.000000000000000
  0
LINE
  5
F10134
330
F10135
100
AcDbEntity
8
Geo
100
AcDbLine
10
-78.0811529847386
20
-7.39765693278809
30
0.000000000000000
11
-77.9811529847386
21
-7.43660719827528
31
0.000000000000000
  0
LINE
  5
F10136
330
F10137
100
AcDbEntity
8
Geo
100
AcDbLine
10
-77.9811529847386
20
-7.43660719827528
30
0.000000000000000
11
-77.8811529847386
21
-7.46527036330101
31
0.000000000000000
  0
LINE
  5
F10138
330
F10139
100
AcDbEntity
8
Geo
100
AcDbLine
10
-77.8811529847386
20
-7.46527036330101
30
0.000000000000000
11
-77.7811529847386
21
-7.48360396915930
31
0.000000000000000
  0
LINE
  5
F1013A
330
F1013B
100
AcDbEntity
8
Geo
100
AcDbLine
10
-77.7811529847386
20
-7.48360396915930
30
0.000000000000000
11
-77.6811529847386
21
-7.49158085830560
31
0.000000000000000
  0
LINE
  5
F1013C
330
F1013D
100
AcDbEntity
8
Geo
100
AcDbLine
10
-89.0811529847386
20
5.50804293508912
30
0.000000000000000
11
-88.9811529847386
21
5.93916609212520
31
0.000000000000000
  0
LINE
  5
F1013E
330
F1013F
100
AcDbEntity
8
Geo
100
AcDbLine
10
-88.9811529847386
20
5.93916609212520
30
0.000000000000000
11
-88.8811529847385
21
6.08849703469067
31
0.000000000000000
  0
LINE
  5
F10140
330
F10141
100
AcDbEntity
8
Geo
100
AcDbLine
10
-88.8811529847385
20
6.08849703469067
30
0.000000000000000
11
-88.7811529847386
21
6.17747453795023
31
0.000000000000000
  0
LINE
  5
F10142
330
F10143
100
AcDbEntity
8
Geo
100
AcDbLine
10
-88.7811529847386
20
6.17747453795023
30
0.000000000000000
11
-88.6811529847385
21
6.22760941201049
31
0.000000000000000
  0
LINE
  5
F10144
330
F10145
100
AcDbEntity
8
Geo
100
AcDbLine
10
-88.6811529847385
20
6.22760941201049
30
0.000000000000000
11
-88.5811529847386
21
6.24731167012682
31
0.000000000000000
  0
LINE
  5
F10146
330
F10147
100
AcDbEntity
8
Geo
100
AcDbLine
10
-88.5811529847386
20
6.24731167012682
30
0.000000000000000
11
-88.4811529847386
21
6.24093594958164
31
0.000000000000000
  0
LINE
  5
F10148
330
F10149
100
AcDbEntity
8
Geo
100
AcDbLine
10
-88.4811529847386
20
6.24093594958164
30
0.000000000000000
11
-88.3811529847385
21
6.21110308667754
31
0.000000000000000
  0
LINE
  5
F1014A
330
F1014B
100
AcDbEntity
8
Geo
100
AcDbLine
10
-88.3811529847385
20
6.21110308667754
30
0.000000000000000
11
-88.2811529847386
21
6.15955102677256
31
0.000000000000000
  0
LINE
  5
F1014C
330
F1014D
100
AcDbEntity
8
Geo
100
AcDbLine
10
-88.2811529847386
20
6.15955102677256
30
0.000000000000000
11
-88.1811529847385
21
6.08751136638806
31
0.000000000000000
  0
LINE
  5
F1014E
330
F1014F
100
AcDbEntity
8
Geo
100
AcDbLine
10
-88.1811529847385
20
6.08751136638806
30
0.000000000000000
11
-88.0811529847386
21
5.99589435109084
31
0.000000000000000
  0
LINE
  5
F10150
330
F10151
100
AcDbEntity
8
Geo
100
AcDbLine
10
-88.0811529847386
20
5.99589435109084
30
0.000000000000000
11
-87.9811529847386
21
5.88995208597570
31
0.000000000000000
  0
LINE
  5
F10152
330
F10153
100
AcDbEntity
8
Geo
100
AcDbLine
10
-87.9811529847386
20
5.88995208597570
30
0.000000000000000
11
-87.8811529847385
21
5.77455630782386
31
0.000000000000000
  0
LINE
  5
F10154
330
F10155
100
AcDbEntity
8
Geo
100
AcDbLine
10
-87.8811529847385
20
5.77455630782386
30
0.000000000000000
11
-87.7811529847386
21
5.64987795223897
31
0.000000000000000
  0
LINE
  5
F10156
330
F10157
100
AcDbEntity
8
Geo
100
AcDbLine
10
-87.7811529847386
20
5.64987795223897
30
0.000000000000000
11
-87.6811529847385
21
5.51610170509354
31
0.000000000000000
  0
LINE
  5
F10158
330
F10159
100
AcDbEntity
8
Geo
100
AcDbLine
10
-87.6811529847385
20
5.51610170509354
30
0.000000000000000
11
-87.5811529847386
21
5.37342572895407
31
0.000000000000000
  0
LINE
  5
F1015A
330
F1015B
100
AcDbEntity
8
Geo
100
AcDbLine
10
-87.5811529847386
20
5.37342572895407
30
0.000000000000000
11
-87.4811529847386
21
5.22206136954306
31
0.000000000000000
  0
LINE
  5
F1015C
330
F1015D
100
AcDbEntity
8
Geo
100
AcDbLine
10
-87.4811529847386
20
5.22206136954306
30
0.000000000000000
11
-87.3811529847385
21
5.06223284267292
31
0.000000000000000
  0
LINE
  5
F1015E
330
F1015F
100
AcDbEntity
8
Geo
100
AcDbLine
10
-87.3811529847385
20
5.06223284267292
30
0.000000000000000
11
-87.2811529847386
21
4.89417690211538
31
0.000000000000000
  0
LINE
  5
F10160
330
F10161
100
AcDbEntity
8
Geo
100
AcDbLine
10
-87.2811529847386
20
4.89417690211538
30
0.000000000000000
11
-87.1811529847385
21
4.71814248889851
31
0.000000000000000
  0
LINE
  5
F10162
330
F10163
100
AcDbEntity
8
Geo
100
AcDbLine
10
-87.1811529847385
20
4.71814248889851
30
0.000000000000000
11
-87.0811529847386
21
4.53439036255068
31
0.000000000000000
  0
LINE
  5
F10164
330
F10165
100
AcDbEntity
8
Geo
100
AcDbLine
10
-87.0811529847386
20
4.53439036255068
30
0.000000000000000
11
-86.9811529847386
21
4.34319271483782
31
0.000000000000000
  0
LINE
  5
F10166
330
F10167
100
AcDbEntity
8
Geo
100
AcDbLine
10
-86.9811529847386
20
4.34319271483782
30
0.000000000000000
11
-86.8811529847385
21
4.14483276656622
31
0.000000000000000
  0
LINE
  5
F10168
330
F10169
100
AcDbEntity
8
Geo
100
AcDbLine
10
-86.8811529847385
20
4.14483276656622
30
0.000000000000000
11
-86.7811529847386
21
3.93960434804787
31
0.000000000000000
  0
LINE
  5
F1016A
330
F1016B
100
AcDbEntity
8
Geo
100
AcDbLine
10
-86.7811529847386
20
3.93960434804787
30
0.000000000000000
11
-86.6811529847385
21
3.72781146385007
31
0.000000000000000
  0
LINE
  5
F1016C
330
F1016D
100
AcDbEntity
8
Geo
100
AcDbLine
10
-86.6811529847385
20
3.72781146385007
30
0.000000000000000
11
-86.5811529847386
21
3.50976784247388
31
0.000000000000000
  0
LINE
  5
F1016E
330
F1016F
100
AcDbEntity
8
Geo
100
AcDbLine
10
-86.5811529847386
20
3.50976784247388
30
0.000000000000000
11
-86.4811529847386
21
3.28579647162856
31
0.000000000000000
  0
LINE
  5
F10170
330
F10171
100
AcDbEntity
8
Geo
100
AcDbLine
10
-86.4811529847386
20
3.28579647162856
30
0.000000000000000
11
-86.3811529847385
21
3.05622911979027
31
0.000000000000000
  0
LINE
  5
F10172
330
F10173
100
AcDbEntity
8
Geo
100
AcDbLine
10
-86.3811529847385
20
3.05622911979027
30
0.000000000000000
11
-86.2811529847386
21
2.82140584475399
31
0.000000000000000
  0
LINE
  5
F10174
330
F10175
100
AcDbEntity
8
Geo
100
AcDbLine
10
-86.2811529847386
20
2.82140584475399
30
0.000000000000000
11
-86.1811529847385
21
2.58167448990627
31
0.000000000000000
  0
LINE
  5
F10176
330
F10177
100
AcDbEntity
8
Geo
100
AcDbLine
10
-86.1811529847385
20
2.58167448990627
30
0.000000000000000
11
-86.0811529847386
21
2.33739016896541
31
0.000000000000000
  0
LINE
  5
F10178
330
F10179
100
AcDbEntity
8
Geo
100
AcDbLine
10
-86.0811529847386
20
2.33739016896541
30
0.000000000000000
11
-85.9811529847385
21
2.08891473995196
31
0.000000000000000
  0
LINE
  5
F1017A
330
F1017B
100
AcDbEntity
8
Geo
100
AcDbLine
10
-85.9811529847385
20
2.08891473995196
30
0.000000000000000
11
-85.8811529847385
21
1.83661626916896
31
0.000000000000000
  0
LINE
  5
F1017C
330
F1017D
100
AcDbEntity
8
Geo
100
AcDbLine
10
-85.8811529847385
20
1.83661626916896
30
0.000000000000000
11
-85.7811529847386
21
1.58086848598583
31
0.000000000000000
  0
LINE
  5
F1017E
330
F1017F
100
AcDbEntity
8
Geo
100
AcDbLine
10
-85.7811529847386
20
1.58086848598583
30
0.000000000000000
11
-85.6811529847385
21
1.32205022923360
31
0.000000000000000
  0
LINE
  5
F10180
330
F10181
100
AcDbEntity
8
Geo
100
AcDbLine
10
-85.6811529847385
20
1.32205022923360
30
0.000000000000000
11
-85.5811529847386
21
1.06054488603146
31
0.000000000000000
  0
LINE
  5
F10182
330
F10183
100
AcDbEntity
8
Geo
100
AcDbLine
10
-85.5811529847386
20
1.06054488603146
30
0.000000000000000
11
-85.4811529847385
21
0.796739823875993
31
0.000000000000000
  0
LINE
  5
F10184
330
F10185
100
AcDbEntity
8
Geo
100
AcDbLine
10
-85.4811529847385
20
0.796739823875993
30
0.000000000000000
11
-85.3811529847385
21
0.531025816834210
31
0.000000000000000
  0
LINE
  5
F10186
330
F10187
100
AcDbEntity
8
Geo
100
AcDbLine
10
-85.3811529847385
20
0.531025816834210
30
0.000000000000000
11
-85.2811529847386
21
0.263796466690502
31
0.000000000000000
  0
LINE
  5
F10188
330
F10189
100
AcDbEntity
8
Geo
100
AcDbLine
10
-85.2811529847386
20
0.263796466690502
30
0.000000000000000
11
-85.1811529847385
21
-0.00455238009513848
31
0.000000000000000
  0
LINE
  5
F1018A
330
F1018B
100
AcDbEntity
8
Geo
100
AcDbLine
10
-85.1811529847385
20
-0.00455238009513848
30
0.000000000000000
11
-85.0811529847386
21
-0.273623218753916
31
0.000000000000000
  0
LINE
  5
F1018C
330
F1018D
100
AcDbEntity
8
Geo
100
AcDbLine
10
-85.0811529847386
20
-0.273623218753916
30
0.000000000000000
11
-84.9811529847385
21
-0.543017475031496
31
0.000000000000000
  0
LINE
  5
F1018E
330
F1018F
100
AcDbEntity
8
Geo
100
AcDbLine
10
-84.9811529847385
20
-0.543017475031496
30
0.000000000000000
11
-84.8811529847385
21
-0.812336095595482
31
0.000000000000000
  0
LINE
  5
F10190
330
F10191
100
AcDbEntity
8
Geo
100
AcDbLine
10
-84.8811529847385
20
-0.812336095595482
30
0.000000000000000
11
-84.7811529847386
21
-1.08118013915255
31
0.000000000000000
  0
LINE
  5
F10192
330
F10193
100
AcDbEntity
8
Geo
100
AcDbLine
10
-84.7811529847386
20
-1.08118013915255
30
0.000000000000000
11
-84.6811529847385
21
-1.34915136739962
31
0.000000000000000
  0
LINE
  5
F10194
330
F10195
100
AcDbEntity
8
Geo
100
AcDbLine
10
-84.6811529847385
20
-1.34915136739962
30
0.000000000000000
11
-84.5811529847386
21
-1.61585283493372
31
0.000000000000000
  0
LINE
  5
F10196
330
F10197
100
AcDbEntity
8
Geo
100
AcDbLine
10
-84.5811529847386
20
-1.61585283493372
30
0.000000000000000
11
-84.4811529847386
21
-1.88088947724662
31
0.000000000000000
  0
LINE
  5
F10198
330
F10199
100
AcDbEntity
8
Geo
100
AcDbLine
10
-84.4811529847386
20
-1.88088947724662
30
0.000000000000000
11
-84.3811529847385
21
-2.14386869593334
31
0.000000000000000
  0
LINE
  5
F1019A
330
F1019B
100
AcDbEntity
8
Geo
100
AcDbLine
10
-84.3811529847385
20
-2.14386869593334
30
0.000000000000000
11
-84.2811529847386
21
-2.40440094024764
31
0.000000000000000
  0
LINE
  5
F1019C
330
F1019D
100
AcDbEntity
8
Geo
100
AcDbLine
10
-84.2811529847386
20
-2.40440094024764
30
0.000000000000000
11
-84.1811529847386
21
-2.66210028414297
31
0.000000000000000
  0
LINE
  5
F1019E
330
F1019F
100
AcDbEntity
8
Geo
100
AcDbLine
10
-84.1811529847386
20
-2.66210028414297
30
0.000000000000000
11
-84.0811529847386
21
-2.91658499794414
31
0.000000000000000
  0
LINE
  5
F101A0
330
F101A1
100
AcDbEntity
8
Geo
100
AcDbLine
10
-84.0811529847386
20
-2.91658499794414
30
0.000000000000000
11
-83.9811529847386
21
-3.16747811380305
31
0.000000000000000
  0
LINE
  5
F101A2
330
F101A3
100
AcDbEntity
8
Geo
100
AcDbLine
10
-83.9811529847386
20
-3.16747811380305
30
0.000000000000000
11
-83.8811529847385
21
-3.41440798410053
31
0.000000000000000
  0
LINE
  5
F101A4
330
F101A5
100
AcDbEntity
8
Geo
100
AcDbLine
10
-83.8811529847385
20
-3.41440798410053
30
0.000000000000000
11
-83.7811529847386
21
-3.65700883196749
31
0.000000000000000
  0
LINE
  5
F101A6
330
F101A7
100
AcDbEntity
8
Geo
100
AcDbLine
10
-83.7811529847386
20
-3.65700883196749
30
0.000000000000000
11
-83.6811529847386
21
-3.89492129310969
31
0.000000000000000
  0
LINE
  5
F101A8
330
F101A9
100
AcDbEntity
8
Geo
100
AcDbLine
10
-83.6811529847386
20
-3.89492129310969
30
0.000000000000000
11
-83.5811529847386
21
-4.12779294813351
31
0.000000000000000
  0
LINE
  5
F101AA
330
F101AB
100
AcDbEntity
8
Geo
100
AcDbLine
10
-83.5811529847386
20
-4.12779294813351
30
0.000000000000000
11
-83.4811529847386
21
-4.35527884458434
31
0.000000000000000
  0
LINE
  5
F101AC
330
F101AD
100
AcDbEntity
8
Geo
100
AcDbLine
10
-83.4811529847386
20
-4.35527884458434
30
0.000000000000000
11
-83.3811529847385
21
-4.57704200792419
31
0.000000000000000
  0
LINE
  5
F101AE
330
F101AF
100
AcDbEntity
8
Geo
100
AcDbLine
10
-83.3811529847385
20
-4.57704200792419
30
0.000000000000000
11
-83.2811529847386
21
-4.79275394069153
31
0.000000000000000
  0
LINE
  5
F101B0
330
F101B1
100
AcDbEntity
8
Geo
100
AcDbLine
10
-83.2811529847386
20
-4.79275394069153
30
0.000000000000000
11
-83.1811529847386
21
-5.00209510910417
31
0.000000000000000
  0
LINE
  5
F101B2
330
F101B3
100
AcDbEntity
8
Geo
100
AcDbLine
10
-83.1811529847386
20
-5.00209510910417
30
0.000000000000000
11
-83.0811529847386
21
-5.20475541638418
31
0.000000000000000
  0
LINE
  5
F101B4
330
F101B5
100
AcDbEntity
8
Geo
100
AcDbLine
10
-83.0811529847386
20
-5.20475541638418
30
0.000000000000000
11
-82.9811529847386
21
-5.40043466210382
31
0.000000000000000
  0
LINE
  5
F101B6
330
F101B7
100
AcDbEntity
8
Geo
100
AcDbLine
10
-82.9811529847386
20
-5.40043466210382
30
0.000000000000000
11
-82.8811529847386
21
-5.58884298687201
31
0.000000000000000
  0
LINE
  5
F101B8
330
F101B9
100
AcDbEntity
8
Geo
100
AcDbLine
10
-82.8811529847386
20
-5.58884298687201
30
0.000000000000000
11
-82.7811529847386
21
-5.76970130170264
31
0.000000000000000
  0
LINE
  5
F101BA
330
F101BB
100
AcDbEntity
8
Geo
100
AcDbLine
10
-82.7811529847386
20
-5.76970130170264
30
0.000000000000000
11
-82.6811529847386
21
-5.94274170142866
31
0.000000000000000
  0
LINE
  5
F101BC
330
F101BD
100
AcDbEntity
8
Geo
100
AcDbLine
10
-82.6811529847386
20
-5.94274170142866
30
0.000000000000000
11
-82.5811529847386
21
-6.10770786154969
31
0.000000000000000
  0
LINE
  5
F101BE
330
F101BF
100
AcDbEntity
8
Geo
100
AcDbLine
10
-82.5811529847386
20
-6.10770786154969
30
0.000000000000000
11
-82.4811529847386
21
-6.26435541792508
31
0.000000000000000
  0
LINE
  5
F101C0
330
F101C1
100
AcDbEntity
8
Geo
100
AcDbLine
10
-82.4811529847386
20
-6.26435541792508
30
0.000000000000000
11
-82.3811529847386
21
-6.41245232875019
31
0.000000000000000
  0
LINE
  5
F101C2
330
F101C3
100
AcDbEntity
8
Geo
100
AcDbLine
10
-82.3811529847386
20
-6.41245232875019
30
0.000000000000000
11
-82.2811529847386
21
-6.55177921827961
31
0.000000000000000
  0
LINE
  5
F101C4
330
F101C5
100
AcDbEntity
8
Geo
100
AcDbLine
10
-82.2811529847386
20
-6.55177921827961
30
0.000000000000000
11
-82.1811529847386
21
-6.68212970178812
31
0.000000000000000
  0
LINE
  5
F101C6
330
F101C7
100
AcDbEntity
8
Geo
100
AcDbLine
10
-82.1811529847386
20
-6.68212970178812
30
0.000000000000000
11
-82.0811529847386
21
-6.80331069128807
31
0.000000000000000
  0
LINE
  5
F101C8
330
F101C9
100
AcDbEntity
8
Geo
100
AcDbLine
10
-82.0811529847386
20
-6.80331069128807
30
0.000000000000000
11
-81.9811529847386
21
-6.91514268155040
31
0.000000000000000
  0
LINE
  5
F101CA
330
F101CB
100
AcDbEntity
8
Geo
100
AcDbLine
10
-81.9811529847386
20
-6.91514268155040
30
0.000000000000000
11
-81.8811529847386
21
-7.01746001600545
31
0.000000000000000
  0
LINE
  5
F101CC
330
F101CD
100
AcDbEntity
8
Geo
100
AcDbLine
10
-81.8811529847386
20
-7.01746001600545
30
0.000000000000000
11
-81.7811529847386
21
-7.11011113212978
31
0.000000000000000
  0
LINE
  5
F101CE
330
F101CF
100
AcDbEntity
8
Geo
100
AcDbLine
10
-81.7811529847386
20
-7.11011113212978
30
0.000000000000000
11
-81.6811529847386
21
-7.19295878595559
31
0.000000000000000
  0
LINE
  5
F101D0
330
F101D1
100
AcDbEntity
8
Geo
100
AcDbLine
10
-81.6811529847386
20
-7.19295878595559
30
0.000000000000000
11
-81.5811529847386
21
-7.26588025536993
31
0.000000000000000
  0
LINE
  5
F101D2
330
F101D3
100
AcDbEntity
8
Geo
100
AcDbLine
10
-81.5811529847386
20
-7.26588025536993
30
0.000000000000000
11
-81.4811529847386
21
-7.32876752190288
31
0.000000000000000
  0
LINE
  5
F101D4
330
F101D5
100
AcDbEntity
8
Geo
100
AcDbLine
10
-81.4811529847386
20
-7.32876752190288
30
0.000000000000000
11
-81.3811529847386
21
-7.38152743073509
31
0.000000000000000
  0
LINE
  5
F101D6
330
F101D7
100
AcDbEntity
8
Geo
100
AcDbLine
10
-81.3811529847386
20
-7.38152743073509
30
0.000000000000000
11
-81.2811529847386
21
-7.42408182868792
31
0.000000000000000
  0
LINE
  5
F101D8
330
F101D9
100
AcDbEntity
8
Geo
100
AcDbLine
10
-81.2811529847386
20
-7.42408182868792
30
0.000000000000000
11
-81.1811529847386
21
-7.45636767999161
31
0.000000000000000
  0
LINE
  5
F101DA
330
F101DB
100
AcDbEntity
8
Geo
100
AcDbLine
10
-81.1811529847386
20
-7.45636767999161
30
0.000000000000000
11
-81.0811529847386
21
-7.47833715966011
31
0.000000000000000
  0
LINE
  5
F101DC
330
F101DD
100
AcDbEntity
8
Geo
100
AcDbLine
10
-81.0811529847386
20
-7.47833715966011
30
0.000000000000000
11
-80.9811529847386
21
-7.48995772433411
31
0.000000000000000
  0
LINE
  5
F101DE
330
F101DF
100
AcDbEntity
8
Geo
100
AcDbLine
10
-89.0811529847386
20
5.21438203286004
30
0.000000000000000
11
-88.9811529847386
21
5.54787449753172
31
0.000000000000000
  0
LINE
  5
F101E0
330
F101E1
100
AcDbEntity
8
Geo
100
AcDbLine
10
-88.9811529847386
20
5.54787449753172
30
0.000000000000000
11
-88.8811529847385
21
5.60957998468459
31
0.000000000000000
  0
LINE
  5
F101E2
330
F101E3
100
AcDbEntity
8
Geo
100
AcDbLine
10
-88.8811529847385
20
5.60957998468459
30
0.000000000000000
11
-88.7811529847386
21
5.61200590802333
31
0.000000000000000
  0
LINE
  5
F101E4
330
F101E5
100
AcDbEntity
8
Geo
100
AcDbLine
10
-88.7811529847386
20
5.61200590802333
30
0.000000000000000
11
-88.6811529847385
21
5.57648830953427
31
0.000000000000000
  0
LINE
  5
F101E6
330
F101E7
100
AcDbEntity
8
Geo
100
AcDbLine
10
-88.6811529847385
20
5.57648830953427
30
0.000000000000000
11
-88.5811529847386
21
5.51165931912945
31
0.000000000000000
  0
LINE
  5
F101E8
330
F101E9
100
AcDbEntity
8
Geo
100
AcDbLine
10
-88.5811529847386
20
5.51165931912945
30
0.000000000000000
11
-88.4811529847386
21
5.42218744175328
31
0.000000000000000
  0
LINE
  5
F101EA
330
F101EB
100
AcDbEntity
8
Geo
100
AcDbLine
10
-88.4811529847386
20
5.42218744175328
30
0.000000000000000
11
-88.3811529847385
21
5.31103700549529
31
0.000000000000000
  0
LINE
  5
F101EC
330
F101ED
100
AcDbEntity
8
Geo
100
AcDbLine
10
-88.3811529847385
20
5.31103700549529
30
0.000000000000000
11
-88.2811529847386
21
5.18030311510971
31
0.000000000000000
  0
LINE
  5
F101EE
330
F101EF
100
AcDbEntity
8
Geo
100
AcDbLine
10
-88.2811529847386
20
5.18030311510971
30
0.000000000000000
11
-88.1811529847385
21
5.03158564759547
31
0.000000000000000
  0
LINE
  5
F101F0
330
F101F1
100
AcDbEntity
8
Geo
100
AcDbLine
10
-88.1811529847385
20
5.03158564759547
30
0.000000000000000
11
-88.0811529847386
21
4.86617733329470
31
0.000000000000000
  0
LINE
  5
F101F2
330
F101F3
100
AcDbEntity
8
Geo
100
AcDbLine
10
-88.0811529847386
20
4.86617733329470
30
0.000000000000000
11
-87.9811529847386
21
4.68887388696478
31
0.000000000000000
  0
LINE
  5
F101F4
330
F101F5
100
AcDbEntity
8
Geo
100
AcDbLine
10
-87.9811529847386
20
4.68887388696478
30
0.000000000000000
11
-87.8811529847385
21
4.50389608304271
31
0.000000000000000
  0
LINE
  5
F101F6
330
F101F7
100
AcDbEntity
8
Geo
100
AcDbLine
10
-87.8811529847385
20
4.50389608304271
30
0.000000000000000
11
-87.7811529847386
21
4.31151792888890
31
0.000000000000000
  0
LINE
  5
F101F8
330
F101F9
100
AcDbEntity
8
Geo
100
AcDbLine
10
-87.7811529847386
20
4.31151792888890
30
0.000000000000000
11
-87.6811529847385
21
4.11202439399217
31
0.000000000000000
  0
LINE
  5
F101FA
330
F101FB
100
AcDbEntity
8
Geo
100
AcDbLine
10
-87.6811529847385
20
4.11202439399217
30
0.000000000000000
11
-87.5811529847386
21
3.90571098784476
31
0.000000000000000
  0
LINE
  5
F101FC
330
F101FD
100
AcDbEntity
8
Geo
100
AcDbLine
10
-87.5811529847386
20
3.90571098784476
30
0.000000000000000
11
-87.4811529847386
21
3.69288332220465
31
0.000000000000000
  0
LINE
  5
F101FE
330
F101FF
100
AcDbEntity
8
Geo
100
AcDbLine
10
-87.4811529847386
20
3.69288332220465
30
0.000000000000000
11
-87.3811529847385
21
3.47385665839317
31
0.000000000000000
  0
LINE
  5
F10200
330
F10201
100
AcDbEntity
8
Geo
100
AcDbLine
10
-87.3811529847385
20
3.47385665839317
30
0.000000000000000
11
-87.2811529847386
21
3.24895544029895
31
0.000000000000000
  0
LINE
  5
F10202
330
F10203
100
AcDbEntity
8
Geo
100
AcDbLine
10
-87.2811529847386
20
3.24895544029895
30
0.000000000000000
11
-87.1811529847385
21
3.01851281377960
31
0.000000000000000
  0
LINE
  5
F10204
330
F10205
100
AcDbEntity
8
Geo
100
AcDbLine
10
-87.1811529847385
20
3.01851281377960
30
0.000000000000000
11
-87.0811529847386
21
2.78287013317322
31
0.000000000000000
  0
LINE
  5
F10206
330
F10207
100
AcDbEntity
8
Geo
100
AcDbLine
10
-87.0811529847386
20
2.78287013317322
30
0.000000000000000
11
-86.9811529847386
21
2.54237645565069
31
0.000000000000000
  0
LINE
  5
F10208
330
F10209
100
AcDbEntity
8
Geo
100
AcDbLine
10
-86.9811529847386
20
2.54237645565069
30
0.000000000000000
11
-86.8811529847385
21
2.29738802415782
31
0.000000000000000
  0
LINE
  5
F1020A
330
F1020B
100
AcDbEntity
8
Geo
100
AcDbLine
10
-86.8811529847385
20
2.29738802415782
30
0.000000000000000
11
-86.7811529847386
21
2.04826773971312
31
0.000000000000000
  0
LINE
  5
F1020C
330
F1020D
100
AcDbEntity
8
Geo
100
AcDbLine
10
-86.7811529847386
20
2.04826773971312
30
0.000000000000000
11
-86.6811529847385
21
1.79538462384307
31
0.000000000000000
  0
LINE
  5
F1020E
330
F1020F
100
AcDbEntity
8
Geo
100
AcDbLine
10
-86.6811529847385
20
1.79538462384307
30
0.000000000000000
11
-86.5811529847386
21
1.53911327195105
31
0.000000000000000
  0
LINE
  5
F10210
330
F10211
100
AcDbEntity
8
Geo
100
AcDbLine
10
-86.5811529847386
20
1.53911327195105
30
0.000000000000000
11
-86.4811529847386
21
1.27983329842966
31
0.000000000000000
  0
LINE
  5
F10212
330
F10213
100
AcDbEntity
8
Geo
100
AcDbLine
10
-86.4811529847386
20
1.27983329842966
30
0.000000000000000
11
-86.3811529847385
21
1.01792877433850
31
0.000000000000000
  0
LINE
  5
F10214
330
F10215
100
AcDbEntity
8
Geo
100
AcDbLine
10
-86.3811529847385
20
1.01792877433850
30
0.000000000000000
11
-86.2811529847386
21
0.753787658480245
31
0.000000000000000
  0
LINE
  5
F10216
330
F10217
100
AcDbEntity
8
Geo
100
AcDbLine
10
-86.2811529847386
20
0.753787658480245
30
0.000000000000000
11
-86.1811529847385
21
0.487801222717778
31
0.000000000000000
  0
LINE
  5
F10218
330
F10219
100
AcDbEntity
8
Geo
100
AcDbLine
10
-86.1811529847385
20
0.487801222717778
30
0.000000000000000
11
-86.0811529847386
21
0.220363472383774
31
0.000000000000000
  0
LINE
  5
F1021A
330
F1021B
100
AcDbEntity
8
Geo
100
AcDbLine
10
-86.0811529847386
20
0.220363472383774
30
0.000000000000000
11
-85.9811529847385
21
-0.0481294373588681
31
0.000000000000000
  0
LINE
  5
F1021C
330
F1021D
100
AcDbEntity
8
Geo
100
AcDbLine
10
-85.9811529847385
20
-0.0481294373588681
30
0.000000000000000
11
-85.8811529847385
21
-0.317279788341101
31
0.000000000000000
  0
LINE
  5
F1021E
330
F1021F
100
AcDbEntity
8
Geo
100
AcDbLine
10
-85.8811529847385
20
-0.317279788341101
30
0.000000000000000
11
-85.7811529847386
21
-0.586688888527096
31
0.000000000000000
  0
LINE
  5
F10220
330
F10221
100
AcDbEntity
8
Geo
100
AcDbLine
10
-85.7811529847386
20
-0.586688888527096
30
0.000000000000000
11
-85.6811529847385
21
-0.855957662596190
31
0.000000000000000
  0
LINE
  5
F10222
330
F10223
100
AcDbEntity
8
Geo
100
AcDbLine
10
-85.6811529847385
20
-0.855957662596190
30
0.000000000000000
11
-85.5811529847386
21
-1.12468724309260
31
0.000000000000000
  0
LINE
  5
F10224
330
F10225
100
AcDbEntity
8
Geo
100
AcDbLine
10
-85.5811529847386
20
-1.12468724309260
30
0.000000000000000
11
-85.4811529847385
21
-1.39247956126724
31
0.000000000000000
  0
LINE
  5
F10226
330
F10227
100
AcDbEntity
8
Geo
100
AcDbLine
10
-85.4811529847385
20
-1.39247956126724
30
0.000000000000000
11
-85.3811529847385
21
-1.65893793673635
31
0.000000000000000
  0
LINE
  5
F10228
330
F10229
100
AcDbEntity
8
Geo
100
AcDbLine
10
-85.3811529847385
20
-1.65893793673635
30
0.000000000000000
11
-85.2811529847386
21
-1.92366766508364
31
0.000000000000000
  0
LINE
  5
F1022A
330
F1022B
100
AcDbEntity
8
Geo
100
AcDbLine
10
-85.2811529847386
20
-1.92366766508364
30
0.000000000000000
11
-85.1811529847385
21
-2.18627660253536
31
0.000000000000000
  0
LINE
  5
F1022C
330
F1022D
100
AcDbEntity
8
Geo
100
AcDbLine
10
-85.1811529847385
20
-2.18627660253536
30
0.000000000000000
11
-85.0811529847386
21
-2.44637574684234
31
0.000000000000000
  0
LINE
  5
F1022E
330
F1022F
100
AcDbEntity
8
Geo
100
AcDbLine
10
-85.0811529847386
20
-2.44637574684234
30
0.000000000000000
11
-84.9811529847385
21
-2.70357981350845
31
0.000000000000000
  0
LINE
  5
F10230
330
F10231
100
AcDbEntity
8
Geo
100
AcDbLine
10
-84.9811529847385
20
-2.70357981350845
30
0.000000000000000
11
-84.8811529847385
21
-2.95750780651198
31
0.000000000000000
  0
LINE
  5
F10232
330
F10233
100
AcDbEntity
8
Geo
100
AcDbLine
10
-84.8811529847385
20
-2.95750780651198
30
0.000000000000000
11
-84.7811529847386
21
-3.20778358267456
31
0.000000000000000
  0
LINE
  5
F10234
330
F10235
100
AcDbEntity
8
Geo
100
AcDbLine
10
-84.7811529847386
20
-3.20778358267456
30
0.000000000000000
11
-84.6811529847385
21
-3.45403640884143
31
0.000000000000000
  0
LINE
  5
F10236
330
F10237
100
AcDbEntity
8
Geo
100
AcDbLine
10
-84.6811529847385
20
-3.45403640884143
30
0.000000000000000
11
-84.5811529847386
21
-3.69590151104803
31
0.000000000000000
  0
LINE
  5
F10238
330
F10239
100
AcDbEntity
8
Geo
100
AcDbLine
10
-84.5811529847386
20
-3.69590151104803
30
0.000000000000000
11
-84.4811529847386
21
-3.93302061485912
31
0.000000000000000
  0
LINE
  5
F1023A
330
F1023B
100
AcDbEntity
8
Geo
100
AcDbLine
10
-84.4811529847386
20
-3.93302061485912
30
0.000000000000000
11
-84.3811529847385
21
-4.16504247608019
31
0.000000000000000
  0
LINE
  5
F1023C
330
F1023D
100
AcDbEntity
8
Geo
100
AcDbLine
10
-84.3811529847385
20
-4.16504247608019
30
0.000000000000000
11
-84.2811529847386
21
-4.39162340105499
31
0.000000000000000
  0
LINE
  5
F1023E
330
F1023F
100
AcDbEntity
8
Geo
100
AcDbLine
10
-84.2811529847386
20
-4.39162340105499
30
0.000000000000000
11
-84.1811529847386
21
-4.61242775577849
31
0.000000000000000
  0
LINE
  5
F10240
330
F10241
100
AcDbEntity
8
Geo
100
AcDbLine
10
-84.1811529847386
20
-4.61242775577849
30
0.000000000000000
11
-84.0811529847386
21
-4.82712846307102
31
0.000000000000000
  0
LINE
  5
F10242
330
F10243
100
AcDbEntity
8
Geo
100
AcDbLine
10
-84.0811529847386
20
-4.82712846307102
30
0.000000000000000
11
-83.9811529847386
21
-5.03540748707726
31
0.000000000000000
  0
LINE
  5
F10244
330
F10245
100
AcDbEntity
8
Geo
100
AcDbLine
10
-83.9811529847386
20
-5.03540748707726
30
0.000000000000000
11
-83.8811529847385
21
-5.23695630437231
31
0.000000000000000
  0
LINE
  5
F10246
330
F10247
100
AcDbEntity
8
Geo
100
AcDbLine
10
-83.8811529847385
20
-5.23695630437231
30
0.000000000000000
11
-83.7811529847386
21
-5.43147636097697
31
0.000000000000000
  0
LINE
  5
F10248
330
F10249
100
AcDbEntity
8
Geo
100
AcDbLine
10
-83.7811529847386
20
-5.43147636097697
30
0.000000000000000
11
-83.6811529847386
21
-5.61867951460535
31
0.000000000000000
  0
LINE
  5
F1024A
330
F1024B
100
AcDbEntity
8
Geo
100
AcDbLine
10
-83.6811529847386
20
-5.61867951460535
30
0.000000000000000
11
-83.5811529847386
21
-5.79828846148965
31
0.000000000000000
  0
LINE
  5
F1024C
330
F1024D
100
AcDbEntity
8
Geo
100
AcDbLine
10
-83.5811529847386
20
-5.79828846148965
30
0.000000000000000
11
-83.4811529847386
21
-5.97003714714983
31
0.000000000000000
  0
LINE
  5
F1024E
330
F1024F
100
AcDbEntity
8
Geo
100
AcDbLine
10
-83.4811529847386
20
-5.97003714714983
30
0.000000000000000
11
-83.3811529847385
21
-6.13367116049971
31
0.000000000000000
  0
LINE
  5
F10250
330
F10251
100
AcDbEntity
8
Geo
100
AcDbLine
10
-83.3811529847385
20
-6.13367116049971
30
0.000000000000000
11
-83.2811529847386
21
-6.28894811070578
31
0.000000000000000
  0
LINE
  5
F10252
330
F10253
100
AcDbEntity
8
Geo
100
AcDbLine
10
-83.2811529847386
20
-6.28894811070578
30
0.000000000000000
11
-83.1811529847386
21
-6.43563798624040
31
0.000000000000000
  0
LINE
  5
F10254
330
F10255
100
AcDbEntity
8
Geo
100
AcDbLine
10
-83.1811529847386
20
-6.43563798624040
30
0.000000000000000
11
-83.0811529847386
21
-6.57352349559754
31
0.000000000000000
  0
LINE
  5
F10256
330
F10257
100
AcDbEntity
8
Geo
100
AcDbLine
10
-83.0811529847386
20
-6.57352349559754
30
0.000000000000000
11
-82.9811529847386
21
-6.70240038916639
31
0.000000000000000
  0
LINE
  5
F10258
330
F10259
100
AcDbEntity
8
Geo
100
AcDbLine
10
-82.9811529847386
20
-6.70240038916639
30
0.000000000000000
11
-82.8811529847386
21
-6.82207776178604
31
0.000000000000000
  0
LINE
  5
F1025A
330
F1025B
100
AcDbEntity
8
Geo
100
AcDbLine
10
-82.8811529847386
20
-6.82207776178604
30
0.000000000000000
11
-82.7811529847386
21
-6.93237833553296
31
0.000000000000000
  0
LINE
  5
F1025C
330
F1025D
100
AcDbEntity
8
Geo
100
AcDbLine
10
-82.7811529847386
20
-6.93237833553296
30
0.000000000000000
11
-82.6811529847386
21
-7.03313872232263
31
0.000000000000000
  0
LINE
  5
F1025E
330
F1025F
100
AcDbEntity
8
Geo
100
AcDbLine
10
-82.6811529847386
20
-7.03313872232263
30
0.000000000000000
11
-82.5811529847386
21
-7.12420966593600
31
0.000000000000000
  0
LINE
  5
F10260
330
F10261
100
AcDbEntity
8
Geo
100
AcDbLine
10
-82.5811529847386
20
-7.12420966593600
30
0.000000000000000
11
-82.4811529847386
21
-7.20545626311258
31
0.000000000000000
  0
LINE
  5
F10262
330
F10263
100
AcDbEntity
8
Geo
100
AcDbLine
10
-82.4811529847386
20
-7.20545626311258
30
0.000000000000000
11
-82.3811529847386
21
-7.27675816338238
31
0.000000000000000
  0
LINE
  5
F10264
330
F10265
100
AcDbEntity
8
Geo
100
AcDbLine
10
-82.3811529847386
20
-7.27675816338238
30
0.000000000000000
11
-82.2811529847386
21
-7.33800974734097
31
0.000000000000000
  0
LINE
  5
F10266
330
F10267
100
AcDbEntity
8
Geo
100
AcDbLine
10
-82.2811529847386
20
-7.33800974734097
30
0.000000000000000
11
-82.1811529847386
21
-7.38912028310329
31
0.000000000000000
  0
LINE
  5
F10268
330
F10269
100
AcDbEntity
8
Geo
100
AcDbLine
10
-82.1811529847386
20
-7.38912028310329
30
0.000000000000000
11
-82.0811529847386
21
-7.43001406070472
31
0.000000000000000
  0
LINE
  5
F1026A
330
F1026B
100
AcDbEntity
8
Geo
100
AcDbLine
10
-82.0811529847386
20
-7.43001406070472
30
0.000000000000000
11
-81.9811529847386
21
-7.46063050425008
31
0.000000000000000
  0
LINE
  5
F1026C
330
F1026D
100
AcDbEntity
8
Geo
100
AcDbLine
10
-81.9811529847386
20
-7.46063050425008
30
0.000000000000000
11
-81.8811529847386
21
-7.48092426164467
31
0.000000000000000
  0
LINE
  5
F1026E
330
F1026F
100
AcDbEntity
8
Geo
100
AcDbLine
10
-81.8811529847386
20
-7.48092426164467
30
0.000000000000000
11
-81.7811529847386
21
-7.49086527177424
31
0.000000000000000
  0
LINE
  5
F10270
330
F10271
100
AcDbEntity
8
Geo
100
AcDbLine
10
-89.0811529847386
20
-0.491957064910899
30
0.000000000000000
11
-88.9811529847386
21
-0.739613422154332
31
0.000000000000000
  0
LINE
  5
F10272
330
F10273
100
AcDbEntity
8
Geo
100
AcDbLine
10
-88.9811529847386
20
-0.739613422154332
30
0.000000000000000
11
-88.8811529847385
21
-0.999523654667511
31
0.000000000000000
  0
LINE
  5
F10274
330
F10275
100
AcDbEntity
8
Geo
100
AcDbLine
10
-88.8811529847385
20
-0.999523654667511
30
0.000000000000000
11
-88.7811529847386
21
-1.26551779879606
31
0.000000000000000
  0
LINE
  5
F10276
330
F10277
100
AcDbEntity
8
Geo
100
AcDbLine
10
-88.7811529847386
20
-1.26551779879606
30
0.000000000000000
11
-88.6811529847385
21
-1.53475443843779
31
0.000000000000000
  0
LINE
  5
F10278
330
F10279
100
AcDbEntity
8
Geo
100
AcDbLine
10
-88.6811529847385
20
-1.53475443843779
30
0.000000000000000
11
-88.5811529847386
21
-1.80518277375029
31
0.000000000000000
  0
LINE
  5
F1027A
330
F1027B
100
AcDbEntity
8
Geo
100
AcDbLine
10
-88.5811529847386
20
-1.80518277375029
30
0.000000000000000
11
-88.4811529847386
21
-2.07509740085459
31
0.000000000000000
  0
LINE
  5
F1027C
330
F1027D
100
AcDbEntity
8
Geo
100
AcDbLine
10
-88.4811529847386
20
-2.07509740085459
30
0.000000000000000
11
-88.3811529847385
21
-2.34297165728742
31
0.000000000000000
  0
LINE
  5
F1027E
330
F1027F
100
AcDbEntity
8
Geo
100
AcDbLine
10
-88.3811529847385
20
-2.34297165728742
30
0.000000000000000
11
-88.2811529847386
21
-2.60737448746112
31
0.000000000000000
  0
LINE
  5
F10280
330
F10281
100
AcDbEntity
8
Geo
100
AcDbLine
10
-88.2811529847386
20
-2.60737448746112
30
0.000000000000000
11
-88.1811529847385
21
-2.86691904498977
31
0.000000000000000
  0
LINE
  5
F10282
330
F10283
100
AcDbEntity
8
Geo
100
AcDbLine
10
-88.1811529847385
20
-2.86691904498977
30
0.000000000000000
11
-88.0811529847386
21
-3.12022341440529
31
0.000000000000000
  0
LINE
  5
F10284
330
F10285
100
AcDbEntity
8
Geo
100
AcDbLine
10
-88.0811529847386
20
-3.12022341440529
30
0.000000000000000
11
-87.9811529847386
21
-3.36793265413800
31
0.000000000000000
  0
LINE
  5
F10286
330
F10287
100
AcDbEntity
8
Geo
100
AcDbLine
10
-87.9811529847386
20
-3.36793265413800
30
0.000000000000000
11
-87.8811529847385
21
-3.61138171528101
31
0.000000000000000
  0
LINE
  5
F10288
330
F10289
100
AcDbEntity
8
Geo
100
AcDbLine
10
-87.8811529847385
20
-3.61138171528101
30
0.000000000000000
11
-87.7811529847386
21
-3.85020997708294
31
0.000000000000000
  0
LINE
  5
F1028A
330
F1028B
100
AcDbEntity
8
Geo
100
AcDbLine
10
-87.7811529847386
20
-3.85020997708294
30
0.000000000000000
11
-87.6811529847385
21
-4.08406366357594
31
0.000000000000000
  0
LINE
  5
F1028C
330
F1028D
100
AcDbEntity
8
Geo
100
AcDbLine
10
-87.6811529847385
20
-4.08406366357594
30
0.000000000000000
11
-87.5811529847386
21
-4.31259636762360
31
0.000000000000000
  0
LINE
  5
F1028E
330
F1028F
100
AcDbEntity
8
Geo
100
AcDbLine
10
-87.5811529847386
20
-4.31259636762360
30
0.000000000000000
11
-87.4811529847386
21
-4.53546956405326
31
0.000000000000000
  0
LINE
  5
F10290
330
F10291
100
AcDbEntity
8
Geo
100
AcDbLine
10
-87.4811529847386
20
-4.53546956405326
30
0.000000000000000
11
-87.3811529847385
21
-4.75235311111298
31
0.000000000000000
  0
LINE
  5
F10292
330
F10293
100
AcDbEntity
8
Geo
100
AcDbLine
10
-87.3811529847385
20
-4.75235311111298
30
0.000000000000000
11
-87.2811529847386
21
-4.96292573950994
31
0.000000000000000
  0
LINE
  5
F10294
330
F10295
100
AcDbEntity
8
Geo
100
AcDbLine
10
-87.2811529847386
20
-4.96292573950994
30
0.000000000000000
11
-87.1811529847385
21
-5.16687552830629
31
0.000000000000000
  0
LINE
  5
F10296
330
F10297
100
AcDbEntity
8
Geo
100
AcDbLine
10
-87.1811529847385
20
-5.16687552830629
30
0.000000000000000
11
-87.0811529847386
21
-5.36390036696713
31
0.000000000000000
  0
LINE
  5
F10298
330
F10299
100
AcDbEntity
8
Geo
100
AcDbLine
10
-87.0811529847386
20
-5.36390036696713
30
0.000000000000000
11
-86.9811529847386
21
-5.55370840287645
31
0.000000000000000
  0
LINE
  5
F1029A
330
F1029B
100
AcDbEntity
8
Geo
100
AcDbLine
10
-86.9811529847386
20
-5.55370840287645
30
0.000000000000000
11
-86.8811529847385
21
-5.73601847365799
31
0.000000000000000
  0
LINE
  5
F1029C
330
F1029D
100
AcDbEntity
8
Geo
100
AcDbLine
10
-86.8811529847385
20
-5.73601847365799
30
0.000000000000000
11
-86.7811529847386
21
-5.91056052366067
31
0.000000000000000
  0
LINE
  5
F1029E
330
F1029F
100
AcDbEntity
8
Geo
100
AcDbLine
10
-86.7811529847386
20
-5.91056052366067
30
0.000000000000000
11
-86.6811529847385
21
-6.07707600399166
31
0.000000000000000
  0
LINE
  5
F102A0
330
F102A1
100
AcDbEntity
8
Geo
100
AcDbLine
10
-86.6811529847385
20
-6.07707600399166
30
0.000000000000000
11
-86.5811529847386
21
-6.23531825550447
31
0.000000000000000
  0
LINE
  5
F102A2
330
F102A3
100
AcDbEntity
8
Geo
100
AcDbLine
10
-86.5811529847386
20
-6.23531825550447
30
0.000000000000000
11
-86.4811529847386
21
-6.38505287417480
31
0.000000000000000
  0
LINE
  5
F102A4
330
F102A5
100
AcDbEntity
8
Geo
100
AcDbLine
10
-86.4811529847386
20
-6.38505287417480
30
0.000000000000000
11
-86.3811529847385
21
-6.52605805832291
31
0.000000000000000
  0
LINE
  5
F102A6
330
F102A7
100
AcDbEntity
8
Geo
100
AcDbLine
10
-86.3811529847385
20
-6.52605805832291
30
0.000000000000000
11
-86.2811529847386
21
-6.65812493716811
31
0.000000000000000
  0
LINE
  5
F102A8
330
F102A9
100
AcDbEntity
8
Geo
100
AcDbLine
10
-86.2811529847386
20
-6.65812493716811
30
0.000000000000000
11
-86.1811529847385
21
-6.78105788022879
31
0.000000000000000
  0
LINE
  5
F102AA
330
F102AB
100
AcDbEntity
8
Geo
100
AcDbLine
10
-86.1811529847385
20
-6.78105788022879
30
0.000000000000000
11
-86.0811529847386
21
-6.89467478710953
31
0.000000000000000
  0
LINE
  5
F102AC
330
F102AD
100
AcDbEntity
8
Geo
100
AcDbLine
10
-86.0811529847386
20
-6.89467478710953
30
0.000000000000000
11
-85.9811529847385
21
-6.99880735724619
31
0.000000000000000
  0
LINE
  5
F102AE
330
F102AF
100
AcDbEntity
8
Geo
100
AcDbLine
10
-85.9811529847385
20
-6.99880735724619
30
0.000000000000000
11
-85.8811529847385
21
-7.09330133920929
31
0.000000000000000
  0
LINE
  5
F102B0
330
F102B1
100
AcDbEntity
8
Geo
100
AcDbLine
10
-85.8811529847385
20
-7.09330133920929
30
0.000000000000000
11
-85.7811529847386
21
-7.17801675919643
31
0.000000000000000
  0
LINE
  5
F102B2
330
F102B3
100
AcDbEntity
8
Geo
100
AcDbLine
10
-85.7811529847386
20
-7.17801675919643
30
0.000000000000000
11
-85.6811529847385
21
-7.25282812837531
31
0.000000000000000
  0
LINE
  5
F102B4
330
F102B5
100
AcDbEntity
8
Geo
100
AcDbLine
10
-85.6811529847385
20
-7.25282812837531
30
0.000000000000000
11
-85.5811529847386
21
-7.31762462877013
31
0.000000000000000
  0
LINE
  5
F102B6
330
F102B7
100
AcDbEntity
8
Geo
100
AcDbLine
10
-85.5811529847386
20
-7.31762462877013
30
0.000000000000000
11
-85.4811529847385
21
-7.37231027741611
31
0.000000000000000
  0
LINE
  5
F102B8
330
F102B9
100
AcDbEntity
8
Geo
100
AcDbLine
10
-85.4811529847385
20
-7.37231027741611
30
0.000000000000000
11
-85.3811529847385
21
-7.41680406853894
31
0.000000000000000
  0
LINE
  5
F102BA
330
F102BB
100
AcDbEntity
8
Geo
100
AcDbLine
10
-85.3811529847385
20
-7.41680406853894
30
0.000000000000000
11
-85.2811529847386
21
-7.45104009354849
31
0.000000000000000
  0
LINE
  5
F102BC
330
F102BD
100
AcDbEntity
8
Geo
100
AcDbLine
10
-85.2811529847386
20
-7.45104009354849
30
0.000000000000000
11
-85.1811529847385
21
-7.47496763866914
31
0.000000000000000
  0
LINE
  5
F102BE
330
F102BF
100
AcDbEntity
8
Geo
100
AcDbLine
10
-85.1811529847385
20
-7.47496763866914
30
0.000000000000000
11
-85.0811529847386
21
-7.48855126006200
31
0.000000000000000
  0
LINE
  5
F102C0
330
F102C1
100
AcDbEntity
8
Geo
100
AcDbLine
10
-89.0811529847386
20
-2.34605903116054
30
0.000000000000000
11
-88.9811529847386
21
-2.71481860571156
31
0.000000000000000
  0
LINE
  5
F102C2
330
F102C3
100
AcDbEntity
8
Geo
100
AcDbLine
10
-88.9811529847386
20
-2.71481860571156
30
0.000000000000000
11
-88.8811529847385
21
-3.00815372503376
31
0.000000000000000
  0
LINE
  5
F102C4
330
F102C5
100
AcDbEntity
8
Geo
100
AcDbLine
10
-88.8811529847385
20
-3.00815372503376
30
0.000000000000000
11
-88.7811529847386
21
-3.28862474972783
31
0.000000000000000
  0
LINE
  5
F102C6
330
F102C7
100
AcDbEntity
8
Geo
100
AcDbLine
10
-88.7811529847386
20
-3.28862474972783
30
0.000000000000000
11
-88.6811529847385
21
-3.56017653837998
31
0.000000000000000
  0
LINE
  5
F102C8
330
F102C9
100
AcDbEntity
8
Geo
100
AcDbLine
10
-88.6811529847385
20
-3.56017653837998
30
0.000000000000000
11
-88.5811529847386
21
-3.82345750145528
31
0.000000000000000
  0
LINE
  5
F102CA
330
F102CB
100
AcDbEntity
8
Geo
100
AcDbLine
10
-88.5811529847386
20
-3.82345750145528
30
0.000000000000000
11
-88.4811529847386
21
-4.07819136040636
31
0.000000000000000
  0
LINE
  5
F102CC
330
F102CD
100
AcDbEntity
8
Geo
100
AcDbLine
10
-88.4811529847386
20
-4.07819136040636
30
0.000000000000000
11
-88.3811529847385
21
-4.32373605590629
31
0.000000000000000
  0
LINE
  5
F102CE
330
F102CF
100
AcDbEntity
8
Geo
100
AcDbLine
10
-88.3811529847385
20
-4.32373605590629
30
0.000000000000000
11
-88.2811529847386
21
-4.55926762786421
31
0.000000000000000
  0
LINE
  5
F102D0
330
F102D1
100
AcDbEntity
8
Geo
100
AcDbLine
10
-88.2811529847386
20
-4.55926762786421
30
0.000000000000000
11
-88.1811529847385
21
-4.78384769124296
31
0.000000000000000
  0
LINE
  5
F102D2
330
F102D3
100
AcDbEntity
8
Geo
100
AcDbLine
10
-88.1811529847385
20
-4.78384769124296
30
0.000000000000000
11
-88.0811529847386
21
-4.99644324768087
31
0.000000000000000
  0
LINE
  5
F102D4
330
F102D5
100
AcDbEntity
8
Geo
100
AcDbLine
10
-88.0811529847386
20
-4.99644324768087
30
0.000000000000000
11
-87.9811529847386
21
-5.19929077393203
31
0.000000000000000
  0
LINE
  5
F102D6
330
F102D7
100
AcDbEntity
8
Geo
100
AcDbLine
10
-87.9811529847386
20
-5.19929077393203
30
0.000000000000000
11
-87.8811529847385
21
-5.39516533338999
31
0.000000000000000
  0
LINE
  5
F102D8
330
F102D9
100
AcDbEntity
8
Geo
100
AcDbLine
10
-87.8811529847385
20
-5.39516533338999
30
0.000000000000000
11
-87.7811529847386
21
-5.58377677734571
31
0.000000000000000
  0
LINE
  5
F102DA
330
F102DB
100
AcDbEntity
8
Geo
100
AcDbLine
10
-87.7811529847386
20
-5.58377677734571
30
0.000000000000000
11
-87.6811529847385
21
-5.76484571593288
31
0.000000000000000
  0
LINE
  5
F102DC
330
F102DD
100
AcDbEntity
8
Geo
100
AcDbLine
10
-87.6811529847385
20
-5.76484571593288
30
0.000000000000000
11
-87.5811529847386
21
-5.93810393198783
31
0.000000000000000
  0
LINE
  5
F102DE
330
F102DF
100
AcDbEntity
8
Geo
100
AcDbLine
10
-87.5811529847386
20
-5.93810393198783
30
0.000000000000000
11
-87.4811529847386
21
-6.10329477835911
31
0.000000000000000
  0
LINE
  5
F102E0
330
F102E1
100
AcDbEntity
8
Geo
100
AcDbLine
10
-87.4811529847386
20
-6.10329477835911
30
0.000000000000000
11
-87.3811529847385
21
-6.26017355807867
31
0.000000000000000
  0
LINE
  5
F102E2
330
F102E3
100
AcDbEntity
8
Geo
100
AcDbLine
10
-87.3811529847385
20
-6.26017355807867
30
0.000000000000000
11
-87.2811529847386
21
-6.40850788683106
31
0.000000000000000
  0
LINE
  5
F102E4
330
F102E5
100
AcDbEntity
8
Geo
100
AcDbLine
10
-87.2811529847386
20
-6.40850788683106
30
0.000000000000000
11
-87.1811529847385
21
-6.54807803718402
31
0.000000000000000
  0
LINE
  5
F102E6
330
F102E7
100
AcDbEntity
8
Geo
100
AcDbLine
10
-87.1811529847385
20
-6.54807803718402
30
0.000000000000000
11
-87.0811529847386
21
-6.67867726407040
31
0.000000000000000
  0
LINE
  5
F102E8
330
F102E9
100
AcDbEntity
8
Geo
100
AcDbLine
10
-87.0811529847386
20
-6.67867726407040
30
0.000000000000000
11
-86.9811529847386
21
-6.80011211103936
31
0.000000000000000
  0
LINE
  5
F102EA
330
F102EB
100
AcDbEntity
8
Geo
100
AcDbLine
10
-86.9811529847386
20
-6.80011211103936
30
0.000000000000000
11
-86.8811529847385
21
-6.91220269682311
31
0.000000000000000
  0
LINE
  5
F102EC
330
F102ED
100
AcDbEntity
8
Geo
100
AcDbLine
10
-86.8811529847385
20
-6.91220269682311
30
0.000000000000000
11
-86.7811529847386
21
-7.01478298179481
31
0.000000000000000
  0
LINE
  5
F102EE
330
F102EF
100
AcDbEntity
8
Geo
100
AcDbLine
10
-86.7811529847386
20
-7.01478298179481
30
0.000000000000000
11
-86.6811529847385
21
-7.10770101392281
31
0.000000000000000
  0
LINE
  5
F102F0
330
F102F1
100
AcDbEntity
8
Geo
100
AcDbLine
10
-86.6811529847385
20
-7.10770101392281
30
0.000000000000000
11
-86.5811529847386
21
-7.19081915385699
31
0.000000000000000
  0
LINE
  5
F102F2
330
F102F3
100
AcDbEntity
8
Geo
100
AcDbLine
10
-86.5811529847386
20
-7.19081915385699
30
0.000000000000000
11
-86.4811529847386
21
-7.26401427881371
31
0.000000000000000
  0
LINE
  5
F102F4
330
F102F5
100
AcDbEntity
8
Geo
100
AcDbLine
10
-86.4811529847386
20
-7.26401427881371
30
0.000000000000000
11
-86.3811529847385
21
-7.32717796495749
31
0.000000000000000
  0
LINE
  5
F102F6
330
F102F7
100
AcDbEntity
8
Geo
100
AcDbLine
10
-86.3811529847385
20
-7.32717796495749
30
0.000000000000000
11
-86.2811529847386
21
-7.38021664800900
31
0.000000000000000
  0
LINE
  5
F102F8
330
F102F9
100
AcDbEntity
8
Geo
100
AcDbLine
10
-86.2811529847386
20
-7.38021664800900
30
0.000000000000000
11
-86.1811529847385
21
-7.42305176184172
31
0.000000000000000
  0
LINE
  5
F102FA
330
F102FB
100
AcDbEntity
8
Geo
100
AcDbLine
10
-86.1811529847385
20
-7.42305176184172
30
0.000000000000000
11
-86.0811529847386
21
-7.45561985486188
31
0.000000000000000
  0
LINE
  5
F102FC
330
F102FD
100
AcDbEntity
8
Geo
100
AcDbLine
10
-86.0811529847386
20
-7.45561985486188
30
0.000000000000000
11
-85.9811529847385
21
-7.47787268399915
31
0.000000000000000
  0
LINE
  5
F102FE
330
F102FF
100
AcDbEntity
8
Geo
100
AcDbLine
10
-85.9811529847385
20
-7.47787268399915
30
0.000000000000000
11
-85.8811529847385
21
-7.48977728616908
31
0.000000000000000
  0
LINE
  5
F10300
330
F10301
100
AcDbEntity
8
Geo
100
AcDbLine
10
-77.6811529847386
20
6.50766672848384
30
0.000000000000000
11
-77.5811529847386
21
6.50527508476351
31
0.000000000000000
  0
LINE
  5
F10302
330
F10303
100
AcDbEntity
8
Geo
100
AcDbLine
10
-77.5811529847386
20
6.50527508476351
30
0.000000000000000
11
-77.4811529847386
21
6.49251845091500
31
0.000000000000000
  0
LINE
  5
F10304
330
F10305
100
AcDbEntity
8
Geo
100
AcDbLine
10
-77.4811529847386
20
6.49251845091500
30
0.000000000000000
11
-77.3811529847386
21
6.46941572332209
31
0.000000000000000
  0
LINE
  5
F10306
330
F10307
100
AcDbEntity
8
Geo
100
AcDbLine
10
-77.3811529847386
20
6.46941572332209
30
0.000000000000000
11
-77.2811529847386
21
6.43600112402260
31
0.000000000000000
  0
LINE
  5
F10308
330
F10309
100
AcDbEntity
8
Geo
100
AcDbLine
10
-77.2811529847386
20
6.43600112402260
30
0.000000000000000
11
-77.1811529847386
21
6.39232415001543
31
0.000000000000000
  0
LINE
  5
F1030A
330
F1030B
100
AcDbEntity
8
Geo
100
AcDbLine
10
-77.1811529847386
20
6.39232415001543
30
0.000000000000000
11
-77.0811529847386
21
6.33844949994064
31
0.000000000000000
  0
LINE
  5
F1030C
330
F1030D
100
AcDbEntity
8
Geo
100
AcDbLine
10
-77.0811529847386
20
6.33844949994064
30
0.000000000000000
11
-76.9811529847386
21
6.26609476485598
31
0.000000000000000
  0
LINE
  5
F1030E
330
F1030F
100
AcDbEntity
8
Geo
100
AcDbLine
10
-76.9811529847386
20
6.26609476485598
30
0.000000000000000
11
-76.8811529847385
21
6.18294661248483
31
0.000000000000000
  0
LINE
  5
F10310
330
F10311
100
AcDbEntity
8
Geo
100
AcDbLine
10
-76.8811529847385
20
6.18294661248483
30
0.000000000000000
11
-76.7811529847386
21
6.08986594370878
31
0.000000000000000
  0
LINE
  5
F10312
330
F10313
100
AcDbEntity
8
Geo
100
AcDbLine
10
-76.7811529847386
20
6.08986594370878
30
0.000000000000000
11
-76.6811529847386
21
5.98770166470287
31
0.000000000000000
  0
LINE
  5
F10314
330
F10315
100
AcDbEntity
8
Geo
100
AcDbLine
10
-76.6811529847386
20
5.98770166470287
30
0.000000000000000
11
-76.5811529847386
21
5.87728744037910
31
0.000000000000000
  0
LINE
  5
F10316
330
F10317
100
AcDbEntity
8
Geo
100
AcDbLine
10
-76.5811529847386
20
5.87728744037910
30
0.000000000000000
11
-76.4811529847386
21
5.75943882854016
31
0.000000000000000
  0
LINE
  5
F10318
330
F10319
100
AcDbEntity
8
Geo
100
AcDbLine
10
-76.4811529847386
20
5.75943882854016
30
0.000000000000000
11
-76.3811529847385
21
5.63495077927856
31
0.000000000000000
  0
LINE
  5
F1031A
330
F1031B
100
AcDbEntity
8
Geo
100
AcDbLine
10
-76.3811529847385
20
5.63495077927856
30
0.000000000000000
11
-76.2811529847386
21
5.50459548283281
31
0.000000000000000
  0
LINE
  5
F1031C
330
F1031D
100
AcDbEntity
8
Geo
100
AcDbLine
10
-76.2811529847386
20
5.50459548283281
30
0.000000000000000
11
-76.1811529847386
21
5.36912054807800
31
0.000000000000000
  0
LINE
  5
F1031E
330
F1031F
100
AcDbEntity
8
Geo
100
AcDbLine
10
-76.1811529847386
20
5.36912054807800
30
0.000000000000000
11
-76.0811529847386
21
5.22924749305849
31
0.000000000000000
  0
LINE
  5
F10320
330
F10321
100
AcDbEntity
8
Geo
100
AcDbLine
10
-76.0811529847386
20
5.22924749305849
30
0.000000000000000
11
-75.9811529847386
21
5.08567052844341
31
0.000000000000000
  0
LINE
  5
F10322
330
F10323
100
AcDbEntity
8
Geo
100
AcDbLine
10
-75.9811529847386
20
5.08567052844341
30
0.000000000000000
11
-75.8811529847385
21
4.93905561447687
31
0.000000000000000
  0
LINE
  5
F10324
330
F10325
100
AcDbEntity
8
Geo
100
AcDbLine
10
-75.8811529847385
20
4.93905561447687
30
0.000000000000000
11
-75.7811529847386
21
4.79003977188282
31
0.000000000000000
  0
LINE
  5
F10326
330
F10327
100
AcDbEntity
8
Geo
100
AcDbLine
10
-75.7811529847386
20
4.79003977188282
30
0.000000000000000
11
-75.6811529847386
21
4.63923062724667
31
0.000000000000000
  0
LINE
  5
F10328
330
F10329
100
AcDbEntity
8
Geo
100
AcDbLine
10
-75.6811529847386
20
4.63923062724667
30
0.000000000000000
11
-75.5811529847386
21
4.48720617361127
31
0.000000000000000
  0
LINE
  5
F1032A
330
F1032B
100
AcDbEntity
8
Geo
100
AcDbLine
10
-75.5811529847386
20
4.48720617361127
30
0.000000000000000
11
-75.4811529847386
21
4.33451472737402
31
0.000000000000000
  0
LINE
  5
F1032C
330
F1032D
100
AcDbEntity
8
Geo
100
AcDbLine
10
-75.4811529847386
20
4.33451472737402
30
0.000000000000000
11
-75.3811529847386
21
4.18167506303509
31
0.000000000000000
  0
LINE
  5
F1032E
330
F1032F
100
AcDbEntity
8
Geo
100
AcDbLine
10
-75.3811529847386
20
4.18167506303509
30
0.000000000000000
11
-75.2811529847386
21
4.02917670790678
31
0.000000000000000
  0
LINE
  5
F10330
330
F10331
100
AcDbEntity
8
Geo
100
AcDbLine
10
-75.2811529847386
20
4.02917670790678
30
0.000000000000000
11
-75.1811529847386
21
3.87748037953388
31
0.000000000000000
  0
LINE
  5
F10332
330
F10333
100
AcDbEntity
8
Geo
100
AcDbLine
10
-75.1811529847386
20
3.87748037953388
30
0.000000000000000
11
-75.0811529847386
21
3.72701854927924
31
0.000000000000000
  0
LINE
  5
F10334
330
F10335
100
AcDbEntity
8
Geo
100
AcDbLine
10
-75.0811529847386
20
3.72701854927924
30
0.000000000000000
11
-74.9811529847386
21
3.57819611628358
31
0.000000000000000
  0
LINE
  5
F10336
330
F10337
100
AcDbEntity
8
Geo
100
AcDbLine
10
-74.9811529847386
20
3.57819611628358
30
0.000000000000000
11
-74.8811529847386
21
3.43139117680053
31
0.000000000000000
  0
LINE
  5
F10338
330
F10339
100
AcDbEntity
8
Geo
100
AcDbLine
10
-74.8811529847386
20
3.43139117680053
30
0.000000000000000
11
-74.7811529847386
21
3.28695587472585
31
0.000000000000000
  0
LINE
  5
F1033A
330
F1033B
100
AcDbEntity
8
Geo
100
AcDbLine
10
-74.7811529847386
20
3.28695587472585
30
0.000000000000000
11
-74.6811529847386
21
3.14521731997221
31
0.000000000000000
  0
LINE
  5
F1033C
330
F1033D
100
AcDbEntity
8
Geo
100
AcDbLine
10
-74.6811529847386
20
3.14521731997221
30
0.000000000000000
11
-74.5811529847386
21
3.00647856217968
31
0.000000000000000
  0
LINE
  5
F1033E
330
F1033F
100
AcDbEntity
8
Geo
100
AcDbLine
10
-74.5811529847386
20
3.00647856217968
30
0.000000000000000
11
-74.4811529847386
21
2.87101960808746
31
0.000000000000000
  0
LINE
  5
F10340
330
F10341
100
AcDbEntity
8
Geo
100
AcDbLine
10
-74.4811529847386
20
2.87101960808746
30
0.000000000000000
11
-74.3811529847386
21
2.73909847171797
31
0.000000000000000
  0
LINE
  5
F10342
330
F10343
100
AcDbEntity
8
Geo
100
AcDbLine
10
-74.3811529847386
20
2.73909847171797
30
0.000000000000000
11
-74.2811529847386
21
2.61095224733402
31
0.000000000000000
  0
LINE
  5
F10344
330
F10345
100
AcDbEntity
8
Geo
100
AcDbLine
10
-74.2811529847386
20
2.61095224733402
30
0.000000000000000
11
-74.1811529847386
21
2.48679819591678
31
0.000000000000000
  0
LINE
  5
F10346
330
F10347
100
AcDbEntity
8
Geo
100
AcDbLine
10
-74.1811529847386
20
2.48679819591678
30
0.000000000000000
11
-74.0811529847386
21
2.36683483667404
31
0.000000000000000
  0
LINE
  5
F10348
330
F10349
100
AcDbEntity
8
Geo
100
AcDbLine
10
-74.0811529847386
20
2.36683483667404
30
0.000000000000000
11
-73.9811529847386
21
2.25124303581905
31
0.000000000000000
  0
LINE
  5
F1034A
330
F1034B
100
AcDbEntity
8
Geo
100
AcDbLine
10
-73.9811529847386
20
2.25124303581905
30
0.000000000000000
11
-73.8811529847386
21
2.14018708555890
31
0.000000000000000
  0
LINE
  5
F1034C
330
F1034D
100
AcDbEntity
8
Geo
100
AcDbLine
10
-73.8811529847386
20
2.14018708555890
30
0.000000000000000
11
-73.7811529847386
21
2.03381576689420
31
0.000000000000000
  0
LINE
  5
F1034E
330
F1034F
100
AcDbEntity
8
Geo
100
AcDbLine
10
-73.7811529847386
20
2.03381576689420
30
0.000000000000000
11
-73.6811529847386
21
1.93226339045803
31
0.000000000000000
  0
LINE
  5
F10350
330
F10351
100
AcDbEntity
8
Geo
100
AcDbLine
10
-73.6811529847386
20
1.93226339045803
30
0.000000000000000
11
-73.5811529847386
21
1.83565081021015
31
0.000000000000000
  0
LINE
  5
F10352
330
F10353
100
AcDbEntity
8
Geo
100
AcDbLine
10
-73.5811529847386
20
1.83565081021015
30
0.000000000000000
11
-73.4811529847386
21
1.74408640535203
31
0.000000000000000
  0
LINE
  5
F10354
330
F10355
100
AcDbEntity
8
Geo
100
AcDbLine
10
-73.4811529847386
20
1.74408640535203
30
0.000000000000000
11
-73.3811529847386
21
1.65766702633864
31
0.000000000000000
  0
LINE
  5
F10356
330
F10357
100
AcDbEntity
8
Geo
100
AcDbLine
10
-73.3811529847386
20
1.65766702633864
30
0.000000000000000
11
-73.2811529847386
21
1.57647890133553
31
0.000000000000000
  0
LINE
  5
F10358
330
F10359
100
AcDbEntity
8
Geo
100
AcDbLine
10
-73.2811529847386
20
1.57647890133553
30
0.000000000000000
11
-73.1811529847386
21
1.50059849990361
31
0.000000000000000
  0
LINE
  5
F1035A
330
F1035B
100
AcDbEntity
8
Geo
100
AcDbLine
10
-73.1811529847386
20
1.50059849990361
30
0.000000000000000
11
-73.0811529847386
21
1.43009335109160
31
0.000000000000000
  0
LINE
  5
F1035C
330
F1035D
100
AcDbEntity
8
Geo
100
AcDbLine
10
-73.0811529847386
20
1.43009335109160
30
0.000000000000000
11
-72.9811529847386
21
1.36502281347797
31
0.000000000000000
  0
LINE
  5
F1035E
330
F1035F
100
AcDbEntity
8
Geo
100
AcDbLine
10
-72.9811529847386
20
1.36502281347797
30
0.000000000000000
11
-72.8811529847386
21
1.30543879503121
31
0.000000000000000
  0
LINE
  5
F10360
330
F10361
100
AcDbEntity
8
Geo
100
AcDbLine
10
-72.8811529847386
20
1.30543879503121
30
0.000000000000000
11
-72.7811529847386
21
1.25138642095266
31
0.000000000000000
  0
LINE
  5
F10362
330
F10363
100
AcDbEntity
8
Geo
100
AcDbLine
10
-72.7811529847386
20
1.25138642095266
30
0.000000000000000
11
-72.6811529847386
21
1.20290464793021
31
0.000000000000000
  0
LINE
  5
F10364
330
F10365
100
AcDbEntity
8
Geo
100
AcDbLine
10
-72.6811529847386
20
1.20290464793021
30
0.000000000000000
11
-72.5811529847386
21
1.16002682346659
31
0.000000000000000
  0
LINE
  5
F10366
330
F10367
100
AcDbEntity
8
Geo
100
AcDbLine
10
-72.5811529847386
20
1.16002682346659
30
0.000000000000000
11
-72.4811529847386
21
1.12278118915553
31
0.000000000000000
  0
LINE
  5
F10368
330
F10369
100
AcDbEntity
8
Geo
100
AcDbLine
10
-72.4811529847386
20
1.12278118915553
30
0.000000000000000
11
-72.3811529847385
21
1.09119132696335
31
0.000000000000000
  0
LINE
  5
F1036A
330
F1036B
100
AcDbEntity
8
Geo
100
AcDbLine
10
-72.3811529847385
20
1.09119132696335
30
0.000000000000000
11
-72.2811529847386
21
1.06527654773704
31
0.000000000000000
  0
LINE
  5
F1036C
330
F1036D
100
AcDbEntity
8
Geo
100
AcDbLine
10
-72.2811529847386
20
1.06527654773704
30
0.000000000000000
11
-72.1811529847386
21
1.04505222130297
31
0.000000000000000
  0
LINE
  5
F1036E
330
F1036F
100
AcDbEntity
8
Geo
100
AcDbLine
10
-72.1811529847386
20
1.04505222130297
30
0.000000000000000
11
-72.0811529847386
21
1.03053004764684
31
0.000000000000000
  0
LINE
  5
F10370
330
F10371
100
AcDbEntity
8
Geo
100
AcDbLine
10
-80.9811529847386
20
6.50604359451235
30
0.000000000000000
11
-80.8811529847386
21
6.50729803066579
31
0.000000000000000
  0
LINE
  5
F10372
330
F10373
100
AcDbEntity
8
Geo
100
AcDbLine
10
-80.8811529847386
20
6.50729803066579
30
0.000000000000000
11
-80.7811529847386
21
6.49818448010413
31
0.000000000000000
  0
LINE
  5
F10374
330
F10375
100
AcDbEntity
8
Geo
100
AcDbLine
10
-80.7811529847386
20
6.49818448010413
30
0.000000000000000
11
-80.6811529847386
21
6.47871644271701
31
0.000000000000000
  0
LINE
  5
F10376
330
F10377
100
AcDbEntity
8
Geo
100
AcDbLine
10
-80.6811529847386
20
6.47871644271701
30
0.000000000000000
11
-80.5811529847386
21
6.44892275648078
31
0.000000000000000
  0
LINE
  5
F10378
330
F10379
100
AcDbEntity
8
Geo
100
AcDbLine
10
-80.5811529847386
20
6.44892275648078
30
0.000000000000000
11
-80.4811529847386
21
6.40884755474090
31
0.000000000000000
  0
LINE
  5
F1037A
330
F1037B
100
AcDbEntity
8
Geo
100
AcDbLine
10
-80.4811529847386
20
6.40884755474090
30
0.000000000000000
11
-80.3811529847386
21
6.35855020083727
31
0.000000000000000
  0
LINE
  5
F1037C
330
F1037D
100
AcDbEntity
8
Geo
100
AcDbLine
10
-80.3811529847386
20
6.35855020083727
30
0.000000000000000
11
-80.2811529847386
21
6.29810520016938
31
0.000000000000000
  0
LINE
  5
F1037E
330
F1037F
100
AcDbEntity
8
Geo
100
AcDbLine
10
-80.2811529847386
20
6.29810520016938
30
0.000000000000000
11
-80.1811529847386
21
6.22760208983159
31
0.000000000000000
  0
LINE
  5
F10380
330
F10381
100
AcDbEntity
8
Geo
100
AcDbLine
10
-80.1811529847386
20
6.22760208983159
30
0.000000000000000
11
-80.0811529847386
21
6.14714530598194
31
0.000000000000000
  0
LINE
  5
F10382
330
F10383
100
AcDbEntity
8
Geo
100
AcDbLine
10
-80.0811529847386
20
6.14714530598194
30
0.000000000000000
11
-79.9811529847386
21
6.05685402914103
31
0.000000000000000
  0
LINE
  5
F10384
330
F10385
100
AcDbEntity
8
Geo
100
AcDbLine
10
-79.9811529847386
20
6.05685402914103
30
0.000000000000000
11
-79.8811529847386
21
5.95686200765007
31
0.000000000000000
  0
LINE
  5
F10386
330
F10387
100
AcDbEntity
8
Geo
100
AcDbLine
10
-79.8811529847386
20
5.95686200765007
30
0.000000000000000
11
-79.7811529847386
21
5.84731735954968
31
0.000000000000000
  0
LINE
  5
F10388
330
F10389
100
AcDbEntity
8
Geo
100
AcDbLine
10
-79.7811529847386
20
5.84731735954968
30
0.000000000000000
11
-79.6811529847386
21
5.72838235317278
31
0.000000000000000
  0
LINE
  5
F1038A
330
F1038B
100
AcDbEntity
8
Geo
100
AcDbLine
10
-79.6811529847386
20
5.72838235317278
30
0.000000000000000
11
-79.5811529847386
21
5.60023316677683
31
0.000000000000000
  0
LINE
  5
F1038C
330
F1038D
100
AcDbEntity
8
Geo
100
AcDbLine
10
-79.5811529847386
20
5.60023316677683
30
0.000000000000000
11
-79.4811529847386
21
5.46305962757113
31
0.000000000000000
  0
LINE
  5
F1038E
330
F1038F
100
AcDbEntity
8
Geo
100
AcDbLine
10
-79.4811529847386
20
5.46305962757113
30
0.000000000000000
11
-79.3811529847386
21
5.31706493052611
31
0.000000000000000
  0
LINE
  5
F10390
330
F10391
100
AcDbEntity
8
Geo
100
AcDbLine
10
-79.3811529847386
20
5.31706493052611
30
0.000000000000000
11
-79.2811529847386
21
5.16246533738087
31
0.000000000000000
  0
LINE
  5
F10392
330
F10393
100
AcDbEntity
8
Geo
100
AcDbLine
10
-79.2811529847386
20
5.16246533738087
30
0.000000000000000
11
-79.1811529847386
21
4.99948985629502
31
0.000000000000000
  0
LINE
  5
F10394
330
F10395
100
AcDbEntity
8
Geo
100
AcDbLine
10
-79.1811529847386
20
4.99948985629502
30
0.000000000000000
11
-79.0811529847386
21
4.82837990261912
31
0.000000000000000
  0
LINE
  5
F10396
330
F10397
100
AcDbEntity
8
Geo
100
AcDbLine
10
-79.0811529847386
20
4.82837990261912
30
0.000000000000000
11
-78.9811529847386
21
4.64938894128657
31
0.000000000000000
  0
LINE
  5
F10398
330
F10399
100
AcDbEntity
8
Geo
100
AcDbLine
10
-78.9811529847386
20
4.64938894128657
30
0.000000000000000
11
-78.8811529847386
21
4.46278211135629
31
0.000000000000000
  0
LINE
  5
F1039A
330
F1039B
100
AcDbEntity
8
Geo
100
AcDbLine
10
-78.8811529847386
20
4.46278211135629
30
0.000000000000000
11
-78.7811529847386
21
4.26883583326264
31
0.000000000000000
  0
LINE
  5
F1039C
330
F1039D
100
AcDbEntity
8
Geo
100
AcDbLine
10
-78.7811529847386
20
4.26883583326264
30
0.000000000000000
11
-78.6811529847386
21
4.06783739935419
31
0.000000000000000
  0
LINE
  5
F1039E
330
F1039F
100
AcDbEntity
8
Geo
100
AcDbLine
10
-78.6811529847386
20
4.06783739935419
30
0.000000000000000
11
-78.5811529847386
21
3.86008454832800
31
0.000000000000000
  0
LINE
  5
F103A0
330
F103A1
100
AcDbEntity
8
Geo
100
AcDbLine
10
-78.5811529847386
20
3.86008454832800
30
0.000000000000000
11
-78.4811529847386
21
3.64588502418969
31
0.000000000000000
  0
LINE
  5
F103A2
330
F103A3
100
AcDbEntity
8
Geo
100
AcDbLine
10
-78.4811529847386
20
3.64588502418969
30
0.000000000000000
11
-78.3811529847386
21
3.42555612039267
31
0.000000000000000
  0
LINE
  5
F103A4
330
F103A5
100
AcDbEntity
8
Geo
100
AcDbLine
10
-78.3811529847386
20
3.42555612039267
30
0.000000000000000
11
-78.2811529847386
21
3.19942420983183
31
0.000000000000000
  0
LINE
  5
F103A6
330
F103A7
100
AcDbEntity
8
Geo
100
AcDbLine
10
-78.2811529847386
20
3.19942420983183
30
0.000000000000000
11
-78.1811529847386
21
2.96782426138778
31
0.000000000000000
  0
LINE
  5
F103A8
330
F103A9
100
AcDbEntity
8
Geo
100
AcDbLine
10
-78.1811529847386
20
2.96782426138778
30
0.000000000000000
11
-78.0811529847386
21
2.73109934373796
31
0.000000000000000
  0
LINE
  5
F103AA
330
F103AB
100
AcDbEntity
8
Geo
100
AcDbLine
10
-78.0811529847386
20
2.73109934373796
30
0.000000000000000
11
-77.9811529847386
21
2.48960011716948
31
0.000000000000000
  0
LINE
  5
F103AC
330
F103AD
100
AcDbEntity
8
Geo
100
AcDbLine
10
-77.9811529847386
20
2.48960011716948
30
0.000000000000000
11
-77.8811529847386
21
2.24368431414651
31
0.000000000000000
  0
LINE
  5
F103AE
330
F103AF
100
AcDbEntity
8
Geo
100
AcDbLine
10
-77.8811529847386
20
2.24368431414651
30
0.000000000000000
11
-77.7811529847386
21
1.99371620940172
31
0.000000000000000
  0
LINE
  5
F103B0
330
F103B1
100
AcDbEntity
8
Geo
100
AcDbLine
10
-77.7811529847386
20
1.99371620940172
30
0.000000000000000
11
-77.6811529847386
21
1.74006608033659
31
0.000000000000000
  0
LINE
  5
F103B2
330
F103B3
100
AcDbEntity
8
Geo
100
AcDbLine
10
-77.6811529847386
20
1.74006608033659
30
0.000000000000000
11
-77.5811529847386
21
1.48310965853007
31
0.000000000000000
  0
LINE
  5
F103B4
330
F103B5
100
AcDbEntity
8
Geo
100
AcDbLine
10
-77.5811529847386
20
1.48310965853007
30
0.000000000000000
11
-77.4811529847386
21
1.22322757316787
31
0.000000000000000
  0
LINE
  5
F103B6
330
F103B7
100
AcDbEntity
8
Geo
100
AcDbLine
10
-77.4811529847386
20
1.22322757316787
30
0.000000000000000
11
-77.3811529847386
21
0.960804787217010
31
0.000000000000000
  0
LINE
  5
F103B8
330
F103B9
100
AcDbEntity
8
Geo
100
AcDbLine
10
-77.3811529847386
20
0.960804787217010
30
0.000000000000000
11
-77.2811529847386
21
0.696230027180714
31
0.000000000000000
  0
LINE
  5
F103BA
330
F103BB
100
AcDbEntity
8
Geo
100
AcDbLine
10
-77.2811529847386
20
0.696230027180714
30
0.000000000000000
11
-77.1811529847386
21
0.429895207278388
31
0.000000000000000
  0
LINE
  5
F103BC
330
F103BD
100
AcDbEntity
8
Geo
100
AcDbLine
10
-77.1811529847386
20
0.429895207278388
30
0.000000000000000
11
-77.0811529847386
21
0.162194848903563
31
0.000000000000000
  0
LINE
  5
F103BE
330
F103BF
100
AcDbEntity
8
Geo
100
AcDbLine
10
-77.0811529847386
20
0.162194848903563
30
0.000000000000000
11
-76.9811529847386
21
0.195572771434010
31
0.000000000000000
  0
LINE
  5
F103C0
330
F103C1
100
AcDbEntity
8
Geo
100
AcDbLine
10
-76.9811529847386
20
0.195572771434010
30
0.000000000000000
11
-76.8811529847385
21
0.228287786398449
31
0.000000000000000
  0
LINE
  5
F103C2
330
F103C3
100
AcDbEntity
8
Geo
100
AcDbLine
10
-76.8811529847385
20
0.228287786398449
30
0.000000000000000
11
-76.7811529847386
21
0.260340093406657
31
0.000000000000000
  0
LINE
  5
F103C4
330
F103C5
100
AcDbEntity
8
Geo
100
AcDbLine
10
-76.7811529847386
20
0.260340093406657
30
0.000000000000000
11
-76.6811529847386
21
0.291729957744160
31
0.000000000000000
  0
LINE
  5
F103C6
330
F103C7
100
AcDbEntity
8
Geo
100
AcDbLine
10
-76.6811529847386
20
0.291729957744160
30
0.000000000000000
11
-76.5811529847386
21
0.322457706166877
31
0.000000000000000
  0
LINE
  5
F103C8
330
F103C9
100
AcDbEntity
8
Geo
100
AcDbLine
10
-76.5811529847386
20
0.322457706166877
30
0.000000000000000
11
-76.4811529847386
21
0.352523722781437
31
0.000000000000000
  0
LINE
  5
F103CA
330
F103CB
100
AcDbEntity
8
Geo
100
AcDbLine
10
-76.4811529847386
20
0.352523722781437
30
0.000000000000000
11
-76.3811529847385
21
0.381928445011468
31
0.000000000000000
  0
LINE
  5
F103CC
330
F103CD
100
AcDbEntity
8
Geo
100
AcDbLine
10
-76.3811529847385
20
0.381928445011468
30
0.000000000000000
11
-76.2811529847386
21
0.410672359650108
31
0.000000000000000
  0
LINE
  5
F103CE
330
F103CF
100
AcDbEntity
8
Geo
100
AcDbLine
10
-76.2811529847386
20
0.410672359650108
30
0.000000000000000
11
-76.1811529847386
21
0.438755998998940
31
0.000000000000000
  0
LINE
  5
F103D0
330
F103D1
100
AcDbEntity
8
Geo
100
AcDbLine
10
-76.1811529847386
20
0.438755998998940
30
0.000000000000000
11
-76.0811529847386
21
0.466179937093532
31
0.000000000000000
  0
LINE
  5
F103D2
330
F103D3
100
AcDbEntity
8
Geo
100
AcDbLine
10
-76.0811529847386
20
0.466179937093532
30
0.000000000000000
11
-75.9811529847386
21
0.492944786015722
31
0.000000000000000
  0
LINE
  5
F103D4
330
F103D5
100
AcDbEntity
8
Geo
100
AcDbLine
10
-75.9811529847386
20
0.492944786015722
30
0.000000000000000
11
-75.8811529847385
21
0.519051192292749
31
0.000000000000000
  0
LINE
  5
F103D6
330
F103D7
100
AcDbEntity
8
Geo
100
AcDbLine
10
-75.8811529847385
20
0.519051192292749
30
0.000000000000000
11
-75.7811529847386
21
0.544499833383310
31
0.000000000000000
  0
LINE
  5
F103D8
330
F103D9
100
AcDbEntity
8
Geo
100
AcDbLine
10
-75.7811529847386
20
0.544499833383310
30
0.000000000000000
11
-75.6811529847386
21
0.569291414250596
31
0.000000000000000
  0
LINE
  5
F103DA
330
F103DB
100
AcDbEntity
8
Geo
100
AcDbLine
10
-75.6811529847386
20
0.569291414250596
30
0.000000000000000
11
-75.5811529847386
21
0.593426664022312
31
0.000000000000000
  0
LINE
  5
F103DC
330
F103DD
100
AcDbEntity
8
Geo
100
AcDbLine
10
-75.5811529847386
20
0.593426664022312
30
0.000000000000000
11
-75.4811529847386
21
0.616906332737698
31
0.000000000000000
  0
LINE
  5
F103DE
330
F103DF
100
AcDbEntity
8
Geo
100
AcDbLine
10
-75.4811529847386
20
0.616906332737698
30
0.000000000000000
11
-75.3811529847386
21
0.639731188181512
31
0.000000000000000
  0
LINE
  5
F103E0
330
F103E1
100
AcDbEntity
8
Geo
100
AcDbLine
10
-75.3811529847386
20
0.639731188181512
30
0.000000000000000
11
-75.2811529847386
21
0.661902012804924
31
0.000000000000000
  0
LINE
  5
F103E2
330
F103E3
100
AcDbEntity
8
Geo
100
AcDbLine
10
-75.2811529847386
20
0.661902012804924
30
0.000000000000000
11
-75.1811529847386
21
0.683419600733268
31
0.000000000000000
  0
LINE
  5
F103E4
330
F103E5
100
AcDbEntity
8
Geo
100
AcDbLine
10
-75.1811529847386
20
0.683419600733268
30
0.000000000000000
11
-75.0811529847386
21
0.704284754860550
31
0.000000000000000
  0
LINE
  5
F103E6
330
F103E7
100
AcDbEntity
8
Geo
100
AcDbLine
10
-75.0811529847386
20
0.704284754860550
30
0.000000000000000
11
-74.9811529847386
21
0.724498284030630
31
0.000000000000000
  0
LINE
  5
F103E8
330
F103E9
100
AcDbEntity
8
Geo
100
AcDbLine
10
-74.9811529847386
20
0.724498284030630
30
0.000000000000000
11
-74.8811529847386
21
0.744061000304946
31
0.000000000000000
  0
LINE
  5
F103EA
330
F103EB
100
AcDbEntity
8
Geo
100
AcDbLine
10
-74.8811529847386
20
0.744061000304946
30
0.000000000000000
11
-74.7811529847386
21
0.762973716316659
31
0.000000000000000
  0
LINE
  5
F103EC
330
F103ED
100
AcDbEntity
8
Geo
100
AcDbLine
10
-74.7811529847386
20
0.762973716316659
30
0.000000000000000
11
-74.6811529847386
21
0.781237242711083
31
0.000000000000000
  0
LINE
  5
F103EE
330
F103EF
100
AcDbEntity
8
Geo
100
AcDbLine
10
-74.6811529847386
20
0.781237242711083
30
0.000000000000000
11
-74.5811529847386
21
0.798852385672239
31
0.000000000000000
  0
LINE
  5
F103F0
330
F103F1
100
AcDbEntity
8
Geo
100
AcDbLine
10
-74.5811529847386
20
0.798852385672239
30
0.000000000000000
11
-74.4811529847386
21
0.815819944535391
31
0.000000000000000
  0
LINE
  5
F103F2
330
F103F3
100
AcDbEntity
8
Geo
100
AcDbLine
10
-74.4811529847386
20
0.815819944535391
30
0.000000000000000
11
-74.3811529847386
21
0.832140709485383
31
0.000000000000000
  0
LINE
  5
F103F4
330
F103F5
100
AcDbEntity
8
Geo
100
AcDbLine
10
-74.3811529847386
20
0.832140709485383
30
0.000000000000000
11
-74.2811529847386
21
0.847815459340615
31
0.000000000000000
  0
LINE
  5
F103F6
330
F103F7
100
AcDbEntity
8
Geo
100
AcDbLine
10
-74.2811529847386
20
0.847815459340615
30
0.000000000000000
11
-74.1811529847386
21
0.862844959422477
31
0.000000000000000
  0
LINE
  5
F103F8
330
F103F9
100
AcDbEntity
8
Geo
100
AcDbLine
10
-74.1811529847386
20
0.862844959422477
30
0.000000000000000
11
-74.0811529847386
21
0.877229959510070
31
0.000000000000000
  0
LINE
  5
F103FA
330
F103FB
100
AcDbEntity
8
Geo
100
AcDbLine
10
-74.0811529847386
20
0.877229959510070
30
0.000000000000000
11
-73.9811529847386
21
0.890971191880018
31
0.000000000000000
  0
LINE
  5
F103FC
330
F103FD
100
AcDbEntity
8
Geo
100
AcDbLine
10
-73.9811529847386
20
0.890971191880018
30
0.000000000000000
11
-73.8811529847386
21
0.904069369431203
31
0.000000000000000
  0
LINE
  5
F103FE
330
F103FF
100
AcDbEntity
8
Geo
100
AcDbLine
10
-73.8811529847386
20
0.904069369431203
30
0.000000000000000
11
-73.7811529847386
21
0.916525183894229
31
0.000000000000000
  0
LINE
  5
F10400
330
F10401
100
AcDbEntity
8
Geo
100
AcDbLine
10
-73.7811529847386
20
0.916525183894229
30
0.000000000000000
11
-73.6811529847386
21
0.928339304125442
31
0.000000000000000
  0
LINE
  5
F10402
330
F10403
100
AcDbEntity
8
Geo
100
AcDbLine
10
-73.6811529847386
20
0.928339304125442
30
0.000000000000000
11
-73.5811529847386
21
0.939512374485320
31
0.000000000000000
  0
LINE
  5
F10404
330
F10405
100
AcDbEntity
8
Geo
100
AcDbLine
10
-73.5811529847386
20
0.939512374485320
30
0.000000000000000
11
-73.4811529847386
21
0.950045013301053
31
0.000000000000000
  0
LINE
  5
F10406
330
F10407
100
AcDbEntity
8
Geo
100
AcDbLine
10
-73.4811529847386
20
0.950045013301053
30
0.000000000000000
11
-73.3811529847386
21
0.959937811413153
31
0.000000000000000
  0
LINE
  5
F10408
330
F10409
100
AcDbEntity
8
Geo
100
AcDbLine
10
-73.3811529847386
20
0.959937811413153
30
0.000000000000000
11
-73.2811529847386
21
0.969191330805910
31
0.000000000000000
  0
LINE
  5
F1040A
330
F1040B
100
AcDbEntity
8
Geo
100
AcDbLine
10
-73.2811529847386
20
0.969191330805910
30
0.000000000000000
11
-73.1811529847386
21
0.977806103321538
31
0.000000000000000
  0
LINE
  5
F1040C
330
F1040D
100
AcDbEntity
8
Geo
100
AcDbLine
10
-73.1811529847386
20
0.977806103321538
30
0.000000000000000
11
-73.0811529847386
21
0.985782629457855
31
0.000000000000000
  0
LINE
  5
F1040E
330
F1040F
100
AcDbEntity
8
Geo
100
AcDbLine
10
-73.0811529847386
20
0.985782629457855
30
0.000000000000000
11
-72.9811529847386
21
0.993121377249343
31
0.000000000000000
  0
LINE
  5
F10410
330
F10411
100
AcDbEntity
8
Geo
100
AcDbLine
10
-72.9811529847386
20
0.993121377249343
30
0.000000000000000
11
-72.8811529847386
21
0.999822781231445
31
0.000000000000000
  0
LINE
  5
F10412
330
F10413
100
AcDbEntity
8
Geo
100
AcDbLine
10
-72.8811529847386
20
0.999822781231445
30
0.000000000000000
11
-72.7811529847386
21
1.00588724148797
31
0.000000000000000
  0
LINE
  5
F10414
330
F10415
100
AcDbEntity
8
Geo
100
AcDbLine
10
-72.7811529847386
20
1.00588724148797
30
0.000000000000000
11
-72.6811529847386
21
1.01131512278146
31
0.000000000000000
  0
LINE
  5
F10416
330
F10417
100
AcDbEntity
8
Geo
100
AcDbLine
10
-72.6811529847386
20
1.01131512278146
30
0.000000000000000
11
-72.5811529847386
21
1.01610675376646
31
0.000000000000000
  0
LINE
  5
F10418
330
F10419
100
AcDbEntity
8
Geo
100
AcDbLine
10
-72.5811529847386
20
1.01610675376646
30
0.000000000000000
11
-72.4811529847386
21
1.02026242628547
31
0.000000000000000
  0
LINE
  5
F1041A
330
F1041B
100
AcDbEntity
8
Geo
100
AcDbLine
10
-72.4811529847386
20
1.02026242628547
30
0.000000000000000
11
-72.3811529847385
21
1.02378239474764
31
0.000000000000000
  0
LINE
  5
F1041C
330
F1041D
100
AcDbEntity
8
Geo
100
AcDbLine
10
-72.3811529847385
20
1.02378239474764
30
0.000000000000000
11
-72.2811529847386
21
1.02666687558995
31
0.000000000000000
  0
LINE
  5
F1041E
330
F1041F
100
AcDbEntity
8
Geo
100
AcDbLine
10
-72.2811529847386
20
1.02666687558995
30
0.000000000000000
11
-72.1811529847386
21
1.02891604682094
31
0.000000000000000
  0
LINE
  5
F10420
330
F10421
100
AcDbEntity
8
Geo
100
AcDbLine
10
-72.1811529847386
20
1.02891604682094
30
0.000000000000000
11
-72.0811529847386
21
1.03053004764685
31
0.000000000000000
  0
LINE
  5
F10422
330
F10423
100
AcDbEntity
8
Geo
100
AcDbLine
10
-81.7811529847386
20
6.50695114195248
30
0.000000000000000
11
-81.6811529847386
21
6.50652467921274
31
0.000000000000000
  0
LINE
  5
F10424
330
F10425
100
AcDbEntity
8
Geo
100
AcDbLine
10
-81.6811529847386
20
6.50652467921274
30
0.000000000000000
11
-81.5811529847386
21
6.49573137532233
31
0.000000000000000
  0
LINE
  5
F10426
330
F10427
100
AcDbEntity
8
Geo
100
AcDbLine
10
-81.5811529847386
20
6.49573137532233
30
0.000000000000000
11
-81.4811529847386
21
6.47458721838711
31
0.000000000000000
  0
LINE
  5
F10428
330
F10429
100
AcDbEntity
8
Geo
100
AcDbLine
10
-81.4811529847386
20
6.47458721838711
30
0.000000000000000
11
-81.3811529847386
21
6.44312352921696
31
0.000000000000000
  0
LINE
  5
F1042A
330
F1042B
100
AcDbEntity
8
Geo
100
AcDbLine
10
-81.3811529847386
20
6.44312352921696
30
0.000000000000000
11
-81.2811529847386
21
6.40138691493035
31
0.000000000000000
  0
LINE
  5
F1042C
330
F1042D
100
AcDbEntity
8
Geo
100
AcDbLine
10
-81.2811529847386
20
6.40138691493035
30
0.000000000000000
11
-81.1811529847386
21
6.34943919991522
31
0.000000000000000
  0
LINE
  5
F1042E
330
F1042F
100
AcDbEntity
8
Geo
100
AcDbLine
10
-81.1811529847386
20
6.34943919991522
30
0.000000000000000
11
-81.0811529847386
21
6.28735733424867
31
0.000000000000000
  0
LINE
  5
F10430
330
F10431
100
AcDbEntity
8
Geo
100
AcDbLine
10
-81.0811529847386
20
6.28735733424867
30
0.000000000000000
11
-80.9811529847386
21
6.21523327971087
31
0.000000000000000
  0
LINE
  5
F10432
330
F10433
100
AcDbEntity
8
Geo
100
AcDbLine
10
-80.9811529847386
20
6.21523327971087
30
0.000000000000000
11
-80.8811529847386
21
6.13317387356222
31
0.000000000000000
  0
LINE
  5
F10434
330
F10435
100
AcDbEntity
8
Geo
100
AcDbLine
10
-80.8811529847386
20
6.13317387356222
30
0.000000000000000
11
-80.7811529847386
21
6.04130067028547
31
0.000000000000000
  0
LINE
  5
F10436
330
F10437
100
AcDbEntity
8
Geo
100
AcDbLine
10
-80.7811529847386
20
6.04130067028547
30
0.000000000000000
11
-80.6811529847386
21
5.93974976152725
31
0.000000000000000
  0
LINE
  5
F10438
330
F10439
100
AcDbEntity
8
Geo
100
AcDbLine
10
-80.6811529847386
20
5.93974976152725
30
0.000000000000000
11
-80.5811529847386
21
5.82867157450567
31
0.000000000000000
  0
LINE
  5
F1043A
330
F1043B
100
AcDbEntity
8
Geo
100
AcDbLine
10
-80.5811529847386
20
5.82867157450567
30
0.000000000000000
11
-80.4811529847386
21
5.70823064918272
31
0.000000000000000
  0
LINE
  5
F1043C
330
F1043D
100
AcDbEntity
8
Geo
100
AcDbLine
10
-80.4811529847386
20
5.70823064918272
30
0.000000000000000
11
-80.3811529847386
21
5.57860539453144
31
0.000000000000000
  0
LINE
  5
F1043E
330
F1043F
100
AcDbEntity
8
Geo
100
AcDbLine
10
-80.3811529847386
20
5.57860539453144
30
0.000000000000000
11
-80.2811529847386
21
5.43998782425898
31
0.000000000000000
  0
LINE
  5
F10440
330
F10441
100
AcDbEntity
8
Geo
100
AcDbLine
10
-80.2811529847386
20
5.43998782425898
30
0.000000000000000
11
-80.1811529847386
21
5.29258327237696
31
0.000000000000000
  0
LINE
  5
F10442
330
F10443
100
AcDbEntity
8
Geo
100
AcDbLine
10
-80.1811529847386
20
5.29258327237696
30
0.000000000000000
11
-80.0811529847386
21
5.13661008904045
31
0.000000000000000
  0
LINE
  5
F10444
330
F10445
100
AcDbEntity
8
Geo
100
AcDbLine
10
-80.0811529847386
20
5.13661008904045
30
0.000000000000000
11
-79.9811529847386
21
4.97229931710628
31
0.000000000000000
  0
LINE
  5
F10446
330
F10447
100
AcDbEntity
8
Geo
100
AcDbLine
10
-79.9811529847386
20
4.97229931710628
30
0.000000000000000
11
-79.8811529847386
21
4.79989434988947
31
0.000000000000000
  0
LINE
  5
F10448
330
F10449
100
AcDbEntity
8
Geo
100
AcDbLine
10
-79.8811529847386
20
4.79989434988947
30
0.000000000000000
11
-79.7811529847386
21
4.61965057062514
31
0.000000000000000
  0
LINE
  5
F1044A
330
F1044B
100
AcDbEntity
8
Geo
100
AcDbLine
10
-79.7811529847386
20
4.61965057062514
30
0.000000000000000
11
-79.6811529847386
21
4.43183497416967
31
0.000000000000000
  0
LINE
  5
F1044C
330
F1044D
100
AcDbEntity
8
Geo
100
AcDbLine
10
-79.6811529847386
20
4.43183497416967
30
0.000000000000000
11
-79.5811529847386
21
4.23672577150154
31
0.000000000000000
  0
LINE
  5
F1044E
330
F1044F
100
AcDbEntity
8
Geo
100
AcDbLine
10
-79.5811529847386
20
4.23672577150154
30
0.000000000000000
11
-79.4811529847386
21
4.03461197760788
31
0.000000000000000
  0
LINE
  5
F10450
330
F10451
100
AcDbEntity
8
Geo
100
AcDbLine
10
-79.4811529847386
20
4.03461197760788
30
0.000000000000000
11
-79.3811529847386
21
3.82579298336691
31
0.000000000000000
  0
LINE
  5
F10452
330
F10453
100
AcDbEntity
8
Geo
100
AcDbLine
10
-79.3811529847386
20
3.82579298336691
30
0.000000000000000
11
-79.2811529847386
21
3.61057811206070
31
0.000000000000000
  0
LINE
  5
F10454
330
F10455
100
AcDbEntity
8
Geo
100
AcDbLine
10
-79.2811529847386
20
3.61057811206070
30
0.000000000000000
11
-79.1811529847386
21
3.38928616117500
31
0.000000000000000
  0
LINE
  5
F10456
330
F10457
100
AcDbEntity
8
Geo
100
AcDbLine
10
-79.1811529847386
20
3.38928616117500
30
0.000000000000000
11
-79.0811529847386
21
3.16224493016498
31
0.000000000000000
  0
LINE
  5
F10458
330
F10459
100
AcDbEntity
8
Geo
100
AcDbLine
10
-79.0811529847386
20
3.16224493016498
30
0.000000000000000
11
-78.9811529847386
21
2.92979073488635
31
0.000000000000000
  0
LINE
  5
F1045A
330
F1045B
100
AcDbEntity
8
Geo
100
AcDbLine
10
-78.9811529847386
20
2.92979073488635
30
0.000000000000000
11
-78.8811529847386
21
2.69226790941119
31
0.000000000000000
  0
LINE
  5
F1045C
330
F1045D
100
AcDbEntity
8
Geo
100
AcDbLine
10
-78.8811529847386
20
2.69226790941119
30
0.000000000000000
11
-78.7811529847386
21
2.45002829596635
31
0.000000000000000
  0
LINE
  5
F1045E
330
F1045F
100
AcDbEntity
8
Geo
100
AcDbLine
10
-78.7811529847386
20
2.45002829596635
30
0.000000000000000
11
-78.6811529847386
21
2.20343072375004
31
0.000000000000000
  0
LINE
  5
F10460
330
F10461
100
AcDbEntity
8
Geo
100
AcDbLine
10
-78.6811529847386
20
2.20343072375004
30
0.000000000000000
11
-78.5811529847386
21
1.95284047739866
31
0.000000000000000
  0
LINE
  5
F10462
330
F10463
100
AcDbEntity
8
Geo
100
AcDbLine
10
-78.5811529847386
20
1.95284047739866
30
0.000000000000000
11
-78.4811529847386
21
1.69862875589119
31
0.000000000000000
  0
LINE
  5
F10464
330
F10465
100
AcDbEntity
8
Geo
100
AcDbLine
10
-78.4811529847386
20
1.69862875589119
30
0.000000000000000
11
-78.3811529847386
21
1.44117212269267
31
0.000000000000000
  0
LINE
  5
F10466
330
F10467
100
AcDbEntity
8
Geo
100
AcDbLine
10
-78.3811529847386
20
1.44117212269267
30
0.000000000000000
11
-78.2811529847386
21
1.18085194795124
31
0.000000000000000
  0
LINE
  5
F10468
330
F10469
100
AcDbEntity
8
Geo
100
AcDbLine
10
-78.2811529847386
20
1.18085194795124
30
0.000000000000000
11
-78.1811529847386
21
0.918053843575100
31
0.000000000000000
  0
LINE
  5
F1046A
330
F1046B
100
AcDbEntity
8
Geo
100
AcDbLine
10
-78.1811529847386
20
0.918053843575100
30
0.000000000000000
11
-78.0811529847386
21
0.653167092026128
31
0.000000000000000
  0
LINE
  5
F1046C
330
F1046D
100
AcDbEntity
8
Geo
100
AcDbLine
10
-78.0811529847386
20
0.653167092026128
30
0.000000000000000
11
-77.9811529847386
21
0.386584069676318
31
0.000000000000000
  0
LINE
  5
F1046E
330
F1046F
100
AcDbEntity
8
Geo
100
AcDbLine
10
-77.9811529847386
20
0.386584069676318
30
0.000000000000000
11
-77.8811529847386
21
0.118699665581213
31
0.000000000000000
  0
LINE
  5
F10470
330
F10471
100
AcDbEntity
8
Geo
100
AcDbLine
10
-77.8811529847386
20
0.118699665581213
30
0.000000000000000
11
-77.7811529847386
21
-0.150089303468701
31
0.000000000000000
  0
LINE
  5
F10472
330
F10473
100
AcDbEntity
8
Geo
100
AcDbLine
10
-77.7811529847386
20
-0.150089303468701
30
0.000000000000000
11
-77.6811529847386
21
-0.419384680752146
31
0.000000000000000
  0
LINE
  5
F10474
330
F10475
100
AcDbEntity
8
Geo
100
AcDbLine
10
-77.6811529847386
20
-0.419384680752146
30
0.000000000000000
11
-77.5811529847386
21
-0.688787559406026
31
0.000000000000000
  0
LINE
  5
F10476
330
F10477
100
AcDbEntity
8
Geo
100
AcDbLine
10
-77.5811529847386
20
-0.688787559406026
30
0.000000000000000
11
-77.4811529847386
21
-0.957898873325633
31
0.000000000000000
  0
LINE
  5
F10478
330
F10479
100
AcDbEntity
8
Geo
100
AcDbLine
10
-77.4811529847386
20
-0.957898873325633
30
0.000000000000000
11
-77.3811529847386
21
-1.22631998830068
31
0.000000000000000
  0
LINE
  5
F1047A
330
F1047B
100
AcDbEntity
8
Geo
100
AcDbLine
10
-77.3811529847386
20
-1.22631998830068
30
0.000000000000000
11
-77.2811529847386
21
-1.49365329251162
31
0.000000000000000
  0
LINE
  5
F1047C
330
F1047D
100
AcDbEntity
8
Geo
100
AcDbLine
10
-77.2811529847386
20
-1.49365329251162
30
0.000000000000000
11
-77.1811529847386
21
-1.75950278551143
31
0.000000000000000
  0
LINE
  5
F1047E
330
F1047F
100
AcDbEntity
8
Geo
100
AcDbLine
10
-77.1811529847386
20
-1.75950278551143
30
0.000000000000000
11
-77.0811529847386
21
-2.02347466482065
31
0.000000000000000
  0
LINE
  5
F10480
330
F10481
100
AcDbEntity
8
Geo
100
AcDbLine
10
-77.0811529847386
20
-2.02347466482065
30
0.000000000000000
11
-76.9811529847386
21
-2.31643931096999
31
0.000000000000000
  0
LINE
  5
F10482
330
F10483
100
AcDbEntity
8
Geo
100
AcDbLine
10
-76.9811529847386
20
-2.31643931096999
30
0.000000000000000
11
-76.8811529847385
21
-2.60043065912288
31
0.000000000000000
  0
LINE
  5
F10484
330
F10485
100
AcDbEntity
8
Geo
100
AcDbLine
10
-76.8811529847385
20
-2.60043065912288
30
0.000000000000000
11
-76.7811529847386
21
-2.87514943717227
31
0.000000000000000
  0
LINE
  5
F10486
330
F10487
100
AcDbEntity
8
Geo
100
AcDbLine
10
-76.7811529847386
20
-2.87514943717227
30
0.000000000000000
11
-76.6811529847386
21
-3.14035710035499
31
0.000000000000000
  0
LINE
  5
F10488
330
F10489
100
AcDbEntity
8
Geo
100
AcDbLine
10
-76.6811529847386
20
-3.14035710035499
30
0.000000000000000
11
-76.5811529847386
21
-3.39587242728519
31
0.000000000000000
  0
LINE
  5
F1048A
330
F1048B
100
AcDbEntity
8
Geo
100
AcDbLine
10
-76.5811529847386
20
-3.39587242728519
30
0.000000000000000
11
-76.4811529847386
21
-3.64156805411947
31
0.000000000000000
  0
LINE
  5
F1048C
330
F1048D
100
AcDbEntity
8
Geo
100
AcDbLine
10
-76.4811529847386
20
-3.64156805411947
30
0.000000000000000
11
-76.3811529847385
21
-3.87736697640018
31
0.000000000000000
  0
LINE
  5
F1048E
330
F1048F
100
AcDbEntity
8
Geo
100
AcDbLine
10
-76.3811529847385
20
-3.87736697640018
30
0.000000000000000
11
-76.2811529847386
21
-4.10323904533677
31
0.000000000000000
  0
LINE
  5
F10490
330
F10491
100
AcDbEntity
8
Geo
100
AcDbLine
10
-76.2811529847386
20
-4.10323904533677
30
0.000000000000000
11
-76.1811529847386
21
-4.31919748256440
31
0.000000000000000
  0
LINE
  5
F10492
330
F10493
100
AcDbEntity
8
Geo
100
AcDbLine
10
-76.1811529847386
20
-4.31919748256440
30
0.000000000000000
11
-76.0811529847386
21
-4.52529543478150
31
0.000000000000000
  0
LINE
  5
F10494
330
F10495
100
AcDbEntity
8
Geo
100
AcDbLine
10
-76.0811529847386
20
-4.52529543478150
30
0.000000000000000
11
-75.9811529847386
21
-4.72162258713044
31
0.000000000000000
  0
LINE
  5
F10496
330
F10497
100
AcDbEntity
8
Geo
100
AcDbLine
10
-75.9811529847386
20
-4.72162258713044
30
0.000000000000000
11
-75.8811529847385
21
-4.90830185176003
31
0.000000000000000
  0
LINE
  5
F10498
330
F10499
100
AcDbEntity
8
Geo
100
AcDbLine
10
-75.8811529847385
20
-4.90830185176003
30
0.000000000000000
11
-75.7811529847386
21
-5.08548614570502
31
0.000000000000000
  0
LINE
  5
F1049A
330
F1049B
100
AcDbEntity
8
Geo
100
AcDbLine
10
-75.7811529847386
20
-5.08548614570502
30
0.000000000000000
11
-75.6811529847386
21
-5.25335527004464
31
0.000000000000000
  0
LINE
  5
F1049C
330
F1049D
100
AcDbEntity
8
Geo
100
AcDbLine
10
-75.6811529847386
20
-5.25335527004464
30
0.000000000000000
11
-75.5811529847386
21
-5.41211290026302
31
0.000000000000000
  0
LINE
  5
F1049E
330
F1049F
100
AcDbEntity
8
Geo
100
AcDbLine
10
-75.5811529847386
20
-5.41211290026302
30
0.000000000000000
11
-75.4811529847386
21
-5.56198369583485
31
0.000000000000000
  0
LINE
  5
F104A0
330
F104A1
100
AcDbEntity
8
Geo
100
AcDbLine
10
-75.4811529847386
20
-5.56198369583485
30
0.000000000000000
11
-75.3811529847386
21
-5.70321053529891
31
0.000000000000000
  0
LINE
  5
F104A2
330
F104A3
100
AcDbEntity
8
Geo
100
AcDbLine
10
-75.3811529847386
20
-5.70321053529891
30
0.000000000000000
11
-75.2811529847386
21
-5.83605188146191
31
0.000000000000000
  0
LINE
  5
F104A4
330
F104A5
100
AcDbEntity
8
Geo
100
AcDbLine
10
-75.2811529847386
20
-5.83605188146191
30
0.000000000000000
11
-75.1811529847386
21
-5.96077927989320
31
0.000000000000000
  0
LINE
  5
F104A6
330
F104A7
100
AcDbEntity
8
Geo
100
AcDbLine
10
-75.1811529847386
20
-5.96077927989320
30
0.000000000000000
11
-75.0811529847386
21
-6.07767499252494
31
0.000000000000000
  0
LINE
  5
F104A8
330
F104A9
100
AcDbEntity
8
Geo
100
AcDbLine
10
-75.0811529847386
20
-6.07767499252494
30
0.000000000000000
11
-74.9811529847386
21
-6.18702976695891
31
0.000000000000000
  0
LINE
  5
F104AA
330
F104AB
100
AcDbEntity
8
Geo
100
AcDbLine
10
-74.9811529847386
20
-6.18702976695891
30
0.000000000000000
11
-74.8811529847386
21
-6.28914074099533
31
0.000000000000000
  0
LINE
  5
F104AC
330
F104AD
100
AcDbEntity
8
Geo
100
AcDbLine
10
-74.8811529847386
20
-6.28914074099533
30
0.000000000000000
11
-74.7811529847386
21
-6.38430948093677
31
0.000000000000000
  0
LINE
  5
F104AE
330
F104AF
100
AcDbEntity
8
Geo
100
AcDbLine
10
-74.7811529847386
20
-6.38430948093677
30
0.000000000000000
11
-74.6811529847386
21
-6.47284015137482
31
0.000000000000000
  0
LINE
  5
F104B0
330
F104B1
100
AcDbEntity
8
Geo
100
AcDbLine
10
-74.6811529847386
20
-6.47284015137482
30
0.000000000000000
11
-74.5811529847386
21
-6.55503781343333
31
0.000000000000000
  0
LINE
  5
F104B2
330
F104B3
100
AcDbEntity
8
Geo
100
AcDbLine
10
-74.5811529847386
20
-6.55503781343333
30
0.000000000000000
11
-74.4811529847386
21
-6.63120684781344
31
0.000000000000000
  0
LINE
  5
F104B4
330
F104B5
100
AcDbEntity
8
Geo
100
AcDbLine
10
-74.4811529847386
20
-6.63120684781344
30
0.000000000000000
11
-74.3811529847386
21
-6.70164949845540
31
0.000000000000000
  0
LINE
  5
F104B6
330
F104B7
100
AcDbEntity
8
Geo
100
AcDbLine
10
-74.3811529847386
20
-6.70164949845540
30
0.000000000000000
11
-74.2811529847386
21
-6.76666453219443
31
0.000000000000000
  0
LINE
  5
F104B8
330
F104B9
100
AcDbEntity
8
Geo
100
AcDbLine
10
-74.2811529847386
20
-6.76666453219443
30
0.000000000000000
11
-74.1811529847386
21
-6.82654600943534
31
0.000000000000000
  0
LINE
  5
F104BA
330
F104BB
100
AcDbEntity
8
Geo
100
AcDbLine
10
-74.1811529847386
20
-6.82654600943534
30
0.000000000000000
11
-74.0811529847386
21
-6.88158216059783
31
0.000000000000000
  0
LINE
  5
F104BC
330
F104BD
100
AcDbEntity
8
Geo
100
AcDbLine
10
-74.0811529847386
20
-6.88158216059783
30
0.000000000000000
11
-73.9811529847386
21
-6.93205436288359
31
0.000000000000000
  0
LINE
  5
F104BE
330
F104BF
100
AcDbEntity
8
Geo
100
AcDbLine
10
-73.9811529847386
20
-6.93205436288359
30
0.000000000000000
11
-73.8811529847386
21
-6.97823621178297
31
0.000000000000000
  0
LINE
  5
F104C0
330
F104C1
100
AcDbEntity
8
Geo
100
AcDbLine
10
-73.8811529847386
20
-6.97823621178297
30
0.000000000000000
11
-73.7811529847386
21
-7.02039268166589
31
0.000000000000000
  0
LINE
  5
F104C2
330
F104C3
100
AcDbEntity
8
Geo
100
AcDbLine
10
-73.7811529847386
20
-7.02039268166589
30
0.000000000000000
11
-73.6811529847386
21
-7.05877936978338
31
0.000000000000000
  0
LINE
  5
F104C4
330
F104C5
100
AcDbEntity
8
Geo
100
AcDbLine
10
-73.6811529847386
20
-7.05877936978338
30
0.000000000000000
11
-73.5811529847386
21
-7.09364181803826
31
0.000000000000000
  0
LINE
  5
F104C6
330
F104C7
100
AcDbEntity
8
Geo
100
AcDbLine
10
-73.5811529847386
20
-7.09364181803826
30
0.000000000000000
11
-73.4811529847386
21
-7.12521490695913
31
0.000000000000000
  0
LINE
  5
F104C8
330
F104C9
100
AcDbEntity
8
Geo
100
AcDbLine
10
-73.4811529847386
20
-7.12521490695913
30
0.000000000000000
11
-73.3811529847386
21
-7.15372231642791
31
0.000000000000000
  0
LINE
  5
F104CA
330
F104CB
100
AcDbEntity
8
Geo
100
AcDbLine
10
-73.3811529847386
20
-7.15372231642791
30
0.000000000000000
11
-73.2811529847386
21
-7.17937604786225
31
0.000000000000000
  0
LINE
  5
F104CC
330
F104CD
100
AcDbEntity
8
Geo
100
AcDbLine
10
-73.2811529847386
20
-7.17937604786225
30
0.000000000000000
11
-73.1811529847386
21
-7.20237600273636
31
0.000000000000000
  0
LINE
  5
F104CE
330
F104CF
100
AcDbEntity
8
Geo
100
AcDbLine
10
-73.1811529847386
20
-7.20237600273636
30
0.000000000000000
11
-73.0811529847386
21
-7.22290961253330
31
0.000000000000000
  0
LINE
  5
F104D0
330
F104D1
100
AcDbEntity
8
Geo
100
AcDbLine
10
-73.0811529847386
20
-7.22290961253330
30
0.000000000000000
11
-72.9811529847386
21
-7.24115151545525
31
0.000000000000000
  0
LINE
  5
F104D2
330
F104D3
100
AcDbEntity
8
Geo
100
AcDbLine
10
-72.9811529847386
20
-7.24115151545525
30
0.000000000000000
11
-72.8811529847386
21
-7.25726327547246
31
0.000000000000000
  0
LINE
  5
F104D4
330
F104D5
100
AcDbEntity
8
Geo
100
AcDbLine
10
-72.8811529847386
20
-7.25726327547246
30
0.000000000000000
11
-72.7811529847386
21
-7.27139313956319
31
0.000000000000000
  0
LINE
  5
F104D6
330
F104D7
100
AcDbEntity
8
Geo
100
AcDbLine
10
-72.7811529847386
20
-7.27139313956319
30
0.000000000000000
11
-72.6811529847386
21
-7.28367582928455
31
0.000000000000000
  0
LINE
  5
F104D8
330
F104D9
100
AcDbEntity
8
Geo
100
AcDbLine
10
-72.6811529847386
20
-7.28367582928455
30
0.000000000000000
11
-72.5811529847386
21
-7.29423236311377
31
0.000000000000000
  0
LINE
  5
F104DA
330
F104DB
100
AcDbEntity
8
Geo
100
AcDbLine
10
-72.5811529847386
20
-7.29423236311377
30
0.000000000000000
11
-72.4811529847386
21
-7.30316990631105
31
0.000000000000000
  0
LINE
  5
F104DC
330
F104DD
100
AcDbEntity
8
Geo
100
AcDbLine
10
-72.4811529847386
20
-7.30316990631105
30
0.000000000000000
11
-72.3811529847385
21
-7.31058164537475
31
0.000000000000000
  0
LINE
  5
F104DE
330
F104DF
100
AcDbEntity
8
Geo
100
AcDbLine
10
-72.3811529847385
20
-7.31058164537475
30
0.000000000000000
11
-72.2811529847386
21
-7.31654668448798
31
0.000000000000000
  0
LINE
  5
F104E0
330
F104E1
100
AcDbEntity
8
Geo
100
AcDbLine
10
-72.2811529847386
20
-7.31654668448798
30
0.000000000000000
11
-72.1811529847386
21
-7.32112996168926
31
0.000000000000000
  0
LINE
  5
F104E2
330
F104E3
100
AcDbEntity
8
Geo
100
AcDbLine
10
-72.1811529847386
20
-7.32112996168926
30
0.000000000000000
11
-72.0811529847386
21
-7.32438218283904
31
0.000000000000000
  0
LINE
  5
F104E4
330
F104E5
100
AcDbEntity
8
Geo
100
AcDbLine
10
-85.0811529847386
20
6.50463713024024
30
0.000000000000000
11
-84.9811529847385
21
6.50785670650607
31
0.000000000000000
  0
LINE
  5
F104E6
330
F104E7
100
AcDbEntity
8
Geo
100
AcDbLine
10
-84.9811529847385
20
6.50785670650607
30
0.000000000000000
11
-84.8811529847385
21
6.50070746849108
31
0.000000000000000
  0
LINE
  5
F104E8
330
F104E9
100
AcDbEntity
8
Geo
100
AcDbLine
10
-84.8811529847385
20
6.50070746849108
30
0.000000000000000
11
-84.7811529847386
21
6.48320000635148
31
0.000000000000000
  0
LINE
  5
F104EA
330
F104EB
100
AcDbEntity
8
Geo
100
AcDbLine
10
-84.7811529847386
20
6.48320000635148
30
0.000000000000000
11
-84.6811529847385
21
6.45536025386627
31
0.000000000000000
  0
LINE
  5
F104EC
330
F104ED
100
AcDbEntity
8
Geo
100
AcDbLine
10
-84.6811529847385
20
6.45536025386627
30
0.000000000000000
11
-84.5811529847386
21
6.41722945002160
31
0.000000000000000
  0
LINE
  5
F104EE
330
F104EF
100
AcDbEntity
8
Geo
100
AcDbLine
10
-84.5811529847386
20
6.41722945002160
30
0.000000000000000
11
-84.4811529847386
21
6.36886407792350
31
0.000000000000000
  0
LINE
  5
F104F0
330
F104F1
100
AcDbEntity
8
Geo
100
AcDbLine
10
-84.4811529847386
20
6.36886407792350
30
0.000000000000000
11
-84.3811529847385
21
6.31033578112954
31
0.000000000000000
  0
LINE
  5
F104F2
330
F104F3
100
AcDbEntity
8
Geo
100
AcDbLine
10
-84.3811529847385
20
6.31033578112954
30
0.000000000000000
11
-84.2811529847386
21
6.24173125752333
31
0.000000000000000
  0
LINE
  5
F104F4
330
F104F5
100
AcDbEntity
8
Geo
100
AcDbLine
10
-84.2811529847386
20
6.24173125752333
30
0.000000000000000
11
-84.1811529847386
21
6.16315213088907
31
0.000000000000000
  0
LINE
  5
F104F6
330
F104F7
100
AcDbEntity
8
Geo
100
AcDbLine
10
-84.1811529847386
20
6.16315213088907
30
0.000000000000000
11
-84.0811529847386
21
6.07471480037635
31
0.000000000000000
  0
LINE
  5
F104F8
330
F104F9
100
AcDbEntity
8
Geo
100
AcDbLine
10
-84.0811529847386
20
6.07471480037635
30
0.000000000000000
11
-83.9811529847386
21
5.97655026807831
31
0.000000000000000
  0
LINE
  5
F104FA
330
F104FB
100
AcDbEntity
8
Geo
100
AcDbLine
10
-83.9811529847386
20
5.97655026807831
30
0.000000000000000
11
-83.8811529847385
21
5.86880394497839
31
0.000000000000000
  0
LINE
  5
F104FC
330
F104FD
100
AcDbEntity
8
Geo
100
AcDbLine
10
-83.8811529847385
20
5.86880394497839
30
0.000000000000000
11
-83.7811529847386
21
5.75163543555324
31
0.000000000000000
  0
LINE
  5
F104FE
330
F104FF
100
AcDbEntity
8
Geo
100
AcDbLine
10
-83.7811529847386
20
5.75163543555324
30
0.000000000000000
11
-83.6811529847386
21
5.62521830135085
31
0.000000000000000
  0
LINE
  5
F10500
330
F10501
100
AcDbEntity
8
Geo
100
AcDbLine
10
-83.6811529847386
20
5.62521830135085
30
0.000000000000000
11
-83.5811529847386
21
5.48973980389406
31
0.000000000000000
  0
LINE
  5
F10502
330
F10503
100
AcDbEntity
8
Geo
100
AcDbLine
10
-83.5811529847386
20
5.48973980389406
30
0.000000000000000
11
-83.4811529847386
21
5.34540062729033
31
0.000000000000000
  0
LINE
  5
F10504
330
F10505
100
AcDbEntity
8
Geo
100
AcDbLine
10
-83.4811529847386
20
5.34540062729033
30
0.000000000000000
11
-83.3811529847385
21
5.19241458095869
31
0.000000000000000
  0
LINE
  5
F10506
330
F10507
100
AcDbEntity
8
Geo
100
AcDbLine
10
-83.3811529847385
20
5.19241458095869
30
0.000000000000000
11
-83.2811529847386
21
5.03100828291409
31
0.000000000000000
  0
LINE
  5
F10508
330
F10509
100
AcDbEntity
8
Geo
100
AcDbLine
10
-83.2811529847386
20
5.03100828291409
30
0.000000000000000
11
-83.1811529847386
21
4.86142082407850
31
0.000000000000000
  0
LINE
  5
F1050A
330
F1050B
100
AcDbEntity
8
Geo
100
AcDbLine
10
-83.1811529847386
20
4.86142082407850
30
0.000000000000000
11
-83.0811529847386
21
4.68390341411583
31
0.000000000000000
  0
LINE
  5
F1050C
330
F1050D
100
AcDbEntity
8
Geo
100
AcDbLine
10
-83.0811529847386
20
4.68390341411583
30
0.000000000000000
11
-82.9811529847386
21
4.49871900931544
31
0.000000000000000
  0
LINE
  5
F1050E
330
F1050F
100
AcDbEntity
8
Geo
100
AcDbLine
10
-82.9811529847386
20
4.49871900931544
30
0.000000000000000
11
-82.8811529847386
21
4.30614192307534
31
0.000000000000000
  0
LINE
  5
F10510
330
F10511
100
AcDbEntity
8
Geo
100
AcDbLine
10
-82.8811529847386
20
4.30614192307534
30
0.000000000000000
11
-82.7811529847386
21
4.10645741956215
31
0.000000000000000
  0
LINE
  5
F10512
330
F10513
100
AcDbEntity
8
Geo
100
AcDbLine
10
-82.7811529847386
20
4.10645741956215
30
0.000000000000000
11
-82.6811529847386
21
3.89996129114968
31
0.000000000000000
  0
LINE
  5
F10514
330
F10515
100
AcDbEntity
8
Geo
100
AcDbLine
10
-82.6811529847386
20
3.89996129114968
30
0.000000000000000
11
-82.5811529847386
21
3.68695942026211
31
0.000000000000000
  0
LINE
  5
F10516
330
F10517
100
AcDbEntity
8
Geo
100
AcDbLine
10
-82.5811529847386
20
3.68695942026211
30
0.000000000000000
11
-82.4811529847386
21
3.46776732627078
31
0.000000000000000
  0
LINE
  5
F10518
330
F10519
100
AcDbEntity
8
Geo
100
AcDbLine
10
-82.4811529847386
20
3.46776732627078
30
0.000000000000000
11
-82.3811529847386
21
3.24270969811581
31
0.000000000000000
  0
LINE
  5
F1051A
330
F1051B
100
AcDbEntity
8
Geo
100
AcDbLine
10
-82.3811529847386
20
3.24270969811581
30
0.000000000000000
11
-82.2811529847386
21
3.01211991334481
31
0.000000000000000
  0
LINE
  5
F1051C
330
F1051D
100
AcDbEntity
8
Geo
100
AcDbLine
10
-82.2811529847386
20
3.01211991334481
30
0.000000000000000
11
-82.1811529847386
21
2.77633954428118
31
0.000000000000000
  0
LINE
  5
F1051E
330
F1051F
100
AcDbEntity
8
Geo
100
AcDbLine
10
-82.1811529847386
20
2.77633954428118
30
0.000000000000000
11
-82.0811529847386
21
2.53571785205354
31
0.000000000000000
  0
LINE
  5
F10520
330
F10521
100
AcDbEntity
8
Geo
100
AcDbLine
10
-82.0811529847386
20
2.53571785205354
30
0.000000000000000
11
-81.9811529847386
21
2.29061126923568
31
0.000000000000000
  0
LINE
  5
F10522
330
F10523
100
AcDbEntity
8
Geo
100
AcDbLine
10
-81.9811529847386
20
2.29061126923568
30
0.000000000000000
11
-81.8811529847386
21
2.04138287186351
31
0.000000000000000
  0
LINE
  5
F10524
330
F10525
100
AcDbEntity
8
Geo
100
AcDbLine
10
-81.8811529847386
20
2.04138287186351
30
0.000000000000000
11
-81.7811529847386
21
1.78840184161105
31
0.000000000000000
  0
LINE
  5
F10526
330
F10527
100
AcDbEntity
8
Geo
100
AcDbLine
10
-81.7811529847386
20
1.78840184161105
30
0.000000000000000
11
-81.6811529847386
21
1.53204291892210
31
0.000000000000000
  0
LINE
  5
F10528
330
F10529
100
AcDbEntity
8
Geo
100
AcDbLine
10
-81.6811529847386
20
1.53204291892210
30
0.000000000000000
11
-81.5811529847386
21
1.27268584790776
31
0.000000000000000
  0
LINE
  5
F1052A
330
F1052B
100
AcDbEntity
8
Geo
100
AcDbLine
10
-81.5811529847386
20
1.27268584790776
30
0.000000000000000
11
-81.4811529847386
21
1.01071481383205
31
0.000000000000000
  0
LINE
  5
F1052C
330
F1052D
100
AcDbEntity
8
Geo
100
AcDbLine
10
-81.4811529847386
20
1.01071481383205
30
0.000000000000000
11
-81.3811529847386
21
0.746517874018772
31
0.000000000000000
  0
LINE
  5
F1052E
330
F1052F
100
AcDbEntity
8
Geo
100
AcDbLine
10
-81.3811529847386
20
0.746517874018772
30
0.000000000000000
11
-81.2811529847386
21
0.480486383022772
31
0.000000000000000
  0
LINE
  5
F10530
330
F10531
100
AcDbEntity
8
Geo
100
AcDbLine
10
-81.2811529847386
20
0.480486383022772
30
0.000000000000000
11
-81.1811529847386
21
0.213014412916972
31
0.000000000000000
  0
LINE
  5
F10532
330
F10533
100
AcDbEntity
8
Geo
100
AcDbLine
10
-81.1811529847386
20
0.213014412916972
30
0.000000000000000
11
-81.0811529847386
21
-0.0555018304460278
31
0.000000000000000
  0
LINE
  5
F10534
330
F10535
100
AcDbEntity
8
Geo
100
AcDbLine
10
-81.0811529847386
20
-0.0555018304460278
30
0.000000000000000
11
-80.9811529847386
21
-0.324664594333122
31
0.000000000000000
  0
LINE
  5
F10536
330
F10537
100
AcDbEntity
8
Geo
100
AcDbLine
10
-80.9811529847386
20
-0.324664594333122
30
0.000000000000000
11
-80.8811529847386
21
-0.594075168321268
31
0.000000000000000
  0
LINE
  5
F10538
330
F10539
100
AcDbEntity
8
Geo
100
AcDbLine
10
-80.8811529847386
20
-0.594075168321268
30
0.000000000000000
11
-80.7811529847386
21
-0.863334474906653
31
0.000000000000000
  0
LINE
  5
F1053A
330
F1053B
100
AcDbEntity
8
Geo
100
AcDbLine
10
-80.7811529847386
20
-0.863334474906653
30
0.000000000000000
11
-80.6811529847386
21
-1.13204366065767
31
0.000000000000000
  0
LINE
  5
F1053C
330
F1053D
100
AcDbEntity
8
Geo
100
AcDbLine
10
-80.6811529847386
20
-1.13204366065767
30
0.000000000000000
11
-80.5811529847386
21
-1.39980468703593
31
0.000000000000000
  0
LINE
  5
F1053E
330
F1053F
100
AcDbEntity
8
Geo
100
AcDbLine
10
-80.5811529847386
20
-1.39980468703593
30
0.000000000000000
11
-80.4811529847386
21
-1.66622092001018
31
0.000000000000000
  0
LINE
  5
F10540
330
F10541
100
AcDbEntity
8
Geo
100
AcDbLine
10
-80.4811529847386
20
-1.66622092001018
30
0.000000000000000
11
-80.3811529847386
21
-1.93089771758975
31
0.000000000000000
  0
LINE
  5
F10542
330
F10543
100
AcDbEntity
8
Geo
100
AcDbLine
10
-80.3811529847386
20
-1.93089771758975
30
0.000000000000000
11
-80.2811529847386
21
-2.19344301440716
31
0.000000000000000
  0
LINE
  5
F10544
330
F10545
100
AcDbEntity
8
Geo
100
AcDbLine
10
-80.2811529847386
20
-2.19344301440716
30
0.000000000000000
11
-80.1811529847386
21
-2.45346790248401
31
0.000000000000000
  0
LINE
  5
F10546
330
F10547
100
AcDbEntity
8
Geo
100
AcDbLine
10
-80.1811529847386
20
-2.45346790248401
30
0.000000000000000
11
-80.0811529847386
21
-2.71058720731982
31
0.000000000000000
  0
LINE
  5
F10548
330
F10549
100
AcDbEntity
8
Geo
100
AcDbLine
10
-80.0811529847386
20
-2.71058720731982
30
0.000000000000000
11
-79.9811529847386
21
-2.96442005845048
31
0.000000000000000
  0
LINE
  5
F1054A
330
F1054B
100
AcDbEntity
8
Geo
100
AcDbLine
10
-79.9811529847386
20
-2.96442005845048
30
0.000000000000000
11
-79.8811529847386
21
-3.21459045363112
31
0.000000000000000
  0
LINE
  5
F1054C
330
F1054D
100
AcDbEntity
8
Geo
100
AcDbLine
10
-79.8811529847386
20
-3.21459045363112
30
0.000000000000000
11
-79.7811529847386
21
-3.46072781580769
31
0.000000000000000
  0
LINE
  5
F1054E
330
F1054F
100
AcDbEntity
8
Geo
100
AcDbLine
10
-79.7811529847386
20
-3.46072781580769
30
0.000000000000000
11
-79.6811529847386
21
-3.70246754205229
31
0.000000000000000
  0
LINE
  5
F10550
330
F10551
100
AcDbEntity
8
Geo
100
AcDbLine
10
-79.6811529847386
20
-3.70246754205229
30
0.000000000000000
11
-79.5811529847386
21
-3.93945154364888
31
0.000000000000000
  0
LINE
  5
F10552
330
F10553
100
AcDbEntity
8
Geo
100
AcDbLine
10
-79.5811529847386
20
-3.93945154364888
30
0.000000000000000
11
-79.4811529847386
21
-4.17132877652970
31
0.000000000000000
  0
LINE
  5
F10554
330
F10555
100
AcDbEntity
8
Geo
100
AcDbLine
10
-79.4811529847386
20
-4.17132877652970
30
0.000000000000000
11
-79.3811529847386
21
-4.39775576127626
31
0.000000000000000
  0
LINE
  5
F10556
330
F10557
100
AcDbEntity
8
Geo
100
AcDbLine
10
-79.3811529847386
20
-4.39775576127626
30
0.000000000000000
11
-79.2811529847386
21
-4.61839709191495
31
0.000000000000000
  0
LINE
  5
F10558
330
F10559
100
AcDbEntity
8
Geo
100
AcDbLine
10
-79.2811529847386
20
-4.61839709191495
30
0.000000000000000
11
-79.1811529847386
21
-4.83292593275346
31
0.000000000000000
  0
LINE
  5
F1055A
330
F1055B
100
AcDbEntity
8
Geo
100
AcDbLine
10
-79.1811529847386
20
-4.83292593275346
30
0.000000000000000
11
-79.0811529847386
21
-5.04102450252201
31
0.000000000000000
  0
LINE
  5
F1055C
330
F1055D
100
AcDbEntity
8
Geo
100
AcDbLine
10
-79.0811529847386
20
-5.04102450252201
30
0.000000000000000
11
-78.9811529847386
21
-5.24238454510229
31
0.000000000000000
  0
LINE
  5
F1055E
330
F1055F
100
AcDbEntity
8
Geo
100
AcDbLine
10
-78.9811529847386
20
-5.24238454510229
30
0.000000000000000
11
-78.8811529847386
21
-5.43670778614683
31
0.000000000000000
  0
LINE
  5
F10560
330
F10561
100
AcDbEntity
8
Geo
100
AcDbLine
10
-78.8811529847386
20
-5.43670778614683
30
0.000000000000000
11
-78.7811529847386
21
-5.62370637491237
31
0.000000000000000
  0
LINE
  5
F10562
330
F10563
100
AcDbEntity
8
Geo
100
AcDbLine
10
-78.7811529847386
20
-5.62370637491237
30
0.000000000000000
11
-78.6811529847386
21
-5.80310331065273
31
0.000000000000000
  0
LINE
  5
F10564
330
F10565
100
AcDbEntity
8
Geo
100
AcDbLine
10
-78.6811529847386
20
-5.80310331065273
30
0.000000000000000
11
-78.5811529847386
21
-5.97463285293968
31
0.000000000000000
  0
LINE
  5
F10566
330
F10567
100
AcDbEntity
8
Geo
100
AcDbLine
10
-78.5811529847386
20
-5.97463285293968
30
0.000000000000000
11
-78.4811529847386
21
-6.13804091530382
31
0.000000000000000
  0
LINE
  5
F10568
330
F10569
100
AcDbEntity
8
Geo
100
AcDbLine
10
-78.4811529847386
20
-6.13804091530382
30
0.000000000000000
11
-78.3811529847386
21
-6.29308544161252
31
0.000000000000000
  0
LINE
  5
F1056A
330
F1056B
100
AcDbEntity
8
Geo
100
AcDbLine
10
-78.3811529847386
20
-6.29308544161252
30
0.000000000000000
11
-78.2811529847386
21
-6.43953676462731
31
0.000000000000000
  0
LINE
  5
F1056C
330
F1056D
100
AcDbEntity
8
Geo
100
AcDbLine
10
-78.2811529847386
20
-6.43953676462731
30
0.000000000000000
11
-78.1811529847386
21
-6.57717794620970
31
0.000000000000000
  0
LINE
  5
F1056E
330
F1056F
100
AcDbEntity
8
Geo
100
AcDbLine
10
-78.1811529847386
20
-6.57717794620970
30
0.000000000000000
11
-78.0811529847386
21
-6.70580509867126
31
0.000000000000000
  0
LINE
  5
F10570
330
F10571
100
AcDbEntity
8
Geo
100
AcDbLine
10
-78.0811529847386
20
-6.70580509867126
30
0.000000000000000
11
-77.9811529847386
21
-6.82522768679221
31
0.000000000000000
  0
LINE
  5
F10572
330
F10573
100
AcDbEntity
8
Geo
100
AcDbLine
10
-77.9811529847386
20
-6.82522768679221
30
0.000000000000000
11
-77.8811529847386
21
-6.93526881006097
31
0.000000000000000
  0
LINE
  5
F10574
330
F10575
100
AcDbEntity
8
Geo
100
AcDbLine
10
-77.8811529847386
20
-6.93526881006097
30
0.000000000000000
11
-77.7811529847386
21
-7.03576546471662
31
0.000000000000000
  0
LINE
  5
F10576
330
F10577
100
AcDbEntity
8
Geo
100
AcDbLine
10
-77.7811529847386
20
-7.03576546471662
30
0.000000000000000
11
-77.6811529847386
21
-7.12656878520617
31
0.000000000000000
  0
LINE
  5
F10578
330
F10579
100
AcDbEntity
8
Geo
100
AcDbLine
10
-77.6811529847386
20
-7.12656878520617
30
0.000000000000000
11
-77.5811529847386
21
-7.20754426469887
31
0.000000000000000
  0
LINE
  5
F1057A
330
F1057B
100
AcDbEntity
8
Geo
100
AcDbLine
10
-77.5811529847386
20
-7.20754426469887
30
0.000000000000000
11
-77.4811529847386
21
-7.27857195433099
31
0.000000000000000
  0
LINE
  5
F1057C
330
F1057D
100
AcDbEntity
8
Geo
100
AcDbLine
10
-77.4811529847386
20
-7.27857195433099
30
0.000000000000000
11
-77.3811529847386
21
-7.33954664088592
31
0.000000000000000
  0
LINE
  5
F1057E
330
F1057F
100
AcDbEntity
8
Geo
100
AcDbLine
10
-77.3811529847386
20
-7.33954664088592
30
0.000000000000000
11
-77.2811529847386
21
-7.39037800264634
31
0.000000000000000
  0
LINE
  5
F10580
330
F10581
100
AcDbEntity
8
Geo
100
AcDbLine
10
-77.2811529847386
20
-7.39037800264634
30
0.000000000000000
11
-77.1811529847386
21
-7.43099074318767
31
0.000000000000000
  0
LINE
  5
F10582
330
F10583
100
AcDbEntity
8
Geo
100
AcDbLine
10
-77.1811529847386
20
-7.43099074318767
30
0.000000000000000
11
-77.0811529847386
21
-7.46132470291455
31
0.000000000000000
  0
LINE
  5
F10584
330
F10585
100
AcDbEntity
8
Geo
100
AcDbLine
10
-77.0811529847386
20
-7.46132470291455
30
0.000000000000000
11
-76.9811529847386
21
-7.45811114906202
31
0.000000000000000
  0
LINE
  5
F10586
330
F10587
100
AcDbEntity
8
Geo
100
AcDbLine
10
-76.9811529847386
20
-7.45811114906202
30
0.000000000000000
11
-76.8811529847385
21
-7.45480471182679
31
0.000000000000000
  0
LINE
  5
F10588
330
F10589
100
AcDbEntity
8
Geo
100
AcDbLine
10
-76.8811529847385
20
-7.45480471182679
30
0.000000000000000
11
-76.7811529847386
21
-7.45141458583788
31
0.000000000000000
  0
LINE
  5
F1058A
330
F1058B
100
AcDbEntity
8
Geo
100
AcDbLine
10
-76.7811529847386
20
-7.45141458583788
30
0.000000000000000
11
-76.6811529847386
21
-7.44794977986696
31
0.000000000000000
  0
LINE
  5
F1058C
330
F1058D
100
AcDbEntity
8
Geo
100
AcDbLine
10
-76.6811529847386
20
-7.44794977986696
30
0.000000000000000
11
-76.5811529847386
21
-7.44441911663402
31
0.000000000000000
  0
LINE
  5
F1058E
330
F1058F
100
AcDbEntity
8
Geo
100
AcDbLine
10
-76.5811529847386
20
-7.44441911663402
30
0.000000000000000
11
-76.4811529847386
21
-7.44083123266054
31
0.000000000000000
  0
LINE
  5
F10590
330
F10591
100
AcDbEntity
8
Geo
100
AcDbLine
10
-76.4811529847386
20
-7.44083123266054
30
0.000000000000000
11
-76.3811529847385
21
-7.43719457816756
31
0.000000000000000
  0
LINE
  5
F10592
330
F10593
100
AcDbEntity
8
Geo
100
AcDbLine
10
-76.3811529847385
20
-7.43719457816756
30
0.000000000000000
11
-76.2811529847386
21
-7.43351741701592
31
0.000000000000000
  0
LINE
  5
F10594
330
F10595
100
AcDbEntity
8
Geo
100
AcDbLine
10
-76.2811529847386
20
-7.43351741701592
30
0.000000000000000
11
-76.1811529847386
21
-7.42980782668629
31
0.000000000000000
  0
LINE
  5
F10596
330
F10597
100
AcDbEntity
8
Geo
100
AcDbLine
10
-76.1811529847386
20
-7.42980782668629
30
0.000000000000000
11
-76.0811529847386
21
-7.42607369829613
31
0.000000000000000
  0
LINE
  5
F10598
330
F10599
100
AcDbEntity
8
Geo
100
AcDbLine
10
-76.0811529847386
20
-7.42607369829613
30
0.000000000000000
11
-75.9811529847386
21
-7.42232273665154
31
0.000000000000000
  0
LINE
  5
F1059A
330
F1059B
100
AcDbEntity
8
Geo
100
AcDbLine
10
-75.9811529847386
20
-7.42232273665154
30
0.000000000000000
11
-75.8811529847385
21
-7.41856246033122
31
0.000000000000000
  0
LINE
  5
F1059C
330
F1059D
100
AcDbEntity
8
Geo
100
AcDbLine
10
-75.8811529847385
20
-7.41856246033122
30
0.000000000000000
11
-75.7811529847386
21
-7.41480020180041
31
0.000000000000000
  0
LINE
  5
F1059E
330
F1059F
100
AcDbEntity
8
Geo
100
AcDbLine
10
-75.7811529847386
20
-7.41480020180041
30
0.000000000000000
11
-75.6811529847386
21
-7.41104310755246
31
0.000000000000000
  0
LINE
  5
F105A0
330
F105A1
100
AcDbEntity
8
Geo
100
AcDbLine
10
-75.6811529847386
20
-7.41104310755246
30
0.000000000000000
11
-75.5811529847386
21
-7.40729813827574
31
0.000000000000000
  0
LINE
  5
F105A2
330
F105A3
100
AcDbEntity
8
Geo
100
AcDbLine
10
-75.5811529847386
20
-7.40729813827574
30
0.000000000000000
11
-75.4811529847386
21
-7.40357206904380
31
0.000000000000000
  0
LINE
  5
F105A4
330
F105A5
100
AcDbEntity
8
Geo
100
AcDbLine
10
-75.4811529847386
20
-7.40357206904380
30
0.000000000000000
11
-75.3811529847386
21
-7.39987148952651
31
0.000000000000000
  0
LINE
  5
F105A6
330
F105A7
100
AcDbEntity
8
Geo
100
AcDbLine
10
-75.3811529847386
20
-7.39987148952651
30
0.000000000000000
11
-75.2811529847386
21
-7.39620280422034
31
0.000000000000000
  0
LINE
  5
F105A8
330
F105A9
100
AcDbEntity
8
Geo
100
AcDbLine
10
-75.2811529847386
20
-7.39620280422034
30
0.000000000000000
11
-75.1811529847386
21
-7.39257223269551
31
0.000000000000000
  0
LINE
  5
F105AA
330
F105AB
100
AcDbEntity
8
Geo
100
AcDbLine
10
-75.1811529847386
20
-7.39257223269551
30
0.000000000000000
11
-75.0811529847386
21
-7.38898580985823
31
0.000000000000000
  0
LINE
  5
F105AC
330
F105AD
100
AcDbEntity
8
Geo
100
AcDbLine
10
-75.0811529847386
20
-7.38898580985823
30
0.000000000000000
11
-74.9811529847386
21
-7.38544938622608
31
0.000000000000000
  0
LINE
  5
F105AE
330
F105AF
100
AcDbEntity
8
Geo
100
AcDbLine
10
-74.9811529847386
20
-7.38544938622608
30
0.000000000000000
11
-74.8811529847386
21
-7.38196862821469
31
0.000000000000000
  0
LINE
  5
F105B0
330
F105B1
100
AcDbEntity
8
Geo
100
AcDbLine
10
-74.8811529847386
20
-7.38196862821469
30
0.000000000000000
11
-74.7811529847386
21
-7.37854901843387
31
0.000000000000000
  0
LINE
  5
F105B2
330
F105B3
100
AcDbEntity
8
Geo
100
AcDbLine
10
-74.7811529847386
20
-7.37854901843387
30
0.000000000000000
11
-74.6811529847386
21
-7.37519585599165
31
0.000000000000000
  0
LINE
  5
F105B4
330
F105B5
100
AcDbEntity
8
Geo
100
AcDbLine
10
-74.6811529847386
20
-7.37519585599165
30
0.000000000000000
11
-74.5811529847386
21
-7.37191425680425
31
0.000000000000000
  0
LINE
  5
F105B6
330
F105B7
100
AcDbEntity
8
Geo
100
AcDbLine
10
-74.5811529847386
20
-7.37191425680425
30
0.000000000000000
11
-74.4811529847386
21
-7.36870915391073
31
0.000000000000000
  0
LINE
  5
F105B8
330
F105B9
100
AcDbEntity
8
Geo
100
AcDbLine
10
-74.4811529847386
20
-7.36870915391073
30
0.000000000000000
11
-74.3811529847386
21
-7.36558529779043
31
0.000000000000000
  0
LINE
  5
F105BA
330
F105BB
100
AcDbEntity
8
Geo
100
AcDbLine
10
-74.3811529847386
20
-7.36558529779043
30
0.000000000000000
11
-74.2811529847386
21
-7.36254725668195
31
0.000000000000000
  0
LINE
  5
F105BC
330
F105BD
100
AcDbEntity
8
Geo
100
AcDbLine
10
-74.2811529847386
20
-7.36254725668195
30
0.000000000000000
11
-74.1811529847386
21
-7.35959941690201
31
0.000000000000000
  0
LINE
  5
F105BE
330
F105BF
100
AcDbEntity
8
Geo
100
AcDbLine
10
-74.1811529847386
20
-7.35959941690201
30
0.000000000000000
11
-74.0811529847386
21
-7.35674598316302
31
0.000000000000000
  0
LINE
  5
F105C0
330
F105C1
100
AcDbEntity
8
Geo
100
AcDbLine
10
-74.0811529847386
20
-7.35674598316302
30
0.000000000000000
11
-73.9811529847386
21
-7.35399097888779
31
0.000000000000000
  0
LINE
  5
F105C2
330
F105C3
100
AcDbEntity
8
Geo
100
AcDbLine
10
-73.9811529847386
20
-7.35399097888779
30
0.000000000000000
11
-73.8811529847386
21
-7.35133824652035
31
0.000000000000000
  0
LINE
  5
F105C4
330
F105C5
100
AcDbEntity
8
Geo
100
AcDbLine
10
-73.8811529847386
20
-7.35133824652035
30
0.000000000000000
11
-73.7811529847386
21
-7.34879144783139
31
0.000000000000000
  0
LINE
  5
F105C6
330
F105C7
100
AcDbEntity
8
Geo
100
AcDbLine
10
-73.7811529847386
20
-7.34879144783139
30
0.000000000000000
11
-73.6811529847386
21
-7.34635406421740
31
0.000000000000000
  0
LINE
  5
F105C8
330
F105C9
100
AcDbEntity
8
Geo
100
AcDbLine
10
-73.6811529847386
20
-7.34635406421740
30
0.000000000000000
11
-73.5811529847386
21
-7.34402939699223
31
0.000000000000000
  0
LINE
  5
F105CA
330
F105CB
100
AcDbEntity
8
Geo
100
AcDbLine
10
-73.5811529847386
20
-7.34402939699223
30
0.000000000000000
11
-73.4811529847386
21
-7.34182056767008
31
0.000000000000000
  0
LINE
  5
F105CC
330
F105CD
100
AcDbEntity
8
Geo
100
AcDbLine
10
-73.4811529847386
20
-7.34182056767008
30
0.000000000000000
11
-73.3811529847386
21
-7.33973051823891
31
0.000000000000000
  0
LINE
  5
F105CE
330
F105CF
100
AcDbEntity
8
Geo
100
AcDbLine
10
-73.3811529847386
20
-7.33973051823891
30
0.000000000000000
11
-73.2811529847386
21
-7.33776201142333
31
0.000000000000000
  0
LINE
  5
F105D0
330
F105D1
100
AcDbEntity
8
Geo
100
AcDbLine
10
-73.2811529847386
20
-7.33776201142333
30
0.000000000000000
11
-73.1811529847386
21
-7.33591763093604
31
0.000000000000000
  0
LINE
  5
F105D2
330
F105D3
100
AcDbEntity
8
Geo
100
AcDbLine
10
-73.1811529847386
20
-7.33591763093604
30
0.000000000000000
11
-73.0811529847386
21
-7.33419978171705
31
0.000000000000000
  0
LINE
  5
F105D4
330
F105D5
100
AcDbEntity
8
Geo
100
AcDbLine
10
-73.0811529847386
20
-7.33419978171705
30
0.000000000000000
11
-72.9811529847386
21
-7.33261069015979
31
0.000000000000000
  0
LINE
  5
F105D6
330
F105D7
100
AcDbEntity
8
Geo
100
AcDbLine
10
-72.9811529847386
20
-7.33261069015979
30
0.000000000000000
11
-72.8811529847386
21
-7.33115240432352
31
0.000000000000000
  0
LINE
  5
F105D8
330
F105D9
100
AcDbEntity
8
Geo
100
AcDbLine
10
-72.8811529847386
20
-7.33115240432352
30
0.000000000000000
11
-72.7811529847386
21
-7.32982679413128
31
0.000000000000000
  0
LINE
  5
F105DA
330
F105DB
100
AcDbEntity
8
Geo
100
AcDbLine
10
-72.7811529847386
20
-7.32982679413128
30
0.000000000000000
11
-72.6811529847386
21
-7.32863555155267
31
0.000000000000000
  0
LINE
  5
F105DC
330
F105DD
100
AcDbEntity
8
Geo
100
AcDbLine
10
-72.6811529847386
20
-7.32863555155267
30
0.000000000000000
11
-72.5811529847386
21
-7.32758019077120
31
0.000000000000000
  0
LINE
  5
F105DE
330
F105DF
100
AcDbEntity
8
Geo
100
AcDbLine
10
-72.5811529847386
20
-7.32758019077120
30
0.000000000000000
11
-72.4811529847386
21
-7.32666204833525
31
0.000000000000000
  0
LINE
  5
F105E0
330
F105E1
100
AcDbEntity
8
Geo
100
AcDbLine
10
-72.4811529847386
20
-7.32666204833525
30
0.000000000000000
11
-72.3811529847385
21
-7.32588228329263
31
0.000000000000000
  0
LINE
  5
F105E2
330
F105E3
100
AcDbEntity
8
Geo
100
AcDbLine
10
-72.3811529847385
20
-7.32588228329263
30
0.000000000000000
11
-72.2811529847386
21
-7.32524187730805
31
0.000000000000000
  0
LINE
  5
F105E4
330
F105E5
100
AcDbEntity
8
Geo
100
AcDbLine
10
-72.2811529847386
20
-7.32524187730805
30
0.000000000000000
11
-72.1811529847386
21
-7.32474163476314
31
0.000000000000000
  0
LINE
  5
F105E6
330
F105E7
100
AcDbEntity
8
Geo
100
AcDbLine
10
-72.1811529847386
20
-7.32474163476314
30
0.000000000000000
11
-72.0811529847386
21
-7.32438218283904
31
0.000000000000000
  0
LINE
  5
F105E8
330
F105E9
100
AcDbEntity
8
Geo
100
AcDbLine
10
-89.0811529847386
20
5.38648921072227
30
0.000000000000000
11
-88.9811529847386
21
5.79117525982049
31
0.000000000000000
  0
LINE
  5
F105EA
330
F105EB
100
AcDbEntity
8
Geo
100
AcDbLine
10
-89.0811529847386
20
-1.18132249201942
30
0.000000000000000
11
-88.9811529847386
21
-1.42379082133802
31
0.000000000000000
  0
LINE
  5
F105EC
330
F105ED
100
AcDbEntity
8
Geo
100
AcDbLine
10
-88.9811529847386
20
5.79117525982049
30
0.000000000000000
11
-88.8811529847385
21
5.91428831305957
31
0.000000000000000
  0
LINE
  5
F105EE
330
F105EF
100
AcDbEntity
8
Geo
100
AcDbLine
10
-88.9811529847386
20
-1.42379082133802
30
0.000000000000000
11
-88.8811529847385
21
-1.67749955490856
31
0.000000000000000
  0
LINE
  5
F105F0
330
F105F1
100
AcDbEntity
8
Geo
100
AcDbLine
10
-88.8811529847385
20
5.91428831305957
30
0.000000000000000
11
-88.7811529847386
21
5.97730598212672
31
0.000000000000000
  0
LINE
  5
F105F2
330
F105F3
100
AcDbEntity
8
Geo
100
AcDbLine
10
-88.8811529847385
20
-1.67749955490856
30
0.000000000000000
11
-88.7811529847386
21
-1.93628791534832
31
0.000000000000000
  0
LINE
  5
F105F4
330
F105F5
100
AcDbEntity
8
Geo
100
AcDbLine
10
-88.7811529847386
20
5.97730598212672
30
0.000000000000000
11
-88.6811529847385
21
6.00177753139439
31
0.000000000000000
  0
LINE
  5
F105F6
330
F105F7
100
AcDbEntity
8
Geo
100
AcDbLine
10
-88.7811529847386
20
-1.93628791534832
30
0.000000000000000
11
-88.6811529847385
21
-2.19732516047235
31
0.000000000000000
  0
LINE
  5
F105F8
330
F105F9
100
AcDbEntity
8
Geo
100
AcDbLine
10
-88.6811529847385
20
6.00177753139439
30
0.000000000000000
11
-88.5811529847386
21
5.99615098916481
31
0.000000000000000
  0
LINE
  5
F105FA
330
F105FB
100
AcDbEntity
8
Geo
100
AcDbLine
10
-88.6811529847385
20
-2.19732516047235
30
0.000000000000000
11
-88.5811529847386
21
-2.45857263618978
31
0.000000000000000
  0
LINE
  5
F105FC
330
F105FD
100
AcDbEntity
8
Geo
100
AcDbLine
10
-88.5811529847386
20
5.99615098916481
30
0.000000000000000
11
-88.4811529847386
21
5.96481851223670
31
0.000000000000000
  0
LINE
  5
F105FE
330
F105FF
100
AcDbEntity
8
Geo
100
AcDbLine
10
-88.5811529847386
20
-2.45857263618978
30
0.000000000000000
11
-88.4811529847386
21
-2.71833853821605
31
0.000000000000000
  0
LINE
  5
F10600
330
F10601
100
AcDbEntity
8
Geo
100
AcDbLine
10
-88.4811529847386
20
5.96481851223670
30
0.000000000000000
11
-88.3811529847385
21
5.91043790532071
31
0.000000000000000
  0
LINE
  5
F10602
330
F10603
100
AcDbEntity
8
Geo
100
AcDbLine
10
-88.4811529847386
20
-2.71833853821605
30
0.000000000000000
11
-88.3811529847385
21
-2.97511123738003
31
0.000000000000000
  0
LINE
  5
F10604
330
F10605
100
AcDbEntity
8
Geo
100
AcDbLine
10
-88.3811529847385
20
5.91043790532071
30
0.000000000000000
11
-88.2811529847386
21
5.83478347631352
31
0.000000000000000
  0
LINE
  5
F10606
330
F10607
100
AcDbEntity
8
Geo
100
AcDbLine
10
-88.3811529847385
20
-2.97511123738003
30
0.000000000000000
11
-88.2811529847386
21
-3.22747612281522
31
0.000000000000000
  0
LINE
  5
F10608
330
F10609
100
AcDbEntity
8
Geo
100
AcDbLine
10
-88.2811529847386
20
5.83478347631352
30
0.000000000000000
11
-88.1811529847385
21
5.73912252454188
31
0.000000000000000
  0
LINE
  5
F1060A
330
F1060B
100
AcDbEntity
8
Geo
100
AcDbLine
10
-88.2811529847386
20
-3.22747612281522
30
0.000000000000000
11
-88.1811529847385
21
-3.47406417992629
31
0.000000000000000
  0
LINE
  5
F1060C
330
F1060D
100
AcDbEntity
8
Geo
100
AcDbLine
10
-88.1811529847385
20
5.73912252454188
30
0.000000000000000
11
-88.0811529847386
21
5.62440028575827
31
0.000000000000000
  0
LINE
  5
F1060E
330
F1060F
100
AcDbEntity
8
Geo
100
AcDbLine
10
-88.1811529847385
20
-3.47406417992629
30
0.000000000000000
11
-88.0811529847386
21
-3.71351268569096
31
0.000000000000000
  0
LINE
  5
F10610
330
F10611
100
AcDbEntity
8
Geo
100
AcDbLine
10
-88.0811529847386
20
5.62440028575827
30
0.000000000000000
11
-87.9811529847386
21
5.49590309079249
31
0.000000000000000
  0
LINE
  5
F10612
330
F10613
100
AcDbEntity
8
Geo
100
AcDbLine
10
-88.0811529847386
20
-3.71351268569096
30
0.000000000000000
11
-87.9811529847386
21
-3.94648722321088
31
0.000000000000000
  0
LINE
  5
F10614
330
F10615
100
AcDbEntity
8
Geo
100
AcDbLine
10
-87.9811529847386
20
5.49590309079249
30
0.000000000000000
11
-87.8811529847385
21
5.35853608701159
31
0.000000000000000
  0
LINE
  5
F10616
330
F10617
100
AcDbEntity
8
Geo
100
AcDbLine
10
-87.9811529847386
20
-3.94648722321088
30
0.000000000000000
11
-87.8811529847385
21
-4.17434457007279
31
0.000000000000000
  0
LINE
  5
F10618
330
F10619
100
AcDbEntity
8
Geo
100
AcDbLine
10
-87.8811529847385
20
5.35853608701159
30
0.000000000000000
11
-87.7811529847386
21
5.21250275596478
31
0.000000000000000
  0
LINE
  5
F1061A
330
F1061B
100
AcDbEntity
8
Geo
100
AcDbLine
10
-87.8811529847385
20
-4.17434457007279
30
0.000000000000000
11
-87.7811529847386
21
-4.39674720150971
31
0.000000000000000
  0
LINE
  5
F1061C
330
F1061D
100
AcDbEntity
8
Geo
100
AcDbLine
10
-87.7811529847386
20
5.21250275596478
30
0.000000000000000
11
-87.6811529847385
21
5.05801941661967
31
0.000000000000000
  0
LINE
  5
F1061E
330
F1061F
100
AcDbEntity
8
Geo
100
AcDbLine
10
-87.7811529847386
20
-4.39674720150971
30
0.000000000000000
11
-87.6811529847385
21
-4.61336567281692
31
0.000000000000000
  0
LINE
  5
F10620
330
F10621
100
AcDbEntity
8
Geo
100
AcDbLine
10
-87.6811529847385
20
5.05801941661967
30
0.000000000000000
11
-87.5811529847386
21
4.89531490492925
31
0.000000000000000
  0
LINE
  5
F10622
330
F10623
100
AcDbEntity
8
Geo
100
AcDbLine
10
-87.6811529847385
20
-4.61336567281692
30
0.000000000000000
11
-87.5811529847386
21
-4.82387910735799
31
0.000000000000000
  0
LINE
  5
F10624
330
F10625
100
AcDbEntity
8
Geo
100
AcDbLine
10
-87.5811529847386
20
4.89531490492925
30
0.000000000000000
11
-87.4811529847386
21
4.72463023485753
31
0.000000000000000
  0
LINE
  5
F10626
330
F10627
100
AcDbEntity
8
Geo
100
AcDbLine
10
-87.5811529847386
20
-4.82387910735799
30
0.000000000000000
11
-87.4811529847386
21
-5.02797567187880
31
0.000000000000000
  0
LINE
  5
F10628
330
F10629
100
AcDbEntity
8
Geo
100
AcDbLine
10
-87.4811529847386
20
4.72463023485753
30
0.000000000000000
11
-87.3811529847385
21
4.54621824136588
31
0.000000000000000
  0
LINE
  5
F1062A
330
F1062B
100
AcDbEntity
8
Geo
100
AcDbLine
10
-87.4811529847386
20
-5.02797567187880
30
0.000000000000000
11
-87.3811529847385
21
-5.22535303842580
31
0.000000000000000
  0
LINE
  5
F1062C
330
F1062D
100
AcDbEntity
8
Geo
100
AcDbLine
10
-87.3811529847385
20
4.54621824136588
30
0.000000000000000
11
-87.2811529847386
21
4.36034320588899
31
0.000000000000000
  0
LINE
  5
F1062E
330
F1062F
100
AcDbEntity
8
Geo
100
AcDbLine
10
-87.3811529847385
20
-5.22535303842580
30
0.000000000000000
11
-87.2811529847386
21
-5.41571883218392
31
0.000000000000000
  0
LINE
  5
F10630
330
F10631
100
AcDbEntity
8
Geo
100
AcDbLine
10
-87.2811529847386
20
4.36034320588899
30
0.000000000000000
11
-87.1811529847385
21
4.16728046485512
31
0.000000000000000
  0
LINE
  5
F10632
330
F10633
100
AcDbEntity
8
Geo
100
AcDbLine
10
-87.2811529847386
20
-5.41571883218392
30
0.000000000000000
11
-87.1811529847385
21
-5.59879106457097
31
0.000000000000000
  0
LINE
  5
F10634
330
F10635
100
AcDbEntity
8
Geo
100
AcDbLine
10
-87.1811529847385
20
4.16728046485512
30
0.000000000000000
11
-87.0811529847386
21
3.96731600183063
31
0.000000000000000
  0
LINE
  5
F10636
330
F10637
100
AcDbEntity
8
Geo
100
AcDbLine
10
-87.1811529847385
20
-5.59879106457097
30
0.000000000000000
11
-87.0811529847386
21
-5.77429855094697
31
0.000000000000000
  0
LINE
  5
F10638
330
F10639
100
AcDbEntity
8
Geo
100
AcDbLine
10
-87.0811529847386
20
3.96731600183063
30
0.000000000000000
11
-86.9811529847386
21
3.76074602389298
31
0.000000000000000
  0
LINE
  5
F1063A
330
F1063B
100
AcDbEntity
8
Geo
100
AcDbLine
10
-87.0811529847386
20
-5.77429855094697
30
0.000000000000000
11
-86.9811529847386
21
-5.94198131231954
31
0.000000000000000
  0
LINE
  5
F1063C
330
F1063D
100
AcDbEntity
8
Geo
100
AcDbLine
10
-86.9811529847386
20
3.76074602389298
30
0.000000000000000
11
-86.8811529847385
21
3.54787652285954
31
0.000000000000000
  0
LINE
  5
F1063E
330
F1063F
100
AcDbEntity
8
Geo
100
AcDbLine
10
-86.9811529847386
20
-5.94198131231954
30
0.000000000000000
11
-86.8811529847385
21
-6.10159096045043
31
0.000000000000000
  0
LINE
  5
F10640
330
F10641
100
AcDbEntity
8
Geo
100
AcDbLine
10
-86.8811529847385
20
3.54787652285954
30
0.000000000000000
11
-86.7811529847386
21
3.32902282202237
31
0.000000000000000
  0
LINE
  5
F10642
330
F10643
100
AcDbEntity
8
Geo
100
AcDbLine
10
-86.8811529847385
20
-6.10159096045043
30
0.000000000000000
11
-86.7811529847386
21
-6.25289106579266
31
0.000000000000000
  0
LINE
  5
F10644
330
F10645
100
AcDbEntity
8
Geo
100
AcDbLine
10
-86.7811529847386
20
3.32902282202237
30
0.000000000000000
11
-86.6811529847385
21
3.10450910906030
31
0.000000000000000
  0
LINE
  5
F10646
330
F10647
100
AcDbEntity
8
Geo
100
AcDbLine
10
-86.7811529847386
20
-6.25289106579266
30
0.000000000000000
11
-86.6811529847385
21
-6.39565750771329
31
0.000000000000000
  0
LINE
  5
F10648
330
F10649
100
AcDbEntity
8
Geo
100
AcDbLine
10
-86.6811529847385
20
3.10450910906030
30
0.000000000000000
11
-86.5811529847386
21
2.87466795582011
31
0.000000000000000
  0
LINE
  5
F1064A
330
F1064B
100
AcDbEntity
8
Geo
100
AcDbLine
10
-86.6811529847385
20
-6.39565750771329
30
0.000000000000000
11
-86.5811529847386
21
-6.52967880648297
31
0.000000000000000
  0
LINE
  5
F1064C
330
F1064D
100
AcDbEntity
8
Geo
100
AcDbLine
10
-86.5811529847386
20
2.87466795582011
30
0.000000000000000
11
-86.4811529847386
21
2.63983982567838
31
0.000000000000000
  0
LINE
  5
F1064E
330
F1064F
100
AcDbEntity
8
Geo
100
AcDbLine
10
-86.5811529847386
20
-6.52967880648297
30
0.000000000000000
11
-86.4811529847386
21
-6.65475643654060
31
0.000000000000000
  0
LINE
  5
F10650
330
F10651
100
AcDbEntity
8
Geo
100
AcDbLine
10
-86.4811529847386
20
2.63983982567838
30
0.000000000000000
11
-86.3811529847385
21
2.40037256921356
31
0.000000000000000
  0
LINE
  5
F10652
330
F10653
100
AcDbEntity
8
Geo
100
AcDbLine
10
-86.4811529847386
20
-6.65475643654060
30
0.000000000000000
11
-86.3811529847385
21
-6.77070512056893
31
0.000000000000000
  0
LINE
  5
F10654
330
F10655
100
AcDbEntity
8
Geo
100
AcDbLine
10
-86.3811529847385
20
2.40037256921356
30
0.000000000000000
11
-86.2811529847386
21
2.15662090893537
31
0.000000000000000
  0
LINE
  5
F10656
330
F10657
100
AcDbEntity
8
Geo
100
AcDbLine
10
-86.3811529847385
20
-6.77070512056893
30
0.000000000000000
11
-86.2811529847386
21
-6.87735310394563
31
0.000000000000000
  0
LINE
  5
F10658
330
F10659
100
AcDbEntity
8
Geo
100
AcDbLine
10
-86.2811529847386
20
2.15662090893537
30
0.000000000000000
11
-86.1811529847385
21
1.90894591383486
31
0.000000000000000
  0
LINE
  5
F1065A
330
F1065B
100
AcDbEntity
8
Geo
100
AcDbLine
10
-86.2811529847386
20
-6.87735310394563
30
0.000000000000000
11
-86.1811529847385
21
-6.97454240916312
31
0.000000000000000
  0
LINE
  5
F1065C
330
F1065D
100
AcDbEntity
8
Geo
100
AcDbLine
10
-86.1811529847385
20
1.90894591383486
30
0.000000000000000
11
-86.0811529847386
21
1.65771446453346
31
0.000000000000000
  0
LINE
  5
F1065E
330
F1065F
100
AcDbEntity
8
Geo
100
AcDbLine
10
-86.1811529847385
20
-6.97454240916312
30
0.000000000000000
11
-86.0811529847386
21
-7.06212906984048
31
0.000000000000000
  0
LINE
  5
F10660
330
F10661
100
AcDbEntity
8
Geo
100
AcDbLine
10
-86.0811529847386
20
1.65771446453346
30
0.000000000000000
11
-85.9811529847385
21
1.40329870982317
31
0.000000000000000
  0
LINE
  5
F10662
330
F10663
100
AcDbEntity
8
Geo
100
AcDbLine
10
-86.0811529847386
20
-7.06212906984048
30
0.000000000000000
11
-85.9811529847385
21
-7.13998334398059
31
0.000000000000000
  0
LINE
  5
F10664
330
F10665
100
AcDbEntity
8
Geo
100
AcDbLine
10
-85.9811529847385
20
1.40329870982317
30
0.000000000000000
11
-85.8811529847385
21
1.14607551540310
31
0.000000000000000
  0
LINE
  5
F10666
330
F10667
100
AcDbEntity
8
Geo
100
AcDbLine
10
-85.9811529847385
20
-7.13998334398059
30
0.000000000000000
11
-85.8811529847385
21
-7.20798990615682
31
0.000000000000000
  0
LINE
  5
F10668
330
F10669
100
AcDbEntity
8
Geo
100
AcDbLine
10
-85.8811529847385
20
1.14607551540310
30
0.000000000000000
11
-85.7811529847386
21
0.886425905628880
31
0.000000000000000
  0
LINE
  5
F1066A
330
F1066B
100
AcDbEntity
8
Geo
100
AcDbLine
10
-85.8811529847385
20
-7.20798990615682
30
0.000000000000000
11
-85.7811529847386
21
-7.26604801834442
31
0.000000000000000
  0
LINE
  5
F1066C
330
F1066D
100
AcDbEntity
8
Geo
100
AcDbLine
10
-85.7811529847386
20
0.886425905628880
30
0.000000000000000
11
-85.6811529847385
21
0.624734499101762
31
0.000000000000000
  0
LINE
  5
F1066E
330
F1066F
100
AcDbEntity
8
Geo
100
AcDbLine
10
-85.7811529847386
20
-7.26604801834442
30
0.000000000000000
11
-85.6811529847385
21
-7.31407167914356
31
0.000000000000000
  0
LINE
  5
F10670
330
F10671
100
AcDbEntity
8
Geo
100
AcDbLine
10
-85.6811529847385
20
0.624734499101762
30
0.000000000000000
11
-85.5811529847386
21
0.361388938933660
31
0.000000000000000
  0
LINE
  5
F10672
330
F10673
100
AcDbEntity
8
Geo
100
AcDbLine
10
-85.6811529847385
20
-7.31407167914356
30
0.000000000000000
11
-85.5811529847386
21
-7.35198975117314
31
0.000000000000000
  0
LINE
  5
F10674
330
F10675
100
AcDbEntity
8
Geo
100
AcDbLine
10
-85.5811529847386
20
0.361388938933660
30
0.000000000000000
11
-85.4811529847385
21
0.0967793185319449
31
0.000000000000000
  0
LINE
  5
F10676
330
F10677
100
AcDbEntity
8
Geo
100
AcDbLine
10
-85.5811529847386
20
-7.35198975117314
30
0.000000000000000
11
-85.4811529847385
21
-7.37974606644648
31
0.000000000000000
  0
LINE
  5
F10678
330
F10679
100
AcDbEntity
8
Geo
100
AcDbLine
10
-85.4811529847385
20
0.0967793185319449
30
0.000000000000000
11
-85.3811529847385
21
-0.168702396245367
31
0.000000000000000
  0
LINE
  5
F1067A
330
F1067B
100
AcDbEntity
8
Geo
100
AcDbLine
10
-85.4811529847385
20
-7.37974606644648
30
0.000000000000000
11
-85.3811529847385
21
-7.39729950957284
31
0.000000000000000
  0
LINE
  5
F1067C
330
F1067D
100
AcDbEntity
8
Geo
100
AcDbLine
10
-85.3811529847385
20
-0.168702396245367
30
0.000000000000000
11
-85.2811529847386
21
-0.434662947708090
31
0.000000000000000
  0
LINE
  5
F1067E
330
F1067F
100
AcDbEntity
8
Geo
100
AcDbLine
10
-85.3811529847385
20
-7.39729950957284
30
0.000000000000000
11
-85.2811529847386
21
-7.40462407866165
31
0.000000000000000
  0
LINE
  5
F10680
330
F10681
100
AcDbEntity
8
Geo
100
AcDbLine
10
-85.2811529847386
20
-0.434662947708090
30
0.000000000000000
11
-85.1811529847385
21
-0.700708368865932
31
0.000000000000000
  0
LINE
  5
F10682
330
F10683
100
AcDbEntity
8
Geo
100
AcDbLine
10
-85.1811529847385
20
-0.700708368865932
30
0.000000000000000
11
-85.0811529847386
21
-0.966444567011235
31
0.000000000000000
  0
LINE
  5
F10684
330
F10685
100
AcDbEntity
8
Geo
100
AcDbLine
10
-85.1811529847385
20
6.41779479401728
30
0.000000000000000
11
-85.0811529847386
21
6.40464423349797
31
0.000000000000000
  0
LINE
  5
F10686
330
F10687
100
AcDbEntity
8
Geo
100
AcDbLine
10
-85.0811529847386
20
-0.966444567011235
30
0.000000000000000
11
-84.9811529847385
21
-1.23147790748796
31
0.000000000000000
  0
LINE
  5
F10688
330
F10689
100
AcDbEntity
8
Geo
100
AcDbLine
10
-85.0811529847386
20
6.40464423349797
30
0.000000000000000
11
-84.9811529847385
21
6.38127774718875
31
0.000000000000000
  0
LINE
  5
F1068A
330
F1068B
100
AcDbEntity
8
Geo
100
AcDbLine
10
-84.9811529847385
20
-1.23147790748796
30
0.000000000000000
11
-84.8811529847385
21
-1.49541579678215
31
0.000000000000000
  0
LINE
  5
F1068C
330
F1068D
100
AcDbEntity
8
Geo
100
AcDbLine
10
-84.9811529847385
20
6.38127774718875
30
0.000000000000000
11
-84.8811529847385
21
6.34772994783286
31
0.000000000000000
  0
LINE
  5
F1068E
330
F1068F
100
AcDbEntity
8
Geo
100
AcDbLine
10
-84.8811529847385
20
-1.49541579678215
30
0.000000000000000
11
-84.7811529847386
21
-1.75786726407012
31
0.000000000000000
  0
LINE
  5
F10690
330
F10691
100
AcDbEntity
8
Geo
100
AcDbLine
10
-84.8811529847385
20
6.34772994783286
30
0.000000000000000
11
-84.7811529847386
21
6.30405052973826
31
0.000000000000000
  0
LINE
  5
F10692
330
F10693
100
AcDbEntity
8
Geo
100
AcDbLine
10
-84.7811529847386
20
-1.75786726407012
30
0.000000000000000
11
-84.6811529847385
21
-2.01844354036303
31
0.000000000000000
  0
LINE
  5
F10694
330
F10695
100
AcDbEntity
8
Geo
100
AcDbLine
10
-84.7811529847386
20
6.30405052973826
30
0.000000000000000
11
-84.6811529847385
21
6.25030419516543
31
0.000000000000000
  0
LINE
  5
F10696
330
F10697
100
AcDbEntity
8
Geo
100
AcDbLine
10
-84.6811529847385
20
-2.01844354036303
30
0.000000000000000
11
-84.5811529847386
21
-2.27675863438980
31
0.000000000000000
  0
LINE
  5
F10698
330
F10699
100
AcDbEntity
8
Geo
100
AcDbLine
10
-84.6811529847385
20
6.25030419516543
30
0.000000000000000
11
-84.5811529847386
21
6.18657055848409
31
0.000000000000000
  0
LINE
  5
F1069A
330
F1069B
100
AcDbEntity
8
Geo
100
AcDbLine
10
-84.5811529847386
20
-2.27675863438980
30
0.000000000000000
11
-84.4811529847386
21
-2.53242990436549
31
0.000000000000000
  0
LINE
  5
F1069C
330
F1069D
100
AcDbEntity
8
Geo
100
AcDbLine
10
-84.5811529847386
20
6.18657055848409
30
0.000000000000000
11
-84.4811529847386
21
6.11294402824049
31
0.000000000000000
  0
LINE
  5
F1069E
330
F1069F
100
AcDbEntity
8
Geo
100
AcDbLine
10
-84.4811529847386
20
-2.53242990436549
30
0.000000000000000
11
-84.3811529847385
21
-2.78507862479796
31
0.000000000000000
  0
LINE
  5
F106A0
330
F106A1
100
AcDbEntity
8
Geo
100
AcDbLine
10
-84.4811529847386
20
6.11294402824049
30
0.000000000000000
11
-84.3811529847385
21
6.02953366731018
31
0.000000000000000
  0
LINE
  5
F106A2
330
F106A3
100
AcDbEntity
8
Geo
100
AcDbLine
10
-84.3811529847385
20
-2.78507862479796
30
0.000000000000000
11
-84.2811529847386
21
-3.03433054749349
31
0.000000000000000
  0
LINE
  5
F106A4
330
F106A5
100
AcDbEntity
8
Geo
100
AcDbLine
10
-84.3811529847385
20
6.02953366731018
30
0.000000000000000
11
-84.2811529847386
21
5.93646303134332
31
0.000000000000000
  0
LINE
  5
F106A6
330
F106A7
100
AcDbEntity
8
Geo
100
AcDbLine
10
-84.2811529847386
20
-3.03433054749349
30
0.000000000000000
11
-84.1811529847386
21
-3.27981645593004
31
0.000000000000000
  0
LINE
  5
F106A8
330
F106A9
100
AcDbEntity
8
Geo
100
AcDbLine
10
-84.2811529847386
20
5.93646303134332
30
0.000000000000000
11
-84.1811529847386
21
5.83386998574190
31
0.000000000000000
  0
LINE
  5
F106AA
330
F106AB
100
AcDbEntity
8
Geo
100
AcDbLine
10
-84.1811529847386
20
-3.27981645593004
30
0.000000000000000
11
-84.0811529847386
21
-3.52117271217719
31
0.000000000000000
  0
LINE
  5
F106AC
330
F106AD
100
AcDbEntity
8
Geo
100
AcDbLine
10
-84.1811529847386
20
5.83386998574190
30
0.000000000000000
11
-84.0811529847386
21
5.72190650143986
31
0.000000000000000
  0
LINE
  5
F106AE
330
F106AF
100
AcDbEntity
8
Geo
100
AcDbLine
10
-84.0811529847386
20
-3.52117271217719
30
0.000000000000000
11
-83.9811529847386
21
-3.75804179555249
31
0.000000000000000
  0
LINE
  5
F106B0
330
F106B1
100
AcDbEntity
8
Geo
100
AcDbLine
10
-84.0811529847386
20
5.72190650143986
30
0.000000000000000
11
-83.9811529847386
21
5.60073842978880
31
0.000000000000000
  0
LINE
  5
F106B2
330
F106B3
100
AcDbEntity
8
Geo
100
AcDbLine
10
-83.9811529847386
20
-3.75804179555249
30
0.000000000000000
11
-83.8811529847385
21
-3.99007283221636
31
0.000000000000000
  0
LINE
  5
F106B4
330
F106B5
100
AcDbEntity
8
Geo
100
AcDbLine
10
-83.9811529847386
20
5.60073842978880
30
0.000000000000000
11
-83.8811529847385
21
5.47054525688262
31
0.000000000000000
  0
LINE
  5
F106B6
330
F106B7
100
AcDbEntity
8
Geo
100
AcDbLine
10
-83.8811529847385
20
-3.99007283221636
30
0.000000000000000
11
-83.7811529847386
21
-4.21692211492100
31
0.000000000000000
  0
LINE
  5
F106B8
330
F106B9
100
AcDbEntity
8
Geo
100
AcDbLine
10
-83.8811529847385
20
5.47054525688262
30
0.000000000000000
11
-83.7811529847386
21
5.33151983768496
31
0.000000000000000
  0
LINE
  5
F106BA
330
F106BB
100
AcDbEntity
8
Geo
100
AcDbLine
10
-83.7811529847386
20
-4.21692211492100
30
0.000000000000000
11
-83.6811529847386
21
-4.43825361214342
31
0.000000000000000
  0
LINE
  5
F106BC
330
F106BD
100
AcDbEntity
8
Geo
100
AcDbLine
10
-83.7811529847386
20
5.33151983768496
30
0.000000000000000
11
-83.6811529847386
21
5.18386811035347
31
0.000000000000000
  0
LINE
  5
F106BE
330
F106BF
100
AcDbEntity
8
Geo
100
AcDbLine
10
-83.6811529847386
20
-4.43825361214342
30
0.000000000000000
11
-83.5811529847386
21
-4.65373946584854
31
0.000000000000000
  0
LINE
  5
F106C0
330
F106C1
100
AcDbEntity
8
Geo
100
AcDbLine
10
-83.6811529847386
20
5.18386811035347
30
0.000000000000000
11
-83.5811529847386
21
5.02780879118390
31
0.000000000000000
  0
LINE
  5
F106C2
330
F106C3
100
AcDbEntity
8
Geo
100
AcDbLine
10
-83.5811529847386
20
-4.65373946584854
30
0.000000000000000
11
-83.4811529847386
21
-4.86306047714474
31
0.000000000000000
  0
LINE
  5
F106C4
330
F106C5
100
AcDbEntity
8
Geo
100
AcDbLine
10
-83.5811529847386
20
5.02780879118390
30
0.000000000000000
11
-83.4811529847386
21
4.86357305062592
31
0.000000000000000
  0
LINE
  5
F106C6
330
F106C7
100
AcDbEntity
8
Geo
100
AcDbLine
10
-83.4811529847386
20
-4.86306047714474
30
0.000000000000000
11
-83.3811529847385
21
-5.06590657911282
31
0.000000000000000
  0
LINE
  5
F106C8
330
F106C9
100
AcDbEntity
8
Geo
100
AcDbLine
10
-83.4811529847386
20
4.86357305062592
30
0.000000000000000
11
-83.3811529847385
21
4.69140417085071
31
0.000000000000000
  0
LINE
  5
F106CA
330
F106CB
100
AcDbEntity
8
Geo
100
AcDbLine
10
-83.3811529847385
20
-5.06590657911282
30
0.000000000000000
11
-83.2811529847386
21
-5.26197729610762
31
0.000000000000000
  0
LINE
  5
F106CC
330
F106CD
100
AcDbEntity
8
Geo
100
AcDbLine
10
-83.3811529847385
20
4.69140417085071
30
0.000000000000000
11
-83.2811529847386
21
4.51155718537740
31
0.000000000000000
  0
LINE
  5
F106CE
330
F106CF
100
AcDbEntity
8
Geo
100
AcDbLine
10
-83.2811529847386
20
-5.26197729610762
30
0.000000000000000
11
-83.1811529847386
21
-5.45098218885221
31
0.000000000000000
  0
LINE
  5
F106D0
330
F106D1
100
AcDbEntity
8
Geo
100
AcDbLine
10
-83.2811529847386
20
4.51155718537740
30
0.000000000000000
11
-83.1811529847386
21
4.32429850129227
31
0.000000000000000
  0
LINE
  5
F106D2
330
F106D3
100
AcDbEntity
8
Geo
100
AcDbLine
10
-83.1811529847386
20
-5.45098218885221
30
0.000000000000000
11
-83.0811529847386
21
-5.63264128466517
31
0.000000000000000
  0
LINE
  5
F106D4
330
F106D5
100
AcDbEntity
8
Geo
100
AcDbLine
10
-83.1811529847386
20
4.32429850129227
30
0.000000000000000
11
-83.0811529847386
21
4.12990550462030
31
0.000000000000000
  0
LINE
  5
F106D6
330
F106D7
100
AcDbEntity
8
Geo
100
AcDbLine
10
-83.0811529847386
20
-5.63264128466517
30
0.000000000000000
11
-82.9811529847386
21
-5.80668549218373
31
0.000000000000000
  0
LINE
  5
F106D8
330
F106D9
100
AcDbEntity
8
Geo
100
AcDbLine
10
-83.0811529847386
20
4.12990550462030
30
0.000000000000000
11
-82.9811529847386
21
3.92866614943367
31
0.000000000000000
  0
LINE
  5
F106DA
330
F106DB
100
AcDbEntity
8
Geo
100
AcDbLine
10
-82.9811529847386
20
-5.80668549218373
30
0.000000000000000
11
-82.8811529847386
21
-5.97285699996842
31
0.000000000000000
  0
LINE
  5
F106DC
330
F106DD
100
AcDbEntity
8
Geo
100
AcDbLine
10
-82.9811529847386
20
3.92866614943367
30
0.000000000000000
11
-82.8811529847386
21
3.72087853130579
31
0.000000000000000
  0
LINE
  5
F106DE
330
F106DF
100
AcDbEntity
8
Geo
100
AcDbLine
10
-82.8811529847386
20
-5.97285699996842
30
0.000000000000000
11
-82.7811529847386
21
-6.13090965839880
31
0.000000000000000
  0
LINE
  5
F106E0
330
F106E1
100
AcDbEntity
8
Geo
100
AcDbLine
10
-82.8811529847386
20
3.72087853130579
30
0.000000000000000
11
-82.7811529847386
21
3.50685044574275
31
0.000000000000000
  0
LINE
  5
F106E2
330
F106E3
100
AcDbEntity
8
Geo
100
AcDbLine
10
-82.7811529847386
20
-6.13090965839880
30
0.000000000000000
11
-82.6811529847386
21
-6.28060934429455
31
0.000000000000000
  0
LINE
  5
F106E4
330
F106E5
100
AcDbEntity
8
Geo
100
AcDbLine
10
-82.7811529847386
20
3.50685044574275
30
0.000000000000000
11
-82.6811529847386
21
3.28689893224624
31
0.000000000000000
  0
LINE
  5
F106E6
330
F106E7
100
AcDbEntity
8
Geo
100
AcDbLine
10
-82.6811529847386
20
-6.28060934429455
30
0.000000000000000
11
-82.5811529847386
21
-6.42173430772178
31
0.000000000000000
  0
LINE
  5
F106E8
330
F106E9
100
AcDbEntity
8
Geo
100
AcDbLine
10
-82.6811529847386
20
3.28689893224624
30
0.000000000000000
11
-82.5811529847386
21
3.06134980468341
31
0.000000000000000
  0
LINE
  5
F106EA
330
F106EB
100
AcDbEntity
8
Geo
100
AcDbLine
10
-82.5811529847386
20
-6.42173430772178
30
0.000000000000000
11
-82.4811529847386
21
-6.55407550047095
31
0.000000000000000
  0
LINE
  5
F106EC
330
F106ED
100
AcDbEntity
8
Geo
100
AcDbLine
10
-82.5811529847386
20
3.06134980468341
30
0.000000000000000
11
-82.4811529847386
21
2.83053716865925
31
0.000000000000000
  0
LINE
  5
F106EE
330
F106EF
100
AcDbEntity
8
Geo
100
AcDbLine
10
-82.4811529847386
20
-6.55407550047095
30
0.000000000000000
11
-82.3811529847386
21
-6.67743688571962
31
0.000000000000000
  0
LINE
  5
F106F0
330
F106F1
100
AcDbEntity
8
Geo
100
AcDbLine
10
-82.4811529847386
20
2.83053716865925
30
0.000000000000000
11
-82.3811529847386
21
2.59480292660643
31
0.000000000000000
  0
LINE
  5
F106F2
330
F106F3
100
AcDbEntity
8
Geo
100
AcDbLine
10
-82.3811529847386
20
-6.67743688571962
30
0.000000000000000
11
-82.2811529847386
21
-6.79163572842157
31
0.000000000000000
  0
LINE
  5
F106F4
330
F106F5
100
AcDbEntity
8
Geo
100
AcDbLine
10
-82.3811529847386
20
2.59480292660643
30
0.000000000000000
11
-82.2811529847386
21
2.35449627132567
31
0.000000000000000
  0
LINE
  5
F106F6
330
F106F7
100
AcDbEntity
8
Geo
100
AcDbLine
10
-82.2811529847386
20
-6.79163572842157
30
0.000000000000000
11
-82.1811529847386
21
-6.89650286599196
31
0.000000000000000
  0
LINE
  5
F106F8
330
F106F9
100
AcDbEntity
8
Geo
100
AcDbLine
10
-82.2811529847386
20
2.35449627132567
30
0.000000000000000
11
-82.1811529847386
21
2.10997316872699
31
0.000000000000000
  0
LINE
  5
F106FA
330
F106FB
100
AcDbEntity
8
Geo
100
AcDbLine
10
-82.1811529847386
20
-6.89650286599196
30
0.000000000000000
11
-82.0811529847386
21
-6.99188295888759
31
0.000000000000000
  0
LINE
  5
F106FC
330
F106FD
100
AcDbEntity
8
Geo
100
AcDbLine
10
-82.1811529847386
20
2.10997316872699
30
0.000000000000000
11
-82.0811529847386
21
1.86159583053786
31
0.000000000000000
  0
LINE
  5
F106FE
330
F106FF
100
AcDbEntity
8
Geo
100
AcDbLine
10
-82.0811529847386
20
-6.99188295888759
30
0.000000000000000
11
-81.9811529847386
21
-7.07763472071119
31
0.000000000000000
  0
LINE
  5
F10700
330
F10701
100
AcDbEntity
8
Geo
100
AcDbLine
10
-82.0811529847386
20
1.86159583053786
30
0.000000000000000
11
-81.9811529847386
21
1.60973217775954
31
0.000000000000000
  0
LINE
  5
F10702
330
F10703
100
AcDbEntity
8
Geo
100
AcDbLine
10
-81.9811529847386
20
-7.07763472071119
30
0.000000000000000
11
-81.8811529847386
21
-7.15363112749876
31
0.000000000000000
  0
LINE
  5
F10704
330
F10705
100
AcDbEntity
8
Geo
100
AcDbLine
10
-81.9811529847386
20
1.60973217775954
30
0.000000000000000
11
-81.8811529847386
21
1.35475529566614
31
0.000000000000000
  0
LINE
  5
F10706
330
F10707
100
AcDbEntity
8
Geo
100
AcDbLine
10
-81.8811529847386
20
-7.15363112749876
30
0.000000000000000
11
-81.7811529847386
21
-7.21975960587995
31
0.000000000000000
  0
LINE
  5
F10708
330
F10709
100
AcDbEntity
8
Geo
100
AcDbLine
10
-81.8811529847386
20
1.35475529566614
30
0.000000000000000
11
-81.7811529847386
21
1.09704288115400
31
0.000000000000000
  0
LINE
  5
F1070A
330
F1070B
100
AcDbEntity
8
Geo
100
AcDbLine
10
-81.7811529847386
20
-7.21975960587995
30
0.000000000000000
11
-81.6811529847386
21
-7.27592219983288
31
0.000000000000000
  0
LINE
  5
F1070C
330
F1070D
100
AcDbEntity
8
Geo
100
AcDbLine
10
-81.7811529847386
20
1.09704288115400
30
0.000000000000000
11
-81.6811529847386
21
0.836976683259749
31
0.000000000000000
  0
LINE
  5
F1070E
330
F1070F
100
AcDbEntity
8
Geo
100
AcDbLine
10
-81.6811529847386
20
-7.27592219983288
30
0.000000000000000
11
-81.5811529847386
21
-7.32203571578622
31
0.000000000000000
  0
LINE
  5
F10710
330
F10711
100
AcDbEntity
8
Geo
100
AcDbLine
10
-81.6811529847386
20
0.836976683259749
30
0.000000000000000
11
-81.5811529847386
21
0.574941937676052
31
0.000000000000000
  0
LINE
  5
F10712
330
F10713
100
AcDbEntity
8
Geo
100
AcDbLine
10
-81.5811529847386
20
-7.32203571578622
30
0.000000000000000
11
-81.4811529847386
21
-7.35803184585374
31
0.000000000000000
  0
LINE
  5
F10714
330
F10715
100
AcDbEntity
8
Geo
100
AcDbLine
10
-81.5811529847386
20
0.574941937676052
30
0.000000000000000
11
-81.4811529847386
21
0.311326796102481
31
0.000000000000000
  0
LINE
  5
F10716
330
F10717
100
AcDbEntity
8
Geo
100
AcDbLine
10
-81.4811529847386
20
-7.35803184585374
30
0.000000000000000
11
-81.3811529847386
21
-7.38385726901867
31
0.000000000000000
  0
LINE
  5
F10718
330
F10719
100
AcDbEntity
8
Geo
100
AcDbLine
10
-81.4811529847386
20
0.311326796102481
30
0.000000000000000
11
-81.3811529847386
21
0.0465217512769578
31
0.000000000000000
  0
LINE
  5
F1071A
330
F1071B
100
AcDbEntity
8
Geo
100
AcDbLine
10
-81.3811529847386
20
-7.38385726901867
30
0.000000000000000
11
-81.2811529847386
21
-7.39947373011805
31
0.000000000000000
  0
LINE
  5
F1071C
330
F1071D
100
AcDbEntity
8
Geo
100
AcDbLine
10
-81.3811529847386
20
0.0465217512769578
30
0.000000000000000
11
-81.2811529847386
21
-0.219080941460565
31
0.000000000000000
  0
LINE
  5
F1071E
330
F1071F
100
AcDbEntity
8
Geo
100
AcDbLine
10
-81.2811529847386
20
-7.39947373011805
30
0.000000000000000
11
-81.1811529847386
21
-7.40485809651005
31
0.000000000000000
  0
LINE
  5
F10720
330
F10721
100
AcDbEntity
8
Geo
100
AcDbLine
10
-81.2811529847386
20
-0.219080941460565
30
0.000000000000000
11
-81.1811529847386
21
-0.485087845215428
31
0.000000000000000
  0
LINE
  5
F10722
330
F10723
100
AcDbEntity
8
Geo
100
AcDbLine
10
-81.1811529847386
20
-0.485087845215428
30
0.000000000000000
11
-81.0811529847386
21
-0.751104924335750
31
0.000000000000000
  0
LINE
  5
F10724
330
F10725
100
AcDbEntity
8
Geo
100
AcDbLine
10
-81.0811529847386
20
6.41608826251855
30
0.000000000000000
11
-80.9811529847386
21
6.40099968053483
31
0.000000000000000
  0
LINE
  5
F10726
330
F10727
100
AcDbEntity
8
Geo
100
AcDbLine
10
-81.0811529847386
20
-0.751104924335750
30
0.000000000000000
11
-80.9811529847386
21
-1.01673812809690
31
0.000000000000000
  0
LINE
  5
F10728
330
F10729
100
AcDbEntity
8
Geo
100
AcDbLine
10
-80.9811529847386
20
6.40099968053483
30
0.000000000000000
11
-80.8811529847386
21
6.37570057143235
31
0.000000000000000
  0
LINE
  5
F1072A
330
F1072B
100
AcDbEntity
8
Geo
100
AcDbLine
10
-80.9811529847386
20
-1.01673812809690
30
0.000000000000000
11
-80.8811529847386
21
-1.28159397440828
31
0.000000000000000
  0
LINE
  5
F1072C
330
F1072D
100
AcDbEntity
8
Geo
100
AcDbLine
10
-80.8811529847386
20
6.37570057143235
30
0.000000000000000
11
-80.7811529847386
21
6.34022841074581
31
0.000000000000000
  0
LINE
  5
F1072E
330
F1072F
100
AcDbEntity
8
Geo
100
AcDbLine
10
-80.8811529847386
20
-1.28159397440828
30
0.000000000000000
11
-80.7811529847386
21
-1.54528013267776
31
0.000000000000000
  0
LINE
  5
F10730
330
F10731
100
AcDbEntity
8
Geo
100
AcDbLine
10
-80.7811529847386
20
6.34022841074581
30
0.000000000000000
11
-80.6811529847386
21
6.29463574333688
31
0.000000000000000
  0
LINE
  5
F10732
330
F10733
100
AcDbEntity
8
Geo
100
AcDbLine
10
-80.7811529847386
20
-1.54528013267776
30
0.000000000000000
11
-80.6811529847386
21
-1.80740600497050
31
0.000000000000000
  0
LINE
  5
F10734
330
F10735
100
AcDbEntity
8
Geo
100
AcDbLine
10
-80.6811529847386
20
6.29463574333688
30
0.000000000000000
11
-80.5811529847386
21
6.23899010555956
31
0.000000000000000
  0
LINE
  5
F10736
330
F10737
100
AcDbEntity
8
Geo
100
AcDbLine
10
-80.6811529847386
20
-1.80740600497050
30
0.000000000000000
11
-80.5811529847386
21
-2.06758330460105
31
0.000000000000000
  0
LINE
  5
F10738
330
F10739
100
AcDbEntity
8
Geo
100
AcDbLine
10
-80.5811529847386
20
6.23899010555956
30
0.000000000000000
11
-80.4811529847386
21
6.17337392521872
31
0.000000000000000
  0
LINE
  5
F1073A
330
F1073B
100
AcDbEntity
8
Geo
100
AcDbLine
10
-80.5811529847386
20
-2.06758330460105
30
0.000000000000000
11
-80.4811529847386
21
-2.32542663130192
31
0.000000000000000
  0
LINE
  5
F1073C
330
F1073D
100
AcDbEntity
8
Geo
100
AcDbLine
10
-80.4811529847386
20
6.17337392521872
30
0.000000000000000
11
-80.3811529847386
21
6.09788439946989
31
0.000000000000000
  0
LINE
  5
F1073E
330
F1073F
100
AcDbEntity
8
Geo
100
AcDbLine
10
-80.4811529847386
20
-2.32542663130192
30
0.000000000000000
11
-80.3811529847386
21
-2.58055404211642
31
0.000000000000000
  0
LINE
  5
F10740
330
F10741
100
AcDbEntity
8
Geo
100
AcDbLine
10
-80.3811529847386
20
6.09788439946989
30
0.000000000000000
11
-80.2811529847386
21
6.01263335084124
31
0.000000000000000
  0
LINE
  5
F10742
330
F10743
100
AcDbEntity
8
Geo
100
AcDbLine
10
-80.3811529847386
20
-2.58055404211642
30
0.000000000000000
11
-80.2811529847386
21
-2.83258761717023
31
0.000000000000000
  0
LINE
  5
F10744
330
F10745
100
AcDbEntity
8
Geo
100
AcDbLine
10
-80.2811529847386
20
6.01263335084124
30
0.000000000000000
11
-80.1811529847386
21
5.91774706159102
31
0.000000000000000
  0
LINE
  5
F10746
330
F10747
100
AcDbEntity
8
Geo
100
AcDbLine
10
-80.2811529847386
20
-2.83258761717023
30
0.000000000000000
11
-80.1811529847386
21
-3.08115401948361
31
0.000000000000000
  0
LINE
  5
F10748
330
F10749
100
AcDbEntity
8
Geo
100
AcDbLine
10
-80.1811529847386
20
5.91774706159102
30
0.000000000000000
11
-80.0811529847386
21
5.81336608664587
31
0.000000000000000
  0
LINE
  5
F1074A
330
F1074B
100
AcDbEntity
8
Geo
100
AcDbLine
10
-80.1811529847386
20
-3.08115401948361
30
0.000000000000000
11
-80.0811529847386
21
-3.32588504799490
31
0.000000000000000
  0
LINE
  5
F1074C
330
F1074D
100
AcDbEntity
8
Geo
100
AcDbLine
10
-80.0811529847386
20
5.81336608664587
30
0.000000000000000
11
-79.9811529847386
21
5.69964504539696
31
0.000000000000000
  0
LINE
  5
F1074E
330
F1074F
100
AcDbEntity
8
Geo
100
AcDbLine
10
-80.0811529847386
20
-3.32588504799490
30
0.000000000000000
11
-79.9811529847386
21
-3.56641818297624
31
0.000000000000000
  0
LINE
  5
F10750
330
F10751
100
AcDbEntity
8
Geo
100
AcDbLine
10
-79.9811529847386
20
5.69964504539696
30
0.000000000000000
11
-79.8811529847386
21
5.57675239266252
31
0.000000000000000
  0
LINE
  5
F10752
330
F10753
100
AcDbEntity
8
Geo
100
AcDbLine
10
-79.9811529847386
20
-3.56641818297624
30
0.000000000000000
11
-79.8811529847386
21
-3.80239712303358
31
0.000000000000000
  0
LINE
  5
F10754
330
F10755
100
AcDbEntity
8
Geo
100
AcDbLine
10
-79.8811529847386
20
5.57675239266252
30
0.000000000000000
11
-79.7811529847386
21
5.44487016915595
31
0.000000000000000
  0
LINE
  5
F10756
330
F10757
100
AcDbEntity
8
Geo
100
AcDbLine
10
-79.8811529847386
20
-3.80239712303358
30
0.000000000000000
11
-79.7811529847386
21
-4.03347231289536
31
0.000000000000000
  0
LINE
  5
F10758
330
F10759
100
AcDbEntity
8
Geo
100
AcDbLine
10
-79.7811529847386
20
5.44487016915595
30
0.000000000000000
11
-79.6811529847386
21
5.30419373182920
31
0.000000000000000
  0
LINE
  5
F1075A
330
F1075B
100
AcDbEntity
8
Geo
100
AcDbLine
10
-79.7811529847386
20
-4.03347231289536
30
0.000000000000000
11
-79.6811529847386
21
-4.25930146120829
31
0.000000000000000
  0
LINE
  5
F1075C
330
F1075D
100
AcDbEntity
8
Geo
100
AcDbLine
10
-79.6811529847386
20
5.30419373182920
30
0.000000000000000
11
-79.5811529847386
21
5.15493146449075
31
0.000000000000000
  0
LINE
  5
F1075E
330
F1075F
100
AcDbEntity
8
Geo
100
AcDbLine
10
-79.6811529847386
20
-4.25930146120829
30
0.000000000000000
11
-79.5811529847386
21
-4.47955004757305
31
0.000000000000000
  0
LINE
  5
F10760
330
F10761
100
AcDbEntity
8
Geo
100
AcDbLine
10
-79.5811529847386
20
5.15493146449075
30
0.000000000000000
11
-79.4811529847386
21
4.99730446912696
31
0.000000000000000
  0
LINE
  5
F10762
330
F10763
100
AcDbEntity
8
Geo
100
AcDbLine
10
-79.5811529847386
20
-4.47955004757305
30
0.000000000000000
11
-79.4811529847386
21
-4.69389181806885
31
0.000000000000000
  0
LINE
  5
F10764
330
F10765
100
AcDbEntity
8
Geo
100
AcDbLine
10
-79.4811529847386
20
4.99730446912696
30
0.000000000000000
11
-79.3811529847386
21
4.83154623838407
31
0.000000000000000
  0
LINE
  5
F10766
330
F10767
100
AcDbEntity
8
Geo
100
AcDbLine
10
-79.4811529847386
20
-4.69389181806885
30
0.000000000000000
11
-79.3811529847386
21
-4.90200926853297
31
0.000000000000000
  0
LINE
  5
F10768
330
F10769
100
AcDbEntity
8
Geo
100
AcDbLine
10
-79.3811529847386
20
4.83154623838407
30
0.000000000000000
11
-79.2811529847386
21
4.65790230969582
31
0.000000000000000
  0
LINE
  5
F1076A
330
F1076B
100
AcDbEntity
8
Geo
100
AcDbLine
10
-79.3811529847386
20
-4.90200926853297
30
0.000000000000000
11
-79.2811529847386
21
-5.10359411487912
31
0.000000000000000
  0
LINE
  5
F1076C
330
F1076D
100
AcDbEntity
8
Geo
100
AcDbLine
10
-79.2811529847386
20
4.65790230969582
30
0.000000000000000
11
-79.1811529847386
21
4.47662990156921
31
0.000000000000000
  0
LINE
  5
F1076E
330
F1076F
100
AcDbEntity
8
Geo
100
AcDbLine
10
-79.2811529847386
20
-5.10359411487912
30
0.000000000000000
11
-79.1811529847386
21
-5.29834774975834
31
0.000000000000000
  0
LINE
  5
F10770
330
F10771
100
AcDbEntity
8
Geo
100
AcDbLine
10
-79.1811529847386
20
4.47662990156921
30
0.000000000000000
11
-79.0811529847386
21
4.28799753256708
31
0.000000000000000
  0
LINE
  5
F10772
330
F10773
100
AcDbEntity
8
Geo
100
AcDbLine
10
-79.1811529847386
20
-5.29834774975834
30
0.000000000000000
11
-79.0811529847386
21
-5.48598168488559
31
0.000000000000000
  0
LINE
  5
F10774
330
F10775
100
AcDbEntity
8
Geo
100
AcDbLine
10
-79.0811529847386
20
4.28799753256708
30
0.000000000000000
11
-78.9811529847386
21
4.09228462355196
31
0.000000000000000
  0
LINE
  5
F10776
330
F10777
100
AcDbEntity
8
Geo
100
AcDbLine
10
-79.0811529847386
20
-5.48598168488559
30
0.000000000000000
11
-78.9811529847386
21
-5.66621797837703
31
0.000000000000000
  0
LINE
  5
F10778
330
F10779
100
AcDbEntity
8
Geo
100
AcDbLine
10
-78.9811529847386
20
4.09228462355196
30
0.000000000000000
11
-78.8811529847386
21
3.88978108378033
31
0.000000000000000
  0
LINE
  5
F1077A
330
F1077B
100
AcDbEntity
8
Geo
100
AcDbLine
10
-78.9811529847386
20
-5.66621797837703
30
0.000000000000000
11
-78.8811529847386
21
-5.83878964646496
31
0.000000000000000
  0
LINE
  5
F1077C
330
F1077D
100
AcDbEntity
8
Geo
100
AcDbLine
10
-78.8811529847386
20
3.88978108378033
30
0.000000000000000
11
-78.7811529847386
21
3.68078688146044
31
0.000000000000000
  0
LINE
  5
F1077E
330
F1077F
100
AcDbEntity
8
Geo
100
AcDbLine
10
-78.8811529847386
20
-5.83878964646496
30
0.000000000000000
11
-78.7811529847386
21
-6.00344105898051
31
0.000000000000000
  0
LINE
  5
F10780
330
F10781
100
AcDbEntity
8
Geo
100
AcDbLine
10
-78.7811529847386
20
3.68078688146044
30
0.000000000000000
11
-78.6811529847386
21
3.46561159940983
31
0.000000000000000
  0
LINE
  5
F10782
330
F10783
100
AcDbEntity
8
Geo
100
AcDbLine
10
-78.7811529847386
20
-6.00344105898051
30
0.000000000000000
11
-78.6811529847386
21
-6.15992831801820
31
0.000000000000000
  0
LINE
  5
F10784
330
F10785
100
AcDbEntity
8
Geo
100
AcDbLine
10
-78.6811529847386
20
3.46561159940983
30
0.000000000000000
11
-78.5811529847386
21
3.24457397647074
31
0.000000000000000
  0
LINE
  5
F10786
330
F10787
100
AcDbEntity
8
Geo
100
AcDbLine
10
-78.6811529847386
20
-6.15992831801820
30
0.000000000000000
11
-78.5811529847386
21
-6.30801961922164
31
0.000000000000000
  0
LINE
  5
F10788
330
F10789
100
AcDbEntity
8
Geo
100
AcDbLine
10
-78.5811529847386
20
3.24457397647074
30
0.000000000000000
11
-78.4811529847386
21
3.01800143536271
31
0.000000000000000
  0
LINE
  5
F1078A
330
F1078B
100
AcDbEntity
8
Geo
100
AcDbLine
10
-78.5811529847386
20
-6.30801961922164
30
0.000000000000000
11
-78.4811529847386
21
-6.44749559515492
31
0.000000000000000
  0
LINE
  5
F1078C
330
F1078D
100
AcDbEntity
8
Geo
100
AcDbLine
10
-78.4811529847386
20
3.01800143536271
30
0.000000000000000
11
-78.3811529847386
21
2.78622959767177
31
0.000000000000000
  0
LINE
  5
F1078E
330
F1078F
100
AcDbEntity
8
Geo
100
AcDbLine
10
-78.4811529847386
20
-6.44749559515492
30
0.000000000000000
11
-78.3811529847386
21
-6.57814964025135
31
0.000000000000000
  0
LINE
  5
F10790
330
F10791
100
AcDbEntity
8
Geo
100
AcDbLine
10
-78.3811529847386
20
2.78622959767177
30
0.000000000000000
11
-78.2811529847386
21
2.54960178669467
31
0.000000000000000
  0
LINE
  5
F10792
330
F10793
100
AcDbEntity
8
Geo
100
AcDbLine
10
-78.3811529847386
20
-6.57814964025135
30
0.000000000000000
11
-78.2811529847386
21
-6.69978821685792
31
0.000000000000000
  0
LINE
  5
F10794
330
F10795
100
AcDbEntity
8
Geo
100
AcDbLine
10
-78.2811529847386
20
2.54960178669467
30
0.000000000000000
11
-78.1811529847386
21
2.30846851887451
31
0.000000000000000
  0
LINE
  5
F10796
330
F10797
100
AcDbEntity
8
Geo
100
AcDbLine
10
-78.2811529847386
20
-6.69978821685792
30
0.000000000000000
11
-78.1811529847386
21
-6.81223114192245
31
0.000000000000000
  0
LINE
  5
F10798
330
F10799
100
AcDbEntity
8
Geo
100
AcDbLine
10
-78.1811529847386
20
2.30846851887451
30
0.000000000000000
11
-78.0811529847386
21
2.06318698458132
31
0.000000000000000
  0
LINE
  5
F1079A
330
F1079B
100
AcDbEntity
8
Geo
100
AcDbLine
10
-78.1811529847386
20
-6.81223114192245
30
0.000000000000000
11
-78.0811529847386
21
-6.91531185389839
31
0.000000000000000
  0
LINE
  5
F1079C
330
F1079D
100
AcDbEntity
8
Geo
100
AcDbLine
10
-78.0811529847386
20
2.06318698458132
30
0.000000000000000
11
-77.9811529847386
21
1.81412051900636
31
0.000000000000000
  0
LINE
  5
F1079E
330
F1079F
100
AcDbEntity
8
Geo
100
AcDbLine
10
-78.0811529847386
20
-6.91531185389839
30
0.000000000000000
11
-77.9811529847386
21
-7.00887765947229
31
0.000000000000000
  0
LINE
  5
F107A0
330
F107A1
100
AcDbEntity
8
Geo
100
AcDbLine
10
-77.9811529847386
20
1.81412051900636
30
0.000000000000000
11
-77.8811529847386
21
1.56163806395431
31
0.000000000000000
  0
LINE
  5
F107A2
330
F107A3
100
AcDbEntity
8
Geo
100
AcDbLine
10
-77.9811529847386
20
-7.00887765947229
30
0.000000000000000
11
-77.8811529847386
21
-7.09278995974811
31
0.000000000000000
  0
LINE
  5
F107A4
330
F107A5
100
AcDbEntity
8
Geo
100
AcDbLine
10
-77.8811529847386
20
1.56163806395431
30
0.000000000000000
11
-77.7811529847386
21
1.30611362133023
31
0.000000000000000
  0
LINE
  5
F107A6
330
F107A7
100
AcDbEntity
8
Geo
100
AcDbLine
10
-77.8811529847386
20
-7.09278995974811
30
0.000000000000000
11
-77.7811529847386
21
-7.16692445555367
31
0.000000000000000
  0
LINE
  5
F107A8
330
F107A9
100
AcDbEntity
8
Geo
100
AcDbLine
10
-77.7811529847386
20
1.30611362133023
30
0.000000000000000
11
-77.6811529847386
21
1.04792569913107
31
0.000000000000000
  0
LINE
  5
F107AA
330
F107AB
100
AcDbEntity
8
Geo
100
AcDbLine
10
-77.7811529847386
20
-7.16692445555367
30
0.000000000000000
11
-77.6811529847386
21
-7.23117133156472
31
0.000000000000000
  0
LINE
  5
F107AC
330
F107AD
100
AcDbEntity
8
Geo
100
AcDbLine
10
-77.6811529847386
20
1.04792569913107
30
0.000000000000000
11
-77.5811529847386
21
0.787456750762376
31
0.000000000000000
  0
LINE
  5
F107AE
330
F107AF
100
AcDbEntity
8
Geo
100
AcDbLine
10
-77.6811529847386
20
-7.23117133156472
30
0.000000000000000
11
-77.5811529847386
21
-7.28543541897432
31
0.000000000000000
  0
LINE
  5
F107B0
330
F107B1
100
AcDbEntity
8
Geo
100
AcDbLine
10
-77.5811529847386
20
0.787456750762376
30
0.000000000000000
11
-77.4811529847386
21
0.525092608510493
31
0.000000000000000
  0
LINE
  5
F107B2
330
F107B3
100
AcDbEntity
8
Geo
100
AcDbLine
10
-77.5811529847386
20
-7.28543541897432
30
0.000000000000000
11
-77.4811529847386
21
-7.32963633646622
31
0.000000000000000
  0
LINE
  5
F107B4
330
F107B5
100
AcDbEntity
8
Geo
100
AcDbLine
10
-77.4811529847386
20
0.525092608510493
30
0.000000000000000
11
-77.3811529847386
21
0.261221912009820
31
0.000000000000000
  0
LINE
  5
F107B6
330
F107B7
100
AcDbEntity
8
Geo
100
AcDbLine
10
-77.4811529847386
20
-7.32963633646622
30
0.000000000000000
11
-77.3811529847386
21
-7.36370860928359
31
0.000000000000000
  0
LINE
  5
F107B8
330
F107B9
100
AcDbEntity
8
Geo
100
AcDbLine
10
-77.3811529847386
20
0.261221912009820
30
0.000000000000000
11
-77.2811529847386
21
-0.00376446744856151
31
0.000000000000000
  0
LINE
  5
F107BA
330
F107BB
100
AcDbEntity
8
Geo
100
AcDbLine
10
-77.3811529847386
20
-7.36370860928359
30
0.000000000000000
11
-77.2811529847386
21
-7.38760176621670
31
0.000000000000000
  0
LINE
  5
F107BC
330
F107BD
100
AcDbEntity
8
Geo
100
AcDbLine
10
-77.2811529847386
20
-0.00376446744856151
30
0.000000000000000
11
-77.1811529847386
21
-0.269474005913977
31
0.000000000000000
  0
LINE
  5
F107BE
330
F107BF
100
AcDbEntity
8
Geo
100
AcDbLine
10
-77.2811529847386
20
-7.38760176621670
30
0.000000000000000
11
-77.1811529847386
21
-7.40128041436583
31
0.000000000000000
  0
LINE
  5
F107C0
330
F107C1
100
AcDbEntity
8
Geo
100
AcDbLine
10
-77.1811529847386
20
-0.269474005913977
30
0.000000000000000
11
-77.0811529847386
21
-0.535513108221331
31
0.000000000000000
  0
LINE
  5
F107C2
330
F107C3
100
AcDbEntity
8
Geo
100
AcDbLine
10
-89.0811529847386
20
-0.491957064910878
30
0.000000000000000
11
-89.0811529847386
21
-0.491957064910878
31
0.000000000000000
  0
LINE
  5
F107C4
330
F107C5
100
AcDbEntity
8
Geo
100
AcDbLine
10
-89.0811529847386
20
-0.491957064910878
30
0.000000000000000
11
-89.0811529847386
21
-0.491957064910878
31
0.000000000000000
  0
LINE
  5
F107C6
330
F107C7
100
AcDbEntity
8
Geo
100
AcDbLine
10
-90.0811529847386
20
-0.491957064910878
30
0.000000000000000
11
-89.7811529847386
21
-0.491957064910878
31
0.000000000000000
  0
LINE
  5
F107C8
330
F107C9
100
AcDbEntity
8
Geo
100
AcDbLine
10
-89.6536529847386
20
-0.491957064910878
30
0.000000000000000
11
-89.5686529847385
21
-0.491957064910878
31
0.000000000000000
  0
LINE
  5
F107CA
330
F107CB
100
AcDbEntity
8
Geo
100
AcDbLine
10
-89.3561529847386
20
-0.491957064910878
30
0.000000000000000
11
-88.9311529847385
21
-0.491957064910878
31
0.000000000000000
  0
LINE
  5
F107CC
330
F107CD
100
AcDbEntity
8
Geo
100
AcDbLine
10
-88.8036529847385
20
-0.491957064910878
30
0.000000000000000
11
-88.7186529847386
21
-0.491957064910878
31
0.000000000000000
  0
LINE
  5
F107CE
330
F107CF
100
AcDbEntity
8
Geo
100
AcDbLine
10
-88.5061529847385
20
-0.491957064910878
30
0.000000000000000
11
-88.0811529847386
21
-0.491957064910878
31
0.000000000000000
  0
LINE
  5
F107D0
330
F107D1
100
AcDbEntity
8
Geo
100
AcDbLine
10
-0.0811529847385515
20
5.50804293508912
30
0.000000000000000
11
-0.0811529847385515
21
-0.491957064910878
31
0.000000000000000
  0
LINE
  5
F107D2
330
F107D3
100
AcDbEntity
8
Geo
100
AcDbLine
10
-88.8722379120869
20
-0.491957064910878
30
0.000000000000000
11
-89.0805438117577
21
-6.45705756820838
31
0.000000000000000
  0
ARC
  5
F107D4
330
F107D5
100
AcDbEntity
8
Geo
100
AcDbCircle
10
-88.0811529847386
20
-6.49195706491088
30
0.000000000000000
 40
1.00000000000000
100
AcDbArc
 50
178.000000000000
 51
270.000000000000
  0
LINE
  5
F107D6
330
F107D7
100
AcDbEntity
8
Geo
100
AcDbLine
10
-88.0811529847386
20
-7.49195706491088
30
0.000000000000000
11
-72.0811529847386
21
-7.49195706491088
31
0.000000000000000
  0
LINE
  5
F107D8
330
F107D9
100
AcDbEntity
8
Geo
100
AcDbLine
10
-72.0811529847386
20
-7.49195706491088
30
0.000000000000000
11
-72.0811529847386
21
-7.19195706491088
31
0.000000000000000
  0
LINE
  5
F107DA
330
F107DB
100
AcDbEntity
8
Geo
100
AcDbLine
10
-72.0811529847386
20
-7.19195706491088
30
0.000000000000000
11
-59.0811529847386
21
-7.19195706491088
31
0.000000000000000
  0
LINE
  5
F107DC
330
F107DD
100
AcDbEntity
8
Geo
100
AcDbLine
10
-59.0811529847386
20
-7.19195706491088
30
0.000000000000000
11
-59.0811529847386
21
-7.49195706491088
31
0.000000000000000
  0
LINE
  5
F107DE
330
F107DF
100
AcDbEntity
8
Geo
100
AcDbLine
10
-59.0811529847386
20
-7.49195706491088
30
0.000000000000000
11
-1.08115298473855
21
-7.49195706491088
31
0.000000000000000
  0
LINE
  5
F107E0
330
F107E1
100
AcDbEntity
8
Geo
100
AcDbLine
10
-1.08115298473855
20
-7.49195706491088
30
0.000000000000000
11
-0.0811529847385515
21
-6.49195706491088
31
0.000000000000000
  0
LINE
  5
F107E2
330
F107E3
100
AcDbEntity
8
Geo
100
AcDbLine
10
-88.0811529847386
20
6.50804293508912
30
0.000000000000000
11
-88.0811529847386
21
-7.49195706491088
31
0.000000000000000
  0
LINE
  5
F107E4
330
F107E5
100
AcDbEntity
8
Geo
100
AcDbLine
10
-88.0811529847386
20
6.50804293508912
30
0.000000000000000
11
-88.0811529847386
21
-7.49195706491088
31
0.000000000000000
  0
LINE
  5
F107E6
330
F107E7
100
AcDbEntity
8
Geo
100
AcDbLine
10
-72.0811529847386
20
6.50804293508912
30
0.000000000000000
11
-72.0811529847386
21
-7.49195706491088
31
0.000000000000000
  0
LINE
  5
F107E8
330
F107E9
100
AcDbEntity
8
Geo
100
AcDbLine
10
-72.0811529847386
20
6.20804293508912
30
0.000000000000000
11
-72.0811529847386
21
-7.19195706491088
31
0.000000000000000
  0
LINE
  5
F107EA
330
F107EB
100
AcDbEntity
8
Geo
100
AcDbLine
10
-59.0811529847386
20
6.20804293508912
30
0.000000000000000
11
-59.0811529847386
21
-7.19195706491088
31
0.000000000000000
  0
LINE
  5
F107EC
330
F107ED
100
AcDbEntity
8
Geo
100
AcDbLine
10
-59.0811529847386
20
6.20804293508912
30
0.000000000000000
11
-59.0811529847386
21
-7.19195706491088
31
0.000000000000000
  0
LINE
  5
F107EE
330
F107EF
100
AcDbEntity
8
Geo
100
AcDbLine
10
-1.08115298473855
20
6.50804293508912
30
0.000000000000000
11
-1.08115298473855
21
-7.49195706491088
31
0.000000000000000
  0
LINE
  5
F107F0
330
F107F1
100
AcDbEntity
8
Geo
100
AcDbLine
10
-0.0811529847385515
20
5.50804293508912
30
0.000000000000000
11
-0.0811529847385515
21
-6.49195706491088
31
0.000000000000000
  0
LWPOLYLINE
  5
F107F2
330
F107F3
100
AcDbEntity
8
Rahmen
100
AcDbPolyline
90
   4
70
   1
43
   0.0
 10
-134.548212262102
 20
92.9925381223957
 10
134.384606442304
 20
92.9925381223957
 10
134.384606442304
 20
-102.946742477152
 10
-134.548212262102
 20
-102.946742477152
  0
TEXT
  5
F107F4
330
F107F5
 100
AcDbEntity
8
Text
100
AcDbText
10
-133.668772043971
20
-102.446742477152
30
0.000000000000000
40
1.00000000000000
1
ISBESketcher
100
AcDbText
  0
LWPOLYLINE
  5
F107F6
330
F107F7
100
AcDbEntity
8
Rahmen
100
AcDbPolyline
90
   4
70
   1
43
   0.0
 10
94.4580205391644
 20
-100.132533779133
 10
134.384606442304
 20
-100.132533779133
 10
134.384606442304
 20
-102.946742477152
 10
94.4580205391644
 20
-102.946742477152
  0
TEXT
  5
F107F8
330
F107F9
 100
AcDbEntity
8
Text
100
AcDbText
10
95.5000000000000
20
-102.041496196318
30
0.000000000000000
40
0.750000000000000
1
Created by:
100
AcDbText
  0
TEXT
  5
F107FA
330
F107FB
 100
AcDbEntity
8
Text
100
AcDbText
10
120.389343476486
20
-102.041496196318
30
0.000000000000000
40
0.750000000000000
1
nsarkol
100
AcDbText
  0
LWPOLYLINE
  5
F107FC
330
F107FD
100
AcDbEntity
8
Rahmen
100
AcDbPolyline
90
   4
70
   1
43
   0.0
 10
54.3555465923988
 20
-100.132533779133
 10
94.4580205391644
 20
-100.132533779133
 10
94.4580205391644
 20
-102.946742477152
 10
54.3555465923988
 20
-102.946742477152
  0
TEXT
  5
F107FE
330
F107FF
 100
AcDbEntity
8
Text
100
AcDbText
10
55.5000000000000
20
-102.041496196318
30
0.000000000000000
40
0.750000000000000
1
Created for:
100
AcDbText
  0
TEXT
  5
F10800
330
F10801
 100
AcDbEntity
8
Text
100
AcDbText
10
0.000000000000000
20
0.250000000000000
30
0.000000000000000
40
0.750000000000000
1

100
AcDbText
  0
LWPOLYLINE
  5
F10802
330
F10803
100
AcDbEntity
8
Rahmen
100
AcDbPolyline
90
   4
70
   1
43
   0.0
 10
121.017115126715
 20
-97.1424370374884
 10
134.384606442304
 20
-97.1424370374884
 10
134.384606442304
 20
-100.132533779133
 10
121.017115126715
 20
-100.132533779133
  0
TEXT
  5
F10804
330
F10805
 100
AcDbEntity
8
Text
100
AcDbText
10
122.166666666667
20
-99.0414961963177
30
0.000000000000000
40
0.750000000000000
1
Pages
100
AcDbText
  0
TEXT
  5
F10806
330
F10807
 100
AcDbEntity
8
Text
100
AcDbText
10
0.000000000000000
20
0.250000000000000
30
0.000000000000000
40
0.750000000000000
1

100
AcDbText
  0
LWPOLYLINE
  5
F10808
330
F10809
100
AcDbEntity
8
Rahmen
100
AcDbPolyline
90
   4
70
   1
43
   0.0
 10
121.017115126715
 20
-94.1523402958436
 10
134.384606442304
 20
-94.1523402958436
 10
134.384606442304
 20
-97.1424370374884
 10
121.017115126715
 20
-97.1424370374884
  0
TEXT
  5
F1080A
330
F1080B
 100
AcDbEntity
8
Text
100
AcDbText
10
122.166666666667
20
-96.0414961963177
30
0.000000000000000
40
0.750000000000000
1
Page
100
AcDbText
  0
TEXT
  5
F1080C
330
F1080D
 100
AcDbEntity
8
Text
100
AcDbText
10
0.000000000000000
20
0.250000000000000
30
0.000000000000000
40
0.750000000000000
1

100
AcDbText
  0
LWPOLYLINE
  5
F1080E
330
F1080F
100
AcDbEntity
8
Rahmen
100
AcDbPolyline
90
   4
70
   1
43
   0.0
 10
54.3555465923988
 20
-94.1523402958436
 10
121.017115126715
 20
-94.1523402958436
 10
121.017115126715
 20
-100.132533779133
 10
54.3555465923988
 20
-100.132533779133
  0
TEXT
  5
F10810
330
F10811
 100
AcDbEntity
8
Text
100
AcDbText
10
55.5000000000000
20
-96.0414961963177
30
0.000000000000000
40
0.750000000000000
1
Date:
100
AcDbText
  0
TEXT
  5
F10812
330
F10813
 100
AcDbEntity
8
Text
100
AcDbText
10
84.5794045262493
20
-99.0414961963177
30
0.000000000000000
40
0.750000000000000
1
05.07.2016
100
AcDbText
  0
LWPOLYLINE
  5
F10814
330
F10815
100
AcDbEntity
8
Rahmen
100
AcDbPolyline
90
   4
70
   1
43
   0.0
 10
54.3555465923988
 20
-88.1721468125540
 10
134.384606442304
 20
-88.1721468125540
 10
134.384606442304
 20
-94.1523402958436
 10
54.3555465923988
 20
-94.1523402958436
  0
TEXT
  5
F10816
330
F10817
 100
AcDbEntity
8
Text
100
AcDbText
10
0.000000000000000
20
0.500000000000000
30
0.000000000000000
40
1.50000000000000
1

100
AcDbText
  0
TEXT
  5
F10818
330
F10819
 100
AcDbEntity
8
Text
100
AcDbText
10
63.9834244308604
20
-92.6290992774330
30
0.000000000000000
40
2.50000000000000
1
VHVTR 5 140 089 14 03 100 S
100
AcDbText
  0
LWPOLYLINE
  5
F1081A
330
F1081B
100
AcDbEntity
8
Rahmen
100
AcDbPolyline
90
   4
70
   1
43
   0.0
 10
94.4580205391644
 20
-82.0160652856382
 10
134.384606442304
 20
-82.0160652856382
 10
134.384606442304
 20
-88.1721468125540
 10
94.4580205391644
 20
-88.1721468125540
  0
TEXT
  5
F1081C
330
F1081D
 100
AcDbEntity
8
Text
100
AcDbText
10
95.5000000000000
20
-84.0414961963177
30
0.000000000000000
40
0.750000000000000
1
Work piece material:
100
AcDbText
  0
TEXT
  5
F1081E
330
F1081F
 100
AcDbEntity
8
Text
100
AcDbText
10
0.000000000000000
20
0.250000000000000
30
0.000000000000000
40
0.750000000000000
1

100
AcDbText
  0
LWPOLYLINE
  5
F10820
330
F10821
100
AcDbEntity
8
Rahmen
100
AcDbPolyline
90
   4
70
   1
43
   0.0
 10
54.3555465923988
 20
-82.0160652856382
 10
94.4580205391644
 20
-82.0160652856382
 10
94.4580205391644
 20
-88.1721468125540
 10
54.3555465923988
 20
-88.1721468125540
  0
TEXT
  5
F10822
330
F10823
 100
AcDbEntity
8
Text
100
AcDbText
10
55.5000000000000
20
-84.0414961963177
30
0.000000000000000
40
0.750000000000000
1
Tool material:
100
AcDbText
  0
TEXT
  5
F10824
330
F10825
 100
AcDbEntity
8
Text
100
AcDbText
10
0.000000000000000
20
0.250000000000000
30
0.000000000000000
40
0.750000000000000
1

100
AcDbText
  0
LWPOLYLINE
  5
F10826
330
F10827
100
AcDbEntity
8
Rahmen
100
AcDbPolyline
90
   4
70
   1
43
   0.0
 10
94.4580205391644
 20
-79.0259685439935
 10
134.384606442304
 20
-79.0259685439935
 10
134.384606442304
 20
-82.0160652856382
 10
94.4580205391644
 20
-82.0160652856382
  0
TEXT
  5
F10828
330
F10829
 100
AcDbEntity
8
Text
100
AcDbText
10
0.000000000000000
20
0.500000000000000
30
0.000000000000000
40
1.50000000000000
1

100
AcDbText
  0
TEXT
  5
F1082A
330
F1082B
 100
AcDbEntity
8
Text
100
AcDbText
10
0.000000000000000
20
0.250000000000000
30
0.000000000000000
40
0.750000000000000
1

100
AcDbText
  0
LWPOLYLINE
  5
F1082C
330
F1082D
100
AcDbEntity
8
Rahmen
100
AcDbPolyline
90
   4
70
   1
43
   0.0
 10
54.3555465923988
 20
-79.0259685439935
 10
94.4580205391644
 20
-79.0259685439935
 10
94.4580205391644
 20
-82.0160652856382
 10
54.3555465923988
 20
-82.0160652856382
  0
TEXT
  5
F1082E
330
F1082F
 100
AcDbEntity
8
Text
100
AcDbText
10
55.5000000000000
20
-81.0414961963177
30
0.000000000000000
40
0.750000000000000
1
Scale:
100
AcDbText
  0
TEXT
  5
F10830
330
F10831
 100
AcDbEntity
8
Text
100
AcDbText
10
81.1808396728038
20
-81.0414961963177
30
0.000000000000000
40
0.750000000000000
1
2 : 1
100
AcDbText
0
VIEWPORT
5
294
102
{ACAD_XDICTIONARY
360
58A
102
}
330
25D
100
AcDbEntity
67
1
8
0
60
1
100
AcDbViewport
10
0.0
20
0.0
30
0.0
40
10.0
41
10.0
68
-1
69
1
12
0.0
22
0.0
13
0.0
23
0.0
14
1.0
24
1.0
15
0.0
25
0.0
16
0.0
26
0.0
36
1.0
17
0.0
27
0.0
37
0.0
42
0.0
43
0.0
44
0.0
45
10.0
50
0.0
51
0.0000000000007958
72
100
90
32800
1

281
0
71
0
74
0
110
0.0
120
0.0
130
0.0
111
1.0
121
0.0
131
0.0
112
0.0
122
1.0
132
0.0
79
0
146
0.0
1001
VD_INVISIBLE_NOT_FOR_READ
1000
VD_INVISIBLE_NOT_FOR_READ
0
VIEWPORT
5
295
102
{ACAD_XDICTIONARY
360
58C
102
}
330
25D
100
AcDbEntity
67
1
8
0
60
1
100
AcDbViewport
10
0.0
20
0.0
30
0.0
40
10.0
41
10.0
68
0
69
2
12
0.0
22
0.0
13
0.0
23
0.0
14
1.0
24
1.0
15
0.0
25
0.0
16
0.0
26
0.0
36
1.0
17
0.0
27
0.0
37
0.0
42
0.0
43
0.0
44
0.0
45
10.0
50
0.0
51
0.0000000000007958
72
100
90
163872
1

281
0
71
0
74
0
110
0.0
120
0.0
130
0.0
111
1.0
121
0.0
131
0.0
112
0.0
122
1.0
132
0.0
79
0
146
0.0
1001
VD_INVISIBLE_NOT_FOR_READ
1000
VD_INVISIBLE_NOT_FOR_READ
0
ENDSEC
0
SECTION
2
OBJECTS
0
DICTIONARY
5
13
330
0
100
AcDbDictionary
281
1
3
ACAD_COLOR
350
FA7
3
ACAD_GROUP
350
14
3
ACAD_LAYOUT
350
FCF
3
ACAD_MATERIAL
350
F7A
3
ACAD_MLEADERSTYLE
350
FCD
3
ACAD_MLINESTYLE
350
16
3
ACAD_PLOTSETTINGS
350
17
3
ACAD_PLOTSTYLENAME
350
18
3
ACAD_SCALELIST
350
FAB
3
ACAD_TABLESTYLE
350
FA8
3
ACAD_VISUALSTYLE
350
F93
3
ACDB_RECOMPOSE_DATA
350
107E
3
AcDbVariableDictionary
350
FF0
3
DWGPROPS
350
107F
0
DICTIONARY
5
F10019
330
F10018
100
AcDbDictionary
280
1
281
1
3
ACAD_MTEXT_2008_RT
360
F1001A
0
DICTIONARY
5
F1001E
330
F1001D
100
AcDbDictionary
280
1
281
1
3
ACAD_MTEXT_2008_RT
360
F1001F
0
DICTIONARY
5
F10028
330
F10027
100
AcDbDictionary
280
1
281
1
3
ACAD_MTEXT_2008_RT
360
F10029
0
DICTIONARY
5
F1002D
330
F1002C
100
AcDbDictionary
280
1
281
1
3
ACAD_MTEXT_2008_RT
360
F1002E
0
DICTIONARY
5
F10005
330
F10004
100
AcDbDictionary
280
1
281
1
3
ACAD_MTEXT_2008_RT
360
F10006
0
DICTIONARY
5
F1000F
330
F1000E
100
AcDbDictionary
280
1
281
1
3
ACAD_MTEXT_2008_RT
360
F10010
0
DICTIONARY
5
F1000A
330
F10009
100
AcDbDictionary
280
1
281
1
3
ACAD_MTEXT_2008_RT
360
F1000B
0
DICTIONARY
5
F10014
330
F10013
100
AcDbDictionary
280
1
281
1
3
ACAD_MTEXT_2008_RT
360
F10015
0
DICTIONARY
5
F10023
330
F10022
100
AcDbDictionary
280
1
281
1
3
ACAD_MTEXT_2008_RT
360
F10024
0
DICTIONARY
5
FA7
102
{ACAD_REACTORS
330
13
102
}
330
13
100
AcDbDictionary
281
1
0
DICTIONARY
5
14
330
13
100
AcDbDictionary
281
1
0
DICTIONARY
5
FCF
102
{ACAD_REACTORS
330
13
102
}
330
13
100
AcDbDictionary
281
1
3
Layout1
350
FD1
3
Model
350
FD0
0
DICTIONARY
5
F7A
102
{ACAD_REACTORS
330
13
102
}
330
13
100
AcDbDictionary
281
1
3
ByBlock
350
F83
3
ByLayer
350
F7B
3
Global
350
F8B
0
DICTIONARY
5
FCD
102
{ACAD_REACTORS
330
13
102
}
330
13
100
AcDbDictionary
281
1
3
Standard
350
FCE
0
DICTIONARY
5
16
330
13
100
AcDbDictionary
281
1
3
Standard
350
FAA
0
DICTIONARY
5
17
102
{ACAD_REACTORS
330
13
102
}
330
13
100
AcDbDictionary
281
1
0
ACDBDICTIONARYWDFLT
5
18
102
{ACAD_REACTORS
330
13
102
}
330
13
100
AcDbDictionary
281
1
3
Normal
350
19
100
AcDbDictionaryWithDefault
340
19
0
DICTIONARY
5
FAB
102
{ACAD_REACTORS
330
13
102
}
330
13
100
AcDbDictionary
281
1
3
A0
350
FAC
3
A1
350
FAD
3
A2
350
FAE
3
A3
350
FAF
3
A4
350
FB0
3
A5
350
FB1
3
A6
350
FB2
3
A7
350
FB3
3
A8
350
FB4
3
A9
350
FB5
3
B0
350
FB6
3
B1
350
FB7
3
B2
350
FB8
3
B3
350
FB9
3
B4
350
FBA
3
B5
350
FBB
3
B6
350
FBC
3
B7
350
FBD
3
B8
350
FBE
3
B9
350
FBF
3
C0
350
FC0
3
C1
350
FC1
3
C2
350
FC2
3
C3
350
FC3
3
C4
350
FC4
3
C5
350
FC5
3
C6
350
FC6
3
C7
350
FC7
3
C8
350
FC8
3
C9
350
FC9
3
D0
350
FCA
3
D1
350
FCB
3
D2
350
FCC
0
DICTIONARY
5
FA8
102
{ACAD_REACTORS
330
13
102
}
330
13
100
AcDbDictionary
281
1
3
Standard
350
FA9
0
DICTIONARY
5
F93
102
{ACAD_REACTORS
330
13
102
}
330
13
100
AcDbDictionary
281
1
3
2dWireframe
350
F99
3
3D Hidden
350
F9B
3
3dWireframe
350
F9A
3
Basic
350
F98
3
Brighten
350
F9F
3
ColorChange
350
FA3
3
Conceptual
350
F9C
3
Dim
350
F9E
3
EdgeColorOff
350
FA6
3
Facepattern
350
FA2
3
Flat
350
F94
3
FlatWithEdges
350
F95
3
Gouraud
350
F96
3
GouraudWithEdges
350
F97
3
JitterOff
350
FA4
3
Linepattern
350
FA1
3
OverhangOff
350
FA5
3
Realistic
350
F9D
3
Thicken
350
FA0
0
XRECORD
5
107E
102
{ACAD_REACTORS
330
13
102
}
330
13
100
AcDbXrecord
280
1
90
1
330
FA9
330
F10018
330
F1001D
330
F10027
330
F1002C
330
F10004
330
F1000E
330
F10009
330
F10013
330
F10022
0
XRECORD
5
F1001A
102
{ACAD_REACTORS
330
F10019
102
}
330
F10019
100
AcDbXrecord
280
1
40
48458.0
1
30
0
XRECORD
5
F1001F
102
{ACAD_REACTORS
330
F1001E
102
}
330
F1001E
100
AcDbXrecord
280
1
40
48458.0
1
59
0
XRECORD
5
F10029
102
{ACAD_REACTORS
330
F10028
102
}
330
F10028
100
AcDbXrecord
280
1
40
48458.0
1
17
0
XRECORD
5
F1002E
102
{ACAD_REACTORS
330
F1002D
102
}
330
F1002D
100
AcDbXrecord
280
1
40
48458.0
1
89
0
XRECORD
5
F10006
102
{ACAD_REACTORS
330
F10005
102
}
330
F10005
100
AcDbXrecord
280
1
40
48458.0
1
2°
0
XRECORD
5
F10010
102
{ACAD_REACTORS
330
F1000F
102
}
330
F1000F
100
AcDbXrecord
280
1
40
48458.0
1
R1
0
XRECORD
5
F1000B
102
{ACAD_REACTORS
330
F1000A
102
}
330
F1000A
100
AcDbXrecord
280
1
40
48458.0
1
14
0
XRECORD
5
F10015
102
{ACAD_REACTORS
330
F10014
102
}
330
F10014
100
AcDbXrecord
280
1
40
48458.0
1
13.4
0
LAYOUT
5
FD1
102
{ACAD_XDICTIONARY
360
10A9
102
}
102
{ACAD_REACTORS
330
FCF
102
}
330
FCF
100
AcDbPlotSettings
1

2
Microsoft XPS Document Writer
4

6

40
0.0
41
0.0
42
0.0
43
0.0
44
0.0
45
0.0
46
0.0
47
0.0
48
0.0
49
0.0
140
0.0
141
0.0
142
1.0
143
1.0
70
688
72
0
73
0
74
5
7

75
16
147
1.0
148
0.0
149
0.0
100
AcDbLayout
1
Layout1
70
1
71
1
10
0.0
20
0.0
11
12.0
21
9.0
12
0.0
22
0.0
32
0.0
14
1.000000000000000E+20
24
1.000000000000000E+20
34
1.000000000000000E+20
15
-1.000000000000000E+20
25
-1.000000000000000E+20
35
-1.000000000000000E+20
146
0.0
13
0.0
23
0.0
33
0.0
16
1.0
26
0.0
36
0.0
17
0.0
27
1.0
37
0.0
76
0
330
25D
0
LAYOUT
5
FD0
102
{ACAD_XDICTIONARY
360
10A7
102
}
102
{ACAD_REACTORS
330
FCF
102
}
330
FCF
100
AcDbPlotSettings
1

2
Microsoft XPS Document Writer
4

6

40
0.0
41
0.0
42
0.0
43
0.0
44
0.0
45
0.0
46
0.0
47
0.0
48
0.0
49
0.0
140
0.0
141
0.0
142
1.0
143
1.0
70
1712
72
0
73
0
74
0
7

75
0
147
1.0
148
0.0
149
0.0
100
AcDbLayout
1
Model
70
1
71
0
10
0.0
20
0.0
11
12.0
21
9.0
12
0.0
22
0.0
32
0.0
14
0.0
24
0.0
34
0.0
15
0.0
25
0.0
35
0.0
146
0.0
13
0.0
23
0.0
33
0.0
16
1.0
26
0.0
36
0.0
17
0.0
27
1.0
37
0.0
76
0
330
261
331
26B
0
MATERIAL
5
F83
102
{ACAD_XDICTIONARY
360
F84
102
}
102
{ACAD_REACTORS
330
F7A
102
}
330
F7A
100
AcDbMaterial
1
ByBlock
72
0
43
0.0208333333333333
43
0.0
43
0.0
43
0.0
43
0.0
43
0.0208333333333333
43
0.0
43
0.0
43
0.0
43
0.0
43
1.0
43
0.0
43
0.0
43
0.0
43
0.0
43
1.0
77
0
47
0.0208333333333333
47
0.0
47
0.0
47
0.0
47
0.0
47
0.0208333333333333
47
0.0
47
0.0
47
0.0
47
0.0
47
1.0
47
0.0
47
0.0
47
0.0
47
0.0
47
1.0
171
0
49
0.0208333333333333
49
0.0
49
0.0
49
0.0
49
0.0
49
0.0208333333333333
49
0.0
49
0.0
49
0.0
49
0.0
49
1.0
49
0.0
49
0.0
49
0.0
49
0.0
49
1.0
175
0
142
0.0208333333333333
142
0.0
142
0.0
142
0.0
142
0.0
142
0.0208333333333333
142
0.0
142
0.0
142
0.0
142
0.0
142
1.0
142
0.0
142
0.0
142
0.0
142
0.0
142
1.0
179
0
144
0.0208333333333333
144
0.0
144
0.0
144
0.0
144
0.0
144
0.0208333333333333
144
0.0
144
0.0
144
0.0
144
0.0
144
1.0
144
0.0
144
0.0
144
0.0
144
0.0
144
1.0
147
0.0208333333333333
147
0.0
147
0.0
147
0.0
147
0.0
147
0.0208333333333333
147
0.0
147
0.0
147
0.0
147
0.0
147
1.0
147
0.0
147
0.0
147
0.0
147
0.0
147
1.0
0
MATERIAL
5
F7B
102
{ACAD_XDICTIONARY
360
F7C
102
}
102
{ACAD_REACTORS
330
F7A
102
}
330
F7A
100
AcDbMaterial
1
ByLayer
72
0
43
0.0208333333333333
43
0.0
43
0.0
43
0.0
43
0.0
43
0.0208333333333333
43
0.0
43
0.0
43
0.0
43
0.0
43
1.0
43
0.0
43
0.0
43
0.0
43
0.0
43
1.0
77
0
47
0.0208333333333333
47
0.0
47
0.0
47
0.0
47
0.0
47
0.0208333333333333
47
0.0
47
0.0
47
0.0
47
0.0
47
1.0
47
0.0
47
0.0
47
0.0
47
0.0
47
1.0
171
0
49
0.0208333333333333
49
0.0
49
0.0
49
0.0
49
0.0
49
0.0208333333333333
49
0.0
49
0.0
49
0.0
49
0.0
49
1.0
49
0.0
49
0.0
49
0.0
49
0.0
49
1.0
175
0
142
0.0208333333333333
142
0.0
142
0.0
142
0.0
142
0.0
142
0.0208333333333333
142
0.0
142
0.0
142
0.0
142
0.0
142
1.0
142
0.0
142
0.0
142
0.0
142
0.0
142
1.0
179
0
144
0.0208333333333333
144
0.0
144
0.0
144
0.0
144
0.0
144
0.0208333333333333
144
0.0
144
0.0
144
0.0
144
0.0
144
1.0
144
0.0
144
0.0
144
0.0
144
0.0
144
1.0
147
0.0208333333333333
147
0.0
147
0.0
147
0.0
147
0.0
147
0.0208333333333333
147
0.0
147
0.0
147
0.0
147
0.0
147
1.0
147
0.0
147
0.0
147
0.0
147
0.0
147
1.0
0
MATERIAL
5
F8B
102
{ACAD_XDICTIONARY
360
F8C
102
}
102
{ACAD_REACTORS
330
F7A
102
}
330
F7A
100
AcDbMaterial
1
Global
72
0
43
0.0208333333333333
43
0.0
43
0.0
43
0.0
43
0.0
43
0.0208333333333333
43
0.0
43
0.0
43
0.0
43
0.0
43
1.0
43
0.0
43
0.0
43
0.0
43
0.0
43
1.0
77
0
47
0.0208333333333333
47
0.0
47
0.0
47
0.0
47
0.0
47
0.0208333333333333
47
0.0
47
0.0
47
0.0
47
0.0
47
1.0
47
0.0
47
0.0
47
0.0
47
0.0
47
1.0
171
0
49
0.0208333333333333
49
0.0
49
0.0
49
0.0
49
0.0
49
0.0208333333333333
49
0.0
49
0.0
49
0.0
49
0.0
49
1.0
49
0.0
49
0.0
49
0.0
49
0.0
49
1.0
175
0
142
0.0208333333333333
142
0.0
142
0.0
142
0.0
142
0.0
142
0.0208333333333333
142
0.0
142
0.0
142
0.0
142
0.0
142
1.0
142
0.0
142
0.0
142
0.0
142
0.0
142
1.0
179
0
144
0.0208333333333333
144
0.0
144
0.0
144
0.0
144
0.0
144
0.0208333333333333
144
0.0
144
0.0
144
0.0
144
0.0
144
1.0
144
0.0
144
0.0
144
0.0
144
0.0
144
1.0
147
0.0208333333333333
147
0.0
147
0.0
147
0.0
147
0.0
147
0.0208333333333333
147
0.0
147
0.0
147
0.0
147
0.0
147
1.0
147
0.0
147
0.0
147
0.0
147
0.0
147
1.0
0
MLEADERSTYLE
5
FCE
102
{ACAD_REACTORS
330
FCD
102
}
330
FCD
100
AcDbMLeaderStyle
170
2
171
1
172
0
90
2
40
0.0
41
0.0
173
1
91
-1056964608
340
256
92
-2
290
1
42
0.09
291
1
43
0.36
3
Standard
44
0.18
300

342
253
174
1
178
6
175
1
176
0
93
-1056964608
45
0.18
292
0
297
0
46
0.18
94
-1056964608
47
1.0
49
1.0
140
1.0
293
1
141
0.0
294
1
177
0
142
1.0
295
0
296
0
143
0.125
1001
ACAD_MLEADERVER
1070
2
0
MLINESTYLE
5
FAA
102
{ACAD_REACTORS
330
16
102
}
330
16
100
AcDbMlineStyle
2
STANDARD
70
0
3

62
256
51
90.0
52
90.0
71
2
49
0.5
62
256
6
BYLAYER
49
-0.5
62
256
6
BYLAYER
0
ACDBPLACEHOLDER
5
19
102
{ACAD_REACTORS
330
18
102
}
330
18
0
SCALE
5
FAC
102
{ACAD_REACTORS
330
FAB
102
}
330
FAB
100
AcDbScale
70
0
300
1:1
140
1.0
141
1.0
290
1
0
SCALE
5
FAD
102
{ACAD_REACTORS
330
FAB
102
}
330
FAB
100
AcDbScale
70
0
300
1:2
140
1.0
141
2.0
290
0
0
SCALE
5
FAE
102
{ACAD_REACTORS
330
FAB
102
}
330
FAB
100
AcDbScale
70
0
300
1:4
140
1.0
141
4.0
290
0
0
SCALE
5
FAF
102
{ACAD_REACTORS
330
FAB
102
}
330
FAB
100
AcDbScale
70
0
300
1:5
140
1.0
141
5.0
290
0
0
SCALE
5
FB0
102
{ACAD_REACTORS
330
FAB
102
}
330
FAB
100
AcDbScale
70
0
300
1:8
140
1.0
141
8.0
290
0
0
SCALE
5
FB1
102
{ACAD_REACTORS
330
FAB
102
}
330
FAB
100
AcDbScale
70
0
300
1:10
140
1.0
141
10.0
290
0
0
SCALE
5
FB2
102
{ACAD_REACTORS
330
FAB
102
}
330
FAB
100
AcDbScale
70
0
300
1:16
140
1.0
141
16.0
290
0
0
SCALE
5
FB3
102
{ACAD_REACTORS
330
FAB
102
}
330
FAB
100
AcDbScale
70
0
300
1:20
140
1.0
141
20.0
290
0
0
SCALE
5
FB4
102
{ACAD_REACTORS
330
FAB
102
}
330
FAB
100
AcDbScale
70
0
300
1:30
140
1.0
141
30.0
290
0
0
SCALE
5
FB5
102
{ACAD_REACTORS
330
FAB
102
}
330
FAB
100
AcDbScale
70
0
300
1:40
140
1.0
141
40.0
290
0
0
SCALE
5
FB6
102
{ACAD_REACTORS
330
FAB
102
}
330
FAB
100
AcDbScale
70
0
300
1:50
140
1.0
141
50.0
290
0
0
SCALE
5
FB7
102
{ACAD_REACTORS
330
FAB
102
}
330
FAB
100
AcDbScale
70
0
300
1:100
140
1.0
141
100.0
290
0
0
SCALE
5
FB8
102
{ACAD_REACTORS
330
FAB
102
}
330
FAB
100
AcDbScale
70
0
300
2:1
140
2.0
141
1.0
290
0
0
SCALE
5
FB9
102
{ACAD_REACTORS
330
FAB
102
}
330
FAB
100
AcDbScale
70
0
300
4:1
140
4.0
141
1.0
290
0
0
SCALE
5
FBA
102
{ACAD_REACTORS
330
FAB
102
}
330
FAB
100
AcDbScale
70
0
300
8:1
140
8.0
141
1.0
290
0
0
SCALE
5
FBB
102
{ACAD_REACTORS
330
FAB
102
}
330
FAB
100
AcDbScale
70
0
300
10:1
140
10.0
141
1.0
290
0
0
SCALE
5
FBC
102
{ACAD_REACTORS
330
FAB
102
}
330
FAB
100
AcDbScale
70
0
300
100:1
140
100.0
141
1.0
290
0
0
SCALE
5
FBD
102
{ACAD_REACTORS
330
FAB
102
}
330
FAB
100
AcDbScale
70
0
300
1/128" = 1'-0"
140
0.0078125
141
12.0
290
0
0
SCALE
5
FBE
102
{ACAD_REACTORS
330
FAB
102
}
330
FAB
100
AcDbScale
70
0
300
1/64" = 1'-0"
140
0.015625
141
12.0
290
0
0
SCALE
5
FBF
102
{ACAD_REACTORS
330
FAB
102
}
330
FAB
100
AcDbScale
70
0
300
1/32" = 1'-0"
140
0.03125
141
12.0
290
0
0
SCALE
5
FC0
102
{ACAD_REACTORS
330
FAB
102
}
330
FAB
100
AcDbScale
70
0
300
1/16" = 1'-0"
140
0.0625
141
12.0
290
0
0
SCALE
5
FC1
102
{ACAD_REACTORS
330
FAB
102
}
330
FAB
100
AcDbScale
70
0
300
3/32" = 1'-0"
140
0.09375
141
12.0
290
0
0
SCALE
5
FC2
102
{ACAD_REACTORS
330
FAB
102
}
330
FAB
100
AcDbScale
70
0
300
1/8" = 1'-0"
140
0.125
141
12.0
290
0
0
SCALE
5
FC3
102
{ACAD_REACTORS
330
FAB
102
}
330
FAB
100
AcDbScale
70
0
300
3/16" = 1'-0"
140
0.1875
141
12.0
290
0
0
SCALE
5
FC4
102
{ACAD_REACTORS
330
FAB
102
}
330
FAB
100
AcDbScale
70
0
300
1/4" = 1'-0"
140
0.25
141
12.0
290
0
0
SCALE
5
FC5
102
{ACAD_REACTORS
330
FAB
102
}
330
FAB
100
AcDbScale
70
0
300
3/8" = 1'-0"
140
0.375
141
12.0
290
0
0
SCALE
5
FC6
102
{ACAD_REACTORS
330
FAB
102
}
330
FAB
100
AcDbScale
70
0
300
1/2" = 1'-0"
140
0.5
141
12.0
290
0
0
SCALE
5
FC7
102
{ACAD_REACTORS
330
FAB
102
}
330
FAB
100
AcDbScale
70
0
300
3/4" = 1'-0"
140
0.75
141
12.0
290
0
0
SCALE
5
FC8
102
{ACAD_REACTORS
330
FAB
102
}
330
FAB
100
AcDbScale
70
0
300
1" = 1'-0"
140
1.0
141
12.0
290
0
0
SCALE
5
FC9
102
{ACAD_REACTORS
330
FAB
102
}
330
FAB
100
AcDbScale
70
0
300
1-1/2" = 1'-0"
140
1.5
141
12.0
290
0
0
SCALE
5
FCA
102
{ACAD_REACTORS
330
FAB
102
}
330
FAB
100
AcDbScale
70
0
300
3" = 1'-0"
140
3.0
141
12.0
290
0
0
SCALE
5
FCB
102
{ACAD_REACTORS
330
FAB
102
}
330
FAB
100
AcDbScale
70
0
300
6" = 1'-0"
140
6.0
141
12.0
290
0
0
SCALE
5
FCC
102
{ACAD_REACTORS
330
FAB
102
}
330
FAB
100
AcDbScale
70
0
300
1'-0" = 1'-0"
140
12.0
141
12.0
290
0
0
TABLESTYLE
5
FA9
102
{ACAD_XDICTIONARY
360
FF8
102
}
102
{ACAD_REACTORS
330
FA8
102
}
330
FA8
100
AcDbTableStyle
3
Standard
70
0
71
0
40
0.06
41
0.06
280
0
281
0
7
Standard
140
0.18
170
2
62
0
63
7
283
0
274
-2
284
1
64
0
275
-2
285
1
65
0
276
-2
286
1
66
0
277
-2
287
1
67
0
278
-2
288
1
68
0
279
-2
289
1
69
0
7
Standard
140
0.25
170
5
62
0
63
7
283
0
274
-2
284
1
64
0
275
-2
285
1
65
0
276
-2
286
1
66
0
277
-2
287
1
67
0
278
-2
288
1
68
0
279
-2
289
1
69
0
7
Standard
140
0.18
170
5
62
0
63
7
283
0
274
-2
284
1
64
0
275
-2
285
1
65
0
276
-2
286
1
66
0
277
-2
287
1
67
0
278
-2
288
1
68
0
279
-2
289
1
69
0
0
VISUALSTYLE
5
F99
102
{ACAD_XDICTIONARY
360
108A
102
}
102
{ACAD_REACTORS
330
F93
102
}
330
F93
100
AcDbVisualStyle
2

70
4
71
0
72
2
73
0
90
0
40
-0.6
41
-30.0
62
5
63
7
74
1
91
4
64
7
65
257
75
1
175
1
42
1.0
92
0
66
257
43
1.0
76
1
77
6
78
2
67
7
79
5
170
0
171
0
290
0
174
0
93
1
44
0.0
173
0
291
0
45
0.0
1001
ACAD
1000
AcDbSavedByObjectVersion
1070
0
0
VISUALSTYLE
5
F9B
102
{ACAD_XDICTIONARY
360
108E
102
}
102
{ACAD_REACTORS
330
F93
102
}
330
F93
100
AcDbVisualStyle
2

70
6
71
1
72
2
73
2
90
0
40
-0.6
41
-30.0
62
5
63
7
74
2
91
2
64
7
65
257
75
2
175
1
42
179.0
92
0
66
257
43
1.0
76
1
77
6
78
2
67
7
79
3
170
0
171
0
290
0
174
0
93
1
44
0.0
173
0
291
0
45
0.0
1001
ACAD
1000
AcDbSavedByObjectVersion
1070
0
0
VISUALSTYLE
5
F9A
102
{ACAD_XDICTIONARY
360
108C
102
}
102
{ACAD_REACTORS
330
F93
102
}
330
F93
100
AcDbVisualStyle
2

70
5
71
0
72
2
73
0
90
0
40
-0.6
41
-30.0
62
5
63
7
74
1
91
4
64
7
65
257
75
1
175
1
42
1.0
92
0
66
257
43
1.0
76
1
77
6
78
2
67
7
79
5
170
0
171
0
290
0
174
0
93
1
44
0.0
173
0
291
0
45
0.0
1001
ACAD
1000
AcDbSavedByObjectVersion
1070
0
0
VISUALSTYLE
5
F98
102
{ACAD_XDICTIONARY
360
1088
102
}
102
{ACAD_REACTORS
330
F93
102
}
330
F93
100
AcDbVisualStyle
2

70
7
71
1
72
0
73
1
90
0
40
-0.6
41
-30.0
62
5
63
7
74
0
91
4
64
7
65
257
75
1
175
1
42
1.0
92
8
66
7
43
1.0
76
1
77
6
78
2
67
7
79
5
170
0
171
0
290
0
174
0
93
1
44
0.0
173
0
291
1
45
0.0
1001
ACAD
1000
AcDbSavedByObjectVersion
1070
0
0
VISUALSTYLE
5
F9F
102
{ACAD_XDICTIONARY
360
1096
102
}
102
{ACAD_REACTORS
330
F93
102
}
330
F93
100
AcDbVisualStyle
2

70
12
71
2
72
2
73
0
90
0
40
-0.6
41
-30.0
62
5
63
7
74
1
91
4
64
7
65
257
75
1
175
1
42
1.0
92
8
66
7
43
1.0
76
1
77
6
78
2
67
7
79
5
170
0
171
0
290
0
174
0
93
1
44
50.0
173
0
291
1
45
0.0
1001
ACAD
1000
AcDbSavedByObjectVersion
1070
0
0
VISUALSTYLE
5
FA3
102
{ACAD_XDICTIONARY
360
109E
102
}
102
{ACAD_REACTORS
330
F93
102
}
330
F93
100
AcDbVisualStyle
2

70
16
71
2
72
2
73
3
90
0
40
-0.6
41
-30.0
62
5
63
8
74
1
91
4
64
7
65
257
75
1
175
1
42
1.0
92
8
66
8
43
1.0
76
1
77
6
78
2
67
7
79
5
170
0
171
0
290
0
174
0
93
1
44
0.0
173
0
291
1
45
0.0
1001
ACAD
1000
AcDbSavedByObjectVersion
1070
0
0
VISUALSTYLE
5
F9C
102
{ACAD_XDICTIONARY
360
1090
102
}
102
{ACAD_REACTORS
330
F93
102
}
330
F93
100
AcDbVisualStyle
2

70
9
71
3
72
2
73
0
90
0
40
-0.6
41
-30.0
62
5
63
7
74
2
91
2
64
7
65
257
75
1
175
1
42
179.0
92
8
66
7
43
1.0
76
1
77
6
78
2
67
7
79
3
170
0
171
0
290
0
174
0
93
1
44
0.0
173
0
291
0
45
0.0
1001
ACAD
1000
AcDbSavedByObjectVersion
1070
0
0
VISUALSTYLE
5
F9E
102
{ACAD_XDICTIONARY
360
1094
102
}
102
{ACAD_REACTORS
330
F93
102
}
330
F93
100
AcDbVisualStyle
2

70
11
71
2
72
2
73
0
90
0
40
-0.6
41
-30.0
62
5
63
7
74
1
91
4
64
7
65
257
75
1
175
1
42
1.0
92
8
66
7
43
1.0
76
1
77
6
78
2
67
7
79
5
170
0
171
0
290
0
174
0
93
1
44
-50.0
173
0
291
1
45
0.0
1001
ACAD
1000
AcDbSavedByObjectVersion
1070
0
0
VISUALSTYLE
5
FA6
102
{ACAD_XDICTIONARY
360
10A4
102
}
102
{ACAD_REACTORS
330
F93
102
}
330
F93
100
AcDbVisualStyle
2

70
22
71
2
72
2
73
0
90
0
40
-0.6
41
-30.0
62
5
63
7
74
1
91
4
64
7
65
257
75
1
175
1
42
1.0
92
8
66
7
43
1.0
76
1
77
6
78
2
67
7
79
5
170
0
171
0
290
0
174
0
93
1
44
0.0
173
0
291
1
45
0.0
1001
ACAD
1000
AcDbSavedByObjectVersion
1070
0
0
VISUALSTYLE
5
FA2
102
{ACAD_XDICTIONARY
360
109C
102
}
102
{ACAD_REACTORS
330
F93
102
}
330
F93
100
AcDbVisualStyle
2

70
15
71
2
72
2
73
0
90
0
40
-0.6
41
-30.0
62
5
63
7
74
1
91
4
64
7
65
257
75
1
175
1
42
1.0
92
8
66
7
43
1.0
76
1
77
6
78
2
67
7
79
5
170
0
171
0
290
0
174
0
93
1
44
0.0
173
0
291
1
45
0.0
1001
ACAD
1000
AcDbSavedByObjectVersion
1070
0
0
VISUALSTYLE
5
F94
102
{ACAD_XDICTIONARY
360
1080
102
}
102
{ACAD_REACTORS
330
F93
102
}
330
F93
100
AcDbVisualStyle
2

70
0
71
2
72
1
73
1
90
2
40
-0.6
41
30.0
62
5
63
7
74
0
91
4
64
7
65
257
75
1
175
1
42
1.0
92
8
66
7
43
1.0
76
1
77
6
78
2
67
7
79
5
170
0
171
0
290
0
174
0
93
13
44
0.0
173
0
291
1
45
0.0
1001
ACAD
1000
AcDbSavedByObjectVersion
1070
0
0
VISUALSTYLE
5
F95
102
{ACAD_XDICTIONARY
360
1082
102
}
102
{ACAD_REACTORS
330
F93
102
}
330
F93
100
AcDbVisualStyle
2

70
1
71
2
72
1
73
1
90
2
40
-0.6
41
30.0
62
5
63
7
74
1
91
4
64
7
65
257
75
1
175
1
42
1.0
92
0
66
257
43
1.0
76
1
77
6
78
2
67
7
79
5
170
0
171
0
290
0
174
0
93
13
44
0.0
173
0
291
1
45
0.0
1001
ACAD
1000
AcDbSavedByObjectVersion
1070
0
0
VISUALSTYLE
5
F96
102
{ACAD_XDICTIONARY
360
1084
102
}
102
{ACAD_REACTORS
330
F93
102
}
330
F93
100
AcDbVisualStyle
2

70
2
71
2
72
2
73
1
90
2
40
-0.6
41
30.0
62
5
63
7
74
0
91
4
64
7
65
257
75
1
175
1
42
1.0
92
0
66
7
43
1.0
76
1
77
6
78
2
67
7
79
5
170
0
171
0
290
0
174
0
93
13
44
0.0
173
0
291
1
45
0.0
1001
ACAD
1000
AcDbSavedByObjectVersion
1070
0
0
VISUALSTYLE
5
F97
102
{ACAD_XDICTIONARY
360
1086
102
}
102
{ACAD_REACTORS
330
F93
102
}
330
F93
100
AcDbVisualStyle
2

70
3
71
2
72
2
73
1
90
2
40
-0.6
41
30.0
62
5
63
7
74
1
91
4
64
7
65
257
75
1
175
1
42
1.0
92
0
66
257
43
1.0
76
1
77
6
78
2
67
7
79
5
170
0
171
0
290
0
174
0
93
13
44
0.0
173
0
291
1
45
0.0
1001
ACAD
1000
AcDbSavedByObjectVersion
1070
0
0
VISUALSTYLE
5
FA4
102
{ACAD_XDICTIONARY
360
10A0
102
}
102
{ACAD_REACTORS
330
F93
102
}
330
F93
100
AcDbVisualStyle
2

70
20
71
2
72
2
73
0
90
0
40
-0.6
41
-30.0
62
5
63
7
74
1
91
4
64
7
65
257
75
1
175
1
42
1.0
92
10
66
7
43
1.0
76
1
77
6
78
2
67
7
79
5
170
0
171
0
290
0
174
0
93
1
44
0.0
173
0
291
1
45
0.0
1001
ACAD
1000
AcDbSavedByObjectVersion
1070
0
0
VISUALSTYLE
5
FA1
102
{ACAD_XDICTIONARY
360
109A
102
}
102
{ACAD_REACTORS
330
F93
102
}
330
F93
100
AcDbVisualStyle
2

70
14
71
2
72
2
73
0
90
0
40
-0.6
41
-30.0
62
5
63
7
74
1
91
4
64
7
65
257
75
7
175
7
42
1.0
92
8
66
7
43
1.0
76
1
77
6
78
2
67
7
79
5
170
0
171
0
290
0
174
0
93
1
44
0.0
173
0
291
1
45
0.0
1001
ACAD
1000
AcDbSavedByObjectVersion
1070
0
0
VISUALSTYLE
5
FA5
102
{ACAD_XDICTIONARY
360
10A2
102
}
102
{ACAD_REACTORS
330
F93
102
}
330
F93
100
AcDbVisualStyle
2

70
21
71
2
72
2
73
0
90
0
40
-0.6
41
-30.0
62
5
63
7
74
1
91
4
64
7
65
257
75
1
175
1
42
1.0
92
9
66
7
43
1.0
76
1
77
6
78
2
67
7
79
5
170
0
171
0
290
0
174
0
93
1
44
0.0
173
0
291
1
45
0.0
1001
ACAD
1000
AcDbSavedByObjectVersion
1070
0
0
VISUALSTYLE
5
F9D
102
{ACAD_XDICTIONARY
360
1092
102
}
102
{ACAD_REACTORS
330
F93
102
}
330
F93
100
AcDbVisualStyle
2

70
8
71
2
72
2
73
0
90
0
40
-0.6
41
-30.0
62
5
63
7
74
1
91
0
64
7
65
257
75
1
175
1
42
1.0
92
8
66
8
43
1.0
76
1
77
6
78
2
67
7
79
5
170
0
171
0
290
0
174
0
93
13
44
0.0
173
0
291
0
45
0.0
1001
ACAD
1000
AcDbSavedByObjectVersion
1070
0
0
VISUALSTYLE
5
FA0
102
{ACAD_XDICTIONARY
360
1098
102
}
102
{ACAD_REACTORS
330
F93
102
}
330
F93
100
AcDbVisualStyle
2

70
13
71
2
72
2
73
0
90
0
40
-0.6
41
-30.0
62
5
63
7
74
1
91
4
64
7
65
257
75
1
175
1
42
1.0
92
12
66
7
43
1.0
76
1
77
6
78
2
67
7
79
5
170
0
171
0
290
0
174
0
93
1
44
0.0
173
0
291
1
45
0.0
1001
ACAD
1000
AcDbSavedByObjectVersion
1070
0
0
DICTIONARYVAR
5
FF3
102
{ACAD_REACTORS
330
FF0
102
}
330
FF0
100
DictionaryVariables
280
0
1
1:1
0
DICTIONARYVAR
5
FF2
102
{ACAD_REACTORS
330
FF0
102
}
330
FF0
100
DictionaryVariables
280
0
1
STANDARD
0
DICTIONARYVAR
5
FF1
102
{ACAD_REACTORS
330
FF0
102
}
330
FF0
100
DictionaryVariables
280
0
1
STANDARD
0
DICTIONARYVAR
5
FF6
102
{ACAD_REACTORS
330
FF0
102
}
330
FF0
100
DictionaryVariables
280
0
1
1
0
DICTIONARYVAR
5
FF5
102
{ACAD_REACTORS
330
FF0
102
}
330
FF0
100
DictionaryVariables
280
0
1
0
0
DICTIONARYVAR
5
FF4
102
{ACAD_REACTORS
330
FF0
102
}
330
FF0
100
DictionaryVariables
280
0
1
127
0
DICTIONARYVAR
5
1078
102
{ACAD_REACTORS
330
FF0
102
}
330
FF0
100
DictionaryVariables
280
0
1
2
0
DICTIONARY
5
10A9
330
FD1
100
AcDbDictionary
280
1
281
1
3
ACAD_XREC_ROUNDTRIP
360
10AA
0
DICTIONARY
5
10A7
330
FD0
100
AcDbDictionary
280
1
281
1
3
ACAD_XREC_ROUNDTRIP
360
10A8
0
DICTIONARY
5
F84
330
F83
100
AcDbDictionary
280
1
281
1
3
ACAD_XREC_ROUNDTRIP
360
FFF
3
BUMPTILE
360
F86
3
DIFFUSETILE
360
F85
3
OPACITYTILE
360
F89
3
REFLECTIONTILE
360
F88
3
REFRACTIONTILE
360
F8A
3
SPECULARTILE
360
F87
0
DICTIONARY
5
F7C
330
F7B
100
AcDbDictionary
280
1
281
1
3
ACAD_XREC_ROUNDTRIP
360
FFE
3
BUMPTILE
360
F7E
3
DIFFUSETILE
360
F7D
3
OPACITYTILE
360
F81
3
REFLECTIONTILE
360
F80
3
REFRACTIONTILE
360
F82
3
SPECULARTILE
360
F7F
0
DICTIONARY
5
F8C
330
F8B
100
AcDbDictionary
280
1
281
1
3
ACAD_XREC_ROUNDTRIP
360
1000
3
BUMPTILE
360
F8E
3
DIFFUSETILE
360
F8D
3
OPACITYTILE
360
F91
3
REFLECTIONTILE
360
F90
3
REFRACTIONTILE
360
F92
3
SPECULARTILE
360
F8F
0
DICTIONARY
5
FF8
330
FA9
100
AcDbDictionary
280
1
281
1
3
ACAD_ROUNDTRIP_2008_TABLESTYLE_CELLSTYLEMAP
360
1079
3
ACAD_XREC_ROUNDTRIP
360
10A6
0
DICTIONARY
5
108A
330
F99
100
AcDbDictionary
280
1
281
1
3
ACAD_XREC_ROUNDTRIP
360
108B
0
DICTIONARY
5
108E
330
F9B
100
AcDbDictionary
280
1
281
1
3
ACAD_XREC_ROUNDTRIP
360
108F
0
DICTIONARY
5
108C
330
F9A
100
AcDbDictionary
280
1
281
1
3
ACAD_XREC_ROUNDTRIP
360
108D
0
DICTIONARY
5
1088
330
F98
100
AcDbDictionary
280
1
281
1
3
ACAD_XREC_ROUNDTRIP
360
1089
0
DICTIONARY
5
1096
330
F9F
100
AcDbDictionary
280
1
281
1
3
ACAD_XREC_ROUNDTRIP
360
1097
0
DICTIONARY
5
109E
330
FA3
100
AcDbDictionary
280
1
281
1
3
ACAD_XREC_ROUNDTRIP
360
109F
0
DICTIONARY
5
1090
330
F9C
100
AcDbDictionary
280
1
281
1
3
ACAD_XREC_ROUNDTRIP
360
1091
0
DICTIONARY
5
1094
330
F9E
100
AcDbDictionary
280
1
281
1
3
ACAD_XREC_ROUNDTRIP
360
1095
0
DICTIONARY
5
10A4
330
FA6
100
AcDbDictionary
280
1
281
1
3
ACAD_XREC_ROUNDTRIP
360
10A5
0
DICTIONARY
5
109C
330
FA2
100
AcDbDictionary
280
1
281
1
3
ACAD_XREC_ROUNDTRIP
360
109D
0
DICTIONARY
5
1080
330
F94
100
AcDbDictionary
280
1
281
1
3
ACAD_XREC_ROUNDTRIP
360
1081
0
DICTIONARY
5
1082
330
F95
100
AcDbDictionary
280
1
281
1
3
ACAD_XREC_ROUNDTRIP
360
1083
0
DICTIONARY
5
1084
330
F96
100
AcDbDictionary
280
1
281
1
3
ACAD_XREC_ROUNDTRIP
360
1085
0
DICTIONARY
5
1086
330
F97
100
AcDbDictionary
280
1
281
1
3
ACAD_XREC_ROUNDTRIP
360
1087
0
DICTIONARY
5
10A0
330
FA4
100
AcDbDictionary
280
1
281
1
3
ACAD_XREC_ROUNDTRIP
360
10A1
0
DICTIONARY
5
109A
330
FA1
100
AcDbDictionary
280
1
281
1
3
ACAD_XREC_ROUNDTRIP
360
109B
0
DICTIONARY
5
10A2
330
FA5
100
AcDbDictionary
280
1
281
1
3
ACAD_XREC_ROUNDTRIP
360
10A3
0
DICTIONARY
5
1092
330
F9D
100
AcDbDictionary
280
1
281
1
3
ACAD_XREC_ROUNDTRIP
360
1093
0
DICTIONARY
5
1098
330
FA0
100
AcDbDictionary
280
1
281
1
3
ACAD_XREC_ROUNDTRIP
360
1099
0
XRECORD
5
10AA
102
{ACAD_REACTORS
330
10A9
102
}
330
10A9
100
AcDbXrecord
280
1
102
SHADEPLOT
70
0
102
SHADEPLOTRESLEVEL
70
2
102
SHADEPLOTCUSTOMDPI
70
300
0
XRECORD
5
10A8
102
{ACAD_REACTORS
330
10A7
102
}
330
10A7
100
AcDbXrecord
280
1
102
SHADEPLOT
70
0
102
SHADEPLOTRESLEVEL
70
2
102
SHADEPLOTCUSTOMDPI
70
300
0
XRECORD
5
FFF
102
{ACAD_REACTORS
330
F84
102
}
330
F84
100
AcDbXrecord
280
1
102
MATERIAL
148
0.0
149
0.0
149
0.0
93
0
94
127
282
0
72
0
77
0
171
0
175
0
179
0
273
0
0
XRECORD
5
F86
102
{ACAD_REACTORS
330
F84
102
}
330
F84
100
AcDbXrecord
280
1
270
1
271
1
0
XRECORD
5
F85
102
{ACAD_REACTORS
330
F84
102
}
330
F84
100
AcDbXrecord
280
1
270
1
271
1
0
XRECORD
5
F89
102
{ACAD_REACTORS
330
F84
102
}
330
F84
100
AcDbXrecord
280
1
270
1
271
1
0
XRECORD
5
F88
102
{ACAD_REACTORS
330
F84
102
}
330
F84
100
AcDbXrecord
280
1
270
1
271
1
0
XRECORD
5
F8A
102
{ACAD_REACTORS
330
F84
102
}
330
F84
100
AcDbXrecord
280
1
270
1
271
1
0
XRECORD
5
F87
102
{ACAD_REACTORS
330
F84
102
}
330
F84
100
AcDbXrecord
280
1
270
1
271
1
0
XRECORD
5
FFE
102
{ACAD_REACTORS
330
F7C
102
}
330
F7C
100
AcDbXrecord
280
1
102
MATERIAL
148
0.0
149
0.0
149
0.0
93
0
94
127
282
0
72
0
77
0
171
0
175
0
179
0
273
0
0
XRECORD
5
F7E
102
{ACAD_REACTORS
330
F7C
102
}
330
F7C
100
AcDbXrecord
280
1
270
1
271
1
0
XRECORD
5
F7D
102
{ACAD_REACTORS
330
F7C
102
}
330
F7C
100
AcDbXrecord
280
1
270
1
271
1
0
XRECORD
5
F81
102
{ACAD_REACTORS
330
F7C
102
}
330
F7C
100
AcDbXrecord
280
1
270
1
271
1
0
XRECORD
5
F80
102
{ACAD_REACTORS
330
F7C
102
}
330
F7C
100
AcDbXrecord
280
1
270
1
271
1
0
XRECORD
5
F82
102
{ACAD_REACTORS
330
F7C
102
}
330
F7C
100
AcDbXrecord
280
1
270
1
271
1
0
XRECORD
5
F7F
102
{ACAD_REACTORS
330
F7C
102
}
330
F7C
100
AcDbXrecord
280
1
270
1
271
1
0
XRECORD
5
1000
102
{ACAD_REACTORS
330
F8C
102
}
330
F8C
100
AcDbXrecord
280
1
102
MATERIAL
148
0.0
149
0.0
149
0.0
93
0
94
127
282
0
72
0
77
0
171
0
175
0
179
0
273
0
0
XRECORD
5
F8E
102
{ACAD_REACTORS
330
F8C
102
}
330
F8C
100
AcDbXrecord
280
1
270
1
271
1
0
XRECORD
5
F8D
102
{ACAD_REACTORS
330
F8C
102
}
330
F8C
100
AcDbXrecord
280
1
270
1
271
1
0
XRECORD
5
F91
102
{ACAD_REACTORS
330
F8C
102
}
330
F8C
100
AcDbXrecord
280
1
270
1
271
1
0
XRECORD
5
F90
102
{ACAD_REACTORS
330
F8C
102
}
330
F8C
100
AcDbXrecord
280
1
270
1
271
1
0
XRECORD
5
F92
102
{ACAD_REACTORS
330
F8C
102
}
330
F8C
100
AcDbXrecord
280
1
270
1
271
1
0
XRECORD
5
F8F
102
{ACAD_REACTORS
330
F8C
102
}
330
F8C
100
AcDbXrecord
280
1
270
1
271
1
0
CELLSTYLEMAP
5
1079
102
{ACAD_REACTORS
330
FF8
102
}
330
FF8
100
AcDbCellStyleMap
90
3
300
CELLSTYLE
1
TABLEFORMAT_BEGIN
90
5
170
1
91
0
92
32768
62
257
93
1
300
CONTENTFORMAT
1
CONTENTFORMAT_BEGIN
90
0
91
0
92
512
93
0
300

40
0.0
140
1.0
94
5
62
0
340
253
144
0.25
309
CONTENTFORMAT_END
171
1
301
MARGIN
1
CELLMARGIN_BEGIN
40
0.06
40
0.06
40
0.06
40
0.06
40
0.18
40
0.18
309
CELLMARGIN_END
94
6
95
1
302
GRIDFORMAT
1
GRIDFORMAT_BEGIN
90
0
91
1
62
0
92
-2
340
0
93
0
40
0.045
309
GRIDFORMAT_END
95
2
302
GRIDFORMAT
1
GRIDFORMAT_BEGIN
90
0
91
1
62
0
92
-2
340
0
93
0
40
0.045
309
GRIDFORMAT_END
95
4
302
GRIDFORMAT
1
GRIDFORMAT_BEGIN
90
0
91
1
62
0
92
-2
340
0
93
0
40
0.045
309
GRIDFORMAT_END
95
8
302
GRIDFORMAT
1
GRIDFORMAT_BEGIN
90
0
91
1
62
0
92
-2
340
0
93
0
40
0.045
309
GRIDFORMAT_END
95
16
302
GRIDFORMAT
1
GRIDFORMAT_BEGIN
90
0
91
1
62
0
92
-2
340
0
93
0
40
0.045
309
GRIDFORMAT_END
95
32
302
GRIDFORMAT
1
GRIDFORMAT_BEGIN
90
0
91
1
62
0
92
-2
340
0
93
0
40
0.045
309
GRIDFORMAT_END
309
TABLEFORMAT_END
1
CELLSTYLE_BEGIN
90
1
91
1
300
_TITLE
309
CELLSTYLE_END
300
CELLSTYLE
1
TABLEFORMAT_BEGIN
90
5
170
1
91
0
92
0
62
257
93
1
300
CONTENTFORMAT
1
CONTENTFORMAT_BEGIN
90
0
91
0
92
512
93
0
300

40
0.0
140
1.0
94
5
62
0
340
253
144
0.18
309
CONTENTFORMAT_END
171
1
301
MARGIN
1
CELLMARGIN_BEGIN
40
0.06
40
0.06
40
0.06
40
0.06
40
0.18
40
0.18
309
CELLMARGIN_END
94
6
95
1
302
GRIDFORMAT
1
GRIDFORMAT_BEGIN
90
0
91
1
62
0
92
-2
340
0
93
0
40
0.045
309
GRIDFORMAT_END
95
2
302
GRIDFORMAT
1
GRIDFORMAT_BEGIN
90
0
91
1
62
0
92
-2
340
0
93
0
40
0.045
309
GRIDFORMAT_END
95
4
302
GRIDFORMAT
1
GRIDFORMAT_BEGIN
90
0
91
1
62
0
92
-2
340
0
93
0
40
0.045
309
GRIDFORMAT_END
95
8
302
GRIDFORMAT
1
GRIDFORMAT_BEGIN
90
0
91
1
62
0
92
-2
340
0
93
0
40
0.045
309
GRIDFORMAT_END
95
16
302
GRIDFORMAT
1
GRIDFORMAT_BEGIN
90
0
91
1
62
0
92
-2
340
0
93
0
40
0.045
309
GRIDFORMAT_END
95
32
302
GRIDFORMAT
1
GRIDFORMAT_BEGIN
90
0
91
1
62
0
92
-2
340
0
93
0
40
0.045
309
GRIDFORMAT_END
309
TABLEFORMAT_END
1
CELLSTYLE_BEGIN
90
2
91
1
300
_HEADER
309
CELLSTYLE_END
300
CELLSTYLE
1
TABLEFORMAT_BEGIN
90
5
170
1
91
0
92
0
62
257
93
1
300
CONTENTFORMAT
1
CONTENTFORMAT_BEGIN
90
0
91
0
92
512
93
0
300

40
0.0
140
1.0
94
2
62
0
340
253
144
0.18
309
CONTENTFORMAT_END
171
1
301
MARGIN
1
CELLMARGIN_BEGIN
40
0.06
40
0.06
40
0.06
40
0.06
40
0.18
40
0.18
309
CELLMARGIN_END
94
6
95
1
302
GRIDFORMAT
1
GRIDFORMAT_BEGIN
90
0
91
1
62
0
92
-2
340
0
93
0
40
0.045
309
GRIDFORMAT_END
95
2
302
GRIDFORMAT
1
GRIDFORMAT_BEGIN
90
0
91
1
62
0
92
-2
340
0
93
0
40
0.045
309
GRIDFORMAT_END
95
4
302
GRIDFORMAT
1
GRIDFORMAT_BEGIN
90
0
91
1
62
0
92
-2
340
0
93
0
40
0.045
309
GRIDFORMAT_END
95
8
302
GRIDFORMAT
1
GRIDFORMAT_BEGIN
90
0
91
1
62
0
92
-2
340
0
93
0
40
0.045
309
GRIDFORMAT_END
95
16
302
GRIDFORMAT
1
GRIDFORMAT_BEGIN
90
0
91
1
62
0
92
-2
340
0
93
0
40
0.045
309
GRIDFORMAT_END
95
32
302
GRIDFORMAT
1
GRIDFORMAT_BEGIN
90
0
91
1
62
0
92
-2
340
0
93
0
40
0.045
309
GRIDFORMAT_END
309
TABLEFORMAT_END
1
CELLSTYLE_BEGIN
90
3
91
2
300
_DATA
309
CELLSTYLE_END
0
XRECORD
5
10A6
102
{ACAD_REACTORS
330
FF8
102
}
330
FF8
100
AcDbXrecord
280
1
102
ACAD_ROUNDTRIP_PRE2007_TABLESTYLE
90
512
91
0
1

92
512
93
0
2

94
512
95
0
3

0
XRECORD
5
108B
102
{ACAD_REACTORS
330
108A
102
}
330
108A
100
AcDbXrecord
280
1
102
RTVSPropertyOp0
70
1
102
RTVSPropertyOp1
70
1
102
RTVSPropertyOp2
70
1
102
RTVSPropertyOp3
70
1
102
RTVSPropertyOp4
70
1
102
RTVSPropertyOp5
70
1
102
RTVSPropertyOp6
70
1
102
RTVSPropertyOp7
70
1
102
RTVSPropertyOp8
70
1
102
RTVSPropertyOp9
70
1
102
RTVSPropertyOp10
70
1
102
RTVSPropertyOp11
70
1
102
RTVSPropertyOp12
70
1
102
RTVSPropertyOp13
70
1
102
RTVSPropertyOp14
70
1
102
RTVSPropertyOp15
70
1
102
RTVSPropertyOp16
70
1
102
RTVSPropertyOp17
70
1
102
RTVSPropertyOp18
70
1
102
RTVSPropertyOp19
70
1
102
RTVSPropertyOp20
70
1
102
RTVSPropertyOp21
70
1
102
RTVSPropertyOp22
70
1
102
RTVSPropertyOp23
70
1
102
RTVSPropertyOp24
70
1
102
RTVSPropertyOp25
70
1
102
RTVSPropertyOp26
70
1
102
RTVSPropertyOp27
70
1
0
XRECORD
5
108F
102
{ACAD_REACTORS
330
108E
102
}
330
108E
100
AcDbXrecord
280
1
102
RTVSPropertyOp0
70
1
102
RTVSPropertyOp1
70
1
102
RTVSPropertyOp2
70
1
102
RTVSPropertyOp3
70
1
102
RTVSPropertyOp4
70
1
102
RTVSPropertyOp5
70
1
102
RTVSPropertyOp6
70
1
102
RTVSPropertyOp7
70
1
102
RTVSPropertyOp8
70
1
102
RTVSPropertyOp9
70
1
102
RTVSPropertyOp10
70
1
102
RTVSPropertyOp11
70
1
102
RTVSPropertyOp12
70
1
102
RTVSPropertyOp13
70
1
102
RTVSPropertyOp14
70
1
102
RTVSPropertyOp15
70
1
102
RTVSPropertyOp16
70
1
102
RTVSPropertyOp17
70
1
102
RTVSPropertyOp18
70
1
102
RTVSPropertyOp19
70
1
102
RTVSPropertyOp20
70
1
102
RTVSPropertyOp21
70
1
102
RTVSPropertyOp22
70
1
102
RTVSPropertyOp23
70
1
102
RTVSPropertyOp24
70
1
102
RTVSPropertyOp25
70
1
102
RTVSPropertyOp26
70
1
102
RTVSPropertyOp27
70
1
0
XRECORD
5
108D
102
{ACAD_REACTORS
330
108C
102
}
330
108C
100
AcDbXrecord
280
1
102
RTVSPropertyOp0
70
1
102
RTVSPropertyOp1
70
1
102
RTVSPropertyOp2
70
1
102
RTVSPropertyOp3
70
1
102
RTVSPropertyOp4
70
1
102
RTVSPropertyOp5
70
1
102
RTVSPropertyOp6
70
1
102
RTVSPropertyOp7
70
1
102
RTVSPropertyOp8
70
1
102
RTVSPropertyOp9
70
1
102
RTVSPropertyOp10
70
1
102
RTVSPropertyOp11
70
1
102
RTVSPropertyOp12
70
1
102
RTVSPropertyOp13
70
1
102
RTVSPropertyOp14
70
1
102
RTVSPropertyOp15
70
1
102
RTVSPropertyOp16
70
1
102
RTVSPropertyOp17
70
1
102
RTVSPropertyOp18
70
1
102
RTVSPropertyOp19
70
1
102
RTVSPropertyOp20
70
1
102
RTVSPropertyOp21
70
1
102
RTVSPropertyOp22
70
1
102
RTVSPropertyOp23
70
1
102
RTVSPropertyOp24
70
1
102
RTVSPropertyOp25
70
1
102
RTVSPropertyOp26
70
1
102
RTVSPropertyOp27
70
1
0
XRECORD
5
1089
102
{ACAD_REACTORS
330
1088
102
}
330
1088
100
AcDbXrecord
280
1
102
RTVSPropertyOp0
70
1
102
RTVSPropertyOp1
70
1
102
RTVSPropertyOp2
70
1
102
RTVSPropertyOp3
70
1
102
RTVSPropertyOp4
70
1
102
RTVSPropertyOp5
70
1
102
RTVSPropertyOp6
70
1
102
RTVSPropertyOp7
70
1
102
RTVSPropertyOp8
70
1
102
RTVSPropertyOp9
70
1
102
RTVSPropertyOp10
70
1
102
RTVSPropertyOp11
70
1
102
RTVSPropertyOp12
70
1
102
RTVSPropertyOp13
70
1
102
RTVSPropertyOp14
70
1
102
RTVSPropertyOp15
70
1
102
RTVSPropertyOp16
70
1
102
RTVSPropertyOp17
70
1
102
RTVSPropertyOp18
70
1
102
RTVSPropertyOp19
70
1
102
RTVSPropertyOp20
70
1
102
RTVSPropertyOp21
70
1
102
RTVSPropertyOp22
70
1
102
RTVSPropertyOp23
70
1
102
RTVSPropertyOp24
70
1
102
RTVSPropertyOp25
70
1
102
RTVSPropertyOp26
70
1
102
RTVSPropertyOp27
70
1
0
XRECORD
5
1097
102
{ACAD_REACTORS
330
1096
102
}
330
1096
100
AcDbXrecord
280
1
102
RTVSPropertyOp0
70
1
102
RTVSPropertyOp1
70
1
102
RTVSPropertyOp2
70
1
102
RTVSPropertyOp3
70
1
102
RTVSPropertyOp4
70
1
102
RTVSPropertyOp5
70
1
102
RTVSPropertyOp6
70
1
102
RTVSPropertyOp7
70
1
102
RTVSPropertyOp8
70
1
102
RTVSPropertyOp9
70
1
102
RTVSPropertyOp10
70
1
102
RTVSPropertyOp11
70
1
102
RTVSPropertyOp12
70
1
102
RTVSPropertyOp13
70
1
102
RTVSPropertyOp14
70
1
102
RTVSPropertyOp15
70
1
102
RTVSPropertyOp16
70
1
102
RTVSPropertyOp17
70
1
102
RTVSPropertyOp18
70
1
102
RTVSPropertyOp19
70
1
102
RTVSPropertyOp20
70
1
102
RTVSPropertyOp21
70
1
102
RTVSPropertyOp22
70
1
102
RTVSPropertyOp23
70
1
102
RTVSPropertyOp24
70
1
102
RTVSPropertyOp25
70
1
102
RTVSPropertyOp26
70
1
102
RTVSPropertyOp27
70
1
0
XRECORD
5
109F
102
{ACAD_REACTORS
330
109E
102
}
330
109E
100
AcDbXrecord
280
1
102
RTVSPropertyOp0
70
1
102
RTVSPropertyOp1
70
1
102
RTVSPropertyOp2
70
1
102
RTVSPropertyOp3
70
1
102
RTVSPropertyOp4
70
1
102
RTVSPropertyOp5
70
1
102
RTVSPropertyOp6
70
1
102
RTVSPropertyOp7
70
1
102
RTVSPropertyOp8
70
1
102
RTVSPropertyOp9
70
1
102
RTVSPropertyOp10
70
1
102
RTVSPropertyOp11
70
1
102
RTVSPropertyOp12
70
1
102
RTVSPropertyOp13
70
1
102
RTVSPropertyOp14
70
1
102
RTVSPropertyOp15
70
1
102
RTVSPropertyOp16
70
1
102
RTVSPropertyOp17
70
1
102
RTVSPropertyOp18
70
1
102
RTVSPropertyOp19
70
1
102
RTVSPropertyOp20
70
1
102
RTVSPropertyOp21
70
1
102
RTVSPropertyOp22
70
1
102
RTVSPropertyOp23
70
1
102
RTVSPropertyOp24
70
1
102
RTVSPropertyOp25
70
1
102
RTVSPropertyOp26
70
1
102
RTVSPropertyOp27
70
1
0
XRECORD
5
1091
102
{ACAD_REACTORS
330
1090
102
}
330
1090
100
AcDbXrecord
280
1
102
RTVSPropertyOp0
70
1
102
RTVSPropertyOp1
70
1
102
RTVSPropertyOp2
70
1
102
RTVSPropertyOp3
70
1
102
RTVSPropertyOp4
70
1
102
RTVSPropertyOp5
70
1
102
RTVSPropertyOp6
70
1
102
RTVSPropertyOp7
70
1
102
RTVSPropertyOp8
70
1
102
RTVSPropertyOp9
70
1
102
RTVSPropertyOp10
70
1
102
RTVSPropertyOp11
70
1
102
RTVSPropertyOp12
70
1
102
RTVSPropertyOp13
70
1
102
RTVSPropertyOp14
70
1
102
RTVSPropertyOp15
70
1
102
RTVSPropertyOp16
70
1
102
RTVSPropertyOp17
70
1
102
RTVSPropertyOp18
70
1
102
RTVSPropertyOp19
70
1
102
RTVSPropertyOp20
70
1
102
RTVSPropertyOp21
70
1
102
RTVSPropertyOp22
70
1
102
RTVSPropertyOp23
70
1
102
RTVSPropertyOp24
70
1
102
RTVSPropertyOp25
70
1
102
RTVSPropertyOp26
70
1
102
RTVSPropertyOp27
70
1
0
XRECORD
5
1095
102
{ACAD_REACTORS
330
1094
102
}
330
1094
100
AcDbXrecord
280
1
102
RTVSPropertyOp0
70
1
102
RTVSPropertyOp1
70
1
102
RTVSPropertyOp2
70
1
102
RTVSPropertyOp3
70
1
102
RTVSPropertyOp4
70
1
102
RTVSPropertyOp5
70
1
102
RTVSPropertyOp6
70
1
102
RTVSPropertyOp7
70
1
102
RTVSPropertyOp8
70
1
102
RTVSPropertyOp9
70
1
102
RTVSPropertyOp10
70
1
102
RTVSPropertyOp11
70
1
102
RTVSPropertyOp12
70
1
102
RTVSPropertyOp13
70
1
102
RTVSPropertyOp14
70
1
102
RTVSPropertyOp15
70
1
102
RTVSPropertyOp16
70
1
102
RTVSPropertyOp17
70
1
102
RTVSPropertyOp18
70
1
102
RTVSPropertyOp19
70
1
102
RTVSPropertyOp20
70
1
102
RTVSPropertyOp21
70
1
102
RTVSPropertyOp22
70
1
102
RTVSPropertyOp23
70
1
102
RTVSPropertyOp24
70
1
102
RTVSPropertyOp25
70
1
102
RTVSPropertyOp26
70
1
102
RTVSPropertyOp27
70
1
0
XRECORD
5
10A5
102
{ACAD_REACTORS
330
10A4
102
}
330
10A4
100
AcDbXrecord
280
1
102
RTVSPropertyOp0
70
0
102
RTVSPropertyOp1
70
0
102
RTVSPropertyOp2
70
0
102
RTVSPropertyOp3
70
0
102
RTVSPropertyOp4
70
0
102
RTVSPropertyOp5
70
0
102
RTVSPropertyOp6
70
0
102
RTVSPropertyOp7
70
0
102
RTVSPropertyOp8
70
0
102
RTVSPropertyOp9
70
0
102
RTVSPropertyOp10
70
0
102
RTVSPropertyOp11
70
0
102
RTVSPropertyOp12
70
0
102
RTVSPropertyOp13
70
0
102
RTVSPropertyOp14
70
2
102
RTVSPropertyOp15
70
0
102
RTVSPropertyOp16
70
0
102
RTVSPropertyOp17
70
0
102
RTVSPropertyOp18
70
0
102
RTVSPropertyOp19
70
0
102
RTVSPropertyOp20
70
0
102
RTVSPropertyOp21
70
0
102
RTVSPropertyOp22
70
0
102
RTVSPropertyOp23
70
0
102
RTVSPropertyOp24
70
0
102
RTVSPropertyOp25
70
0
102
RTVSPropertyOp26
70
0
102
RTVSPropertyOp27
70
0
0
XRECORD
5
109D
102
{ACAD_REACTORS
330
109C
102
}
330
109C
100
AcDbXrecord
280
1
102
RTVSPropertyOp0
70
1
102
RTVSPropertyOp1
70
1
102
RTVSPropertyOp2
70
1
102
RTVSPropertyOp3
70
1
102
RTVSPropertyOp4
70
1
102
RTVSPropertyOp5
70
1
102
RTVSPropertyOp6
70
1
102
RTVSPropertyOp7
70
1
102
RTVSPropertyOp8
70
1
102
RTVSPropertyOp9
70
1
102
RTVSPropertyOp10
70
1
102
RTVSPropertyOp11
70
1
102
RTVSPropertyOp12
70
1
102
RTVSPropertyOp13
70
1
102
RTVSPropertyOp14
70
1
102
RTVSPropertyOp15
70
1
102
RTVSPropertyOp16
70
1
102
RTVSPropertyOp17
70
1
102
RTVSPropertyOp18
70
1
102
RTVSPropertyOp19
70
1
102
RTVSPropertyOp20
70
1
102
RTVSPropertyOp21
70
1
102
RTVSPropertyOp22
70
1
102
RTVSPropertyOp23
70
1
102
RTVSPropertyOp24
70
1
102
RTVSPropertyOp25
70
1
102
RTVSPropertyOp26
70
1
102
RTVSPropertyOp27
70
1
0
XRECORD
5
1081
102
{ACAD_REACTORS
330
1080
102
}
330
1080
100
AcDbXrecord
280
1
102
RTVSPropertyOp0
70
1
102
RTVSPropertyOp1
70
1
102
RTVSPropertyOp2
70
1
102
RTVSPropertyOp3
70
1
102
RTVSPropertyOp4
70
1
102
RTVSPropertyOp5
70
1
102
RTVSPropertyOp6
70
1
102
RTVSPropertyOp7
70
1
102
RTVSPropertyOp8
70
1
102
RTVSPropertyOp9
70
1
102
RTVSPropertyOp10
70
1
102
RTVSPropertyOp11
70
1
102
RTVSPropertyOp12
70
1
102
RTVSPropertyOp13
70
1
102
RTVSPropertyOp14
70
1
102
RTVSPropertyOp15
70
1
102
RTVSPropertyOp16
70
1
102
RTVSPropertyOp17
70
1
102
RTVSPropertyOp18
70
1
102
RTVSPropertyOp19
70
1
102
RTVSPropertyOp20
70
1
102
RTVSPropertyOp21
70
1
102
RTVSPropertyOp22
70
1
102
RTVSPropertyOp23
70
1
102
RTVSPropertyOp24
70
1
102
RTVSPropertyOp25
70
1
102
RTVSPropertyOp26
70
1
102
RTVSPropertyOp27
70
1
0
XRECORD
5
1083
102
{ACAD_REACTORS
330
1082
102
}
330
1082
100
AcDbXrecord
280
1
102
RTVSPropertyOp0
70
1
102
RTVSPropertyOp1
70
1
102
RTVSPropertyOp2
70
1
102
RTVSPropertyOp3
70
1
102
RTVSPropertyOp4
70
1
102
RTVSPropertyOp5
70
1
102
RTVSPropertyOp6
70
1
102
RTVSPropertyOp7
70
1
102
RTVSPropertyOp8
70
1
102
RTVSPropertyOp9
70
1
102
RTVSPropertyOp10
70
1
102
RTVSPropertyOp11
70
1
102
RTVSPropertyOp12
70
1
102
RTVSPropertyOp13
70
1
102
RTVSPropertyOp14
70
1
102
RTVSPropertyOp15
70
1
102
RTVSPropertyOp16
70
1
102
RTVSPropertyOp17
70
1
102
RTVSPropertyOp18
70
1
102
RTVSPropertyOp19
70
1
102
RTVSPropertyOp20
70
1
102
RTVSPropertyOp21
70
1
102
RTVSPropertyOp22
70
1
102
RTVSPropertyOp23
70
1
102
RTVSPropertyOp24
70
1
102
RTVSPropertyOp25
70
1
102
RTVSPropertyOp26
70
1
102
RTVSPropertyOp27
70
1
0
XRECORD
5
1085
102
{ACAD_REACTORS
330
1084
102
}
330
1084
100
AcDbXrecord
280
1
102
RTVSPropertyOp0
70
1
102
RTVSPropertyOp1
70
1
102
RTVSPropertyOp2
70
1
102
RTVSPropertyOp3
70
1
102
RTVSPropertyOp4
70
1
102
RTVSPropertyOp5
70
1
102
RTVSPropertyOp6
70
1
102
RTVSPropertyOp7
70
1
102
RTVSPropertyOp8
70
1
102
RTVSPropertyOp9
70
1
102
RTVSPropertyOp10
70
1
102
RTVSPropertyOp11
70
1
102
RTVSPropertyOp12
70
1
102
RTVSPropertyOp13
70
1
102
RTVSPropertyOp14
70
1
102
RTVSPropertyOp15
70
1
102
RTVSPropertyOp16
70
1
102
RTVSPropertyOp17
70
1
102
RTVSPropertyOp18
70
1
102
RTVSPropertyOp19
70
1
102
RTVSPropertyOp20
70
1
102
RTVSPropertyOp21
70
1
102
RTVSPropertyOp22
70
1
102
RTVSPropertyOp23
70
1
102
RTVSPropertyOp24
70
1
102
RTVSPropertyOp25
70
1
102
RTVSPropertyOp26
70
1
102
RTVSPropertyOp27
70
1
0
XRECORD
5
1087
102
{ACAD_REACTORS
330
1086
102
}
330
1086
100
AcDbXrecord
280
1
102
RTVSPropertyOp0
70
1
102
RTVSPropertyOp1
70
1
102
RTVSPropertyOp2
70
1
102
RTVSPropertyOp3
70
1
102
RTVSPropertyOp4
70
1
102
RTVSPropertyOp5
70
1
102
RTVSPropertyOp6
70
1
102
RTVSPropertyOp7
70
1
102
RTVSPropertyOp8
70
1
102
RTVSPropertyOp9
70
1
102
RTVSPropertyOp10
70
1
102
RTVSPropertyOp11
70
1
102
RTVSPropertyOp12
70
1
102
RTVSPropertyOp13
70
1
102
RTVSPropertyOp14
70
1
102
RTVSPropertyOp15
70
1
102
RTVSPropertyOp16
70
1
102
RTVSPropertyOp17
70
1
102
RTVSPropertyOp18
70
1
102
RTVSPropertyOp19
70
1
102
RTVSPropertyOp20
70
1
102
RTVSPropertyOp21
70
1
102
RTVSPropertyOp22
70
1
102
RTVSPropertyOp23
70
1
102
RTVSPropertyOp24
70
1
102
RTVSPropertyOp25
70
1
102
RTVSPropertyOp26
70
1
102
RTVSPropertyOp27
70
1
0
XRECORD
5
10A1
102
{ACAD_REACTORS
330
10A0
102
}
330
10A0
100
AcDbXrecord
280
1
102
RTVSPropertyOp0
70
0
102
RTVSPropertyOp1
70
0
102
RTVSPropertyOp2
70
0
102
RTVSPropertyOp3
70
0
102
RTVSPropertyOp4
70
0
102
RTVSPropertyOp5
70
0
102
RTVSPropertyOp6
70
0
102
RTVSPropertyOp7
70
0
102
RTVSPropertyOp8
70
0
102
RTVSPropertyOp9
70
0
102
RTVSPropertyOp10
70
0
102
RTVSPropertyOp11
70
0
102
RTVSPropertyOp12
70
0
102
RTVSPropertyOp13
70
0
102
RTVSPropertyOp14
70
2
102
RTVSPropertyOp15
70
0
102
RTVSPropertyOp16
70
0
102
RTVSPropertyOp17
70
0
102
RTVSPropertyOp18
70
0
102
RTVSPropertyOp19
70
0
102
RTVSPropertyOp20
70
0
102
RTVSPropertyOp21
70
0
102
RTVSPropertyOp22
70
0
102
RTVSPropertyOp23
70
0
102
RTVSPropertyOp24
70
0
102
RTVSPropertyOp25
70
0
102
RTVSPropertyOp26
70
0
102
RTVSPropertyOp27
70
0
0
XRECORD
5
109B
102
{ACAD_REACTORS
330
109A
102
}
330
109A
100
AcDbXrecord
280
1
102
RTVSPropertyOp0
70
1
102
RTVSPropertyOp1
70
1
102
RTVSPropertyOp2
70
1
102
RTVSPropertyOp3
70
1
102
RTVSPropertyOp4
70
1
102
RTVSPropertyOp5
70
1
102
RTVSPropertyOp6
70
1
102
RTVSPropertyOp7
70
1
102
RTVSPropertyOp8
70
1
102
RTVSPropertyOp9
70
1
102
RTVSPropertyOp10
70
1
102
RTVSPropertyOp11
70
1
102
RTVSPropertyOp12
70
1
102
RTVSPropertyOp13
70
1
102
RTVSPropertyOp14
70
1
102
RTVSPropertyOp15
70
1
102
RTVSPropertyOp16
70
1
102
RTVSPropertyOp17
70
1
102
RTVSPropertyOp18
70
1
102
RTVSPropertyOp19
70
1
102
RTVSPropertyOp20
70
1
102
RTVSPropertyOp21
70
1
102
RTVSPropertyOp22
70
1
102
RTVSPropertyOp23
70
1
102
RTVSPropertyOp24
70
1
102
RTVSPropertyOp25
70
1
102
RTVSPropertyOp26
70
1
102
RTVSPropertyOp27
70
1
0
XRECORD
5
10A3
102
{ACAD_REACTORS
330
10A2
102
}
330
10A2
100
AcDbXrecord
280
1
102
RTVSPropertyOp0
70
0
102
RTVSPropertyOp1
70
0
102
RTVSPropertyOp2
70
0
102
RTVSPropertyOp3
70
0
102
RTVSPropertyOp4
70
0
102
RTVSPropertyOp5
70
0
102
RTVSPropertyOp6
70
0
102
RTVSPropertyOp7
70
0
102
RTVSPropertyOp8
70
0
102
RTVSPropertyOp9
70
0
102
RTVSPropertyOp10
70
0
102
RTVSPropertyOp11
70
0
102
RTVSPropertyOp12
70
0
102
RTVSPropertyOp13
70
0
102
RTVSPropertyOp14
70
2
102
RTVSPropertyOp15
70
0
102
RTVSPropertyOp16
70
0
102
RTVSPropertyOp17
70
0
102
RTVSPropertyOp18
70
0
102
RTVSPropertyOp19
70
0
102
RTVSPropertyOp20
70
0
102
RTVSPropertyOp21
70
0
102
RTVSPropertyOp22
70
0
102
RTVSPropertyOp23
70
0
102
RTVSPropertyOp24
70
0
102
RTVSPropertyOp25
70
0
102
RTVSPropertyOp26
70
0
102
RTVSPropertyOp27
70
0
0
XRECORD
5
1093
102
{ACAD_REACTORS
330
1092
102
}
330
1092
100
AcDbXrecord
280
1
102
RTVSPropertyOp0
70
1
102
RTVSPropertyOp1
70
1
102
RTVSPropertyOp2
70
1
102
RTVSPropertyOp3
70
1
102
RTVSPropertyOp4
70
1
102
RTVSPropertyOp5
70
1
102
RTVSPropertyOp6
70
1
102
RTVSPropertyOp7
70
1
102
RTVSPropertyOp8
70
1
102
RTVSPropertyOp9
70
1
102
RTVSPropertyOp10
70
1
102
RTVSPropertyOp11
70
1
102
RTVSPropertyOp12
70
1
102
RTVSPropertyOp13
70
1
102
RTVSPropertyOp14
70
1
102
RTVSPropertyOp15
70
1
102
RTVSPropertyOp16
70
1
102
RTVSPropertyOp17
70
1
102
RTVSPropertyOp18
70
1
102
RTVSPropertyOp19
70
1
102
RTVSPropertyOp20
70
1
102
RTVSPropertyOp21
70
1
102
RTVSPropertyOp22
70
1
102
RTVSPropertyOp23
70
1
102
RTVSPropertyOp24
70
1
102
RTVSPropertyOp25
70
1
102
RTVSPropertyOp26
70
1
102
RTVSPropertyOp27
70
1
0
XRECORD
5
1099
102
{ACAD_REACTORS
330
1098
102
}
330
1098
100
AcDbXrecord
280
1
102
RTVSPropertyOp0
70
1
102
RTVSPropertyOp1
70
1
102
RTVSPropertyOp2
70
1
102
RTVSPropertyOp3
70
1
102
RTVSPropertyOp4
70
1
102
RTVSPropertyOp5
70
1
102
RTVSPropertyOp6
70
1
102
RTVSPropertyOp7
70
1
102
RTVSPropertyOp8
70
1
102
RTVSPropertyOp9
70
1
102
RTVSPropertyOp10
70
1
102
RTVSPropertyOp11
70
1
102
RTVSPropertyOp12
70
1
102
RTVSPropertyOp13
70
1
102
RTVSPropertyOp14
70
1
102
RTVSPropertyOp15
70
1
102
RTVSPropertyOp16
70
1
102
RTVSPropertyOp17
70
1
102
RTVSPropertyOp18
70
1
102
RTVSPropertyOp19
70
1
102
RTVSPropertyOp20
70
1
102
RTVSPropertyOp21
70
1
102
RTVSPropertyOp22
70
1
102
RTVSPropertyOp23
70
1
102
RTVSPropertyOp24
70
1
102
RTVSPropertyOp25
70
1
102
RTVSPropertyOp26
70
1
102
RTVSPropertyOp27
70
1
0
ENDSEC
0
EOF
