0
SECTION
2
HEADER
9
$ACADVER
1
AC1015
9
$ACADMAINTVER
70
20
9
$DWGCODEPAGE
3
ANSI_1252
9
$INSBASE
10
0.0
20
0.0
30
0.0
9
$EXTMIN
10
-150.000000000000
20
-105.000000000000
30
0.0
9
$EXTMAX
10
150.000000000000
20
105.000000000000
30
0.0
9
$LIMMIN
10
0.0
20
0.0
9
$LIMMAX
10
12.0
20
9.0
9
$ORTHOMODE
70
0
9
$REGENMODE
70
1
9
$FILLMODE
70
1
9
$QTEXTMODE
70
0
9
$MIRRTEXT
70
1
9
$LTSCALE
40
1.0
9
$ATTMODE
70
1
9
$TEXTSIZE
40
0.2
9
$TRACEWID
40
0.05
9
$TEXTSTYLE
7
Standard
9
$CLAYER
8
0
9
$CELTYPE
6
ByLayer
9
$CECOLOR
62
256
9
$CELTSCALE
40
1.0
9
$DISPSILH
70
0
9
$DIMSCALE
40
1.0
9
$DIMASZ
40
2.5
9
$DIMEXO
40
0.625
9
$DIMDLI
40
0.38
9
$DIMRND
40
0.0
9
$DIMDLE
40
0.0
9
$DIMEXE
40
1.25
9
$DIMTP
40
0.0
9
$DIMTM
40
0.000000001
9
$DIMTXT
40
2.5
9
$DIMCEN
40
0.09
9
$DIMTSZ
40
0.0
9
$DIMTOL
70
1
9
$DIMLIM
70
0
9
$DIMTIH
70
0
9
$DIMTOH
70
0
9
$DIMSE1
70
0
9
$DIMSE2
70
0
9
$DIMTAD
70
1
9
$DIMZIN
70
0
9
$DIMBLK
1
VDDIM_DEFAULT
9
$DIMASO
70
1
9
$DIMSHO
70
1
9
$DIMPOST
1

9
$DIMAPOST
1

9
$DIMALT
70
0
9
$DIMALTD
70
2
9
$DIMALTF
40
25.4
9
$DIMLFAC
40
1.00000000000000
9
$DIMTOFL
70
0
9
$DIMTVP
40
0.0
9
$DIMTIX
70
0
9
$DIMSOXD
70
0
9
$DIMSAH
70
0
9
$DIMBLK1
1

9
$DIMBLK2
1

9
$DIMSTYLE
2
BEM-ISBE
9
$DIMCLRD
70
0
9
$DIMCLRE
70
0
9
$DIMCLRT
70
0
9
$DIMTFAC
40
0.5
9
$DIMGAP
40
0.625
9
$DIMJUST
70
0
9
$DIMSD1
70
0
9
$DIMSD2
70
0
9
$DIMTOLJ
70
1
9
$DIMTZIN
70
0
9
$DIMALTZ
70
0
9
$DIMALTTZ
70
0
9
$DIMUPT
70
0
9
$DIMDEC
70
3
9
$DIMTDEC
70
3
9
$DIMALTU
70
2
9
$DIMALTTD
70
2
9
$DIMTXSTY
7
Standard
9
$DIMAUNIT
70
0
9
$DIMADEC
70
3
9
$DIMALTRND
40
0.0
9
$DIMAZIN
70
0
9
$DIMDSEP
70
46
9
$DIMATFIT
70
3
9
$DIMFRAC
70
0
9
$DIMLDRBLK
1

9
$DIMLUNIT
70
2
9
$DIMLWD
70
-2
9
$DIMLWE
70
-2
9
$DIMTMOVE
70
0
9
$LUNITS
70
2
9
$LUPREC
70
4
9
$SKETCHINC
40
0.1
9
$FILLETRAD
40
0.5
9
$AUNITS
70
0
9
$AUPREC
70
0
9
$MENU
1
.
9
$ELEVATION
40
0.0
9
$PELEVATION
40
0.0
9
$THICKNESS
40
0.0
9
$LIMCHECK
70
0
9
$CHAMFERA
40
0.5
9
$CHAMFERB
40
0.5
9
$CHAMFERC
40
1.0
9
$CHAMFERD
40
0.0
9
$SKPOLY
70
0
9
$TDCREATE
40
0.0
9
$TDUCREATE
40
0.0
9
$TDUPDATE
40
0.0
9
$TDUUPDATE
40
0.0
9
$TDINDWG
40
0.0
9
$TDUSRTIMER
40
0.0
9
$USRTIMER
70
1
9
$ANGBASE
50
0.0
9
$ANGDIR
70
0
9
$PDMODE
70
0
9
$PDSIZE
40
0.0
9
$PLINEWID
40
0.0
9
$SPLFRAME
70
0
9
$SPLINETYPE
70
6
9
$SPLINESEGS
70
8
9
$HANDSEED
5
10AB
9
$SURFTAB1
70
6
9
$SURFTAB2
70
6
9
$SURFTYPE
70
6
9
$SURFU
70
6
9
$SURFV
70
6
9
$UCSBASE
2

9
$UCSNAME
2

9
$UCSORG
10
0.0
20
0.0
30
0.0
9
$UCSXDIR
10
1.0
20
0.0
30
0.0
9
$UCSYDIR
10
0.0
20
1.0
30
0.0
9
$UCSORTHOREF
2

9
$UCSORTHOVIEW
70
0
9
$UCSORGTOP
10
0.0
20
0.0
30
0.0
9
$UCSORGBOTTOM
10
0.0
20
0.0
30
0.0
9
$UCSORGLEFT
10
0.0
20
0.0
30
0.0
9
$UCSORGRIGHT
10
0.0
20
0.0
30
0.0
9
$UCSORGFRONT
10
0.0
20
0.0
30
0.0
9
$UCSORGBACK
10
0.0
20
0.0
30
0.0
9
$PUCSBASE
2

9
$PUCSNAME
2

9
$PUCSORG
10
0.0
20
0.0
30
0.0
9
$PUCSXDIR
10
1.0
20
0.0
30
0.0
9
$PUCSYDIR
10
0.0
20
1.0
30
0.0
9
$PUCSORTHOREF
2

9
$PUCSORTHOVIEW
70
0
9
$PUCSORGTOP
10
0.0
20
0.0
30
0.0
9
$PUCSORGBOTTOM
10
0.0
20
0.0
30
0.0
9
$PUCSORGLEFT
10
0.0
20
0.0
30
0.0
9
$PUCSORGRIGHT
10
0.0
20
0.0
30
0.0
9
$PUCSORGFRONT
10
0.0
20
0.0
30
0.0
9
$PUCSORGBACK
10
0.0
20
0.0
30
0.0
9
$USERI1
70
0
9
$USERI2
70
0
9
$USERI3
70
0
9
$USERI4
70
0
9
$USERI5
70
0
9
$USERR1
40
0.0
9
$USERR2
40
0.0
9
$USERR3
40
0.0
9
$USERR4
40
0.0
9
$USERR5
40
0.0
9
$WORLDVIEW
70
1
9
$SHADEDGE
70
3
9
$SHADEDIF
70
70
9
$TILEMODE
70
1
9
$MAXACTVP
70
64
9
$PINSBASE
10
0.0
20
0.0
30
0.0
9
$PLIMCHECK
70
0
9
$PEXTMIN
10
1.000000000000000E+20
20
1.000000000000000E+20
30
1.000000000000000E+20
9
$PEXTMAX
10
-1.000000000000000E+20
20
-1.000000000000000E+20
30
-1.000000000000000E+20
9
$PLIMMIN
10
0.0
20
0.0
9
$PLIMMAX
10
12.0
20
9.0
9
$UNITMODE
70
0
9
$VISRETAIN
70
1
9
$PLINEGEN
70
0
9
$PSLTSCALE
70
1
9
$TREEDEPTH
70
3020
9
$CMLSTYLE
2
Standard
9
$CMLJUST
70
0
9
$CMLSCALE
40
1.0
9
$PROXYGRAPHICS
70
1
9
$MEASUREMENT
70
0
9
$CELWEIGHT
370
-1
9
$ENDCAPS
280
0
9
$JOINSTYLE
280
0
9
$LWDISPLAY
290
0
9
$INSUNITS
70
4
9
$HYPERLINKBASE
1

9
$STYLESHEET
1

9
$XEDIT
290
1
9
$CEPSNTYPE
380
0
9
$PSTYLEMODE
290
0
9
$FINGERPRINTGUID
2
{FAEB1C30-E019-11D5-929B-00C0DF256EC4}
9
$VERSIONGUID
2
{04C5C4E4-4947-4D90-8812-D401569E61F7}
9
$EXTNAMES
290
1
9
$PSVPSCALE
40
0.0
9
$OLESTARTUP
290
0
0
ENDSEC
0
SECTION
2
TABLES
0
TABLE
2
VPORT
5
24A
330
0
100
AcDbSymbolTable
70
1
0
VPORT
5
26B
330
24A
100
AcDbSymbolTableRecord
100
AcDbViewportTableRecord
2
*Active
70
0
10
0.0
20
0.0
11
1.0
21
1.0
12
0.000000000000000
22
0.000000000000000
13
0.0
23
0.0
14
10.0
24
10.0
15
10.0
25
10.0
16
0.0
26
0.0
36
1.0
17
0.0
27
0.0
37
0.0
40
210.000000000000
41
1.42857142857143
42
1.0
43
0.0
44
0.0
50
0.0
51
0.0000000000007958
71
0
72
100
73
1
74
3
75
0
76
0
77
0
78
1
281
0
65
1
110
0.0
120
0.0
130
0.0
111
1.0
121
0.0
131
0.0
112
0.0
122
1.0
132
0.0
79
0
146
0.0
0
ENDTAB
0
TABLE
2
LTYPE
5
247
330
0
100
AcDbSymbolTable
70
25
0
LTYPE
5
256
330
247
100
AcDbSymbolTableRecord
100
AcDbLinetypeTableRecord
2
ByBlock
70
0
3

72
65
73
0
40
0.0
0
LTYPE
5
257
330
247
100
AcDbSymbolTableRecord
100
AcDbLinetypeTableRecord
2
ByLayer
70
0
3

72
65
73
0
40
0.0
0
LTYPE
5
258
330
247
100
AcDbSymbolTableRecord
100
AcDbLinetypeTableRecord
2
Continuous
70
0
3
Solid line
72
65
73
0
40
0.0
0
LTYPE
5
273
330
247
100
AcDbSymbolTableRecord
100
AcDbLinetypeTableRecord
2
CENTER
70
0
3
Center ____ _ ____ _ ____ _ ____ _ ____ _ ____
72
65
73
4
40
2.0
49
1.25
74
0
49
-0.25
74
0
49
0.25
74
0
49
-0.25
74
0
0
LTYPE
5
274
330
247
100
AcDbSymbolTableRecord
100
AcDbLinetypeTableRecord
2
DASHDOT
70
0
3
Dashdot __ . __ . __ . __ . __ . __ . __ . __
72
65
73
4
40
1.0
49
0.5
74
0
49
-0.25
74
0
49
0.0
74
0
49
-0.25
74
0
0
LTYPE
5
275
330
247
100
AcDbSymbolTableRecord
100
AcDbLinetypeTableRecord
2
DASHED
70
0
3
Dashed __ __ __ __ __ __ __ __ __ __ __ __ __ _
72
65
73
2
40
0.75
49
0.5
74
0
49
-0.25
74
0
0
LTYPE
5
276
330
247
100
AcDbSymbolTableRecord
100
AcDbLinetypeTableRecord
2
HIDDEN
70
0
3
Hidden __ __ __ __ __ __ __ __ __ __ __ __ __ __
72
65
73
2
40
0.375
49
0.25
74
0
49
-0.125
74
0
0
LTYPE
5
277
330
247
100
AcDbSymbolTableRecord
100
AcDbLinetypeTableRecord
2
HIDDEN2
70
0
3
Hidden2 _ _ _ _ _ _ _ _ _ _ _ _ _ _ _ _ _
72
65
73
2
40
0.1875
49
0.125
74
0
49
-0.0625
74
0
0
LTYPE
5
278
330
247
100
AcDbSymbolTableRecord
100
AcDbLinetypeTableRecord
2
BORDER
70
0
3
Border __ __ . __ __ . __ __ . __ __ . __ __ .
72
65
73
6
40
1.75
49
0.5
74
0
49
-0.25
74
0
49
0.5
74
0
49
-0.25
74
0
49
0.0
74
0
49
-0.25
74
0
0
LTYPE
5
279
330
247
100
AcDbSymbolTableRecord
100
AcDbLinetypeTableRecord
2
BORDER2
70
0
3
Border2 __.__.__.__.__.__.__.__.__.__.__.
72
65
73
6
40
0.875
49
0.25
74
0
49
-0.125
74
0
49
0.25
74
0
49
-0.125
74
0
49
0.0
74
0
49
-0.125
74
0
0
LTYPE
5
27A
330
247
100
AcDbSymbolTableRecord
100
AcDbLinetypeTableRecord
2
BORDERX2
70
0
3
Borderx2  ____  ____  .  ____  ____  .  ___
72
65
73
6
40
3.5
49
1.0
74
0
49
-0.5
74
0
49
1.0
74
0
49
-0.5
74
0
49
0.0
74
0
49
-0.5
74
0
0
LTYPE
5
27B
330
247
100
AcDbSymbolTableRecord
100
AcDbLinetypeTableRecord
2
CENTER2
70
0
3
Center2  ___ _ ___ _ ___ _ ___ _ ___ _ ___
72
65
73
4
40
1.125
49
0.75
74
0
49
-0.125
74
0
49
0.125
74
0
49
-0.125
74
0
0
LTYPE
5
27C
330
247
100
AcDbSymbolTableRecord
100
AcDbLinetypeTableRecord
2
CENTERX2
70
0
3
Centerx2  ________  __  ________  __  _____
72
65
73
4
40
4.0
49
2.5
74
0
49
-0.5
74
0
49
0.5
74
0
49
-0.5
74
0
0
LTYPE
5
27D
330
247
100
AcDbSymbolTableRecord
100
AcDbLinetypeTableRecord
2
DASHDOT2
70
0
3
Dashdot2  _._._._._._._._._._._._._._._.
72
65
73
4
40
0.5
49
0.25
74
0
49
-0.125
74
0
49
0.0
74
0
49
-0.125
74
0
0
LTYPE
5
27E
330
247
100
AcDbSymbolTableRecord
100
AcDbLinetypeTableRecord
2
DASHDOTX2
70
0
3
Dashdotx2 ____  .  ____  .  ____  .  ___
72
65
73
4
40
2.0
49
1.0
74
0
49
-0.5
74
0
49
0.0
74
0
49
-0.5
74
0
0
LTYPE
5
27F
330
247
100
AcDbSymbolTableRecord
100
AcDbLinetypeTableRecord
2
DASHED2
70
0
3
Dashed2 _ _ _ _ _ _ _ _ _ _ _ _ _ _ _ _ _
72
65
73
2
40
0.375
49
0.25
74
0
49
-0.125
74
0
0
LTYPE
5
280
330
247
100
AcDbSymbolTableRecord
100
AcDbLinetypeTableRecord
2
DASHEDX2
70
0
3
Dashedx2 ____  ____  ____  ____  ____  ___
72
65
73
2
40
1.5
49
1.0
74
0
49
-0.5
74
0
0
LTYPE
5
281
330
247
100
AcDbSymbolTableRecord
100
AcDbLinetypeTableRecord
2
DIVIDE
70
0
3
Divide ____ . . ____ . . ____ . . ____ . . ____
72
65
73
6
40
1.25
49
0.5
74
0
49
-0.25
74
0
49
0.0
74
0
49
-0.25
74
0
49
0.0
74
0
49
-0.25
74
0
0
LTYPE
5
282
330
247
100
AcDbSymbolTableRecord
100
AcDbLinetypeTableRecord
2
DIVIDE2
70
0
3
Divide2 __..__..__..__..__..__..__..__.._
72
65
73
6
40
0.625
49
0.25
74
0
49
-0.125
74
0
49
0.0
74
0
49
-0.125
74
0
49
0.0
74
0
49
-0.125
74
0
0
LTYPE
5
283
330
247
100
AcDbSymbolTableRecord
100
AcDbLinetypeTableRecord
2
DIVIDEX2
70
0
3
Dividex2 ________  .  .  ________  .  .  _
72
65
73
6
40
2.5
49
1.0
74
0
49
-0.5
74
0
49
0.0
74
0
49
-0.5
74
0
49
0.0
74
0
49
-0.5
74
0
0
LTYPE
5
284
330
247
100
AcDbSymbolTableRecord
100
AcDbLinetypeTableRecord
2
DOT
70
0
3
Dot . . . . . . . . . . . . . . . . . . . . . . . .
72
65
73
2
40
0.25
49
0.0
74
0
49
-0.25
74
0
0
LTYPE
5
285
330
247
100
AcDbSymbolTableRecord
100
AcDbLinetypeTableRecord
2
DOT2
70
0
3
Dot2 ........................................
72
65
73
2
40
0.125
49
0.0
74
0
49
-0.125
74
0
0
LTYPE
5
286
330
247
100
AcDbSymbolTableRecord
100
AcDbLinetypeTableRecord
2
DOTX2
70
0
3
Dotx2 .  .  .  .  .  .  .  .  .  .  .  .  .  .
72
65
73
2
40
0.5
49
0.0
74
0
49
-0.5
74
0
0
LTYPE
5
287
330
247
100
AcDbSymbolTableRecord
100
AcDbLinetypeTableRecord
2
HIDDENX2
70
0
3
Hiddenx2 ____ ____ ____ ____ ____ ____ ____
72
65
73
2
40
0.75
49
0.5
74
0
49
-0.25
74
0
0
LTYPE
5
288
330
247
100
AcDbSymbolTableRecord
100
AcDbLinetypeTableRecord
2
PHANTOM
70
0
3
Phantom ______  __  __  ______  __  __  ______
72
65
73
6
40
2.5
49
1.25
74
0
49
-0.25
74
0
49
0.25
74
0
49
-0.25
74
0
49
0.25
74
0
49
-0.25
74
0
0
LTYPE
5
289
330
247
100
AcDbSymbolTableRecord
100
AcDbLinetypeTableRecord
2
PHANTOM2
70
0
3
Phantom2 ___ _ _ ___ _ _ ___ _ _ ___ _ _
72
65
73
6
40
1.25
49
0.625
74
0
49
-0.125
74
0
49
0.125
74
0
49
-0.125
74
0
49
0.125
74
0
49
-0.125
74
0
0
LTYPE
5
28A
330
247
100
AcDbSymbolTableRecord
100
AcDbLinetypeTableRecord
2
PHANTOMX2
70
0
3
Phantomx2 ____________    ____    ____   _
72
65
73
6
40
5.0
49
2.5
74
0
49
-0.5
74
0
49
0.5
74
0
49
-0.5
74
0
49
0.5
74
0
49
-0.5
74
0
0
ENDTAB
0
TABLE
2
LAYER
5
244
330
0
100
AcDbSymbolTable
70
6
0
LAYER
5
252
330
244
100
AcDbSymbolTableRecord
100
AcDbLayerTableRecord
2
0
70
0
62
7
6
Continuous
370
0
390
251
0
LAYER
5
23F
330
244
100
AcDbSymbolTableRecord
100
AcDbLayerTableRecord
2
Bemassung
70
0
 62
   7
6
Continuous
370
0
390
251
0
LAYER
5
240
330
244
100
AcDbSymbolTableRecord
100
AcDbLayerTableRecord
2
Rahmen
70
0
 62
   7
6
Continuous
370
0
390
251
0
LAYER
5
241
330
244
100
AcDbSymbolTableRecord
100
AcDbLayerTableRecord
2
Geo
70
0
 62
   7
6
Continuous
370
0
390
251
0
LAYER
5
33A
330
244
100
AcDbSymbolTableRecord
100
AcDbLayerTableRecord
2
Defpoints
70
0
62
7
6
Continuous
290
0
370
-3
390
251
0
LAYER
5
57E
330
244
100
AcDbSymbolTableRecord
100
AcDbLayerTableRecord
2
Text
70
0
 62
   7
6
Continuous
370
0
390
251
1001
AcAecLayerStandard
1000

1000

0
ENDTAB
0
TABLE
2
STYLE
5
245
330
0
100
AcDbSymbolTable
70
2
0
STYLE
5
253
330
245
100
AcDbSymbolTableRecord
100
AcDbTextStyleTableRecord
2
Standard
70
0
40
0.0
41
1.0
50
0.0
71
0
42
0.2
3
Arial
4

1001
ACAD
1000
Arial
1071
0
0
STYLE
5
132
330
245
100
AcDbSymbolTableRecord
100
AcDbTextStyleTableRecord
2
Beschriftung
70
0
40
0.0
41
1.0
50
0.0
71
0
42
0.2
3
Arial
4

1001
ACAD
1000
Arial
1071
0
1001
AcadAnnotative
1000
AnnotativeData
1070
1
1070
1
0
ENDTAB
0
TABLE
2
VIEW
5
248
330
0
100
AcDbSymbolTable
70
0
0
ENDTAB
0
TABLE
2
UCS
5
249
330
0
100
AcDbSymbolTable
70
0
0
ENDTAB
0
TABLE
2
APPID
5
24B
330
0
100
AcDbSymbolTable
70
13
0
APPID
5
254
330
24B
100
AcDbSymbolTableRecord
100
AcDbRegAppTableRecord
2
ACAD
70
0
0
APPID
5
26C
330
24B
100
AcDbSymbolTableRecord
100
AcDbRegAppTableRecord
2
VD_INVISIBLE_NOT_FOR_READ
70
0
0
APPID
5
26D
330
24B
100
AcDbSymbolTableRecord
100
AcDbRegAppTableRecord
2
VD_TEMPHATCH
70
0
0
APPID
5
26E
330
24B
100
AcDbSymbolTableRecord
100
AcDbRegAppTableRecord
2
VDEXTRAPARAM
70
0
0
APPID
5
26F
330
24B
100
AcDbSymbolTableRecord
100
AcDbRegAppTableRecord
2
PE_URL
70
0
0
APPID
5
270
330
24B
100
AcDbSymbolTableRecord
100
AcDbRegAppTableRecord
2
VD_UNKNOWN
70
0
0
APPID
5
28F
330
24B
100
AcDbSymbolTableRecord
100
AcDbRegAppTableRecord
2
AcadAnnotative
70
0
0
APPID
5
290
330
24B
100
AcDbSymbolTableRecord
100
AcDbRegAppTableRecord
2
ACAD_DSTYLE_DIMJAG
70
0
0
APPID
5
291
330
24B
100
AcDbSymbolTableRecord
100
AcDbRegAppTableRecord
2
ACAD_DSTYLE_DIMTALN
70
0
0
APPID
5
293
330
24B
100
AcDbSymbolTableRecord
100
AcDbRegAppTableRecord
2
ACAD_PSEXT
70
0
0
APPID
5
42A
330
24B
100
AcDbSymbolTableRecord
100
AcDbRegAppTableRecord
2
ACAD_MLEADERVER
70
0
0
APPID
5
532
330
24B
100
AcDbSymbolTableRecord
100
AcDbRegAppTableRecord
2
ACAD_EXEMPT_FROM_CAD_STANDARDS
70
0
0
APPID
5
57F
330
24B
100
AcDbSymbolTableRecord
100
AcDbRegAppTableRecord
2
AcAecLayerStandard
70
0
0
ENDTAB
0
TABLE
2
DIMSTYLE
5
24C
330
0
100
AcDbSymbolTable
70
3
100
AcDbDimStyleTable
71
2
340
27
340
269
0
DIMSTYLE
105
269
330
24C
100
AcDbSymbolTableRecord
100
AcDbDimStyleTableRecord
2
Standard
70
0
172
1
174
1
288
1
340
253
342
23C
0
DIMSTYLE
105
137
330
24C
100
AcDbSymbolTableRecord
100
AcDbDimStyleTableRecord
2
Beschriftung
70
0
41
2.5
42
0.625
44
1.25
73
0
74
0
77
1
140
2.5
147
0.625
172
1
174
1
271
2
288
1
340
253
342
23C
1001
AcadAnnotative
1000
AnnotativeData
1070
1
1070
1
1001
ACAD_DSTYLE_DIMJAG
1070
388
1040
1.5
1001
ACAD_DSTYLE_DIMTALN
1070
392
1070
0
0
DIMSTYLE
105
27
102
{ACAD_REACTORS
330
F10012
330
F1001C
330
F10021
330
F10003
330
F1000D
330
F10008
330
F10017
102
}
330
24C
100
AcDbSymbolTableRecord
100
AcDbDimStyleTableRecord
2
BEM-ISBE
70
0
41
2.5
42
0.625
44
1.25
48
0.000000001
71
1
73
0
74
0
77
1
140
2.5
144
1.00000000000000
146
0.5
147
0.625
171
 3
172
 1
179
 3
271
 3
272
 3
274
 3
340
253
342
23C
1001
ACAD_DSTYLE_DIMJAG
1070
388
1040
1.5
1001
ACAD_DSTYLE_DIMTALN
1070
392
1070
1
0
ENDTAB
0
TABLE
2
BLOCK_RECORD
5
243
330
0
100
AcDbSymbolTable
70
5
0
BLOCK_RECORD
5
261
330
243
100
AcDbSymbolTableRecord
100
AcDbBlockTableRecord
2
*Model_Space
340
FD0
0
BLOCK_RECORD
5
25D
330
243
100
AcDbSymbolTableRecord
100
AcDbBlockTableRecord
2
*Paper_Space
340
FD1
0
BLOCK_RECORD
5
265
330
243
100
AcDbSymbolTableRecord
100
AcDbBlockTableRecord
2
*Paper_Space0
340
0
0
BLOCK_RECORD
5
23C
330
243
100
AcDbSymbolTableRecord
100
AcDbBlockTableRecord
2
VDDIM_DEFAULT
340
0
102
{BLKREFS
102
}
0
BLOCK_RECORD
5
23E
330
243
100
AcDbSymbolTableRecord
100
AcDbBlockTableRecord
2
VDDIM_NONE
340
0
0
BLOCK_RECORD
5
F10011
330
243
100
AcDbSymbolTableRecord
100
AcDbBlockTableRecord
2
*D6
340
0
0
BLOCK_RECORD
5
F1001B
330
243
100
AcDbSymbolTableRecord
100
AcDbBlockTableRecord
2
*D8
340
0
0
BLOCK_RECORD
5
F10020
330
243
100
AcDbSymbolTableRecord
100
AcDbBlockTableRecord
2
*D9
340
0
0
BLOCK_RECORD
5
F10002
330
243
100
AcDbSymbolTableRecord
100
AcDbBlockTableRecord
2
*D3
340
0
0
BLOCK_RECORD
5
F1000C
330
243
100
AcDbSymbolTableRecord
100
AcDbBlockTableRecord
2
*D5
340
0
0
BLOCK_RECORD
5
F10007
330
243
100
AcDbSymbolTableRecord
100
AcDbBlockTableRecord
2
*D4
340
0
0
BLOCK_RECORD
5
F10016
330
243
100
AcDbSymbolTableRecord
100
AcDbBlockTableRecord
2
*D7
340
0
0
ENDTAB
0
ENDSEC
0
SECTION
2
BLOCKS
0
BLOCK
5
262
330
261
100
AcDbEntity
8
0
100
AcDbBlockBegin
2
*Model_Space
70
0
10
0.0
20
0.0
30
0.0
3
*Model_Space
1

0
ENDBLK
5
263
330
261
100
AcDbEntity
8
0
100
AcDbBlockEnd
0
BLOCK
5
25E
330
25D
100
AcDbEntity
67
1
8
0
100
AcDbBlockBegin
2
*Paper_Space
70
0
10
0.0
20
0.0
30
0.0
3
*Paper_Space
1

0
ENDBLK
5
25F
330
25D
100
AcDbEntity
67
1
8
0
100
AcDbBlockEnd
0
BLOCK
5
266
330
265
100
AcDbEntity
8
0
100
AcDbBlockBegin
2
*Paper_Space0
70
0
10
0.0
20
0.0
30
0.0
3
*Paper_Space0
1

0
VIEWPORT
5
296
102
{ACAD_XDICTIONARY
360
58E
102
}
330
265
100
AcDbEntity
8
0
60
1
100
AcDbViewport
10
0.0
20
0.0
30
0.0
40
10.0
41
10.0
69
0
12
0.0
22
0.0
13
0.0
23
0.0
14
1.0
24
1.0
15
0.0
25
0.0
16
0.0
26
0.0
36
1.0
17
0.0
27
0.0
37
0.0
42
0.0
43
0.0
44
0.0
45
10.0
50
0.0
51
0.0000000000007958
72
100
90
163872
1

281
0
71
0
74
0
110
0.0
120
0.0
130
0.0
111
1.0
121
0.0
131
0.0
112
0.0
122
1.0
132
0.0
79
0
146
0.0
1001
VD_INVISIBLE_NOT_FOR_READ
1000
VD_INVISIBLE_NOT_FOR_READ
0
VIEWPORT
5
297
102
{ACAD_XDICTIONARY
360
590
102
}
330
265
100
AcDbEntity
8
0
60
1
100
AcDbViewport
10
0.0
20
0.0
30
0.0
40
10.0
41
10.0
69
0
12
0.0
22
0.0
13
0.0
23
0.0
14
1.0
24
1.0
15
0.0
25
0.0
16
0.0
26
0.0
36
1.0
17
0.0
27
0.0
37
0.0
42
0.0
43
0.0
44
0.0
45
10.0
50
0.0
51
0.0000000000007958
72
100
90
163872
1

281
0
71
0
74
0
110
0.0
120
0.0
130
0.0
111
1.0
121
0.0
131
0.0
112
0.0
122
1.0
132
0.0
79
0
146
0.0
1001
VD_INVISIBLE_NOT_FOR_READ
1000
VD_INVISIBLE_NOT_FOR_READ
0
ENDBLK
5
267
330
265
100
AcDbEntity
8
0
100
AcDbBlockEnd
0
BLOCK
5
28B
330
23C
100
AcDbEntity
8
0
100
AcDbBlockBegin
2
VDDIM_DEFAULT
70
0
10
0.0
20
0.0
30
0.0
3
VDDIM_DEFAULT
1

0
LWPOLYLINE
5
23D
330
23C
100
AcDbEntity
8
0
6
Continuous
62
0
100
AcDbPolyline
90
4
70
0
43
0.0
10
0.0
20
0.0
10
-1.0
20
-0.1665
10
-1.0
20
0.1665
10
0.0
20
0.0
1001
VDEXTRAPARAM
1071
1
1071
0
1071
0
1040
1.0
1000

1000

1040
0.0
1040
0.0
0
HATCH
5
292
330
23C
100
AcDbEntity
8
0
6
Continuous
62
0
100
AcDbHatch
10
0.0
20
0.0
30
0.0
210
0.0
220
0.0
230
1.0
2
SOLID
70
1
71
0
91
1
92
2
72
0
73
1
93
3
10
0.0
20
0.0
10
-1.0
20
-0.1665
10
-1.0
20
0.1665
97
0
75
0
76
1
98
1
10
0.0
20
0.0
1001
VDEXTRAPARAM
1071
1
1071
0
1071
0
1040
1.0
1000

1000

1040
0.0
1040
0.0
1001
VD_TEMPHATCH
1000
VD_TEMPHATCH
0
ENDBLK
5
28C
330
23C
100
AcDbEntity
8
0
100
AcDbBlockEnd
0
BLOCK
5
28D
330
23E
100
AcDbEntity
8
0
100
AcDbBlockBegin
2
VDDIM_NONE
70
0
10
0.0
20
0.0
30
0.0
3
VDDIM_NONE
1

0
ENDBLK
5
28E
330
23E
100
AcDbEntity
8
0
100
AcDbBlockEnd
  0
BLOCK
  5
F10025
330
F10011
100
AcDbEntity
  8
0
100
AcDbBlockBegin
  2
*D6
 70
     1
 10
0.0
 20
0.0
 30
0.0
  3
*D6
  1

  0
LINE
  5
F10026
330
F10011
100
AcDbEntity
  8
Bemassung
 62
     0
370
    -2
100
AcDbLine
10
-75.8905508971012
20
4.78768899148687
30
0.000000000000000
11
-75.8905508971012
21
16.7876889914869
31
0.000000000000000
  0
LINE
  5
F10027
330
F10011
100
AcDbEntity
  8
Bemassung
 62
     0
370
    -2
100
AcDbLine
10
-27.8905508971012
20
3.78768899148688
30
0.000000000000000
11
-27.8905508971012
21
21.7876889914869
31
0.000000000000000
  0
LINE
  5
F10028
330
F10011
100
AcDbEntity
  8
Bemassung
 62
     0
370
    -2
100
AcDbLine
10
-75.8905508971012
20
14.7876889914869
30
0.000000000000000
11
40.7973445197519
21
14.7876889914869
31
0.000000000000000
  0
INSERT
  5
F10029
330
F10011
100
AcDbEntity
  8
Bemassung
 62
     0
370
    -2
100
AcDbBlockReference
  2
VDDIM_DEFAULT
10
-75.8905508971012
20
14.7876889914869
30
0.000000000000000
 41
2.50000000000000
 42
2.50000000000000
 43
2.50000000000000
 50
180.000000000000
  0
INSERT
  5
F1002A
330
F10011
100
AcDbEntity
  8
Bemassung
 62
     0
370
    -2
100
AcDbBlockReference
  2
VDDIM_DEFAULT
10
-27.8905508971012
20
14.7876889914869
30
0.000000000000000
 41
2.50000000000000
 42
2.50000000000000
 43
2.50000000000000
  0
MTEXT
  5
F1002B
330
F10011
100
AcDbEntity
  8
Bemassung
 62
     0
100
AcDbMText
10
-51.8905508971012
20
15.4543556581535
30
0.000000000000000
 40
2.50000000000000
 41
0.0
 71
     8
 72
     1
  1
48
 11
1.00000000000000
 21
0.000000000000000
 31
0.0
 73
     1
 44
1.0
1001
ACAD
1000
MTEXTBEGIN
1070
73
1070
1
1070
44
1040
1.0
1070
74
1070
0
1000
MTEXTEND
  0
POINT
  5
F1002C
330
F10011
100
AcDbEntity
  8
Bemassung
 62
     0
100
AcDbPoint
10
-75.8905508971012
20
4.78768899148687
30
0.000000000000000
  0
POINT
  5
F1002D
330
F10011
100
AcDbEntity
  8
Bemassung
 62
     0
100
AcDbPoint
10
-27.8905508971012
20
3.78768899148688
30
0.000000000000000
  0
ENDBLK
  5
F1002E
330
F10011
100
AcDbEntity
  8
0
100
AcDbBlockEnd
  0
BLOCK
  5
F1002F
330
F1001B
100
AcDbEntity
  8
0
100
AcDbBlockBegin
  2
*D8
 70
     1
 10
0.0
 20
0.0
 30
0.0
  3
*D8
  1

  0
LINE
  5
F10030
330
F1001B
100
AcDbEntity
  8
Bemassung
 62
     0
370
    -2
100
AcDbLine
10
-75.8905508971012
20
-5.21231100851313
30
0.000000000000000
11
-75.8905508971012
21
-12.2123110085131
31
0.000000000000000
  0
LINE
  5
F10031
330
F1001B
100
AcDbEntity
  8
Bemassung
 62
     0
370
    -2
100
AcDbLine
10
-97.8905508971012
20
-12.2123110085131
30
0.000000000000000
11
-97.8905508971012
21
21.7876889914869
31
0.000000000000000
  0
LINE
  5
F10032
330
F1001B
100
AcDbEntity
  8
Bemassung
 62
     0
370
    -2
100
AcDbLine
10
-64.1173255475083
20
-10.2123110085131
30
0.000000000000000
11
-97.8905508971012
21
-10.2123110085131
31
0.000000000000000
  0
INSERT
  5
F10033
330
F1001B
100
AcDbEntity
  8
Bemassung
 62
     0
370
    -2
100
AcDbBlockReference
  2
VDDIM_DEFAULT
10
-75.8905508971012
20
-10.2123110085131
30
0.000000000000000
 41
2.50000000000000
 42
2.50000000000000
 43
2.50000000000000
  0
INSERT
  5
F10034
330
F1001B
100
AcDbEntity
  8
Bemassung
 62
     0
370
    -2
100
AcDbBlockReference
  2
VDDIM_DEFAULT
10
-97.8905508971012
20
-10.2123110085131
30
0.000000000000000
 41
2.50000000000000
 42
2.50000000000000
 43
2.50000000000000
 50
180.000000000000
  0
MTEXT
  5
F10035
330
F1001B
100
AcDbEntity
  8
Bemassung
 62
     0
100
AcDbMText
10
-86.8905508971012
20
-9.54564434184646
30
0.000000000000000
 40
2.50000000000000
 41
0.0
 71
     8
 72
     1
  1
22
 11
1.00000000000000
 21
0.000000000000000
 31
0.0
 73
     1
 44
1.0
1001
ACAD
1000
MTEXTBEGIN
1070
73
1070
1
1070
44
1040
1.0
1070
74
1070
0
1000
MTEXTEND
  0
POINT
  5
F10036
330
F1001B
100
AcDbEntity
  8
Bemassung
 62
     0
100
AcDbPoint
10
-75.8905508971012
20
-5.21231100851313
30
0.000000000000000
  0
POINT
  5
F10037
330
F1001B
100
AcDbEntity
  8
Bemassung
 62
     0
100
AcDbPoint
10
-97.8905508971012
20
-12.2123110085131
30
0.000000000000000
  0
ENDBLK
  5
F10038
330
F1001B
100
AcDbEntity
  8
0
100
AcDbBlockEnd
  0
BLOCK
  5
F10039
330
F10020
100
AcDbEntity
  8
0
100
AcDbBlockBegin
  2
*D9
 70
     1
 10
0.0
 20
0.0
 30
0.0
  3
*D9
  1

  0
LINE
  5
F1003A
330
F10020
100
AcDbEntity
  8
Bemassung
 62
     0
370
    -2
100
AcDbLine
10
-27.8905508971012
20
3.78768899148688
30
0.000000000000000
11
-27.8905508971012
21
21.7876889914869
31
0.000000000000000
  0
LINE
  5
F1003B
330
F10020
100
AcDbEntity
  8
Bemassung
 62
     0
370
    -2
100
AcDbLine
10
-97.8905508971012
20
-12.2123110085131
30
0.000000000000000
11
-97.8905508971012
21
21.7876889914869
31
0.000000000000000
  0
LINE
  5
F1003C
330
F10020
100
AcDbEntity
  8
Bemassung
 62
     0
370
    -2
100
AcDbLine
10
7.93663219852195
20
19.7876889914869
30
0.000000000000000
11
-97.8905508971012
21
19.7876889914869
31
0.000000000000000
  0
INSERT
  5
F1003D
330
F10020
100
AcDbEntity
  8
Bemassung
 62
     0
370
    -2
100
AcDbBlockReference
  2
VDDIM_DEFAULT
10
-27.8905508971012
20
19.7876889914869
30
0.000000000000000
 41
2.50000000000000
 42
2.50000000000000
 43
2.50000000000000
  0
INSERT
  5
F1003E
330
F10020
100
AcDbEntity
  8
Bemassung
 62
     0
370
    -2
100
AcDbBlockReference
  2
VDDIM_DEFAULT
10
-97.8905508971012
20
19.7876889914869
30
0.000000000000000
 41
2.50000000000000
 42
2.50000000000000
 43
2.50000000000000
 50
180.000000000000
  0
MTEXT
  5
F1003F
330
F10020
100
AcDbEntity
  8
Bemassung
 62
     0
100
AcDbMText
10
-62.8905508971012
20
20.4543556581535
30
0.000000000000000
 40
2.50000000000000
 41
0.0
 71
     8
 72
     1
  1
70
 11
1.00000000000000
 21
0.000000000000000
 31
0.0
 73
     1
 44
1.0
1001
ACAD
1000
MTEXTBEGIN
1070
73
1070
1
1070
44
1040
1.0
1070
74
1070
0
1000
MTEXTEND
  0
POINT
  5
F10040
330
F10020
100
AcDbEntity
  8
Bemassung
 62
     0
100
AcDbPoint
10
-27.8905508971012
20
3.78768899148688
30
0.000000000000000
  0
POINT
  5
F10041
330
F10020
100
AcDbEntity
  8
Bemassung
 62
     0
100
AcDbPoint
10
-97.8905508971012
20
-12.2123110085131
30
0.000000000000000
  0
ENDBLK
  5
F10042
330
F10020
100
AcDbEntity
  8
0
100
AcDbBlockEnd
  0
BLOCK
  5
F10043
330
F10002
100
AcDbEntity
  8
0
100
AcDbBlockBegin
  2
*D3
 70
     1
 10
0.0
 20
0.0
 30
0.0
  3
*D3
  1

 0
ARC
  5
F10044
330
F10002
100
AcDbEntity
  8
Bemassung
 62
     0
370
   -2
100
AcDbCircle
10
-97.8903681452069
20
4.47721914247612
30
0.000000000000000
 40
18.9091232513799
100
AcDbArc
 50
90.0000000000000
 51
101.199422687433
  0
LINE
  5
F10045
330
F10002
100
AcDbEntity
  8
Bemassung
 62
     0
370
    -2
100
AcDbLine
10
-97.8903681452069
20
4.47721914247612
30
0.000000000000000
11
-97.8903681452069
21
25.3863423938560
31
0.000000000000000
  0
LINE
  5
F10046
330
F10002
100
AcDbEntity
  8
Bemassung
 62
     0
370
    -2
100
AcDbLine
10
-97.8903681452069
20
4.47721914247612
30
0.000000000000000
11
-98.6200860231707
21
25.3736051209169
31
0.000000000000000
  0
INSERT
  5
F10047
330
F10002
100
AcDbEntity
  8
Bemassung
 62
     0
370
    -2
100
AcDbBlockReference
  2
VDDIM_DEFAULT
10
-97.8903681452069
20
23.3863423938560
30
0.000000000000000
 41
2.50000000000000
 42
2.50000000000000
 43
2.50000000000000
 50
179.848496819447
  0
INSERT
  5
F10048
330
F10002
100
AcDbEntity
  8
Bemassung
 62
     0
370
    -2
100
AcDbBlockReference
  2
VDDIM_DEFAULT
10
-98.5502870297657
20
23.3748234668787
30
0.000000000000000
 41
2.50000000000000
 42
2.50000000000000
 43
2.50000000000000
 50
2.15150318055189
  0
MTEXT
  5
F10049
330
F10002
100
AcDbEntity
  8
Bemassung
 62
     0
100
AcDbMText
10
-102.386639925876
20
22.8439957298427
30
0.000000000000000
 40
2.50000000000000
 41
0.0
 71
     8
 72
     1
  1
2°
 11
0.972223637157778
 21
0.234053838575021
 31
0.0
 73
     1
 44
1.0
1001
ACAD
1000
MTEXTBEGIN
1070
73
1070
1
1070
44
1040
1.0
1070
74
1070
0
1000
MTEXTEND
  0
POINT
  5
F1004A
330
F10002
100
AcDbEntity
  8
Bemassung
 62
     0
100
AcDbPoint
10
-97.8903681452069
20
4.47721914247612
30
0.000000000000000
  0
POINT
  5
F1004B
330
F10002
100
AcDbEntity
  8
Bemassung
 62
     0
100
AcDbPoint
10
-97.8903681452069
20
23.3863423938560
30
0.000000000000000
  0
POINT
  5
F1004C
330
F10002
100
AcDbEntity
  8
Bemassung
 62
     0
100
AcDbPoint
10
-98.5502870297657
20
23.3748234668787
30
0.000000000000000
  0
POINT
  5
F1004D
330
F10002
100
AcDbEntity
  8
Bemassung
 62
     0
100
AcDbPoint
10
-98.2203778495627
20
23.3834624427964
30
0.000000000000000
  0
ENDBLK
  5
F1004E
330
F10002
100
AcDbEntity
  8
0
100
AcDbBlockEnd
  0
BLOCK
  5
F1004F
330
F1000C
100
AcDbEntity
  8
0
100
AcDbBlockBegin
  2
*D5
 70
     1
 10
0.0
 20
0.0
 30
0.0
  3
*D5
  1

  0
LINE
  5
F10050
330
F1000C
100
AcDbEntity
  8
Bemassung
 62
     0
370
    -2
100
AcDbLine
10
-97.8063528372028
20
4.69608650262457
30
0.000000000000000
11
-111.118773603310
21
17.5517418019629
31
0.000000000000000
  0
INSERT
  5
F10051
330
F1000C
100
AcDbEntity
  8
Bemassung
 62
     0
370
    -2
100
AcDbBlockReference
  2
VDDIM_DEFAULT
10
-97.8063528372028
20
4.69608650262457
30
0.000000000000000
 41
2.50000000000000
 42
2.50000000000000
 43
2.50000000000000
 50
316.000000000000
  0
MTEXT
  5
F10052
330
F1000C
100
AcDbEntity
  8
Bemassung
 62
     0
100
AcDbMText
10
-104.999750840589
20
11.6426702072145
30
0.000000000000000
 40
2.50000000000000
 41
0.0
 71
     8
 72
     1
  1
R0.3
 11
0.719339800338652
 21
-0.694658370458996
 31
0.0
 73
     1
 44
1.0
1001
ACAD
1000
MTEXTBEGIN
1070
73
1070
1
1070
44
1040
1.0
1070
74
1070
0
1000
MTEXTEND
  0
POINT
  5
F10053
330
F1000C
100
AcDbEntity
  8
Bemassung
 62
     0
100
AcDbPoint
10
-97.8063528372028
20
4.69608650262457
30
0.000000000000000
  0
POINT
  5
F10054
330
F1000C
100
AcDbEntity
  8
Bemassung
 62
     0
100
AcDbPoint
10
-97.5905508971012
20
4.48768899148687
30
0.000000000000000
  0
ENDBLK
  5
F10055
330
F1000C
100
AcDbEntity
  8
0
100
AcDbBlockEnd
  0
BLOCK
  5
F10056
330
F10007
100
AcDbEntity
  8
0
100
AcDbBlockBegin
  2
*D4
 70
     1
 10
0.0
 20
0.0
 30
0.0
  3
*D4
  1

  0
LINE
  5
F10057
330
F10007
100
AcDbEntity
  8
Bemassung
 62
     0
370
    -2
100
AcDbLine
10
-97.5905508971012
20
-5.21231100851313
30
0.000000000000000
11
-109.890550897101
21
-5.21231100851313
31
0.000000000000000
  0
LINE
  5
F10058
330
F10007
100
AcDbEntity
  8
Bemassung
 62
     0
370
    -2
100
AcDbLine
10
-97.5905508971012
20
4.78768899148687
30
0.000000000000000
11
-109.890550897101
21
4.78768899148687
31
0.000000000000000
  0
LINE
  5
F10059
330
F10007
100
AcDbEntity
  8
Bemassung
 62
     0
370
    -2
100
AcDbLine
10
-107.890550897101
20
-5.21231100851313
30
0.000000000000000
11
-107.890550897101
21
4.78768899148687
31
0.000000000000000
  0
INSERT
  5
F1005A
330
F10007
100
AcDbEntity
  8
Bemassung
 62
     0
370
    -2
100
AcDbBlockReference
  2
VDDIM_DEFAULT
10
-107.890550897101
20
-5.21231100851313
30
0.000000000000000
 41
2.50000000000000
 42
2.50000000000000
 43
2.50000000000000
 50
270.000000000000
  0
INSERT
  5
F1005B
330
F10007
100
AcDbEntity
  8
Bemassung
 62
     0
370
    -2
100
AcDbBlockReference
  2
VDDIM_DEFAULT
10
-107.890550897101
20
4.78768899148687
30
0.000000000000000
 41
2.50000000000000
 42
2.50000000000000
 43
2.50000000000000
 50
90.0000000000000
  0
MTEXT
  5
F1005C
330
F10007
100
AcDbEntity
  8
Bemassung
 62
     0
100
AcDbMText
10
-107.223884230435
20
-0.212311008513126
30
0.000000000000000
 40
2.50000000000000
 41
0.0
 71
     8
 72
     1
  1
10
 11
6.12323399573677e-017
 21
1.00000000000000
 31
0.0
 73
     1
 44
1.0
1001
ACAD
1000
MTEXTBEGIN
1070
73
1070
1
1070
44
1040
1.0
1070
74
1070
0
1000
MTEXTEND
  0
POINT
  5
F1005D
330
F10007
100
AcDbEntity
  8
Bemassung
 62
     0
100
AcDbPoint
10
-97.5905508971012
20
-5.21231100851313
30
0.000000000000000
  0
POINT
  5
F1005E
330
F10007
100
AcDbEntity
  8
Bemassung
 62
     0
100
AcDbPoint
10
-97.5905508971012
20
4.78768899148687
30
0.000000000000000
  0
ENDBLK
  5
F1005F
330
F10007
100
AcDbEntity
  8
0
100
AcDbBlockEnd
  0
BLOCK
  5
F10060
330
F10016
100
AcDbEntity
  8
0
100
AcDbBlockBegin
  2
*D7
 70
     1
 10
0.0
 20
0.0
 30
0.0
  3
*D7
  1

  0
LINE
  5
F10061
330
F10016
100
AcDbEntity
  8
Bemassung
 62
     0
370
    -2
100
AcDbLine
10
-28.8905508971012
20
-5.21231100851313
30
0.000000000000000
11
-15.8905508971012
21
-5.21231100851313
31
0.000000000000000
  0
LINE
  5
F10062
330
F10016
100
AcDbEntity
  8
Bemassung
 62
     0
370
    -2
100
AcDbLine
10
-28.8905508971012
20
4.78768899148687
30
0.000000000000000
11
-15.8905508971012
21
4.78768899148687
31
0.000000000000000
  0
LINE
  5
F10063
330
F10016
100
AcDbEntity
  8
Bemassung
 62
     0
370
    -2
100
AcDbLine
10
-17.8905508971012
20
-5.21231100851313
30
0.000000000000000
11
-17.8905508971012
21
4.78768899148687
31
0.000000000000000
  0
INSERT
  5
F10064
330
F10016
100
AcDbEntity
  8
Bemassung
 62
     0
370
    -2
100
AcDbBlockReference
  2
VDDIM_DEFAULT
10
-17.8905508971012
20
-5.21231100851313
30
0.000000000000000
 41
2.50000000000000
 42
2.50000000000000
 43
2.50000000000000
 50
270.000000000000
  0
INSERT
  5
F10065
330
F10016
100
AcDbEntity
  8
Bemassung
 62
     0
370
    -2
100
AcDbBlockReference
  2
VDDIM_DEFAULT
10
-17.8905508971012
20
4.78768899148687
30
0.000000000000000
 41
2.50000000000000
 42
2.50000000000000
 43
2.50000000000000
 50
90.0000000000000
  0
MTEXT
  5
F10066
330
F10016
100
AcDbEntity
  8
Bemassung
 62
     0
100
AcDbMText
10
-17.2238842304346
20
-0.212311008513126
30
0.000000000000000
 40
2.50000000000000
 41
0.0
 71
     8
 72
     1
  1
10h6
 11
6.12323399573677e-017
 21
1.00000000000000
 31
0.0
 73
     1
 44
1.0
  0
POINT
  5
F10067
330
F10016
100
AcDbEntity
  8
Bemassung
 62
     0
100
AcDbPoint
10
-28.8905508971012
20
-5.21231100851313
30
0.000000000000000
  0
POINT
  5
F10068
330
F10016
100
AcDbEntity
  8
Bemassung
 62
     0
100
AcDbPoint
10
-28.8905508971012
20
4.78768899148687
30
0.000000000000000
  0
ENDBLK
  5
F10069
330
F10016
100
AcDbEntity
  8
0
100
AcDbBlockEnd
0
ENDSEC
0
SECTION
2
ENTITIES
  0
DIMENSION
  5
F10012
330
261
100
AcDbEntity
  8
Bemassung
100
AcDbDimension
  2
*D6
10
-27.8905508971012
20
14.7876889914869
30
0.000000000000000
11
-51.8905508971012
21
15.4543556581535
31
0.000000000000000
 70
32
 1
48
 71
     8
  3
BEM-ISBE
100
AcDbAlignedDimension
13
-75.8905508971012
23
4.78768899148687
33
0.000000000000000
14
-27.8905508971012
24
3.78768899148688
34
0.000000000000000
100
AcDbRotatedDimension
1001
ACAD
1000
DSTYLE
1002
{
1070
284
1070
8
1070
78
1070
8
1070
144
1040
1.00000000000000
1070
147
1040
0.625
1070
 72
1070
 0
1070
 71
1070
 0
1002
}
  0
DIMENSION
  5
F1001C
330
261
100
AcDbEntity
  8
Bemassung
100
AcDbDimension
  2
*D8
10
-97.8905508971012
20
-10.2123110085131
30
0.000000000000000
11
-86.8905508971012
21
-9.54564434184646
31
0.000000000000000
 70
32
 1
22
 71
     8
  3
BEM-ISBE
100
AcDbAlignedDimension
13
-75.8905508971012
23
-5.21231100851313
33
0.000000000000000
14
-97.8905508971012
24
-12.2123110085131
34
0.000000000000000
100
AcDbRotatedDimension
1001
ACAD
1000
DSTYLE
1002
{
1070
284
1070
8
1070
78
1070
8
1070
144
1040
1.00000000000000
1070
147
1040
0.625
1070
 72
1070
 0
1070
 71
1070
 0
1002
}
  0
DIMENSION
  5
F10021
330
261
100
AcDbEntity
  8
Bemassung
100
AcDbDimension
  2
*D9
10
-97.8905508971012
20
19.7876889914869
30
0.000000000000000
11
-62.8905508971012
21
20.4543556581535
31
0.000000000000000
 70
32
 1
70
 71
     8
  3
BEM-ISBE
100
AcDbAlignedDimension
13
-27.8905508971012
23
3.78768899148688
33
0.000000000000000
14
-97.8905508971012
24
-12.2123110085131
34
0.000000000000000
100
AcDbRotatedDimension
1001
ACAD
1000
DSTYLE
1002
{
1070
284
1070
8
1070
78
1070
8
1070
144
1040
1.00000000000000
1070
147
1040
0.625
1070
 72
1070
 0
1070
 71
1070
 0
1002
}
  0
DIMENSION
  5
F10003
330
261
100
AcDbEntity
  8
Bemassung
100
AcDbDimension
  2
*D3
10
-97.8903681452069
20
4.47721914247612
30
0.000000000000000
11
-102.386639925876
21
22.8439957298427
31
0.000000000000000
 70
34
 1
2°
 71
     8
  3
BEM-ISBE
100
AcDb2LineAngularDimension
13
-97.8903681452069
23
4.47721914247612
33
0.000000000000000
14
-101.562982532053
24
23.0262580852734
34
0.000000000000000
15
-97.8903681452069
25
23.3863423938560
35
0.000000000000000
16
-98.2203778495627
26
23.3834624427964
36
0.000000000000000
1001
ACAD
1000
DSTYLE
1002
{
1070
284
1070
8
1070
79
1070
2
1070
147
1040
0.625
1070
 72
1070
 0
1070
 71
1070
 0
1002
}
  0
DIMENSION
  5
F1000D
330
261
100
AcDbEntity
  8
Bemassung
100
AcDbDimension
  2
*D5
10
-97.5905508971012
20
4.48768899148687
30
0.000000000000000
11
-104.999750840589
21
11.6426702072145
31
0.000000000000000
 70
164
 1
R0.3
 71
     8
  3
BEM-ISBE
100
AcDbRadialDimension
15
-97.8063528372028
25
4.69608650262457
35
0.000000000000000
40
0.0
1001
ACAD
1000
DSTYLE
1002
{
1070
284
1070
8
1070
78
1070
8
1070
144
1040
1.00000000000000
1070
147
1040
0.625
1070
 72
1070
 0
1070
 71
1070
 0
1002
}
  0
DIMENSION
  5
F10008
330
261
100
AcDbEntity
  8
Bemassung
100
AcDbDimension
  2
*D4
10
-107.890550897101
20
4.78768899148687
30
0.000000000000000
11
-107.223884230435
21
-0.212311008513126
31
0.000000000000000
 70
32
 1
10
 71
     8
  3
BEM-ISBE
100
AcDbAlignedDimension
13
-97.5905508971012
23
-5.21231100851313
33
0.000000000000000
14
-97.5905508971012
24
4.78768899148687
34
0.000000000000000
50
90.0000000000000
100
AcDbRotatedDimension
1001
ACAD
1000
DSTYLE
1002
{
1070
284
1070
8
1070
78
1070
8
1070
144
1040
1.00000000000000
1070
147
1040
0.625
1070
 72
1070
 0
1070
 71
1070
 0
1002
}
  0
DIMENSION
  5
F10017
330
261
100
AcDbEntity
  8
Bemassung
100
AcDbDimension
  2
*D7
10
-17.8905508971012
20
4.78768899148687
30
0.000000000000000
11
-17.2238842304346
21
-0.212311008513126
31
0.000000000000000
 70
32
 1
10h6
 71
     8
  3
BEM-ISBE
100
AcDbAlignedDimension
13
-28.8905508971012
23
-5.21231100851313
33
0.000000000000000
14
-28.8905508971012
24
4.78768899148687
34
0.000000000000000
50
90.0000000000000
100
AcDbRotatedDimension
1001
ACAD
1000
DSTYLE
1002
{
1070
284
1070
8
1070
78
1070
8
1070
144
1040
1.00000000000000
1070
147
1040
0.625
1070
 72
1070
 0
1070
 71
1070
 0
1002
}
  0
LINE
  5
F1006A
330
F1006B
100
AcDbEntity
8
Geo
100
AcDbLine
10
-97.7266061437796
20
-0.212311008513126
30
0.000000000000000
11
-97.8903681452069
21
4.47721914247612
31
0.000000000000000
  0
ARC
  5
F1006C
330
F1006D
100
AcDbEntity
8
Geo
100
AcDbCircle
10
-97.5905508971012
20
4.48768899148687
30
0.000000000000000
 40
0.300000000000001
100
AcDbArc
 50
90.0000000000000
 51
182.000000000000
  0
LINE
  5
F1006E
330
F1006F
100
AcDbEntity
8
Geo
100
AcDbLine
10
-97.5905508971012
20
4.78768899148687
30
0.000000000000000
11
-75.8905508971012
21
4.78768899148687
31
0.000000000000000
  0
LINE
  5
F10070
330
F10071
100
AcDbEntity
8
Geo
100
AcDbLine
10
-75.8905508971012
20
4.78768899148687
30
0.000000000000000
11
-28.8905508971012
21
4.78768899148687
31
0.000000000000000
  0
LINE
  5
F10072
330
F10073
100
AcDbEntity
8
Geo
100
AcDbLine
10
-28.8905508971012
20
4.78768899148687
30
0.000000000000000
11
-27.8905508971012
21
3.78768899148688
31
0.000000000000000
  0
LINE
  5
F10074
330
F10075
100
AcDbEntity
8
Geo
100
AcDbLine
10
-94.6905508971012
20
4.78613200667130
30
0.000000000000000
11
-94.5905508971012
21
4.78723110733712
31
0.000000000000000
  0
LINE
  5
F10076
330
F10077
100
AcDbEntity
8
Geo
100
AcDbLine
10
-94.5905508971012
20
4.78723110733712
30
0.000000000000000
11
-94.4905508971012
21
4.78092439330826
31
0.000000000000000
  0
LINE
  5
F10078
330
F10079
100
AcDbEntity
8
Geo
100
AcDbLine
10
-94.4905508971012
20
4.78092439330826
30
0.000000000000000
11
-94.3905508971012
21
4.76722120671134
31
0.000000000000000
  0
LINE
  5
F1007A
330
F1007B
100
AcDbEntity
8
Geo
100
AcDbLine
10
-94.3905508971012
20
4.76722120671134
30
0.000000000000000
11
-94.2905508971012
21
4.74614184605734
31
0.000000000000000
  0
LINE
  5
F1007C
330
F1007D
100
AcDbEntity
8
Geo
100
AcDbLine
10
-94.2905508971012
20
4.74614184605734
30
0.000000000000000
11
-94.1905508971012
21
4.71771753617353
31
0.000000000000000
  0
LINE
  5
F1007E
330
F1007F
100
AcDbEntity
8
Geo
100
AcDbLine
10
-94.1905508971012
20
4.71771753617353
30
0.000000000000000
11
-94.0905508971012
21
4.68199038195011
31
0.000000000000000
  0
LINE
  5
F10080
330
F10081
100
AcDbEntity
8
Geo
100
AcDbLine
10
-94.0905508971012
20
4.68199038195011
30
0.000000000000000
11
-93.9905508971012
21
4.63901330597029
31
0.000000000000000
  0
LINE
  5
F10082
330
F10083
100
AcDbEntity
8
Geo
100
AcDbLine
10
-93.9905508971012
20
4.63901330597029
30
0.000000000000000
11
-93.8905508971012
21
4.58884997011620
31
0.000000000000000
  0
LINE
  5
F10084
330
F10085
100
AcDbEntity
8
Geo
100
AcDbLine
10
-93.8905508971012
20
4.58884997011620
30
0.000000000000000
11
-93.7905508971012
21
4.53157468126660
31
0.000000000000000
  0
LINE
  5
F10086
330
F10087
100
AcDbEntity
8
Geo
100
AcDbLine
10
-93.7905508971012
20
4.53157468126660
30
0.000000000000000
11
-93.6905508971012
21
4.46727228122618
31
0.000000000000000
  0
LINE
  5
F10088
330
F10089
100
AcDbEntity
8
Geo
100
AcDbLine
10
-93.6905508971012
20
4.46727228122618
30
0.000000000000000
11
-93.5905508971012
21
4.39603802104955
31
0.000000000000000
  0
LINE
  5
F1008A
330
F1008B
100
AcDbEntity
8
Geo
100
AcDbLine
10
-93.5905508971012
20
4.39603802104955
30
0.000000000000000
11
-93.4905508971012
21
4.31797741994600
31
0.000000000000000
  0
LINE
  5
F1008C
330
F1008D
100
AcDbEntity
8
Geo
100
AcDbLine
10
-93.4905508971012
20
4.31797741994600
30
0.000000000000000
11
-93.3905508971012
21
4.23320610897399
31
0.000000000000000
  0
LINE
  5
F1008E
330
F1008F
100
AcDbEntity
8
Geo
100
AcDbLine
10
-93.3905508971012
20
4.23320610897399
30
0.000000000000000
11
-93.2905508971012
21
4.14184965975706
31
0.000000000000000
  0
LINE
  5
F10090
330
F10091
100
AcDbEntity
8
Geo
100
AcDbLine
10
-93.2905508971012
20
4.14184965975706
30
0.000000000000000
11
-93.1905508971012
21
4.04404339847478
31
0.000000000000000
  0
LINE
  5
F10092
330
F10093
100
AcDbEntity
8
Geo
100
AcDbLine
10
-93.1905508971012
20
4.04404339847478
30
0.000000000000000
11
-93.0905508971012
21
3.93993220540423
31
0.000000000000000
  0
LINE
  5
F10094
330
F10095
100
AcDbEntity
8
Geo
100
AcDbLine
10
-93.0905508971012
20
3.93993220540423
30
0.000000000000000
11
-92.9905508971012
21
3.82967030030906
31
0.000000000000000
  0
LINE
  5
F10096
330
F10097
100
AcDbEntity
8
Geo
100
AcDbLine
10
-92.9905508971012
20
3.82967030030906
30
0.000000000000000
11
-92.8905508971012
21
3.71342101399401
31
0.000000000000000
  0
LINE
  5
F10098
330
F10099
100
AcDbEntity
8
Geo
100
AcDbLine
10
-92.8905508971012
20
3.71342101399401
30
0.000000000000000
11
-92.7905508971012
21
3.59135654636315
31
0.000000000000000
  0
LINE
  5
F1009A
330
F1009B
100
AcDbEntity
8
Geo
100
AcDbLine
10
-92.7905508971012
20
3.59135654636315
30
0.000000000000000
11
-92.6905508971012
21
3.46365771134048
31
0.000000000000000
  0
LINE
  5
F1009C
330
F1009D
100
AcDbEntity
8
Geo
100
AcDbLine
10
-92.6905508971012
20
3.46365771134048
30
0.000000000000000
11
-92.5905508971012
21
3.33051366903045
31
0.000000000000000
  0
LINE
  5
F1009E
330
F1009F
100
AcDbEntity
8
Geo
100
AcDbLine
10
-92.5905508971012
20
3.33051366903045
30
0.000000000000000
11
-92.4905508971012
21
3.19212164551541
31
0.000000000000000
  0
LINE
  5
F100A0
330
F100A1
100
AcDbEntity
8
Geo
100
AcDbLine
10
-92.4905508971012
20
3.19212164551541
30
0.000000000000000
11
-92.3905508971012
21
3.04868664070488
31
0.000000000000000
  0
LINE
  5
F100A2
330
F100A3
100
AcDbEntity
8
Geo
100
AcDbLine
10
-92.3905508971012
20
3.04868664070488
30
0.000000000000000
11
-92.2905508971012
21
2.90042112466947
31
0.000000000000000
  0
LINE
  5
F100A4
330
F100A5
100
AcDbEntity
8
Geo
100
AcDbLine
10
-92.2905508971012
20
2.90042112466947
30
0.000000000000000
11
-92.1905508971012
21
2.74754472290925
31
0.000000000000000
  0
LINE
  5
F100A6
330
F100A7
100
AcDbEntity
8
Geo
100
AcDbLine
10
-92.1905508971012
20
2.74754472290925
30
0.000000000000000
11
-92.0905508971012
21
2.59028389102285
31
0.000000000000000
  0
LINE
  5
F100A8
330
F100A9
100
AcDbEntity
8
Geo
100
AcDbLine
10
-92.0905508971012
20
2.59028389102285
30
0.000000000000000
11
-91.9905508971012
21
2.42887157925903
31
0.000000000000000
  0
LINE
  5
F100AA
330
F100AB
100
AcDbEntity
8
Geo
100
AcDbLine
10
-91.9905508971012
20
2.42887157925903
30
0.000000000000000
11
-91.8905508971012
21
2.26354688744789
31
0.000000000000000
  0
LINE
  5
F100AC
330
F100AD
100
AcDbEntity
8
Geo
100
AcDbLine
10
-91.8905508971012
20
2.26354688744789
30
0.000000000000000
11
-91.7905508971012
21
2.09455471082254
31
0.000000000000000
  0
LINE
  5
F100AE
330
F100AF
100
AcDbEntity
8
Geo
100
AcDbLine
10
-91.7905508971012
20
2.09455471082254
30
0.000000000000000
11
-91.6905508971012
21
1.92214537725620
31
0.000000000000000
  0
LINE
  5
F100B0
330
F100B1
100
AcDbEntity
8
Geo
100
AcDbLine
10
-91.6905508971012
20
1.92214537725620
30
0.000000000000000
11
-91.5905508971012
21
1.74657427645188
31
0.000000000000000
  0
LINE
  5
F100B2
330
F100B3
100
AcDbEntity
8
Geo
100
AcDbLine
10
-91.5905508971012
20
1.74657427645188
30
0.000000000000000
11
-91.4905508971012
21
1.56810148163389
31
0.000000000000000
  0
LINE
  5
F100B4
330
F100B5
100
AcDbEntity
8
Geo
100
AcDbLine
10
-91.4905508971012
20
1.56810148163389
30
0.000000000000000
11
-91.3905508971012
21
1.38699136430185
31
0.000000000000000
  0
LINE
  5
F100B6
330
F100B7
100
AcDbEntity
8
Geo
100
AcDbLine
10
-91.3905508971012
20
1.38699136430185
30
0.000000000000000
11
-91.2905508971012
21
1.20351220261747
31
0.000000000000000
  0
LINE
  5
F100B8
330
F100B9
100
AcDbEntity
8
Geo
100
AcDbLine
10
-91.2905508971012
20
1.20351220261747
30
0.000000000000000
11
-91.1905508971012
21
1.01793578400453
31
0.000000000000000
  0
LINE
  5
F100BA
330
F100BB
100
AcDbEntity
8
Geo
100
AcDbLine
10
-91.1905508971012
20
1.01793578400453
30
0.000000000000000
11
-91.0905508971012
21
0.830537002550568
31
0.000000000000000
  0
LINE
  5
F100BC
330
F100BD
100
AcDbEntity
8
Geo
100
AcDbLine
10
-91.0905508971012
20
0.830537002550568
30
0.000000000000000
11
-90.9905508971012
21
0.641593451806596
31
0.000000000000000
  0
LINE
  5
F100BE
330
F100BF
100
AcDbEntity
8
Geo
100
AcDbLine
10
-90.9905508971012
20
0.641593451806596
30
0.000000000000000
11
-90.8905508971012
21
0.451385013588222
31
0.000000000000000
  0
LINE
  5
F100C0
330
F100C1
100
AcDbEntity
8
Geo
100
AcDbLine
10
-90.8905508971012
20
0.451385013588222
30
0.000000000000000
11
-90.7905508971012
21
0.260193443387081
31
0.000000000000000
  0
LINE
  5
F100C2
330
F100C3
100
AcDbEntity
8
Geo
100
AcDbLine
10
-90.7905508971012
20
0.260193443387081
30
0.000000000000000
11
-90.6905508971012
21
0.0683019530068307
31
0.000000000000000
  0
LINE
  5
F100C4
330
F100C5
100
AcDbEntity
8
Geo
100
AcDbLine
10
-90.6905508971012
20
0.0683019530068307
30
0.000000000000000
11
-90.5905508971012
21
-0.124005208958092
31
0.000000000000000
  0
LINE
  5
F100C6
330
F100C7
100
AcDbEntity
8
Geo
100
AcDbLine
10
-90.5905508971012
20
-0.124005208958092
30
0.000000000000000
11
-90.4905508971012
21
-0.316443178179523
31
0.000000000000000
  0
LINE
  5
F100C8
330
F100C9
100
AcDbEntity
8
Geo
100
AcDbLine
10
-90.4905508971012
20
-0.316443178179523
30
0.000000000000000
11
-90.3905508971012
21
-0.508726896564690
31
0.000000000000000
  0
LINE
  5
F100CA
330
F100CB
100
AcDbEntity
8
Geo
100
AcDbLine
10
-90.3905508971012
20
-0.508726896564690
30
0.000000000000000
11
-90.2905508971012
21
-0.700571534512368
31
0.000000000000000
  0
LINE
  5
F100CC
330
F100CD
100
AcDbEntity
8
Geo
100
AcDbLine
10
-90.2905508971012
20
-0.700571534512368
30
0.000000000000000
11
-90.1905508971012
21
-0.891692912830570
31
0.000000000000000
  0
LINE
  5
F100CE
330
F100CF
100
AcDbEntity
8
Geo
100
AcDbLine
10
-90.1905508971012
20
-0.891692912830570
30
0.000000000000000
11
-90.0905508971012
21
-1.08180792369077
31
0.000000000000000
  0
LINE
  5
F100D0
330
F100D1
100
AcDbEntity
8
Geo
100
AcDbLine
10
-90.0905508971012
20
-1.08180792369077
30
0.000000000000000
11
-89.9905508971012
21
-1.27063494999515
31
0.000000000000000
  0
LINE
  5
F100D2
330
F100D3
100
AcDbEntity
8
Geo
100
AcDbLine
10
-89.9905508971012
20
-1.27063494999515
30
0.000000000000000
11
-89.8905508971012
21
-1.45789428253559
31
0.000000000000000
  0
LINE
  5
F100D4
330
F100D5
100
AcDbEntity
8
Geo
100
AcDbLine
10
-89.8905508971012
20
-1.45789428253559
30
0.000000000000000
11
-89.7905508971012
21
-1.64330853432654
31
0.000000000000000
  0
LINE
  5
F100D6
330
F100D7
100
AcDbEntity
8
Geo
100
AcDbLine
10
-89.7905508971012
20
-1.64330853432654
30
0.000000000000000
11
-89.6905508971012
21
-1.82660305149797
31
0.000000000000000
  0
LINE
  5
F100D8
330
F100D9
100
AcDbEntity
8
Geo
100
AcDbLine
10
-89.6905508971012
20
-1.82660305149797
30
0.000000000000000
11
-89.5905508971012
21
-2.00750632013976
31
0.000000000000000
  0
LINE
  5
F100DA
330
F100DB
100
AcDbEntity
8
Geo
100
AcDbLine
10
-89.5905508971012
20
-2.00750632013976
30
0.000000000000000
11
-89.4905508971012
21
-2.18575036849485
31
0.000000000000000
  0
LINE
  5
F100DC
330
F100DD
100
AcDbEntity
8
Geo
100
AcDbLine
10
-89.4905508971012
20
-2.18575036849485
30
0.000000000000000
11
-89.3905508971012
21
-2.36107116390546
31
0.000000000000000
  0
LINE
  5
F100DE
330
F100DF
100
AcDbEntity
8
Geo
100
AcDbLine
10
-89.3905508971012
20
-2.36107116390546
30
0.000000000000000
11
-89.2905508971012
21
-2.53320900392427
31
0.000000000000000
  0
LINE
  5
F100E0
330
F100E1
100
AcDbEntity
8
Geo
100
AcDbLine
10
-89.2905508971012
20
-2.53320900392427
30
0.000000000000000
11
-89.1905508971012
21
-2.70190890101132
31
0.000000000000000
  0
LINE
  5
F100E2
330
F100E3
100
AcDbEntity
8
Geo
100
AcDbLine
10
-89.1905508971012
20
-2.70190890101132
30
0.000000000000000
11
-89.0905508971012
21
-2.86692096024665
31
0.000000000000000
  0
LINE
  5
F100E4
330
F100E5
100
AcDbEntity
8
Geo
100
AcDbLine
10
-89.0905508971012
20
-2.86692096024665
30
0.000000000000000
11
-88.9905508971012
21
-3.02800074949932
31
0.000000000000000
  0
LINE
  5
F100E6
330
F100E7
100
AcDbEntity
8
Geo
100
AcDbLine
10
-88.9905508971012
20
-3.02800074949932
30
0.000000000000000
11
-88.8905508971012
21
-3.18490966150438
31
0.000000000000000
  0
LINE
  5
F100E8
330
F100E9
100
AcDbEntity
8
Geo
100
AcDbLine
10
-88.8905508971012
20
-3.18490966150438
30
0.000000000000000
11
-88.7905508971012
21
-3.33741526731148
31
0.000000000000000
  0
LINE
  5
F100EA
330
F100EB
100
AcDbEntity
8
Geo
100
AcDbLine
10
-88.7905508971012
20
-3.33741526731148
30
0.000000000000000
11
-88.6905508971012
21
-3.48529166058153
31
0.000000000000000
  0
LINE
  5
F100EC
330
F100ED
100
AcDbEntity
8
Geo
100
AcDbLine
10
-88.6905508971012
20
-3.48529166058153
30
0.000000000000000
11
-88.5905508971012
21
-3.62831979222145
31
0.000000000000000
  0
LINE
  5
F100EE
330
F100EF
100
AcDbEntity
8
Geo
100
AcDbLine
10
-88.5905508971012
20
-3.62831979222145
30
0.000000000000000
11
-88.4905508971012
21
-3.76628779486128
31
0.000000000000000
  0
LINE
  5
F100F0
330
F100F1
100
AcDbEntity
8
Geo
100
AcDbLine
10
-88.4905508971012
20
-3.76628779486128
30
0.000000000000000
11
-88.3905508971012
21
-3.89899129669305
31
0.000000000000000
  0
LINE
  5
F100F2
330
F100F3
100
AcDbEntity
8
Geo
100
AcDbLine
10
-88.3905508971012
20
-3.89899129669305
30
0.000000000000000
11
-88.2905508971012
21
-4.02623372420639
31
0.000000000000000
  0
LINE
  5
F100F4
330
F100F5
100
AcDbEntity
8
Geo
100
AcDbLine
10
-88.2905508971012
20
-4.02623372420639
30
0.000000000000000
11
-88.1905508971012
21
-4.14782659337263
31
0.000000000000000
  0
LINE
  5
F100F6
330
F100F7
100
AcDbEntity
8
Geo
100
AcDbLine
10
-88.1905508971012
20
-4.14782659337263
30
0.000000000000000
11
-88.0905508971012
21
-4.26358978884593
31
0.000000000000000
  0
LINE
  5
F100F8
330
F100F9
100
AcDbEntity
8
Geo
100
AcDbLine
10
-88.0905508971012
20
-4.26358978884593
30
0.000000000000000
11
-87.9905508971012
21
-4.37335183076790
31
0.000000000000000
  0
LINE
  5
F100FA
330
F100FB
100
AcDbEntity
8
Geo
100
AcDbLine
10
-87.9905508971012
20
-4.37335183076790
30
0.000000000000000
11
-87.8905508971012
21
-4.47695012878041
31
0.000000000000000
  0
LINE
  5
F100FC
330
F100FD
100
AcDbEntity
8
Geo
100
AcDbLine
10
-87.8905508971012
20
-4.47695012878041
30
0.000000000000000
11
-87.7905508971012
21
-4.57423122287054
31
0.000000000000000
  0
LINE
  5
F100FE
330
F100FF
100
AcDbEntity
8
Geo
100
AcDbLine
10
-87.7905508971012
20
-4.57423122287054
30
0.000000000000000
11
-87.6905508971012
21
-4.66505101069062
31
0.000000000000000
  0
LINE
  5
F10100
330
F10101
100
AcDbEntity
8
Geo
100
AcDbLine
10
-87.6905508971012
20
-4.66505101069062
30
0.000000000000000
11
-87.5905508971012
21
-4.74927496101687
31
0.000000000000000
  0
LINE
  5
F10102
330
F10103
100
AcDbEntity
8
Geo
100
AcDbLine
10
-87.5905508971012
20
-4.74927496101687
30
0.000000000000000
11
-87.4905508971012
21
-4.82677831303030
31
0.000000000000000
  0
LINE
  5
F10104
330
F10105
100
AcDbEntity
8
Geo
100
AcDbLine
10
-87.4905508971012
20
-4.82677831303030
30
0.000000000000000
11
-87.3905508971012
21
-4.89744626112472
31
0.000000000000000
  0
LINE
  5
F10106
330
F10107
100
AcDbEntity
8
Geo
100
AcDbLine
10
-87.3905508971012
20
-4.89744626112472
30
0.000000000000000
11
-87.2905508971012
21
-4.96117412496816
31
0.000000000000000
  0
LINE
  5
F10108
330
F10109
100
AcDbEntity
8
Geo
100
AcDbLine
10
-87.2905508971012
20
-4.96117412496816
30
0.000000000000000
11
-87.1905508971012
21
-5.01786750456566
31
0.000000000000000
  0
LINE
  5
F1010A
330
F1010B
100
AcDbEntity
8
Geo
100
AcDbLine
10
-87.1905508971012
20
-5.01786750456566
30
0.000000000000000
11
-87.0905508971012
21
-5.06744242009387
31
0.000000000000000
  0
LINE
  5
F1010C
330
F1010D
100
AcDbEntity
8
Geo
100
AcDbLine
10
-87.0905508971012
20
-5.06744242009387
30
0.000000000000000
11
-86.9905508971012
21
-5.10982543630024
31
0.000000000000000
  0
LINE
  5
F1010E
330
F1010F
100
AcDbEntity
8
Geo
100
AcDbLine
10
-86.9905508971012
20
-5.10982543630024
30
0.000000000000000
11
-86.8905508971012
21
-5.14495377128256
31
0.000000000000000
  0
LINE
  5
F10110
330
F10111
100
AcDbEntity
8
Geo
100
AcDbLine
10
-86.8905508971012
20
-5.14495377128256
30
0.000000000000000
11
-86.7905508971012
21
-5.17277538948770
31
0.000000000000000
  0
LINE
  5
F10112
330
F10113
100
AcDbEntity
8
Geo
100
AcDbLine
10
-86.7905508971012
20
-5.17277538948770
30
0.000000000000000
11
-86.6905508971012
21
-5.19324907879179
31
0.000000000000000
  0
LINE
  5
F10114
330
F10115
100
AcDbEntity
8
Geo
100
AcDbLine
10
-86.6905508971012
20
-5.19324907879179
30
0.000000000000000
11
-86.5905508971013
21
-5.20634451154771
31
0.000000000000000
  0
LINE
  5
F10116
330
F10117
100
AcDbEntity
8
Geo
100
AcDbLine
10
-86.5905508971013
20
-5.20634451154771
30
0.000000000000000
11
-86.4905508971012
21
-5.21204228950936
31
0.000000000000000
  0
LINE
  5
F10118
330
F10119
100
AcDbEntity
8
Geo
100
AcDbLine
10
-77.5905508971012
20
4.78768899148687
30
0.000000000000000
11
-77.4905508971012
21
4.78768898186085
31
0.000000000000000
  0
LINE
  5
F1011A
330
F1011B
100
AcDbEntity
8
Geo
100
AcDbLine
10
-77.4905508971012
20
4.78768898186085
30
0.000000000000000
11
-77.3905508971012
21
4.78714619587707
31
0.000000000000000
  0
LINE
  5
F1011C
330
F1011D
100
AcDbEntity
8
Geo
100
AcDbLine
10
-77.3905508971012
20
4.78714619587707
30
0.000000000000000
11
-77.2905508971012
21
4.78564828781852
31
0.000000000000000
  0
LINE
  5
F1011E
330
F1011F
100
AcDbEntity
8
Geo
100
AcDbLine
10
-77.2905508971012
20
4.78564828781852
30
0.000000000000000
11
-77.1905508971012
21
4.78336910041032
31
0.000000000000000
  0
LINE
  5
F10120
330
F10121
100
AcDbEntity
8
Geo
100
AcDbLine
10
-77.1905508971012
20
4.78336910041032
30
0.000000000000000
11
-77.0905508971012
21
4.78047202293444
31
0.000000000000000
  0
LINE
  5
F10122
330
F10123
100
AcDbEntity
8
Geo
100
AcDbLine
10
-77.0905508971012
20
4.78047202293444
30
0.000000000000000
11
-76.9905508971012
21
4.77710992249496
31
0.000000000000000
  0
LINE
  5
F10124
330
F10125
100
AcDbEntity
8
Geo
100
AcDbLine
10
-76.9905508971012
20
4.77710992249496
30
0.000000000000000
11
-76.8905508971012
21
4.77342509846578
31
0.000000000000000
  0
LINE
  5
F10126
330
F10127
100
AcDbEntity
8
Geo
100
AcDbLine
10
-76.8905508971012
20
4.77342509846578
30
0.000000000000000
11
-76.7905508971012
21
4.76954925638123
31
0.000000000000000
  0
LINE
  5
F10128
330
F10129
100
AcDbEntity
8
Geo
100
AcDbLine
10
-76.7905508971012
20
4.76954925638123
30
0.000000000000000
11
-76.6905508971012
21
4.76560349778091
31
0.000000000000000
  0
LINE
  5
F1012A
330
F1012B
100
AcDbEntity
8
Geo
100
AcDbLine
10
-76.6905508971012
20
4.76560349778091
30
0.000000000000000
11
-76.5905508971012
21
4.76169832277554
31
0.000000000000000
  0
LINE
  5
F1012C
330
F1012D
100
AcDbEntity
8
Geo
100
AcDbLine
10
-76.5905508971012
20
4.76169832277554
30
0.000000000000000
11
-76.4905508971012
21
4.75793364235819
31
0.000000000000000
  0
LINE
  5
F1012E
330
F1012F
100
AcDbEntity
8
Geo
100
AcDbLine
10
-76.4905508971012
20
4.75793364235819
30
0.000000000000000
11
-76.3905508971012
21
4.75439879774484
31
0.000000000000000
  0
LINE
  5
F10130
330
F10131
100
AcDbEntity
8
Geo
100
AcDbLine
10
-76.3905508971012
20
4.75439879774484
30
0.000000000000000
11
-76.2905508971012
21
4.75117258428813
31
0.000000000000000
  0
LINE
  5
F10132
330
F10133
100
AcDbEntity
8
Geo
100
AcDbLine
10
-76.2905508971012
20
4.75117258428813
30
0.000000000000000
11
-76.1905508971012
21
4.74832327776880
31
0.000000000000000
  0
LINE
  5
F10134
330
F10135
100
AcDbEntity
8
Geo
100
AcDbLine
10
-76.1905508971012
20
4.74832327776880
30
0.000000000000000
11
-76.0905508971012
21
4.74590866112898
31
0.000000000000000
  0
LINE
  5
F10136
330
F10137
100
AcDbEntity
8
Geo
100
AcDbLine
10
-76.0905508971012
20
4.74590866112898
30
0.000000000000000
11
-75.9905508971011
21
4.74397604997078
31
0.000000000000000
  0
LINE
  5
F10138
330
F10139
100
AcDbEntity
8
Geo
100
AcDbLine
10
-75.9905508971011
20
4.74397604997078
30
0.000000000000000
11
-75.8905508971012
21
4.74256231540230
31
0.000000000000000
  0
LINE
  5
F1013A
330
F1013B
100
AcDbEntity
8
Geo
100
AcDbLine
10
-97.8905508971012
20
4.48768899148687
30
0.000000000000000
11
-97.7905508971012
21
4.70764912332939
31
0.000000000000000
  0
LINE
  5
F1013C
330
F1013D
100
AcDbEntity
8
Geo
100
AcDbLine
10
-97.7905508971012
20
4.70764912332939
30
0.000000000000000
11
-97.6905508971012
21
4.75577501496768
31
0.000000000000000
  0
LINE
  5
F1013E
330
F1013F
100
AcDbEntity
8
Geo
100
AcDbLine
10
-97.6905508971012
20
4.75577501496768
30
0.000000000000000
11
-97.5905508971012
21
4.75439267873359
31
0.000000000000000
  0
LINE
  5
F10140
330
F10141
100
AcDbEntity
8
Geo
100
AcDbLine
10
-97.5905508971012
20
4.75439267873359
30
0.000000000000000
11
-97.4905508971012
21
4.72854669510553
31
0.000000000000000
  0
LINE
  5
F10142
330
F10143
100
AcDbEntity
8
Geo
100
AcDbLine
10
-97.4905508971012
20
4.72854669510553
30
0.000000000000000
11
-97.3905508971012
21
4.69538182591997
31
0.000000000000000
  0
LINE
  5
F10144
330
F10145
100
AcDbEntity
8
Geo
100
AcDbLine
10
-97.3905508971012
20
4.69538182591997
30
0.000000000000000
11
-97.2905508971012
21
4.65494719825093
31
0.000000000000000
  0
LINE
  5
F10146
330
F10147
100
AcDbEntity
8
Geo
100
AcDbLine
10
-97.2905508971012
20
4.65494719825093
30
0.000000000000000
11
-97.1905508971012
21
4.60730270785543
31
0.000000000000000
  0
LINE
  5
F10148
330
F10149
100
AcDbEntity
8
Geo
100
AcDbLine
10
-97.1905508971012
20
4.60730270785543
30
0.000000000000000
11
-97.0905508971012
21
4.55251893044998
31
0.000000000000000
  0
LINE
  5
F1014A
330
F1014B
100
AcDbEntity
8
Geo
100
AcDbLine
10
-97.0905508971012
20
4.55251893044998
30
0.000000000000000
11
-96.9905508971012
21
4.49067701716691
31
0.000000000000000
  0
LINE
  5
F1014C
330
F1014D
100
AcDbEntity
8
Geo
100
AcDbLine
10
-96.9905508971012
20
4.49067701716691
30
0.000000000000000
11
-96.8905508971012
21
4.42186857434524
31
0.000000000000000
  0
LINE
  5
F1014E
330
F1014F
100
AcDbEntity
8
Geo
100
AcDbLine
10
-96.8905508971012
20
4.42186857434524
30
0.000000000000000
11
-96.7905508971012
21
4.34619552783443
31
0.000000000000000
  0
LINE
  5
F10150
330
F10151
100
AcDbEntity
8
Geo
100
AcDbLine
10
-96.7905508971012
20
4.34619552783443
30
0.000000000000000
11
-96.6905508971012
21
4.26376997201169
31
0.000000000000000
  0
LINE
  5
F10152
330
F10153
100
AcDbEntity
8
Geo
100
AcDbLine
10
-96.6905508971012
20
4.26376997201169
30
0.000000000000000
11
-96.5905508971012
21
4.17471400373676
31
0.000000000000000
  0
LINE
  5
F10154
330
F10155
100
AcDbEntity
8
Geo
100
AcDbLine
10
-96.5905508971012
20
4.17471400373676
30
0.000000000000000
11
-96.4905508971012
21
4.07915954149003
31
0.000000000000000
  0
LINE
  5
F10156
330
F10157
100
AcDbEntity
8
Geo
100
AcDbLine
10
-96.4905508971012
20
4.07915954149003
30
0.000000000000000
11
-96.3905508971012
21
3.97724812996184
31
0.000000000000000
  0
LINE
  5
F10158
330
F10159
100
AcDbEntity
8
Geo
100
AcDbLine
10
-96.3905508971012
20
3.97724812996184
30
0.000000000000000
11
-96.2905508971012
21
3.86913073038254
31
0.000000000000000
  0
LINE
  5
F1015A
330
F1015B
100
AcDbEntity
8
Geo
100
AcDbLine
10
-96.2905508971012
20
3.86913073038254
30
0.000000000000000
11
-96.1905508971012
21
3.75496749690387
31
0.000000000000000
  0
LINE
  5
F1015C
330
F1015D
100
AcDbEntity
8
Geo
100
AcDbLine
10
-96.1905508971012
20
3.75496749690387
30
0.000000000000000
11
-96.0905508971012
21
3.63492753936278
31
0.000000000000000
  0
LINE
  5
F1015E
330
F1015F
100
AcDbEntity
8
Geo
100
AcDbLine
10
-96.0905508971012
20
3.63492753936278
30
0.000000000000000
11
-95.9905508971012
21
3.50918867277930
31
0.000000000000000
  0
LINE
  5
F10160
330
F10161
100
AcDbEntity
8
Geo
100
AcDbLine
10
-95.9905508971012
20
3.50918867277930
30
0.000000000000000
11
-95.8905508971012
21
3.37793715395941
31
0.000000000000000
  0
LINE
  5
F10162
330
F10163
100
AcDbEntity
8
Geo
100
AcDbLine
10
-95.8905508971012
20
3.37793715395941
30
0.000000000000000
11
-95.7905508971012
21
3.24136740559309
31
0.000000000000000
  0
LINE
  5
F10164
330
F10165
100
AcDbEntity
8
Geo
100
AcDbLine
10
-95.7905508971012
20
3.24136740559309
30
0.000000000000000
11
-95.6905508971012
21
3.09968172825623
31
0.000000000000000
  0
LINE
  5
F10166
330
F10167
100
AcDbEntity
8
Geo
100
AcDbLine
10
-95.6905508971012
20
3.09968172825623
30
0.000000000000000
11
-95.5905508971012
21
2.95309000074312
31
0.000000000000000
  0
LINE
  5
F10168
330
F10169
100
AcDbEntity
8
Geo
100
AcDbLine
10
-95.5905508971012
20
2.95309000074312
30
0.000000000000000
11
-95.4905508971012
21
2.80180936917326
31
0.000000000000000
  0
LINE
  5
F1016A
330
F1016B
100
AcDbEntity
8
Geo
100
AcDbLine
10
-95.4905508971012
20
2.80180936917326
30
0.000000000000000
11
-95.3905508971012
21
2.64606392533313
31
0.000000000000000
  0
LINE
  5
F1016C
330
F1016D
100
AcDbEntity
8
Geo
100
AcDbLine
10
-95.3905508971012
20
2.64606392533313
30
0.000000000000000
11
-95.2905508971012
21
2.48608437472933
31
0.000000000000000
  0
LINE
  5
F1016E
330
F1016F
100
AcDbEntity
8
Geo
100
AcDbLine
10
-95.2905508971012
20
2.48608437472933
30
0.000000000000000
11
-95.1905508971012
21
2.32210769484484
31
0.000000000000000
  0
LINE
  5
F10170
330
F10171
100
AcDbEntity
8
Geo
100
AcDbLine
10
-95.1905508971012
20
2.32210769484484
30
0.000000000000000
11
-95.0905508971012
21
2.15437678410463
31
0.000000000000000
  0
LINE
  5
F10172
330
F10173
100
AcDbEntity
8
Geo
100
AcDbLine
10
-95.0905508971012
20
2.15437678410463
30
0.000000000000000
11
-94.9905508971012
21
1.98314010207055
31
0.000000000000000
  0
LINE
  5
F10174
330
F10175
100
AcDbEntity
8
Geo
100
AcDbLine
10
-94.9905508971012
20
1.98314010207055
30
0.000000000000000
11
-94.8905508971012
21
1.80865130139851
31
0.000000000000000
  0
LINE
  5
F10176
330
F10177
100
AcDbEntity
8
Geo
100
AcDbLine
10
-94.8905508971012
20
1.80865130139851
30
0.000000000000000
11
-94.7905508971012
21
1.63116885210319
31
0.000000000000000
  0
LINE
  5
F10178
330
F10179
100
AcDbEntity
8
Geo
100
AcDbLine
10
-94.7905508971012
20
1.63116885210319
30
0.000000000000000
11
-94.6905508971012
21
1.45095565868676
31
0.000000000000000
  0
LINE
  5
F1017A
330
F1017B
100
AcDbEntity
8
Geo
100
AcDbLine
10
-94.6905508971012
20
1.45095565868676
30
0.000000000000000
11
-94.5905508971012
21
1.26827867069881
31
0.000000000000000
  0
LINE
  5
F1017C
330
F1017D
100
AcDbEntity
8
Geo
100
AcDbLine
10
-94.5905508971012
20
1.26827867069881
30
0.000000000000000
11
-94.4905508971012
21
1.08340848730436
31
0.000000000000000
  0
LINE
  5
F1017E
330
F1017F
100
AcDbEntity
8
Geo
100
AcDbLine
10
-94.4905508971012
20
1.08340848730436
30
0.000000000000000
11
-94.3905508971012
21
0.896618956445689
31
0.000000000000000
  0
LINE
  5
F10180
330
F10181
100
AcDbEntity
8
Geo
100
AcDbLine
10
-94.3905508971012
20
0.896618956445689
30
0.000000000000000
11
-94.2905508971012
21
0.708186769191782
31
0.000000000000000
  0
LINE
  5
F10182
330
F10183
100
AcDbEntity
8
Geo
100
AcDbLine
10
-94.2905508971012
20
0.708186769191782
30
0.000000000000000
11
-94.1905508971012
21
0.518391049876222
31
0.000000000000000
  0
LINE
  5
F10184
330
F10185
100
AcDbEntity
8
Geo
100
AcDbLine
10
-94.1905508971012
20
0.518391049876222
30
0.000000000000000
11
-94.0905508971012
21
0.327512942630717
31
0.000000000000000
  0
LINE
  5
F10186
330
F10187
100
AcDbEntity
8
Geo
100
AcDbLine
10
-94.0905508971012
20
0.327512942630717
30
0.000000000000000
11
-93.9905508971012
21
0.135835194926688
31
0.000000000000000
  0
LINE
  5
F10188
330
F10189
100
AcDbEntity
8
Geo
100
AcDbLine
10
-93.9905508971012
20
0.135835194926688
30
0.000000000000000
11
-93.8905508971012
21
-0.0563582612581529
31
0.000000000000000
  0
LINE
  5
F1018A
330
F1018B
100
AcDbEntity
8
Geo
100
AcDbLine
10
-93.8905508971012
20
-0.0563582612581529
30
0.000000000000000
11
-93.7905508971012
21
-0.248782730027853
31
0.000000000000000
  0
LINE
  5
F1018C
330
F1018D
100
AcDbEntity
8
Geo
100
AcDbLine
10
-93.7905508971012
20
-0.248782730027853
30
0.000000000000000
11
-93.6905508971012
21
-0.441153173287843
31
0.000000000000000
  0
LINE
  5
F1018E
330
F1018F
100
AcDbEntity
8
Geo
100
AcDbLine
10
-93.6905508971012
20
-0.441153173287843
30
0.000000000000000
11
-93.5905508971012
21
-0.633184632971460
31
0.000000000000000
  0
LINE
  5
F10190
330
F10191
100
AcDbEntity
8
Geo
100
AcDbLine
10
-93.5905508971012
20
-0.633184632971460
30
0.000000000000000
11
-93.4905508971012
21
-0.824592653147941
31
0.000000000000000
  0
LINE
  5
F10192
330
F10193
100
AcDbEntity
8
Geo
100
AcDbLine
10
-93.4905508971012
20
-0.824592653147941
30
0.000000000000000
11
-93.3905508971012
21
-1.01509370138658
31
0.000000000000000
  0
LINE
  5
F10194
330
F10195
100
AcDbEntity
8
Geo
100
AcDbLine
10
-93.3905508971012
20
-1.01509370138658
30
0.000000000000000
11
-93.2905508971012
21
-1.20440558875294
31
0.000000000000000
  0
LINE
  5
F10196
330
F10197
100
AcDbEntity
8
Geo
100
AcDbLine
10
-93.2905508971012
20
-1.20440558875294
30
0.000000000000000
11
-93.1905508971012
21
-1.39224788781489
31
0.000000000000000
  0
LINE
  5
F10198
330
F10199
100
AcDbEntity
8
Geo
100
AcDbLine
10
-93.1905508971012
20
-1.39224788781489
30
0.000000000000000
11
-93.0905508971012
21
-1.57834234803939
31
0.000000000000000
  0
LINE
  5
F1019A
330
F1019B
100
AcDbEntity
8
Geo
100
AcDbLine
10
-93.0905508971012
20
-1.57834234803939
30
0.000000000000000
11
-92.9905508971012
21
-1.76241330796462
31
0.000000000000000
  0
LINE
  5
F1019C
330
F1019D
100
AcDbEntity
8
Geo
100
AcDbLine
10
-92.9905508971012
20
-1.76241330796462
30
0.000000000000000
11
-92.8905508971012
21
-1.94418810353689
31
0.000000000000000
  0
LINE
  5
F1019E
330
F1019F
100
AcDbEntity
8
Geo
100
AcDbLine
10
-92.8905508971012
20
-1.94418810353689
30
0.000000000000000
11
-92.7905508971012
21
-2.12339747200753
31
0.000000000000000
  0
LINE
  5
F101A0
330
F101A1
100
AcDbEntity
8
Geo
100
AcDbLine
10
-92.7905508971012
20
-2.12339747200753
30
0.000000000000000
11
-92.6905508971012
21
-2.29977595079145
31
0.000000000000000
  0
LINE
  5
F101A2
330
F101A3
100
AcDbEntity
8
Geo
100
AcDbLine
10
-92.6905508971012
20
-2.29977595079145
30
0.000000000000000
11
-92.5905508971012
21
-2.47306227069642
31
0.000000000000000
  0
LINE
  5
F101A4
330
F101A5
100
AcDbEntity
8
Geo
100
AcDbLine
10
-92.5905508971012
20
-2.47306227069642
30
0.000000000000000
11
-92.4905508971012
21
-2.64299974294085
31
0.000000000000000
  0
LINE
  5
F101A6
330
F101A7
100
AcDbEntity
8
Geo
100
AcDbLine
10
-92.4905508971012
20
-2.64299974294085
30
0.000000000000000
11
-92.3905508971012
21
-2.80933663938643
31
0.000000000000000
  0
LINE
  5
F101A8
330
F101A9
100
AcDbEntity
8
Geo
100
AcDbLine
10
-92.3905508971012
20
-2.80933663938643
30
0.000000000000000
11
-92.2905508971012
21
-2.97182656542275
31
0.000000000000000
  0
LINE
  5
F101AA
330
F101AB
100
AcDbEntity
8
Geo
100
AcDbLine
10
-92.2905508971012
20
-2.97182656542275
30
0.000000000000000
11
-92.1905508971012
21
-3.13022882495121
31
0.000000000000000
  0
LINE
  5
F101AC
330
F101AD
100
AcDbEntity
8
Geo
100
AcDbLine
10
-92.1905508971012
20
-3.13022882495121
30
0.000000000000000
11
-92.0905508971012
21
-3.28430877692788
31
0.000000000000000
  0
LINE
  5
F101AE
330
F101AF
100
AcDbEntity
8
Geo
100
AcDbLine
10
-92.0905508971012
20
-3.28430877692788
30
0.000000000000000
11
-91.9905508971012
21
-3.43383818293690
31
0.000000000000000
  0
LINE
  5
F101B0
330
F101B1
100
AcDbEntity
8
Geo
100
AcDbLine
10
-91.9905508971012
20
-3.43383818293690
30
0.000000000000000
11
-91.8905508971012
21
-3.57859554527977
31
0.000000000000000
  0
LINE
  5
F101B2
330
F101B3
100
AcDbEntity
8
Geo
100
AcDbLine
10
-91.8905508971012
20
-3.57859554527977
30
0.000000000000000
11
-91.7905508971012
21
-3.71836643507951
31
0.000000000000000
  0
LINE
  5
F101B4
330
F101B5
100
AcDbEntity
8
Geo
100
AcDbLine
10
-91.7905508971012
20
-3.71836643507951
30
0.000000000000000
11
-91.6905508971012
21
-3.85294380991394
31
0.000000000000000
  0
LINE
  5
F101B6
330
F101B7
100
AcDbEntity
8
Geo
100
AcDbLine
10
-91.6905508971012
20
-3.85294380991394
30
0.000000000000000
11
-91.5905508971012
21
-3.98212832050724
31
0.000000000000000
  0
LINE
  5
F101B8
330
F101B9
100
AcDbEntity
8
Geo
100
AcDbLine
10
-91.5905508971012
20
-3.98212832050724
30
0.000000000000000
11
-91.4905508971012
21
-4.10572860602583
31
0.000000000000000
  0
LINE
  5
F101BA
330
F101BB
100
AcDbEntity
8
Geo
100
AcDbLine
10
-91.4905508971012
20
-4.10572860602583
30
0.000000000000000
11
-91.3905508971012
21
-4.22356157754085
31
0.000000000000000
  0
LINE
  5
F101BC
330
F101BD
100
AcDbEntity
8
Geo
100
AcDbLine
10
-91.3905508971012
20
-4.22356157754085
30
0.000000000000000
11
-91.2905508971012
21
-4.33545268923755
31
0.000000000000000
  0
LINE
  5
F101BE
330
F101BF
100
AcDbEntity
8
Geo
100
AcDbLine
10
-91.2905508971012
20
-4.33545268923755
30
0.000000000000000
11
-91.1905508971012
21
-4.44123619696978
31
0.000000000000000
  0
LINE
  5
F101C0
330
F101C1
100
AcDbEntity
8
Geo
100
AcDbLine
10
-91.1905508971012
20
-4.44123619696978
30
0.000000000000000
11
-91.0905508971012
21
-4.54075540377651
31
0.000000000000000
  0
LINE
  5
F101C2
330
F101C3
100
AcDbEntity
8
Geo
100
AcDbLine
10
-91.0905508971012
20
-4.54075540377651
30
0.000000000000000
11
-90.9905508971012
21
-4.63386289199687
31
0.000000000000000
  0
LINE
  5
F101C4
330
F101C5
100
AcDbEntity
8
Geo
100
AcDbLine
10
-90.9905508971012
20
-4.63386289199687
30
0.000000000000000
11
-90.8905508971012
21
-4.72042074163969
31
0.000000000000000
  0
LINE
  5
F101C6
330
F101C7
100
AcDbEntity
8
Geo
100
AcDbLine
10
-90.8905508971012
20
-4.72042074163969
30
0.000000000000000
11
-90.7905508971012
21
-4.80030073468422
31
0.000000000000000
  0
LINE
  5
F101C8
330
F101C9
100
AcDbEntity
8
Geo
100
AcDbLine
10
-90.7905508971012
20
-4.80030073468422
30
0.000000000000000
11
-90.6905508971012
21
-4.87338454500925
31
0.000000000000000
  0
LINE
  5
F101CA
330
F101CB
100
AcDbEntity
8
Geo
100
AcDbLine
10
-90.6905508971012
20
-4.87338454500925
30
0.000000000000000
11
-90.5905508971012
21
-4.93956391366949
31
0.000000000000000
  0
LINE
  5
F101CC
330
F101CD
100
AcDbEntity
8
Geo
100
AcDbLine
10
-90.5905508971012
20
-4.93956391366949
30
0.000000000000000
11
-90.4905508971012
21
-4.99874080925935
31
0.000000000000000
  0
LINE
  5
F101CE
330
F101CF
100
AcDbEntity
8
Geo
100
AcDbLine
10
-90.4905508971012
20
-4.99874080925935
30
0.000000000000000
11
-90.3905508971012
21
-5.05082757312674
31
0.000000000000000
  0
LINE
  5
F101D0
330
F101D1
100
AcDbEntity
8
Geo
100
AcDbLine
10
-90.3905508971012
20
-5.05082757312674
30
0.000000000000000
11
-90.2905508971012
21
-5.09574704922170
31
0.000000000000000
  0
LINE
  5
F101D2
330
F101D3
100
AcDbEntity
8
Geo
100
AcDbLine
10
-90.2905508971012
20
-5.09574704922170
30
0.000000000000000
11
-90.1905508971012
21
-5.13343269838757
31
0.000000000000000
  0
LINE
  5
F101D4
330
F101D5
100
AcDbEntity
8
Geo
100
AcDbLine
10
-90.1905508971012
20
-5.13343269838757
30
0.000000000000000
11
-90.0905508971012
21
-5.16382869692530
31
0.000000000000000
  0
LINE
  5
F101D6
330
F101D7
100
AcDbEntity
8
Geo
100
AcDbLine
10
-90.0905508971012
20
-5.16382869692530
30
0.000000000000000
11
-89.9905508971012
21
-5.18689001928508
31
0.000000000000000
  0
LINE
  5
F101D8
330
F101D9
100
AcDbEntity
8
Geo
100
AcDbLine
10
-89.9905508971012
20
-5.18689001928508
30
0.000000000000000
11
-89.8905508971012
21
-5.20258250476257
31
0.000000000000000
  0
LINE
  5
F101DA
330
F101DB
100
AcDbEntity
8
Geo
100
AcDbLine
10
-89.8905508971012
20
-5.20258250476257
30
0.000000000000000
11
-89.7905508971012
21
-5.21088290810115
31
0.000000000000000
  0
LINE
  5
F101DC
330
F101DD
100
AcDbEntity
8
Geo
100
AcDbLine
10
-81.5905508971013
20
4.78747219190801
30
0.000000000000000
11
-81.4905508971013
21
4.78556080637583
31
0.000000000000000
  0
LINE
  5
F101DE
330
F101DF
100
AcDbEntity
8
Geo
100
AcDbLine
10
-81.4905508971013
20
4.78556080637583
30
0.000000000000000
11
-81.3905508971013
21
4.77624608036343
31
0.000000000000000
  0
LINE
  5
F101E0
330
F101E1
100
AcDbEntity
8
Geo
100
AcDbLine
10
-81.3905508971013
20
4.77624608036343
30
0.000000000000000
11
-81.2905508971013
21
4.75954181176133
31
0.000000000000000
  0
LINE
  5
F101E2
330
F101E3
100
AcDbEntity
8
Geo
100
AcDbLine
10
-81.2905508971013
20
4.75954181176133
30
0.000000000000000
11
-81.1905508971012
21
4.73547274457909
31
0.000000000000000
  0
LINE
  5
F101E4
330
F101E5
100
AcDbEntity
8
Geo
100
AcDbLine
10
-81.1905508971012
20
4.73547274457909
30
0.000000000000000
11
-81.0905508971013
21
4.70407453229203
31
0.000000000000000
  0
LINE
  5
F101E6
330
F101E7
100
AcDbEntity
8
Geo
100
AcDbLine
10
-81.0905508971013
20
4.70407453229203
30
0.000000000000000
11
-80.9905508971013
21
4.66539368502779
31
0.000000000000000
  0
LINE
  5
F101E8
330
F101E9
100
AcDbEntity
8
Geo
100
AcDbLine
10
-80.9905508971013
20
4.66539368502779
30
0.000000000000000
11
-80.8905508971012
21
4.61948750067092
31
0.000000000000000
  0
LINE
  5
F101EA
330
F101EB
100
AcDbEntity
8
Geo
100
AcDbLine
10
-80.8905508971012
20
4.61948750067092
30
0.000000000000000
11
-80.7905508971012
21
4.62559226492019
31
0.000000000000000
  0
LINE
  5
F101EC
330
F101ED
100
AcDbEntity
8
Geo
100
AcDbLine
10
-80.7905508971012
20
4.62559226492019
30
0.000000000000000
11
-80.6905508971012
21
4.63147078030238
31
0.000000000000000
  0
LINE
  5
F101EE
330
F101EF
100
AcDbEntity
8
Geo
100
AcDbLine
10
-80.6905508971012
20
4.63147078030238
30
0.000000000000000
11
-80.5905508971012
21
4.63712925723495
31
0.000000000000000
  0
LINE
  5
F101F0
330
F101F1
100
AcDbEntity
8
Geo
100
AcDbLine
10
-80.5905508971012
20
4.63712925723495
30
0.000000000000000
11
-80.4905508971012
21
4.64257379784708
31
0.000000000000000
  0
LINE
  5
F101F2
330
F101F3
100
AcDbEntity
8
Geo
100
AcDbLine
10
-80.4905508971012
20
4.64257379784708
30
0.000000000000000
11
-80.3905508971012
21
4.64781039480906
31
0.000000000000000
  0
LINE
  5
F101F4
330
F101F5
100
AcDbEntity
8
Geo
100
AcDbLine
10
-80.3905508971012
20
4.64781039480906
30
0.000000000000000
11
-80.2905508971012
21
4.65284493021459
31
0.000000000000000
  0
LINE
  5
F101F6
330
F101F7
100
AcDbEntity
8
Geo
100
AcDbLine
10
-80.2905508971012
20
4.65284493021459
30
0.000000000000000
11
-80.1905508971012
21
4.65768317451450
31
0.000000000000000
  0
LINE
  5
F101F8
330
F101F9
100
AcDbEntity
8
Geo
100
AcDbLine
10
-80.1905508971012
20
4.65768317451450
30
0.000000000000000
11
-80.0905508971012
21
4.66233078550011
31
0.000000000000000
  0
LINE
  5
F101FA
330
F101FB
100
AcDbEntity
8
Geo
100
AcDbLine
10
-80.0905508971012
20
4.66233078550011
30
0.000000000000000
11
-79.9905508971012
21
4.66679330733451
31
0.000000000000000
  0
LINE
  5
F101FC
330
F101FD
100
AcDbEntity
8
Geo
100
AcDbLine
10
-79.9905508971012
20
4.66679330733451
30
0.000000000000000
11
-79.8905508971012
21
4.67107616963011
31
0.000000000000000
  0
LINE
  5
F101FE
330
F101FF
100
AcDbEntity
8
Geo
100
AcDbLine
10
-79.8905508971012
20
4.67107616963011
30
0.000000000000000
11
-79.7905508971012
21
4.67518468657101
31
0.000000000000000
  0
LINE
  5
F10200
330
F10201
100
AcDbEntity
8
Geo
100
AcDbLine
10
-79.7905508971012
20
4.67518468657101
30
0.000000000000000
11
-79.6905508971012
21
4.67912405607836
31
0.000000000000000
  0
LINE
  5
F10202
330
F10203
100
AcDbEntity
8
Geo
100
AcDbLine
10
-79.6905508971012
20
4.67912405607836
30
0.000000000000000
11
-79.5905508971012
21
4.68289935901731
31
0.000000000000000
  0
LINE
  5
F10204
330
F10205
100
AcDbEntity
8
Geo
100
AcDbLine
10
-79.5905508971012
20
4.68289935901731
30
0.000000000000000
11
-79.4905508971012
21
4.68651555844401
31
0.000000000000000
  0
LINE
  5
F10206
330
F10207
100
AcDbEntity
8
Geo
100
AcDbLine
10
-79.4905508971012
20
4.68651555844401
30
0.000000000000000
11
-79.3905508971012
21
4.68997749889110
31
0.000000000000000
  0
LINE
  5
F10208
330
F10209
100
AcDbEntity
8
Geo
100
AcDbLine
10
-79.3905508971012
20
4.68997749889110
30
0.000000000000000
11
-79.2905508971012
21
4.69328990569030
31
0.000000000000000
  0
LINE
  5
F1020A
330
F1020B
100
AcDbEntity
8
Geo
100
AcDbLine
10
-79.2905508971012
20
4.69328990569030
30
0.000000000000000
11
-79.1905508971012
21
4.69645738433062
31
0.000000000000000
  0
LINE
  5
F1020C
330
F1020D
100
AcDbEntity
8
Geo
100
AcDbLine
10
-79.1905508971012
20
4.69645738433062
30
0.000000000000000
11
-79.0905508971012
21
4.69948441985079
31
0.000000000000000
  0
LINE
  5
F1020E
330
F1020F
100
AcDbEntity
8
Geo
100
AcDbLine
10
-79.0905508971012
20
4.69948441985079
30
0.000000000000000
11
-78.9905508971012
21
4.70237537626462
31
0.000000000000000
  0
LINE
  5
F10210
330
F10211
100
AcDbEntity
8
Geo
100
AcDbLine
10
-78.9905508971012
20
4.70237537626462
30
0.000000000000000
11
-78.8905508971012
21
4.70513449601782
31
0.000000000000000
  0
LINE
  5
F10212
330
F10213
100
AcDbEntity
8
Geo
100
AcDbLine
10
-78.8905508971012
20
4.70513449601782
30
0.000000000000000
11
-78.7905508971012
21
4.70776589947517
31
0.000000000000000
  0
LINE
  5
F10214
330
F10215
100
AcDbEntity
8
Geo
100
AcDbLine
10
-78.7905508971012
20
4.70776589947517
30
0.000000000000000
11
-78.6905508971012
21
4.71027358443654
31
0.000000000000000
  0
LINE
  5
F10216
330
F10217
100
AcDbEntity
8
Geo
100
AcDbLine
10
-78.6905508971012
20
4.71027358443654
30
0.000000000000000
11
-78.5905508971012
21
4.71266142568079
31
0.000000000000000
  0
LINE
  5
F10218
330
F10219
100
AcDbEntity
8
Geo
100
AcDbLine
10
-78.5905508971012
20
4.71266142568079
30
0.000000000000000
11
-78.4905508971012
21
4.71493317453615
31
0.000000000000000
  0
LINE
  5
F1021A
330
F1021B
100
AcDbEntity
8
Geo
100
AcDbLine
10
-78.4905508971012
20
4.71493317453615
30
0.000000000000000
11
-78.3905508971012
21
4.71709245847604
31
0.000000000000000
  0
LINE
  5
F1021C
330
F1021D
100
AcDbEntity
8
Geo
100
AcDbLine
10
-78.3905508971012
20
4.71709245847604
30
0.000000000000000
11
-78.2905508971012
21
4.71914278073918
31
0.000000000000000
  0
LINE
  5
F1021E
330
F1021F
100
AcDbEntity
8
Geo
100
AcDbLine
10
-78.2905508971012
20
4.71914278073918
30
0.000000000000000
11
-78.1905508971012
21
4.72108751997284
31
0.000000000000000
  0
LINE
  5
F10220
330
F10221
100
AcDbEntity
8
Geo
100
AcDbLine
10
-78.1905508971012
20
4.72108751997284
30
0.000000000000000
11
-78.0905508971012
21
4.72292992989831
31
0.000000000000000
  0
LINE
  5
F10222
330
F10223
100
AcDbEntity
8
Geo
100
AcDbLine
10
-78.0905508971012
20
4.72292992989831
30
0.000000000000000
11
-77.9905508971012
21
4.72467313899746
31
0.000000000000000
  0
LINE
  5
F10224
330
F10225
100
AcDbEntity
8
Geo
100
AcDbLine
10
-77.9905508971012
20
4.72467313899746
30
0.000000000000000
11
-77.8905508971012
21
4.72632015021948
31
0.000000000000000
  0
LINE
  5
F10226
330
F10227
100
AcDbEntity
8
Geo
100
AcDbLine
10
-77.8905508971012
20
4.72632015021948
30
0.000000000000000
11
-77.7905508971012
21
4.72787384070679
31
0.000000000000000
  0
LINE
  5
F10228
330
F10229
100
AcDbEntity
8
Geo
100
AcDbLine
10
-77.7905508971012
20
4.72787384070679
30
0.000000000000000
11
-77.6905508971012
21
4.72933696153934
31
0.000000000000000
  0
LINE
  5
F1022A
330
F1022B
100
AcDbEntity
8
Geo
100
AcDbLine
10
-77.6905508971012
20
4.72933696153934
30
0.000000000000000
11
-77.5905508971012
21
4.73071213749632
31
0.000000000000000
  0
LINE
  5
F1022C
330
F1022D
100
AcDbEntity
8
Geo
100
AcDbLine
10
-77.5905508971012
20
4.73071213749632
30
0.000000000000000
11
-77.4905508971012
21
4.73200186683447
31
0.000000000000000
  0
LINE
  5
F1022E
330
F1022F
100
AcDbEntity
8
Geo
100
AcDbLine
10
-77.4905508971012
20
4.73200186683447
30
0.000000000000000
11
-77.3905508971012
21
4.73320852108229
31
0.000000000000000
  0
LINE
  5
F10230
330
F10231
100
AcDbEntity
8
Geo
100
AcDbLine
10
-77.3905508971012
20
4.73320852108229
30
0.000000000000000
11
-77.2905508971012
21
4.73433434484925
31
0.000000000000000
  0
LINE
  5
F10232
330
F10233
100
AcDbEntity
8
Geo
100
AcDbLine
10
-77.2905508971012
20
4.73433434484925
30
0.000000000000000
11
-77.1905508971012
21
4.73538145564942
31
0.000000000000000
  0
LINE
  5
F10234
330
F10235
100
AcDbEntity
8
Geo
100
AcDbLine
10
-77.1905508971012
20
4.73538145564942
30
0.000000000000000
11
-77.0905508971012
21
4.73635184373882
31
0.000000000000000
  0
LINE
  5
F10236
330
F10237
100
AcDbEntity
8
Geo
100
AcDbLine
10
-77.0905508971012
20
4.73635184373882
30
0.000000000000000
11
-76.9905508971012
21
4.73724737196569
31
0.000000000000000
  0
LINE
  5
F10238
330
F10239
100
AcDbEntity
8
Geo
100
AcDbLine
10
-76.9905508971012
20
4.73724737196569
30
0.000000000000000
11
-76.8905508971012
21
4.73806977563340
31
0.000000000000000
  0
LINE
  5
F1023A
330
F1023B
100
AcDbEntity
8
Geo
100
AcDbLine
10
-76.8905508971012
20
4.73806977563340
30
0.000000000000000
11
-76.7905508971012
21
4.73882066237506
31
0.000000000000000
  0
LINE
  5
F1023C
330
F1023D
100
AcDbEntity
8
Geo
100
AcDbLine
10
-76.7905508971012
20
4.73882066237506
30
0.000000000000000
11
-76.6905508971012
21
4.73950151203965
31
0.000000000000000
  0
LINE
  5
F1023E
330
F1023F
100
AcDbEntity
8
Geo
100
AcDbLine
10
-76.6905508971012
20
4.73950151203965
30
0.000000000000000
11
-76.5905508971012
21
4.74011367658893
31
0.000000000000000
  0
LINE
  5
F10240
330
F10241
100
AcDbEntity
8
Geo
100
AcDbLine
10
-76.5905508971012
20
4.74011367658893
30
0.000000000000000
11
-76.4905508971012
21
4.74065838000483
31
0.000000000000000
  0
LINE
  5
F10242
330
F10243
100
AcDbEntity
8
Geo
100
AcDbLine
10
-76.4905508971012
20
4.74065838000483
30
0.000000000000000
11
-76.3905508971012
21
4.74113671820682
31
0.000000000000000
  0
LINE
  5
F10244
330
F10245
100
AcDbEntity
8
Geo
100
AcDbLine
10
-76.3905508971012
20
4.74113671820682
30
0.000000000000000
11
-76.2905508971012
21
4.74154965897904
31
0.000000000000000
  0
LINE
  5
F10246
330
F10247
100
AcDbEntity
8
Geo
100
AcDbLine
10
-76.2905508971012
20
4.74154965897904
30
0.000000000000000
11
-76.1905508971012
21
4.74189804190658
31
0.000000000000000
  0
LINE
  5
F10248
330
F10249
100
AcDbEntity
8
Geo
100
AcDbLine
10
-76.1905508971012
20
4.74189804190658
30
0.000000000000000
11
-76.0905508971012
21
4.74218257832099
31
0.000000000000000
  0
LINE
  5
F1024A
330
F1024B
100
AcDbEntity
8
Geo
100
AcDbLine
10
-76.0905508971012
20
4.74218257832099
30
0.000000000000000
11
-75.9905508971011
21
4.74240385125440
31
0.000000000000000
  0
LINE
  5
F1024C
330
F1024D
100
AcDbEntity
8
Geo
100
AcDbLine
10
-75.9905508971011
20
4.74240385125440
30
0.000000000000000
11
-75.8905508971012
21
4.74256231540230
31
0.000000000000000
  0
LINE
  5
F1024E
330
F1024F
100
AcDbEntity
8
Geo
100
AcDbLine
10
-97.8905508971012
20
4.25765461807409
30
0.000000000000000
11
-97.7905508971012
21
4.40830187117504
31
0.000000000000000
  0
LINE
  5
F10250
330
F10251
100
AcDbEntity
8
Geo
100
AcDbLine
10
-97.7905508971012
20
4.40830187117504
30
0.000000000000000
11
-97.6905508971012
21
4.39420405549758
31
0.000000000000000
  0
LINE
  5
F10252
330
F10253
100
AcDbEntity
8
Geo
100
AcDbLine
10
-97.6905508971012
20
4.39420405549758
30
0.000000000000000
11
-97.5905508971012
21
4.33329005762335
31
0.000000000000000
  0
LINE
  5
F10254
330
F10255
100
AcDbEntity
8
Geo
100
AcDbLine
10
-97.5905508971012
20
4.33329005762335
30
0.000000000000000
11
-97.4905508971012
21
4.24978117857890
31
0.000000000000000
  0
LINE
  5
F10256
330
F10257
100
AcDbEntity
8
Geo
100
AcDbLine
10
-97.4905508971012
20
4.24978117857890
30
0.000000000000000
11
-97.3905508971012
21
4.15966260866227
31
0.000000000000000
  0
LINE
  5
F10258
330
F10259
100
AcDbEntity
8
Geo
100
AcDbLine
10
-97.3905508971012
20
4.15966260866227
30
0.000000000000000
11
-97.2905508971012
21
4.06306784038417
31
0.000000000000000
  0
LINE
  5
F1025A
330
F1025B
100
AcDbEntity
8
Geo
100
AcDbLine
10
-97.2905508971012
20
4.06306784038417
30
0.000000000000000
11
-97.1905508971012
21
3.96013995943878
31
0.000000000000000
  0
LINE
  5
F1025C
330
F1025D
100
AcDbEntity
8
Geo
100
AcDbLine
10
-97.1905508971012
20
3.96013995943878
30
0.000000000000000
11
-97.0905508971012
21
3.85103143275120
31
0.000000000000000
  0
LINE
  5
F1025E
330
F1025F
100
AcDbEntity
8
Geo
100
AcDbLine
10
-97.0905508971012
20
3.85103143275120
30
0.000000000000000
11
-96.9905508971012
21
3.73590388262832
31
0.000000000000000
  0
LINE
  5
F10260
330
F10261
100
AcDbEntity
8
Geo
100
AcDbLine
10
-96.9905508971012
20
3.73590388262832
30
0.000000000000000
11
-96.8905508971012
21
3.61492784734800
31
0.000000000000000
  0
LINE
  5
F10262
330
F10263
100
AcDbEntity
8
Geo
100
AcDbLine
10
-96.8905508971012
20
3.61492784734800
30
0.000000000000000
11
-96.7905508971012
21
3.48828252854091
31
0.000000000000000
  0
LINE
  5
F10264
330
F10265
100
AcDbEntity
8
Geo
100
AcDbLine
10
-96.7905508971012
20
3.48828252854091
30
0.000000000000000
11
-96.6905508971012
21
3.35615552573943
31
0.000000000000000
  0
LINE
  5
F10266
330
F10267
100
AcDbEntity
8
Geo
100
AcDbLine
10
-96.6905508971012
20
3.35615552573943
30
0.000000000000000
11
-96.5905508971012
21
3.21874255848672
31
0.000000000000000
  0
LINE
  5
F10268
330
F10269
100
AcDbEntity
8
Geo
100
AcDbLine
10
-96.5905508971012
20
3.21874255848672
30
0.000000000000000
11
-96.4905508971012
21
3.07624717641762
31
0.000000000000000
  0
LINE
  5
F1026A
330
F1026B
100
AcDbEntity
8
Geo
100
AcDbLine
10
-96.4905508971012
20
3.07624717641762
30
0.000000000000000
11
-96.3905508971012
21
2.92888045774090
31
0.000000000000000
  0
LINE
  5
F1026C
330
F1026D
100
AcDbEntity
8
Geo
100
AcDbLine
10
-96.3905508971012
20
2.92888045774090
30
0.000000000000000
11
-96.2905508971012
21
2.77686069656939
31
0.000000000000000
  0
LINE
  5
F1026E
330
F1026F
100
AcDbEntity
8
Geo
100
AcDbLine
10
-96.2905508971012
20
2.77686069656939
30
0.000000000000000
11
-96.1905508971012
21
2.62041307956119
31
0.000000000000000
  0
LINE
  5
F10270
330
F10271
100
AcDbEntity
8
Geo
100
AcDbLine
10
-96.1905508971012
20
2.62041307956119
30
0.000000000000000
11
-96.0905508971012
21
2.45976935235104
31
0.000000000000000
  0
LINE
  5
F10272
330
F10273
100
AcDbEntity
8
Geo
100
AcDbLine
10
-96.0905508971012
20
2.45976935235104
30
0.000000000000000
11
-95.9905508971012
21
2.29516747626579
31
0.000000000000000
  0
LINE
  5
F10274
330
F10275
100
AcDbEntity
8
Geo
100
AcDbLine
10
-95.9905508971012
20
2.29516747626579
30
0.000000000000000
11
-95.8905508971012
21
2.12685127583266
31
0.000000000000000
  0
LINE
  5
F10276
330
F10277
100
AcDbEntity
8
Geo
100
AcDbLine
10
-95.8905508971012
20
2.12685127583266
30
0.000000000000000
11
-95.7905508971012
21
1.95507007760228
31
0.000000000000000
  0
LINE
  5
F10278
330
F10279
100
AcDbEntity
8
Geo
100
AcDbLine
10
-95.7905508971012
20
1.95507007760228
30
0.000000000000000
11
-95.6905508971012
21
1.78007834082166
31
0.000000000000000
  0
LINE
  5
F1027A
330
F1027B
100
AcDbEntity
8
Geo
100
AcDbLine
10
-95.6905508971012
20
1.78007834082166
30
0.000000000000000
11
-95.5905508971012
21
1.60213528050401
31
0.000000000000000
  0
LINE
  5
F1027C
330
F1027D
100
AcDbEntity
8
Geo
100
AcDbLine
10
-95.5905508971012
20
1.60213528050401
30
0.000000000000000
11
-95.4905508971012
21
1.42150448345398
31
0.000000000000000
  0
LINE
  5
F1027E
330
F1027F
100
AcDbEntity
8
Geo
100
AcDbLine
10
-95.4905508971012
20
1.42150448345398
30
0.000000000000000
11
-95.3905508971012
21
1.23845351781682
31
0.000000000000000
  0
LINE
  5
F10280
330
F10281
100
AcDbEntity
8
Geo
100
AcDbLine
10
-95.3905508971012
20
1.23845351781682
30
0.000000000000000
11
-95.2905508971012
21
1.05325353673011
31
0.000000000000000
  0
LINE
  5
F10282
330
F10283
100
AcDbEntity
8
Geo
100
AcDbLine
10
-95.2905508971012
20
1.05325353673011
30
0.000000000000000
11
-95.1905508971012
21
0.866178876665002
31
0.000000000000000
  0
LINE
  5
F10284
330
F10285
100
AcDbEntity
8
Geo
100
AcDbLine
10
-95.1905508971012
20
0.866178876665002
30
0.000000000000000
11
-95.0905508971012
21
0.677506651051962
31
0.000000000000000
  0
LINE
  5
F10286
330
F10287
100
AcDbEntity
8
Geo
100
AcDbLine
10
-95.0905508971012
20
0.677506651051962
30
0.000000000000000
11
-94.9905508971012
21
0.487516339793057
31
0.000000000000000
  0
LINE
  5
F10288
330
F10289
100
AcDbEntity
8
Geo
100
AcDbLine
10
-94.9905508971012
20
0.487516339793057
30
0.000000000000000
11
-94.8905508971012
21
0.296489375268768
31
0.000000000000000
  0
LINE
  5
F1028A
330
F1028B
100
AcDbEntity
8
Geo
100
AcDbLine
10
-94.8905508971012
20
0.296489375268768
30
0.000000000000000
11
-94.7905508971012
21
0.104708725452595
31
0.000000000000000
  0
LINE
  5
F1028C
330
F1028D
100
AcDbEntity
8
Geo
100
AcDbLine
10
-94.7905508971012
20
0.104708725452595
30
0.000000000000000
11
-94.6905508971012
21
-0.0875415252489993
31
0.000000000000000
  0
LINE
  5
F1028E
330
F1028F
100
AcDbEntity
8
Geo
100
AcDbLine
10
-94.6905508971012
20
-0.0875415252489993
30
0.000000000000000
11
-94.5905508971012
21
-0.279976596810424
31
0.000000000000000
  0
LINE
  5
F10290
330
F10291
100
AcDbEntity
8
Geo
100
AcDbLine
10
-94.5905508971012
20
-0.279976596810424
30
0.000000000000000
11
-94.4905508971012
21
-0.472311435431206
31
0.000000000000000
  0
LINE
  5
F10292
330
F10293
100
AcDbEntity
8
Geo
100
AcDbLine
10
-94.4905508971012
20
-0.472311435431206
30
0.000000000000000
11
-94.3905508971012
21
-0.664261135785788
31
0.000000000000000
  0
LINE
  5
F10294
330
F10295
100
AcDbEntity
8
Geo
100
AcDbLine
10
-94.3905508971012
20
-0.664261135785788
30
0.000000000000000
11
-94.2905508971012
21
-0.855541363053383
31
0.000000000000000
  0
LINE
  5
F10296
330
F10297
100
AcDbEntity
8
Geo
100
AcDbLine
10
-94.2905508971012
20
-0.855541363053383
30
0.000000000000000
11
-94.1905508971012
21
-1.04586877410275
31
0.000000000000000
  0
LINE
  5
F10298
330
F10299
100
AcDbEntity
8
Geo
100
AcDbLine
10
-94.1905508971012
20
-1.04586877410275
30
0.000000000000000
11
-94.0905508971012
21
-1.23496143720795
31
0.000000000000000
  0
LINE
  5
F1029A
330
F1029B
100
AcDbEntity
8
Geo
100
AcDbLine
10
-94.0905508971012
20
-1.23496143720795
30
0.000000000000000
11
-93.9905508971012
21
-1.42253924967347
31
0.000000000000000
  0
LINE
  5
F1029C
330
F1029D
100
AcDbEntity
8
Geo
100
AcDbLine
10
-93.9905508971012
20
-1.42253924967347
30
0.000000000000000
11
-93.8905508971012
21
-1.60832435274989
31
0.000000000000000
  0
LINE
  5
F1029E
330
F1029F
100
AcDbEntity
8
Geo
100
AcDbLine
10
-93.8905508971012
20
-1.60832435274989
30
0.000000000000000
11
-93.7905508971012
21
-1.79204154322568
31
0.000000000000000
  0
LINE
  5
F102A0
330
F102A1
100
AcDbEntity
8
Geo
100
AcDbLine
10
-93.7905508971012
20
-1.79204154322568
30
0.000000000000000
11
-93.6905508971012
21
-1.97341868108535
31
0.000000000000000
  0
LINE
  5
F102A2
330
F102A3
100
AcDbEntity
8
Geo
100
AcDbLine
10
-93.6905508971012
20
-1.97341868108535
30
0.000000000000000
11
-93.5905508971012
21
-2.15218709263004
31
0.000000000000000
  0
LINE
  5
F102A4
330
F102A5
100
AcDbEntity
8
Geo
100
AcDbLine
10
-93.5905508971012
20
-2.15218709263004
30
0.000000000000000
11
-93.4905508971012
21
-2.32808196846352
31
0.000000000000000
  0
LINE
  5
F102A6
330
F102A7
100
AcDbEntity
8
Geo
100
AcDbLine
10
-93.4905508971012
20
-2.32808196846352
30
0.000000000000000
11
-93.3905508971012
21
-2.50084275575395
31
0.000000000000000
  0
LINE
  5
F102A8
330
F102A9
100
AcDbEntity
8
Geo
100
AcDbLine
10
-93.3905508971012
20
-2.50084275575395
30
0.000000000000000
11
-93.2905508971012
21
-2.67021354419044
31
0.000000000000000
  0
LINE
  5
F102AA
330
F102AB
100
AcDbEntity
8
Geo
100
AcDbLine
10
-93.2905508971012
20
-2.67021354419044
30
0.000000000000000
11
-93.1905508971012
21
-2.83594344506263
31
0.000000000000000
  0
LINE
  5
F102AC
330
F102AD
100
AcDbEntity
8
Geo
100
AcDbLine
10
-93.1905508971012
20
-2.83594344506263
30
0.000000000000000
11
-93.0905508971012
21
-2.99778696290178
31
0.000000000000000
  0
LINE
  5
F102AE
330
F102AF
100
AcDbEntity
8
Geo
100
AcDbLine
10
-93.0905508971012
20
-2.99778696290178
30
0.000000000000000
11
-92.9905508971012
21
-3.15550435913285
31
0.000000000000000
  0
LINE
  5
F102B0
330
F102B1
100
AcDbEntity
8
Geo
100
AcDbLine
10
-92.9905508971012
20
-3.15550435913285
30
0.000000000000000
11
-92.8905508971012
21
-3.30886200719894
31
0.000000000000000
  0
LINE
  5
F102B2
330
F102B3
100
AcDbEntity
8
Geo
100
AcDbLine
10
-92.8905508971012
20
-3.30886200719894
30
0.000000000000000
11
-92.7905508971012
21
-3.45763273863197
31
0.000000000000000
  0
LINE
  5
F102B4
330
F102B5
100
AcDbEntity
8
Geo
100
AcDbLine
10
-92.7905508971012
20
-3.45763273863197
30
0.000000000000000
11
-92.6905508971012
21
-3.60159617955701
31
0.000000000000000
  0
LINE
  5
F102B6
330
F102B7
100
AcDbEntity
8
Geo
100
AcDbLine
10
-92.6905508971012
20
-3.60159617955701
30
0.000000000000000
11
-92.5905508971012
21
-3.74053907713176
31
0.000000000000000
  0
LINE
  5
F102B8
330
F102B9
100
AcDbEntity
8
Geo
100
AcDbLine
10
-92.5905508971012
20
-3.74053907713176
30
0.000000000000000
11
-92.4905508971012
21
-3.87425561543775
31
0.000000000000000
  0
LINE
  5
F102BA
330
F102BB
100
AcDbEntity
8
Geo
100
AcDbLine
10
-92.4905508971012
20
-3.87425561543775
30
0.000000000000000
11
-92.3905508971012
21
-4.00254772035511
31
0.000000000000000
  0
LINE
  5
F102BC
330
F102BD
100
AcDbEntity
8
Geo
100
AcDbLine
10
-92.3905508971012
20
-4.00254772035511
30
0.000000000000000
11
-92.2905508971012
21
-4.12522535296952
31
0.000000000000000
  0
LINE
  5
F102BE
330
F102BF
100
AcDbEntity
8
Geo
100
AcDbLine
10
-92.2905508971012
20
-4.12522535296952
30
0.000000000000000
11
-92.1905508971012
21
-4.24210679107658
31
0.000000000000000
  0
LINE
  5
F102C0
330
F102C1
100
AcDbEntity
8
Geo
100
AcDbLine
10
-92.1905508971012
20
-4.24210679107658
30
0.000000000000000
11
-92.0905508971012
21
-4.35301889836663
31
0.000000000000000
  0
LINE
  5
F102C2
330
F102C3
100
AcDbEntity
8
Geo
100
AcDbLine
10
-92.0905508971012
20
-4.35301889836663
30
0.000000000000000
11
-91.9905508971012
21
-4.45779738089135
31
0.000000000000000
  0
LINE
  5
F102C4
330
F102C5
100
AcDbEntity
8
Geo
100
AcDbLine
10
-91.9905508971012
20
-4.45779738089135
30
0.000000000000000
11
-91.8905508971012
21
-4.55628703043217
31
0.000000000000000
  0
LINE
  5
F102C6
330
F102C7
100
AcDbEntity
8
Geo
100
AcDbLine
10
-91.8905508971012
20
-4.55628703043217
30
0.000000000000000
11
-91.7905508971012
21
-4.64834195440992
31
0.000000000000000
  0
LINE
  5
F102C8
330
F102C9
100
AcDbEntity
8
Geo
100
AcDbLine
10
-91.7905508971012
20
-4.64834195440992
30
0.000000000000000
11
-91.6905508971012
21
-4.73382579199538
31
0.000000000000000
  0
LINE
  5
F102CA
330
F102CB
100
AcDbEntity
8
Geo
100
AcDbLine
10
-91.6905508971012
20
-4.73382579199538
30
0.000000000000000
11
-91.5905508971012
21
-4.81261191610033
31
0.000000000000000
  0
LINE
  5
F102CC
330
F102CD
100
AcDbEntity
8
Geo
100
AcDbLine
10
-91.5905508971012
20
-4.81261191610033
30
0.000000000000000
11
-91.4905508971012
21
-4.88458362095009
31
0.000000000000000
  0
LINE
  5
F102CE
330
F102CF
100
AcDbEntity
8
Geo
100
AcDbLine
10
-91.4905508971012
20
-4.88458362095009
30
0.000000000000000
11
-91.3905508971012
21
-4.94963429495964
31
0.000000000000000
  0
LINE
  5
F102D0
330
F102D1
100
AcDbEntity
8
Geo
100
AcDbLine
10
-91.3905508971012
20
-4.94963429495964
30
0.000000000000000
11
-91.2905508971012
21
-5.00766757865720
31
0.000000000000000
  0
LINE
  5
F102D2
330
F102D3
100
AcDbEntity
8
Geo
100
AcDbLine
10
-91.2905508971012
20
-5.00766757865720
30
0.000000000000000
11
-91.1905508971012
21
-5.05859750742134
31
0.000000000000000
  0
LINE
  5
F102D4
330
F102D5
100
AcDbEntity
8
Geo
100
AcDbLine
10
-91.1905508971012
20
-5.05859750742134
30
0.000000000000000
11
-91.0905508971012
21
-5.10234863882033
31
0.000000000000000
  0
LINE
  5
F102D6
330
F102D7
100
AcDbEntity
8
Geo
100
AcDbLine
10
-91.0905508971012
20
-5.10234863882033
30
0.000000000000000
11
-90.9905508971012
21
-5.13885616436485
31
0.000000000000000
  0
LINE
  5
F102D8
330
F102D9
100
AcDbEntity
8
Geo
100
AcDbLine
10
-90.9905508971012
20
-5.13885616436485
30
0.000000000000000
11
-90.8905508971012
21
-5.16806600550873
31
0.000000000000000
  0
LINE
  5
F102DA
330
F102DB
100
AcDbEntity
8
Geo
100
AcDbLine
10
-90.8905508971012
20
-5.16806600550873
30
0.000000000000000
11
-90.7905508971012
21
-5.18993489375541
31
0.000000000000000
  0
LINE
  5
F102DC
330
F102DD
100
AcDbEntity
8
Geo
100
AcDbLine
10
-90.7905508971012
20
-5.18993489375541
30
0.000000000000000
11
-90.6905508971012
21
-5.20443043475155
31
0.000000000000000
  0
LINE
  5
F102DE
330
F102DF
100
AcDbEntity
8
Geo
100
AcDbLine
10
-90.6905508971012
20
-5.20443043475155
30
0.000000000000000
11
-90.5905508971012
21
-5.21153115627267
31
0.000000000000000
  0
LINE
  5
F102E0
330
F102E1
100
AcDbEntity
8
Geo
100
AcDbLine
10
-82.3905508971013
20
4.78766537918490
30
0.000000000000000
11
-82.2905508971013
21
4.78455345243779
31
0.000000000000000
  0
LINE
  5
F102E2
330
F102E3
100
AcDbEntity
8
Geo
100
AcDbLine
10
-82.2905508971013
20
4.78455345243779
30
0.000000000000000
11
-82.1905508971013
21
4.77403967740243
31
0.000000000000000
  0
LINE
  5
F102E4
330
F102E5
100
AcDbEntity
8
Geo
100
AcDbLine
10
-82.1905508971013
20
4.77403967740243
30
0.000000000000000
11
-82.0905508971013
21
4.75613962811898
31
0.000000000000000
  0
LINE
  5
F102E6
330
F102E7
100
AcDbEntity
8
Geo
100
AcDbLine
10
-82.0905508971013
20
4.75613962811898
30
0.000000000000000
11
-81.9905508971013
21
4.73087981990522
31
0.000000000000000
  0
LINE
  5
F102E8
330
F102E9
100
AcDbEntity
8
Geo
100
AcDbLine
10
-81.9905508971013
20
4.73087981990522
30
0.000000000000000
11
-81.8905508971013
21
4.69829767007949
31
0.000000000000000
  0
LINE
  5
F102EA
330
F102EB
100
AcDbEntity
8
Geo
100
AcDbLine
10
-81.8905508971013
20
4.69829767007949
30
0.000000000000000
11
-81.7905508971013
21
4.65844144253444
31
0.000000000000000
  0
LINE
  5
F102EC
330
F102ED
100
AcDbEntity
8
Geo
100
AcDbLine
10
-81.7905508971013
20
4.65844144253444
30
0.000000000000000
11
-81.6905508971013
21
4.61137017624378
31
0.000000000000000
  0
LINE
  5
F102EE
330
F102EF
100
AcDbEntity
8
Geo
100
AcDbLine
10
-81.6905508971013
20
4.61137017624378
30
0.000000000000000
11
-81.5905508971013
21
4.55715359780799
31
0.000000000000000
  0
LINE
  5
F102F0
330
F102F1
100
AcDbEntity
8
Geo
100
AcDbLine
10
-81.5905508971013
20
4.55715359780799
30
0.000000000000000
11
-81.4905508971013
21
4.49587201816833
31
0.000000000000000
  0
LINE
  5
F102F2
330
F102F3
100
AcDbEntity
8
Geo
100
AcDbLine
10
-81.4905508971013
20
4.49587201816833
30
0.000000000000000
11
-81.3905508971013
21
4.42761621364242
31
0.000000000000000
  0
LINE
  5
F102F4
330
F102F5
100
AcDbEntity
8
Geo
100
AcDbLine
10
-81.3905508971013
20
4.42761621364242
30
0.000000000000000
11
-81.2905508971013
21
4.35248729145737
31
0.000000000000000
  0
LINE
  5
F102F6
330
F102F7
100
AcDbEntity
8
Geo
100
AcDbLine
10
-81.2905508971013
20
4.35248729145737
30
0.000000000000000
11
-81.1905508971012
21
4.27059653997979
31
0.000000000000000
  0
LINE
  5
F102F8
330
F102F9
100
AcDbEntity
8
Geo
100
AcDbLine
10
-81.1905508971012
20
4.27059653997979
30
0.000000000000000
11
-81.0905508971013
21
4.18206526386451
31
0.000000000000000
  0
LINE
  5
F102FA
330
F102FB
100
AcDbEntity
8
Geo
100
AcDbLine
10
-81.0905508971013
20
4.18206526386451
30
0.000000000000000
11
-80.9905508971013
21
4.08702460436616
31
0.000000000000000
  0
LINE
  5
F102FC
330
F102FD
100
AcDbEntity
8
Geo
100
AcDbLine
10
-80.9905508971013
20
4.08702460436616
30
0.000000000000000
11
-80.8905508971012
21
3.98561534507975
31
0.000000000000000
  0
LINE
  5
F102FE
330
F102FF
100
AcDbEntity
8
Geo
100
AcDbLine
10
-80.8905508971012
20
3.98561534507975
30
0.000000000000000
11
-80.7905508971012
21
3.86465003205468
31
0.000000000000000
  0
LINE
  5
F10300
330
F10301
100
AcDbEntity
8
Geo
100
AcDbLine
10
-80.7905508971012
20
3.86465003205468
30
0.000000000000000
11
-80.6905508971012
21
3.73867248222840
31
0.000000000000000
  0
LINE
  5
F10302
330
F10303
100
AcDbEntity
8
Geo
100
AcDbLine
10
-80.6905508971012
20
3.73867248222840
30
0.000000000000000
11
-80.5905508971012
21
3.60833360142828
31
0.000000000000000
  0
LINE
  5
F10304
330
F10305
100
AcDbEntity
8
Geo
100
AcDbLine
10
-80.5905508971012
20
3.60833360142828
30
0.000000000000000
11
-80.4905508971012
21
3.47426123359228
31
0.000000000000000
  0
LINE
  5
F10306
330
F10307
100
AcDbEntity
8
Geo
100
AcDbLine
10
-80.4905508971012
20
3.47426123359228
30
0.000000000000000
11
-80.3905508971012
21
3.33705882753233
31
0.000000000000000
  0
LINE
  5
F10308
330
F10309
100
AcDbEntity
8
Geo
100
AcDbLine
10
-80.3905508971012
20
3.33705882753233
30
0.000000000000000
11
-80.2905508971012
21
3.19730437410657
31
0.000000000000000
  0
LINE
  5
F1030A
330
F1030B
100
AcDbEntity
8
Geo
100
AcDbLine
10
-80.2905508971012
20
3.19730437410657
30
0.000000000000000
11
-80.1905508971012
21
3.05554959612783
31
0.000000000000000
  0
LINE
  5
F1030C
330
F1030D
100
AcDbEntity
8
Geo
100
AcDbLine
10
-80.1905508971012
20
3.05554959612783
30
0.000000000000000
11
-80.0905508971012
21
2.91231937313832
31
0.000000000000000
  0
LINE
  5
F1030E
330
F1030F
100
AcDbEntity
8
Geo
100
AcDbLine
10
-80.0905508971012
20
2.91231937313832
30
0.000000000000000
11
-79.9905508971012
21
2.76811138316052
31
0.000000000000000
  0
LINE
  5
F10310
330
F10311
100
AcDbEntity
8
Geo
100
AcDbLine
10
-79.9905508971012
20
2.76811138316052
30
0.000000000000000
11
-79.8905508971012
21
2.62339594367124
31
0.000000000000000
  0
LINE
  5
F10312
330
F10313
100
AcDbEntity
8
Geo
100
AcDbLine
10
-79.8905508971012
20
2.62339594367124
30
0.000000000000000
11
-79.7905508971012
21
2.47861603432029
31
0.000000000000000
  0
LINE
  5
F10314
330
F10315
100
AcDbEntity
8
Geo
100
AcDbLine
10
-79.7905508971012
20
2.47861603432029
30
0.000000000000000
11
-79.6905508971012
21
2.33418748430859
31
0.000000000000000
  0
LINE
  5
F10316
330
F10317
100
AcDbEntity
8
Geo
100
AcDbLine
10
-79.6905508971012
20
2.33418748430859
30
0.000000000000000
11
-79.5905508971012
21
2.19049930783530
31
0.000000000000000
  0
LINE
  5
F10318
330
F10319
100
AcDbEntity
8
Geo
100
AcDbLine
10
-79.5905508971012
20
2.19049930783530
30
0.000000000000000
11
-79.4905508971012
21
2.04791417160286
31
0.000000000000000
  0
LINE
  5
F1031A
330
F1031B
100
AcDbEntity
8
Geo
100
AcDbLine
10
-79.4905508971012
20
2.04791417160286
30
0.000000000000000
11
-79.3905508971012
21
1.90676897901787
31
0.000000000000000
  0
LINE
  5
F1031C
330
F1031D
100
AcDbEntity
8
Geo
100
AcDbLine
10
-79.3905508971012
20
1.90676897901787
30
0.000000000000000
11
-79.2905508971012
21
1.76737555642955
31
0.000000000000000
  0
LINE
  5
F1031E
330
F1031F
100
AcDbEntity
8
Geo
100
AcDbLine
10
-79.2905508971012
20
1.76737555642955
30
0.000000000000000
11
-79.1905508971012
21
1.63002142749353
31
0.000000000000000
  0
LINE
  5
F10320
330
F10321
100
AcDbEntity
8
Geo
100
AcDbLine
10
-79.1905508971012
20
1.63002142749353
30
0.000000000000000
11
-79.0905508971012
21
1.49497066252493
31
0.000000000000000
  0
LINE
  5
F10322
330
F10323
100
AcDbEntity
8
Geo
100
AcDbLine
10
-79.0905508971012
20
1.49497066252493
30
0.000000000000000
11
-78.9905508971012
21
1.36246479049995
31
0.000000000000000
  0
LINE
  5
F10324
330
F10325
100
AcDbEntity
8
Geo
100
AcDbLine
10
-78.9905508971012
20
1.36246479049995
30
0.000000000000000
11
-78.8905508971012
21
1.23272376217021
31
0.000000000000000
  0
LINE
  5
F10326
330
F10327
100
AcDbEntity
8
Geo
100
AcDbLine
10
-78.8905508971012
20
1.23272376217021
30
0.000000000000000
11
-78.7905508971012
21
1.10594695356007
31
0.000000000000000
  0
LINE
  5
F10328
330
F10329
100
AcDbEntity
8
Geo
100
AcDbLine
10
-78.7905508971012
20
1.10594695356007
30
0.000000000000000
11
-78.6905508971012
21
0.982314199916549
31
0.000000000000000
  0
LINE
  5
F1032A
330
F1032B
100
AcDbEntity
8
Geo
100
AcDbLine
10
-78.6905508971012
20
0.982314199916549
30
0.000000000000000
11
-78.5905508971012
21
0.861986850967397
31
0.000000000000000
  0
LINE
  5
F1032C
330
F1032D
100
AcDbEntity
8
Geo
100
AcDbLine
10
-78.5905508971012
20
0.861986850967397
30
0.000000000000000
11
-78.4905508971012
21
0.745108839110103
31
0.000000000000000
  0
LINE
  5
F1032E
330
F1032F
100
AcDbEntity
8
Geo
100
AcDbLine
10
-78.4905508971012
20
0.745108839110103
30
0.000000000000000
11
-78.3905508971012
21
0.631807752898046
31
0.000000000000000
  0
LINE
  5
F10330
330
F10331
100
AcDbEntity
8
Geo
100
AcDbLine
10
-78.3905508971012
20
0.631807752898046
30
0.000000000000000
11
-78.2905508971012
21
0.522195908905308
31
0.000000000000000
  0
LINE
  5
F10332
330
F10333
100
AcDbEntity
8
Geo
100
AcDbLine
10
-78.2905508971012
20
0.522195908905308
30
0.000000000000000
11
-78.1905508971012
21
0.416371415736160
31
0.000000000000000
  0
LINE
  5
F10334
330
F10335
100
AcDbEntity
8
Geo
100
AcDbLine
10
-78.1905508971012
20
0.416371415736160
30
0.000000000000000
11
-78.0905508971012
21
0.314419224595790
31
0.000000000000000
  0
LINE
  5
F10336
330
F10337
100
AcDbEntity
8
Geo
100
AcDbLine
10
-78.0905508971012
20
0.314419224595790
30
0.000000000000000
11
-77.9905508971012
21
0.216412161453689
31
0.000000000000000
  0
LINE
  5
F10338
330
F10339
100
AcDbEntity
8
Geo
100
AcDbLine
10
-77.9905508971012
20
0.216412161453689
30
0.000000000000000
11
-77.8905508971012
21
0.122411936408804
31
0.000000000000000
  0
LINE
  5
F1033A
330
F1033B
100
AcDbEntity
8
Geo
100
AcDbLine
10
-77.8905508971012
20
0.122411936408804
30
0.000000000000000
11
-77.7905508971012
21
0.0324701264051206
31
0.000000000000000
  0
LINE
  5
F1033C
330
F1033D
100
AcDbEntity
8
Geo
100
AcDbLine
10
-77.7905508971012
20
0.0324701264051206
30
0.000000000000000
11
-77.6905508971012
21
-0.0533708720527004
31
0.000000000000000
  0
LINE
  5
F1033E
330
F1033F
100
AcDbEntity
8
Geo
100
AcDbLine
10
-77.6905508971012
20
-0.0533708720527004
30
0.000000000000000
11
-77.5905508971012
21
-0.135076923071595
31
0.000000000000000
  0
LINE
  5
F10340
330
F10341
100
AcDbEntity
8
Geo
100
AcDbLine
10
-77.5905508971012
20
-0.135076923071595
30
0.000000000000000
11
-77.4905508971012
21
-0.212621266894327
31
0.000000000000000
  0
LINE
  5
F10342
330
F10343
100
AcDbEntity
8
Geo
100
AcDbLine
10
-77.4905508971012
20
-0.212621266894327
30
0.000000000000000
11
-77.3905508971012
21
-0.285983672853430
31
0.000000000000000
  0
LINE
  5
F10344
330
F10345
100
AcDbEntity
8
Geo
100
AcDbLine
10
-77.3905508971012
20
-0.285983672853430
30
0.000000000000000
11
-77.2905508971012
21
-0.355149631483356
31
0.000000000000000
  0
LINE
  5
F10346
330
F10347
100
AcDbEntity
8
Geo
100
AcDbLine
10
-77.2905508971012
20
-0.355149631483356
30
0.000000000000000
11
-77.1905508971012
21
-0.420109587205725
31
0.000000000000000
  0
LINE
  5
F10348
330
F10349
100
AcDbEntity
8
Geo
100
AcDbLine
10
-77.1905508971012
20
-0.420109587205725
30
0.000000000000000
11
-77.0905508971012
21
-0.480858212723637
31
0.000000000000000
  0
LINE
  5
F1034A
330
F1034B
100
AcDbEntity
8
Geo
100
AcDbLine
10
-77.0905508971012
20
-0.480858212723637
30
0.000000000000000
11
-76.9905508971012
21
-0.537393726015067
31
0.000000000000000
  0
LINE
  5
F1034C
330
F1034D
100
AcDbEntity
8
Geo
100
AcDbLine
10
-76.9905508971012
20
-0.537393726015067
30
0.000000000000000
11
-76.8905508971012
21
-0.589717250600915
31
0.000000000000000
  0
LINE
  5
F1034E
330
F1034F
100
AcDbEntity
8
Geo
100
AcDbLine
10
-76.8905508971012
20
-0.589717250600915
30
0.000000000000000
11
-76.7905508971012
21
-0.637832219578748
31
0.000000000000000
  0
LINE
  5
F10350
330
F10351
100
AcDbEntity
8
Geo
100
AcDbLine
10
-76.7905508971012
20
-0.637832219578748
30
0.000000000000000
11
-76.6905508971012
21
-0.681743823756621
31
0.000000000000000
  0
LINE
  5
F10352
330
F10353
100
AcDbEntity
8
Geo
100
AcDbLine
10
-76.6905508971012
20
-0.681743823756621
30
0.000000000000000
11
-76.5905508971012
21
-0.721458504091102
31
0.000000000000000
  0
LINE
  5
F10354
330
F10355
100
AcDbEntity
8
Geo
100
AcDbLine
10
-76.5905508971012
20
-0.721458504091102
30
0.000000000000000
11
-76.4905508971012
21
-0.756983488527524
31
0.000000000000000
  0
LINE
  5
F10356
330
F10357
100
AcDbEntity
8
Geo
100
AcDbLine
10
-76.4905508971012
20
-0.756983488527524
30
0.000000000000000
11
-76.3905508971012
21
-0.788326373256934
31
0.000000000000000
  0
LINE
  5
F10358
330
F10359
100
AcDbEntity
8
Geo
100
AcDbLine
10
-76.3905508971012
20
-0.788326373256934
30
0.000000000000000
11
-76.2905508971012
21
-0.815494748341018
31
0.000000000000000
  0
LINE
  5
F1035A
330
F1035B
100
AcDbEntity
8
Geo
100
AcDbLine
10
-76.2905508971012
20
-0.815494748341018
30
0.000000000000000
11
-76.1905508971012
21
-0.838495867611618
31
0.000000000000000
  0
LINE
  5
F1035C
330
F1035D
100
AcDbEntity
8
Geo
100
AcDbLine
10
-76.1905508971012
20
-0.838495867611618
30
0.000000000000000
11
-76.0905508971012
21
-0.857336362723459
31
0.000000000000000
  0
LINE
  5
F1035E
330
F1035F
100
AcDbEntity
8
Geo
100
AcDbLine
10
-76.0905508971012
20
-0.857336362723459
30
0.000000000000000
11
-75.9905508971011
21
-0.872022001225095
31
0.000000000000000
  0
LINE
  5
F10360
330
F10361
100
AcDbEntity
8
Geo
100
AcDbLine
10
-75.9905508971011
20
-0.872022001225095
30
0.000000000000000
11
-75.8905508971012
21
-0.882557488512300
31
0.000000000000000
  0
LINE
  5
F10362
330
F10363
100
AcDbEntity
8
Geo
100
AcDbLine
10
-97.8905508971012
20
-0.212311008513142
30
0.000000000000000
11
-97.7905508971012
21
-0.401773933461479
31
0.000000000000000
  0
LINE
  5
F10364
330
F10365
100
AcDbEntity
8
Geo
100
AcDbLine
10
-97.7905508971012
20
-0.401773933461479
30
0.000000000000000
11
-97.6905508971012
21
-0.595511687735010
31
0.000000000000000
  0
LINE
  5
F10366
330
F10367
100
AcDbEntity
8
Geo
100
AcDbLine
10
-97.6905508971012
20
-0.595511687735010
30
0.000000000000000
11
-97.5905508971012
21
-0.788379132166818
31
0.000000000000000
  0
LINE
  5
F10368
330
F10369
100
AcDbEntity
8
Geo
100
AcDbLine
10
-97.5905508971012
20
-0.788379132166818
30
0.000000000000000
11
-97.4905508971012
21
-0.979073783165271
31
0.000000000000000
  0
LINE
  5
F1036A
330
F1036B
100
AcDbEntity
8
Geo
100
AcDbLine
10
-97.4905508971012
20
-0.979073783165271
30
0.000000000000000
11
-97.3905508971012
21
-1.16863262954557
31
0.000000000000000
  0
LINE
  5
F1036C
330
F1036D
100
AcDbEntity
8
Geo
100
AcDbLine
10
-97.3905508971012
20
-1.16863262954557
30
0.000000000000000
11
-97.2905508971012
21
-1.35677487805554
31
0.000000000000000
  0
LINE
  5
F1036E
330
F1036F
100
AcDbEntity
8
Geo
100
AcDbLine
10
-97.2905508971012
20
-1.35677487805554
30
0.000000000000000
11
-97.1905508971012
21
-1.54322183384747
31
0.000000000000000
  0
LINE
  5
F10370
330
F10371
100
AcDbEntity
8
Geo
100
AcDbLine
10
-97.1905508971012
20
-1.54322183384747
30
0.000000000000000
11
-97.0905508971012
21
-1.72769731330833
31
0.000000000000000
  0
LINE
  5
F10372
330
F10373
100
AcDbEntity
8
Geo
100
AcDbLine
10
-97.0905508971012
20
-1.72769731330833
30
0.000000000000000
11
-96.9905508971012
21
-1.90992805317022
31
0.000000000000000
  0
LINE
  5
F10374
330
F10375
100
AcDbEntity
8
Geo
100
AcDbLine
10
-96.9905508971012
20
-1.90992805317022
30
0.000000000000000
11
-96.8905508971012
21
-2.08964411529485
31
0.000000000000000
  0
LINE
  5
F10376
330
F10377
100
AcDbEntity
8
Geo
100
AcDbLine
10
-96.8905508971012
20
-2.08964411529485
30
0.000000000000000
11
-96.7905508971012
21
-2.26657928653250
31
0.000000000000000
  0
LINE
  5
F10378
330
F10379
100
AcDbEntity
8
Geo
100
AcDbLine
10
-96.7905508971012
20
-2.26657928653250
30
0.000000000000000
11
-96.6905508971012
21
-2.44047147306322
31
0.000000000000000
  0
LINE
  5
F1037A
330
F1037B
100
AcDbEntity
8
Geo
100
AcDbLine
10
-96.6905508971012
20
-2.44047147306322
30
0.000000000000000
11
-96.5905508971012
21
-2.61106308863603
31
0.000000000000000
  0
LINE
  5
F1037C
330
F1037D
100
AcDbEntity
8
Geo
100
AcDbLine
10
-96.5905508971012
20
-2.61106308863603
30
0.000000000000000
11
-96.4905508971012
21
-2.77810143613103
31
0.000000000000000
  0
LINE
  5
F1037E
330
F1037F
100
AcDbEntity
8
Geo
100
AcDbLine
10
-96.4905508971012
20
-2.77810143613103
30
0.000000000000000
11
-96.3905508971012
21
-2.94133908187936
31
0.000000000000000
  0
LINE
  5
F10380
330
F10381
100
AcDbEntity
8
Geo
100
AcDbLine
10
-96.3905508971012
20
-2.94133908187936
30
0.000000000000000
11
-96.2905508971012
21
-3.10053422218626
31
0.000000000000000
  0
LINE
  5
F10382
330
F10383
100
AcDbEntity
8
Geo
100
AcDbLine
10
-96.2905508971012
20
-3.10053422218626
30
0.000000000000000
11
-96.1905508971012
21
-3.25545104151463
31
0.000000000000000
  0
LINE
  5
F10384
330
F10385
100
AcDbEntity
8
Geo
100
AcDbLine
10
-96.1905508971012
20
-3.25545104151463
30
0.000000000000000
11
-96.0905508971012
21
-3.40586006179817
31
0.000000000000000
  0
LINE
  5
F10386
330
F10387
100
AcDbEntity
8
Geo
100
AcDbLine
10
-96.0905508971012
20
-3.40586006179817
30
0.000000000000000
11
-95.9905508971012
21
-3.55153848236699
31
0.000000000000000
  0
LINE
  5
F10388
330
F10389
100
AcDbEntity
8
Geo
100
AcDbLine
10
-95.9905508971012
20
-3.55153848236699
30
0.000000000000000
11
-95.8905508971012
21
-3.69227050998188
31
0.000000000000000
  0
LINE
  5
F1038A
330
F1038B
100
AcDbEntity
8
Geo
100
AcDbLine
10
-95.8905508971012
20
-3.69227050998188
30
0.000000000000000
11
-95.7905508971012
21
-3.82784767848854
31
0.000000000000000
  0
LINE
  5
F1038C
330
F1038D
100
AcDbEntity
8
Geo
100
AcDbLine
10
-95.7905508971012
20
-3.82784767848854
30
0.000000000000000
11
-95.6905508971012
21
-3.95806915761821
31
0.000000000000000
  0
LINE
  5
F1038E
330
F1038F
100
AcDbEntity
8
Geo
100
AcDbLine
10
-95.6905508971012
20
-3.95806915761821
30
0.000000000000000
11
-95.5905508971012
21
-4.08274205047727
31
0.000000000000000
  0
LINE
  5
F10390
330
F10391
100
AcDbEntity
8
Geo
100
AcDbLine
10
-95.5905508971012
20
-4.08274205047727
30
0.000000000000000
11
-95.4905508971012
21
-4.20168167928512
31
0.000000000000000
  0
LINE
  5
F10392
330
F10393
100
AcDbEntity
8
Geo
100
AcDbLine
10
-95.4905508971012
20
-4.20168167928512
30
0.000000000000000
11
-95.3905508971012
21
-4.31471185893712
31
0.000000000000000
  0
LINE
  5
F10394
330
F10395
100
AcDbEntity
8
Geo
100
AcDbLine
10
-95.3905508971012
20
-4.31471185893712
30
0.000000000000000
11
-95.2905508971012
21
-4.42166515798735
31
0.000000000000000
  0
LINE
  5
F10396
330
F10397
100
AcDbEntity
8
Geo
100
AcDbLine
10
-95.2905508971012
20
-4.42166515798735
30
0.000000000000000
11
-95.1905508971012
21
-4.52238314666458
31
0.000000000000000
  0
LINE
  5
F10398
330
F10399
100
AcDbEntity
8
Geo
100
AcDbLine
10
-95.1905508971012
20
-4.52238314666458
30
0.000000000000000
11
-95.0905508971012
21
-4.61671663155401
31
0.000000000000000
  0
LINE
  5
F1039A
330
F1039B
100
AcDbEntity
8
Geo
100
AcDbLine
10
-95.0905508971012
20
-4.61671663155401
30
0.000000000000000
11
-94.9905508971012
21
-4.70452587659735
31
0.000000000000000
  0
LINE
  5
F1039C
330
F1039D
100
AcDbEntity
8
Geo
100
AcDbLine
10
-94.9905508971012
20
-4.70452587659735
30
0.000000000000000
11
-94.8905508971012
21
-4.78568081008359
31
0.000000000000000
  0
LINE
  5
F1039E
330
F1039F
100
AcDbEntity
8
Geo
100
AcDbLine
10
-94.8905508971012
20
-4.78568081008359
30
0.000000000000000
11
-94.7905508971012
21
-4.86006121732406
31
0.000000000000000
  0
LINE
  5
F103A0
330
F103A1
100
AcDbEntity
8
Geo
100
AcDbLine
10
-94.7905508971012
20
-4.86006121732406
30
0.000000000000000
11
-94.6905508971012
21
-4.92755691872628
31
0.000000000000000
  0
LINE
  5
F103A2
330
F103A3
100
AcDbEntity
8
Geo
100
AcDbLine
10
-94.6905508971012
20
-4.92755691872628
30
0.000000000000000
11
-94.5905508971012
21
-4.98806793300281
31
0.000000000000000
  0
LINE
  5
F103A4
330
F103A5
100
AcDbEntity
8
Geo
100
AcDbLine
10
-94.5905508971012
20
-4.98806793300281
30
0.000000000000000
11
-94.4905508971012
21
-5.04150462527344
31
0.000000000000000
  0
LINE
  5
F103A6
330
F103A7
100
AcDbEntity
8
Geo
100
AcDbLine
10
-94.4905508971012
20
-5.04150462527344
30
0.000000000000000
11
-94.3905508971012
21
-5.08778783984116
31
0.000000000000000
  0
LINE
  5
F103A8
330
F103A9
100
AcDbEntity
8
Geo
100
AcDbLine
10
-94.3905508971012
20
-5.08778783984116
30
0.000000000000000
11
-94.2905508971012
21
-5.12684901744544
31
0.000000000000000
  0
LINE
  5
F103AA
330
F103AB
100
AcDbEntity
8
Geo
100
AcDbLine
10
-94.2905508971012
20
-5.12684901744544
30
0.000000000000000
11
-94.1905508971012
21
-5.15863029681889
31
0.000000000000000
  0
LINE
  5
F103AC
330
F103AD
100
AcDbEntity
8
Geo
100
AcDbLine
10
-94.1905508971012
20
-5.15863029681889
30
0.000000000000000
11
-94.0905508971012
21
-5.18308460039714
31
0.000000000000000
  0
LINE
  5
F103AE
330
F103AF
100
AcDbEntity
8
Geo
100
AcDbLine
10
-94.0905508971012
20
-5.18308460039714
30
0.000000000000000
11
-93.9905508971012
21
-5.20017570405474
31
0.000000000000000
  0
LINE
  5
F103B0
330
F103B1
100
AcDbEntity
8
Geo
100
AcDbLine
10
-93.9905508971012
20
-5.20017570405474
30
0.000000000000000
11
-93.8905508971012
21
-5.20987829076392
31
0.000000000000000
  0
LINE
  5
F103B2
330
F103B3
100
AcDbEntity
8
Geo
100
AcDbLine
10
-85.6905508971012
20
4.78699954356579
30
0.000000000000000
11
-85.5905508971013
21
4.78649185020492
31
0.000000000000000
  0
LINE
  5
F103B4
330
F103B5
100
AcDbEntity
8
Geo
100
AcDbLine
10
-85.5905508971013
20
4.78649185020492
30
0.000000000000000
11
-85.4905508971012
21
4.77857943720992
31
0.000000000000000
  0
LINE
  5
F103B6
330
F103B7
100
AcDbEntity
8
Geo
100
AcDbLine
10
-85.4905508971012
20
4.77857943720992
30
0.000000000000000
11
-85.3905508971012
21
4.76327402522702
31
0.000000000000000
  0
LINE
  5
F103B8
330
F103B9
100
AcDbEntity
8
Geo
100
AcDbLine
10
-85.3905508971012
20
4.76327402522702
30
0.000000000000000
11
-85.2905508971013
21
4.74059828614142
31
0.000000000000000
  0
LINE
  5
F103BA
330
F103BB
100
AcDbEntity
8
Geo
100
AcDbLine
10
-85.2905508971013
20
4.74059828614142
30
0.000000000000000
11
-85.1905508971012
21
4.71058580949351
31
0.000000000000000
  0
LINE
  5
F103BC
330
F103BD
100
AcDbEntity
8
Geo
100
AcDbLine
10
-85.1905508971012
20
4.71058580949351
30
0.000000000000000
11
-85.0905508971013
21
4.67328105272266
31
0.000000000000000
  0
LINE
  5
F103BE
330
F103BF
100
AcDbEntity
8
Geo
100
AcDbLine
10
-85.0905508971013
20
4.67328105272266
30
0.000000000000000
11
-84.9905508971013
21
4.62873927531254
31
0.000000000000000
  0
LINE
  5
F103C0
330
F103C1
100
AcDbEntity
8
Geo
100
AcDbLine
10
-84.9905508971013
20
4.62873927531254
30
0.000000000000000
11
-84.8905508971012
21
4.57702645693530
31
0.000000000000000
  0
LINE
  5
F103C2
330
F103C3
100
AcDbEntity
8
Geo
100
AcDbLine
10
-84.8905508971012
20
4.57702645693530
30
0.000000000000000
11
-84.7905508971013
21
4.51821919971596
31
0.000000000000000
  0
LINE
  5
F103C4
330
F103C5
100
AcDbEntity
8
Geo
100
AcDbLine
10
-84.7905508971013
20
4.51821919971596
30
0.000000000000000
11
-84.6905508971012
21
4.45240461476181
31
0.000000000000000
  0
LINE
  5
F103C6
330
F103C7
100
AcDbEntity
8
Geo
100
AcDbLine
10
-84.6905508971012
20
4.45240461476181
30
0.000000000000000
11
-84.5905508971013
21
4.37968019312485
31
0.000000000000000
  0
LINE
  5
F103C8
330
F103C9
100
AcDbEntity
8
Geo
100
AcDbLine
10
-84.5905508971013
20
4.37968019312485
30
0.000000000000000
11
-84.4905508971013
21
4.30015366138843
31
0.000000000000000
  0
LINE
  5
F103CA
330
F103CB
100
AcDbEntity
8
Geo
100
AcDbLine
10
-84.4905508971013
20
4.30015366138843
30
0.000000000000000
11
-84.3905508971012
21
4.21394282209200
31
0.000000000000000
  0
LINE
  5
F103CC
330
F103CD
100
AcDbEntity
8
Geo
100
AcDbLine
10
-84.3905508971012
20
4.21394282209200
30
0.000000000000000
11
-84.2905508971013
21
4.12117537923039
31
0.000000000000000
  0
LINE
  5
F103CE
330
F103CF
100
AcDbEntity
8
Geo
100
AcDbLine
10
-84.2905508971013
20
4.12117537923039
30
0.000000000000000
11
-84.1905508971012
21
4.02198874908604
31
0.000000000000000
  0
LINE
  5
F103D0
330
F103D1
100
AcDbEntity
8
Geo
100
AcDbLine
10
-84.1905508971012
20
4.02198874908604
30
0.000000000000000
11
-84.0905508971013
21
3.91652985667450
31
0.000000000000000
  0
LINE
  5
F103D2
330
F103D3
100
AcDbEntity
8
Geo
100
AcDbLine
10
-84.0905508971013
20
3.91652985667450
30
0.000000000000000
11
-83.9905508971013
21
3.80495491810456
31
0.000000000000000
  0
LINE
  5
F103D4
330
F103D5
100
AcDbEntity
8
Geo
100
AcDbLine
10
-83.9905508971013
20
3.80495491810456
30
0.000000000000000
11
-83.8905508971012
21
3.68742920917558
31
0.000000000000000
  0
LINE
  5
F103D6
330
F103D7
100
AcDbEntity
8
Geo
100
AcDbLine
10
-83.8905508971012
20
3.68742920917558
30
0.000000000000000
11
-83.7905508971013
21
3.56412682055467
31
0.000000000000000
  0
LINE
  5
F103D8
330
F103D9
100
AcDbEntity
8
Geo
100
AcDbLine
10
-83.7905508971013
20
3.56412682055467
30
0.000000000000000
11
-83.6905508971013
21
3.43523039989642
31
0.000000000000000
  0
LINE
  5
F103DA
330
F103DB
100
AcDbEntity
8
Geo
100
AcDbLine
10
-83.6905508971013
20
3.43523039989642
30
0.000000000000000
11
-83.5905508971013
21
3.30093088128723
31
0.000000000000000
  0
LINE
  5
F103DC
330
F103DD
100
AcDbEntity
8
Geo
100
AcDbLine
10
-83.5905508971013
20
3.30093088128723
30
0.000000000000000
11
-83.4905508971013
21
3.16142720241484
31
0.000000000000000
  0
LINE
  5
F103DE
330
F103DF
100
AcDbEntity
8
Geo
100
AcDbLine
10
-83.4905508971013
20
3.16142720241484
30
0.000000000000000
11
-83.3905508971013
21
3.01692600988230
31
0.000000000000000
  0
LINE
  5
F103E0
330
F103E1
100
AcDbEntity
8
Geo
100
AcDbLine
10
-83.3905508971013
20
3.01692600988230
30
0.000000000000000
11
-83.2905508971013
21
2.86764135310259
31
0.000000000000000
  0
LINE
  5
F103E2
330
F103E3
100
AcDbEntity
8
Geo
100
AcDbLine
10
-83.2905508971013
20
2.86764135310259
30
0.000000000000000
11
-83.1905508971013
21
2.71379436722752
31
0.000000000000000
  0
LINE
  5
F103E4
330
F103E5
100
AcDbEntity
8
Geo
100
AcDbLine
10
-83.1905508971013
20
2.71379436722752
30
0.000000000000000
11
-83.0905508971013
21
2.55561294558060
31
0.000000000000000
  0
LINE
  5
F103E6
330
F103E7
100
AcDbEntity
8
Geo
100
AcDbLine
10
-83.0905508971013
20
2.55561294558060
30
0.000000000000000
11
-82.9905508971013
21
2.39333140207892
31
0.000000000000000
  0
LINE
  5
F103E8
330
F103E9
100
AcDbEntity
8
Geo
100
AcDbLine
10
-82.9905508971013
20
2.39333140207892
30
0.000000000000000
11
-82.8905508971013
21
2.22719012414431
31
0.000000000000000
  0
LINE
  5
F103EA
330
F103EB
100
AcDbEntity
8
Geo
100
AcDbLine
10
-82.8905508971013
20
2.22719012414431
30
0.000000000000000
11
-82.7905508971013
21
2.05743521661777
31
0.000000000000000
  0
LINE
  5
F103EC
330
F103ED
100
AcDbEntity
8
Geo
100
AcDbLine
10
-82.7905508971013
20
2.05743521661777
30
0.000000000000000
11
-82.6905508971013
21
1.88431813720473
31
0.000000000000000
  0
LINE
  5
F103EE
330
F103EF
100
AcDbEntity
8
Geo
100
AcDbLine
10
-82.6905508971013
20
1.88431813720473
30
0.000000000000000
11
-82.5905508971013
21
1.70809532399111
31
0.000000000000000
  0
LINE
  5
F103F0
330
F103F1
100
AcDbEntity
8
Geo
100
AcDbLine
10
-82.5905508971013
20
1.70809532399111
30
0.000000000000000
11
-82.4905508971013
21
1.52902781558192
31
0.000000000000000
  0
LINE
  5
F103F2
330
F103F3
100
AcDbEntity
8
Geo
100
AcDbLine
10
-82.4905508971013
20
1.52902781558192
30
0.000000000000000
11
-82.3905508971013
21
1.34738086442516
31
0.000000000000000
  0
LINE
  5
F103F4
330
F103F5
100
AcDbEntity
8
Geo
100
AcDbLine
10
-82.3905508971013
20
1.34738086442516
30
0.000000000000000
11
-82.2905508971013
21
1.16342354389374
31
0.000000000000000
  0
LINE
  5
F103F6
330
F103F7
100
AcDbEntity
8
Geo
100
AcDbLine
10
-82.2905508971013
20
1.16342354389374
30
0.000000000000000
11
-82.1905508971013
21
0.977428349707473
31
0.000000000000000
  0
LINE
  5
F103F8
330
F103F9
100
AcDbEntity
8
Geo
100
AcDbLine
10
-82.1905508971013
20
0.977428349707473
30
0.000000000000000
11
-82.0905508971013
21
0.789670796285545
31
0.000000000000000
  0
LINE
  5
F103FA
330
F103FB
100
AcDbEntity
8
Geo
100
AcDbLine
10
-82.0905508971013
20
0.789670796285545
30
0.000000000000000
11
-81.9905508971013
21
0.600429008627395
31
0.000000000000000
  0
LINE
  5
F103FC
330
F103FD
100
AcDbEntity
8
Geo
100
AcDbLine
10
-81.9905508971013
20
0.600429008627395
30
0.000000000000000
11
-81.8905508971013
21
0.409983310326546
31
0.000000000000000
  0
LINE
  5
F103FE
330
F103FF
100
AcDbEntity
8
Geo
100
AcDbLine
10
-81.8905508971013
20
0.409983310326546
30
0.000000000000000
11
-81.7905508971013
21
0.218615808327661
31
0.000000000000000
  0
LINE
  5
F10400
330
F10401
100
AcDbEntity
8
Geo
100
AcDbLine
10
-81.7905508971013
20
0.218615808327661
30
0.000000000000000
11
-81.6905508971013
21
0.0266099750419179
31
0.000000000000000
  0
LINE
  5
F10402
330
F10403
100
AcDbEntity
8
Geo
100
AcDbLine
10
-81.6905508971013
20
0.0266099750419179
30
0.000000000000000
11
-81.5905508971013
21
-0.165749771560261
31
0.000000000000000
  0
LINE
  5
F10404
330
F10405
100
AcDbEntity
8
Geo
100
AcDbLine
10
-81.5905508971013
20
-0.165749771560261
30
0.000000000000000
11
-81.4905508971013
21
-0.358178489257159
31
0.000000000000000
  0
LINE
  5
F10406
330
F10407
100
AcDbEntity
8
Geo
100
AcDbLine
10
-81.4905508971013
20
-0.358178489257159
30
0.000000000000000
11
-81.3905508971013
21
-0.550391133660276
31
0.000000000000000
  0
LINE
  5
F10408
330
F10409
100
AcDbEntity
8
Geo
100
AcDbLine
10
-81.3905508971013
20
-0.550391133660276
30
0.000000000000000
11
-81.2905508971013
21
-0.742102980450177
31
0.000000000000000
  0
LINE
  5
F1040A
330
F1040B
100
AcDbEntity
8
Geo
100
AcDbLine
10
-81.2905508971013
20
-0.742102980450177
30
0.000000000000000
11
-81.1905508971012
21
-0.933030047138224
31
0.000000000000000
  0
LINE
  5
F1040C
330
F1040D
100
AcDbEntity
8
Geo
100
AcDbLine
10
-81.1905508971012
20
-0.933030047138224
30
0.000000000000000
11
-81.0905508971013
21
-1.12288951372944
31
0.000000000000000
  0
LINE
  5
F1040E
330
F1040F
100
AcDbEntity
8
Geo
100
AcDbLine
10
-81.0905508971013
20
-1.12288951372944
30
0.000000000000000
11
-80.9905508971013
21
-1.31140014166337
31
0.000000000000000
  0
LINE
  5
F10410
330
F10411
100
AcDbEntity
8
Geo
100
AcDbLine
10
-80.9905508971013
20
-1.31140014166337
30
0.000000000000000
11
-80.8905508971012
21
-1.49828269041242
31
0.000000000000000
  0
LINE
  5
F10412
330
F10413
100
AcDbEntity
8
Geo
100
AcDbLine
10
-80.8905508971012
20
-1.49828269041242
30
0.000000000000000
11
-80.7905508971012
21
-1.47512212538817
31
0.000000000000000
  0
LINE
  5
F10414
330
F10415
100
AcDbEntity
8
Geo
100
AcDbLine
10
-80.7905508971012
20
-1.47512212538817
30
0.000000000000000
11
-80.6905508971012
21
-1.45238277350871
31
0.000000000000000
  0
LINE
  5
F10416
330
F10417
100
AcDbEntity
8
Geo
100
AcDbLine
10
-80.6905508971012
20
-1.45238277350871
30
0.000000000000000
11
-80.5905508971012
21
-1.43006677587426
31
0.000000000000000
  0
LINE
  5
F10418
330
F10419
100
AcDbEntity
8
Geo
100
AcDbLine
10
-80.5905508971012
20
-1.43006677587426
30
0.000000000000000
11
-80.4905508971012
21
-1.40817618359468
31
0.000000000000000
  0
LINE
  5
F1041A
330
F1041B
100
AcDbEntity
8
Geo
100
AcDbLine
10
-80.4905508971012
20
-1.40817618359468
30
0.000000000000000
11
-80.3905508971012
21
-1.38671296055919
31
0.000000000000000
  0
LINE
  5
F1041C
330
F1041D
100
AcDbEntity
8
Geo
100
AcDbLine
10
-80.3905508971012
20
-1.38671296055919
30
0.000000000000000
11
-80.2905508971012
21
-1.36567898616055
31
0.000000000000000
  0
LINE
  5
F1041E
330
F1041F
100
AcDbEntity
8
Geo
100
AcDbLine
10
-80.2905508971012
20
-1.36567898616055
30
0.000000000000000
11
-80.1905508971012
21
-1.34507605797269
31
0.000000000000000
  0
LINE
  5
F10420
330
F10421
100
AcDbEntity
8
Geo
100
AcDbLine
10
-80.1905508971012
20
-1.34507605797269
30
0.000000000000000
11
-80.0905508971012
21
-1.32490589438103
31
0.000000000000000
  0
LINE
  5
F10422
330
F10423
100
AcDbEntity
8
Geo
100
AcDbLine
10
-80.0905508971012
20
-1.32490589438103
30
0.000000000000000
11
-79.9905508971012
21
-1.30517013716468
31
0.000000000000000
  0
LINE
  5
F10424
330
F10425
100
AcDbEntity
8
Geo
100
AcDbLine
10
-79.9905508971012
20
-1.30517013716468
30
0.000000000000000
11
-79.8905508971012
21
-1.28587035402984
31
0.000000000000000
  0
LINE
  5
F10426
330
F10427
100
AcDbEntity
8
Geo
100
AcDbLine
10
-79.8905508971012
20
-1.28587035402984
30
0.000000000000000
11
-79.7905508971012
21
-1.26700804109359
31
0.000000000000000
  0
LINE
  5
F10428
330
F10429
100
AcDbEntity
8
Geo
100
AcDbLine
10
-79.7905508971012
20
-1.26700804109359
30
0.000000000000000
11
-79.6905508971012
21
-1.24858462531754
31
0.000000000000000
  0
LINE
  5
F1042A
330
F1042B
100
AcDbEntity
8
Geo
100
AcDbLine
10
-79.6905508971012
20
-1.24858462531754
30
0.000000000000000
11
-79.5905508971012
21
-1.23060146689057
31
0.000000000000000
  0
LINE
  5
F1042C
330
F1042D
100
AcDbEntity
8
Geo
100
AcDbLine
10
-79.5905508971012
20
-1.23060146689057
30
0.000000000000000
11
-79.4905508971012
21
-1.21305986156019
31
0.000000000000000
  0
LINE
  5
F1042E
330
F1042F
100
AcDbEntity
8
Geo
100
AcDbLine
10
-79.4905508971012
20
-1.21305986156019
30
0.000000000000000
11
-79.3905508971012
21
-1.19596104291179
31
0.000000000000000
  0
LINE
  5
F10430
330
F10431
100
AcDbEntity
8
Geo
100
AcDbLine
10
-79.3905508971012
20
-1.19596104291179
30
0.000000000000000
11
-79.2905508971012
21
-1.17930618459549
31
0.000000000000000
  0
LINE
  5
F10432
330
F10433
100
AcDbEntity
8
Geo
100
AcDbLine
10
-79.2905508971012
20
-1.17930618459549
30
0.000000000000000
11
-79.1905508971012
21
-1.16309640249975
31
0.000000000000000
  0
LINE
  5
F10434
330
F10435
100
AcDbEntity
8
Geo
100
AcDbLine
10
-79.1905508971012
20
-1.16309640249975
30
0.000000000000000
11
-79.0905508971012
21
-1.14733275687163
31
0.000000000000000
  0
LINE
  5
F10436
330
F10437
100
AcDbEntity
8
Geo
100
AcDbLine
10
-79.0905508971012
20
-1.14733275687163
30
0.000000000000000
11
-78.9905508971012
21
-1.13201625438287
31
0.000000000000000
  0
LINE
  5
F10438
330
F10439
100
AcDbEntity
8
Geo
100
AcDbLine
10
-78.9905508971012
20
-1.13201625438287
30
0.000000000000000
11
-78.8905508971012
21
-1.11714785014170
31
0.000000000000000
  0
LINE
  5
F1043A
330
F1043B
100
AcDbEntity
8
Geo
100
AcDbLine
10
-78.8905508971012
20
-1.11714785014170
30
0.000000000000000
11
-78.7905508971012
21
-1.10272844964977
31
0.000000000000000
  0
LINE
  5
F1043C
330
F1043D
100
AcDbEntity
8
Geo
100
AcDbLine
10
-78.7905508971012
20
-1.10272844964977
30
0.000000000000000
11
-78.6905508971012
21
-1.08875891070388
31
0.000000000000000
  0
LINE
  5
F1043E
330
F1043F
100
AcDbEntity
8
Geo
100
AcDbLine
10
-78.6905508971012
20
-1.08875891070388
30
0.000000000000000
11
-78.5905508971012
21
-1.07524004524216
31
0.000000000000000
  0
LINE
  5
F10440
330
F10441
100
AcDbEntity
8
Geo
100
AcDbLine
10
-78.5905508971012
20
-1.07524004524216
30
0.000000000000000
11
-78.4905508971012
21
-1.06217262113434
31
0.000000000000000
  0
LINE
  5
F10442
330
F10443
100
AcDbEntity
8
Geo
100
AcDbLine
10
-78.4905508971012
20
-1.06217262113434
30
0.000000000000000
11
-78.3905508971012
21
-1.04955736391589
31
0.000000000000000
  0
LINE
  5
F10444
330
F10445
100
AcDbEntity
8
Geo
100
AcDbLine
10
-78.3905508971012
20
-1.04955736391589
30
0.000000000000000
11
-78.2905508971012
21
-1.03739495846557
31
0.000000000000000
  0
LINE
  5
F10446
330
F10447
100
AcDbEntity
8
Geo
100
AcDbLine
10
-78.2905508971012
20
-1.03739495846557
30
0.000000000000000
11
-78.1905508971012
21
-1.02568605062627
31
0.000000000000000
  0
LINE
  5
F10448
330
F10449
100
AcDbEntity
8
Geo
100
AcDbLine
10
-78.1905508971012
20
-1.02568605062627
30
0.000000000000000
11
-78.0905508971012
21
-1.01443124876881
31
0.000000000000000
  0
LINE
  5
F1044A
330
F1044B
100
AcDbEntity
8
Geo
100
AcDbLine
10
-78.0905508971012
20
-1.01443124876881
30
0.000000000000000
11
-77.9905508971012
21
-1.00363112529846
31
0.000000000000000
  0
LINE
  5
F1044C
330
F1044D
100
AcDbEntity
8
Geo
100
AcDbLine
10
-77.9905508971012
20
-1.00363112529846
30
0.000000000000000
11
-77.8905508971012
21
-0.993286218103972
31
0.000000000000000
  0
LINE
  5
F1044E
330
F1044F
100
AcDbEntity
8
Geo
100
AcDbLine
10
-77.8905508971012
20
-0.993286218103972
30
0.000000000000000
11
-77.7905508971012
21
-0.983397031948927
31
0.000000000000000
  0
LINE
  5
F10450
330
F10451
100
AcDbEntity
8
Geo
100
AcDbLine
10
-77.7905508971012
20
-0.983397031948927
30
0.000000000000000
11
-77.6905508971012
21
-0.973964039805166
31
0.000000000000000
  0
LINE
  5
F10452
330
F10453
100
AcDbEntity
8
Geo
100
AcDbLine
10
-77.6905508971012
20
-0.973964039805166
30
0.000000000000000
11
-77.5905508971012
21
-0.964987684128160
31
0.000000000000000
  0
LINE
  5
F10454
330
F10455
100
AcDbEntity
8
Geo
100
AcDbLine
10
-77.5905508971012
20
-0.964987684128160
30
0.000000000000000
11
-77.4905508971012
21
-0.956468378074137
31
0.000000000000000
  0
LINE
  5
F10456
330
F10457
100
AcDbEntity
8
Geo
100
AcDbLine
10
-77.4905508971012
20
-0.956468378074137
30
0.000000000000000
11
-77.3905508971012
21
-0.948406506658807
31
0.000000000000000
  0
LINE
  5
F10458
330
F10459
100
AcDbEntity
8
Geo
100
AcDbLine
10
-77.3905508971012
20
-0.948406506658807
30
0.000000000000000
11
-77.2905508971012
21
-0.940802427857552
31
0.000000000000000
  0
LINE
  5
F1045A
330
F1045B
100
AcDbEntity
8
Geo
100
AcDbLine
10
-77.2905508971012
20
-0.940802427857552
30
0.000000000000000
11
-77.1905508971012
21
-0.933656473646946
31
0.000000000000000
  0
LINE
  5
F1045C
330
F1045D
100
AcDbEntity
8
Geo
100
AcDbLine
10
-77.1905508971012
20
-0.933656473646946
30
0.000000000000000
11
-77.0905508971012
21
-0.926968950987485
31
0.000000000000000
  0
LINE
  5
F1045E
330
F1045F
100
AcDbEntity
8
Geo
100
AcDbLine
10
-77.0905508971012
20
-0.926968950987485
30
0.000000000000000
11
-76.9905508971012
21
-0.920740142747399
31
0.000000000000000
  0
LINE
  5
F10460
330
F10461
100
AcDbEntity
8
Geo
100
AcDbLine
10
-76.9905508971012
20
-0.920740142747399
30
0.000000000000000
11
-76.8905508971012
21
-0.914970308567481
31
0.000000000000000
  0
LINE
  5
F10462
330
F10463
100
AcDbEntity
8
Geo
100
AcDbLine
10
-76.8905508971012
20
-0.914970308567481
30
0.000000000000000
11
-76.7905508971012
21
-0.909659685666799
31
0.000000000000000
  0
LINE
  5
F10464
330
F10465
100
AcDbEntity
8
Geo
100
AcDbLine
10
-76.7905508971012
20
-0.909659685666799
30
0.000000000000000
11
-76.6905508971012
21
-0.904808489589235
31
0.000000000000000
  0
LINE
  5
F10466
330
F10467
100
AcDbEntity
8
Geo
100
AcDbLine
10
-76.6905508971012
20
-0.904808489589235
30
0.000000000000000
11
-76.5905508971012
21
-0.900416914890756
31
0.000000000000000
  0
LINE
  5
F10468
330
F10469
100
AcDbEntity
8
Geo
100
AcDbLine
10
-76.5905508971012
20
-0.900416914890756
30
0.000000000000000
11
-76.4905508971012
21
-0.896485135767369
31
0.000000000000000
  0
LINE
  5
F1046A
330
F1046B
100
AcDbEntity
8
Geo
100
AcDbLine
10
-76.4905508971012
20
-0.896485135767369
30
0.000000000000000
11
-76.3905508971012
21
-0.893013306623673
31
0.000000000000000
  0
LINE
  5
F1046C
330
F1046D
100
AcDbEntity
8
Geo
100
AcDbLine
10
-76.3905508971012
20
-0.893013306623673
30
0.000000000000000
11
-76.2905508971012
21
-0.890001562581972
31
0.000000000000000
  0
LINE
  5
F1046E
330
F1046F
100
AcDbEntity
8
Geo
100
AcDbLine
10
-76.2905508971012
20
-0.890001562581972
30
0.000000000000000
11
-76.1905508971012
21
-0.887450019931895
31
0.000000000000000
  0
LINE
  5
F10470
330
F10471
100
AcDbEntity
8
Geo
100
AcDbLine
10
-76.1905508971012
20
-0.887450019931895
30
0.000000000000000
11
-76.0905508971012
21
-0.885358776520480
31
0.000000000000000
  0
LINE
  5
F10472
330
F10473
100
AcDbEntity
8
Geo
100
AcDbLine
10
-76.0905508971012
20
-0.885358776520480
30
0.000000000000000
11
-75.9905508971011
21
-0.883727912082685
31
0.000000000000000
  0
LINE
  5
F10474
330
F10475
100
AcDbEntity
8
Geo
100
AcDbLine
10
-75.9905508971011
20
-0.883727912082685
30
0.000000000000000
11
-75.8905508971012
21
-0.882557488512299
31
0.000000000000000
  0
LINE
  5
F10476
330
F10477
100
AcDbEntity
8
Geo
100
AcDbLine
10
-97.8905508971012
20
-1.66469088207536
30
0.000000000000000
11
-97.7905508971012
21
-1.91285225026811
31
0.000000000000000
  0
LINE
  5
F10478
330
F10479
100
AcDbEntity
8
Geo
100
AcDbLine
10
-97.7905508971012
20
-1.91285225026811
30
0.000000000000000
11
-97.6905508971012
21
-2.11197952230802
31
0.000000000000000
  0
LINE
  5
F1047A
330
F1047B
100
AcDbEntity
8
Geo
100
AcDbLine
10
-97.6905508971012
20
-2.11197952230802
30
0.000000000000000
11
-97.5905508971012
21
-2.29498019672781
31
0.000000000000000
  0
LINE
  5
F1047C
330
F1047D
100
AcDbEntity
8
Geo
100
AcDbLine
10
-97.5905508971012
20
-2.29498019672781
30
0.000000000000000
11
-97.4905508971012
21
-2.46835473900511
31
0.000000000000000
  0
LINE
  5
F1047E
330
F1047F
100
AcDbEntity
8
Geo
100
AcDbLine
10
-97.4905508971012
20
-2.46835473900511
30
0.000000000000000
11
-97.3905508971012
21
-2.63838740688192
31
0.000000000000000
  0
LINE
  5
F10480
330
F10481
100
AcDbEntity
8
Geo
100
AcDbLine
10
-97.3905508971012
20
-2.63838740688192
30
0.000000000000000
11
-97.2905508971012
21
-2.80482633120680
31
0.000000000000000
  0
LINE
  5
F10482
330
F10483
100
AcDbEntity
8
Geo
100
AcDbLine
10
-97.2905508971012
20
-2.80482633120680
30
0.000000000000000
11
-97.1905508971012
21
-2.96742496623557
31
0.000000000000000
  0
LINE
  5
F10484
330
F10485
100
AcDbEntity
8
Geo
100
AcDbLine
10
-97.1905508971012
20
-2.96742496623557
30
0.000000000000000
11
-97.0905508971012
21
-3.12594245483916
31
0.000000000000000
  0
LINE
  5
F10486
330
F10487
100
AcDbEntity
8
Geo
100
AcDbLine
10
-97.0905508971012
20
-3.12594245483916
30
0.000000000000000
11
-96.9905508971012
21
-3.28014398528496
31
0.000000000000000
  0
LINE
  5
F10488
330
F10489
100
AcDbEntity
8
Geo
100
AcDbLine
10
-96.9905508971012
20
-3.28014398528496
30
0.000000000000000
11
-96.8905508971012
21
-3.42980113906312
31
0.000000000000000
  0
LINE
  5
F1048A
330
F1048B
100
AcDbEntity
8
Geo
100
AcDbLine
10
-96.8905508971012
20
-3.42980113906312
30
0.000000000000000
11
-96.7905508971012
21
-3.57469222924252
31
0.000000000000000
  0
LINE
  5
F1048C
330
F1048D
100
AcDbEntity
8
Geo
100
AcDbLine
10
-96.7905508971012
20
-3.57469222924252
30
0.000000000000000
11
-96.6905508971012
21
-3.71460262885535
31
0.000000000000000
  0
LINE
  5
F1048E
330
F1048F
100
AcDbEntity
8
Geo
100
AcDbLine
10
-96.6905508971012
20
-3.71460262885535
30
0.000000000000000
11
-96.5905508971012
21
-3.84932508882372
31
0.000000000000000
  0
LINE
  5
F10490
330
F10491
100
AcDbEntity
8
Geo
100
AcDbLine
10
-96.5905508971012
20
-3.84932508882372
30
0.000000000000000
11
-96.4905508971012
21
-3.97866004495742
31
0.000000000000000
  0
LINE
  5
F10492
330
F10493
100
AcDbEntity
8
Geo
100
AcDbLine
10
-96.4905508971012
20
-3.97866004495742
30
0.000000000000000
11
-96.3905508971012
21
-4.10241591356809
31
0.000000000000000
  0
LINE
  5
F10494
330
F10495
100
AcDbEntity
8
Geo
100
AcDbLine
10
-96.3905508971012
20
-4.10241591356809
30
0.000000000000000
11
-96.2905508971012
21
-4.22040937526187
31
0.000000000000000
  0
LINE
  5
F10496
330
F10497
100
AcDbEntity
8
Geo
100
AcDbLine
10
-96.2905508971012
20
-4.22040937526187
30
0.000000000000000
11
-96.1905508971012
21
-4.33246564649012
31
0.000000000000000
  0
LINE
  5
F10498
330
F10499
100
AcDbEntity
8
Geo
100
AcDbLine
10
-96.1905508971012
20
-4.33246564649012
30
0.000000000000000
11
-96.0905508971012
21
-4.43841873845611
31
0.000000000000000
  0
LINE
  5
F1049A
330
F1049B
100
AcDbEntity
8
Geo
100
AcDbLine
10
-96.0905508971012
20
-4.43841873845611
30
0.000000000000000
11
-95.9905508971012
21
-4.53811170299394
31
0.000000000000000
  0
LINE
  5
F1049C
330
F1049D
100
AcDbEntity
8
Geo
100
AcDbLine
10
-95.9905508971012
20
-4.53811170299394
30
0.000000000000000
11
-95.8905508971012
21
-4.63139686505564
31
0.000000000000000
  0
LINE
  5
F1049E
330
F1049F
100
AcDbEntity
8
Geo
100
AcDbLine
10
-95.8905508971012
20
-4.63139686505564
30
0.000000000000000
11
-95.7905508971012
21
-4.71813604146204
31
0.000000000000000
  0
LINE
  5
F104A0
330
F104A1
100
AcDbEntity
8
Geo
100
AcDbLine
10
-95.7905508971012
20
-4.71813604146204
30
0.000000000000000
11
-95.6905508971012
21
-4.79820074559329
31
0.000000000000000
  0
LINE
  5
F104A2
330
F104A3
100
AcDbEntity
8
Geo
100
AcDbLine
10
-95.6905508971012
20
-4.79820074559329
30
0.000000000000000
11
-95.5905508971012
21
-4.87147237771594
31
0.000000000000000
  0
LINE
  5
F104A4
330
F104A5
100
AcDbEntity
8
Geo
100
AcDbLine
10
-95.5905508971012
20
-4.87147237771594
30
0.000000000000000
11
-95.4905508971012
21
-4.93784240066451
31
0.000000000000000
  0
LINE
  5
F104A6
330
F104A7
100
AcDbEntity
8
Geo
100
AcDbLine
10
-95.4905508971012
20
-4.93784240066451
30
0.000000000000000
11
-95.3905508971012
21
-4.99721250061749
31
0.000000000000000
  0
LINE
  5
F104A8
330
F104A9
100
AcDbEntity
8
Geo
100
AcDbLine
10
-95.3905508971012
20
-4.99721250061749
30
0.000000000000000
11
-95.2905508971012
21
-5.04949473272944
31
0.000000000000000
  0
LINE
  5
F104AA
330
F104AB
100
AcDbEntity
8
Geo
100
AcDbLine
10
-95.2905508971012
20
-5.04949473272944
30
0.000000000000000
11
-95.1905508971012
21
-5.09461165140357
31
0.000000000000000
  0
LINE
  5
F104AC
330
F104AD
100
AcDbEntity
8
Geo
100
AcDbLine
10
-95.1905508971012
20
-5.09461165140357
30
0.000000000000000
11
-95.0905508971012
21
-5.13249642501178
31
0.000000000000000
  0
LINE
  5
F104AE
330
F104AF
100
AcDbEntity
8
Geo
100
AcDbLine
10
-95.0905508971012
20
-5.13249642501178
30
0.000000000000000
11
-94.9905508971012
21
-5.16309293489230
31
0.000000000000000
  0
LINE
  5
F104B0
330
F104B1
100
AcDbEntity
8
Geo
100
AcDbLine
10
-94.9905508971012
20
-5.16309293489230
30
0.000000000000000
11
-94.8905508971012
21
-5.18635585847813
31
0.000000000000000
  0
LINE
  5
F104B2
330
F104B3
100
AcDbEntity
8
Geo
100
AcDbLine
10
-94.8905508971012
20
-5.18635585847813
30
0.000000000000000
11
-94.7905508971012
21
-5.20225073643332
31
0.000000000000000
  0
LINE
  5
F104B4
330
F104B5
100
AcDbEntity
8
Geo
100
AcDbLine
10
-94.7905508971012
20
-5.20225073643332
30
0.000000000000000
11
-94.6905508971012
21
-5.21075402369755
31
0.000000000000000
  0
LINE
  5
F104B6
330
F104B7
100
AcDbEntity
8
Geo
100
AcDbLine
10
-86.4905508971012
20
4.78742027248310
30
0.000000000000000
11
-86.3905508971012
21
4.78571195554001
31
0.000000000000000
  0
LINE
  5
F104B8
330
F104B9
100
AcDbEntity
8
Geo
100
AcDbLine
10
-86.3905508971012
20
4.78571195554001
30
0.000000000000000
11
-86.2905508971012
21
4.77660007421965
31
0.000000000000000
  0
LINE
  5
F104BA
330
F104BB
100
AcDbEntity
8
Geo
100
AcDbLine
10
-86.2905508971012
20
4.77660007421965
30
0.000000000000000
11
-86.1905508971012
21
4.76009812593899
31
0.000000000000000
  0
LINE
  5
F104BC
330
F104BD
100
AcDbEntity
8
Geo
100
AcDbLine
10
-86.1905508971012
20
4.76009812593899
30
0.000000000000000
11
-86.0905508971013
21
4.73623055501079
31
0.000000000000000
  0
LINE
  5
F104BE
330
F104BF
100
AcDbEntity
8
Geo
100
AcDbLine
10
-86.0905508971013
20
4.73623055501079
30
0.000000000000000
11
-85.9905508971012
21
4.70503271643424
31
0.000000000000000
  0
LINE
  5
F104C0
330
F104C1
100
AcDbEntity
8
Geo
100
AcDbLine
10
-85.9905508971012
20
4.70503271643424
30
0.000000000000000
11
-85.8905508971012
21
4.66655082352368
31
0.000000000000000
  0
LINE
  5
F104C2
330
F104C3
100
AcDbEntity
8
Geo
100
AcDbLine
10
-85.8905508971012
20
4.66655082352368
30
0.000000000000000
11
-85.7905508971012
21
4.62084187945289
31
0.000000000000000
  0
LINE
  5
F104C4
330
F104C5
100
AcDbEntity
8
Geo
100
AcDbLine
10
-85.7905508971012
20
4.62084187945289
30
0.000000000000000
11
-85.6905508971012
21
4.56797359281633
31
0.000000000000000
  0
LINE
  5
F104C6
330
F104C7
100
AcDbEntity
8
Geo
100
AcDbLine
10
-85.6905508971012
20
4.56797359281633
30
0.000000000000000
11
-85.5905508971013
21
4.50802427733255
31
0.000000000000000
  0
LINE
  5
F104C8
330
F104C9
100
AcDbEntity
8
Geo
100
AcDbLine
10
-85.5905508971013
20
4.50802427733255
30
0.000000000000000
11
-85.4905508971012
21
4.44108273583813
31
0.000000000000000
  0
LINE
  5
F104CA
330
F104CB
100
AcDbEntity
8
Geo
100
AcDbLine
10
-85.4905508971012
20
4.44108273583813
30
0.000000000000000
11
-85.3905508971012
21
4.36724812874420
31
0.000000000000000
  0
LINE
  5
F104CC
330
F104CD
100
AcDbEntity
8
Geo
100
AcDbLine
10
-85.3905508971012
20
4.36724812874420
30
0.000000000000000
11
-85.2905508971013
21
4.28662982715027
31
0.000000000000000
  0
LINE
  5
F104CE
330
F104CF
100
AcDbEntity
8
Geo
100
AcDbLine
10
-85.2905508971013
20
4.28662982715027
30
0.000000000000000
11
-85.1905508971012
21
4.19934725083293
31
0.000000000000000
  0
LINE
  5
F104D0
330
F104D1
100
AcDbEntity
8
Geo
100
AcDbLine
10
-85.1905508971012
20
4.19934725083293
30
0.000000000000000
11
-85.0905508971013
21
4.10552969134956
31
0.000000000000000
  0
LINE
  5
F104D2
330
F104D3
100
AcDbEntity
8
Geo
100
AcDbLine
10
-85.0905508971013
20
4.10552969134956
30
0.000000000000000
11
-84.9905508971013
21
4.00531612051888
31
0.000000000000000
  0
LINE
  5
F104D4
330
F104D5
100
AcDbEntity
8
Geo
100
AcDbLine
10
-84.9905508971013
20
4.00531612051888
30
0.000000000000000
11
-84.8905508971012
21
3.89885498456222
31
0.000000000000000
  0
LINE
  5
F104D6
330
F104D7
100
AcDbEntity
8
Geo
100
AcDbLine
10
-84.8905508971012
20
3.89885498456222
30
0.000000000000000
11
-84.7905508971013
21
3.78630398421033
31
0.000000000000000
  0
LINE
  5
F104D8
330
F104D9
100
AcDbEntity
8
Geo
100
AcDbLine
10
-84.7905508971013
20
3.78630398421033
30
0.000000000000000
11
-84.6905508971012
21
3.66782984110151
31
0.000000000000000
  0
LINE
  5
F104DA
330
F104DB
100
AcDbEntity
8
Geo
100
AcDbLine
10
-84.6905508971012
20
3.66782984110151
30
0.000000000000000
11
-84.5905508971013
21
3.54360805081707
31
0.000000000000000
  0
LINE
  5
F104DC
330
F104DD
100
AcDbEntity
8
Geo
100
AcDbLine
10
-84.5905508971013
20
3.54360805081707
30
0.000000000000000
11
-84.4905508971013
21
3.41382262292002
31
0.000000000000000
  0
LINE
  5
F104DE
330
F104DF
100
AcDbEntity
8
Geo
100
AcDbLine
10
-84.4905508971013
20
3.41382262292002
30
0.000000000000000
11
-84.3905508971012
21
3.27866580838190
31
0.000000000000000
  0
LINE
  5
F104E0
330
F104E1
100
AcDbEntity
8
Geo
100
AcDbLine
10
-84.3905508971012
20
3.27866580838190
30
0.000000000000000
11
-84.2905508971013
21
3.13833781480173
31
0.000000000000000
  0
LINE
  5
F104E2
330
F104E3
100
AcDbEntity
8
Geo
100
AcDbLine
10
-84.2905508971013
20
3.13833781480173
30
0.000000000000000
11
-84.1905508971012
21
2.99304650983875
31
0.000000000000000
  0
LINE
  5
F104E4
330
F104E5
100
AcDbEntity
8
Geo
100
AcDbLine
10
-84.1905508971012
20
2.99304650983875
30
0.000000000000000
11
-84.0905508971013
21
2.84300711329838
31
0.000000000000000
  0
LINE
  5
F104E6
330
F104E7
100
AcDbEntity
8
Geo
100
AcDbLine
10
-84.0905508971013
20
2.84300711329838
30
0.000000000000000
11
-83.9905508971013
21
2.68844187832739
31
0.000000000000000
  0
LINE
  5
F104E8
330
F104E9
100
AcDbEntity
8
Geo
100
AcDbLine
10
-83.9905508971013
20
2.68844187832739
30
0.000000000000000
11
-83.8905508971012
21
2.52957976219064
31
0.000000000000000
  0
LINE
  5
F104EA
330
F104EB
100
AcDbEntity
8
Geo
100
AcDbLine
10
-83.8905508971012
20
2.52957976219064
30
0.000000000000000
11
-83.7905508971013
21
2.36665608711702
31
0.000000000000000
  0
LINE
  5
F104EC
330
F104ED
100
AcDbEntity
8
Geo
100
AcDbLine
10
-83.7905508971013
20
2.36665608711702
30
0.000000000000000
11
-83.6905508971013
21
2.19991219171695
31
0.000000000000000
  0
LINE
  5
F104EE
330
F104EF
100
AcDbEntity
8
Geo
100
AcDbLine
10
-83.6905508971013
20
2.19991219171695
30
0.000000000000000
11
-83.5905508971013
21
2.02959507348784
31
0.000000000000000
  0
LINE
  5
F104F0
330
F104F1
100
AcDbEntity
8
Geo
100
AcDbLine
10
-83.5905508971013
20
2.02959507348784
30
0.000000000000000
11
-83.4905508971013
21
1.85595702293705
31
0.000000000000000
  0
LINE
  5
F104F2
330
F104F3
100
AcDbEntity
8
Geo
100
AcDbLine
10
-83.4905508971013
20
1.85595702293705
30
0.000000000000000
11
-83.3905508971013
21
1.67925524986428
31
0.000000000000000
  0
LINE
  5
F104F4
330
F104F5
100
AcDbEntity
8
Geo
100
AcDbLine
10
-83.3905508971013
20
1.67925524986428
30
0.000000000000000
11
-83.2905508971013
21
1.49975150235713
31
0.000000000000000
  0
LINE
  5
F104F6
330
F104F7
100
AcDbEntity
8
Geo
100
AcDbLine
10
-83.2905508971013
20
1.49975150235713
30
0.000000000000000
11
-83.1905508971013
21
1.31771167906396
31
0.000000000000000
  0
LINE
  5
F104F8
330
F104F9
100
AcDbEntity
8
Geo
100
AcDbLine
10
-83.1905508971013
20
1.31771167906396
30
0.000000000000000
11
-83.0905508971013
21
1.13340543531862
31
0.000000000000000
  0
LINE
  5
F104FA
330
F104FB
100
AcDbEntity
8
Geo
100
AcDbLine
10
-83.0905508971013
20
1.13340543531862
30
0.000000000000000
11
-82.9905508971013
21
0.947105783700382
31
0.000000000000000
  0
LINE
  5
F104FC
330
F104FD
100
AcDbEntity
8
Geo
100
AcDbLine
10
-82.9905508971013
20
0.947105783700382
30
0.000000000000000
11
-82.8905508971013
21
0.759088689620802
31
0.000000000000000
  0
LINE
  5
F104FE
330
F104FF
100
AcDbEntity
8
Geo
100
AcDbLine
10
-82.8905508971013
20
0.759088689620802
30
0.000000000000000
11
-82.7905508971013
21
0.569632662536531
31
0.000000000000000
  0
LINE
  5
F10500
330
F10501
100
AcDbEntity
8
Geo
100
AcDbLine
10
-82.7905508971013
20
0.569632662536531
30
0.000000000000000
11
-82.6905508971013
21
0.379018343393650
31
0.000000000000000
  0
LINE
  5
F10502
330
F10503
100
AcDbEntity
8
Geo
100
AcDbLine
10
-82.6905508971013
20
0.379018343393650
30
0.000000000000000
11
-82.5905508971013
21
0.187528088914630
31
0.000000000000000
  0
LINE
  5
F10504
330
F10505
100
AcDbEntity
8
Geo
100
AcDbLine
10
-82.5905508971013
20
0.187528088914630
30
0.000000000000000
11
-82.4905508971013
21
-0.00455444665625374
31
0.000000000000000
  0
LINE
  5
F10506
330
F10507
100
AcDbEntity
8
Geo
100
AcDbLine
10
-82.4905508971013
20
-0.00455444665625374
30
0.000000000000000
11
-82.3905508971013
21
-0.196944731729604
31
0.000000000000000
  0
LINE
  5
F10508
330
F10509
100
AcDbEntity
8
Geo
100
AcDbLine
10
-82.3905508971013
20
-0.196944731729604
30
0.000000000000000
11
-82.2905508971013
21
-0.389357778847112
31
0.000000000000000
  0
LINE
  5
F1050A
330
F1050B
100
AcDbEntity
8
Geo
100
AcDbLine
10
-82.2905508971013
20
-0.389357778847112
30
0.000000000000000
11
-82.1905508971013
21
-0.581508566833083
31
0.000000000000000
  0
LINE
  5
F1050C
330
F1050D
100
AcDbEntity
8
Geo
100
AcDbLine
10
-82.1905508971013
20
-0.581508566833083
30
0.000000000000000
11
-82.0905508971013
21
-0.773112462995905
31
0.000000000000000
  0
LINE
  5
F1050E
330
F1050F
100
AcDbEntity
8
Geo
100
AcDbLine
10
-82.0905508971013
20
-0.773112462995905
30
0.000000000000000
11
-81.9905508971013
21
-0.963885644754054
31
0.000000000000000
  0
LINE
  5
F10510
330
F10511
100
AcDbEntity
8
Geo
100
AcDbLine
10
-81.9905508971013
20
-0.963885644754054
30
0.000000000000000
11
-81.8905508971013
21
-1.15354552006208
31
0.000000000000000
  0
LINE
  5
F10512
330
F10513
100
AcDbEntity
8
Geo
100
AcDbLine
10
-81.8905508971013
20
-1.15354552006208
30
0.000000000000000
11
-81.7905508971013
21
-1.34181114601382
31
0.000000000000000
  0
LINE
  5
F10514
330
F10515
100
AcDbEntity
8
Geo
100
AcDbLine
10
-81.7905508971013
20
-1.34181114601382
30
0.000000000000000
11
-81.6905508971013
21
-1.52840364500271
31
0.000000000000000
  0
LINE
  5
F10516
330
F10517
100
AcDbEntity
8
Geo
100
AcDbLine
10
-81.6905508971013
20
-1.52840364500271
30
0.000000000000000
11
-81.5905508971013
21
-1.71304661782281
31
0.000000000000000
  0
LINE
  5
F10518
330
F10519
100
AcDbEntity
8
Geo
100
AcDbLine
10
-81.5905508971013
20
-1.71304661782281
30
0.000000000000000
11
-81.4905508971013
21
-1.89546655309851
31
0.000000000000000
  0
LINE
  5
F1051A
330
F1051B
100
AcDbEntity
8
Geo
100
AcDbLine
10
-81.4905508971013
20
-1.89546655309851
30
0.000000000000000
11
-81.3905508971013
21
-2.07539323243664
31
0.000000000000000
  0
LINE
  5
F1051C
330
F1051D
100
AcDbEntity
8
Geo
100
AcDbLine
10
-81.3905508971013
20
-2.07539323243664
30
0.000000000000000
11
-81.2905508971013
21
-2.25256013070050
31
0.000000000000000
  0
LINE
  5
F1051E
330
F1051F
100
AcDbEntity
8
Geo
100
AcDbLine
10
-81.2905508971013
20
-2.25256013070050
30
0.000000000000000
11
-81.1905508971012
21
-2.42670481081323
31
0.000000000000000
  0
LINE
  5
F10520
330
F10521
100
AcDbEntity
8
Geo
100
AcDbLine
10
-81.1905508971012
20
-2.42670481081323
30
0.000000000000000
11
-81.0905508971013
21
-2.59756931250543
31
0.000000000000000
  0
LINE
  5
F10522
330
F10523
100
AcDbEntity
8
Geo
100
AcDbLine
10
-81.0905508971013
20
-2.59756931250543
30
0.000000000000000
11
-80.9905508971013
21
-2.76490053443141
31
0.000000000000000
  0
LINE
  5
F10524
330
F10525
100
AcDbEntity
8
Geo
100
AcDbLine
10
-80.9905508971013
20
-2.76490053443141
30
0.000000000000000
11
-80.8905508971012
21
-2.92845060908786
31
0.000000000000000
  0
LINE
  5
F10526
330
F10527
100
AcDbEntity
8
Geo
100
AcDbLine
10
-80.8905508971012
20
-2.92845060908786
30
0.000000000000000
11
-80.7905508971012
21
-3.10685564864085
31
0.000000000000000
  0
LINE
  5
F10528
330
F10529
100
AcDbEntity
8
Geo
100
AcDbLine
10
-80.7905508971012
20
-3.10685564864085
30
0.000000000000000
11
-80.6905508971012
21
-3.27657755303691
31
0.000000000000000
  0
LINE
  5
F1052A
330
F1052B
100
AcDbEntity
8
Geo
100
AcDbLine
10
-80.6905508971012
20
-3.27657755303691
30
0.000000000000000
11
-80.5905508971012
21
-3.43762878580662
31
0.000000000000000
  0
LINE
  5
F1052C
330
F1052D
100
AcDbEntity
8
Geo
100
AcDbLine
10
-80.5905508971012
20
-3.43762878580662
30
0.000000000000000
11
-80.4905508971012
21
-3.59005953434179
31
0.000000000000000
  0
LINE
  5
F1052E
330
F1052F
100
AcDbEntity
8
Geo
100
AcDbLine
10
-80.4905508971012
20
-3.59005953434179
30
0.000000000000000
11
-80.3905508971012
21
-3.73395462577063
31
0.000000000000000
  0
LINE
  5
F10530
330
F10531
100
AcDbEntity
8
Geo
100
AcDbLine
10
-80.3905508971012
20
-3.73395462577063
30
0.000000000000000
11
-80.2905508971012
21
-3.86943049556889
31
0.000000000000000
  0
LINE
  5
F10532
330
F10533
100
AcDbEntity
8
Geo
100
AcDbLine
10
-80.2905508971012
20
-3.86943049556889
30
0.000000000000000
11
-80.1905508971012
21
-3.99663222487881
31
0.000000000000000
  0
LINE
  5
F10534
330
F10535
100
AcDbEntity
8
Geo
100
AcDbLine
10
-80.1905508971012
20
-3.99663222487881
30
0.000000000000000
11
-80.0905508971012
21
-4.11573066031340
31
0.000000000000000
  0
LINE
  5
F10536
330
F10537
100
AcDbEntity
8
Geo
100
AcDbLine
10
-80.0905508971012
20
-4.11573066031340
30
0.000000000000000
11
-79.9905508971012
21
-4.22691962794419
31
0.000000000000000
  0
LINE
  5
F10538
330
F10539
100
AcDbEntity
8
Geo
100
AcDbLine
10
-79.9905508971012
20
-4.22691962794419
30
0.000000000000000
11
-79.8905508971012
21
-4.33041325121340
31
0.000000000000000
  0
LINE
  5
F1053A
330
F1053B
100
AcDbEntity
8
Geo
100
AcDbLine
10
-79.8905508971012
20
-4.33041325121340
30
0.000000000000000
11
-79.7905508971012
21
-4.42644338068034
31
0.000000000000000
  0
LINE
  5
F1053C
330
F1053D
100
AcDbEntity
8
Geo
100
AcDbLine
10
-79.7905508971012
20
-4.42644338068034
30
0.000000000000000
11
-79.6905508971012
21
-4.51525714181024
31
0.000000000000000
  0
LINE
  5
F1053E
330
F1053F
100
AcDbEntity
8
Geo
100
AcDbLine
10
-79.6905508971012
20
-4.51525714181024
30
0.000000000000000
11
-79.5905508971012
21
-4.59711460544303
31
0.000000000000000
  0
LINE
  5
F10540
330
F10541
100
AcDbEntity
8
Geo
100
AcDbLine
10
-79.5905508971012
20
-4.59711460544303
30
0.000000000000000
11
-79.4905508971012
21
-4.67228658413790
31
0.000000000000000
  0
LINE
  5
F10542
330
F10543
100
AcDbEntity
8
Geo
100
AcDbLine
10
-79.4905508971012
20
-4.67228658413790
30
0.000000000000000
11
-79.3905508971012
21
-4.74105255627730
31
0.000000000000000
  0
LINE
  5
F10544
330
F10545
100
AcDbEntity
8
Geo
100
AcDbLine
10
-79.3905508971012
20
-4.74105255627730
30
0.000000000000000
11
-79.2905508971012
21
-4.80369871862707
31
0.000000000000000
  0
LINE
  5
F10546
330
F10547
100
AcDbEntity
8
Geo
100
AcDbLine
10
-79.2905508971012
20
-4.80369871862707
30
0.000000000000000
11
-79.1905508971012
21
-4.86051616698426
31
0.000000000000000
  0
LINE
  5
F10548
330
F10549
100
AcDbEntity
8
Geo
100
AcDbLine
10
-79.1905508971012
20
-4.86051616698426
30
0.000000000000000
11
-79.0905508971012
21
-4.91179920359750
31
0.000000000000000
  0
LINE
  5
F1054A
330
F1054B
100
AcDbEntity
8
Geo
100
AcDbLine
10
-79.0905508971012
20
-4.91179920359750
30
0.000000000000000
11
-78.9905508971012
21
-4.95784376920951
31
0.000000000000000
  0
LINE
  5
F1054C
330
F1054D
100
AcDbEntity
8
Geo
100
AcDbLine
10
-78.9905508971012
20
-4.95784376920951
30
0.000000000000000
11
-78.8905508971012
21
-4.99894599684429
31
0.000000000000000
  0
LINE
  5
F1054E
330
F1054F
100
AcDbEntity
8
Geo
100
AcDbLine
10
-78.8905508971012
20
-4.99894599684429
30
0.000000000000000
11
-78.7905508971012
21
-5.03540088383481
31
0.000000000000000
  0
LINE
  5
F10550
330
F10551
100
AcDbEntity
8
Geo
100
AcDbLine
10
-78.7905508971012
20
-5.03540088383481
30
0.000000000000000
11
-78.6905508971012
21
-5.06750107805564
31
0.000000000000000
  0
LINE
  5
F10552
330
F10553
100
AcDbEntity
8
Geo
100
AcDbLine
10
-78.6905508971012
20
-5.06750107805564
30
0.000000000000000
11
-78.5905508971012
21
-5.09553577388237
31
0.000000000000000
  0
LINE
  5
F10554
330
F10555
100
AcDbEntity
8
Geo
100
AcDbLine
10
-78.5905508971012
20
-5.09553577388237
30
0.000000000000000
11
-78.4905508971012
21
-5.11978971303921
31
0.000000000000000
  0
LINE
  5
F10556
330
F10557
100
AcDbEntity
8
Geo
100
AcDbLine
10
-78.4905508971012
20
-5.11978971303921
30
0.000000000000000
11
-78.3905508971012
21
-5.14054228521206
31
0.000000000000000
  0
LINE
  5
F10558
330
F10559
100
AcDbEntity
8
Geo
100
AcDbLine
10
-78.3905508971012
20
-5.14054228521206
30
0.000000000000000
11
-78.2905508971012
21
-5.15806672308945
31
0.000000000000000
  0
LINE
  5
F1055A
330
F1055B
100
AcDbEntity
8
Geo
100
AcDbLine
10
-78.2905508971012
20
-5.15806672308945
30
0.000000000000000
11
-78.1905508971012
21
-5.17262938634332
31
0.000000000000000
  0
LINE
  5
F1055C
330
F1055D
100
AcDbEntity
8
Geo
100
AcDbLine
10
-78.1905508971012
20
-5.17262938634332
30
0.000000000000000
11
-78.0905508971012
21
-5.18448912896788
31
0.000000000000000
  0
LINE
  5
F1055E
330
F1055F
100
AcDbEntity
8
Geo
100
AcDbLine
10
-78.0905508971012
20
-5.18448912896788
30
0.000000000000000
11
-77.9905508971012
21
-5.19389674435403
31
0.000000000000000
  0
LINE
  5
F10560
330
F10561
100
AcDbEntity
8
Geo
100
AcDbLine
10
-77.9905508971012
20
-5.19389674435403
30
0.000000000000000
11
-77.8905508971012
21
-5.20109448248178
31
0.000000000000000
  0
LINE
  5
F10562
330
F10563
100
AcDbEntity
8
Geo
100
AcDbLine
10
-77.8905508971012
20
-5.20109448248178
30
0.000000000000000
11
-77.7905508971012
21
-5.20631563365997
31
0.000000000000000
  0
LINE
  5
F10564
330
F10565
100
AcDbEntity
8
Geo
100
AcDbLine
10
-77.7905508971012
20
-5.20631563365997
30
0.000000000000000
11
-77.6905508971012
21
-5.20978417332571
31
0.000000000000000
  0
LINE
  5
F10566
330
F10567
100
AcDbEntity
8
Geo
100
AcDbLine
10
-77.6905508971012
20
-5.20978417332571
30
0.000000000000000
11
-77.5905508971012
21
-5.21171446253102
31
0.000000000000000
  0
LINE
  5
F10568
330
F10569
100
AcDbEntity
8
Geo
100
AcDbLine
10
-77.5905508971012
20
-5.21171446253102
30
0.000000000000000
11
-77.4905508971012
21
-5.21231100851313
31
0.000000000000000
  0
LINE
  5
F1056A
330
F1056B
100
AcDbEntity
8
Geo
100
AcDbLine
10
-89.7905508971012
20
4.78626089107490
30
0.000000000000000
11
-89.6905508971012
21
4.78715691689878
31
0.000000000000000
  0
LINE
  5
F1056C
330
F1056D
100
AcDbEntity
8
Geo
100
AcDbLine
10
-89.6905508971012
20
4.78715691689878
30
0.000000000000000
11
-89.5905508971012
21
4.78064723792617
31
0.000000000000000
  0
LINE
  5
F1056E
330
F1056F
100
AcDbEntity
8
Geo
100
AcDbLine
10
-89.5905508971012
20
4.78064723792617
30
0.000000000000000
11
-89.4905508971012
21
4.76674149693537
31
0.000000000000000
  0
LINE
  5
F10570
330
F10571
100
AcDbEntity
8
Geo
100
AcDbLine
10
-89.4905508971012
20
4.76674149693537
30
0.000000000000000
11
-89.3905508971012
21
4.74546029248092
31
0.000000000000000
  0
LINE
  5
F10572
330
F10573
100
AcDbEntity
8
Geo
100
AcDbLine
10
-89.3905508971012
20
4.74546029248092
30
0.000000000000000
11
-89.2905508971012
21
4.71683514838100
31
0.000000000000000
  0
LINE
  5
F10574
330
F10575
100
AcDbEntity
8
Geo
100
AcDbLine
10
-89.2905508971012
20
4.71683514838100
30
0.000000000000000
11
-89.1905508971012
21
4.68090846702127
31
0.000000000000000
  0
LINE
  5
F10576
330
F10577
100
AcDbEntity
8
Geo
100
AcDbLine
10
-89.1905508971012
20
4.68090846702127
30
0.000000000000000
11
-89.0905508971012
21
4.63773346654420
31
0.000000000000000
  0
LINE
  5
F10578
330
F10579
100
AcDbEntity
8
Geo
100
AcDbLine
10
-89.0905508971012
20
4.63773346654420
30
0.000000000000000
11
-88.9905508971012
21
4.58737410201721
31
0.000000000000000
  0
LINE
  5
F1057A
330
F1057B
100
AcDbEntity
8
Geo
100
AcDbLine
10
-88.9905508971012
20
4.58737410201721
30
0.000000000000000
11
-88.8905508971012
21
4.52990497069603
31
0.000000000000000
  0
LINE
  5
F1057C
330
F1057D
100
AcDbEntity
8
Geo
100
AcDbLine
10
-88.8905508971012
20
4.52990497069603
30
0.000000000000000
11
-88.7905508971012
21
4.46541120152395
31
0.000000000000000
  0
LINE
  5
F1057E
330
F1057F
100
AcDbEntity
8
Geo
100
AcDbLine
10
-88.7905508971012
20
4.46541120152395
30
0.000000000000000
11
-88.6905508971012
21
4.39398832903041
31
0.000000000000000
  0
LINE
  5
F10580
330
F10581
100
AcDbEntity
8
Geo
100
AcDbLine
10
-88.6905508971012
20
4.39398832903041
30
0.000000000000000
11
-88.5905508971012
21
4.31574215181584
31
0.000000000000000
  0
LINE
  5
F10582
330
F10583
100
AcDbEntity
8
Geo
100
AcDbLine
10
-88.5905508971012
20
4.31574215181584
30
0.000000000000000
11
-88.4905508971012
21
4.23078857583235
31
0.000000000000000
  0
LINE
  5
F10584
330
F10585
100
AcDbEntity
8
Geo
100
AcDbLine
10
-88.4905508971012
20
4.23078857583235
30
0.000000000000000
11
-88.3905508971012
21
4.13925344269238
31
0.000000000000000
  0
LINE
  5
F10586
330
F10587
100
AcDbEntity
8
Geo
100
AcDbLine
10
-88.3905508971012
20
4.13925344269238
30
0.000000000000000
11
-88.2905508971012
21
4.04127234325974
31
0.000000000000000
  0
LINE
  5
F10588
330
F10589
100
AcDbEntity
8
Geo
100
AcDbLine
10
-88.2905508971012
20
4.04127234325974
30
0.000000000000000
11
-88.1905508971012
21
3.93699041679900
31
0.000000000000000
  0
LINE
  5
F1058A
330
F1058B
100
AcDbEntity
8
Geo
100
AcDbLine
10
-88.1905508971012
20
3.93699041679900
30
0.000000000000000
11
-88.0905508971012
21
3.82656213598098
31
0.000000000000000
  0
LINE
  5
F1058C
330
F1058D
100
AcDbEntity
8
Geo
100
AcDbLine
10
-88.0905508971012
20
3.82656213598098
30
0.000000000000000
11
-87.9905508971012
21
3.71015107806251
31
0.000000000000000
  0
LINE
  5
F1058E
330
F1058F
100
AcDbEntity
8
Geo
100
AcDbLine
10
-87.9905508971012
20
3.71015107806251
30
0.000000000000000
11
-87.8905508971012
21
3.58792968257973
31
0.000000000000000
  0
LINE
  5
F10590
330
F10591
100
AcDbEntity
8
Geo
100
AcDbLine
10
-87.8905508971012
20
3.58792968257973
30
0.000000000000000
11
-87.7905508971012
21
3.46007899591362
31
0.000000000000000
  0
LINE
  5
F10592
330
F10593
100
AcDbEntity
8
Geo
100
AcDbLine
10
-87.7905508971012
20
3.46007899591362
30
0.000000000000000
11
-87.6905508971012
21
3.32678840310628
31
0.000000000000000
  0
LINE
  5
F10594
330
F10595
100
AcDbEntity
8
Geo
100
AcDbLine
10
-87.6905508971012
20
3.32678840310628
30
0.000000000000000
11
-87.5905508971012
21
3.18825534732510
31
0.000000000000000
  0
LINE
  5
F10596
330
F10597
100
AcDbEntity
8
Geo
100
AcDbLine
10
-87.5905508971012
20
3.18825534732510
30
0.000000000000000
11
-87.4905508971012
21
3.04468503739050
31
0.000000000000000
  0
LINE
  5
F10598
330
F10599
100
AcDbEntity
8
Geo
100
AcDbLine
10
-87.4905508971012
20
3.04468503739050
30
0.000000000000000
11
-87.3905508971012
21
2.89629014380036
31
0.000000000000000
  0
LINE
  5
F1059A
330
F1059B
100
AcDbEntity
8
Geo
100
AcDbLine
10
-87.3905508971012
20
2.89629014380036
30
0.000000000000000
11
-87.2905508971012
21
2.74329048370157
31
0.000000000000000
  0
LINE
  5
F1059C
330
F1059D
100
AcDbEntity
8
Geo
100
AcDbLine
10
-87.2905508971012
20
2.74329048370157
30
0.000000000000000
11
-87.1905508971012
21
2.58591269527513
31
0.000000000000000
  0
LINE
  5
F1059E
330
F1059F
100
AcDbEntity
8
Geo
100
AcDbLine
10
-87.1905508971012
20
2.58591269527513
30
0.000000000000000
11
-87.0905508971012
21
2.42438990201738
31
0.000000000000000
  0
LINE
  5
F105A0
330
F105A1
100
AcDbEntity
8
Geo
100
AcDbLine
10
-87.0905508971012
20
2.42438990201738
30
0.000000000000000
11
-86.9905508971012
21
2.25896136741449
31
0.000000000000000
  0
LINE
  5
F105A2
330
F105A3
100
AcDbEntity
8
Geo
100
AcDbLine
10
-86.9905508971012
20
2.25896136741449
30
0.000000000000000
11
-86.8905508971012
21
2.08987214052176
31
0.000000000000000
  0
LINE
  5
F105A4
330
F105A5
100
AcDbEntity
8
Geo
100
AcDbLine
10
-86.8905508971012
20
2.08987214052176
30
0.000000000000000
11
-86.7905508971012
21
1.91737269297284
31
0.000000000000000
  0
LINE
  5
F105A6
330
F105A7
100
AcDbEntity
8
Geo
100
AcDbLine
10
-86.7905508971012
20
1.91737269297284
30
0.000000000000000
11
-86.6905508971012
21
1.74171854795644
31
0.000000000000000
  0
LINE
  5
F105A8
330
F105A9
100
AcDbEntity
8
Geo
100
AcDbLine
10
-86.6905508971012
20
1.74171854795644
30
0.000000000000000
11
-86.5905508971013
21
1.56316990171016
31
0.000000000000000
  0
LINE
  5
F105AA
330
F105AB
100
AcDbEntity
8
Geo
100
AcDbLine
10
-86.5905508971013
20
1.56316990171016
30
0.000000000000000
11
-86.4905508971012
21
1.38199123809221
31
0.000000000000000
  0
LINE
  5
F105AC
330
F105AD
100
AcDbEntity
8
Geo
100
AcDbLine
10
-86.4905508971012
20
1.38199123809221
30
0.000000000000000
11
-86.3905508971012
21
1.19845093680184
31
0.000000000000000
  0
LINE
  5
F105AE
330
F105AF
100
AcDbEntity
8
Geo
100
AcDbLine
10
-86.3905508971012
20
1.19845093680184
30
0.000000000000000
11
-86.2905508971012
21
1.01282087582884
31
0.000000000000000
  0
LINE
  5
F105B0
330
F105B1
100
AcDbEntity
8
Geo
100
AcDbLine
10
-86.2905508971012
20
1.01282087582884
30
0.000000000000000
11
-86.1905508971012
21
0.825376028721080
31
0.000000000000000
  0
LINE
  5
F105B2
330
F105B3
100
AcDbEntity
8
Geo
100
AcDbLine
10
-86.1905508971012
20
0.825376028721080
30
0.000000000000000
11
-86.0905508971013
21
0.636394057266583
31
0.000000000000000
  0
LINE
  5
F105B4
330
F105B5
100
AcDbEntity
8
Geo
100
AcDbLine
10
-86.0905508971013
20
0.636394057266583
30
0.000000000000000
11
-85.9905508971012
21
0.446154900193493
31
0.000000000000000
  0
LINE
  5
F105B6
330
F105B7
100
AcDbEntity
8
Geo
100
AcDbLine
10
-85.9905508971012
20
0.446154900193493
30
0.000000000000000
11
-85.8905508971012
21
0.254940358497242
31
0.000000000000000
  0
LINE
  5
F105B8
330
F105B9
100
AcDbEntity
8
Geo
100
AcDbLine
10
-85.8905508971012
20
0.254940358497242
30
0.000000000000000
11
-85.7905508971012
21
0.0630336780091316
31
0.000000000000000
  0
LINE
  5
F105BA
330
F105BB
100
AcDbEntity
8
Geo
100
AcDbLine
10
-85.7905508971012
20
0.0630336780091316
30
0.000000000000000
11
-85.6905508971012
21
-0.129280870175319
31
0.000000000000000
  0
LINE
  5
F105BC
330
F105BD
100
AcDbEntity
8
Geo
100
AcDbLine
10
-85.6905508971012
20
-0.129280870175319
30
0.000000000000000
11
-85.5905508971013
21
-0.321718410786751
31
0.000000000000000
  0
LINE
  5
F105BE
330
F105BF
100
AcDbEntity
8
Geo
100
AcDbLine
10
-85.5905508971013
20
-0.321718410786751
30
0.000000000000000
11
-85.4905508971012
21
-0.513993886367284
31
0.000000000000000
  0
LINE
  5
F105C0
330
F105C1
100
AcDbEntity
8
Geo
100
AcDbLine
10
-85.4905508971012
20
-0.513993886367284
30
0.000000000000000
11
-85.3905508971012
21
-0.705822479525752
31
0.000000000000000
  0
LINE
  5
F105C2
330
F105C3
100
AcDbEntity
8
Geo
100
AcDbLine
10
-85.3905508971012
20
-0.705822479525752
30
0.000000000000000
11
-85.2905508971013
21
-0.896920034837289
31
0.000000000000000
  0
LINE
  5
F105C4
330
F105C5
100
AcDbEntity
8
Geo
100
AcDbLine
10
-85.2905508971013
20
-0.896920034837289
30
0.000000000000000
11
-85.1905508971012
21
-1.08700347976236
31
0.000000000000000
  0
LINE
  5
F105C6
330
F105C7
100
AcDbEntity
8
Geo
100
AcDbLine
10
-85.1905508971012
20
-1.08700347976236
30
0.000000000000000
11
-85.0905508971013
21
-1.27579124396171
31
0.000000000000000
  0
LINE
  5
F105C8
330
F105C9
100
AcDbEntity
8
Geo
100
AcDbLine
10
-85.0905508971013
20
-1.27579124396171
30
0.000000000000000
11
-84.9905508971013
21
-1.46300367638614
31
0.000000000000000
  0
LINE
  5
F105CA
330
F105CB
100
AcDbEntity
8
Geo
100
AcDbLine
10
-84.9905508971013
20
-1.46300367638614
30
0.000000000000000
11
-84.8905508971012
21
-1.64836345952317
31
0.000000000000000
  0
LINE
  5
F105CC
330
F105CD
100
AcDbEntity
8
Geo
100
AcDbLine
10
-84.8905508971012
20
-1.64836345952317
30
0.000000000000000
11
-84.7905508971013
21
-1.83159602018710
31
0.000000000000000
  0
LINE
  5
F105CE
330
F105CF
100
AcDbEntity
8
Geo
100
AcDbLine
10
-84.7905508971013
20
-1.83159602018710
30
0.000000000000000
11
-84.6905508971012
21
-2.01242993624390
31
0.000000000000000
  0
LINE
  5
F105D0
330
F105D1
100
AcDbEntity
8
Geo
100
AcDbLine
10
-84.6905508971012
20
-2.01242993624390
30
0.000000000000000
11
-84.5905508971013
21
-2.19059733866840
31
0.000000000000000
  0
LINE
  5
F105D2
330
F105D3
100
AcDbEntity
8
Geo
100
AcDbLine
10
-84.5905508971013
20
-2.19059733866840
30
0.000000000000000
11
-84.4905508971013
21
-2.36583430833833
31
0.000000000000000
  0
LINE
  5
F105D4
330
F105D5
100
AcDbEntity
8
Geo
100
AcDbLine
10
-84.4905508971013
20
-2.36583430833833
30
0.000000000000000
11
-84.3905508971012
21
-2.53788126697733
31
0.000000000000000
  0
LINE
  5
F105D6
330
F105D7
100
AcDbEntity
8
Geo
100
AcDbLine
10
-84.3905508971012
20
-2.53788126697733
30
0.000000000000000
11
-84.2905508971013
21
-2.70648336166788
31
0.000000000000000
  0
LINE
  5
F105D8
330
F105D9
100
AcDbEntity
8
Geo
100
AcDbLine
10
-84.2905508971013
20
-2.70648336166788
30
0.000000000000000
11
-84.1905508971012
21
-2.87139084236458
31
0.000000000000000
  0
LINE
  5
F105DA
330
F105DB
100
AcDbEntity
8
Geo
100
AcDbLine
10
-84.1905508971012
20
-2.87139084236458
30
0.000000000000000
11
-84.0905508971013
21
-3.03235943184853
31
0.000000000000000
  0
LINE
  5
F105DC
330
F105DD
100
AcDbEntity
8
Geo
100
AcDbLine
10
-84.0905508971013
20
-3.03235943184853
30
0.000000000000000
11
-83.9905508971013
21
-3.18915068757486
31
0.000000000000000
  0
LINE
  5
F105DE
330
F105DF
100
AcDbEntity
8
Geo
100
AcDbLine
10
-83.9905508971013
20
-3.18915068757486
30
0.000000000000000
11
-83.8905508971012
21
-3.34153235487728
31
0.000000000000000
  0
LINE
  5
F105E0
330
F105E1
100
AcDbEntity
8
Geo
100
AcDbLine
10
-83.8905508971012
20
-3.34153235487728
30
0.000000000000000
11
-83.7905508971013
21
-3.48927871100663
31
0.000000000000000
  0
LINE
  5
F105E2
330
F105E3
100
AcDbEntity
8
Geo
100
AcDbLine
10
-83.7905508971013
20
-3.48927871100663
30
0.000000000000000
11
-83.6905508971013
21
-3.63217089949367
31
0.000000000000000
  0
LINE
  5
F105E4
330
F105E5
100
AcDbEntity
8
Geo
100
AcDbLine
10
-83.6905508971013
20
-3.63217089949367
30
0.000000000000000
11
-83.5905508971013
21
-3.76999725434087
31
0.000000000000000
  0
LINE
  5
F105E6
330
F105E7
100
AcDbEntity
8
Geo
100
AcDbLine
10
-83.5905508971013
20
-3.76999725434087
30
0.000000000000000
11
-83.4905508971013
21
-3.90255361356288
31
0.000000000000000
  0
LINE
  5
F105E8
330
F105E9
100
AcDbEntity
8
Geo
100
AcDbLine
10
-83.4905508971013
20
-3.90255361356288
30
0.000000000000000
11
-83.3905508971013
21
-4.02964362161149
31
0.000000000000000
  0
LINE
  5
F105EA
330
F105EB
100
AcDbEntity
8
Geo
100
AcDbLine
10
-83.3905508971013
20
-4.02964362161149
30
0.000000000000000
11
-83.2905508971013
21
-4.15107902023680
31
0.000000000000000
  0
LINE
  5
F105EC
330
F105ED
100
AcDbEntity
8
Geo
100
AcDbLine
10
-83.2905508971013
20
-4.15107902023680
30
0.000000000000000
11
-83.1905508971013
21
-4.26667992735383
31
0.000000000000000
  0
LINE
  5
F105EE
330
F105EF
100
AcDbEntity
8
Geo
100
AcDbLine
10
-83.1905508971013
20
-4.26667992735383
30
0.000000000000000
11
-83.0905508971013
21
-4.37627510350170
31
0.000000000000000
  0
LINE
  5
F105F0
330
F105F1
100
AcDbEntity
8
Geo
100
AcDbLine
10
-83.0905508971013
20
-4.37627510350170
30
0.000000000000000
11
-82.9905508971013
21
-4.47970220550033
31
0.000000000000000
  0
LINE
  5
F105F2
330
F105F3
100
AcDbEntity
8
Geo
100
AcDbLine
10
-82.9905508971013
20
-4.47970220550033
30
0.000000000000000
11
-82.8905508971013
21
-4.57680802692922
31
0.000000000000000
  0
LINE
  5
F105F4
330
F105F5
100
AcDbEntity
8
Geo
100
AcDbLine
10
-82.8905508971013
20
-4.57680802692922
30
0.000000000000000
11
-82.7905508971013
21
-4.66744872507183
31
0.000000000000000
  0
LINE
  5
F105F6
330
F105F7
100
AcDbEntity
8
Geo
100
AcDbLine
10
-82.7905508971013
20
-4.66744872507183
30
0.000000000000000
11
-82.6905508971013
21
-4.75149003398968
31
0.000000000000000
  0
LINE
  5
F105F8
330
F105F9
100
AcDbEntity
8
Geo
100
AcDbLine
10
-82.6905508971013
20
-4.75149003398968
30
0.000000000000000
11
-82.5905508971013
21
-4.82880746341023
31
0.000000000000000
  0
LINE
  5
F105FA
330
F105FB
100
AcDbEntity
8
Geo
100
AcDbLine
10
-82.5905508971013
20
-4.82880746341023
30
0.000000000000000
11
-82.4905508971013
21
-4.89928648313417
31
0.000000000000000
  0
LINE
  5
F105FC
330
F105FD
100
AcDbEntity
8
Geo
100
AcDbLine
10
-82.4905508971013
20
-4.89928648313417
30
0.000000000000000
11
-82.3905508971013
21
-4.96282269268886
31
0.000000000000000
  0
LINE
  5
F105FE
330
F105FF
100
AcDbEntity
8
Geo
100
AcDbLine
10
-82.3905508971013
20
-4.96282269268886
30
0.000000000000000
11
-82.2905508971013
21
-5.01932197597657
31
0.000000000000000
  0
LINE
  5
F10600
330
F10601
100
AcDbEntity
8
Geo
100
AcDbLine
10
-82.2905508971013
20
-5.01932197597657
30
0.000000000000000
11
-82.1905508971013
21
-5.06870064068853
31
0.000000000000000
  0
LINE
  5
F10602
330
F10603
100
AcDbEntity
8
Geo
100
AcDbLine
10
-82.1905508971013
20
-5.06870064068853
30
0.000000000000000
11
-82.0905508971013
21
-5.11088554227826
31
0.000000000000000
  0
LINE
  5
F10604
330
F10605
100
AcDbEntity
8
Geo
100
AcDbLine
10
-82.0905508971013
20
-5.11088554227826
30
0.000000000000000
11
-81.9905508971013
21
-5.14581419231045
31
0.000000000000000
  0
LINE
  5
F10606
330
F10607
100
AcDbEntity
8
Geo
100
AcDbLine
10
-81.9905508971013
20
-5.14581419231045
30
0.000000000000000
11
-81.8905508971013
21
-5.17343485102500
31
0.000000000000000
  0
LINE
  5
F10608
330
F10609
100
AcDbEntity
8
Geo
100
AcDbLine
10
-81.8905508971013
20
-5.17343485102500
30
0.000000000000000
11
-81.7905508971013
21
-5.19370660397906
31
0.000000000000000
  0
LINE
  5
F1060A
330
F1060B
100
AcDbEntity
8
Geo
100
AcDbLine
10
-81.7905508971013
20
-5.19370660397906
30
0.000000000000000
11
-81.6905508971013
21
-5.20659942265353
31
0.000000000000000
  0
LINE
  5
F1060C
330
F1060D
100
AcDbEntity
8
Geo
100
AcDbLine
10
-81.6905508971013
20
-5.20659942265353
30
0.000000000000000
11
-81.5905508971013
21
-5.21209420893426
31
0.000000000000000
  0
LINE
  5
F1060E
330
F1060F
100
AcDbEntity
8
Geo
100
AcDbLine
10
-90.5905508971012
20
4.78690913924642
30
0.000000000000000
11
-90.4905508971012
21
4.78660452300374
31
0.000000000000000
  0
LINE
  5
F10610
330
F10611
100
AcDbEntity
8
Geo
100
AcDbLine
10
-90.4905508971012
20
4.78660452300374
30
0.000000000000000
11
-90.3905508971012
21
4.77889502022488
31
0.000000000000000
  0
LINE
  5
F10612
330
F10613
100
AcDbEntity
8
Geo
100
AcDbLine
10
-90.3905508971012
20
4.77889502022488
30
0.000000000000000
11
-90.2905508971012
21
4.76379205098544
31
0.000000000000000
  0
LINE
  5
F10614
330
F10615
100
AcDbEntity
8
Geo
100
AcDbLine
10
-90.2905508971012
20
4.76379205098544
30
0.000000000000000
11
-90.1905508971012
21
4.74131798729247
31
0.000000000000000
  0
LINE
  5
F10616
330
F10617
100
AcDbEntity
8
Geo
100
AcDbLine
10
-90.1905508971012
20
4.74131798729247
30
0.000000000000000
11
-90.0905508971012
21
4.71150611994489
31
0.000000000000000
  0
LINE
  5
F10618
330
F10619
100
AcDbEntity
8
Geo
100
AcDbLine
10
-90.0905508971012
20
4.71150611994489
30
0.000000000000000
11
-89.9905508971012
21
4.67440060921980
31
0.000000000000000
  0
LINE
  5
F1061A
330
F1061B
100
AcDbEntity
8
Geo
100
AcDbLine
10
-89.9905508971012
20
4.67440060921980
30
0.000000000000000
11
-89.8905508971012
21
4.63005641945798
31
0.000000000000000
  0
LINE
  5
F1061C
330
F1061D
100
AcDbEntity
8
Geo
100
AcDbLine
10
-89.8905508971012
20
4.63005641945798
30
0.000000000000000
11
-89.7905508971012
21
4.57853923764526
31
0.000000000000000
  0
LINE
  5
F1061E
330
F1061F
100
AcDbEntity
8
Geo
100
AcDbLine
10
-89.7905508971012
20
4.57853923764526
30
0.000000000000000
11
-89.6905508971012
21
4.51992537611051
31
0.000000000000000
  0
LINE
  5
F10620
330
F10621
100
AcDbEntity
8
Geo
100
AcDbLine
10
-89.6905508971012
20
4.51992537611051
30
0.000000000000000
11
-89.5905508971012
21
4.45430165948427
31
0.000000000000000
  0
LINE
  5
F10622
330
F10623
100
AcDbEntity
8
Geo
100
AcDbLine
10
-89.5905508971012
20
4.45430165948427
30
0.000000000000000
11
-89.4905508971012
21
4.38176529608554
31
0.000000000000000
  0
LINE
  5
F10624
330
F10625
100
AcDbEntity
8
Geo
100
AcDbLine
10
-89.4905508971012
20
4.38176529608554
30
0.000000000000000
11
-89.3905508971012
21
4.30242373392727
31
0.000000000000000
  0
LINE
  5
F10626
330
F10627
100
AcDbEntity
8
Geo
100
AcDbLine
10
-89.3905508971012
20
4.30242373392727
30
0.000000000000000
11
-89.2905508971012
21
4.21639450155373
31
0.000000000000000
  0
LINE
  5
F10628
330
F10629
100
AcDbEntity
8
Geo
100
AcDbLine
10
-89.2905508971012
20
4.21639450155373
30
0.000000000000000
11
-89.1905508971012
21
4.12380503394567
31
0.000000000000000
  0
LINE
  5
F1062A
330
F1062B
100
AcDbEntity
8
Geo
100
AcDbLine
10
-89.1905508971012
20
4.12380503394567
30
0.000000000000000
11
-89.0905508971012
21
4.02479248375106
31
0.000000000000000
  0
LINE
  5
F1062C
330
F1062D
100
AcDbEntity
8
Geo
100
AcDbLine
10
-89.0905508971012
20
4.02479248375106
30
0.000000000000000
11
-88.9905508971012
21
3.91950351812104
31
0.000000000000000
  0
LINE
  5
F1062E
330
F1062F
100
AcDbEntity
8
Geo
100
AcDbLine
10
-88.9905508971012
20
3.91950351812104
30
0.000000000000000
11
-88.8905508971012
21
3.80809410145211
31
0.000000000000000
  0
LINE
  5
F10630
330
F10631
100
AcDbEntity
8
Geo
100
AcDbLine
10
-88.8905508971012
20
3.80809410145211
30
0.000000000000000
11
-88.7905508971012
21
3.69072926435627
31
0.000000000000000
  0
LINE
  5
F10632
330
F10633
100
AcDbEntity
8
Geo
100
AcDbLine
10
-88.7905508971012
20
3.69072926435627
30
0.000000000000000
11
-88.6905508971012
21
3.56758285920141
31
0.000000000000000
  0
LINE
  5
F10634
330
F10635
100
AcDbEntity
8
Geo
100
AcDbLine
10
-88.6905508971012
20
3.56758285920141
30
0.000000000000000
11
-88.5905508971012
21
3.43883730258403
31
0.000000000000000
  0
LINE
  5
F10636
330
F10637
100
AcDbEntity
8
Geo
100
AcDbLine
10
-88.5905508971012
20
3.43883730258403
30
0.000000000000000
11
-88.4905508971012
21
3.30468330511583
31
0.000000000000000
  0
LINE
  5
F10638
330
F10639
100
AcDbEntity
8
Geo
100
AcDbLine
10
-88.4905508971012
20
3.30468330511583
30
0.000000000000000
11
-88.3905508971012
21
3.16531958892432
31
0.000000000000000
  0
LINE
  5
F1063A
330
F1063B
100
AcDbEntity
8
Geo
100
AcDbLine
10
-88.3905508971012
20
3.16531958892432
30
0.000000000000000
11
-88.2905508971012
21
3.02095259328599
31
0.000000000000000
  0
LINE
  5
F1063C
330
F1063D
100
AcDbEntity
8
Geo
100
AcDbLine
10
-88.2905508971012
20
3.02095259328599
30
0.000000000000000
11
-88.1905508971012
21
2.87179616882815
31
0.000000000000000
  0
LINE
  5
F1063E
330
F1063F
100
AcDbEntity
8
Geo
100
AcDbLine
10
-88.1905508971012
20
2.87179616882815
30
0.000000000000000
11
-88.0905508971012
21
2.71807126075229
31
0.000000000000000
  0
LINE
  5
F10640
330
F10641
100
AcDbEntity
8
Geo
100
AcDbLine
10
-88.0905508971012
20
2.71807126075229
30
0.000000000000000
11
-87.9905508971012
21
2.56000558154822
31
0.000000000000000
  0
LINE
  5
F10642
330
F10643
100
AcDbEntity
8
Geo
100
AcDbLine
10
-87.9905508971012
20
2.56000558154822
30
0.000000000000000
11
-87.8905508971012
21
2.39783327368391
31
0.000000000000000
  0
LINE
  5
F10644
330
F10645
100
AcDbEntity
8
Geo
100
AcDbLine
10
-87.8905508971012
20
2.39783327368391
30
0.000000000000000
11
-87.7905508971012
21
2.23179456277061
31
0.000000000000000
  0
LINE
  5
F10646
330
F10647
100
AcDbEntity
8
Geo
100
AcDbLine
10
-87.7905508971012
20
2.23179456277061
30
0.000000000000000
11
-87.6905508971012
21
2.06213540171693
31
0.000000000000000
  0
LINE
  5
F10648
330
F10649
100
AcDbEntity
8
Geo
100
AcDbLine
10
-87.6905508971012
20
2.06213540171693
30
0.000000000000000
11
-87.5905508971012
21
1.88910710639918
31
0.000000000000000
  0
LINE
  5
F1064A
330
F1064B
100
AcDbEntity
8
Geo
100
AcDbLine
10
-87.5905508971012
20
1.88910710639918
30
0.000000000000000
11
-87.4905508971012
21
1.71296598338753
31
0.000000000000000
  0
LINE
  5
F1064C
330
F1064D
100
AcDbEntity
8
Geo
100
AcDbLine
10
-87.4905508971012
20
1.71296598338753
30
0.000000000000000
11
-87.3905508971012
21
1.53397295027940
31
0.000000000000000
  0
LINE
  5
F1064E
330
F1064F
100
AcDbEntity
8
Geo
100
AcDbLine
10
-87.3905508971012
20
1.53397295027940
30
0.000000000000000
11
-87.2905508971012
21
1.35239314920264
31
0.000000000000000
  0
LINE
  5
F10650
330
F10651
100
AcDbEntity
8
Geo
100
AcDbLine
10
-87.2905508971012
20
1.35239314920264
30
0.000000000000000
11
-87.1905508971012
21
1.16849555406084
31
0.000000000000000
  0
LINE
  5
F10652
330
F10653
100
AcDbEntity
8
Geo
100
AcDbLine
10
-87.1905508971012
20
1.16849555406084
30
0.000000000000000
11
-87.0905508971012
21
0.982552572102673
31
0.000000000000000
  0
LINE
  5
F10654
330
F10655
100
AcDbEntity
8
Geo
100
AcDbLine
10
-87.0905508971012
20
0.982552572102673
30
0.000000000000000
11
-86.9905508971012
21
0.794839640405430
31
0.000000000000000
  0
LINE
  5
F10656
330
F10657
100
AcDbEntity
8
Geo
100
AcDbLine
10
-86.9905508971012
20
0.794839640405430
30
0.000000000000000
11
-86.8905508971012
21
0.605634817870450
31
0.000000000000000
  0
LINE
  5
F10658
330
F10659
100
AcDbEntity
8
Geo
100
AcDbLine
10
-86.8905508971012
20
0.605634817870450
30
0.000000000000000
11
-86.7905508971012
21
0.415218373334871
31
0.000000000000000
  0
LINE
  5
F1065A
330
F1065B
100
AcDbEntity
8
Geo
100
AcDbLine
10
-86.7905508971012
20
0.415218373334871
30
0.000000000000000
11
-86.6905508971012
21
0.223872370409796
31
0.000000000000000
  0
LINE
  5
F1065C
330
F1065D
100
AcDbEntity
8
Geo
100
AcDbLine
10
-86.6905508971012
20
0.223872370409796
30
0.000000000000000
11
-86.5905508971013
21
0.0318802496598578
31
0.000000000000000
  0
LINE
  5
F1065E
330
F1065F
100
AcDbEntity
8
Geo
100
AcDbLine
10
-86.5905508971013
20
0.0318802496598578
30
0.000000000000000
11
-86.4905508971012
21
-0.160473591256889
31
0.000000000000000
  0
LINE
  5
F10660
330
F10661
100
AcDbEntity
8
Geo
100
AcDbLine
10
-86.4905508971012
20
-0.160473591256889
30
0.000000000000000
11
-86.3905508971012
21
-0.352904218866803
31
0.000000000000000
  0
LINE
  5
F10662
330
F10663
100
AcDbEntity
8
Geo
100
AcDbLine
10
-86.3905508971012
20
-0.352904218866803
30
0.000000000000000
11
-86.2905508971012
21
-0.545126585952237
31
0.000000000000000
  0
LINE
  5
F10664
330
F10665
100
AcDbEntity
8
Geo
100
AcDbLine
10
-86.2905508971012
20
-0.545126585952237
30
0.000000000000000
11
-86.1905508971012
21
-0.736855953791559
31
0.000000000000000
  0
LINE
  5
F10666
330
F10667
100
AcDbEntity
8
Geo
100
AcDbLine
10
-86.1905508971012
20
-0.736855953791559
30
0.000000000000000
11
-86.0905508971013
21
-0.927808313942228
31
0.000000000000000
  0
LINE
  5
F10668
330
F10669
100
AcDbEntity
8
Geo
100
AcDbLine
10
-86.0905508971013
20
-0.927808313942228
30
0.000000000000000
11
-85.9905508971012
21
-1.11770080894209
31
0.000000000000000
  0
LINE
  5
F1066A
330
F1066B
100
AcDbEntity
8
Geo
100
AcDbLine
10
-85.9905508971012
20
-1.11770080894209
30
0.000000000000000
11
-85.8905508971012
21
-1.30625215130577
31
0.000000000000000
  0
LINE
  5
F1066C
330
F1066D
100
AcDbEntity
8
Geo
100
AcDbLine
10
-85.8905508971012
20
-1.30625215130577
30
0.000000000000000
11
-85.7905508971012
21
-1.49318304019537
31
0.000000000000000
  0
LINE
  5
F1066E
330
F1066F
100
AcDbEntity
8
Geo
100
AcDbLine
10
-85.7905508971012
20
-1.49318304019537
30
0.000000000000000
11
-85.6905508971012
21
-1.67821657514847
31
0.000000000000000
  0
LINE
  5
F10670
330
F10671
100
AcDbEntity
8
Geo
100
AcDbLine
10
-85.6905508971012
20
-1.67821657514847
30
0.000000000000000
11
-85.5905508971013
21
-1.86107866625035
31
0.000000000000000
  0
LINE
  5
F10672
330
F10673
100
AcDbEntity
8
Geo
100
AcDbLine
10
-85.5905508971013
20
-1.86107866625035
30
0.000000000000000
11
-85.4905508971012
21
-2.04149844014299
31
0.000000000000000
  0
LINE
  5
F10674
330
F10675
100
AcDbEntity
8
Geo
100
AcDbLine
10
-85.4905508971012
20
-2.04149844014299
30
0.000000000000000
11
-85.3905508971012
21
-2.21920864126946
31
0.000000000000000
  0
LINE
  5
F10676
330
F10677
100
AcDbEntity
8
Geo
100
AcDbLine
10
-85.3905508971012
20
-2.21920864126946
30
0.000000000000000
11
-85.2905508971013
21
-2.39394602775911
31
0.000000000000000
  0
LINE
  5
F10678
330
F10679
100
AcDbEntity
8
Geo
100
AcDbLine
10
-85.2905508971013
20
-2.39394602775911
30
0.000000000000000
11
-85.1905508971012
21
-2.56545176136744
31
0.000000000000000
  0
LINE
  5
F1067A
330
F1067B
100
AcDbEntity
8
Geo
100
AcDbLine
10
-85.1905508971012
20
-2.56545176136744
30
0.000000000000000
11
-85.0905508971013
21
-2.73347179089281
31
0.000000000000000
  0
LINE
  5
F1067C
330
F1067D
100
AcDbEntity
8
Geo
100
AcDbLine
10
-85.0905508971013
20
-2.73347179089281
30
0.000000000000000
11
-84.9905508971013
21
-2.89775722850214
31
0.000000000000000
  0
LINE
  5
F1067E
330
F1067F
100
AcDbEntity
8
Geo
100
AcDbLine
10
-84.9905508971013
20
-2.89775722850214
30
0.000000000000000
11
-84.8905508971012
21
-3.05806471840807
31
0.000000000000000
  0
LINE
  5
F10680
330
F10681
100
AcDbEntity
8
Geo
100
AcDbLine
10
-84.8905508971012
20
-3.05806471840807
30
0.000000000000000
11
-84.7905508971013
21
-3.21415679735160
31
0.000000000000000
  0
LINE
  5
F10682
330
F10683
100
AcDbEntity
8
Geo
100
AcDbLine
10
-84.7905508971013
20
-3.21415679735160
30
0.000000000000000
11
-84.6905508971012
21
-3.36580224635602
31
0.000000000000000
  0
LINE
  5
F10684
330
F10685
100
AcDbEntity
8
Geo
100
AcDbLine
10
-84.6905508971012
20
-3.36580224635602
30
0.000000000000000
11
-84.5905508971013
21
-3.51277643323132
31
0.000000000000000
  0
LINE
  5
F10686
330
F10687
100
AcDbEntity
8
Geo
100
AcDbLine
10
-84.5905508971013
20
-3.51277643323132
30
0.000000000000000
11
-84.4905508971013
21
-3.65486164532147
31
0.000000000000000
  0
LINE
  5
F10688
330
F10689
100
AcDbEntity
8
Geo
100
AcDbLine
10
-84.4905508971013
20
-3.65486164532147
30
0.000000000000000
11
-84.3905508971012
21
-3.79184741200193
31
0.000000000000000
  0
LINE
  5
F1068A
330
F1068B
100
AcDbEntity
8
Geo
100
AcDbLine
10
-84.3905508971012
20
-3.79184741200193
30
0.000000000000000
11
-84.2905508971013
21
-3.92353081644944
31
0.000000000000000
  0
LINE
  5
F1068C
330
F1068D
100
AcDbEntity
8
Geo
100
AcDbLine
10
-84.2905508971013
20
-3.92353081644944
30
0.000000000000000
11
-84.1905508971012
21
-4.04971679622247
31
0.000000000000000
  0
LINE
  5
F1068E
330
F1068F
100
AcDbEntity
8
Geo
100
AcDbLine
10
-84.1905508971012
20
-4.04971679622247
30
0.000000000000000
11
-84.0905508971013
21
-4.17021843220690
31
0.000000000000000
  0
LINE
  5
F10690
330
F10691
100
AcDbEntity
8
Geo
100
AcDbLine
10
-84.0905508971013
20
-4.17021843220690
30
0.000000000000000
11
-83.9905508971013
21
-4.28485722549907
31
0.000000000000000
  0
LINE
  5
F10692
330
F10693
100
AcDbEntity
8
Geo
100
AcDbLine
10
-83.9905508971013
20
-4.28485722549907
30
0.000000000000000
11
-83.8905508971012
21
-4.39346336181593
31
0.000000000000000
  0
LINE
  5
F10694
330
F10695
100
AcDbEntity
8
Geo
100
AcDbLine
10
-83.8905508971012
20
-4.39346336181593
30
0.000000000000000
11
-83.7905508971013
21
-4.49587596304073
31
0.000000000000000
  0
LINE
  5
F10696
330
F10697
100
AcDbEntity
8
Geo
100
AcDbLine
10
-83.7905508971013
20
-4.49587596304073
30
0.000000000000000
11
-83.6905508971013
21
-4.59194332553151
31
0.000000000000000
  0
LINE
  5
F10698
330
F10699
100
AcDbEntity
8
Geo
100
AcDbLine
10
-83.6905508971013
20
-4.59194332553151
30
0.000000000000000
11
-83.5905508971013
21
-4.68152314483952
31
0.000000000000000
  0
LINE
  5
F1069A
330
F1069B
100
AcDbEntity
8
Geo
100
AcDbLine
10
-83.5905508971013
20
-4.68152314483952
30
0.000000000000000
11
-83.4905508971013
21
-4.76448272650458
31
0.000000000000000
  0
LINE
  5
F1069C
330
F1069D
100
AcDbEntity
8
Geo
100
AcDbLine
10
-83.4905508971013
20
-4.76448272650458
30
0.000000000000000
11
-83.3905508971013
21
-4.84069918261522
31
0.000000000000000
  0
LINE
  5
F1069E
330
F1069F
100
AcDbEntity
8
Geo
100
AcDbLine
10
-83.3905508971013
20
-4.84069918261522
30
0.000000000000000
11
-83.2905508971013
21
-4.91005961384235
31
0.000000000000000
  0
LINE
  5
F106A0
330
F106A1
100
AcDbEntity
8
Geo
100
AcDbLine
10
-83.2905508971013
20
-4.91005961384235
30
0.000000000000000
11
-83.1905508971013
21
-4.97246127667688
31
0.000000000000000
  0
LINE
  5
F106A2
330
F106A3
100
AcDbEntity
8
Geo
100
AcDbLine
10
-83.1905508971013
20
-4.97246127667688
30
0.000000000000000
11
-83.0905508971013
21
-5.02781173562354
31
0.000000000000000
  0
LINE
  5
F106A4
330
F106A5
100
AcDbEntity
8
Geo
100
AcDbLine
10
-83.0905508971013
20
-5.02781173562354
30
0.000000000000000
11
-82.9905508971013
21
-5.07602900012545
31
0.000000000000000
  0
LINE
  5
F106A6
330
F106A7
100
AcDbEntity
8
Geo
100
AcDbLine
10
-82.9905508971013
20
-5.07602900012545
30
0.000000000000000
11
-82.8905508971013
21
-5.11704164601661
31
0.000000000000000
  0
LINE
  5
F106A8
330
F106A9
100
AcDbEntity
8
Geo
100
AcDbLine
10
-82.8905508971013
20
-5.11704164601661
30
0.000000000000000
11
-82.7905508971013
21
-5.15078892132244
31
0.000000000000000
  0
LINE
  5
F106AA
330
F106AB
100
AcDbEntity
8
Geo
100
AcDbLine
10
-82.7905508971013
20
-5.15078892132244
30
0.000000000000000
11
-82.6905508971013
21
-5.17722083625154
31
0.000000000000000
  0
LINE
  5
F106AC
330
F106AD
100
AcDbEntity
8
Geo
100
AcDbLine
10
-82.6905508971013
20
-5.17722083625154
30
0.000000000000000
11
-82.5905508971013
21
-5.19629823724558
31
0.000000000000000
  0
LINE
  5
F106AE
330
F106AF
100
AcDbEntity
8
Geo
100
AcDbLine
10
-82.5905508971013
20
-5.19629823724558
30
0.000000000000000
11
-82.4905508971013
21
-5.20799286497731
31
0.000000000000000
  0
LINE
  5
F106B0
330
F106B1
100
AcDbEntity
8
Geo
100
AcDbLine
10
-82.4905508971013
20
-5.20799286497731
30
0.000000000000000
11
-82.3905508971013
21
-5.21228739621115
31
0.000000000000000
  0
LINE
  5
F106B2
330
F106B3
100
AcDbEntity
8
Geo
100
AcDbLine
10
-93.8905508971012
20
4.78525627373767
30
0.000000000000000
11
-93.7905508971012
21
4.78755597107041
31
0.000000000000000
  0
LINE
  5
F106B4
330
F106B5
100
AcDbEntity
8
Geo
100
AcDbLine
10
-93.7905508971012
20
4.78755597107041
30
0.000000000000000
11
-93.6905508971012
21
4.78244937248827
31
0.000000000000000
  0
LINE
  5
F106B6
330
F106B7
100
AcDbEntity
8
Geo
100
AcDbLine
10
-93.6905508971012
20
4.78244937248827
30
0.000000000000000
11
-93.5905508971012
21
4.76994404238855
31
0.000000000000000
  0
LINE
  5
F106B8
330
F106B9
100
AcDbEntity
8
Geo
100
AcDbLine
10
-93.5905508971012
20
4.76994404238855
30
0.000000000000000
11
-93.4905508971012
21
4.75005850489912
31
0.000000000000000
  0
LINE
  5
F106BA
330
F106BB
100
AcDbEntity
8
Geo
100
AcDbLine
10
-93.4905508971012
20
4.75005850489912
30
0.000000000000000
11
-93.3905508971012
21
4.72282221643864
31
0.000000000000000
  0
LINE
  5
F106BC
330
F106BD
100
AcDbEntity
8
Geo
100
AcDbLine
10
-93.3905508971012
20
4.72282221643864
30
0.000000000000000
11
-93.2905508971012
21
4.68827552208286
31
0.000000000000000
  0
LINE
  5
F106BE
330
F106BF
100
AcDbEntity
8
Geo
100
AcDbLine
10
-93.2905508971012
20
4.68827552208286
30
0.000000000000000
11
-93.1905508971012
21
4.64646959580146
31
0.000000000000000
  0
LINE
  5
F106C0
330
F106C1
100
AcDbEntity
8
Geo
100
AcDbLine
10
-93.1905508971012
20
4.64646959580146
30
0.000000000000000
11
-93.0905508971012
21
4.59746636465417
31
0.000000000000000
  0
LINE
  5
F106C2
330
F106C3
100
AcDbEntity
8
Geo
100
AcDbLine
10
-93.0905508971012
20
4.59746636465417
30
0.000000000000000
11
-92.9905508971012
21
4.54133841705826
31
0.000000000000000
  0
LINE
  5
F106C4
330
F106C5
100
AcDbEntity
8
Geo
100
AcDbLine
10
-92.9905508971012
20
4.54133841705826
30
0.000000000000000
11
-92.8905508971012
21
4.47816889526347
31
0.000000000000000
  0
LINE
  5
F106C6
330
F106C7
100
AcDbEntity
8
Geo
100
AcDbLine
10
-92.8905508971012
20
4.47816889526347
30
0.000000000000000
11
-92.7905508971012
21
4.40805137219344
31
0.000000000000000
  0
LINE
  5
F106C8
330
F106C9
100
AcDbEntity
8
Geo
100
AcDbLine
10
-92.7905508971012
20
4.40805137219344
30
0.000000000000000
11
-92.6905508971012
21
4.33108971283635
31
0.000000000000000
  0
LINE
  5
F106CA
330
F106CB
100
AcDbEntity
8
Geo
100
AcDbLine
10
-92.6905508971012
20
4.33108971283635
30
0.000000000000000
11
-92.5905508971012
21
4.24739792038982
31
0.000000000000000
  0
LINE
  5
F106CC
330
F106CD
100
AcDbEntity
8
Geo
100
AcDbLine
10
-92.5905508971012
20
4.24739792038982
30
0.000000000000000
11
-92.4905508971012
21
4.15709996738811
31
0.000000000000000
  0
LINE
  5
F106CE
330
F106CF
100
AcDbEntity
8
Geo
100
AcDbLine
10
-92.4905508971012
20
4.15709996738811
30
0.000000000000000
11
-92.3905508971012
21
4.06032961206183
31
0.000000000000000
  0
LINE
  5
F106D0
330
F106D1
100
AcDbEntity
8
Geo
100
AcDbLine
10
-92.3905508971012
20
4.06032961206183
30
0.000000000000000
11
-92.2905508971012
21
3.95723020020203
31
0.000000000000000
  0
LINE
  5
F106D2
330
F106D3
100
AcDbEntity
8
Geo
100
AcDbLine
10
-92.2905508971012
20
3.95723020020203
30
0.000000000000000
11
-92.1905508971012
21
3.84795445282228
31
0.000000000000000
  0
LINE
  5
F106D4
330
F106D5
100
AcDbEntity
8
Geo
100
AcDbLine
10
-92.1905508971012
20
3.84795445282228
30
0.000000000000000
11
-92.0905508971012
21
3.73266423993328
31
0.000000000000000
  0
LINE
  5
F106D6
330
F106D7
100
AcDbEntity
8
Geo
100
AcDbLine
10
-92.0905508971012
20
3.73266423993328
30
0.000000000000000
11
-91.9905508971012
21
3.61153034076500
31
0.000000000000000
  0
LINE
  5
F106D8
330
F106D9
100
AcDbEntity
8
Geo
100
AcDbLine
10
-91.9905508971012
20
3.61153034076500
30
0.000000000000000
11
-91.8905508971012
21
3.48473219079166
31
0.000000000000000
  0
LINE
  5
F106DA
330
F106DB
100
AcDbEntity
8
Geo
100
AcDbLine
10
-91.8905508971012
20
3.48473219079166
30
0.000000000000000
11
-91.7905508971012
21
3.35245761593424
31
0.000000000000000
  0
LINE
  5
F106DC
330
F106DD
100
AcDbEntity
8
Geo
100
AcDbLine
10
-91.7905508971012
20
3.35245761593424
30
0.000000000000000
11
-91.6905508971012
21
3.21490255433417
31
0.000000000000000
  0
LINE
  5
F106DE
330
F106DF
100
AcDbEntity
8
Geo
100
AcDbLine
10
-91.6905508971012
20
3.21490255433417
30
0.000000000000000
11
-91.5905508971012
21
3.07227076611047
31
0.000000000000000
  0
LINE
  5
F106E0
330
F106E1
100
AcDbEntity
8
Geo
100
AcDbLine
10
-91.5905508971012
20
3.07227076611047
30
0.000000000000000
11
-91.4905508971012
21
2.92477353153013
31
0.000000000000000
  0
LINE
  5
F106E2
330
F106E3
100
AcDbEntity
8
Geo
100
AcDbLine
10
-91.4905508971012
20
2.92477353153013
30
0.000000000000000
11
-91.3905508971012
21
2.77262933803901
31
0.000000000000000
  0
LINE
  5
F106E4
330
F106E5
100
AcDbEntity
8
Geo
100
AcDbLine
10
-91.3905508971012
20
2.77262933803901
30
0.000000000000000
11
-91.2905508971012
21
2.61606355661663
31
0.000000000000000
  0
LINE
  5
F106E6
330
F106E7
100
AcDbEntity
8
Geo
100
AcDbLine
10
-91.2905508971012
20
2.61606355661663
30
0.000000000000000
11
-91.1905508971012
21
2.45530810793451
31
0.000000000000000
  0
LINE
  5
F106E8
330
F106E9
100
AcDbEntity
8
Geo
100
AcDbLine
10
-91.1905508971012
20
2.45530810793451
30
0.000000000000000
11
-91.0905508971012
21
2.29060111881236
31
0.000000000000000
  0
LINE
  5
F106EA
330
F106EB
100
AcDbEntity
8
Geo
100
AcDbLine
10
-91.0905508971012
20
2.29060111881236
30
0.000000000000000
11
-90.9905508971012
21
2.12218656948120
31
0.000000000000000
  0
LINE
  5
F106EC
330
F106ED
100
AcDbEntity
8
Geo
100
AcDbLine
10
-90.9905508971012
20
2.12218656948120
30
0.000000000000000
11
-90.8905508971012
21
1.95031393217574
31
0.000000000000000
  0
LINE
  5
F106EE
330
F106EF
100
AcDbEntity
8
Geo
100
AcDbLine
10
-90.8905508971012
20
1.95031393217574
30
0.000000000000000
11
-90.7905508971012
21
1.77523780159156
31
0.000000000000000
  0
LINE
  5
F106F0
330
F106F1
100
AcDbEntity
8
Geo
100
AcDbLine
10
-90.7905508971012
20
1.77523780159156
30
0.000000000000000
11
-90.6905508971012
21
1.59721751775430
31
0.000000000000000
  0
LINE
  5
F106F2
330
F106F3
100
AcDbEntity
8
Geo
100
AcDbLine
10
-90.6905508971012
20
1.59721751775430
30
0.000000000000000
11
-90.5905508971012
21
1.41651678185968
31
0.000000000000000
  0
LINE
  5
F106F4
330
F106F5
100
AcDbEntity
8
Geo
100
AcDbLine
10
-90.5905508971012
20
1.41651678185968
30
0.000000000000000
11
-90.4905508971012
21
1.23340326565328
31
0.000000000000000
  0
LINE
  5
F106F6
330
F106F7
100
AcDbEntity
8
Geo
100
AcDbLine
10
-90.4905508971012
20
1.23340326565328
30
0.000000000000000
11
-90.3905508971012
21
1.04814821492876
31
0.000000000000000
  0
LINE
  5
F106F8
330
F106F9
100
AcDbEntity
8
Geo
100
AcDbLine
10
-90.3905508971012
20
1.04814821492876
30
0.000000000000000
11
-90.2905508971012
21
0.861026047731824
31
0.000000000000000
  0
LINE
  5
F106FA
330
F106FB
100
AcDbEntity
8
Geo
100
AcDbLine
10
-90.2905508971012
20
0.861026047731824
30
0.000000000000000
11
-90.1905508971012
21
0.672313947865195
31
0.000000000000000
  0
LINE
  5
F106FC
330
F106FD
100
AcDbEntity
8
Geo
100
AcDbLine
10
-90.1905508971012
20
0.672313947865195
30
0.000000000000000
11
-90.0905508971012
21
0.482291454296624
31
0.000000000000000
  0
LINE
  5
F106FE
330
F106FF
100
AcDbEntity
8
Geo
100
AcDbLine
10
-90.0905508971012
20
0.482291454296624
30
0.000000000000000
11
-89.9905508971012
21
0.291240047078195
31
0.000000000000000
  0
LINE
  5
F10700
330
F10701
100
AcDbEntity
8
Geo
100
AcDbLine
10
-89.9905508971012
20
0.291240047078195
30
0.000000000000000
11
-89.8905508971012
21
0.0994427303903384
31
0.000000000000000
  0
LINE
  5
F10702
330
F10703
100
AcDbEntity
8
Geo
100
AcDbLine
10
-89.8905508971012
20
0.0994427303903384
30
0.000000000000000
11
-89.7905508971012
21
-0.0928163866718716
31
0.000000000000000
  0
LINE
  5
F10704
330
F10705
100
AcDbEntity
8
Geo
100
AcDbLine
10
-89.7905508971012
20
-0.0928163866718716
30
0.000000000000000
11
-89.6905508971012
21
-0.285252510949119
31
0.000000000000000
  0
LINE
  5
F10706
330
F10707
100
AcDbEntity
8
Geo
100
AcDbLine
10
-89.6905508971012
20
-0.285252510949119
30
0.000000000000000
11
-89.5905508971012
21
-0.477580587081537
31
0.000000000000000
  0
LINE
  5
F10708
330
F10709
100
AcDbEntity
8
Geo
100
AcDbLine
10
-89.5905508971012
20
-0.477580587081537
30
0.000000000000000
11
-89.4905508971012
21
-0.669515719760836
31
0.000000000000000
  0
LINE
  5
F1070A
330
F1070B
100
AcDbEntity
8
Geo
100
AcDbLine
10
-89.4905508971012
20
-0.669515719760836
30
0.000000000000000
11
-89.3905508971012
21
-0.860773595745308
31
0.000000000000000
  0
LINE
  5
F1070C
330
F1070D
100
AcDbEntity
8
Geo
100
AcDbLine
10
-89.3905508971012
20
-0.860773595745308
30
0.000000000000000
11
-89.2905508971012
21
-1.05107090501263
31
0.000000000000000
  0
LINE
  5
F1070E
330
F1070F
100
AcDbEntity
8
Geo
100
AcDbLine
10
-89.2905508971012
20
-1.05107090501263
30
0.000000000000000
11
-89.1905508971012
21
-1.24012576042661
31
0.000000000000000
  0
LINE
  5
F10710
330
F10711
100
AcDbEntity
8
Geo
100
AcDbLine
10
-89.1905508971012
20
-1.24012576042661
30
0.000000000000000
11
-89.0905508971012
21
-1.42765811529618
31
0.000000000000000
  0
LINE
  5
F10712
330
F10713
100
AcDbEntity
8
Geo
100
AcDbLine
10
-89.0905508971012
20
-1.42765811529618
30
0.000000000000000
11
-88.9905508971012
21
-1.61339017820822
31
0.000000000000000
  0
LINE
  5
F10714
330
F10715
100
AcDbEntity
8
Geo
100
AcDbLine
10
-88.9905508971012
20
-1.61339017820822
30
0.000000000000000
11
-88.8905508971012
21
-1.79704682451952
31
0.000000000000000
  0
LINE
  5
F10716
330
F10717
100
AcDbEntity
8
Geo
100
AcDbLine
10
-88.8905508971012
20
-1.79704682451952
30
0.000000000000000
11
-88.7905508971012
21
-1.97835600389856
31
0.000000000000000
  0
LINE
  5
F10718
330
F10719
100
AcDbEntity
8
Geo
100
AcDbLine
10
-88.7905508971012
20
-1.97835600389856
30
0.000000000000000
11
-88.6905508971012
21
-2.15704914331330
31
0.000000000000000
  0
LINE
  5
F1071A
330
F1071B
100
AcDbEntity
8
Geo
100
AcDbLine
10
-88.6905508971012
20
-2.15704914331330
30
0.000000000000000
11
-88.5905508971012
21
-2.33286154486799
31
0.000000000000000
  0
LINE
  5
F1071C
330
F1071D
100
AcDbEntity
8
Geo
100
AcDbLine
10
-88.5905508971012
20
-2.33286154486799
30
0.000000000000000
11
-88.4905508971012
21
-2.50553277789985
31
0.000000000000000
  0
LINE
  5
F1071E
330
F1071F
100
AcDbEntity
8
Geo
100
AcDbLine
10
-88.4905508971012
20
-2.50553277789985
30
0.000000000000000
11
-88.3905508971012
21
-2.67480706475456
31
0.000000000000000
  0
LINE
  5
F10720
330
F10721
100
AcDbEntity
8
Geo
100
AcDbLine
10
-88.3905508971012
20
-2.67480706475456
30
0.000000000000000
11
-88.2905508971012
21
-2.84043365966943
31
0.000000000000000
  0
LINE
  5
F10722
330
F10723
100
AcDbEntity
8
Geo
100
AcDbLine
10
-88.2905508971012
20
-2.84043365966943
30
0.000000000000000
11
-88.1905508971012
21
-3.00216722020269
31
0.000000000000000
  0
LINE
  5
F10724
330
F10725
100
AcDbEntity
8
Geo
100
AcDbLine
10
-88.1905508971012
20
-3.00216722020269
30
0.000000000000000
11
-88.0905508971012
21
-3.15976817065889
31
0.000000000000000
  0
LINE
  5
F10726
330
F10727
100
AcDbEntity
8
Geo
100
AcDbLine
10
-88.0905508971012
20
-3.15976817065889
30
0.000000000000000
11
-87.9905508971012
21
-3.31300305697211
31
0.000000000000000
  0
LINE
  5
F10728
330
F10729
100
AcDbEntity
8
Geo
100
AcDbLine
10
-87.9905508971012
20
-3.31300305697211
30
0.000000000000000
11
-87.8905508971012
21
-3.46164489252108
31
0.000000000000000
  0
LINE
  5
F1072A
330
F1072B
100
AcDbEntity
8
Geo
100
AcDbLine
10
-87.8905508971012
20
-3.46164489252108
30
0.000000000000000
11
-87.7905508971012
21
-3.60547349436413
31
0.000000000000000
  0
LINE
  5
F1072C
330
F1072D
100
AcDbEntity
8
Geo
100
AcDbLine
10
-87.7905508971012
20
-3.60547349436413
30
0.000000000000000
11
-87.6905508971012
21
-3.74427580939595
31
0.000000000000000
  0
LINE
  5
F1072E
330
F1072F
100
AcDbEntity
8
Geo
100
AcDbLine
10
-87.6905508971012
20
-3.74427580939595
30
0.000000000000000
11
-87.5905508971012
21
-3.87784622994276
31
0.000000000000000
  0
LINE
  5
F10730
330
F10731
100
AcDbEntity
8
Geo
100
AcDbLine
10
-87.5905508971012
20
-3.87784622994276
30
0.000000000000000
11
-87.4905508971012
21
-4.00598689832874
31
0.000000000000000
  0
LINE
  5
F10732
330
F10733
100
AcDbEntity
8
Geo
100
AcDbLine
10
-87.4905508971012
20
-4.00598689832874
30
0.000000000000000
11
-87.3905508971012
21
-4.12850799996227
31
0.000000000000000
  0
LINE
  5
F10734
330
F10735
100
AcDbEntity
8
Geo
100
AcDbLine
10
-87.3905508971012
20
-4.12850799996227
30
0.000000000000000
11
-87.2905508971012
21
-4.24522804450809
31
0.000000000000000
  0
LINE
  5
F10736
330
F10737
100
AcDbEntity
8
Geo
100
AcDbLine
10
-87.2905508971012
20
-4.24522804450809
30
0.000000000000000
11
-87.1905508971012
21
-4.35597413472858
31
0.000000000000000
  0
LINE
  5
F10738
330
F10739
100
AcDbEntity
8
Geo
100
AcDbLine
10
-87.1905508971012
20
-4.35597413472858
30
0.000000000000000
11
-87.0905508971012
21
-4.46058222259629
31
0.000000000000000
  0
LINE
  5
F1073A
330
F1073B
100
AcDbEntity
8
Geo
100
AcDbLine
10
-87.0905508971012
20
-4.46058222259629
30
0.000000000000000
11
-86.9905508971012
21
-4.55889735229800
31
0.000000000000000
  0
LINE
  5
F1073C
330
F1073D
100
AcDbEntity
8
Geo
100
AcDbLine
10
-86.9905508971012
20
-4.55889735229800
30
0.000000000000000
11
-86.8905508971012
21
-4.65077388977054
31
0.000000000000000
  0
LINE
  5
F1073E
330
F1073F
100
AcDbEntity
8
Geo
100
AcDbLine
10
-86.8905508971012
20
-4.65077388977054
30
0.000000000000000
11
-86.7905508971012
21
-4.73607573842836
31
0.000000000000000
  0
LINE
  5
F10740
330
F10741
100
AcDbEntity
8
Geo
100
AcDbLine
10
-86.7905508971012
20
-4.73607573842836
30
0.000000000000000
11
-86.6905508971012
21
-4.81467654076319
31
0.000000000000000
  0
LINE
  5
F10742
330
F10743
100
AcDbEntity
8
Geo
100
AcDbLine
10
-86.6905508971012
20
-4.81467654076319
30
0.000000000000000
11
-86.5905508971013
21
-4.88645986551723
31
0.000000000000000
  0
LINE
  5
F10744
330
F10745
100
AcDbEntity
8
Geo
100
AcDbLine
10
-86.5905508971013
20
-4.88645986551723
30
0.000000000000000
11
-86.4905508971012
21
-4.95131938015262
31
0.000000000000000
  0
LINE
  5
F10746
330
F10747
100
AcDbEntity
8
Geo
100
AcDbLine
10
-86.4905508971012
20
-4.95131938015262
30
0.000000000000000
11
-86.3905508971012
21
-5.00915900836169
31
0.000000000000000
  0
LINE
  5
F10748
330
F10749
100
AcDbEntity
8
Geo
100
AcDbLine
10
-86.3905508971012
20
-5.00915900836169
30
0.000000000000000
11
-86.2905508971012
21
-5.05989307238463
31
0.000000000000000
  0
LINE
  5
F1074A
330
F1074B
100
AcDbEntity
8
Geo
100
AcDbLine
10
-86.2905508971012
20
-5.05989307238463
30
0.000000000000000
11
-86.1905508971012
21
-5.10344641992387
31
0.000000000000000
  0
LINE
  5
F1074C
330
F1074D
100
AcDbEntity
8
Geo
100
AcDbLine
10
-86.1905508971012
20
-5.10344641992387
30
0.000000000000000
11
-86.0905508971013
21
-5.13975453546703
31
0.000000000000000
  0
LINE
  5
F1074E
330
F1074F
100
AcDbEntity
8
Geo
100
AcDbLine
10
-86.0905508971013
20
-5.13975453546703
30
0.000000000000000
11
-85.9905508971012
21
-5.16876363585369
31
0.000000000000000
  0
LINE
  5
F10750
330
F10751
100
AcDbEntity
8
Geo
100
AcDbLine
10
-85.9905508971012
20
-5.16876363585369
30
0.000000000000000
11
-85.8905508971012
21
-5.19043074994432
31
0.000000000000000
  0
LINE
  5
F10752
330
F10753
100
AcDbEntity
8
Geo
100
AcDbLine
10
-85.8905508971012
20
-5.19043074994432
30
0.000000000000000
11
-85.7905508971012
21
-5.20472378227332
31
0.000000000000000
  0
LINE
  5
F10754
330
F10755
100
AcDbEntity
8
Geo
100
AcDbLine
10
-85.7905508971012
20
-5.20472378227332
30
0.000000000000000
11
-85.6905508971012
21
-5.21162156059204
31
0.000000000000000
  0
LINE
  5
F10756
330
F10757
100
AcDbEntity
8
Geo
100
AcDbLine
10
-97.8905508971012
20
4.47900658260353
30
0.000000000000000
11
-97.7905508971012
21
4.69707834959334
31
0.000000000000000
  0
LINE
  5
F10758
330
F10759
100
AcDbEntity
8
Geo
100
AcDbLine
10
-97.8905508971012
20
-0.261551396163736
30
0.000000000000000
11
-97.7905508971012
21
-0.450643747688885
31
0.000000000000000
  0
LINE
  5
F1075A
330
F1075B
100
AcDbEntity
8
Geo
100
AcDbLine
10
-97.7905508971012
20
4.69707834959334
30
0.000000000000000
11
-97.6905508971012
21
4.74333153485117
31
0.000000000000000
  0
LINE
  5
F1075C
330
F1075D
100
AcDbEntity
8
Geo
100
AcDbLine
10
-97.7905508971012
20
-0.450643747688885
30
0.000000000000000
11
-97.6905508971012
21
-0.643938537752228
31
0.000000000000000
  0
LINE
  5
F1075E
330
F1075F
100
AcDbEntity
8
Geo
100
AcDbLine
10
-97.6905508971012
20
4.74333153485117
30
0.000000000000000
11
-97.5905508971012
21
4.74009492474620
31
0.000000000000000
  0
LINE
  5
F10760
330
F10761
100
AcDbEntity
8
Geo
100
AcDbLine
10
-97.6905508971012
20
-0.643938537752228
30
0.000000000000000
11
-97.5905508971012
21
-0.836291283349122
31
0.000000000000000
  0
LINE
  5
F10762
330
F10763
100
AcDbEntity
8
Geo
100
AcDbLine
10
-97.5905508971012
20
4.74009492474620
30
0.000000000000000
11
-97.4905508971012
21
4.71241584649009
31
0.000000000000000
  0
LINE
  5
F10764
330
F10765
100
AcDbEntity
8
Geo
100
AcDbLine
10
-97.5905508971012
20
-0.836291283349122
30
0.000000000000000
11
-97.4905508971012
21
-1.02640026331060
31
0.000000000000000
  0
LINE
  5
F10766
330
F10767
100
AcDbEntity
8
Geo
100
AcDbLine
10
-97.4905508971012
20
4.71241584649009
30
0.000000000000000
11
-97.3905508971012
21
4.67744177727982
31
0.000000000000000
  0
LINE
  5
F10768
330
F10769
100
AcDbEntity
8
Geo
100
AcDbLine
10
-97.4905508971012
20
-1.02640026331060
30
0.000000000000000
11
-97.3905508971012
21
-1.21530333400553
31
0.000000000000000
  0
LINE
  5
F1076A
330
F1076B
100
AcDbEntity
8
Geo
100
AcDbLine
10
-97.3905508971012
20
4.67744177727982
30
0.000000000000000
11
-97.2905508971012
21
4.63522452415486
31
0.000000000000000
  0
LINE
  5
F1076C
330
F1076D
100
AcDbEntity
8
Geo
100
AcDbLine
10
-97.3905508971012
20
-1.21530333400553
30
0.000000000000000
11
-97.2905508971012
21
-1.40272067358136
31
0.000000000000000
  0
LINE
  5
F1076E
330
F1076F
100
AcDbEntity
8
Geo
100
AcDbLine
10
-97.2905508971012
20
4.63522452415486
30
0.000000000000000
11
-97.1905508971012
21
4.58582662347280
31
0.000000000000000
  0
LINE
  5
F10770
330
F10771
100
AcDbEntity
8
Geo
100
AcDbLine
10
-97.2905508971012
20
-1.40272067358136
30
0.000000000000000
11
-97.1905508971012
21
-1.58837466099694
31
0.000000000000000
  0
LINE
  5
F10772
330
F10773
100
AcDbEntity
8
Geo
100
AcDbLine
10
-97.1905508971012
20
4.58582662347280
30
0.000000000000000
11
-97.0905508971012
21
4.52932124827434
31
0.000000000000000
  0
LINE
  5
F10774
330
F10775
100
AcDbEntity
8
Geo
100
AcDbLine
10
-97.1905508971012
20
-1.58837466099694
30
0.000000000000000
11
-97.0905508971012
21
-1.77199028726220
31
0.000000000000000
  0
LINE
  5
F10776
330
F10777
100
AcDbEntity
8
Geo
100
AcDbLine
10
-97.0905508971012
20
4.52932124827434
30
0.000000000000000
11
-96.9905508971012
21
4.46579209989218
31
0.000000000000000
  0
LINE
  5
F10778
330
F10779
100
AcDbEntity
8
Geo
100
AcDbLine
10
-97.0905508971012
20
-1.77199028726220
30
0.000000000000000
11
-96.9905508971012
21
-1.95329556280855
31
0.000000000000000
  0
LINE
  5
F1077A
330
F1077B
100
AcDbEntity
8
Geo
100
AcDbLine
10
-96.9905508971012
20
4.46579209989218
30
0.000000000000000
11
-96.8905508971012
21
4.39533328396434
31
0.000000000000000
  0
LINE
  5
F1077C
330
F1077D
100
AcDbEntity
8
Geo
100
AcDbLine
10
-96.9905508971012
20
-1.95329556280855
30
0.000000000000000
11
-96.8905508971012
21
-2.13202192038668
31
0.000000000000000
  0
LINE
  5
F1077E
330
F1077F
100
AcDbEntity
8
Geo
100
AcDbLine
10
-96.8905508971012
20
4.39533328396434
30
0.000000000000000
11
-96.7905508971012
21
4.31804917103563
31
0.000000000000000
  0
LINE
  5
F10780
330
F10781
100
AcDbEntity
8
Geo
100
AcDbLine
10
-96.8905508971012
20
-2.13202192038668
30
0.000000000000000
11
-96.7905508971012
21
-2.30790461289485
31
0.000000000000000
  0
LINE
  5
F10782
330
F10783
100
AcDbEntity
8
Geo
100
AcDbLine
10
-96.7905508971012
20
4.31804917103563
30
0.000000000000000
11
-96.6905508971012
21
4.23405424195367
31
0.000000000000000
  0
LINE
  5
F10784
330
F10785
100
AcDbEntity
8
Geo
100
AcDbLine
10
-96.7905508971012
20
-2.30790461289485
30
0.000000000000000
11
-96.6905508971012
21
-2.48068310554835
31
0.000000000000000
  0
LINE
  5
F10786
330
F10787
100
AcDbEntity
8
Geo
100
AcDbLine
10
-96.6905508971012
20
4.23405424195367
30
0.000000000000000
11
-96.5905508971012
21
4.14347291828861
31
0.000000000000000
  0
LINE
  5
F10788
330
F10789
100
AcDbEntity
8
Geo
100
AcDbLine
10
-96.6905508971012
20
-2.48068310554835
30
0.000000000000000
11
-96.5905508971012
21
-2.65010146180937
31
0.000000000000000
  0
LINE
  5
F1078A
330
F1078B
100
AcDbEntity
8
Geo
100
AcDbLine
10
-96.5905508971012
20
4.14347291828861
30
0.000000000000000
11
-96.4905508971012
21
4.04643937802761
31
0.000000000000000
  0
LINE
  5
F1078C
330
F1078D
100
AcDbEntity
8
Geo
100
AcDbLine
10
-96.5905508971012
20
-2.65010146180937
30
0.000000000000000
11
-96.4905508971012
21
-2.81590872250539
31
0.000000000000000
  0
LINE
  5
F1078E
330
F1078F
100
AcDbEntity
8
Geo
100
AcDbLine
10
-96.4905508971012
20
4.04643937802761
30
0.000000000000000
11
-96.3905508971012
21
3.94309735681721
31
0.000000000000000
  0
LINE
  5
F10790
330
F10791
100
AcDbEntity
8
Geo
100
AcDbLine
10
-96.4905508971012
20
-2.81590872250539
30
0.000000000000000
11
-96.3905508971012
21
-2.97785927757467
31
0.000000000000000
  0
LINE
  5
F10792
330
F10793
100
AcDbEntity
8
Geo
100
AcDbLine
10
-96.3905508971012
20
3.94309735681721
30
0.000000000000000
11
-96.2905508971012
21
3.83359993504786
31
0.000000000000000
  0
LINE
  5
F10794
330
F10795
100
AcDbEntity
8
Geo
100
AcDbLine
10
-96.3905508971012
20
-2.97785927757467
30
0.000000000000000
11
-96.2905508971012
21
-3.13571322988808
31
0.000000000000000
  0
LINE
  5
F10796
330
F10797
100
AcDbEntity
8
Geo
100
AcDbLine
10
-96.2905508971012
20
3.83359993504786
30
0.000000000000000
11
-96.1905508971012
21
3.71810931109622
31
0.000000000000000
  0
LINE
  5
F10798
330
F10799
100
AcDbEntity
8
Geo
100
AcDbLine
10
-96.2905508971012
20
-3.13571322988808
30
0.000000000000000
11
-96.1905508971012
21
-3.28923675060840
31
0.000000000000000
  0
LINE
  5
F1079A
330
F1079B
100
AcDbEntity
8
Geo
100
AcDbLine
10
-96.1905508971012
20
3.71810931109622
30
0.000000000000000
11
-96.0905508971012
21
3.59679656106089
31
0.000000000000000
  0
LINE
  5
F1079C
330
F1079D
100
AcDbEntity
8
Geo
100
AcDbLine
10
-96.1905508971012
20
-3.28923675060840
30
0.000000000000000
11
-96.0905508971012
21
-3.43820242556060
31
0.000000000000000
  0
LINE
  5
F1079E
330
F1079F
100
AcDbEntity
8
Geo
100
AcDbLine
10
-96.0905508971012
20
3.59679656106089
30
0.000000000000000
11
-95.9905508971012
21
3.46984138534763
31
0.000000000000000
  0
LINE
  5
F107A0
330
F107A1
100
AcDbEntity
8
Geo
100
AcDbLine
10
-96.0905508971012
20
-3.43820242556060
30
0.000000000000000
11
-95.9905508971012
21
-3.58238959210018
31
0.000000000000000
  0
LINE
  5
F107A2
330
F107A3
100
AcDbEntity
8
Geo
100
AcDbLine
10
-95.9905508971012
20
3.46984138534763
30
0.000000000000000
11
-95.8905508971012
21
3.33743184247941
31
0.000000000000000
  0
LINE
  5
F107A4
330
F107A5
100
AcDbEntity
8
Geo
100
AcDbLine
10
-95.9905508971012
20
-3.58238959210018
30
0.000000000000000
11
-95.8905508971012
21
-3.72158466598044
31
0.000000000000000
  0
LINE
  5
F107A6
330
F107A7
100
AcDbEntity
8
Geo
100
AcDbLine
10
-95.8905508971012
20
3.33743184247941
30
0.000000000000000
11
-95.7905508971012
21
3.19976407052560
31
0.000000000000000
  0
LINE
  5
F107A8
330
F107A9
100
AcDbEntity
8
Geo
100
AcDbLine
10
-95.8905508971012
20
-3.72158466598044
30
0.000000000000000
11
-95.7905508971012
21
-3.85558145773447
31
0.000000000000000
  0
LINE
  5
F107AA
330
F107AB
100
AcDbEntity
8
Geo
100
AcDbLine
10
-95.7905508971012
20
3.19976407052560
30
0.000000000000000
11
-95.6905508971012
21
3.05704199656289
31
0.000000000000000
  0
LINE
  5
F107AC
330
F107AD
100
AcDbEntity
8
Geo
100
AcDbLine
10
-95.7905508971012
20
-3.85558145773447
30
0.000000000000000
11
-95.6905508971012
21
-3.98418147810338
31
0.000000000000000
  0
LINE
  5
F107AE
330
F107AF
100
AcDbEntity
8
Geo
100
AcDbLine
10
-95.6905508971012
20
3.05704199656289
30
0.000000000000000
11
-95.5905508971012
21
2.90947703459844
31
0.000000000000000
  0
LINE
  5
F107B0
330
F107B1
100
AcDbEntity
8
Geo
100
AcDbLine
10
-95.6905508971012
20
-3.98418147810338
30
0.000000000000000
11
-95.5905508971012
21
-4.10719423205812
31
0.000000000000000
  0
LINE
  5
F107B2
330
F107B3
100
AcDbEntity
8
Geo
100
AcDbLine
10
-95.5905508971012
20
2.90947703459844
30
0.000000000000000
11
-95.4905508971012
21
2.75728777240256
31
0.000000000000000
  0
LINE
  5
F107B4
330
F107B5
100
AcDbEntity
8
Geo
100
AcDbLine
10
-95.5905508971012
20
-4.10719423205812
30
0.000000000000000
11
-95.4905508971012
21
-4.22443750097952
31
0.000000000000000
  0
LINE
  5
F107B6
330
F107B7
100
AcDbEntity
8
Geo
100
AcDbLine
10
-95.4905508971012
20
2.75728777240256
30
0.000000000000000
11
-95.3905508971012
21
2.60069964771500
31
0.000000000000000
  0
LINE
  5
F107B8
330
F107B9
100
AcDbEntity
8
Geo
100
AcDbLine
10
-95.4905508971012
20
-4.22443750097952
30
0.000000000000000
11
-95.3905508971012
21
-4.33573761257844
31
0.000000000000000
  0
LINE
  5
F107BA
330
F107BB
100
AcDbEntity
8
Geo
100
AcDbLine
10
-95.3905508971012
20
2.60069964771500
30
0.000000000000000
11
-95.2905508971012
21
2.43994461430431
31
0.000000000000000
  0
LINE
  5
F107BC
330
F107BD
100
AcDbEntity
8
Geo
100
AcDbLine
10
-95.3905508971012
20
-4.33573761257844
30
0.000000000000000
11
-95.2905508971012
21
-4.44092969815634
31
0.000000000000000
  0
LINE
  5
F107BE
330
F107BF
100
AcDbEntity
8
Geo
100
AcDbLine
10
-95.2905508971012
20
2.43994461430431
30
0.000000000000000
11
-95.1905508971012
21
2.27526079837507
31
0.000000000000000
  0
LINE
  5
F107C0
330
F107C1
100
AcDbEntity
8
Geo
100
AcDbLine
10
-95.2905508971012
20
-4.44092969815634
30
0.000000000000000
11
-95.1905508971012
21
-4.53985793682501
31
0.000000000000000
  0
LINE
  5
F107C2
330
F107C3
100
AcDbEntity
8
Geo
100
AcDbLine
10
-95.1905508971012
20
2.27526079837507
30
0.000000000000000
11
-95.0905508971012
21
2.10689214583188
31
0.000000000000000
  0
LINE
  5
F107C4
330
F107C5
100
AcDbEntity
8
Geo
100
AcDbLine
10
-95.1905508971012
20
-4.53985793682501
30
0.000000000000000
11
-95.0905508971012
21
-4.63237578632383
31
0.000000000000000
  0
LINE
  5
F107C6
330
F107C7
100
AcDbEntity
8
Geo
100
AcDbLine
10
-95.0905508971012
20
2.10689214583188
30
0.000000000000000
11
-94.9905508971012
21
1.93508806092259
31
0.000000000000000
  0
LINE
  5
F107C8
330
F107C9
100
AcDbEntity
8
Geo
100
AcDbLine
10
-95.0905508971012
20
-4.63237578632383
30
0.000000000000000
11
-94.9905508971012
21
-4.71834620009266
31
0.000000000000000
  0
LINE
  5
F107CA
330
F107CB
100
AcDbEntity
8
Geo
100
AcDbLine
10
-94.9905508971012
20
1.93508806092259
30
0.000000000000000
11
-94.8905508971012
21
1.76010303679623
31
0.000000000000000
  0
LINE
  5
F107CC
330
F107CD
100
AcDbEntity
8
Geo
100
AcDbLine
10
-94.9905508971012
20
-4.71834620009266
30
0.000000000000000
11
-94.8905508971012
21
-4.79764183027866
31
0.000000000000000
  0
LINE
  5
F107CE
330
F107CF
100
AcDbEntity
8
Geo
100
AcDbLine
10
-94.8905508971012
20
1.76010303679623
30
0.000000000000000
11
-94.7905508971012
21
1.58219627852256
31
0.000000000000000
  0
LINE
  5
F107D0
330
F107D1
100
AcDbEntity
8
Geo
100
AcDbLine
10
-94.8905508971012
20
-4.79764183027866
30
0.000000000000000
11
-94.7905508971012
21
-4.87014521637652
31
0.000000000000000
  0
LINE
  5
F107D2
330
F107D3
100
AcDbEntity
8
Geo
100
AcDbLine
10
-94.7905508971012
20
1.58219627852256
30
0.000000000000000
11
-94.6905508971012
21
1.40163131913206
31
0.000000000000000
  0
LINE
  5
F107D4
330
F107D5
100
AcDbEntity
8
Geo
100
AcDbLine
10
-94.7905508971012
20
-4.87014521637652
30
0.000000000000000
11
-94.6905508971012
21
-4.93574895922253
31
0.000000000000000
  0
LINE
  5
F107D6
330
F107D7
100
AcDbEntity
8
Geo
100
AcDbLine
10
-94.6905508971012
20
1.40163131913206
30
0.000000000000000
11
-94.5905508971012
21
1.21867562924474
31
0.000000000000000
  0
LINE
  5
F107D8
330
F107D9
100
AcDbEntity
8
Geo
100
AcDbLine
10
-94.6905508971012
20
-4.93574895922253
30
0.000000000000000
11
-94.5905508971012
21
-4.99435588008481
31
0.000000000000000
  0
LINE
  5
F107DA
330
F107DB
100
AcDbEntity
8
Geo
100
AcDbLine
10
-94.5905508971012
20
1.21867562924474
30
0.000000000000000
11
-94.4905508971012
21
1.03360022086637
31
0.000000000000000
  0
LINE
  5
F107DC
330
F107DD
100
AcDbEntity
8
Geo
100
AcDbLine
10
-94.5905508971012
20
-4.99435588008481
30
0.000000000000000
11
-94.4905508971012
21
-5.04587916461403
31
0.000000000000000
  0
LINE
  5
F107DE
330
F107DF
100
AcDbEntity
8
Geo
100
AcDbLine
10
-94.4905508971012
20
1.03360022086637
30
0.000000000000000
11
-94.3905508971012
21
0.846679245938703
31
0.000000000000000
  0
LINE
  5
F107E0
330
F107E1
100
AcDbEntity
8
Geo
100
AcDbLine
10
-94.4905508971012
20
-5.04587916461403
30
0.000000000000000
11
-94.3905508971012
21
-5.09024249144138
31
0.000000000000000
  0
LINE
  5
F107E2
330
F107E3
100
AcDbEntity
8
Geo
100
AcDbLine
10
-94.3905508971012
20
0.846679245938703
30
0.000000000000000
11
-94.2905508971012
21
0.658189590238636
31
0.000000000000000
  0
LINE
  5
F107E4
330
F107E5
100
AcDbEntity
8
Geo
100
AcDbLine
10
-94.3905508971012
20
-5.09024249144138
30
0.000000000000000
11
-94.2905508971012
21
-5.12738014523332
31
0.000000000000000
  0
LINE
  5
F107E6
330
F107E7
100
AcDbEntity
8
Geo
100
AcDbLine
10
-94.2905508971012
20
0.658189590238636
30
0.000000000000000
11
-94.1905508971012
21
0.468410463227681
31
0.000000000000000
  0
LINE
  5
F107E8
330
F107E9
100
AcDbEntity
8
Geo
100
AcDbLine
10
-94.2905508971012
20
-5.12738014523332
30
0.000000000000000
11
-94.1905508971012
21
-5.15723711403559
31
0.000000000000000
  0
LINE
  5
F107EA
330
F107EB
100
AcDbEntity
8
Geo
100
AcDbLine
10
-94.1905508971012
20
0.468410463227681
30
0.000000000000000
11
-94.0905508971012
21
0.277622984459389
31
0.000000000000000
  0
LINE
  5
F107EC
330
F107ED
100
AcDbEntity
8
Geo
100
AcDbLine
10
-94.1905508971012
20
-5.15723711403559
30
0.000000000000000
11
-94.0905508971012
21
-5.17976917076236
31
0.000000000000000
  0
LINE
  5
F107EE
330
F107EF
100
AcDbEntity
8
Geo
100
AcDbLine
10
-94.0905508971012
20
0.277622984459389
30
0.000000000000000
11
-93.9905508971012
21
0.0861097671573454
31
0.000000000000000
  0
LINE
  5
F107F0
330
F107F1
100
AcDbEntity
8
Geo
100
AcDbLine
10
-94.0905508971012
20
-5.17976917076236
30
0.000000000000000
11
-93.9905508971012
21
-5.19494293870974
31
0.000000000000000
  0
LINE
  5
F107F2
330
F107F3
100
AcDbEntity
8
Geo
100
AcDbLine
10
-93.9905508971012
20
0.0861097671573454
30
0.000000000000000
11
-93.8905508971012
21
-0.105845500419390
31
0.000000000000000
  0
LINE
  5
F107F4
330
F107F5
100
AcDbEntity
8
Geo
100
AcDbLine
10
-93.9905508971012
20
-5.19494293870974
30
0.000000000000000
11
-93.8905508971012
21
-5.20273594099662
31
0.000000000000000
  0
LINE
  5
F107F6
330
F107F7
100
AcDbEntity
8
Geo
100
AcDbLine
10
-93.8905508971012
20
-0.105845500419390
30
0.000000000000000
11
-93.7905508971012
21
-0.297958475203315
31
0.000000000000000
  0
LINE
  5
F107F8
330
F107F9
100
AcDbEntity
8
Geo
100
AcDbLine
10
-93.7905508971012
20
-0.297958475203315
30
0.000000000000000
11
-93.6905508971012
21
-0.489944580515462
31
0.000000000000000
  0
LINE
  5
F107FA
330
F107FB
100
AcDbEntity
8
Geo
100
AcDbLine
10
-93.7905508971012
20
4.77851461683346
30
0.000000000000000
11
-93.6905508971012
21
4.77152240672697
31
0.000000000000000
  0
LINE
  5
F107FC
330
F107FD
100
AcDbEntity
8
Geo
100
AcDbLine
10
-93.6905508971012
20
-0.489944580515462
30
0.000000000000000
11
-93.5905508971012
21
-0.681519427608430
31
0.000000000000000
  0
LINE
  5
F107FE
330
F107FF
100
AcDbEntity
8
Geo
100
AcDbLine
10
-93.6905508971012
20
4.77152240672697
30
0.000000000000000
11
-93.5905508971012
21
4.75714765120190
31
0.000000000000000
  0
LINE
  5
F10800
330
F10801
100
AcDbEntity
8
Geo
100
AcDbLine
10
-93.5905508971012
20
-0.681519427608430
30
0.000000000000000
11
-93.4905508971012
21
-0.872399236931042
31
0.000000000000000
  0
LINE
  5
F10802
330
F10803
100
AcDbEntity
8
Geo
100
AcDbLine
10
-93.5905508971012
20
4.75714765120190
30
0.000000000000000
11
-93.4905508971012
21
4.73541164356334
31
0.000000000000000
  0
LINE
  5
F10804
330
F10805
100
AcDbEntity
8
Geo
100
AcDbLine
10
-93.4905508971012
20
-0.872399236931042
30
0.000000000000000
11
-93.3905508971012
21
-1.06230125849059
31
0.000000000000000
  0
LINE
  5
F10806
330
F10807
100
AcDbEntity
8
Geo
100
AcDbLine
10
-93.4905508971012
20
4.73541164356334
30
0.000000000000000
11
-93.3905508971012
21
4.70634658132882
31
0.000000000000000
  0
LINE
  5
F10808
330
F10809
100
AcDbEntity
8
Geo
100
AcDbLine
10
-93.3905508971012
20
-1.06230125849059
30
0.000000000000000
11
-93.2905508971012
21
-1.25094419069000
31
0.000000000000000
  0
LINE
  5
F1080A
330
F1080B
100
AcDbEntity
8
Geo
100
AcDbLine
10
-93.3905508971012
20
4.70634658132882
30
0.000000000000000
11
-93.2905508971012
21
4.66999551853407
31
0.000000000000000
  0
LINE
  5
F1080C
330
F1080D
100
AcDbEntity
8
Geo
100
AcDbLine
10
-93.2905508971012
20
-1.25094419069000
30
0.000000000000000
11
-93.1905508971012
21
-1.43804859701950
31
0.000000000000000
  0
LINE
  5
F1080E
330
F1080F
100
AcDbEntity
8
Geo
100
AcDbLine
10
-93.2905508971012
20
4.66999551853407
30
0.000000000000000
11
-93.1905508971012
21
4.62641230195722
31
0.000000000000000
  0
LINE
  5
F10810
330
F10811
100
AcDbEntity
8
Geo
100
AcDbLine
10
-93.1905508971012
20
-1.43804859701950
30
0.000000000000000
11
-93.0905508971012
21
-1.62333731998552
31
0.000000000000000
  0
LINE
  5
F10812
330
F10813
100
AcDbEntity
8
Geo
100
AcDbLine
10
-93.1905508971012
20
4.62641230195722
30
0.000000000000000
11
-93.0905508971012
21
4.57566149135560
31
0.000000000000000
  0
LINE
  5
F10814
330
F10815
100
AcDbEntity
8
Geo
100
AcDbLine
10
-93.0905508971012
20
-1.62333731998552
30
0.000000000000000
11
-92.9905508971012
21
-1.80653589166369
31
0.000000000000000
  0
LINE
  5
F10816
330
F10817
100
AcDbEntity
8
Geo
100
AcDbLine
10
-93.0905508971012
20
4.57566149135560
30
0.000000000000000
11
-92.9905508971012
21
4.51781826383347
31
0.000000000000000
  0
LINE
  5
F10818
330
F10819
100
AcDbEntity
8
Geo
100
AcDbLine
10
-92.9905508971012
20
-1.80653589166369
30
0.000000000000000
11
-92.8905508971012
21
-1.98737294026782
31
0.000000000000000
  0
LINE
  5
F1081A
330
F1081B
100
AcDbEntity
8
Geo
100
AcDbLine
10
-92.9905508971012
20
4.51781826383347
30
0.000000000000000
11
-92.8905508971012
21
4.45296830248229
31
0.000000000000000
  0
LINE
  5
F1081C
330
F1081D
100
AcDbEntity
8
Geo
100
AcDbLine
10
-92.8905508971012
20
-1.98737294026782
30
0.000000000000000
11
-92.7905508971012
21
-2.16558059213249
31
0.000000000000000
  0
LINE
  5
F1081E
330
F1081F
100
AcDbEntity
8
Geo
100
AcDbLine
10
-92.8905508971012
20
4.45296830248229
30
0.000000000000000
11
-92.7905508971012
21
4.38120766945848
31
0.000000000000000
  0
LINE
  5
F10820
330
F10821
100
AcDbEntity
8
Geo
100
AcDbLine
10
-92.7905508971012
20
-2.16558059213249
30
0.000000000000000
11
-92.6905508971012
21
-2.34089486851401
31
0.000000000000000
  0
LINE
  5
F10822
330
F10823
100
AcDbEntity
8
Geo
100
AcDbLine
10
-92.7905508971012
20
4.38120766945848
30
0.000000000000000
11
-92.6905508971012
21
4.30264266368666
31
0.000000000000000
  0
LINE
  5
F10824
330
F10825
100
AcDbEntity
8
Geo
100
AcDbLine
10
-92.6905508971012
20
-2.34089486851401
30
0.000000000000000
11
-92.5905508971012
21
-2.51305607662167
31
0.000000000000000
  0
LINE
  5
F10826
330
F10827
100
AcDbEntity
8
Geo
100
AcDbLine
10
-92.6905508971012
20
4.30264266368666
30
0.000000000000000
11
-92.5905508971012
21
4.21738966339923
31
0.000000000000000
  0
LINE
  5
F10828
330
F10829
100
AcDbEntity
8
Geo
100
AcDbLine
10
-92.5905508971012
20
-2.51305607662167
30
0.000000000000000
11
-92.4905508971012
21
-2.68180919430040
31
0.000000000000000
  0
LINE
  5
F1082A
330
F1082B
100
AcDbEntity
8
Geo
100
AcDbLine
10
-92.5905508971012
20
4.21738966339923
30
0.000000000000000
11
-92.4905508971012
21
4.12557495374544
31
0.000000000000000
  0
LINE
  5
F1082C
330
F1082D
100
AcDbEntity
8
Geo
100
AcDbLine
10
-92.4905508971012
20
-2.68180919430040
30
0.000000000000000
11
-92.3905508971012
21
-2.84690424779465
31
0.000000000000000
  0
LINE
  5
F1082E
330
F1082F
100
AcDbEntity
8
Geo
100
AcDbLine
10
-92.4905508971012
20
4.12557495374544
30
0.000000000000000
11
-92.3905508971012
21
4.02733453972539
31
0.000000000000000
  0
LINE
  5
F10830
330
F10831
100
AcDbEntity
8
Geo
100
AcDbLine
10
-92.3905508971012
20
-2.84690424779465
30
0.000000000000000
11
-92.2905508971012
21
-3.00809668203420
31
0.000000000000000
  0
LINE
  5
F10832
330
F10833
100
AcDbEntity
8
Geo
100
AcDbLine
10
-92.3905508971012
20
4.02733453972539
30
0.000000000000000
11
-92.2905508971012
21
3.92281394472600
31
0.000000000000000
  0
LINE
  5
F10834
330
F10835
100
AcDbEntity
8
Geo
100
AcDbLine
10
-92.2905508971012
20
-3.00809668203420
30
0.000000000000000
11
-92.1905508971012
21
-3.16514772289325
31
0.000000000000000
  0
LINE
  5
F10836
330
F10837
100
AcDbEntity
8
Geo
100
AcDbLine
10
-92.2905508971012
20
3.92281394472600
30
0.000000000000000
11
-92.1905508971012
21
3.81216799495743
31
0.000000000000000
  0
LINE
  5
F10838
330
F10839
100
AcDbEntity
8
Geo
100
AcDbLine
10
-92.1905508971012
20
-3.16514772289325
30
0.000000000000000
11
-92.0905508971012
21
-3.31782473088617
31
0.000000000000000
  0
LINE
  5
F1083A
330
F1083B
100
AcDbEntity
8
Geo
100
AcDbLine
10
-92.1905508971012
20
3.81216799495743
30
0.000000000000000
11
-92.0905508971012
21
3.69556059010923
31
0.000000000000000
  0
LINE
  5
F1083C
330
F1083D
100
AcDbEntity
8
Geo
100
AcDbLine
10
-92.0905508971012
20
-3.31782473088617
30
0.000000000000000
11
-91.9905508971012
21
-3.46590154577605
31
0.000000000000000
  0
LINE
  5
F1083E
330
F1083F
100
AcDbEntity
8
Geo
100
AcDbLine
10
-92.0905508971012
20
3.69556059010923
30
0.000000000000000
11
-91.9905508971012
21
3.57316446056598
31
0.000000000000000
  0
LINE
  5
F10840
330
F10841
100
AcDbEntity
8
Geo
100
AcDbLine
10
-91.9905508971012
20
-3.46590154577605
30
0.000000000000000
11
-91.8905508971012
21
-3.60915882158555
31
0.000000000000000
  0
LINE
  5
F10842
330
F10843
100
AcDbEntity
8
Geo
100
AcDbLine
10
-91.9905508971012
20
3.57316446056598
30
0.000000000000000
11
-91.8905508971012
21
3.44516091154198
31
0.000000000000000
  0
LINE
  5
F10844
330
F10845
100
AcDbEntity
8
Geo
100
AcDbLine
10
-91.8905508971012
20
-3.60915882158555
30
0.000000000000000
11
-91.7905508971012
21
-3.74738435151379
31
0.000000000000000
  0
LINE
  5
F10846
330
F10847
100
AcDbEntity
8
Geo
100
AcDbLine
10
-91.8905508971012
20
3.44516091154198
30
0.000000000000000
11
-91.7905508971012
21
3.31173955451412
31
0.000000000000000
  0
LINE
  5
F10848
330
F10849
100
AcDbEntity
8
Geo
100
AcDbLine
10
-91.7905508971012
20
-3.74738435151379
30
0.000000000000000
11
-91.6905508971012
21
-3.88037338227797
31
0.000000000000000
  0
LINE
  5
F1084A
330
F1084B
100
AcDbEntity
8
Geo
100
AcDbLine
10
-91.7905508971012
20
3.31173955451412
30
0.000000000000000
11
-91.6905508971012
21
3.17309802635063
31
0.000000000000000
  0
LINE
  5
F1084C
330
F1084D
100
AcDbEntity
8
Geo
100
AcDbLine
10
-91.6905508971012
20
-3.88037338227797
30
0.000000000000000
11
-91.5905508971012
21
-4.00792891741411
31
0.000000000000000
  0
LINE
  5
F1084E
330
F1084F
100
AcDbEntity
8
Geo
100
AcDbLine
10
-91.6905508971012
20
3.17309802635063
30
0.000000000000000
11
-91.5905508971012
21
3.02944169655194
31
0.000000000000000
  0
LINE
  5
F10850
330
F10851
100
AcDbEntity
8
Geo
100
AcDbLine
10
-91.5905508971012
20
-4.00792891741411
30
0.000000000000000
11
-91.4905508971012
21
-4.12986200908768
31
0.000000000000000
  0
LINE
  5
F10852
330
F10853
100
AcDbEntity
8
Geo
100
AcDbLine
10
-91.5905508971012
20
3.02944169655194
30
0.000000000000000
11
-91.4905508971012
21
2.88098336303703
31
0.000000000000000
  0
LINE
  5
F10854
330
F10855
100
AcDbEntity
8
Geo
100
AcDbLine
10
-91.4905508971012
20
-4.12986200908768
30
0.000000000000000
11
-91.3905508971012
21
-4.24599203798171
31
0.000000000000000
  0
LINE
  5
F10856
330
F10857
100
AcDbEntity
8
Geo
100
AcDbLine
10
-91.4905508971012
20
2.88098336303703
30
0.000000000000000
11
-91.3905508971012
21
2.72794293692624
31
0.000000000000000
  0
LINE
  5
F10858
330
F10859
100
AcDbEntity
8
Geo
100
AcDbLine
10
-91.3905508971012
20
-4.24599203798171
30
0.000000000000000
11
-91.2905508971012
21
-4.35614698084797
31
0.000000000000000
  0
LINE
  5
F1085A
330
F1085B
100
AcDbEntity
8
Geo
100
AcDbLine
10
-91.3905508971012
20
2.72794293692624
30
0.000000000000000
11
-91.2905508971012
21
2.57054711678724
31
0.000000000000000
  0
LINE
  5
F1085C
330
F1085D
100
AcDbEntity
8
Geo
100
AcDbLine
10
-91.2905508971012
20
-4.35614698084797
30
0.000000000000000
11
-91.1905508971012
21
-4.46016366532474
31
0.000000000000000
  0
LINE
  5
F1085E
330
F1085F
100
AcDbEntity
8
Geo
100
AcDbLine
10
-91.2905508971012
20
2.57054711678724
30
0.000000000000000
11
-91.1905508971012
21
2.40902905282670
31
0.000000000000000
  0
LINE
  5
F10860
330
F10861
100
AcDbEntity
8
Geo
100
AcDbLine
10
-91.1905508971012
20
-4.46016366532474
30
0.000000000000000
11
-91.0905508971012
21
-4.55788801164379
31
0.000000000000000
  0
LINE
  5
F10862
330
F10863
100
AcDbEntity
8
Geo
100
AcDbLine
10
-91.1905508971012
20
2.40902905282670
30
0.000000000000000
11
-91.0905508971012
21
2.24362800152528
31
0.000000000000000
  0
LINE
  5
F10864
330
F10865
100
AcDbEntity
8
Geo
100
AcDbLine
10
-91.0905508971012
20
-4.55788801164379
30
0.000000000000000
11
-90.9905508971012
21
-4.64917526086857
31
0.000000000000000
  0
LINE
  5
F10866
330
F10867
100
AcDbEntity
8
Geo
100
AcDbLine
10
-91.0905508971012
20
2.24362800152528
30
0.000000000000000
11
-90.9905508971012
21
2.07458897122733
31
0.000000000000000
  0
LINE
  5
F10868
330
F10869
100
AcDbEntity
8
Geo
100
AcDbLine
10
-90.9905508971012
20
-4.64917526086857
30
0.000000000000000
11
-90.8905508971012
21
-4.73389018932537
31
0.000000000000000
  0
LINE
  5
F1086A
330
F1086B
100
AcDbEntity
8
Geo
100
AcDbLine
10
-90.9905508971012
20
2.07458897122733
30
0.000000000000000
11
-90.8905508971012
21
1.90216235921034
31
0.000000000000000
  0
LINE
  5
F1086C
330
F1086D
100
AcDbEntity
8
Geo
100
AcDbLine
10
-90.8905508971012
20
-4.73389018932537
30
0.000000000000000
11
-90.7905508971012
21
-4.81190730890999
31
0.000000000000000
  0
LINE
  5
F1086E
330
F1086F
100
AcDbEntity
8
Geo
100
AcDbLine
10
-90.8905508971012
20
1.90216235921034
30
0.000000000000000
11
-90.7905508971012
21
1.72660358077183
31
0.000000000000000
  0
LINE
  5
F10870
330
F10871
100
AcDbEntity
8
Geo
100
AcDbLine
10
-90.7905508971012
20
-4.81190730890999
30
0.000000000000000
11
-90.6905508971012
21
-4.88311105297306
31
0.000000000000000
  0
LINE
  5
F10872
330
F10873
100
AcDbEntity
8
Geo
100
AcDbLine
10
-90.7905508971012
20
1.72660358077183
30
0.000000000000000
11
-90.6905508971012
21
1.54817269088306
31
0.000000000000000
  0
LINE
  5
F10874
330
F10875
100
AcDbEntity
8
Geo
100
AcDbLine
10
-90.6905508971012
20
-4.88311105297306
30
0.000000000000000
11
-90.5905508971012
21
-4.94739594750879
31
0.000000000000000
  0
LINE
  5
F10876
330
F10877
100
AcDbEntity
8
Geo
100
AcDbLine
10
-90.6905508971012
20
1.54817269088306
30
0.000000000000000
11
-90.5905508971012
21
1.36713399896989
31
0.000000000000000
  0
LINE
  5
F10878
330
F10879
100
AcDbEntity
8
Geo
100
AcDbLine
10
-90.5905508971012
20
-4.94739594750879
30
0.000000000000000
11
-90.4905508971012
21
-5.00466676739344
31
0.000000000000000
  0
LINE
  5
F1087A
330
F1087B
100
AcDbEntity
8
Geo
100
AcDbLine
10
-90.5905508971012
20
1.36713399896989
30
0.000000000000000
11
-90.4905508971012
21
1.18375567739169
31
0.000000000000000
  0
LINE
  5
F1087C
330
F1087D
100
AcDbEntity
8
Geo
100
AcDbLine
10
-90.4905508971012
20
-5.00466676739344
30
0.000000000000000
11
-90.3905508971012
21
-5.05483867744218
31
0.000000000000000
  0
LINE
  5
F1087E
330
F1087F
100
AcDbEntity
8
Geo
100
AcDbLine
10
-90.4905508971012
20
1.18375567739169
30
0.000000000000000
11
-90.3905508971012
21
0.998309364197922
31
0.000000000000000
  0
LINE
  5
F10880
330
F10881
100
AcDbEntity
8
Geo
100
AcDbLine
10
-90.3905508971012
20
-5.05483867744218
30
0.000000000000000
11
-90.2905508971012
21
-5.09783735807533
31
0.000000000000000
  0
LINE
  5
F10882
330
F10883
100
AcDbEntity
8
Geo
100
AcDbLine
10
-90.3905508971012
20
0.998309364197922
30
0.000000000000000
11
-90.2905508971012
21
0.811069760751140
31
0.000000000000000
  0
LINE
  5
F10884
330
F10885
100
AcDbEntity
8
Geo
100
AcDbLine
10
-90.2905508971012
20
-5.09783735807533
30
0.000000000000000
11
-90.1905508971012
21
-5.13359911540782
31
0.000000000000000
  0
LINE
  5
F10886
330
F10887
100
AcDbEntity
8
Geo
100
AcDbLine
10
-90.2905508971012
20
0.811069760751140
30
0.000000000000000
11
-90.1905508971012
21
0.622314224812208
31
0.000000000000000
  0
LINE
  5
F10888
330
F10889
100
AcDbEntity
8
Geo
100
AcDbLine
10
-90.1905508971012
20
-5.13359911540782
30
0.000000000000000
11
-90.0905508971012
21
-5.16207097559888
31
0.000000000000000
  0
LINE
  5
F1088A
330
F1088B
100
AcDbEntity
8
Geo
100
AcDbLine
10
-90.1905508971012
20
0.622314224812208
30
0.000000000000000
11
-90.0905508971012
21
0.432322359690671
31
0.000000000000000
  0
LINE
  5
F1088C
330
F1088D
100
AcDbEntity
8
Geo
100
AcDbLine
10
-90.0905508971012
20
-5.16207097559888
30
0.000000000000000
11
-89.9905508971012
21
-5.18321076332211
31
0.000000000000000
  0
LINE
  5
F1088E
330
F1088F
100
AcDbEntity
8
Geo
100
AcDbLine
10
-90.0905508971012
20
0.432322359690671
30
0.000000000000000
11
-89.9905508971012
21
0.241375600068738
31
0.000000000000000
  0
LINE
  5
F10890
330
F10891
100
AcDbEntity
8
Geo
100
AcDbLine
10
-89.9905508971012
20
-5.18321076332211
30
0.000000000000000
11
-89.8905508971012
21
-5.19698716423973
31
0.000000000000000
  0
LINE
  5
F10892
330
F10893
100
AcDbEntity
8
Geo
100
AcDbLine
10
-89.9905508971012
20
0.241375600068738
30
0.000000000000000
11
-89.8905508971012
21
0.0497567951125010
31
0.000000000000000
  0
LINE
  5
F10894
330
F10895
100
AcDbEntity
8
Geo
100
AcDbLine
10
-89.8905508971012
20
-5.19698716423973
30
0.000000000000000
11
-89.7905508971012
21
-5.20337977138847
31
0.000000000000000
  0
LINE
  5
F10896
330
F10897
100
AcDbEntity
8
Geo
100
AcDbLine
10
-89.8905508971012
20
0.0497567951125010
30
0.000000000000000
11
-89.7905508971012
21
-0.142250210512141
31
0.000000000000000
  0
LINE
  5
F10898
330
F10899
100
AcDbEntity
8
Geo
100
AcDbLine
10
-89.7905508971012
20
-0.142250210512141
30
0.000000000000000
11
-89.6905508971012
21
-0.334360997098191
31
0.000000000000000
  0
LINE
  5
F1089A
330
F1089B
100
AcDbEntity
8
Geo
100
AcDbLine
10
-89.6905508971012
20
4.77775709838210
30
0.000000000000000
11
-89.5905508971012
21
4.76936466154343
31
0.000000000000000
  0
LINE
  5
F1089C
330
F1089D
100
AcDbEntity
8
Geo
100
AcDbLine
10
-89.6905508971012
20
-0.334360997098191
30
0.000000000000000
11
-89.5905508971012
21
-0.526290991208045
31
0.000000000000000
  0
LINE
  5
F1089E
330
F1089F
100
AcDbEntity
8
Geo
100
AcDbLine
10
-89.5905508971012
20
4.76936466154343
30
0.000000000000000
11
-89.4905508971012
21
4.75359287555107
31
0.000000000000000
  0
LINE
  5
F108A0
330
F108A1
100
AcDbEntity
8
Geo
100
AcDbLine
10
-89.5905508971012
20
-0.526290991208045
30
0.000000000000000
11
-89.4905508971012
21
-0.717755887211753
31
0.000000000000000
  0
LINE
  5
F108A2
330
F108A3
100
AcDbEntity
8
Geo
100
AcDbLine
10
-89.4905508971012
20
4.75359287555107
30
0.000000000000000
11
-89.3905508971012
21
4.73046510312940
31
0.000000000000000
  0
LINE
  5
F108A4
330
F108A5
100
AcDbEntity
8
Geo
100
AcDbLine
10
-89.4905508971012
20
-0.717755887211753
30
0.000000000000000
11
-89.3905508971012
21
-0.908472068428531
31
0.000000000000000
  0
LINE
  5
F108A6
330
F108A7
100
AcDbEntity
8
Geo
100
AcDbLine
10
-89.3905508971012
20
4.73046510312940
30
0.000000000000000
11
-89.2905508971012
21
4.70001560341513
31
0.000000000000000
  0
LINE
  5
F108A8
330
F108A9
100
AcDbEntity
8
Geo
100
AcDbLine
10
-89.3905508971012
20
-0.908472068428531
30
0.000000000000000
11
-89.2905508971012
21
-1.09815702724775
31
0.000000000000000
  0
LINE
  5
F108AA
330
F108AB
100
AcDbEntity
8
Geo
100
AcDbLine
10
-89.2905508971012
20
4.70001560341513
30
0.000000000000000
11
-89.1905508971012
21
4.66228948120931
31
0.000000000000000
  0
LINE
  5
F108AC
330
F108AD
100
AcDbEntity
8
Geo
100
AcDbLine
10
-89.2905508971012
20
-1.09815702724775
30
0.000000000000000
11
-89.1905508971012
21
-1.28652978360708
31
0.000000000000000
  0
LINE
  5
F108AE
330
F108AF
100
AcDbEntity
8
Geo
100
AcDbLine
10
-89.1905508971012
20
4.66228948120931
30
0.000000000000000
11
-89.0905508971012
21
4.61734262016362
31
0.000000000000000
  0
LINE
  5
F108B0
330
F108B1
100
AcDbEntity
8
Geo
100
AcDbLine
10
-89.1905508971012
20
-1.28652978360708
30
0.000000000000000
11
-89.0905508971012
21
-1.47331130120783
31
0.000000000000000
  0
LINE
  5
F108B2
330
F108B3
100
AcDbEntity
8
Geo
100
AcDbLine
10
-89.0905508971012
20
4.61734262016362
30
0.000000000000000
11
-88.9905508971012
21
4.56524160000002
31
0.000000000000000
  0
LINE
  5
F108B4
330
F108B5
100
AcDbEntity
8
Geo
100
AcDbLine
10
-89.0905508971012
20
-1.47331130120783
30
0.000000000000000
11
-88.9905508971012
21
-1.65822490085105
31
0.000000000000000
  0
LINE
  5
F108B6
330
F108B7
100
AcDbEntity
8
Geo
100
AcDbLine
10
-88.9905508971012
20
4.56524160000002
30
0.000000000000000
11
-88.8905508971012
21
4.50606359788631
31
0.000000000000000
  0
LINE
  5
F108B8
330
F108B9
100
AcDbEntity
8
Geo
100
AcDbLine
10
-88.9905508971012
20
-1.65822490085105
30
0.000000000000000
11
-88.8905508971012
21
-1.84099667028202
31
0.000000000000000
  0
LINE
  5
F108BA
330
F108BB
100
AcDbEntity
8
Geo
100
AcDbLine
10
-88.8905508971012
20
4.50606359788631
30
0.000000000000000
11
-88.7905508971012
21
4.43989627411366
31
0.000000000000000
  0
LINE
  5
F108BC
330
F108BD
100
AcDbEntity
8
Geo
100
AcDbLine
10
-88.8905508971012
20
-1.84099667028202
30
0.000000000000000
11
-88.7905508971012
21
-2.02135586993611
31
0.000000000000000
  0
LINE
  5
F108BE
330
F108BF
100
AcDbEntity
8
Geo
100
AcDbLine
10
-88.7905508971012
20
4.43989627411366
30
0.000000000000000
11
-88.6905508971012
21
4.36683764224558
31
0.000000000000000
  0
LINE
  5
F108C0
330
F108C1
100
AcDbEntity
8
Geo
100
AcDbLine
10
-88.7905508971012
20
-2.02135586993611
30
0.000000000000000
11
-88.6905508971012
21
-2.19903533398490
31
0.000000000000000
  0
LINE
  5
F108C2
330
F108C3
100
AcDbEntity
8
Geo
100
AcDbLine
10
-88.6905508971012
20
4.36683764224558
30
0.000000000000000
11
-88.5905508971012
21
4.28699592393057
31
0.000000000000000
  0
LINE
  5
F108C4
330
F108C5
100
AcDbEntity
8
Geo
100
AcDbLine
10
-88.6905508971012
20
-2.19903533398490
30
0.000000000000000
11
-88.5905508971012
21
-2.37377186608854
31
0.000000000000000
  0
LINE
  5
F108C6
330
F108C7
100
AcDbEntity
8
Geo
100
AcDbLine
10
-88.5905508971012
20
4.28699592393057
30
0.000000000000000
11
-88.4905508971012
21
4.20048938859352
31
0.000000000000000
  0
LINE
  5
F108C8
330
F108C9
100
AcDbEntity
8
Geo
100
AcDbLine
10
-88.5905508971012
20
-2.37377186608854
30
0.000000000000000
11
-88.4905508971012
21
-2.54530662926813
31
0.000000000000000
  0
LINE
  5
F108CA
330
F108CB
100
AcDbEntity
8
Geo
100
AcDbLine
10
-88.4905508971012
20
4.20048938859352
30
0.000000000000000
11
-88.3905508971012
21
4.10744617824337
31
0.000000000000000
  0
LINE
  5
F108CC
330
F108CD
100
AcDbEntity
8
Geo
100
AcDbLine
10
-88.4905508971012
20
-2.54530662926813
30
0.000000000000000
11
-88.3905508971012
21
-2.71338552932057
31
0.000000000000000
  0
LINE
  5
F108CE
330
F108CF
100
AcDbEntity
8
Geo
100
AcDbLine
10
-88.3905508971012
20
4.10744617824337
30
0.000000000000000
11
-88.2905508971012
21
4.00800411765658
31
0.000000000000000
  0
LINE
  5
F108D0
330
F108D1
100
AcDbEntity
8
Geo
100
AcDbLine
10
-88.3905508971012
20
-2.71338552932057
30
0.000000000000000
11
-88.2905508971012
21
-2.87775959120794
31
0.000000000000000
  0
LINE
  5
F108D2
330
F108D3
100
AcDbEntity
8
Geo
100
AcDbLine
10
-88.2905508971012
20
4.00800411765658
30
0.000000000000000
11
-88.1905508971012
21
3.90231051021743
31
0.000000000000000
  0
LINE
  5
F108D4
330
F108D5
100
AcDbEntity
8
Geo
100
AcDbLine
10
-88.2905508971012
20
-2.87775959120794
30
0.000000000000000
11
-88.1905508971012
21
-3.03818532786388
31
0.000000000000000
  0
LINE
  5
F108D6
330
F108D7
100
AcDbEntity
8
Geo
100
AcDbLine
10
-88.1905508971012
20
3.90231051021743
30
0.000000000000000
11
-88.0905508971012
21
3.79052191971776
31
0.000000000000000
  0
LINE
  5
F108D8
330
F108D9
100
AcDbEntity
8
Geo
100
AcDbLine
10
-88.1905508971012
20
-3.03818532786388
30
0.000000000000000
11
-88.0905508971012
21
-3.19442510087062
31
0.000000000000000
  0
LINE
  5
F108DA
330
F108DB
100
AcDbEntity
8
Geo
100
AcDbLine
10
-88.0905508971012
20
3.79052191971776
30
0.000000000000000
11
-87.9905508971012
21
3.67280393843924
31
0.000000000000000
  0
LINE
  5
F108DC
330
F108DD
100
AcDbEntity
8
Geo
100
AcDbLine
10
-88.0905508971012
20
-3.19442510087062
30
0.000000000000000
11
-87.9905508971012
21
-3.34624747247246
31
0.000000000000000
  0
LINE
  5
F108DE
330
F108DF
100
AcDbEntity
8
Geo
100
AcDbLine
10
-87.9905508971012
20
3.67280393843924
30
0.000000000000000
11
-87.8905508971012
21
3.54933094186173
31
0.000000000000000
  0
LINE
  5
F108E0
330
F108E1
100
AcDbEntity
8
Geo
100
AcDbLine
10
-87.9905508971012
20
-3.34624747247246
30
0.000000000000000
11
-87.8905508971012
21
-3.49342754840419
31
0.000000000000000
  0
LINE
  5
F108E2
330
F108E3
100
AcDbEntity
8
Geo
100
AcDbLine
10
-87.8905508971012
20
3.54933094186173
30
0.000000000000000
11
-87.7905508971012
21
3.42028583036115
31
0.000000000000000
  0
LINE
  5
F108E4
330
F108E5
100
AcDbEntity
8
Geo
100
AcDbLine
10
-87.8905508971012
20
-3.49342754840419
30
0.000000000000000
11
-87.7905508971012
21
-3.63574731102662
31
0.000000000000000
  0
LINE
  5
F108E6
330
F108E7
100
AcDbEntity
8
Geo
100
AcDbLine
10
-87.7905508971012
20
3.42028583036115
30
0.000000000000000
11
-87.6905508971012
21
3.28585975827943
31
0.000000000000000
  0
LINE
  5
F108E8
330
F108E9
100
AcDbEntity
8
Geo
100
AcDbLine
10
-87.7905508971012
20
-3.63574731102662
30
0.000000000000000
11
-87.6905508971012
21
-3.77299594227582
31
0.000000000000000
  0
LINE
  5
F108EA
330
F108EB
100
AcDbEntity
8
Geo
100
AcDbLine
10
-87.6905508971012
20
3.28585975827943
30
0.000000000000000
11
-87.5905508971012
21
3.14625185076780
31
0.000000000000000
  0
LINE
  5
F108EC
330
F108ED
100
AcDbEntity
8
Geo
100
AcDbLine
10
-87.6905508971012
20
-3.77299594227582
30
0.000000000000000
11
-87.5905508971012
21
-3.90497013594763
31
0.000000000000000
  0
LINE
  5
F108EE
330
F108EF
100
AcDbEntity
8
Geo
100
AcDbLine
10
-87.5905508971012
20
3.14625185076780
30
0.000000000000000
11
-87.4905508971012
21
3.00166890882304
31
0.000000000000000
  0
LINE
  5
F108F0
330
F108F1
100
AcDbEntity
8
Geo
100
AcDbLine
10
-87.5905508971012
20
-3.90497013594763
30
0.000000000000000
11
-87.4905508971012
21
-4.03147439885484
31
0.000000000000000
  0
LINE
  5
F108F2
330
F108F3
100
AcDbEntity
8
Geo
100
AcDbLine
10
-87.4905508971012
20
3.00166890882304
30
0.000000000000000
11
-87.3905508971012
21
2.85232510295341
31
0.000000000000000
  0
LINE
  5
F108F4
330
F108F5
100
AcDbEntity
8
Geo
100
AcDbLine
10
-87.4905508971012
20
-4.03147439885484
30
0.000000000000000
11
-87.3905508971012
21
-4.15232134041099
31
0.000000000000000
  0
LINE
  5
F108F6
330
F108F7
100
AcDbEntity
8
Geo
100
AcDbLine
10
-87.3905508971012
20
2.85232510295341
30
0.000000000000000
11
-87.2905508971012
21
2.69844165592821
31
0.000000000000000
  0
LINE
  5
F108F8
330
F108F9
100
AcDbEntity
8
Geo
100
AcDbLine
10
-87.3905508971012
20
-4.15232134041099
30
0.000000000000000
11
-87.2905508971012
21
-4.26733195021174
31
0.000000000000000
  0
LINE
  5
F108FA
330
F108FB
100
AcDbEntity
8
Geo
100
AcDbLine
10
-87.2905508971012
20
2.69844165592821
30
0.000000000000000
11
-87.1905508971012
21
2.54024651508078
31
0.000000000000000
  0
LINE
  5
F108FC
330
F108FD
100
AcDbEntity
8
Geo
100
AcDbLine
10
-87.2905508971012
20
-4.26733195021174
30
0.000000000000000
11
-87.1905508971012
21
-4.37633586320278
31
0.000000000000000
  0
LINE
  5
F108FE
330
F108FF
100
AcDbEntity
8
Geo
100
AcDbLine
10
-87.1905508971012
20
2.54024651508078
30
0.000000000000000
11
-87.0905508971012
21
2.37797401465044
31
0.000000000000000
  0
LINE
  5
F10900
330
F10901
100
AcDbEntity
8
Geo
100
AcDbLine
10
-87.1905508971012
20
-4.37633586320278
30
0.000000000000000
11
-87.0905508971012
21
-4.47917161204134
31
0.000000000000000
  0
LINE
  5
F10902
330
F10903
100
AcDbEntity
8
Geo
100
AcDbLine
10
-87.0905508971012
20
2.37797401465044
30
0.000000000000000
11
-86.9905508971012
21
2.21186452866354
31
0.000000000000000
  0
LINE
  5
F10904
330
F10905
100
AcDbEntity
8
Geo
100
AcDbLine
10
-87.0905508971012
20
-4.47917161204134
30
0.000000000000000
11
-86.9905508971012
21
-4.57568686627748
31
0.000000000000000
  0
LINE
  5
F10906
330
F10907
100
AcDbEntity
8
Geo
100
AcDbLine
10
-86.9905508971012
20
2.21186452866354
30
0.000000000000000
11
-86.8905508971012
21
2.04216411486772
31
0.000000000000000
  0
LINE
  5
F10908
330
F10909
100
AcDbEntity
8
Geo
100
AcDbLine
10
-86.9905508971012
20
-4.57568686627748
30
0.000000000000000
11
-86.8905508971012
21
-4.66573865800105
31
0.000000000000000
  0
LINE
  5
F1090A
330
F1090B
100
AcDbEntity
8
Geo
100
AcDbLine
10
-86.8905508971012
20
2.04216411486772
30
0.000000000000000
11
-86.7905508971012
21
1.86912415024691
31
0.000000000000000
  0
LINE
  5
F1090C
330
F1090D
100
AcDbEntity
8
Geo
100
AcDbLine
10
-86.8905508971012
20
-4.66573865800105
30
0.000000000000000
11
-86.7905508971012
21
-4.74919359361980
31
0.000000000000000
  0
LINE
  5
F1090E
330
F1090F
100
AcDbEntity
8
Geo
100
AcDbLine
10
-86.7905508971012
20
1.86912415024691
30
0.000000000000000
11
-86.6905508971012
21
1.69300095865700
31
0.000000000000000
  0
LINE
  5
F10910
330
F10911
100
AcDbEntity
8
Geo
100
AcDbLine
10
-86.7905508971012
20
-4.74919359361980
30
0.000000000000000
11
-86.6905508971012
21
-4.82592805145513
31
0.000000000000000
  0
LINE
  5
F10912
330
F10913
100
AcDbEntity
8
Geo
100
AcDbLine
10
-86.6905508971012
20
1.69300095865700
30
0.000000000000000
11
-86.5905508971013
21
1.51405543113362
31
0.000000000000000
  0
LINE
  5
F10914
330
F10915
100
AcDbEntity
8
Geo
100
AcDbLine
10
-86.6905508971012
20
-4.82592805145513
30
0.000000000000000
11
-86.5905508971013
21
-4.89582836486273
31
0.000000000000000
  0
LINE
  5
F10916
330
F10917
100
AcDbEntity
8
Geo
100
AcDbLine
10
-86.5905508971013
20
1.51405543113362
30
0.000000000000000
11
-86.4905508971012
21
1.33255263943467
31
0.000000000000000
  0
LINE
  5
F10918
330
F10919
100
AcDbEntity
8
Geo
100
AcDbLine
10
-86.5905508971013
20
-4.89582836486273
30
0.000000000000000
11
-86.4905508971012
21
-4.95879099060680
31
0.000000000000000
  0
LINE
  5
F1091A
330
F1091B
100
AcDbEntity
8
Geo
100
AcDbLine
10
-86.4905508971012
20
1.33255263943467
30
0.000000000000000
11
-86.3905508971012
21
1.14876144338985
31
0.000000000000000
  0
LINE
  5
F1091C
330
F1091D
100
AcDbEntity
8
Geo
100
AcDbLine
10
-86.4905508971012
20
-4.95879099060680
30
0.000000000000000
11
-86.3905508971012
21
-5.01472266223851
31
0.000000000000000
  0
LINE
  5
F1091E
330
F1091F
100
AcDbEntity
8
Geo
100
AcDbLine
10
-86.3905508971012
20
1.14876144338985
30
0.000000000000000
11
-86.2905508971012
21
0.962954092639020
31
0.000000000000000
  0
LINE
  5
F10920
330
F10921
100
AcDbEntity
8
Geo
100
AcDbLine
10
-86.3905508971012
20
-5.01472266223851
30
0.000000000000000
11
-86.2905508971012
21
-5.06354052825144
31
0.000000000000000
  0
LINE
  5
F10922
330
F10923
100
AcDbEntity
8
Geo
100
AcDbLine
10
-86.2905508971012
20
0.962954092639020
30
0.000000000000000
11
-86.1905508971012
21
0.775405823349134
31
0.000000000000000
  0
LINE
  5
F10924
330
F10925
100
AcDbEntity
8
Geo
100
AcDbLine
10
-86.2905508971012
20
-5.06354052825144
30
0.000000000000000
11
-86.1905508971012
21
-5.10517227480942
31
0.000000000000000
  0
LINE
  5
F10926
330
F10927
100
AcDbEntity
8
Geo
100
AcDbLine
10
-86.1905508971012
20
0.775405823349134
30
0.000000000000000
11
-86.0905508971013
21
0.586394450507345
31
0.000000000000000
  0
LINE
  5
F10928
330
F10929
100
AcDbEntity
8
Geo
100
AcDbLine
10
-86.1905508971012
20
-5.10517227480942
30
0.000000000000000
11
-86.0905508971013
21
-5.13955623286491
31
0.000000000000000
  0
LINE
  5
F1092A
330
F1092B
100
AcDbEntity
8
Geo
100
AcDbLine
10
-86.0905508971013
20
0.586394450507345
30
0.000000000000000
11
-85.9905508971012
21
0.396199956394034
31
0.000000000000000
  0
LINE
  5
F1092C
330
F1092D
100
AcDbEntity
8
Geo
100
AcDbLine
10
-86.0905508971013
20
-5.13955623286491
30
0.000000000000000
11
-85.9905508971012
21
-5.16664146950927
31
0.000000000000000
  0
LINE
  5
F1092E
330
F1092F
100
AcDbEntity
8
Geo
100
AcDbLine
10
-85.9905508971012
20
0.396199956394034
30
0.000000000000000
11
-85.8905508971012
21
0.205104075845454
31
0.000000000000000
  0
LINE
  5
F10930
330
F10931
100
AcDbEntity
8
Geo
100
AcDbLine
10
-85.9905508971012
20
-5.16664146950927
30
0.000000000000000
11
-85.8905508971012
21
-5.18638786341962
31
0.000000000000000
  0
LINE
  5
F10932
330
F10933
100
AcDbEntity
8
Geo
100
AcDbLine
10
-85.8905508971012
20
0.205104075845454
30
0.000000000000000
11
-85.7905508971012
21
0.0133898789203162
31
0.000000000000000
  0
LINE
  5
F10934
330
F10935
100
AcDbEntity
8
Geo
100
AcDbLine
10
-85.8905508971012
20
-5.18638786341962
30
0.000000000000000
11
-85.7905508971012
21
-5.19876616429045
31
0.000000000000000
  0
LINE
  5
F10936
330
F10937
100
AcDbEntity
8
Geo
100
AcDbLine
10
-85.7905508971012
20
0.0133898789203162
30
0.000000000000000
11
-85.6905508971012
21
-0.178658648411492
31
0.000000000000000
  0
LINE
  5
F10938
330
F10939
100
AcDbEntity
8
Geo
100
AcDbLine
10
-85.7905508971012
20
-5.19876616429045
30
0.000000000000000
11
-85.6905508971012
21
-5.20375803616214
31
0.000000000000000
  0
LINE
  5
F1093A
330
F1093B
100
AcDbEntity
8
Geo
100
AcDbLine
10
-85.6905508971012
20
-0.178658648411492
30
0.000000000000000
11
-85.5905508971013
21
-0.370757024936921
31
0.000000000000000
  0
LINE
  5
F1093C
330
F1093D
100
AcDbEntity
8
Geo
100
AcDbLine
10
-85.5905508971013
20
4.77673406755564
30
0.000000000000000
11
-85.4905508971012
21
4.76694185053095
31
0.000000000000000
  0
LINE
  5
F1093E
330
F1093F
100
AcDbEntity
8
Geo
100
AcDbLine
10
-85.5905508971013
20
-0.370757024936921
30
0.000000000000000
11
-85.4905508971012
21
-0.562620695601383
31
0.000000000000000
  0
LINE
  5
F10940
330
F10941
100
AcDbEntity
8
Geo
100
AcDbLine
10
-85.4905508971012
20
4.76694185053095
30
0.000000000000000
11
-85.3905508971012
21
4.74977387325912
31
0.000000000000000
  0
LINE
  5
F10942
330
F10943
100
AcDbEntity
8
Geo
100
AcDbLine
10
-85.4905508971012
20
-0.562620695601383
30
0.000000000000000
11
-85.3905508971012
21
-0.753965453019750
31
0.000000000000000
  0
LINE
  5
F10944
330
F10945
100
AcDbEntity
8
Geo
100
AcDbLine
10
-85.3905508971012
20
4.74977387325912
30
0.000000000000000
11
-85.2905508971013
21
4.72525556664070
31
0.000000000000000
  0
LINE
  5
F10946
330
F10947
100
AcDbEntity
8
Geo
100
AcDbLine
10
-85.3905508971012
20
-0.753965453019750
30
0.000000000000000
11
-85.2905508971013
21
-0.944507858472354
31
0.000000000000000
  0
LINE
  5
F10948
330
F10949
100
AcDbEntity
8
Geo
100
AcDbLine
10
-85.2905508971013
20
4.72525556664070
30
0.000000000000000
11
-85.1905508971012
21
4.69342324960874
31
0.000000000000000
  0
LINE
  5
F1094A
330
F1094B
100
AcDbEntity
8
Geo
100
AcDbLine
10
-85.2905508971013
20
-0.944507858472354
30
0.000000000000000
11
-85.1905508971012
21
-1.13396566176236
31
0.000000000000000
  0
LINE
  5
F1094C
330
F1094D
100
AcDbEntity
8
Geo
100
AcDbLine
10
-85.1905508971012
20
4.69342324960874
30
0.000000000000000
11
-85.0905508971013
21
4.65432407532963
31
0.000000000000000
  0
LINE
  5
F1094E
330
F1094F
100
AcDbEntity
8
Geo
100
AcDbLine
10
-85.1905508971012
20
-1.13396566176236
30
0.000000000000000
11
-85.0905508971013
21
-1.32205821931261
31
0.000000000000000
  0
LINE
  5
F10950
330
F10951
100
AcDbEntity
8
Geo
100
AcDbLine
10
-85.0905508971013
20
4.65432407532963
30
0.000000000000000
11
-84.9905508971013
21
4.60801596135517
31
0.000000000000000
  0
LINE
  5
F10952
330
F10953
100
AcDbEntity
8
Geo
100
AcDbLine
10
-85.0905508971013
20
-1.32205821931261
30
0.000000000000000
11
-84.9905508971013
21
-1.50850690988250
31
0.000000000000000
  0
LINE
  5
F10954
330
F10955
100
AcDbEntity
8
Geo
100
AcDbLine
10
-84.9905508971013
20
4.60801596135517
30
0.000000000000000
11
-84.8905508971012
21
4.55456750382936
31
0.000000000000000
  0
LINE
  5
F10956
330
F10957
100
AcDbEntity
8
Geo
100
AcDbLine
10
-84.9905508971013
20
-1.50850690988250
30
0.000000000000000
11
-84.8905508971012
21
-1.69303554728930
31
0.000000000000000
  0
LINE
  5
F10958
330
F10959
100
AcDbEntity
8
Geo
100
AcDbLine
10
-84.8905508971012
20
4.55456750382936
30
0.000000000000000
11
-84.7905508971013
21
4.49405787587705
31
0.000000000000000
  0
LINE
  5
F1095A
330
F1095B
100
AcDbEntity
8
Geo
100
AcDbLine
10
-84.8905508971012
20
-1.69303554728930
30
0.000000000000000
11
-84.7905508971013
21
-1.87537078952232
31
0.000000000000000
  0
LINE
  5
F1095C
330
F1095D
100
AcDbEntity
8
Geo
100
AcDbLine
10
-84.7905508971013
20
4.49405787587705
30
0.000000000000000
11
-84.6905508971012
21
4.42657671032492
31
0.000000000000000
  0
LINE
  5
F1095E
330
F1095F
100
AcDbEntity
8
Geo
100
AcDbLine
10
-84.7905508971013
20
-1.87537078952232
30
0.000000000000000
11
-84.6905508971012
21
-2.05524254364404
31
0.000000000000000
  0
LINE
  5
F10960
330
F10961
100
AcDbEntity
8
Geo
100
AcDbLine
10
-84.6905508971012
20
4.42657671032492
30
0.000000000000000
11
-84.5905508971013
21
4.35222396692843
31
0.000000000000000
  0
LINE
  5
F10962
330
F10963
100
AcDbEntity
8
Geo
100
AcDbLine
10
-84.6905508971012
20
-2.05524254364404
30
0.000000000000000
11
-84.5905508971013
21
-2.23238436587843
31
0.000000000000000
  0
LINE
  5
F10964
330
F10965
100
AcDbEntity
8
Geo
100
AcDbLine
10
-84.5905508971013
20
4.35222396692843
30
0.000000000000000
11
-84.4905508971013
21
4.27110978430168
31
0.000000000000000
  0
LINE
  5
F10966
330
F10967
100
AcDbEntity
8
Geo
100
AcDbLine
10
-84.5905508971013
20
-2.23238436587843
30
0.000000000000000
11
-84.4905508971013
21
-2.40653385629369
31
0.000000000000000
  0
LINE
  5
F10968
330
F10969
100
AcDbEntity
8
Geo
100
AcDbLine
10
-84.4905508971013
20
4.27110978430168
30
0.000000000000000
11
-84.3905508971012
21
4.18335431676914
31
0.000000000000000
  0
LINE
  5
F1096A
330
F1096B
100
AcDbEntity
8
Geo
100
AcDbLine
10
-84.4905508971013
20
-2.40653385629369
30
0.000000000000000
11
-84.3905508971012
21
-2.57743304749495
31
0.000000000000000
  0
LINE
  5
F1096C
330
F1096D
100
AcDbEntity
8
Geo
100
AcDbLine
10
-84.3905508971012
20
4.18335431676914
30
0.000000000000000
11
-84.2905508971013
21
4.08908755638127
31
0.000000000000000
  0
LINE
  5
F1096E
330
F1096F
100
AcDbEntity
8
Geo
100
AcDbLine
10
-84.3905508971012
20
-2.57743304749495
30
0.000000000000000
11
-84.2905508971013
21
-2.74482878675099
31
0.000000000000000
  0
LINE
  5
F10970
330
F10971
100
AcDbEntity
8
Geo
100
AcDbLine
10
-84.2905508971013
20
4.08908755638127
30
0.000000000000000
11
-84.1905508971012
21
3.98844914035746
31
0.000000000000000
  0
LINE
  5
F10972
330
F10973
100
AcDbEntity
8
Geo
100
AcDbLine
10
-84.2905508971013
20
-2.74482878675099
30
0.000000000000000
11
-84.1905508971012
21
-2.90847311098901
31
0.000000000000000
  0
LINE
  5
F10974
330
F10975
100
AcDbEntity
8
Geo
100
AcDbLine
10
-84.1905508971012
20
3.98844914035746
30
0.000000000000000
11
-84.0905508971013
21
3.88158814424163
31
0.000000000000000
  0
LINE
  5
F10976
330
F10977
100
AcDbEntity
8
Geo
100
AcDbLine
10
-84.1905508971012
20
-2.90847311098901
30
0.000000000000000
11
-84.0905508971013
21
-3.06812361410200
31
0.000000000000000
  0
LINE
  5
F10978
330
F10979
100
AcDbEntity
8
Geo
100
AcDbLine
10
-84.0905508971013
20
3.88158814424163
30
0.000000000000000
11
-83.9905508971013
21
3.76866286107681
31
0.000000000000000
  0
LINE
  5
F1097A
330
F1097B
100
AcDbEntity
8
Geo
100
AcDbLine
10
-84.0905508971013
20
-3.06812361410200
30
0.000000000000000
11
-83.9905508971013
21
-3.22354380602456
31
0.000000000000000
  0
LINE
  5
F1097C
330
F1097D
100
AcDbEntity
8
Geo
100
AcDbLine
10
-83.9905508971013
20
3.76866286107681
30
0.000000000000000
11
-83.8905508971012
21
3.64984056692591
31
0.000000000000000
  0
LINE
  5
F1097E
330
F1097F
100
AcDbEntity
8
Geo
100
AcDbLine
10
-83.9905508971013
20
-3.22354380602456
30
0.000000000000000
11
-83.8905508971012
21
-3.37450346304529
31
0.000000000000000
  0
LINE
  5
F10980
330
F10981
100
AcDbEntity
8
Geo
100
AcDbLine
10
-83.8905508971012
20
3.64984056692591
30
0.000000000000000
11
-83.7905508971013
21
3.52529727308590
31
0.000000000000000
  0
LINE
  5
F10982
330
F10983
100
AcDbEntity
8
Geo
100
AcDbLine
10
-83.8905508971012
20
-3.37450346304529
30
0.000000000000000
11
-83.7905508971013
21
-3.52077896883687
31
0.000000000000000
  0
LINE
  5
F10984
330
F10985
100
AcDbEntity
8
Geo
100
AcDbLine
10
-83.7905508971013
20
3.52529727308590
30
0.000000000000000
11
-83.6905508971013
21
3.39521746536254
31
0.000000000000000
  0
LINE
  5
F10986
330
F10987
100
AcDbEntity
8
Geo
100
AcDbLine
10
-83.7905508971013
20
-3.52077896883687
30
0.000000000000000
11
-83.6905508971013
21
-3.66215364569858
31
0.000000000000000
  0
LINE
  5
F10988
330
F10989
100
AcDbEntity
8
Geo
100
AcDbLine
10
-83.6905508971013
20
3.39521746536254
30
0.000000000000000
11
-83.5905508971013
21
3.25979383079180
31
0.000000000000000
  0
LINE
  5
F1098A
330
F1098B
100
AcDbEntity
8
Geo
100
AcDbLine
10
-83.6905508971013
20
-3.66215364569858
30
0.000000000000000
11
-83.5905508971013
21
-3.79841807552071
31
0.000000000000000
  0
LINE
  5
F1098C
330
F1098D
100
AcDbEntity
8
Geo
100
AcDbLine
10
-83.5905508971013
20
3.25979383079180
30
0.000000000000000
11
-83.4905508971013
21
3.11922697221282
31
0.000000000000000
  0
LINE
  5
F1098E
330
F1098F
100
AcDbEntity
8
Geo
100
AcDbLine
10
-83.5905508971013
20
-3.79841807552071
30
0.000000000000000
11
-83.4905508971013
21
-3.92937040999527
31
0.000000000000000
  0
LINE
  5
F10990
330
F10991
100
AcDbEntity
8
Geo
100
AcDbLine
10
-83.4905508971013
20
3.11922697221282
30
0.000000000000000
11
-83.3905508971013
21
2.97372511111526
31
0.000000000000000
  0
LINE
  5
F10992
330
F10993
100
AcDbEntity
8
Geo
100
AcDbLine
10
-83.4905508971013
20
-3.92937040999527
30
0.000000000000000
11
-83.3905508971013
21
-4.05481666961366
31
0.000000000000000
  0
LINE
  5
F10994
330
F10995
100
AcDbEntity
8
Geo
100
AcDbLine
10
-83.3905508971013
20
2.97372511111526
30
0.000000000000000
11
-83.2905508971013
21
2.82350377920101
31
0.000000000000000
  0
LINE
  5
F10996
330
F10997
100
AcDbEntity
8
Geo
100
AcDbLine
10
-83.3905508971013
20
-4.05481666961366
30
0.000000000000000
11
-83.2905508971013
21
-4.17457103100818
31
0.000000000000000
  0
LINE
  5
F10998
330
F10999
100
AcDbEntity
8
Geo
100
AcDbLine
10
-83.2905508971013
20
2.82350377920101
30
0.000000000000000
11
-83.1905508971013
21
2.66878549911747
31
0.000000000000000
  0
LINE
  5
F1099A
330
F1099B
100
AcDbEntity
8
Geo
100
AcDbLine
10
-83.2905508971013
20
-4.17457103100818
30
0.000000000000000
11
-83.1905508971013
21
-4.28845610221197
31
0.000000000000000
  0
LINE
  5
F1099C
330
F1099D
100
AcDbEntity
8
Geo
100
AcDbLine
10
-83.1905508971013
20
2.66878549911747
30
0.000000000000000
11
-83.0905508971013
21
2.50979945483501
31
0.000000000000000
  0
LINE
  5
F1099E
330
F1099F
100
AcDbEntity
8
Geo
100
AcDbLine
10
-83.1905508971013
20
-4.28845610221197
30
0.000000000000000
11
-83.0905508971013
21
-4.39630318542944
31
0.000000000000000
  0
LINE
  5
F109A0
330
F109A1
100
AcDbEntity
8
Geo
100
AcDbLine
10
-83.0905508971013
20
2.50979945483501
30
0.000000000000000
11
-82.9905508971013
21
2.34678115215712
31
0.000000000000000
  0
LINE
  5
F109A2
330
F109A3
100
AcDbEntity
8
Geo
100
AcDbLine
10
-83.0905508971013
20
-4.39630318542944
30
0.000000000000000
11
-82.9905508971013
21
-4.49795252692813
31
0.000000000000000
  0
LINE
  5
F109A4
330
F109A5
100
AcDbEntity
8
Geo
100
AcDbLine
10
-82.9905508971013
20
2.34678115215712
30
0.000000000000000
11
-82.8905508971013
21
2.17997206986593
31
0.000000000000000
  0
LINE
  5
F109A6
330
F109A7
100
AcDbEntity
8
Geo
100
AcDbLine
10
-82.9905508971013
20
-4.49795252692813
30
0.000000000000000
11
-82.8905508971013
21
-4.59325355368164
31
0.000000000000000
  0
LINE
  5
F109A8
330
F109A9
100
AcDbEntity
8
Geo
100
AcDbLine
10
-82.8905508971013
20
2.17997206986593
30
0.000000000000000
11
-82.7905508971013
21
2.00961930202012
31
0.000000000000000
  0
LINE
  5
F109AA
330
F109AB
100
AcDbEntity
8
Geo
100
AcDbLine
10
-82.8905508971013
20
-4.59325355368164
30
0.000000000000000
11
-82.7905508971013
21
-4.68206509641327
31
0.000000000000000
  0
LINE
  5
F109AC
330
F109AD
100
AcDbEntity
8
Geo
100
AcDbLine
10
-82.7905508971013
20
2.00961930202012
30
0.000000000000000
11
-82.6905508971013
21
1.83597519193476
31
0.000000000000000
  0
LINE
  5
F109AE
330
F109AF
100
AcDbEntity
8
Geo
100
AcDbLine
10
-82.7905508971013
20
-4.68206509641327
30
0.000000000000000
11
-82.6905508971013
21
-4.76425559870984
31
0.000000000000000
  0
LINE
  5
F109B0
330
F109B1
100
AcDbEntity
8
Geo
100
AcDbLine
10
-82.6905508971013
20
1.83597519193476
30
0.000000000000000
11
-82.5905508971013
21
1.65929695838556
31
0.000000000000000
  0
LINE
  5
F109B2
330
F109B3
100
AcDbEntity
8
Geo
100
AcDbLine
10
-82.6905508971013
20
-4.76425559870984
30
0.000000000000000
11
-82.5905508971013
21
-4.83970331189608
31
0.000000000000000
  0
LINE
  5
F109B4
330
F109B5
100
AcDbEntity
8
Geo
100
AcDbLine
10
-82.5905508971013
20
1.65929695838556
30
0.000000000000000
11
-82.4905508971013
21
1.47984631459102
31
0.000000000000000
  0
LINE
  5
F109B6
330
F109B7
100
AcDbEntity
8
Geo
100
AcDbLine
10
-82.5905508971013
20
-4.83970331189608
30
0.000000000000000
11
-82.4905508971013
21
-4.90829647538070
31
0.000000000000000
  0
LINE
  5
F109B8
330
F109B9
100
AcDbEntity
8
Geo
100
AcDbLine
10
-82.4905508971013
20
1.47984631459102
30
0.000000000000000
11
-82.3905508971013
21
1.29788908053707
31
0.000000000000000
  0
LINE
  5
F109BA
330
F109BB
100
AcDbEntity
8
Geo
100
AcDbLine
10
-82.4905508971013
20
-4.90829647538070
30
0.000000000000000
11
-82.3905508971013
21
-4.96993348220723
31
0.000000000000000
  0
LINE
  5
F109BC
330
F109BD
100
AcDbEntity
8
Geo
100
AcDbLine
10
-82.3905508971013
20
1.29788908053707
30
0.000000000000000
11
-82.2905508971013
21
1.11369478921822
31
0.000000000000000
  0
LINE
  5
F109BE
330
F109BF
100
AcDbEntity
8
Geo
100
AcDbLine
10
-82.3905508971013
20
-4.96993348220723
30
0.000000000000000
11
-82.2905508971013
21
-5.02452302956429
31
0.000000000000000
  0
LINE
  5
F109C0
330
F109C1
100
AcDbEntity
8
Geo
100
AcDbLine
10
-82.2905508971013
20
1.11369478921822
30
0.000000000000000
11
-82.1905508971013
21
0.927536287378792
31
0.000000000000000
  0
LINE
  5
F109C2
330
F109C3
100
AcDbEntity
8
Geo
100
AcDbLine
10
-82.2905508971013
20
-5.02452302956429
30
0.000000000000000
11
-82.1905508971013
21
-5.07198425403225
31
0.000000000000000
  0
LINE
  5
F109C4
330
F109C5
100
AcDbEntity
8
Geo
100
AcDbLine
10
-82.1905508971013
20
0.927536287378792
30
0.000000000000000
11
-82.0905508971013
21
0.739689331345357
31
0.000000000000000
  0
LINE
  5
F109C6
330
F109C7
100
AcDbEntity
8
Geo
100
AcDbLine
10
-82.1905508971013
20
-5.07198425403225
30
0.000000000000000
11
-82.0905508971013
21
-5.11224685136615
31
0.000000000000000
  0
LINE
  5
F109C8
330
F109C9
100
AcDbEntity
8
Geo
100
AcDbLine
10
-82.0905508971013
20
0.739689331345357
30
0.000000000000000
11
-81.9905508971013
21
0.550432178549320
31
0.000000000000000
  0
LINE
  5
F109CA
330
F109CB
100
AcDbEntity
8
Geo
100
AcDbLine
10
-82.0905508971013
20
-5.11224685136615
30
0.000000000000000
11
-81.9905508971013
21
-5.14525118063728
31
0.000000000000000
  0
LINE
  5
F109CC
330
F109CD
100
AcDbEntity
8
Geo
100
AcDbLine
10
-81.9905508971013
20
0.550432178549320
30
0.000000000000000
11
-81.8905508971013
21
0.360045175344562
31
0.000000000000000
  0
LINE
  5
F109CE
330
F109CF
100
AcDbEntity
8
Geo
100
AcDbLine
10
-81.9905508971013
20
-5.14525118063728
30
0.000000000000000
11
-81.8905508971013
21
-5.17094835257917
31
0.000000000000000
  0
LINE
  5
F109D0
330
F109D1
100
AcDbEntity
8
Geo
100
AcDbLine
10
-81.8905508971013
20
0.360045175344562
30
0.000000000000000
11
-81.7905508971013
21
0.168810341730782
31
0.000000000000000
  0
LINE
  5
F109D2
330
F109D3
100
AcDbEntity
8
Geo
100
AcDbLine
10
-81.8905508971013
20
-5.17094835257917
30
0.000000000000000
11
-81.7905508971013
21
-5.18930030200721
31
0.000000000000000
  0
LINE
  5
F109D4
330
F109D5
100
AcDbEntity
8
Geo
100
AcDbLine
10
-81.7905508971013
20
0.168810341730782
30
0.000000000000000
11
-81.6905508971013
21
-0.0229890464023346
31
0.000000000000000
  0
LINE
  5
F109D6
330
F109D7
100
AcDbEntity
8
Geo
100
AcDbLine
10
-81.7905508971013
20
-5.18930030200721
30
0.000000000000000
11
-81.6905508971013
21
-5.20027984420457
31
0.000000000000000
  0
LINE
  5
F109D8
330
F109D9
100
AcDbEntity
8
Geo
100
AcDbLine
10
-81.6905508971013
20
-0.0229890464023346
30
0.000000000000000
11
-81.5905508971013
21
-0.215068876891278
31
0.000000000000000
  0
LINE
  5
F109DA
330
F109DB
100
AcDbEntity
8
Geo
100
AcDbLine
10
-81.5905508971013
20
4.77924869816459
30
0.000000000000000
11
-81.4905508971013
21
4.77544557878765
31
0.000000000000000
  0
LINE
  5
F109DC
330
F109DD
100
AcDbEntity
8
Geo
100
AcDbLine
10
-81.5905508971013
20
-0.215068876891278
30
0.000000000000000
11
-81.4905508971013
21
-0.407144622153677
31
0.000000000000000
  0
LINE
  5
F109DE
330
F109DF
100
AcDbEntity
8
Geo
100
AcDbLine
10
-81.4905508971013
20
4.77544557878765
30
0.000000000000000
11
-81.3905508971013
21
4.76425410260288
31
0.000000000000000
  0
LINE
  5
F109E0
330
F109E1
100
AcDbEntity
8
Geo
100
AcDbLine
10
-81.4905508971013
20
-0.407144622153677
30
0.000000000000000
11
-81.3905508971013
21
-0.598931760658601
31
0.000000000000000
  0
LINE
  5
F109E2
330
F109E3
100
AcDbEntity
8
Geo
100
AcDbLine
10
-81.3905508971013
20
4.76425410260288
30
0.000000000000000
11
-81.2905508971013
21
4.74569084752817
31
0.000000000000000
  0
LINE
  5
F109E4
330
F109E5
100
AcDbEntity
8
Geo
100
AcDbLine
10
-81.3905508971013
20
-0.598931760658601
30
0.000000000000000
11
-81.2905508971013
21
-0.790146198387902
31
0.000000000000000
  0
LINE
  5
F109E6
330
F109E7
100
AcDbEntity
8
Geo
100
AcDbLine
10
-81.2905508971013
20
4.74569084752817
30
0.000000000000000
11
-81.1905508971012
21
4.71978331128713
31
0.000000000000000
  0
LINE
  5
F109E8
330
F109E9
100
AcDbEntity
8
Geo
100
AcDbLine
10
-81.2905508971013
20
-0.790146198387902
30
0.000000000000000
11
-81.1905508971012
21
-0.980504689664284
31
0.000000000000000
  0
LINE
  5
F109EA
330
F109EB
100
AcDbEntity
8
Geo
100
AcDbLine
10
-81.1905508971012
20
4.71978331128713
30
0.000000000000000
11
-81.0905508971013
21
4.68656987067671
31
0.000000000000000
  0
LINE
  5
F109EC
330
F109ED
100
AcDbEntity
8
Geo
100
AcDbLine
10
-81.1905508971012
20
-0.980504689664284
30
0.000000000000000
11
-81.0905508971013
21
-1.16972525672273
31
0.000000000000000
  0
LINE
  5
F109EE
330
F109EF
100
AcDbEntity
8
Geo
100
AcDbLine
10
-81.0905508971013
20
4.68656987067671
30
0.000000000000000
11
-80.9905508971013
21
4.64609972471970
31
0.000000000000000
  0
LINE
  5
F109F0
330
F109F1
100
AcDbEntity
8
Geo
100
AcDbLine
10
-81.0905508971013
20
-1.16972525672273
30
0.000000000000000
11
-80.9905508971013
21
-1.35752760740375
31
0.000000000000000
  0
LINE
  5
F109F2
330
F109F3
100
AcDbEntity
8
Geo
100
AcDbLine
10
-80.9905508971013
20
4.64609972471970
30
0.000000000000000
11
-80.8905508971012
21
4.59843282178631
31
0.000000000000000
  0
LINE
  5
F109F4
330
F109F5
100
AcDbEntity
8
Geo
100
AcDbLine
10
-80.9905508971013
20
-1.35752760740375
30
0.000000000000000
11
-80.8905508971012
21
-1.54363355034980
31
0.000000000000000
  0
LINE
  5
F109F6
330
F109F7
100
AcDbEntity
8
Geo
100
AcDbLine
10
-97.8905508971012
20
-0.212311008513126
30
0.000000000000000
11
-97.8905508971012
21
-0.212311008513126
31
0.000000000000000
  0
LINE
  5
F109F8
330
F109F9
100
AcDbEntity
8
Geo
100
AcDbLine
10
-97.8905508971012
20
-0.212311008513126
30
0.000000000000000
11
-97.8905508971012
21
-0.212311008513126
31
0.000000000000000
  0
LINE
  5
F109FA
330
F109FB
100
AcDbEntity
8
Geo
100
AcDbLine
10
-98.8905508971012
20
-0.212311008513126
30
0.000000000000000
11
-98.5905508971012
21
-0.212311008513126
31
0.000000000000000
  0
LINE
  5
F109FC
330
F109FD
100
AcDbEntity
8
Geo
100
AcDbLine
10
-98.4630508971012
20
-0.212311008513126
30
0.000000000000000
11
-98.3780508971012
21
-0.212311008513126
31
0.000000000000000
  0
LINE
  5
F109FE
330
F109FF
100
AcDbEntity
8
Geo
100
AcDbLine
10
-98.1655508971012
20
-0.212311008513126
30
0.000000000000000
11
-97.7405508971012
21
-0.212311008513126
31
0.000000000000000
  0
LINE
  5
F10A00
330
F10A01
100
AcDbEntity
8
Geo
100
AcDbLine
10
-97.6130508971012
20
-0.212311008513126
30
0.000000000000000
11
-97.5280508971012
21
-0.212311008513126
31
0.000000000000000
  0
LINE
  5
F10A02
330
F10A03
100
AcDbEntity
8
Geo
100
AcDbLine
10
-97.3155508971012
20
-0.212311008513126
30
0.000000000000000
11
-96.8905508971012
21
-0.212311008513126
31
0.000000000000000
  0
LINE
  5
F10A04
330
F10A05
100
AcDbEntity
8
Geo
100
AcDbLine
10
-27.8905508971012
20
3.78768899148688
30
0.000000000000000
11
-27.8905508971012
21
-0.212311008513126
31
0.000000000000000
  0
LINE
  5
F10A06
330
F10A07
100
AcDbEntity
8
Geo
100
AcDbLine
10
-97.7266061437796
20
-0.212311008513126
30
0.000000000000000
11
-97.8903681452069
21
-4.90184115950238
31
0.000000000000000
  0
ARC
  5
F10A08
330
F10A09
100
AcDbEntity
8
Geo
100
AcDbCircle
10
-97.5905508971012
20
-4.91231100851313
30
0.000000000000000
 40
0.300000000000001
100
AcDbArc
 50
178.000000000000
 51
270.000000000000
  0
LINE
  5
F10A0A
330
F10A0B
100
AcDbEntity
8
Geo
100
AcDbLine
10
-97.5905508971012
20
-5.21231100851313
30
0.000000000000000
11
-75.8905508971012
21
-5.21231100851313
31
0.000000000000000
  0
LINE
  5
F10A0C
330
F10A0D
100
AcDbEntity
8
Geo
100
AcDbLine
10
-75.8905508971012
20
-5.21231100851313
30
0.000000000000000
11
-28.8905508971012
21
-5.21231100851313
31
0.000000000000000
  0
LINE
  5
F10A0E
330
F10A0F
100
AcDbEntity
8
Geo
100
AcDbLine
10
-28.8905508971012
20
-5.21231100851313
30
0.000000000000000
11
-27.8905508971012
21
-4.21231100851313
31
0.000000000000000
  0
LINE
  5
F10A10
330
F10A11
100
AcDbEntity
8
Geo
100
AcDbLine
10
-97.5905508971012
20
4.78768899148687
30
0.000000000000000
11
-97.5905508971012
21
-5.21231100851313
31
0.000000000000000
  0
LINE
  5
F10A12
330
F10A13
100
AcDbEntity
8
Geo
100
AcDbLine
10
-97.5905508971012
20
4.78768899148687
30
0.000000000000000
11
-97.5905508971012
21
-5.21231100851313
31
0.000000000000000
  0
LINE
  5
F10A14
330
F10A15
100
AcDbEntity
8
Geo
100
AcDbLine
10
-75.8905508971012
20
4.78768899148687
30
0.000000000000000
11
-75.8905508971012
21
-5.21231100851313
31
0.000000000000000
  0
LINE
  5
F10A16
330
F10A17
100
AcDbEntity
8
Geo
100
AcDbLine
10
-75.8905508971012
20
4.78768899148687
30
0.000000000000000
11
-75.8905508971012
21
-5.21231100851313
31
0.000000000000000
  0
LINE
  5
F10A18
330
F10A19
100
AcDbEntity
8
Geo
100
AcDbLine
10
-28.8905508971012
20
4.78768899148687
30
0.000000000000000
11
-28.8905508971012
21
-5.21231100851313
31
0.000000000000000
  0
LINE
  5
F10A1A
330
F10A1B
100
AcDbEntity
8
Geo
100
AcDbLine
10
-27.8905508971012
20
3.78768899148688
30
0.000000000000000
11
-27.8905508971012
21
-4.21231100851313
31
0.000000000000000
  0
LWPOLYLINE
  5
F10A1C
330
F10A1D
100
AcDbEntity
8
Rahmen
100
AcDbPolyline
90
   4
70
   1
43
   0.0
 10
-125.560011606475
 20
102.905750957447
 10
134.416144726589
 20
102.905750957447
 10
134.416144726589
 20
-102.987149680259
 10
-125.560011606475
 20
-102.987149680259
  0
TEXT
  5
F10A1E
330
F10A1F
 100
AcDbEntity
8
Text
100
AcDbText
10
-124.533114346436
20
-102.487149680259
30
0.000000000000000
40
1.00000000000000
1
ISBESketcher
100
AcDbText
  0
LWPOLYLINE
  5
F10A20
330
F10A21
100
AcDbEntity
8
Rahmen
100
AcDbPolyline
90
   4
70
   1
43
   0.0
 10
94.3671515850903
 20
-99.9064579001441
 10
134.416144726589
 20
-99.9064579001441
 10
134.416144726589
 20
-102.987149680259
 10
94.3671515850903
 20
-102.987149680259
  0
TEXT
  5
F10A22
330
F10A23
 100
AcDbEntity
8
Text
100
AcDbText
10
95.5000000000000
20
-102.020172945029
30
0.000000000000000
40
0.750000000000000
1
Created by:
100
AcDbText
  0
TEXT
  5
F10A24
330
F10A25
 100
AcDbEntity
8
Text
100
AcDbText
10
120.446205479923
20
-102.020172945029
30
0.000000000000000
40
0.750000000000000
1
nsarkol
100
AcDbText
  0
LWPOLYLINE
  5
F10A26
330
F10A27
100
AcDbEntity
8
Rahmen
100
AcDbPolyline
90
   4
70
   1
43
   0.0
 10
54.4893079869310
 20
-99.9064579001441
 10
94.3671515850903
 20
-99.9064579001441
 10
94.3671515850903
 20
-102.987149680259
 10
54.4893079869310
 20
-102.987149680259
  0
TEXT
  5
F10A28
330
F10A29
 100
AcDbEntity
8
Text
100
AcDbText
10
55.5000000000000
20
-102.020172945029
30
0.000000000000000
40
0.750000000000000
1
Created for:
100
AcDbText
  0
TEXT
  5
F10A2A
330
F10A2B
 100
AcDbEntity
8
Text
100
AcDbText
10
0.000000000000000
20
0.250000000000000
30
0.000000000000000
40
0.750000000000000
1

100
AcDbText
  0
LWPOLYLINE
  5
F10A2C
330
F10A2D
100
AcDbEntity
8
Rahmen
100
AcDbPolyline
90
   4
70
   1
43
   0.0
 10
121.066480346090
 20
-96.9969156633685
 10
134.416144726589
 20
-96.9969156633685
 10
134.416144726589
 20
-99.9064579001441
 10
121.066480346090
 20
-99.9064579001441
  0
TEXT
  5
F10A2E
330
F10A2F
 100
AcDbEntity
8
Text
100
AcDbText
10
122.166666666667
20
-99.0201729450288
30
0.000000000000000
40
0.750000000000000
1
Pages
100
AcDbText
  0
TEXT
  5
F10A30
330
F10A31
 100
AcDbEntity
8
Text
100
AcDbText
10
0.000000000000000
20
0.250000000000000
30
0.000000000000000
40
0.750000000000000
1

100
AcDbText
  0
LWPOLYLINE
  5
F10A32
330
F10A33
100
AcDbEntity
8
Rahmen
100
AcDbPolyline
90
   4
70
   1
43
   0.0
 10
121.066480346090
 20
-94.0873734265929
 10
134.416144726589
 20
-94.0873734265929
 10
134.416144726589
 20
-96.9969156633685
 10
121.066480346090
 20
-96.9969156633685
  0
TEXT
  5
F10A34
330
F10A35
 100
AcDbEntity
8
Text
100
AcDbText
10
122.166666666667
20
-96.0201729450288
30
0.000000000000000
40
0.750000000000000
1
Page
100
AcDbText
  0
TEXT
  5
F10A36
330
F10A37
 100
AcDbEntity
8
Text
100
AcDbText
10
0.000000000000000
20
0.250000000000000
30
0.000000000000000
40
0.750000000000000
1

100
AcDbText
  0
LWPOLYLINE
  5
F10A38
330
F10A39
100
AcDbEntity
8
Rahmen
100
AcDbPolyline
90
   4
70
   1
43
   0.0
 10
54.4893079869310
 20
-94.0873734265929
 10
121.066480346090
 20
-94.0873734265929
 10
121.066480346090
 20
-99.9064579001441
 10
54.4893079869310
 20
-99.9064579001441
  0
TEXT
  5
F10A3A
330
F10A3B
 100
AcDbEntity
8
Text
100
AcDbText
10
55.5000000000000
20
-96.0201729450288
30
0.000000000000000
40
0.750000000000000
1
Date:
100
AcDbText
  0
TEXT
  5
F10A3C
330
F10A3D
 100
AcDbEntity
8
Text
100
AcDbText
10
84.6670667815482
20
-99.0201729450288
30
0.000000000000000
40
0.750000000000000
1
05.07.2016
100
AcDbText
  0
LWPOLYLINE
  5
F10A3E
330
F10A3F
100
AcDbEntity
8
Rahmen
100
AcDbPolyline
90
   4
70
   1
43
   0.0
 10
54.4893079869310
 20
-88.0971394097021
 10
134.416144726589
 20
-88.0971394097021
 10
134.416144726589
 20
-94.0873734265929
 10
54.4893079869310
 20
-94.0873734265929
  0
TEXT
  5
F10A40
330
F10A41
 100
AcDbEntity
8
Text
100
AcDbText
10
0.000000000000000
20
0.500000000000000
30
0.000000000000000
40
1.50000000000000
1

100
AcDbText
  0
TEXT
  5
F10A42
330
F10A43
 100
AcDbEntity
8
Text
100
AcDbText
10
66.8593487506321
20
-92.5627602734230
30
0.000000000000000
40
2.50000000000000
1
VHVTR 4 100 070 10 03 030
100
AcDbText
  0
LWPOLYLINE
  5
F10A44
330
F10A45
100
AcDbEntity
8
Rahmen
100
AcDbPolyline
90
   4
70
   1
43
   0.0
 10
94.3671515850903
 20
-82.1069053928112
 10
134.416144726589
 20
-82.1069053928112
 10
134.416144726589
 20
-88.0971394097021
 10
94.3671515850903
 20
-88.0971394097021
  0
TEXT
  5
F10A46
330
F10A47
 100
AcDbEntity
8
Text
100
AcDbText
10
95.5000000000000
20
-84.0201729450288
30
0.000000000000000
40
0.750000000000000
1
Work piece material:
100
AcDbText
  0
TEXT
  5
F10A48
330
F10A49
 100
AcDbEntity
8
Text
100
AcDbText
10
0.000000000000000
20
0.250000000000000
30
0.000000000000000
40
0.750000000000000
1

100
AcDbText
  0
LWPOLYLINE
  5
F10A4A
330
F10A4B
100
AcDbEntity
8
Rahmen
100
AcDbPolyline
90
   4
70
   1
43
   0.0
 10
54.4893079869310
 20
-82.1069053928112
 10
94.3671515850903
 20
-82.1069053928112
 10
94.3671515850903
 20
-88.0971394097021
 10
54.4893079869310
 20
-88.0971394097021
  0
TEXT
  5
F10A4C
330
F10A4D
 100
AcDbEntity
8
Text
100
AcDbText
10
55.5000000000000
20
-84.0201729450288
30
0.000000000000000
40
0.750000000000000
1
Tool material:
100
AcDbText
  0
TEXT
  5
F10A4E
330
F10A4F
 100
AcDbEntity
8
Text
100
AcDbText
10
0.000000000000000
20
0.250000000000000
30
0.000000000000000
40
0.750000000000000
1

100
AcDbText
  0
LWPOLYLINE
  5
F10A50
330
F10A51
100
AcDbEntity
8
Rahmen
100
AcDbPolyline
90
   4
70
   1
43
   0.0
 10
94.3671515850903
 20
-79.0262136126959
 10
134.416144726589
 20
-79.0262136126959
 10
134.416144726589
 20
-82.1069053928112
 10
94.3671515850903
 20
-82.1069053928112
  0
TEXT
  5
F10A52
330
F10A53
 100
AcDbEntity
8
Text
100
AcDbText
10
0.000000000000000
20
0.500000000000000
30
0.000000000000000
40
1.50000000000000
1

100
AcDbText
  0
TEXT
  5
F10A54
330
F10A55
 100
AcDbEntity
8
Text
100
AcDbText
10
0.000000000000000
20
0.250000000000000
30
0.000000000000000
40
0.750000000000000
1

100
AcDbText
  0
LWPOLYLINE
  5
F10A56
330
F10A57
100
AcDbEntity
8
Rahmen
100
AcDbPolyline
90
   4
70
   1
43
   0.0
 10
54.4893079869310
 20
-79.0262136126959
 10
94.3671515850903
 20
-79.0262136126959
 10
94.3671515850903
 20
-82.1069053928112
 10
54.4893079869310
 20
-82.1069053928112
  0
TEXT
  5
F10A58
330
F10A59
 100
AcDbEntity
8
Text
100
AcDbText
10
55.5000000000000
20
-81.0201729450288
30
0.000000000000000
40
0.750000000000000
1
Scale:
100
AcDbText
  0
TEXT
  5
F10A5A
330
F10A5B
 100
AcDbEntity
8
Text
100
AcDbText
10
81.2163784249520
20
-81.0201729450288
30
0.000000000000000
40
0.750000000000000
1
3 : 1
100
AcDbText
0
VIEWPORT
5
294
102
{ACAD_XDICTIONARY
360
58A
102
}
330
25D
100
AcDbEntity
67
1
8
0
60
1
100
AcDbViewport
10
0.0
20
0.0
30
0.0
40
10.0
41
10.0
68
-1
69
1
12
0.0
22
0.0
13
0.0
23
0.0
14
1.0
24
1.0
15
0.0
25
0.0
16
0.0
26
0.0
36
1.0
17
0.0
27
0.0
37
0.0
42
0.0
43
0.0
44
0.0
45
10.0
50
0.0
51
0.0000000000007958
72
100
90
32800
1

281
0
71
0
74
0
110
0.0
120
0.0
130
0.0
111
1.0
121
0.0
131
0.0
112
0.0
122
1.0
132
0.0
79
0
146
0.0
1001
VD_INVISIBLE_NOT_FOR_READ
1000
VD_INVISIBLE_NOT_FOR_READ
0
VIEWPORT
5
295
102
{ACAD_XDICTIONARY
360
58C
102
}
330
25D
100
AcDbEntity
67
1
8
0
60
1
100
AcDbViewport
10
0.0
20
0.0
30
0.0
40
10.0
41
10.0
68
0
69
2
12
0.0
22
0.0
13
0.0
23
0.0
14
1.0
24
1.0
15
0.0
25
0.0
16
0.0
26
0.0
36
1.0
17
0.0
27
0.0
37
0.0
42
0.0
43
0.0
44
0.0
45
10.0
50
0.0
51
0.0000000000007958
72
100
90
163872
1

281
0
71
0
74
0
110
0.0
120
0.0
130
0.0
111
1.0
121
0.0
131
0.0
112
0.0
122
1.0
132
0.0
79
0
146
0.0
1001
VD_INVISIBLE_NOT_FOR_READ
1000
VD_INVISIBLE_NOT_FOR_READ
0
ENDSEC
0
SECTION
2
OBJECTS
0
DICTIONARY
5
13
330
0
100
AcDbDictionary
281
1
3
ACAD_COLOR
350
FA7
3
ACAD_GROUP
350
14
3
ACAD_LAYOUT
350
FCF
3
ACAD_MATERIAL
350
F7A
3
ACAD_MLEADERSTYLE
350
FCD
3
ACAD_MLINESTYLE
350
16
3
ACAD_PLOTSETTINGS
350
17
3
ACAD_PLOTSTYLENAME
350
18
3
ACAD_SCALELIST
350
FAB
3
ACAD_TABLESTYLE
350
FA8
3
ACAD_VISUALSTYLE
350
F93
3
ACDB_RECOMPOSE_DATA
350
107E
3
AcDbVariableDictionary
350
FF0
3
DWGPROPS
350
107F
0
DICTIONARY
5
F10014
330
F10013
100
AcDbDictionary
280
1
281
1
3
ACAD_MTEXT_2008_RT
360
F10015
0
DICTIONARY
5
F1001E
330
F1001D
100
AcDbDictionary
280
1
281
1
3
ACAD_MTEXT_2008_RT
360
F1001F
0
DICTIONARY
5
F10023
330
F10022
100
AcDbDictionary
280
1
281
1
3
ACAD_MTEXT_2008_RT
360
F10024
0
DICTIONARY
5
F10005
330
F10004
100
AcDbDictionary
280
1
281
1
3
ACAD_MTEXT_2008_RT
360
F10006
0
DICTIONARY
5
F1000F
330
F1000E
100
AcDbDictionary
280
1
281
1
3
ACAD_MTEXT_2008_RT
360
F10010
0
DICTIONARY
5
F1000A
330
F10009
100
AcDbDictionary
280
1
281
1
3
ACAD_MTEXT_2008_RT
360
F1000B
0
DICTIONARY
5
F10019
330
F10018
100
AcDbDictionary
280
1
281
1
3
ACAD_MTEXT_2008_RT
360
F1001A
0
DICTIONARY
5
FA7
102
{ACAD_REACTORS
330
13
102
}
330
13
100
AcDbDictionary
281
1
0
DICTIONARY
5
14
330
13
100
AcDbDictionary
281
1
0
DICTIONARY
5
FCF
102
{ACAD_REACTORS
330
13
102
}
330
13
100
AcDbDictionary
281
1
3
Layout1
350
FD1
3
Model
350
FD0
0
DICTIONARY
5
F7A
102
{ACAD_REACTORS
330
13
102
}
330
13
100
AcDbDictionary
281
1
3
ByBlock
350
F83
3
ByLayer
350
F7B
3
Global
350
F8B
0
DICTIONARY
5
FCD
102
{ACAD_REACTORS
330
13
102
}
330
13
100
AcDbDictionary
281
1
3
Standard
350
FCE
0
DICTIONARY
5
16
330
13
100
AcDbDictionary
281
1
3
Standard
350
FAA
0
DICTIONARY
5
17
102
{ACAD_REACTORS
330
13
102
}
330
13
100
AcDbDictionary
281
1
0
ACDBDICTIONARYWDFLT
5
18
102
{ACAD_REACTORS
330
13
102
}
330
13
100
AcDbDictionary
281
1
3
Normal
350
19
100
AcDbDictionaryWithDefault
340
19
0
DICTIONARY
5
FAB
102
{ACAD_REACTORS
330
13
102
}
330
13
100
AcDbDictionary
281
1
3
A0
350
FAC
3
A1
350
FAD
3
A2
350
FAE
3
A3
350
FAF
3
A4
350
FB0
3
A5
350
FB1
3
A6
350
FB2
3
A7
350
FB3
3
A8
350
FB4
3
A9
350
FB5
3
B0
350
FB6
3
B1
350
FB7
3
B2
350
FB8
3
B3
350
FB9
3
B4
350
FBA
3
B5
350
FBB
3
B6
350
FBC
3
B7
350
FBD
3
B8
350
FBE
3
B9
350
FBF
3
C0
350
FC0
3
C1
350
FC1
3
C2
350
FC2
3
C3
350
FC3
3
C4
350
FC4
3
C5
350
FC5
3
C6
350
FC6
3
C7
350
FC7
3
C8
350
FC8
3
C9
350
FC9
3
D0
350
FCA
3
D1
350
FCB
3
D2
350
FCC
0
DICTIONARY
5
FA8
102
{ACAD_REACTORS
330
13
102
}
330
13
100
AcDbDictionary
281
1
3
Standard
350
FA9
0
DICTIONARY
5
F93
102
{ACAD_REACTORS
330
13
102
}
330
13
100
AcDbDictionary
281
1
3
2dWireframe
350
F99
3
3D Hidden
350
F9B
3
3dWireframe
350
F9A
3
Basic
350
F98
3
Brighten
350
F9F
3
ColorChange
350
FA3
3
Conceptual
350
F9C
3
Dim
350
F9E
3
EdgeColorOff
350
FA6
3
Facepattern
350
FA2
3
Flat
350
F94
3
FlatWithEdges
350
F95
3
Gouraud
350
F96
3
GouraudWithEdges
350
F97
3
JitterOff
350
FA4
3
Linepattern
350
FA1
3
OverhangOff
350
FA5
3
Realistic
350
F9D
3
Thicken
350
FA0
0
XRECORD
5
107E
102
{ACAD_REACTORS
330
13
102
}
330
13
100
AcDbXrecord
280
1
90
1
330
FA9
330
F10013
330
F1001D
330
F10022
330
F10004
330
F1000E
330
F10009
330
F10018
0
XRECORD
5
F10015
102
{ACAD_REACTORS
330
F10014
102
}
330
F10014
100
AcDbXrecord
280
1
40
48458.0
1
48
0
XRECORD
5
F1001F
102
{ACAD_REACTORS
330
F1001E
102
}
330
F1001E
100
AcDbXrecord
280
1
40
48458.0
1
22
0
XRECORD
5
F10024
102
{ACAD_REACTORS
330
F10023
102
}
330
F10023
100
AcDbXrecord
280
1
40
48458.0
1
70
0
XRECORD
5
F10006
102
{ACAD_REACTORS
330
F10005
102
}
330
F10005
100
AcDbXrecord
280
1
40
48458.0
1
2°
0
XRECORD
5
F10010
102
{ACAD_REACTORS
330
F1000F
102
}
330
F1000F
100
AcDbXrecord
280
1
40
48458.0
1
R0.3
0
XRECORD
5
F1000B
102
{ACAD_REACTORS
330
F1000A
102
}
330
F1000A
100
AcDbXrecord
280
1
40
48458.0
1
10
0
LAYOUT
5
FD1
102
{ACAD_XDICTIONARY
360
10A9
102
}
102
{ACAD_REACTORS
330
FCF
102
}
330
FCF
100
AcDbPlotSettings
1

2
Microsoft XPS Document Writer
4

6

40
0.0
41
0.0
42
0.0
43
0.0
44
0.0
45
0.0
46
0.0
47
0.0
48
0.0
49
0.0
140
0.0
141
0.0
142
1.0
143
1.0
70
688
72
0
73
0
74
5
7

75
16
147
1.0
148
0.0
149
0.0
100
AcDbLayout
1
Layout1
70
1
71
1
10
0.0
20
0.0
11
12.0
21
9.0
12
0.0
22
0.0
32
0.0
14
1.000000000000000E+20
24
1.000000000000000E+20
34
1.000000000000000E+20
15
-1.000000000000000E+20
25
-1.000000000000000E+20
35
-1.000000000000000E+20
146
0.0
13
0.0
23
0.0
33
0.0
16
1.0
26
0.0
36
0.0
17
0.0
27
1.0
37
0.0
76
0
330
25D
0
LAYOUT
5
FD0
102
{ACAD_XDICTIONARY
360
10A7
102
}
102
{ACAD_REACTORS
330
FCF
102
}
330
FCF
100
AcDbPlotSettings
1

2
Microsoft XPS Document Writer
4

6

40
0.0
41
0.0
42
0.0
43
0.0
44
0.0
45
0.0
46
0.0
47
0.0
48
0.0
49
0.0
140
0.0
141
0.0
142
1.0
143
1.0
70
1712
72
0
73
0
74
0
7

75
0
147
1.0
148
0.0
149
0.0
100
AcDbLayout
1
Model
70
1
71
0
10
0.0
20
0.0
11
12.0
21
9.0
12
0.0
22
0.0
32
0.0
14
0.0
24
0.0
34
0.0
15
0.0
25
0.0
35
0.0
146
0.0
13
0.0
23
0.0
33
0.0
16
1.0
26
0.0
36
0.0
17
0.0
27
1.0
37
0.0
76
0
330
261
331
26B
0
MATERIAL
5
F83
102
{ACAD_XDICTIONARY
360
F84
102
}
102
{ACAD_REACTORS
330
F7A
102
}
330
F7A
100
AcDbMaterial
1
ByBlock
72
0
43
0.0208333333333333
43
0.0
43
0.0
43
0.0
43
0.0
43
0.0208333333333333
43
0.0
43
0.0
43
0.0
43
0.0
43
1.0
43
0.0
43
0.0
43
0.0
43
0.0
43
1.0
77
0
47
0.0208333333333333
47
0.0
47
0.0
47
0.0
47
0.0
47
0.0208333333333333
47
0.0
47
0.0
47
0.0
47
0.0
47
1.0
47
0.0
47
0.0
47
0.0
47
0.0
47
1.0
171
0
49
0.0208333333333333
49
0.0
49
0.0
49
0.0
49
0.0
49
0.0208333333333333
49
0.0
49
0.0
49
0.0
49
0.0
49
1.0
49
0.0
49
0.0
49
0.0
49
0.0
49
1.0
175
0
142
0.0208333333333333
142
0.0
142
0.0
142
0.0
142
0.0
142
0.0208333333333333
142
0.0
142
0.0
142
0.0
142
0.0
142
1.0
142
0.0
142
0.0
142
0.0
142
0.0
142
1.0
179
0
144
0.0208333333333333
144
0.0
144
0.0
144
0.0
144
0.0
144
0.0208333333333333
144
0.0
144
0.0
144
0.0
144
0.0
144
1.0
144
0.0
144
0.0
144
0.0
144
0.0
144
1.0
147
0.0208333333333333
147
0.0
147
0.0
147
0.0
147
0.0
147
0.0208333333333333
147
0.0
147
0.0
147
0.0
147
0.0
147
1.0
147
0.0
147
0.0
147
0.0
147
0.0
147
1.0
0
MATERIAL
5
F7B
102
{ACAD_XDICTIONARY
360
F7C
102
}
102
{ACAD_REACTORS
330
F7A
102
}
330
F7A
100
AcDbMaterial
1
ByLayer
72
0
43
0.0208333333333333
43
0.0
43
0.0
43
0.0
43
0.0
43
0.0208333333333333
43
0.0
43
0.0
43
0.0
43
0.0
43
1.0
43
0.0
43
0.0
43
0.0
43
0.0
43
1.0
77
0
47
0.0208333333333333
47
0.0
47
0.0
47
0.0
47
0.0
47
0.0208333333333333
47
0.0
47
0.0
47
0.0
47
0.0
47
1.0
47
0.0
47
0.0
47
0.0
47
0.0
47
1.0
171
0
49
0.0208333333333333
49
0.0
49
0.0
49
0.0
49
0.0
49
0.0208333333333333
49
0.0
49
0.0
49
0.0
49
0.0
49
1.0
49
0.0
49
0.0
49
0.0
49
0.0
49
1.0
175
0
142
0.0208333333333333
142
0.0
142
0.0
142
0.0
142
0.0
142
0.0208333333333333
142
0.0
142
0.0
142
0.0
142
0.0
142
1.0
142
0.0
142
0.0
142
0.0
142
0.0
142
1.0
179
0
144
0.0208333333333333
144
0.0
144
0.0
144
0.0
144
0.0
144
0.0208333333333333
144
0.0
144
0.0
144
0.0
144
0.0
144
1.0
144
0.0
144
0.0
144
0.0
144
0.0
144
1.0
147
0.0208333333333333
147
0.0
147
0.0
147
0.0
147
0.0
147
0.0208333333333333
147
0.0
147
0.0
147
0.0
147
0.0
147
1.0
147
0.0
147
0.0
147
0.0
147
0.0
147
1.0
0
MATERIAL
5
F8B
102
{ACAD_XDICTIONARY
360
F8C
102
}
102
{ACAD_REACTORS
330
F7A
102
}
330
F7A
100
AcDbMaterial
1
Global
72
0
43
0.0208333333333333
43
0.0
43
0.0
43
0.0
43
0.0
43
0.0208333333333333
43
0.0
43
0.0
43
0.0
43
0.0
43
1.0
43
0.0
43
0.0
43
0.0
43
0.0
43
1.0
77
0
47
0.0208333333333333
47
0.0
47
0.0
47
0.0
47
0.0
47
0.0208333333333333
47
0.0
47
0.0
47
0.0
47
0.0
47
1.0
47
0.0
47
0.0
47
0.0
47
0.0
47
1.0
171
0
49
0.0208333333333333
49
0.0
49
0.0
49
0.0
49
0.0
49
0.0208333333333333
49
0.0
49
0.0
49
0.0
49
0.0
49
1.0
49
0.0
49
0.0
49
0.0
49
0.0
49
1.0
175
0
142
0.0208333333333333
142
0.0
142
0.0
142
0.0
142
0.0
142
0.0208333333333333
142
0.0
142
0.0
142
0.0
142
0.0
142
1.0
142
0.0
142
0.0
142
0.0
142
0.0
142
1.0
179
0
144
0.0208333333333333
144
0.0
144
0.0
144
0.0
144
0.0
144
0.0208333333333333
144
0.0
144
0.0
144
0.0
144
0.0
144
1.0
144
0.0
144
0.0
144
0.0
144
0.0
144
1.0
147
0.0208333333333333
147
0.0
147
0.0
147
0.0
147
0.0
147
0.0208333333333333
147
0.0
147
0.0
147
0.0
147
0.0
147
1.0
147
0.0
147
0.0
147
0.0
147
0.0
147
1.0
0
MLEADERSTYLE
5
FCE
102
{ACAD_REACTORS
330
FCD
102
}
330
FCD
100
AcDbMLeaderStyle
170
2
171
1
172
0
90
2
40
0.0
41
0.0
173
1
91
-1056964608
340
256
92
-2
290
1
42
0.09
291
1
43
0.36
3
Standard
44
0.18
300

342
253
174
1
178
6
175
1
176
0
93
-1056964608
45
0.18
292
0
297
0
46
0.18
94
-1056964608
47
1.0
49
1.0
140
1.0
293
1
141
0.0
294
1
177
0
142
1.0
295
0
296
0
143
0.125
1001
ACAD_MLEADERVER
1070
2
0
MLINESTYLE
5
FAA
102
{ACAD_REACTORS
330
16
102
}
330
16
100
AcDbMlineStyle
2
STANDARD
70
0
3

62
256
51
90.0
52
90.0
71
2
49
0.5
62
256
6
BYLAYER
49
-0.5
62
256
6
BYLAYER
0
ACDBPLACEHOLDER
5
19
102
{ACAD_REACTORS
330
18
102
}
330
18
0
SCALE
5
FAC
102
{ACAD_REACTORS
330
FAB
102
}
330
FAB
100
AcDbScale
70
0
300
1:1
140
1.0
141
1.0
290
1
0
SCALE
5
FAD
102
{ACAD_REACTORS
330
FAB
102
}
330
FAB
100
AcDbScale
70
0
300
1:2
140
1.0
141
2.0
290
0
0
SCALE
5
FAE
102
{ACAD_REACTORS
330
FAB
102
}
330
FAB
100
AcDbScale
70
0
300
1:4
140
1.0
141
4.0
290
0
0
SCALE
5
FAF
102
{ACAD_REACTORS
330
FAB
102
}
330
FAB
100
AcDbScale
70
0
300
1:5
140
1.0
141
5.0
290
0
0
SCALE
5
FB0
102
{ACAD_REACTORS
330
FAB
102
}
330
FAB
100
AcDbScale
70
0
300
1:8
140
1.0
141
8.0
290
0
0
SCALE
5
FB1
102
{ACAD_REACTORS
330
FAB
102
}
330
FAB
100
AcDbScale
70
0
300
1:10
140
1.0
141
10.0
290
0
0
SCALE
5
FB2
102
{ACAD_REACTORS
330
FAB
102
}
330
FAB
100
AcDbScale
70
0
300
1:16
140
1.0
141
16.0
290
0
0
SCALE
5
FB3
102
{ACAD_REACTORS
330
FAB
102
}
330
FAB
100
AcDbScale
70
0
300
1:20
140
1.0
141
20.0
290
0
0
SCALE
5
FB4
102
{ACAD_REACTORS
330
FAB
102
}
330
FAB
100
AcDbScale
70
0
300
1:30
140
1.0
141
30.0
290
0
0
SCALE
5
FB5
102
{ACAD_REACTORS
330
FAB
102
}
330
FAB
100
AcDbScale
70
0
300
1:40
140
1.0
141
40.0
290
0
0
SCALE
5
FB6
102
{ACAD_REACTORS
330
FAB
102
}
330
FAB
100
AcDbScale
70
0
300
1:50
140
1.0
141
50.0
290
0
0
SCALE
5
FB7
102
{ACAD_REACTORS
330
FAB
102
}
330
FAB
100
AcDbScale
70
0
300
1:100
140
1.0
141
100.0
290
0
0
SCALE
5
FB8
102
{ACAD_REACTORS
330
FAB
102
}
330
FAB
100
AcDbScale
70
0
300
2:1
140
2.0
141
1.0
290
0
0
SCALE
5
FB9
102
{ACAD_REACTORS
330
FAB
102
}
330
FAB
100
AcDbScale
70
0
300
4:1
140
4.0
141
1.0
290
0
0
SCALE
5
FBA
102
{ACAD_REACTORS
330
FAB
102
}
330
FAB
100
AcDbScale
70
0
300
8:1
140
8.0
141
1.0
290
0
0
SCALE
5
FBB
102
{ACAD_REACTORS
330
FAB
102
}
330
FAB
100
AcDbScale
70
0
300
10:1
140
10.0
141
1.0
290
0
0
SCALE
5
FBC
102
{ACAD_REACTORS
330
FAB
102
}
330
FAB
100
AcDbScale
70
0
300
100:1
140
100.0
141
1.0
290
0
0
SCALE
5
FBD
102
{ACAD_REACTORS
330
FAB
102
}
330
FAB
100
AcDbScale
70
0
300
1/128" = 1'-0"
140
0.0078125
141
12.0
290
0
0
SCALE
5
FBE
102
{ACAD_REACTORS
330
FAB
102
}
330
FAB
100
AcDbScale
70
0
300
1/64" = 1'-0"
140
0.015625
141
12.0
290
0
0
SCALE
5
FBF
102
{ACAD_REACTORS
330
FAB
102
}
330
FAB
100
AcDbScale
70
0
300
1/32" = 1'-0"
140
0.03125
141
12.0
290
0
0
SCALE
5
FC0
102
{ACAD_REACTORS
330
FAB
102
}
330
FAB
100
AcDbScale
70
0
300
1/16" = 1'-0"
140
0.0625
141
12.0
290
0
0
SCALE
5
FC1
102
{ACAD_REACTORS
330
FAB
102
}
330
FAB
100
AcDbScale
70
0
300
3/32" = 1'-0"
140
0.09375
141
12.0
290
0
0
SCALE
5
FC2
102
{ACAD_REACTORS
330
FAB
102
}
330
FAB
100
AcDbScale
70
0
300
1/8" = 1'-0"
140
0.125
141
12.0
290
0
0
SCALE
5
FC3
102
{ACAD_REACTORS
330
FAB
102
}
330
FAB
100
AcDbScale
70
0
300
3/16" = 1'-0"
140
0.1875
141
12.0
290
0
0
SCALE
5
FC4
102
{ACAD_REACTORS
330
FAB
102
}
330
FAB
100
AcDbScale
70
0
300
1/4" = 1'-0"
140
0.25
141
12.0
290
0
0
SCALE
5
FC5
102
{ACAD_REACTORS
330
FAB
102
}
330
FAB
100
AcDbScale
70
0
300
3/8" = 1'-0"
140
0.375
141
12.0
290
0
0
SCALE
5
FC6
102
{ACAD_REACTORS
330
FAB
102
}
330
FAB
100
AcDbScale
70
0
300
1/2" = 1'-0"
140
0.5
141
12.0
290
0
0
SCALE
5
FC7
102
{ACAD_REACTORS
330
FAB
102
}
330
FAB
100
AcDbScale
70
0
300
3/4" = 1'-0"
140
0.75
141
12.0
290
0
0
SCALE
5
FC8
102
{ACAD_REACTORS
330
FAB
102
}
330
FAB
100
AcDbScale
70
0
300
1" = 1'-0"
140
1.0
141
12.0
290
0
0
SCALE
5
FC9
102
{ACAD_REACTORS
330
FAB
102
}
330
FAB
100
AcDbScale
70
0
300
1-1/2" = 1'-0"
140
1.5
141
12.0
290
0
0
SCALE
5
FCA
102
{ACAD_REACTORS
330
FAB
102
}
330
FAB
100
AcDbScale
70
0
300
3" = 1'-0"
140
3.0
141
12.0
290
0
0
SCALE
5
FCB
102
{ACAD_REACTORS
330
FAB
102
}
330
FAB
100
AcDbScale
70
0
300
6" = 1'-0"
140
6.0
141
12.0
290
0
0
SCALE
5
FCC
102
{ACAD_REACTORS
330
FAB
102
}
330
FAB
100
AcDbScale
70
0
300
1'-0" = 1'-0"
140
12.0
141
12.0
290
0
0
TABLESTYLE
5
FA9
102
{ACAD_XDICTIONARY
360
FF8
102
}
102
{ACAD_REACTORS
330
FA8
102
}
330
FA8
100
AcDbTableStyle
3
Standard
70
0
71
0
40
0.06
41
0.06
280
0
281
0
7
Standard
140
0.18
170
2
62
0
63
7
283
0
274
-2
284
1
64
0
275
-2
285
1
65
0
276
-2
286
1
66
0
277
-2
287
1
67
0
278
-2
288
1
68
0
279
-2
289
1
69
0
7
Standard
140
0.25
170
5
62
0
63
7
283
0
274
-2
284
1
64
0
275
-2
285
1
65
0
276
-2
286
1
66
0
277
-2
287
1
67
0
278
-2
288
1
68
0
279
-2
289
1
69
0
7
Standard
140
0.18
170
5
62
0
63
7
283
0
274
-2
284
1
64
0
275
-2
285
1
65
0
276
-2
286
1
66
0
277
-2
287
1
67
0
278
-2
288
1
68
0
279
-2
289
1
69
0
0
VISUALSTYLE
5
F99
102
{ACAD_XDICTIONARY
360
108A
102
}
102
{ACAD_REACTORS
330
F93
102
}
330
F93
100
AcDbVisualStyle
2

70
4
71
0
72
2
73
0
90
0
40
-0.6
41
-30.0
62
5
63
7
74
1
91
4
64
7
65
257
75
1
175
1
42
1.0
92
0
66
257
43
1.0
76
1
77
6
78
2
67
7
79
5
170
0
171
0
290
0
174
0
93
1
44
0.0
173
0
291
0
45
0.0
1001
ACAD
1000
AcDbSavedByObjectVersion
1070
0
0
VISUALSTYLE
5
F9B
102
{ACAD_XDICTIONARY
360
108E
102
}
102
{ACAD_REACTORS
330
F93
102
}
330
F93
100
AcDbVisualStyle
2

70
6
71
1
72
2
73
2
90
0
40
-0.6
41
-30.0
62
5
63
7
74
2
91
2
64
7
65
257
75
2
175
1
42
179.0
92
0
66
257
43
1.0
76
1
77
6
78
2
67
7
79
3
170
0
171
0
290
0
174
0
93
1
44
0.0
173
0
291
0
45
0.0
1001
ACAD
1000
AcDbSavedByObjectVersion
1070
0
0
VISUALSTYLE
5
F9A
102
{ACAD_XDICTIONARY
360
108C
102
}
102
{ACAD_REACTORS
330
F93
102
}
330
F93
100
AcDbVisualStyle
2

70
5
71
0
72
2
73
0
90
0
40
-0.6
41
-30.0
62
5
63
7
74
1
91
4
64
7
65
257
75
1
175
1
42
1.0
92
0
66
257
43
1.0
76
1
77
6
78
2
67
7
79
5
170
0
171
0
290
0
174
0
93
1
44
0.0
173
0
291
0
45
0.0
1001
ACAD
1000
AcDbSavedByObjectVersion
1070
0
0
VISUALSTYLE
5
F98
102
{ACAD_XDICTIONARY
360
1088
102
}
102
{ACAD_REACTORS
330
F93
102
}
330
F93
100
AcDbVisualStyle
2

70
7
71
1
72
0
73
1
90
0
40
-0.6
41
-30.0
62
5
63
7
74
0
91
4
64
7
65
257
75
1
175
1
42
1.0
92
8
66
7
43
1.0
76
1
77
6
78
2
67
7
79
5
170
0
171
0
290
0
174
0
93
1
44
0.0
173
0
291
1
45
0.0
1001
ACAD
1000
AcDbSavedByObjectVersion
1070
0
0
VISUALSTYLE
5
F9F
102
{ACAD_XDICTIONARY
360
1096
102
}
102
{ACAD_REACTORS
330
F93
102
}
330
F93
100
AcDbVisualStyle
2

70
12
71
2
72
2
73
0
90
0
40
-0.6
41
-30.0
62
5
63
7
74
1
91
4
64
7
65
257
75
1
175
1
42
1.0
92
8
66
7
43
1.0
76
1
77
6
78
2
67
7
79
5
170
0
171
0
290
0
174
0
93
1
44
50.0
173
0
291
1
45
0.0
1001
ACAD
1000
AcDbSavedByObjectVersion
1070
0
0
VISUALSTYLE
5
FA3
102
{ACAD_XDICTIONARY
360
109E
102
}
102
{ACAD_REACTORS
330
F93
102
}
330
F93
100
AcDbVisualStyle
2

70
16
71
2
72
2
73
3
90
0
40
-0.6
41
-30.0
62
5
63
8
74
1
91
4
64
7
65
257
75
1
175
1
42
1.0
92
8
66
8
43
1.0
76
1
77
6
78
2
67
7
79
5
170
0
171
0
290
0
174
0
93
1
44
0.0
173
0
291
1
45
0.0
1001
ACAD
1000
AcDbSavedByObjectVersion
1070
0
0
VISUALSTYLE
5
F9C
102
{ACAD_XDICTIONARY
360
1090
102
}
102
{ACAD_REACTORS
330
F93
102
}
330
F93
100
AcDbVisualStyle
2

70
9
71
3
72
2
73
0
90
0
40
-0.6
41
-30.0
62
5
63
7
74
2
91
2
64
7
65
257
75
1
175
1
42
179.0
92
8
66
7
43
1.0
76
1
77
6
78
2
67
7
79
3
170
0
171
0
290
0
174
0
93
1
44
0.0
173
0
291
0
45
0.0
1001
ACAD
1000
AcDbSavedByObjectVersion
1070
0
0
VISUALSTYLE
5
F9E
102
{ACAD_XDICTIONARY
360
1094
102
}
102
{ACAD_REACTORS
330
F93
102
}
330
F93
100
AcDbVisualStyle
2

70
11
71
2
72
2
73
0
90
0
40
-0.6
41
-30.0
62
5
63
7
74
1
91
4
64
7
65
257
75
1
175
1
42
1.0
92
8
66
7
43
1.0
76
1
77
6
78
2
67
7
79
5
170
0
171
0
290
0
174
0
93
1
44
-50.0
173
0
291
1
45
0.0
1001
ACAD
1000
AcDbSavedByObjectVersion
1070
0
0
VISUALSTYLE
5
FA6
102
{ACAD_XDICTIONARY
360
10A4
102
}
102
{ACAD_REACTORS
330
F93
102
}
330
F93
100
AcDbVisualStyle
2

70
22
71
2
72
2
73
0
90
0
40
-0.6
41
-30.0
62
5
63
7
74
1
91
4
64
7
65
257
75
1
175
1
42
1.0
92
8
66
7
43
1.0
76
1
77
6
78
2
67
7
79
5
170
0
171
0
290
0
174
0
93
1
44
0.0
173
0
291
1
45
0.0
1001
ACAD
1000
AcDbSavedByObjectVersion
1070
0
0
VISUALSTYLE
5
FA2
102
{ACAD_XDICTIONARY
360
109C
102
}
102
{ACAD_REACTORS
330
F93
102
}
330
F93
100
AcDbVisualStyle
2

70
15
71
2
72
2
73
0
90
0
40
-0.6
41
-30.0
62
5
63
7
74
1
91
4
64
7
65
257
75
1
175
1
42
1.0
92
8
66
7
43
1.0
76
1
77
6
78
2
67
7
79
5
170
0
171
0
290
0
174
0
93
1
44
0.0
173
0
291
1
45
0.0
1001
ACAD
1000
AcDbSavedByObjectVersion
1070
0
0
VISUALSTYLE
5
F94
102
{ACAD_XDICTIONARY
360
1080
102
}
102
{ACAD_REACTORS
330
F93
102
}
330
F93
100
AcDbVisualStyle
2

70
0
71
2
72
1
73
1
90
2
40
-0.6
41
30.0
62
5
63
7
74
0
91
4
64
7
65
257
75
1
175
1
42
1.0
92
8
66
7
43
1.0
76
1
77
6
78
2
67
7
79
5
170
0
171
0
290
0
174
0
93
13
44
0.0
173
0
291
1
45
0.0
1001
ACAD
1000
AcDbSavedByObjectVersion
1070
0
0
VISUALSTYLE
5
F95
102
{ACAD_XDICTIONARY
360
1082
102
}
102
{ACAD_REACTORS
330
F93
102
}
330
F93
100
AcDbVisualStyle
2

70
1
71
2
72
1
73
1
90
2
40
-0.6
41
30.0
62
5
63
7
74
1
91
4
64
7
65
257
75
1
175
1
42
1.0
92
0
66
257
43
1.0
76
1
77
6
78
2
67
7
79
5
170
0
171
0
290
0
174
0
93
13
44
0.0
173
0
291
1
45
0.0
1001
ACAD
1000
AcDbSavedByObjectVersion
1070
0
0
VISUALSTYLE
5
F96
102
{ACAD_XDICTIONARY
360
1084
102
}
102
{ACAD_REACTORS
330
F93
102
}
330
F93
100
AcDbVisualStyle
2

70
2
71
2
72
2
73
1
90
2
40
-0.6
41
30.0
62
5
63
7
74
0
91
4
64
7
65
257
75
1
175
1
42
1.0
92
0
66
7
43
1.0
76
1
77
6
78
2
67
7
79
5
170
0
171
0
290
0
174
0
93
13
44
0.0
173
0
291
1
45
0.0
1001
ACAD
1000
AcDbSavedByObjectVersion
1070
0
0
VISUALSTYLE
5
F97
102
{ACAD_XDICTIONARY
360
1086
102
}
102
{ACAD_REACTORS
330
F93
102
}
330
F93
100
AcDbVisualStyle
2

70
3
71
2
72
2
73
1
90
2
40
-0.6
41
30.0
62
5
63
7
74
1
91
4
64
7
65
257
75
1
175
1
42
1.0
92
0
66
257
43
1.0
76
1
77
6
78
2
67
7
79
5
170
0
171
0
290
0
174
0
93
13
44
0.0
173
0
291
1
45
0.0
1001
ACAD
1000
AcDbSavedByObjectVersion
1070
0
0
VISUALSTYLE
5
FA4
102
{ACAD_XDICTIONARY
360
10A0
102
}
102
{ACAD_REACTORS
330
F93
102
}
330
F93
100
AcDbVisualStyle
2

70
20
71
2
72
2
73
0
90
0
40
-0.6
41
-30.0
62
5
63
7
74
1
91
4
64
7
65
257
75
1
175
1
42
1.0
92
10
66
7
43
1.0
76
1
77
6
78
2
67
7
79
5
170
0
171
0
290
0
174
0
93
1
44
0.0
173
0
291
1
45
0.0
1001
ACAD
1000
AcDbSavedByObjectVersion
1070
0
0
VISUALSTYLE
5
FA1
102
{ACAD_XDICTIONARY
360
109A
102
}
102
{ACAD_REACTORS
330
F93
102
}
330
F93
100
AcDbVisualStyle
2

70
14
71
2
72
2
73
0
90
0
40
-0.6
41
-30.0
62
5
63
7
74
1
91
4
64
7
65
257
75
7
175
7
42
1.0
92
8
66
7
43
1.0
76
1
77
6
78
2
67
7
79
5
170
0
171
0
290
0
174
0
93
1
44
0.0
173
0
291
1
45
0.0
1001
ACAD
1000
AcDbSavedByObjectVersion
1070
0
0
VISUALSTYLE
5
FA5
102
{ACAD_XDICTIONARY
360
10A2
102
}
102
{ACAD_REACTORS
330
F93
102
}
330
F93
100
AcDbVisualStyle
2

70
21
71
2
72
2
73
0
90
0
40
-0.6
41
-30.0
62
5
63
7
74
1
91
4
64
7
65
257
75
1
175
1
42
1.0
92
9
66
7
43
1.0
76
1
77
6
78
2
67
7
79
5
170
0
171
0
290
0
174
0
93
1
44
0.0
173
0
291
1
45
0.0
1001
ACAD
1000
AcDbSavedByObjectVersion
1070
0
0
VISUALSTYLE
5
F9D
102
{ACAD_XDICTIONARY
360
1092
102
}
102
{ACAD_REACTORS
330
F93
102
}
330
F93
100
AcDbVisualStyle
2

70
8
71
2
72
2
73
0
90
0
40
-0.6
41
-30.0
62
5
63
7
74
1
91
0
64
7
65
257
75
1
175
1
42
1.0
92
8
66
8
43
1.0
76
1
77
6
78
2
67
7
79
5
170
0
171
0
290
0
174
0
93
13
44
0.0
173
0
291
0
45
0.0
1001
ACAD
1000
AcDbSavedByObjectVersion
1070
0
0
VISUALSTYLE
5
FA0
102
{ACAD_XDICTIONARY
360
1098
102
}
102
{ACAD_REACTORS
330
F93
102
}
330
F93
100
AcDbVisualStyle
2

70
13
71
2
72
2
73
0
90
0
40
-0.6
41
-30.0
62
5
63
7
74
1
91
4
64
7
65
257
75
1
175
1
42
1.0
92
12
66
7
43
1.0
76
1
77
6
78
2
67
7
79
5
170
0
171
0
290
0
174
0
93
1
44
0.0
173
0
291
1
45
0.0
1001
ACAD
1000
AcDbSavedByObjectVersion
1070
0
0
DICTIONARYVAR
5
FF3
102
{ACAD_REACTORS
330
FF0
102
}
330
FF0
100
DictionaryVariables
280
0
1
1:1
0
DICTIONARYVAR
5
FF2
102
{ACAD_REACTORS
330
FF0
102
}
330
FF0
100
DictionaryVariables
280
0
1
STANDARD
0
DICTIONARYVAR
5
FF1
102
{ACAD_REACTORS
330
FF0
102
}
330
FF0
100
DictionaryVariables
280
0
1
STANDARD
0
DICTIONARYVAR
5
FF6
102
{ACAD_REACTORS
330
FF0
102
}
330
FF0
100
DictionaryVariables
280
0
1
1
0
DICTIONARYVAR
5
FF5
102
{ACAD_REACTORS
330
FF0
102
}
330
FF0
100
DictionaryVariables
280
0
1
0
0
DICTIONARYVAR
5
FF4
102
{ACAD_REACTORS
330
FF0
102
}
330
FF0
100
DictionaryVariables
280
0
1
127
0
DICTIONARYVAR
5
1078
102
{ACAD_REACTORS
330
FF0
102
}
330
FF0
100
DictionaryVariables
280
0
1
2
0
DICTIONARY
5
10A9
330
FD1
100
AcDbDictionary
280
1
281
1
3
ACAD_XREC_ROUNDTRIP
360
10AA
0
DICTIONARY
5
10A7
330
FD0
100
AcDbDictionary
280
1
281
1
3
ACAD_XREC_ROUNDTRIP
360
10A8
0
DICTIONARY
5
F84
330
F83
100
AcDbDictionary
280
1
281
1
3
ACAD_XREC_ROUNDTRIP
360
FFF
3
BUMPTILE
360
F86
3
DIFFUSETILE
360
F85
3
OPACITYTILE
360
F89
3
REFLECTIONTILE
360
F88
3
REFRACTIONTILE
360
F8A
3
SPECULARTILE
360
F87
0
DICTIONARY
5
F7C
330
F7B
100
AcDbDictionary
280
1
281
1
3
ACAD_XREC_ROUNDTRIP
360
FFE
3
BUMPTILE
360
F7E
3
DIFFUSETILE
360
F7D
3
OPACITYTILE
360
F81
3
REFLECTIONTILE
360
F80
3
REFRACTIONTILE
360
F82
3
SPECULARTILE
360
F7F
0
DICTIONARY
5
F8C
330
F8B
100
AcDbDictionary
280
1
281
1
3
ACAD_XREC_ROUNDTRIP
360
1000
3
BUMPTILE
360
F8E
3
DIFFUSETILE
360
F8D
3
OPACITYTILE
360
F91
3
REFLECTIONTILE
360
F90
3
REFRACTIONTILE
360
F92
3
SPECULARTILE
360
F8F
0
DICTIONARY
5
FF8
330
FA9
100
AcDbDictionary
280
1
281
1
3
ACAD_ROUNDTRIP_2008_TABLESTYLE_CELLSTYLEMAP
360
1079
3
ACAD_XREC_ROUNDTRIP
360
10A6
0
DICTIONARY
5
108A
330
F99
100
AcDbDictionary
280
1
281
1
3
ACAD_XREC_ROUNDTRIP
360
108B
0
DICTIONARY
5
108E
330
F9B
100
AcDbDictionary
280
1
281
1
3
ACAD_XREC_ROUNDTRIP
360
108F
0
DICTIONARY
5
108C
330
F9A
100
AcDbDictionary
280
1
281
1
3
ACAD_XREC_ROUNDTRIP
360
108D
0
DICTIONARY
5
1088
330
F98
100
AcDbDictionary
280
1
281
1
3
ACAD_XREC_ROUNDTRIP
360
1089
0
DICTIONARY
5
1096
330
F9F
100
AcDbDictionary
280
1
281
1
3
ACAD_XREC_ROUNDTRIP
360
1097
0
DICTIONARY
5
109E
330
FA3
100
AcDbDictionary
280
1
281
1
3
ACAD_XREC_ROUNDTRIP
360
109F
0
DICTIONARY
5
1090
330
F9C
100
AcDbDictionary
280
1
281
1
3
ACAD_XREC_ROUNDTRIP
360
1091
0
DICTIONARY
5
1094
330
F9E
100
AcDbDictionary
280
1
281
1
3
ACAD_XREC_ROUNDTRIP
360
1095
0
DICTIONARY
5
10A4
330
FA6
100
AcDbDictionary
280
1
281
1
3
ACAD_XREC_ROUNDTRIP
360
10A5
0
DICTIONARY
5
109C
330
FA2
100
AcDbDictionary
280
1
281
1
3
ACAD_XREC_ROUNDTRIP
360
109D
0
DICTIONARY
5
1080
330
F94
100
AcDbDictionary
280
1
281
1
3
ACAD_XREC_ROUNDTRIP
360
1081
0
DICTIONARY
5
1082
330
F95
100
AcDbDictionary
280
1
281
1
3
ACAD_XREC_ROUNDTRIP
360
1083
0
DICTIONARY
5
1084
330
F96
100
AcDbDictionary
280
1
281
1
3
ACAD_XREC_ROUNDTRIP
360
1085
0
DICTIONARY
5
1086
330
F97
100
AcDbDictionary
280
1
281
1
3
ACAD_XREC_ROUNDTRIP
360
1087
0
DICTIONARY
5
10A0
330
FA4
100
AcDbDictionary
280
1
281
1
3
ACAD_XREC_ROUNDTRIP
360
10A1
0
DICTIONARY
5
109A
330
FA1
100
AcDbDictionary
280
1
281
1
3
ACAD_XREC_ROUNDTRIP
360
109B
0
DICTIONARY
5
10A2
330
FA5
100
AcDbDictionary
280
1
281
1
3
ACAD_XREC_ROUNDTRIP
360
10A3
0
DICTIONARY
5
1092
330
F9D
100
AcDbDictionary
280
1
281
1
3
ACAD_XREC_ROUNDTRIP
360
1093
0
DICTIONARY
5
1098
330
FA0
100
AcDbDictionary
280
1
281
1
3
ACAD_XREC_ROUNDTRIP
360
1099
0
XRECORD
5
10AA
102
{ACAD_REACTORS
330
10A9
102
}
330
10A9
100
AcDbXrecord
280
1
102
SHADEPLOT
70
0
102
SHADEPLOTRESLEVEL
70
2
102
SHADEPLOTCUSTOMDPI
70
300
0
XRECORD
5
10A8
102
{ACAD_REACTORS
330
10A7
102
}
330
10A7
100
AcDbXrecord
280
1
102
SHADEPLOT
70
0
102
SHADEPLOTRESLEVEL
70
2
102
SHADEPLOTCUSTOMDPI
70
300
0
XRECORD
5
FFF
102
{ACAD_REACTORS
330
F84
102
}
330
F84
100
AcDbXrecord
280
1
102
MATERIAL
148
0.0
149
0.0
149
0.0
93
0
94
127
282
0
72
0
77
0
171
0
175
0
179
0
273
0
0
XRECORD
5
F86
102
{ACAD_REACTORS
330
F84
102
}
330
F84
100
AcDbXrecord
280
1
270
1
271
1
0
XRECORD
5
F85
102
{ACAD_REACTORS
330
F84
102
}
330
F84
100
AcDbXrecord
280
1
270
1
271
1
0
XRECORD
5
F89
102
{ACAD_REACTORS
330
F84
102
}
330
F84
100
AcDbXrecord
280
1
270
1
271
1
0
XRECORD
5
F88
102
{ACAD_REACTORS
330
F84
102
}
330
F84
100
AcDbXrecord
280
1
270
1
271
1
0
XRECORD
5
F8A
102
{ACAD_REACTORS
330
F84
102
}
330
F84
100
AcDbXrecord
280
1
270
1
271
1
0
XRECORD
5
F87
102
{ACAD_REACTORS
330
F84
102
}
330
F84
100
AcDbXrecord
280
1
270
1
271
1
0
XRECORD
5
FFE
102
{ACAD_REACTORS
330
F7C
102
}
330
F7C
100
AcDbXrecord
280
1
102
MATERIAL
148
0.0
149
0.0
149
0.0
93
0
94
127
282
0
72
0
77
0
171
0
175
0
179
0
273
0
0
XRECORD
5
F7E
102
{ACAD_REACTORS
330
F7C
102
}
330
F7C
100
AcDbXrecord
280
1
270
1
271
1
0
XRECORD
5
F7D
102
{ACAD_REACTORS
330
F7C
102
}
330
F7C
100
AcDbXrecord
280
1
270
1
271
1
0
XRECORD
5
F81
102
{ACAD_REACTORS
330
F7C
102
}
330
F7C
100
AcDbXrecord
280
1
270
1
271
1
0
XRECORD
5
F80
102
{ACAD_REACTORS
330
F7C
102
}
330
F7C
100
AcDbXrecord
280
1
270
1
271
1
0
XRECORD
5
F82
102
{ACAD_REACTORS
330
F7C
102
}
330
F7C
100
AcDbXrecord
280
1
270
1
271
1
0
XRECORD
5
F7F
102
{ACAD_REACTORS
330
F7C
102
}
330
F7C
100
AcDbXrecord
280
1
270
1
271
1
0
XRECORD
5
1000
102
{ACAD_REACTORS
330
F8C
102
}
330
F8C
100
AcDbXrecord
280
1
102
MATERIAL
148
0.0
149
0.0
149
0.0
93
0
94
127
282
0
72
0
77
0
171
0
175
0
179
0
273
0
0
XRECORD
5
F8E
102
{ACAD_REACTORS
330
F8C
102
}
330
F8C
100
AcDbXrecord
280
1
270
1
271
1
0
XRECORD
5
F8D
102
{ACAD_REACTORS
330
F8C
102
}
330
F8C
100
AcDbXrecord
280
1
270
1
271
1
0
XRECORD
5
F91
102
{ACAD_REACTORS
330
F8C
102
}
330
F8C
100
AcDbXrecord
280
1
270
1
271
1
0
XRECORD
5
F90
102
{ACAD_REACTORS
330
F8C
102
}
330
F8C
100
AcDbXrecord
280
1
270
1
271
1
0
XRECORD
5
F92
102
{ACAD_REACTORS
330
F8C
102
}
330
F8C
100
AcDbXrecord
280
1
270
1
271
1
0
XRECORD
5
F8F
102
{ACAD_REACTORS
330
F8C
102
}
330
F8C
100
AcDbXrecord
280
1
270
1
271
1
0
CELLSTYLEMAP
5
1079
102
{ACAD_REACTORS
330
FF8
102
}
330
FF8
100
AcDbCellStyleMap
90
3
300
CELLSTYLE
1
TABLEFORMAT_BEGIN
90
5
170
1
91
0
92
32768
62
257
93
1
300
CONTENTFORMAT
1
CONTENTFORMAT_BEGIN
90
0
91
0
92
512
93
0
300

40
0.0
140
1.0
94
5
62
0
340
253
144
0.25
309
CONTENTFORMAT_END
171
1
301
MARGIN
1
CELLMARGIN_BEGIN
40
0.06
40
0.06
40
0.06
40
0.06
40
0.18
40
0.18
309
CELLMARGIN_END
94
6
95
1
302
GRIDFORMAT
1
GRIDFORMAT_BEGIN
90
0
91
1
62
0
92
-2
340
0
93
0
40
0.045
309
GRIDFORMAT_END
95
2
302
GRIDFORMAT
1
GRIDFORMAT_BEGIN
90
0
91
1
62
0
92
-2
340
0
93
0
40
0.045
309
GRIDFORMAT_END
95
4
302
GRIDFORMAT
1
GRIDFORMAT_BEGIN
90
0
91
1
62
0
92
-2
340
0
93
0
40
0.045
309
GRIDFORMAT_END
95
8
302
GRIDFORMAT
1
GRIDFORMAT_BEGIN
90
0
91
1
62
0
92
-2
340
0
93
0
40
0.045
309
GRIDFORMAT_END
95
16
302
GRIDFORMAT
1
GRIDFORMAT_BEGIN
90
0
91
1
62
0
92
-2
340
0
93
0
40
0.045
309
GRIDFORMAT_END
95
32
302
GRIDFORMAT
1
GRIDFORMAT_BEGIN
90
0
91
1
62
0
92
-2
340
0
93
0
40
0.045
309
GRIDFORMAT_END
309
TABLEFORMAT_END
1
CELLSTYLE_BEGIN
90
1
91
1
300
_TITLE
309
CELLSTYLE_END
300
CELLSTYLE
1
TABLEFORMAT_BEGIN
90
5
170
1
91
0
92
0
62
257
93
1
300
CONTENTFORMAT
1
CONTENTFORMAT_BEGIN
90
0
91
0
92
512
93
0
300

40
0.0
140
1.0
94
5
62
0
340
253
144
0.18
309
CONTENTFORMAT_END
171
1
301
MARGIN
1
CELLMARGIN_BEGIN
40
0.06
40
0.06
40
0.06
40
0.06
40
0.18
40
0.18
309
CELLMARGIN_END
94
6
95
1
302
GRIDFORMAT
1
GRIDFORMAT_BEGIN
90
0
91
1
62
0
92
-2
340
0
93
0
40
0.045
309
GRIDFORMAT_END
95
2
302
GRIDFORMAT
1
GRIDFORMAT_BEGIN
90
0
91
1
62
0
92
-2
340
0
93
0
40
0.045
309
GRIDFORMAT_END
95
4
302
GRIDFORMAT
1
GRIDFORMAT_BEGIN
90
0
91
1
62
0
92
-2
340
0
93
0
40
0.045
309
GRIDFORMAT_END
95
8
302
GRIDFORMAT
1
GRIDFORMAT_BEGIN
90
0
91
1
62
0
92
-2
340
0
93
0
40
0.045
309
GRIDFORMAT_END
95
16
302
GRIDFORMAT
1
GRIDFORMAT_BEGIN
90
0
91
1
62
0
92
-2
340
0
93
0
40
0.045
309
GRIDFORMAT_END
95
32
302
GRIDFORMAT
1
GRIDFORMAT_BEGIN
90
0
91
1
62
0
92
-2
340
0
93
0
40
0.045
309
GRIDFORMAT_END
309
TABLEFORMAT_END
1
CELLSTYLE_BEGIN
90
2
91
1
300
_HEADER
309
CELLSTYLE_END
300
CELLSTYLE
1
TABLEFORMAT_BEGIN
90
5
170
1
91
0
92
0
62
257
93
1
300
CONTENTFORMAT
1
CONTENTFORMAT_BEGIN
90
0
91
0
92
512
93
0
300

40
0.0
140
1.0
94
2
62
0
340
253
144
0.18
309
CONTENTFORMAT_END
171
1
301
MARGIN
1
CELLMARGIN_BEGIN
40
0.06
40
0.06
40
0.06
40
0.06
40
0.18
40
0.18
309
CELLMARGIN_END
94
6
95
1
302
GRIDFORMAT
1
GRIDFORMAT_BEGIN
90
0
91
1
62
0
92
-2
340
0
93
0
40
0.045
309
GRIDFORMAT_END
95
2
302
GRIDFORMAT
1
GRIDFORMAT_BEGIN
90
0
91
1
62
0
92
-2
340
0
93
0
40
0.045
309
GRIDFORMAT_END
95
4
302
GRIDFORMAT
1
GRIDFORMAT_BEGIN
90
0
91
1
62
0
92
-2
340
0
93
0
40
0.045
309
GRIDFORMAT_END
95
8
302
GRIDFORMAT
1
GRIDFORMAT_BEGIN
90
0
91
1
62
0
92
-2
340
0
93
0
40
0.045
309
GRIDFORMAT_END
95
16
302
GRIDFORMAT
1
GRIDFORMAT_BEGIN
90
0
91
1
62
0
92
-2
340
0
93
0
40
0.045
309
GRIDFORMAT_END
95
32
302
GRIDFORMAT
1
GRIDFORMAT_BEGIN
90
0
91
1
62
0
92
-2
340
0
93
0
40
0.045
309
GRIDFORMAT_END
309
TABLEFORMAT_END
1
CELLSTYLE_BEGIN
90
3
91
2
300
_DATA
309
CELLSTYLE_END
0
XRECORD
5
10A6
102
{ACAD_REACTORS
330
FF8
102
}
330
FF8
100
AcDbXrecord
280
1
102
ACAD_ROUNDTRIP_PRE2007_TABLESTYLE
90
512
91
0
1

92
512
93
0
2

94
512
95
0
3

0
XRECORD
5
108B
102
{ACAD_REACTORS
330
108A
102
}
330
108A
100
AcDbXrecord
280
1
102
RTVSPropertyOp0
70
1
102
RTVSPropertyOp1
70
1
102
RTVSPropertyOp2
70
1
102
RTVSPropertyOp3
70
1
102
RTVSPropertyOp4
70
1
102
RTVSPropertyOp5
70
1
102
RTVSPropertyOp6
70
1
102
RTVSPropertyOp7
70
1
102
RTVSPropertyOp8
70
1
102
RTVSPropertyOp9
70
1
102
RTVSPropertyOp10
70
1
102
RTVSPropertyOp11
70
1
102
RTVSPropertyOp12
70
1
102
RTVSPropertyOp13
70
1
102
RTVSPropertyOp14
70
1
102
RTVSPropertyOp15
70
1
102
RTVSPropertyOp16
70
1
102
RTVSPropertyOp17
70
1
102
RTVSPropertyOp18
70
1
102
RTVSPropertyOp19
70
1
102
RTVSPropertyOp20
70
1
102
RTVSPropertyOp21
70
1
102
RTVSPropertyOp22
70
1
102
RTVSPropertyOp23
70
1
102
RTVSPropertyOp24
70
1
102
RTVSPropertyOp25
70
1
102
RTVSPropertyOp26
70
1
102
RTVSPropertyOp27
70
1
0
XRECORD
5
108F
102
{ACAD_REACTORS
330
108E
102
}
330
108E
100
AcDbXrecord
280
1
102
RTVSPropertyOp0
70
1
102
RTVSPropertyOp1
70
1
102
RTVSPropertyOp2
70
1
102
RTVSPropertyOp3
70
1
102
RTVSPropertyOp4
70
1
102
RTVSPropertyOp5
70
1
102
RTVSPropertyOp6
70
1
102
RTVSPropertyOp7
70
1
102
RTVSPropertyOp8
70
1
102
RTVSPropertyOp9
70
1
102
RTVSPropertyOp10
70
1
102
RTVSPropertyOp11
70
1
102
RTVSPropertyOp12
70
1
102
RTVSPropertyOp13
70
1
102
RTVSPropertyOp14
70
1
102
RTVSPropertyOp15
70
1
102
RTVSPropertyOp16
70
1
102
RTVSPropertyOp17
70
1
102
RTVSPropertyOp18
70
1
102
RTVSPropertyOp19
70
1
102
RTVSPropertyOp20
70
1
102
RTVSPropertyOp21
70
1
102
RTVSPropertyOp22
70
1
102
RTVSPropertyOp23
70
1
102
RTVSPropertyOp24
70
1
102
RTVSPropertyOp25
70
1
102
RTVSPropertyOp26
70
1
102
RTVSPropertyOp27
70
1
0
XRECORD
5
108D
102
{ACAD_REACTORS
330
108C
102
}
330
108C
100
AcDbXrecord
280
1
102
RTVSPropertyOp0
70
1
102
RTVSPropertyOp1
70
1
102
RTVSPropertyOp2
70
1
102
RTVSPropertyOp3
70
1
102
RTVSPropertyOp4
70
1
102
RTVSPropertyOp5
70
1
102
RTVSPropertyOp6
70
1
102
RTVSPropertyOp7
70
1
102
RTVSPropertyOp8
70
1
102
RTVSPropertyOp9
70
1
102
RTVSPropertyOp10
70
1
102
RTVSPropertyOp11
70
1
102
RTVSPropertyOp12
70
1
102
RTVSPropertyOp13
70
1
102
RTVSPropertyOp14
70
1
102
RTVSPropertyOp15
70
1
102
RTVSPropertyOp16
70
1
102
RTVSPropertyOp17
70
1
102
RTVSPropertyOp18
70
1
102
RTVSPropertyOp19
70
1
102
RTVSPropertyOp20
70
1
102
RTVSPropertyOp21
70
1
102
RTVSPropertyOp22
70
1
102
RTVSPropertyOp23
70
1
102
RTVSPropertyOp24
70
1
102
RTVSPropertyOp25
70
1
102
RTVSPropertyOp26
70
1
102
RTVSPropertyOp27
70
1
0
XRECORD
5
1089
102
{ACAD_REACTORS
330
1088
102
}
330
1088
100
AcDbXrecord
280
1
102
RTVSPropertyOp0
70
1
102
RTVSPropertyOp1
70
1
102
RTVSPropertyOp2
70
1
102
RTVSPropertyOp3
70
1
102
RTVSPropertyOp4
70
1
102
RTVSPropertyOp5
70
1
102
RTVSPropertyOp6
70
1
102
RTVSPropertyOp7
70
1
102
RTVSPropertyOp8
70
1
102
RTVSPropertyOp9
70
1
102
RTVSPropertyOp10
70
1
102
RTVSPropertyOp11
70
1
102
RTVSPropertyOp12
70
1
102
RTVSPropertyOp13
70
1
102
RTVSPropertyOp14
70
1
102
RTVSPropertyOp15
70
1
102
RTVSPropertyOp16
70
1
102
RTVSPropertyOp17
70
1
102
RTVSPropertyOp18
70
1
102
RTVSPropertyOp19
70
1
102
RTVSPropertyOp20
70
1
102
RTVSPropertyOp21
70
1
102
RTVSPropertyOp22
70
1
102
RTVSPropertyOp23
70
1
102
RTVSPropertyOp24
70
1
102
RTVSPropertyOp25
70
1
102
RTVSPropertyOp26
70
1
102
RTVSPropertyOp27
70
1
0
XRECORD
5
1097
102
{ACAD_REACTORS
330
1096
102
}
330
1096
100
AcDbXrecord
280
1
102
RTVSPropertyOp0
70
1
102
RTVSPropertyOp1
70
1
102
RTVSPropertyOp2
70
1
102
RTVSPropertyOp3
70
1
102
RTVSPropertyOp4
70
1
102
RTVSPropertyOp5
70
1
102
RTVSPropertyOp6
70
1
102
RTVSPropertyOp7
70
1
102
RTVSPropertyOp8
70
1
102
RTVSPropertyOp9
70
1
102
RTVSPropertyOp10
70
1
102
RTVSPropertyOp11
70
1
102
RTVSPropertyOp12
70
1
102
RTVSPropertyOp13
70
1
102
RTVSPropertyOp14
70
1
102
RTVSPropertyOp15
70
1
102
RTVSPropertyOp16
70
1
102
RTVSPropertyOp17
70
1
102
RTVSPropertyOp18
70
1
102
RTVSPropertyOp19
70
1
102
RTVSPropertyOp20
70
1
102
RTVSPropertyOp21
70
1
102
RTVSPropertyOp22
70
1
102
RTVSPropertyOp23
70
1
102
RTVSPropertyOp24
70
1
102
RTVSPropertyOp25
70
1
102
RTVSPropertyOp26
70
1
102
RTVSPropertyOp27
70
1
0
XRECORD
5
109F
102
{ACAD_REACTORS
330
109E
102
}
330
109E
100
AcDbXrecord
280
1
102
RTVSPropertyOp0
70
1
102
RTVSPropertyOp1
70
1
102
RTVSPropertyOp2
70
1
102
RTVSPropertyOp3
70
1
102
RTVSPropertyOp4
70
1
102
RTVSPropertyOp5
70
1
102
RTVSPropertyOp6
70
1
102
RTVSPropertyOp7
70
1
102
RTVSPropertyOp8
70
1
102
RTVSPropertyOp9
70
1
102
RTVSPropertyOp10
70
1
102
RTVSPropertyOp11
70
1
102
RTVSPropertyOp12
70
1
102
RTVSPropertyOp13
70
1
102
RTVSPropertyOp14
70
1
102
RTVSPropertyOp15
70
1
102
RTVSPropertyOp16
70
1
102
RTVSPropertyOp17
70
1
102
RTVSPropertyOp18
70
1
102
RTVSPropertyOp19
70
1
102
RTVSPropertyOp20
70
1
102
RTVSPropertyOp21
70
1
102
RTVSPropertyOp22
70
1
102
RTVSPropertyOp23
70
1
102
RTVSPropertyOp24
70
1
102
RTVSPropertyOp25
70
1
102
RTVSPropertyOp26
70
1
102
RTVSPropertyOp27
70
1
0
XRECORD
5
1091
102
{ACAD_REACTORS
330
1090
102
}
330
1090
100
AcDbXrecord
280
1
102
RTVSPropertyOp0
70
1
102
RTVSPropertyOp1
70
1
102
RTVSPropertyOp2
70
1
102
RTVSPropertyOp3
70
1
102
RTVSPropertyOp4
70
1
102
RTVSPropertyOp5
70
1
102
RTVSPropertyOp6
70
1
102
RTVSPropertyOp7
70
1
102
RTVSPropertyOp8
70
1
102
RTVSPropertyOp9
70
1
102
RTVSPropertyOp10
70
1
102
RTVSPropertyOp11
70
1
102
RTVSPropertyOp12
70
1
102
RTVSPropertyOp13
70
1
102
RTVSPropertyOp14
70
1
102
RTVSPropertyOp15
70
1
102
RTVSPropertyOp16
70
1
102
RTVSPropertyOp17
70
1
102
RTVSPropertyOp18
70
1
102
RTVSPropertyOp19
70
1
102
RTVSPropertyOp20
70
1
102
RTVSPropertyOp21
70
1
102
RTVSPropertyOp22
70
1
102
RTVSPropertyOp23
70
1
102
RTVSPropertyOp24
70
1
102
RTVSPropertyOp25
70
1
102
RTVSPropertyOp26
70
1
102
RTVSPropertyOp27
70
1
0
XRECORD
5
1095
102
{ACAD_REACTORS
330
1094
102
}
330
1094
100
AcDbXrecord
280
1
102
RTVSPropertyOp0
70
1
102
RTVSPropertyOp1
70
1
102
RTVSPropertyOp2
70
1
102
RTVSPropertyOp3
70
1
102
RTVSPropertyOp4
70
1
102
RTVSPropertyOp5
70
1
102
RTVSPropertyOp6
70
1
102
RTVSPropertyOp7
70
1
102
RTVSPropertyOp8
70
1
102
RTVSPropertyOp9
70
1
102
RTVSPropertyOp10
70
1
102
RTVSPropertyOp11
70
1
102
RTVSPropertyOp12
70
1
102
RTVSPropertyOp13
70
1
102
RTVSPropertyOp14
70
1
102
RTVSPropertyOp15
70
1
102
RTVSPropertyOp16
70
1
102
RTVSPropertyOp17
70
1
102
RTVSPropertyOp18
70
1
102
RTVSPropertyOp19
70
1
102
RTVSPropertyOp20
70
1
102
RTVSPropertyOp21
70
1
102
RTVSPropertyOp22
70
1
102
RTVSPropertyOp23
70
1
102
RTVSPropertyOp24
70
1
102
RTVSPropertyOp25
70
1
102
RTVSPropertyOp26
70
1
102
RTVSPropertyOp27
70
1
0
XRECORD
5
10A5
102
{ACAD_REACTORS
330
10A4
102
}
330
10A4
100
AcDbXrecord
280
1
102
RTVSPropertyOp0
70
0
102
RTVSPropertyOp1
70
0
102
RTVSPropertyOp2
70
0
102
RTVSPropertyOp3
70
0
102
RTVSPropertyOp4
70
0
102
RTVSPropertyOp5
70
0
102
RTVSPropertyOp6
70
0
102
RTVSPropertyOp7
70
0
102
RTVSPropertyOp8
70
0
102
RTVSPropertyOp9
70
0
102
RTVSPropertyOp10
70
0
102
RTVSPropertyOp11
70
0
102
RTVSPropertyOp12
70
0
102
RTVSPropertyOp13
70
0
102
RTVSPropertyOp14
70
2
102
RTVSPropertyOp15
70
0
102
RTVSPropertyOp16
70
0
102
RTVSPropertyOp17
70
0
102
RTVSPropertyOp18
70
0
102
RTVSPropertyOp19
70
0
102
RTVSPropertyOp20
70
0
102
RTVSPropertyOp21
70
0
102
RTVSPropertyOp22
70
0
102
RTVSPropertyOp23
70
0
102
RTVSPropertyOp24
70
0
102
RTVSPropertyOp25
70
0
102
RTVSPropertyOp26
70
0
102
RTVSPropertyOp27
70
0
0
XRECORD
5
109D
102
{ACAD_REACTORS
330
109C
102
}
330
109C
100
AcDbXrecord
280
1
102
RTVSPropertyOp0
70
1
102
RTVSPropertyOp1
70
1
102
RTVSPropertyOp2
70
1
102
RTVSPropertyOp3
70
1
102
RTVSPropertyOp4
70
1
102
RTVSPropertyOp5
70
1
102
RTVSPropertyOp6
70
1
102
RTVSPropertyOp7
70
1
102
RTVSPropertyOp8
70
1
102
RTVSPropertyOp9
70
1
102
RTVSPropertyOp10
70
1
102
RTVSPropertyOp11
70
1
102
RTVSPropertyOp12
70
1
102
RTVSPropertyOp13
70
1
102
RTVSPropertyOp14
70
1
102
RTVSPropertyOp15
70
1
102
RTVSPropertyOp16
70
1
102
RTVSPropertyOp17
70
1
102
RTVSPropertyOp18
70
1
102
RTVSPropertyOp19
70
1
102
RTVSPropertyOp20
70
1
102
RTVSPropertyOp21
70
1
102
RTVSPropertyOp22
70
1
102
RTVSPropertyOp23
70
1
102
RTVSPropertyOp24
70
1
102
RTVSPropertyOp25
70
1
102
RTVSPropertyOp26
70
1
102
RTVSPropertyOp27
70
1
0
XRECORD
5
1081
102
{ACAD_REACTORS
330
1080
102
}
330
1080
100
AcDbXrecord
280
1
102
RTVSPropertyOp0
70
1
102
RTVSPropertyOp1
70
1
102
RTVSPropertyOp2
70
1
102
RTVSPropertyOp3
70
1
102
RTVSPropertyOp4
70
1
102
RTVSPropertyOp5
70
1
102
RTVSPropertyOp6
70
1
102
RTVSPropertyOp7
70
1
102
RTVSPropertyOp8
70
1
102
RTVSPropertyOp9
70
1
102
RTVSPropertyOp10
70
1
102
RTVSPropertyOp11
70
1
102
RTVSPropertyOp12
70
1
102
RTVSPropertyOp13
70
1
102
RTVSPropertyOp14
70
1
102
RTVSPropertyOp15
70
1
102
RTVSPropertyOp16
70
1
102
RTVSPropertyOp17
70
1
102
RTVSPropertyOp18
70
1
102
RTVSPropertyOp19
70
1
102
RTVSPropertyOp20
70
1
102
RTVSPropertyOp21
70
1
102
RTVSPropertyOp22
70
1
102
RTVSPropertyOp23
70
1
102
RTVSPropertyOp24
70
1
102
RTVSPropertyOp25
70
1
102
RTVSPropertyOp26
70
1
102
RTVSPropertyOp27
70
1
0
XRECORD
5
1083
102
{ACAD_REACTORS
330
1082
102
}
330
1082
100
AcDbXrecord
280
1
102
RTVSPropertyOp0
70
1
102
RTVSPropertyOp1
70
1
102
RTVSPropertyOp2
70
1
102
RTVSPropertyOp3
70
1
102
RTVSPropertyOp4
70
1
102
RTVSPropertyOp5
70
1
102
RTVSPropertyOp6
70
1
102
RTVSPropertyOp7
70
1
102
RTVSPropertyOp8
70
1
102
RTVSPropertyOp9
70
1
102
RTVSPropertyOp10
70
1
102
RTVSPropertyOp11
70
1
102
RTVSPropertyOp12
70
1
102
RTVSPropertyOp13
70
1
102
RTVSPropertyOp14
70
1
102
RTVSPropertyOp15
70
1
102
RTVSPropertyOp16
70
1
102
RTVSPropertyOp17
70
1
102
RTVSPropertyOp18
70
1
102
RTVSPropertyOp19
70
1
102
RTVSPropertyOp20
70
1
102
RTVSPropertyOp21
70
1
102
RTVSPropertyOp22
70
1
102
RTVSPropertyOp23
70
1
102
RTVSPropertyOp24
70
1
102
RTVSPropertyOp25
70
1
102
RTVSPropertyOp26
70
1
102
RTVSPropertyOp27
70
1
0
XRECORD
5
1085
102
{ACAD_REACTORS
330
1084
102
}
330
1084
100
AcDbXrecord
280
1
102
RTVSPropertyOp0
70
1
102
RTVSPropertyOp1
70
1
102
RTVSPropertyOp2
70
1
102
RTVSPropertyOp3
70
1
102
RTVSPropertyOp4
70
1
102
RTVSPropertyOp5
70
1
102
RTVSPropertyOp6
70
1
102
RTVSPropertyOp7
70
1
102
RTVSPropertyOp8
70
1
102
RTVSPropertyOp9
70
1
102
RTVSPropertyOp10
70
1
102
RTVSPropertyOp11
70
1
102
RTVSPropertyOp12
70
1
102
RTVSPropertyOp13
70
1
102
RTVSPropertyOp14
70
1
102
RTVSPropertyOp15
70
1
102
RTVSPropertyOp16
70
1
102
RTVSPropertyOp17
70
1
102
RTVSPropertyOp18
70
1
102
RTVSPropertyOp19
70
1
102
RTVSPropertyOp20
70
1
102
RTVSPropertyOp21
70
1
102
RTVSPropertyOp22
70
1
102
RTVSPropertyOp23
70
1
102
RTVSPropertyOp24
70
1
102
RTVSPropertyOp25
70
1
102
RTVSPropertyOp26
70
1
102
RTVSPropertyOp27
70
1
0
XRECORD
5
1087
102
{ACAD_REACTORS
330
1086
102
}
330
1086
100
AcDbXrecord
280
1
102
RTVSPropertyOp0
70
1
102
RTVSPropertyOp1
70
1
102
RTVSPropertyOp2
70
1
102
RTVSPropertyOp3
70
1
102
RTVSPropertyOp4
70
1
102
RTVSPropertyOp5
70
1
102
RTVSPropertyOp6
70
1
102
RTVSPropertyOp7
70
1
102
RTVSPropertyOp8
70
1
102
RTVSPropertyOp9
70
1
102
RTVSPropertyOp10
70
1
102
RTVSPropertyOp11
70
1
102
RTVSPropertyOp12
70
1
102
RTVSPropertyOp13
70
1
102
RTVSPropertyOp14
70
1
102
RTVSPropertyOp15
70
1
102
RTVSPropertyOp16
70
1
102
RTVSPropertyOp17
70
1
102
RTVSPropertyOp18
70
1
102
RTVSPropertyOp19
70
1
102
RTVSPropertyOp20
70
1
102
RTVSPropertyOp21
70
1
102
RTVSPropertyOp22
70
1
102
RTVSPropertyOp23
70
1
102
RTVSPropertyOp24
70
1
102
RTVSPropertyOp25
70
1
102
RTVSPropertyOp26
70
1
102
RTVSPropertyOp27
70
1
0
XRECORD
5
10A1
102
{ACAD_REACTORS
330
10A0
102
}
330
10A0
100
AcDbXrecord
280
1
102
RTVSPropertyOp0
70
0
102
RTVSPropertyOp1
70
0
102
RTVSPropertyOp2
70
0
102
RTVSPropertyOp3
70
0
102
RTVSPropertyOp4
70
0
102
RTVSPropertyOp5
70
0
102
RTVSPropertyOp6
70
0
102
RTVSPropertyOp7
70
0
102
RTVSPropertyOp8
70
0
102
RTVSPropertyOp9
70
0
102
RTVSPropertyOp10
70
0
102
RTVSPropertyOp11
70
0
102
RTVSPropertyOp12
70
0
102
RTVSPropertyOp13
70
0
102
RTVSPropertyOp14
70
2
102
RTVSPropertyOp15
70
0
102
RTVSPropertyOp16
70
0
102
RTVSPropertyOp17
70
0
102
RTVSPropertyOp18
70
0
102
RTVSPropertyOp19
70
0
102
RTVSPropertyOp20
70
0
102
RTVSPropertyOp21
70
0
102
RTVSPropertyOp22
70
0
102
RTVSPropertyOp23
70
0
102
RTVSPropertyOp24
70
0
102
RTVSPropertyOp25
70
0
102
RTVSPropertyOp26
70
0
102
RTVSPropertyOp27
70
0
0
XRECORD
5
109B
102
{ACAD_REACTORS
330
109A
102
}
330
109A
100
AcDbXrecord
280
1
102
RTVSPropertyOp0
70
1
102
RTVSPropertyOp1
70
1
102
RTVSPropertyOp2
70
1
102
RTVSPropertyOp3
70
1
102
RTVSPropertyOp4
70
1
102
RTVSPropertyOp5
70
1
102
RTVSPropertyOp6
70
1
102
RTVSPropertyOp7
70
1
102
RTVSPropertyOp8
70
1
102
RTVSPropertyOp9
70
1
102
RTVSPropertyOp10
70
1
102
RTVSPropertyOp11
70
1
102
RTVSPropertyOp12
70
1
102
RTVSPropertyOp13
70
1
102
RTVSPropertyOp14
70
1
102
RTVSPropertyOp15
70
1
102
RTVSPropertyOp16
70
1
102
RTVSPropertyOp17
70
1
102
RTVSPropertyOp18
70
1
102
RTVSPropertyOp19
70
1
102
RTVSPropertyOp20
70
1
102
RTVSPropertyOp21
70
1
102
RTVSPropertyOp22
70
1
102
RTVSPropertyOp23
70
1
102
RTVSPropertyOp24
70
1
102
RTVSPropertyOp25
70
1
102
RTVSPropertyOp26
70
1
102
RTVSPropertyOp27
70
1
0
XRECORD
5
10A3
102
{ACAD_REACTORS
330
10A2
102
}
330
10A2
100
AcDbXrecord
280
1
102
RTVSPropertyOp0
70
0
102
RTVSPropertyOp1
70
0
102
RTVSPropertyOp2
70
0
102
RTVSPropertyOp3
70
0
102
RTVSPropertyOp4
70
0
102
RTVSPropertyOp5
70
0
102
RTVSPropertyOp6
70
0
102
RTVSPropertyOp7
70
0
102
RTVSPropertyOp8
70
0
102
RTVSPropertyOp9
70
0
102
RTVSPropertyOp10
70
0
102
RTVSPropertyOp11
70
0
102
RTVSPropertyOp12
70
0
102
RTVSPropertyOp13
70
0
102
RTVSPropertyOp14
70
2
102
RTVSPropertyOp15
70
0
102
RTVSPropertyOp16
70
0
102
RTVSPropertyOp17
70
0
102
RTVSPropertyOp18
70
0
102
RTVSPropertyOp19
70
0
102
RTVSPropertyOp20
70
0
102
RTVSPropertyOp21
70
0
102
RTVSPropertyOp22
70
0
102
RTVSPropertyOp23
70
0
102
RTVSPropertyOp24
70
0
102
RTVSPropertyOp25
70
0
102
RTVSPropertyOp26
70
0
102
RTVSPropertyOp27
70
0
0
XRECORD
5
1093
102
{ACAD_REACTORS
330
1092
102
}
330
1092
100
AcDbXrecord
280
1
102
RTVSPropertyOp0
70
1
102
RTVSPropertyOp1
70
1
102
RTVSPropertyOp2
70
1
102
RTVSPropertyOp3
70
1
102
RTVSPropertyOp4
70
1
102
RTVSPropertyOp5
70
1
102
RTVSPropertyOp6
70
1
102
RTVSPropertyOp7
70
1
102
RTVSPropertyOp8
70
1
102
RTVSPropertyOp9
70
1
102
RTVSPropertyOp10
70
1
102
RTVSPropertyOp11
70
1
102
RTVSPropertyOp12
70
1
102
RTVSPropertyOp13
70
1
102
RTVSPropertyOp14
70
1
102
RTVSPropertyOp15
70
1
102
RTVSPropertyOp16
70
1
102
RTVSPropertyOp17
70
1
102
RTVSPropertyOp18
70
1
102
RTVSPropertyOp19
70
1
102
RTVSPropertyOp20
70
1
102
RTVSPropertyOp21
70
1
102
RTVSPropertyOp22
70
1
102
RTVSPropertyOp23
70
1
102
RTVSPropertyOp24
70
1
102
RTVSPropertyOp25
70
1
102
RTVSPropertyOp26
70
1
102
RTVSPropertyOp27
70
1
0
XRECORD
5
1099
102
{ACAD_REACTORS
330
1098
102
}
330
1098
100
AcDbXrecord
280
1
102
RTVSPropertyOp0
70
1
102
RTVSPropertyOp1
70
1
102
RTVSPropertyOp2
70
1
102
RTVSPropertyOp3
70
1
102
RTVSPropertyOp4
70
1
102
RTVSPropertyOp5
70
1
102
RTVSPropertyOp6
70
1
102
RTVSPropertyOp7
70
1
102
RTVSPropertyOp8
70
1
102
RTVSPropertyOp9
70
1
102
RTVSPropertyOp10
70
1
102
RTVSPropertyOp11
70
1
102
RTVSPropertyOp12
70
1
102
RTVSPropertyOp13
70
1
102
RTVSPropertyOp14
70
1
102
RTVSPropertyOp15
70
1
102
RTVSPropertyOp16
70
1
102
RTVSPropertyOp17
70
1
102
RTVSPropertyOp18
70
1
102
RTVSPropertyOp19
70
1
102
RTVSPropertyOp20
70
1
102
RTVSPropertyOp21
70
1
102
RTVSPropertyOp22
70
1
102
RTVSPropertyOp23
70
1
102
RTVSPropertyOp24
70
1
102
RTVSPropertyOp25
70
1
102
RTVSPropertyOp26
70
1
102
RTVSPropertyOp27
70
1
0
ENDSEC
0
EOF
