0
SECTION
2
HEADER
9
$ACADVER
1
AC1015
9
$ACADMAINTVER
70
20
9
$DWGCODEPAGE
3
ANSI_1252
9
$INSBASE
10
0.0
20
0.0
30
0.0
9
$EXTMIN
10
-150.000000000000
20
-105.000000000000
30
0.0
9
$EXTMAX
10
150.000000000000
20
105.000000000000
30
0.0
9
$LIMMIN
10
0.0
20
0.0
9
$LIMMAX
10
12.0
20
9.0
9
$ORTHOMODE
70
0
9
$REGENMODE
70
1
9
$FILLMODE
70
1
9
$QTEXTMODE
70
0
9
$MIRRTEXT
70
1
9
$LTSCALE
40
1.0
9
$ATTMODE
70
1
9
$TEXTSIZE
40
0.2
9
$TRACEWID
40
0.05
9
$TEXTSTYLE
7
Standard
9
$CLAYER
8
0
9
$CELTYPE
6
ByLayer
9
$CECOLOR
62
256
9
$CELTSCALE
40
1.0
9
$DISPSILH
70
0
9
$DIMSCALE
40
1.0
9
$DIMASZ
40
2.5
9
$DIMEXO
40
0.625
9
$DIMDLI
40
0.38
9
$DIMRND
40
0.0
9
$DIMDLE
40
0.0
9
$DIMEXE
40
1.25
9
$DIMTP
40
0.0
9
$DIMTM
40
0.000000001
9
$DIMTXT
40
2.5
9
$DIMCEN
40
0.09
9
$DIMTSZ
40
0.0
9
$DIMTOL
70
1
9
$DIMLIM
70
0
9
$DIMTIH
70
0
9
$DIMTOH
70
0
9
$DIMSE1
70
0
9
$DIMSE2
70
0
9
$DIMTAD
70
1
9
$DIMZIN
70
0
9
$DIMBLK
1
VDDIM_DEFAULT
9
$DIMASO
70
1
9
$DIMSHO
70
1
9
$DIMPOST
1

9
$DIMAPOST
1

9
$DIMALT
70
0
9
$DIMALTD
70
2
9
$DIMALTF
40
25.4
9
$DIMLFAC
40
1.00000000000000
9
$DIMTOFL
70
0
9
$DIMTVP
40
0.0
9
$DIMTIX
70
0
9
$DIMSOXD
70
0
9
$DIMSAH
70
0
9
$DIMBLK1
1

9
$DIMBLK2
1

9
$DIMSTYLE
2
BEM-ISBE
9
$DIMCLRD
70
0
9
$DIMCLRE
70
0
9
$DIMCLRT
70
0
9
$DIMTFAC
40
0.5
9
$DIMGAP
40
0.625
9
$DIMJUST
70
0
9
$DIMSD1
70
0
9
$DIMSD2
70
0
9
$DIMTOLJ
70
1
9
$DIMTZIN
70
0
9
$DIMALTZ
70
0
9
$DIMALTTZ
70
0
9
$DIMUPT
70
0
9
$DIMDEC
70
3
9
$DIMTDEC
70
3
9
$DIMALTU
70
2
9
$DIMALTTD
70
2
9
$DIMTXSTY
7
Standard
9
$DIMAUNIT
70
0
9
$DIMADEC
70
3
9
$DIMALTRND
40
0.0
9
$DIMAZIN
70
0
9
$DIMDSEP
70
46
9
$DIMATFIT
70
3
9
$DIMFRAC
70
0
9
$DIMLDRBLK
1

9
$DIMLUNIT
70
2
9
$DIMLWD
70
-2
9
$DIMLWE
70
-2
9
$DIMTMOVE
70
0
9
$LUNITS
70
2
9
$LUPREC
70
4
9
$SKETCHINC
40
0.1
9
$FILLETRAD
40
0.5
9
$AUNITS
70
0
9
$AUPREC
70
0
9
$MENU
1
.
9
$ELEVATION
40
0.0
9
$PELEVATION
40
0.0
9
$THICKNESS
40
0.0
9
$LIMCHECK
70
0
9
$CHAMFERA
40
0.5
9
$CHAMFERB
40
0.5
9
$CHAMFERC
40
1.0
9
$CHAMFERD
40
0.0
9
$SKPOLY
70
0
9
$TDCREATE
40
0.0
9
$TDUCREATE
40
0.0
9
$TDUPDATE
40
0.0
9
$TDUUPDATE
40
0.0
9
$TDINDWG
40
0.0
9
$TDUSRTIMER
40
0.0
9
$USRTIMER
70
1
9
$ANGBASE
50
0.0
9
$ANGDIR
70
0
9
$PDMODE
70
0
9
$PDSIZE
40
0.0
9
$PLINEWID
40
0.0
9
$SPLFRAME
70
0
9
$SPLINETYPE
70
6
9
$SPLINESEGS
70
8
9
$HANDSEED
5
10AB
9
$SURFTAB1
70
6
9
$SURFTAB2
70
6
9
$SURFTYPE
70
6
9
$SURFU
70
6
9
$SURFV
70
6
9
$UCSBASE
2

9
$UCSNAME
2

9
$UCSORG
10
0.0
20
0.0
30
0.0
9
$UCSXDIR
10
1.0
20
0.0
30
0.0
9
$UCSYDIR
10
0.0
20
1.0
30
0.0
9
$UCSORTHOREF
2

9
$UCSORTHOVIEW
70
0
9
$UCSORGTOP
10
0.0
20
0.0
30
0.0
9
$UCSORGBOTTOM
10
0.0
20
0.0
30
0.0
9
$UCSORGLEFT
10
0.0
20
0.0
30
0.0
9
$UCSORGRIGHT
10
0.0
20
0.0
30
0.0
9
$UCSORGFRONT
10
0.0
20
0.0
30
0.0
9
$UCSORGBACK
10
0.0
20
0.0
30
0.0
9
$PUCSBASE
2

9
$PUCSNAME
2

9
$PUCSORG
10
0.0
20
0.0
30
0.0
9
$PUCSXDIR
10
1.0
20
0.0
30
0.0
9
$PUCSYDIR
10
0.0
20
1.0
30
0.0
9
$PUCSORTHOREF
2

9
$PUCSORTHOVIEW
70
0
9
$PUCSORGTOP
10
0.0
20
0.0
30
0.0
9
$PUCSORGBOTTOM
10
0.0
20
0.0
30
0.0
9
$PUCSORGLEFT
10
0.0
20
0.0
30
0.0
9
$PUCSORGRIGHT
10
0.0
20
0.0
30
0.0
9
$PUCSORGFRONT
10
0.0
20
0.0
30
0.0
9
$PUCSORGBACK
10
0.0
20
0.0
30
0.0
9
$USERI1
70
0
9
$USERI2
70
0
9
$USERI3
70
0
9
$USERI4
70
0
9
$USERI5
70
0
9
$USERR1
40
0.0
9
$USERR2
40
0.0
9
$USERR3
40
0.0
9
$USERR4
40
0.0
9
$USERR5
40
0.0
9
$WORLDVIEW
70
1
9
$SHADEDGE
70
3
9
$SHADEDIF
70
70
9
$TILEMODE
70
1
9
$MAXACTVP
70
64
9
$PINSBASE
10
0.0
20
0.0
30
0.0
9
$PLIMCHECK
70
0
9
$PEXTMIN
10
1.000000000000000E+20
20
1.000000000000000E+20
30
1.000000000000000E+20
9
$PEXTMAX
10
-1.000000000000000E+20
20
-1.000000000000000E+20
30
-1.000000000000000E+20
9
$PLIMMIN
10
0.0
20
0.0
9
$PLIMMAX
10
12.0
20
9.0
9
$UNITMODE
70
0
9
$VISRETAIN
70
1
9
$PLINEGEN
70
0
9
$PSLTSCALE
70
1
9
$TREEDEPTH
70
3020
9
$CMLSTYLE
2
Standard
9
$CMLJUST
70
0
9
$CMLSCALE
40
1.0
9
$PROXYGRAPHICS
70
1
9
$MEASUREMENT
70
0
9
$CELWEIGHT
370
-1
9
$ENDCAPS
280
0
9
$JOINSTYLE
280
0
9
$LWDISPLAY
290
0
9
$INSUNITS
70
4
9
$HYPERLINKBASE
1

9
$STYLESHEET
1

9
$XEDIT
290
1
9
$CEPSNTYPE
380
0
9
$PSTYLEMODE
290
0
9
$FINGERPRINTGUID
2
{FAEB1C30-E019-11D5-929B-00C0DF256EC4}
9
$VERSIONGUID
2
{04C5C4E4-4947-4D90-8812-D401569E61F7}
9
$EXTNAMES
290
1
9
$PSVPSCALE
40
0.0
9
$OLESTARTUP
290
0
0
ENDSEC
0
SECTION
2
TABLES
0
TABLE
2
VPORT
5
24A
330
0
100
AcDbSymbolTable
70
1
0
VPORT
5
26B
330
24A
100
AcDbSymbolTableRecord
100
AcDbViewportTableRecord
2
*Active
70
0
10
0.0
20
0.0
11
1.0
21
1.0
12
0.000000000000000
22
0.000000000000000
13
0.0
23
0.0
14
10.0
24
10.0
15
10.0
25
10.0
16
0.0
26
0.0
36
1.0
17
0.0
27
0.0
37
0.0
40
210.000000000000
41
1.42857142857143
42
1.0
43
0.0
44
0.0
50
0.0
51
0.0000000000007958
71
0
72
100
73
1
74
3
75
0
76
0
77
0
78
1
281
0
65
1
110
0.0
120
0.0
130
0.0
111
1.0
121
0.0
131
0.0
112
0.0
122
1.0
132
0.0
79
0
146
0.0
0
ENDTAB
0
TABLE
2
LTYPE
5
247
330
0
100
AcDbSymbolTable
70
25
0
LTYPE
5
256
330
247
100
AcDbSymbolTableRecord
100
AcDbLinetypeTableRecord
2
ByBlock
70
0
3

72
65
73
0
40
0.0
0
LTYPE
5
257
330
247
100
AcDbSymbolTableRecord
100
AcDbLinetypeTableRecord
2
ByLayer
70
0
3

72
65
73
0
40
0.0
0
LTYPE
5
258
330
247
100
AcDbSymbolTableRecord
100
AcDbLinetypeTableRecord
2
Continuous
70
0
3
Solid line
72
65
73
0
40
0.0
0
LTYPE
5
273
330
247
100
AcDbSymbolTableRecord
100
AcDbLinetypeTableRecord
2
CENTER
70
0
3
Center ____ _ ____ _ ____ _ ____ _ ____ _ ____
72
65
73
4
40
2.0
49
1.25
74
0
49
-0.25
74
0
49
0.25
74
0
49
-0.25
74
0
0
LTYPE
5
274
330
247
100
AcDbSymbolTableRecord
100
AcDbLinetypeTableRecord
2
DASHDOT
70
0
3
Dashdot __ . __ . __ . __ . __ . __ . __ . __
72
65
73
4
40
1.0
49
0.5
74
0
49
-0.25
74
0
49
0.0
74
0
49
-0.25
74
0
0
LTYPE
5
275
330
247
100
AcDbSymbolTableRecord
100
AcDbLinetypeTableRecord
2
DASHED
70
0
3
Dashed __ __ __ __ __ __ __ __ __ __ __ __ __ _
72
65
73
2
40
0.75
49
0.5
74
0
49
-0.25
74
0
0
LTYPE
5
276
330
247
100
AcDbSymbolTableRecord
100
AcDbLinetypeTableRecord
2
HIDDEN
70
0
3
Hidden __ __ __ __ __ __ __ __ __ __ __ __ __ __
72
65
73
2
40
0.375
49
0.25
74
0
49
-0.125
74
0
0
LTYPE
5
277
330
247
100
AcDbSymbolTableRecord
100
AcDbLinetypeTableRecord
2
HIDDEN2
70
0
3
Hidden2 _ _ _ _ _ _ _ _ _ _ _ _ _ _ _ _ _
72
65
73
2
40
0.1875
49
0.125
74
0
49
-0.0625
74
0
0
LTYPE
5
278
330
247
100
AcDbSymbolTableRecord
100
AcDbLinetypeTableRecord
2
BORDER
70
0
3
Border __ __ . __ __ . __ __ . __ __ . __ __ .
72
65
73
6
40
1.75
49
0.5
74
0
49
-0.25
74
0
49
0.5
74
0
49
-0.25
74
0
49
0.0
74
0
49
-0.25
74
0
0
LTYPE
5
279
330
247
100
AcDbSymbolTableRecord
100
AcDbLinetypeTableRecord
2
BORDER2
70
0
3
Border2 __.__.__.__.__.__.__.__.__.__.__.
72
65
73
6
40
0.875
49
0.25
74
0
49
-0.125
74
0
49
0.25
74
0
49
-0.125
74
0
49
0.0
74
0
49
-0.125
74
0
0
LTYPE
5
27A
330
247
100
AcDbSymbolTableRecord
100
AcDbLinetypeTableRecord
2
BORDERX2
70
0
3
Borderx2  ____  ____  .  ____  ____  .  ___
72
65
73
6
40
3.5
49
1.0
74
0
49
-0.5
74
0
49
1.0
74
0
49
-0.5
74
0
49
0.0
74
0
49
-0.5
74
0
0
LTYPE
5
27B
330
247
100
AcDbSymbolTableRecord
100
AcDbLinetypeTableRecord
2
CENTER2
70
0
3
Center2  ___ _ ___ _ ___ _ ___ _ ___ _ ___
72
65
73
4
40
1.125
49
0.75
74
0
49
-0.125
74
0
49
0.125
74
0
49
-0.125
74
0
0
LTYPE
5
27C
330
247
100
AcDbSymbolTableRecord
100
AcDbLinetypeTableRecord
2
CENTERX2
70
0
3
Centerx2  ________  __  ________  __  _____
72
65
73
4
40
4.0
49
2.5
74
0
49
-0.5
74
0
49
0.5
74
0
49
-0.5
74
0
0
LTYPE
5
27D
330
247
100
AcDbSymbolTableRecord
100
AcDbLinetypeTableRecord
2
DASHDOT2
70
0
3
Dashdot2  _._._._._._._._._._._._._._._.
72
65
73
4
40
0.5
49
0.25
74
0
49
-0.125
74
0
49
0.0
74
0
49
-0.125
74
0
0
LTYPE
5
27E
330
247
100
AcDbSymbolTableRecord
100
AcDbLinetypeTableRecord
2
DASHDOTX2
70
0
3
Dashdotx2 ____  .  ____  .  ____  .  ___
72
65
73
4
40
2.0
49
1.0
74
0
49
-0.5
74
0
49
0.0
74
0
49
-0.5
74
0
0
LTYPE
5
27F
330
247
100
AcDbSymbolTableRecord
100
AcDbLinetypeTableRecord
2
DASHED2
70
0
3
Dashed2 _ _ _ _ _ _ _ _ _ _ _ _ _ _ _ _ _
72
65
73
2
40
0.375
49
0.25
74
0
49
-0.125
74
0
0
LTYPE
5
280
330
247
100
AcDbSymbolTableRecord
100
AcDbLinetypeTableRecord
2
DASHEDX2
70
0
3
Dashedx2 ____  ____  ____  ____  ____  ___
72
65
73
2
40
1.5
49
1.0
74
0
49
-0.5
74
0
0
LTYPE
5
281
330
247
100
AcDbSymbolTableRecord
100
AcDbLinetypeTableRecord
2
DIVIDE
70
0
3
Divide ____ . . ____ . . ____ . . ____ . . ____
72
65
73
6
40
1.25
49
0.5
74
0
49
-0.25
74
0
49
0.0
74
0
49
-0.25
74
0
49
0.0
74
0
49
-0.25
74
0
0
LTYPE
5
282
330
247
100
AcDbSymbolTableRecord
100
AcDbLinetypeTableRecord
2
DIVIDE2
70
0
3
Divide2 __..__..__..__..__..__..__..__.._
72
65
73
6
40
0.625
49
0.25
74
0
49
-0.125
74
0
49
0.0
74
0
49
-0.125
74
0
49
0.0
74
0
49
-0.125
74
0
0
LTYPE
5
283
330
247
100
AcDbSymbolTableRecord
100
AcDbLinetypeTableRecord
2
DIVIDEX2
70
0
3
Dividex2 ________  .  .  ________  .  .  _
72
65
73
6
40
2.5
49
1.0
74
0
49
-0.5
74
0
49
0.0
74
0
49
-0.5
74
0
49
0.0
74
0
49
-0.5
74
0
0
LTYPE
5
284
330
247
100
AcDbSymbolTableRecord
100
AcDbLinetypeTableRecord
2
DOT
70
0
3
Dot . . . . . . . . . . . . . . . . . . . . . . . .
72
65
73
2
40
0.25
49
0.0
74
0
49
-0.25
74
0
0
LTYPE
5
285
330
247
100
AcDbSymbolTableRecord
100
AcDbLinetypeTableRecord
2
DOT2
70
0
3
Dot2 ........................................
72
65
73
2
40
0.125
49
0.0
74
0
49
-0.125
74
0
0
LTYPE
5
286
330
247
100
AcDbSymbolTableRecord
100
AcDbLinetypeTableRecord
2
DOTX2
70
0
3
Dotx2 .  .  .  .  .  .  .  .  .  .  .  .  .  .
72
65
73
2
40
0.5
49
0.0
74
0
49
-0.5
74
0
0
LTYPE
5
287
330
247
100
AcDbSymbolTableRecord
100
AcDbLinetypeTableRecord
2
HIDDENX2
70
0
3
Hiddenx2 ____ ____ ____ ____ ____ ____ ____
72
65
73
2
40
0.75
49
0.5
74
0
49
-0.25
74
0
0
LTYPE
5
288
330
247
100
AcDbSymbolTableRecord
100
AcDbLinetypeTableRecord
2
PHANTOM
70
0
3
Phantom ______  __  __  ______  __  __  ______
72
65
73
6
40
2.5
49
1.25
74
0
49
-0.25
74
0
49
0.25
74
0
49
-0.25
74
0
49
0.25
74
0
49
-0.25
74
0
0
LTYPE
5
289
330
247
100
AcDbSymbolTableRecord
100
AcDbLinetypeTableRecord
2
PHANTOM2
70
0
3
Phantom2 ___ _ _ ___ _ _ ___ _ _ ___ _ _
72
65
73
6
40
1.25
49
0.625
74
0
49
-0.125
74
0
49
0.125
74
0
49
-0.125
74
0
49
0.125
74
0
49
-0.125
74
0
0
LTYPE
5
28A
330
247
100
AcDbSymbolTableRecord
100
AcDbLinetypeTableRecord
2
PHANTOMX2
70
0
3
Phantomx2 ____________    ____    ____   _
72
65
73
6
40
5.0
49
2.5
74
0
49
-0.5
74
0
49
0.5
74
0
49
-0.5
74
0
49
0.5
74
0
49
-0.5
74
0
0
ENDTAB
0
TABLE
2
LAYER
5
244
330
0
100
AcDbSymbolTable
70
6
0
LAYER
5
252
330
244
100
AcDbSymbolTableRecord
100
AcDbLayerTableRecord
2
0
70
0
62
7
6
Continuous
370
0
390
251
0
LAYER
5
23F
330
244
100
AcDbSymbolTableRecord
100
AcDbLayerTableRecord
2
Bemassung
70
0
 62
   7
6
Continuous
370
0
390
251
0
LAYER
5
240
330
244
100
AcDbSymbolTableRecord
100
AcDbLayerTableRecord
2
Rahmen
70
0
 62
   7
6
Continuous
370
0
390
251
0
LAYER
5
241
330
244
100
AcDbSymbolTableRecord
100
AcDbLayerTableRecord
2
Geo
70
0
 62
   7
6
Continuous
370
0
390
251
0
LAYER
5
33A
330
244
100
AcDbSymbolTableRecord
100
AcDbLayerTableRecord
2
Defpoints
70
0
62
7
6
Continuous
290
0
370
-3
390
251
0
LAYER
5
57E
330
244
100
AcDbSymbolTableRecord
100
AcDbLayerTableRecord
2
Text
70
0
 62
   7
6
Continuous
370
0
390
251
1001
AcAecLayerStandard
1000

1000

0
ENDTAB
0
TABLE
2
STYLE
5
245
330
0
100
AcDbSymbolTable
70
2
0
STYLE
5
253
330
245
100
AcDbSymbolTableRecord
100
AcDbTextStyleTableRecord
2
Standard
70
0
40
0.0
41
1.0
50
0.0
71
0
42
0.2
3
Arial
4

1001
ACAD
1000
Arial
1071
0
0
STYLE
5
132
330
245
100
AcDbSymbolTableRecord
100
AcDbTextStyleTableRecord
2
Beschriftung
70
0
40
0.0
41
1.0
50
0.0
71
0
42
0.2
3
Arial
4

1001
ACAD
1000
Arial
1071
0
1001
AcadAnnotative
1000
AnnotativeData
1070
1
1070
1
0
ENDTAB
0
TABLE
2
VIEW
5
248
330
0
100
AcDbSymbolTable
70
0
0
ENDTAB
0
TABLE
2
UCS
5
249
330
0
100
AcDbSymbolTable
70
0
0
ENDTAB
0
TABLE
2
APPID
5
24B
330
0
100
AcDbSymbolTable
70
13
0
APPID
5
254
330
24B
100
AcDbSymbolTableRecord
100
AcDbRegAppTableRecord
2
ACAD
70
0
0
APPID
5
26C
330
24B
100
AcDbSymbolTableRecord
100
AcDbRegAppTableRecord
2
VD_INVISIBLE_NOT_FOR_READ
70
0
0
APPID
5
26D
330
24B
100
AcDbSymbolTableRecord
100
AcDbRegAppTableRecord
2
VD_TEMPHATCH
70
0
0
APPID
5
26E
330
24B
100
AcDbSymbolTableRecord
100
AcDbRegAppTableRecord
2
VDEXTRAPARAM
70
0
0
APPID
5
26F
330
24B
100
AcDbSymbolTableRecord
100
AcDbRegAppTableRecord
2
PE_URL
70
0
0
APPID
5
270
330
24B
100
AcDbSymbolTableRecord
100
AcDbRegAppTableRecord
2
VD_UNKNOWN
70
0
0
APPID
5
28F
330
24B
100
AcDbSymbolTableRecord
100
AcDbRegAppTableRecord
2
AcadAnnotative
70
0
0
APPID
5
290
330
24B
100
AcDbSymbolTableRecord
100
AcDbRegAppTableRecord
2
ACAD_DSTYLE_DIMJAG
70
0
0
APPID
5
291
330
24B
100
AcDbSymbolTableRecord
100
AcDbRegAppTableRecord
2
ACAD_DSTYLE_DIMTALN
70
0
0
APPID
5
293
330
24B
100
AcDbSymbolTableRecord
100
AcDbRegAppTableRecord
2
ACAD_PSEXT
70
0
0
APPID
5
42A
330
24B
100
AcDbSymbolTableRecord
100
AcDbRegAppTableRecord
2
ACAD_MLEADERVER
70
0
0
APPID
5
532
330
24B
100
AcDbSymbolTableRecord
100
AcDbRegAppTableRecord
2
ACAD_EXEMPT_FROM_CAD_STANDARDS
70
0
0
APPID
5
57F
330
24B
100
AcDbSymbolTableRecord
100
AcDbRegAppTableRecord
2
AcAecLayerStandard
70
0
0
ENDTAB
0
TABLE
2
DIMSTYLE
5
24C
330
0
100
AcDbSymbolTable
70
3
100
AcDbDimStyleTable
71
2
340
27
340
269
0
DIMSTYLE
105
269
330
24C
100
AcDbSymbolTableRecord
100
AcDbDimStyleTableRecord
2
Standard
70
0
172
1
174
1
288
1
340
253
342
23C
0
DIMSTYLE
105
137
330
24C
100
AcDbSymbolTableRecord
100
AcDbDimStyleTableRecord
2
Beschriftung
70
0
41
2.5
42
0.625
44
1.25
73
0
74
0
77
1
140
2.5
147
0.625
172
1
174
1
271
2
288
1
340
253
342
23C
1001
AcadAnnotative
1000
AnnotativeData
1070
1
1070
1
1001
ACAD_DSTYLE_DIMJAG
1070
388
1040
1.5
1001
ACAD_DSTYLE_DIMTALN
1070
392
1070
0
0
DIMSTYLE
105
27
102
{ACAD_REACTORS
330
F10017
330
F10021
330
F1002B
330
F10030
330
F10003
330
F1001C
330
F1000D
330
F10008
330
F10012
330
F10026
102
}
330
24C
100
AcDbSymbolTableRecord
100
AcDbDimStyleTableRecord
2
BEM-ISBE
70
0
41
2.5
42
0.625
44
1.25
48
0.000000001
71
1
73
0
74
0
77
1
140
2.5
144
1.00000000000000
146
0.5
147
0.625
171
 3
172
 1
179
 3
271
 3
272
 3
274
 3
340
253
342
23C
1001
ACAD_DSTYLE_DIMJAG
1070
388
1040
1.5
1001
ACAD_DSTYLE_DIMTALN
1070
392
1070
1
0
ENDTAB
0
TABLE
2
BLOCK_RECORD
5
243
330
0
100
AcDbSymbolTable
70
5
0
BLOCK_RECORD
5
261
330
243
100
AcDbSymbolTableRecord
100
AcDbBlockTableRecord
2
*Model_Space
340
FD0
0
BLOCK_RECORD
5
25D
330
243
100
AcDbSymbolTableRecord
100
AcDbBlockTableRecord
2
*Paper_Space
340
FD1
0
BLOCK_RECORD
5
265
330
243
100
AcDbSymbolTableRecord
100
AcDbBlockTableRecord
2
*Paper_Space0
340
0
0
BLOCK_RECORD
5
23C
330
243
100
AcDbSymbolTableRecord
100
AcDbBlockTableRecord
2
VDDIM_DEFAULT
340
0
102
{BLKREFS
102
}
0
BLOCK_RECORD
5
23E
330
243
100
AcDbSymbolTableRecord
100
AcDbBlockTableRecord
2
VDDIM_NONE
340
0
0
BLOCK_RECORD
5
F10016
330
243
100
AcDbSymbolTableRecord
100
AcDbBlockTableRecord
2
*D7
340
0
0
BLOCK_RECORD
5
F10020
330
243
100
AcDbSymbolTableRecord
100
AcDbBlockTableRecord
2
*D9
340
0
0
BLOCK_RECORD
5
F1002A
330
243
100
AcDbSymbolTableRecord
100
AcDbBlockTableRecord
2
*D11
340
0
0
BLOCK_RECORD
5
F1002F
330
243
100
AcDbSymbolTableRecord
100
AcDbBlockTableRecord
2
*D12
340
0
0
BLOCK_RECORD
5
F10002
330
243
100
AcDbSymbolTableRecord
100
AcDbBlockTableRecord
2
*D3
340
0
0
BLOCK_RECORD
5
F1001B
330
243
100
AcDbSymbolTableRecord
100
AcDbBlockTableRecord
2
*D8
340
0
0
BLOCK_RECORD
5
F1000C
330
243
100
AcDbSymbolTableRecord
100
AcDbBlockTableRecord
2
*D5
340
0
0
BLOCK_RECORD
5
F10007
330
243
100
AcDbSymbolTableRecord
100
AcDbBlockTableRecord
2
*D4
340
0
0
BLOCK_RECORD
5
F10011
330
243
100
AcDbSymbolTableRecord
100
AcDbBlockTableRecord
2
*D6
340
0
0
BLOCK_RECORD
5
F10025
330
243
100
AcDbSymbolTableRecord
100
AcDbBlockTableRecord
2
*D10
340
0
0
ENDTAB
0
ENDSEC
0
SECTION
2
BLOCKS
0
BLOCK
5
262
330
261
100
AcDbEntity
8
0
100
AcDbBlockBegin
2
*Model_Space
70
0
10
0.0
20
0.0
30
0.0
3
*Model_Space
1

0
ENDBLK
5
263
330
261
100
AcDbEntity
8
0
100
AcDbBlockEnd
0
BLOCK
5
25E
330
25D
100
AcDbEntity
67
1
8
0
100
AcDbBlockBegin
2
*Paper_Space
70
0
10
0.0
20
0.0
30
0.0
3
*Paper_Space
1

0
ENDBLK
5
25F
330
25D
100
AcDbEntity
67
1
8
0
100
AcDbBlockEnd
0
BLOCK
5
266
330
265
100
AcDbEntity
8
0
100
AcDbBlockBegin
2
*Paper_Space0
70
0
10
0.0
20
0.0
30
0.0
3
*Paper_Space0
1

0
VIEWPORT
5
296
102
{ACAD_XDICTIONARY
360
58E
102
}
330
265
100
AcDbEntity
8
0
60
1
100
AcDbViewport
10
0.0
20
0.0
30
0.0
40
10.0
41
10.0
69
0
12
0.0
22
0.0
13
0.0
23
0.0
14
1.0
24
1.0
15
0.0
25
0.0
16
0.0
26
0.0
36
1.0
17
0.0
27
0.0
37
0.0
42
0.0
43
0.0
44
0.0
45
10.0
50
0.0
51
0.0000000000007958
72
100
90
163872
1

281
0
71
0
74
0
110
0.0
120
0.0
130
0.0
111
1.0
121
0.0
131
0.0
112
0.0
122
1.0
132
0.0
79
0
146
0.0
1001
VD_INVISIBLE_NOT_FOR_READ
1000
VD_INVISIBLE_NOT_FOR_READ
0
VIEWPORT
5
297
102
{ACAD_XDICTIONARY
360
590
102
}
330
265
100
AcDbEntity
8
0
60
1
100
AcDbViewport
10
0.0
20
0.0
30
0.0
40
10.0
41
10.0
69
0
12
0.0
22
0.0
13
0.0
23
0.0
14
1.0
24
1.0
15
0.0
25
0.0
16
0.0
26
0.0
36
1.0
17
0.0
27
0.0
37
0.0
42
0.0
43
0.0
44
0.0
45
10.0
50
0.0
51
0.0000000000007958
72
100
90
163872
1

281
0
71
0
74
0
110
0.0
120
0.0
130
0.0
111
1.0
121
0.0
131
0.0
112
0.0
122
1.0
132
0.0
79
0
146
0.0
1001
VD_INVISIBLE_NOT_FOR_READ
1000
VD_INVISIBLE_NOT_FOR_READ
0
ENDBLK
5
267
330
265
100
AcDbEntity
8
0
100
AcDbBlockEnd
0
BLOCK
5
28B
330
23C
100
AcDbEntity
8
0
100
AcDbBlockBegin
2
VDDIM_DEFAULT
70
0
10
0.0
20
0.0
30
0.0
3
VDDIM_DEFAULT
1

0
LWPOLYLINE
5
23D
330
23C
100
AcDbEntity
8
0
6
Continuous
62
0
100
AcDbPolyline
90
4
70
0
43
0.0
10
0.0
20
0.0
10
-1.0
20
-0.1665
10
-1.0
20
0.1665
10
0.0
20
0.0
1001
VDEXTRAPARAM
1071
1
1071
0
1071
0
1040
1.0
1000

1000

1040
0.0
1040
0.0
0
HATCH
5
292
330
23C
100
AcDbEntity
8
0
6
Continuous
62
0
100
AcDbHatch
10
0.0
20
0.0
30
0.0
210
0.0
220
0.0
230
1.0
2
SOLID
70
1
71
0
91
1
92
2
72
0
73
1
93
3
10
0.0
20
0.0
10
-1.0
20
-0.1665
10
-1.0
20
0.1665
97
0
75
0
76
1
98
1
10
0.0
20
0.0
1001
VDEXTRAPARAM
1071
1
1071
0
1071
0
1040
1.0
1000

1000

1040
0.0
1040
0.0
1001
VD_TEMPHATCH
1000
VD_TEMPHATCH
0
ENDBLK
5
28C
330
23C
100
AcDbEntity
8
0
100
AcDbBlockEnd
0
BLOCK
5
28D
330
23E
100
AcDbEntity
8
0
100
AcDbBlockBegin
2
VDDIM_NONE
70
0
10
0.0
20
0.0
30
0.0
3
VDDIM_NONE
1

0
ENDBLK
5
28E
330
23E
100
AcDbEntity
8
0
100
AcDbBlockEnd
  0
BLOCK
  5
F10034
330
F10016
100
AcDbEntity
  8
0
100
AcDbBlockBegin
  2
*D7
 70
     1
 10
0.0
 20
0.0
 30
0.0
  3
*D7
  1

  0
LINE
  5
F10035
330
F10016
100
AcDbEntity
  8
Bemassung
 62
     0
370
    -2
100
AcDbLine
10
-81.8665893271461
20
-13.0069605568444
30
0.000000000000000
11
-81.8665893271461
21
21.9930394431556
31
0.000000000000000
  0
LINE
  5
F10036
330
F10016
100
AcDbEntity
  8
Bemassung
 62
     0
370
    -2
100
AcDbLine
10
-72.8665893271461
20
-1.60696055684443
30
0.000000000000000
11
-72.8665893271461
21
11.9930394431556
31
0.000000000000000
  0
LINE
  5
F10037
330
F10016
100
AcDbEntity
  8
Bemassung
 62
     0
370
    -2
100
AcDbLine
10
-81.8665893271461
20
9.99303944315557
30
0.000000000000000
11
-67.9071925754060
21
9.99303944315557
31
0.000000000000000
  0
INSERT
  5
F10038
330
F10016
100
AcDbEntity
  8
Bemassung
 62
     0
370
    -2
100
AcDbBlockReference
  2
VDDIM_DEFAULT
10
-81.8665893271461
20
9.99303944315557
30
0.000000000000000
 41
2.50000000000000
 42
2.50000000000000
 43
2.50000000000000
 50
180.000000000000
  0
INSERT
  5
F10039
330
F10016
100
AcDbEntity
  8
Bemassung
 62
     0
370
    -2
100
AcDbBlockReference
  2
VDDIM_DEFAULT
10
-72.8665893271461
20
9.99303944315557
30
0.000000000000000
 41
2.50000000000000
 42
2.50000000000000
 43
2.50000000000000
  0
MTEXT
  5
F1003A
330
F10016
100
AcDbEntity
  8
Bemassung
 62
     0
100
AcDbMText
10
-77.3665893271461
20
10.6597061098222
30
0.000000000000000
 40
2.50000000000000
 41
0.0
 71
     8
 72
     1
  1
9
 11
1.00000000000000
 21
0.000000000000000
 31
0.0
 73
     1
 44
1.0
1001
ACAD
1000
MTEXTBEGIN
1070
73
1070
1
1070
44
1040
1.0
1070
74
1070
0
1000
MTEXTEND
  0
POINT
  5
F1003B
330
F10016
100
AcDbEntity
  8
Bemassung
 62
     0
100
AcDbPoint
10
-81.8665893271461
20
-13.0069605568444
30
0.000000000000000
  0
POINT
  5
F1003C
330
F10016
100
AcDbEntity
  8
Bemassung
 62
     0
100
AcDbPoint
10
-72.8665893271461
20
-1.60696055684443
30
0.000000000000000
  0
ENDBLK
  5
F1003D
330
F10016
100
AcDbEntity
  8
0
100
AcDbBlockEnd
  0
BLOCK
  5
F1003E
330
F10020
100
AcDbEntity
  8
0
100
AcDbBlockBegin
  2
*D9
 70
     1
 10
0.0
 20
0.0
 30
0.0
  3
*D9
  1

  0
LINE
  5
F1003F
330
F10020
100
AcDbEntity
  8
Bemassung
 62
     0
370
    -2
100
AcDbLine
10
-66.8953080350359
20
-0.00696055684443309
30
0.000000000000000
11
-66.8953080350359
21
16.9930394431556
31
0.000000000000000
  0
LINE
  5
F10040
330
F10020
100
AcDbEntity
  8
Bemassung
 62
     0
370
    -2
100
AcDbLine
10
-30.8665893271461
20
-0.506960556844433
30
0.000000000000000
11
-30.8665893271461
21
21.9930394431556
31
0.000000000000000
  0
LINE
  5
F10041
330
F10020
100
AcDbEntity
  8
Bemassung
 62
     0
370
    -2
100
AcDbLine
10
-66.8953080350359
20
14.9930394431556
30
0.000000000000000
11
19.7958236658933
21
14.9930394431556
31
0.000000000000000
  0
INSERT
  5
F10042
330
F10020
100
AcDbEntity
  8
Bemassung
 62
     0
370
    -2
100
AcDbBlockReference
  2
VDDIM_DEFAULT
10
-66.8953080350359
20
14.9930394431556
30
0.000000000000000
 41
2.50000000000000
 42
2.50000000000000
 43
2.50000000000000
 50
180.000000000000
  0
INSERT
  5
F10043
330
F10020
100
AcDbEntity
  8
Bemassung
 62
     0
370
    -2
100
AcDbBlockReference
  2
VDDIM_DEFAULT
10
-30.8665893271461
20
14.9930394431556
30
0.000000000000000
 41
2.50000000000000
 42
2.50000000000000
 43
2.50000000000000
  0
MTEXT
  5
F10044
330
F10020
100
AcDbEntity
  8
Bemassung
 62
     0
100
AcDbMText
10
-48.8809486810910
20
15.6597061098222
30
0.000000000000000
 40
2.50000000000000
 41
0.0
 71
     8
 72
     1
  1
36.029
 11
1.00000000000000
 21
0.000000000000000
 31
0.0
 73
     1
 44
1.0
1001
ACAD
1000
MTEXTBEGIN
1070
73
1070
1
1070
44
1040
1.0
1070
74
1070
0
1000
MTEXTEND
  0
POINT
  5
F10045
330
F10020
100
AcDbEntity
  8
Bemassung
 62
     0
100
AcDbPoint
10
-66.8953080350359
20
-0.00696055684443309
30
0.000000000000000
  0
POINT
  5
F10046
330
F10020
100
AcDbEntity
  8
Bemassung
 62
     0
100
AcDbPoint
10
-30.8665893271461
20
-0.506960556844433
30
0.000000000000000
  0
ENDBLK
  5
F10047
330
F10020
100
AcDbEntity
  8
0
100
AcDbBlockEnd
  0
BLOCK
  5
F10048
330
F1002A
100
AcDbEntity
  8
0
100
AcDbBlockBegin
  2
*D11
 70
     1
 10
0.0
 20
0.0
 30
0.0
  3
*D11
  1

  0
LINE
  5
F10049
330
F1002A
100
AcDbEntity
  8
Bemassung
 62
     0
370
    -2
100
AcDbLine
10
-73.8665893271461
20
-4.40696055684443
30
0.000000000000000
11
-73.8665893271461
21
-13.0069605568444
31
0.000000000000000
  0
LINE
  5
F1004A
330
F1002A
100
AcDbEntity
  8
Bemassung
 62
     0
370
    -2
100
AcDbLine
10
-81.8665893271461
20
-13.0069605568444
30
0.000000000000000
11
-81.8665893271461
21
21.9930394431556
31
0.000000000000000
  0
LINE
  5
F1004B
330
F1002A
100
AcDbEntity
  8
Bemassung
 62
     0
370
    -2
100
AcDbLine
10
-69.4106728538283
20
-11.0069605568444
30
0.000000000000000
11
-81.8665893271461
21
-11.0069605568444
31
0.000000000000000
  0
INSERT
  5
F1004C
330
F1002A
100
AcDbEntity
  8
Bemassung
 62
     0
370
    -2
100
AcDbBlockReference
  2
VDDIM_DEFAULT
10
-73.8665893271461
20
-11.0069605568444
30
0.000000000000000
 41
2.50000000000000
 42
2.50000000000000
 43
2.50000000000000
  0
INSERT
  5
F1004D
330
F1002A
100
AcDbEntity
  8
Bemassung
 62
     0
370
    -2
100
AcDbBlockReference
  2
VDDIM_DEFAULT
10
-81.8665893271461
20
-11.0069605568444
30
0.000000000000000
 41
2.50000000000000
 42
2.50000000000000
 43
2.50000000000000
 50
180.000000000000
  0
MTEXT
  5
F1004E
330
F1002A
100
AcDbEntity
  8
Bemassung
 62
     0
100
AcDbMText
10
-77.8665893271461
20
-10.3402938901778
30
0.000000000000000
 40
2.50000000000000
 41
0.0
 71
     8
 72
     1
  1
8
 11
1.00000000000000
 21
0.000000000000000
 31
0.0
 73
     1
 44
1.0
1001
ACAD
1000
MTEXTBEGIN
1070
73
1070
1
1070
44
1040
1.0
1070
74
1070
0
1000
MTEXTEND
  0
POINT
  5
F1004F
330
F1002A
100
AcDbEntity
  8
Bemassung
 62
     0
100
AcDbPoint
10
-73.8665893271461
20
-4.40696055684443
30
0.000000000000000
  0
POINT
  5
F10050
330
F1002A
100
AcDbEntity
  8
Bemassung
 62
     0
100
AcDbPoint
10
-81.8665893271461
20
-13.0069605568444
30
0.000000000000000
  0
ENDBLK
  5
F10051
330
F1002A
100
AcDbEntity
  8
0
100
AcDbBlockEnd
  0
BLOCK
  5
F10052
330
F1002F
100
AcDbEntity
  8
0
100
AcDbBlockBegin
  2
*D12
 70
     1
 10
0.0
 20
0.0
 30
0.0
  3
*D12
  1

  0
LINE
  5
F10053
330
F1002F
100
AcDbEntity
  8
Bemassung
 62
     0
370
    -2
100
AcDbLine
10
-30.8665893271461
20
-0.506960556844433
30
0.000000000000000
11
-30.8665893271461
21
21.9930394431556
31
0.000000000000000
  0
LINE
  5
F10054
330
F1002F
100
AcDbEntity
  8
Bemassung
 62
     0
370
    -2
100
AcDbLine
10
-81.8665893271461
20
-13.0069605568444
30
0.000000000000000
11
-81.8665893271461
21
21.9930394431556
31
0.000000000000000
  0
LINE
  5
F10055
330
F1002F
100
AcDbEntity
  8
Bemassung
 62
     0
370
    -2
100
AcDbLine
10
-4.51044083526682
20
19.9930394431556
30
0.000000000000000
11
-81.8665893271461
21
19.9930394431556
31
0.000000000000000
  0
INSERT
  5
F10056
330
F1002F
100
AcDbEntity
  8
Bemassung
 62
     0
370
    -2
100
AcDbBlockReference
  2
VDDIM_DEFAULT
10
-30.8665893271461
20
19.9930394431556
30
0.000000000000000
 41
2.50000000000000
 42
2.50000000000000
 43
2.50000000000000
  0
INSERT
  5
F10057
330
F1002F
100
AcDbEntity
  8
Bemassung
 62
     0
370
    -2
100
AcDbBlockReference
  2
VDDIM_DEFAULT
10
-81.8665893271461
20
19.9930394431556
30
0.000000000000000
 41
2.50000000000000
 42
2.50000000000000
 43
2.50000000000000
 50
180.000000000000
  0
MTEXT
  5
F10058
330
F1002F
100
AcDbEntity
  8
Bemassung
 62
     0
100
AcDbMText
10
-56.3665893271461
20
20.6597061098222
30
0.000000000000000
 40
2.50000000000000
 41
0.0
 71
     8
 72
     1
  1
51
 11
1.00000000000000
 21
0.000000000000000
 31
0.0
 73
     1
 44
1.0
1001
ACAD
1000
MTEXTBEGIN
1070
73
1070
1
1070
44
1040
1.0
1070
74
1070
0
1000
MTEXTEND
  0
POINT
  5
F10059
330
F1002F
100
AcDbEntity
  8
Bemassung
 62
     0
100
AcDbPoint
10
-30.8665893271461
20
-0.506960556844433
30
0.000000000000000
  0
POINT
  5
F1005A
330
F1002F
100
AcDbEntity
  8
Bemassung
 62
     0
100
AcDbPoint
10
-81.8665893271461
20
-13.0069605568444
30
0.000000000000000
  0
ENDBLK
  5
F1005B
330
F1002F
100
AcDbEntity
  8
0
100
AcDbBlockEnd
  0
BLOCK
  5
F1005C
330
F10002
100
AcDbEntity
  8
0
100
AcDbBlockBegin
  2
*D3
 70
     1
 10
0.0
 20
0.0
 30
0.0
  3
*D3
  1

 0
ARC
  5
F1005D
330
F10002
100
AcDbEntity
  8
Bemassung
 62
     0
370
   -2
100
AcDbCircle
10
-81.8664674925499
20
-1.71394045618493
30
0.000000000000000
 40
13.3806233427542
100
AcDbArc
 50
90.0000000000000
 51
119.319446500134
  0
LINE
  5
F1005E
330
F10002
100
AcDbEntity
  8
Bemassung
 62
     0
370
    -2
100
AcDbLine
10
-81.8664674925499
20
-1.71394045618493
30
0.000000000000000
11
-81.8664674925499
21
13.6666828865693
31
0.000000000000000
  0
LINE
  5
F1005F
330
F10002
100
AcDbEntity
  8
Bemassung
 62
     0
370
    -2
100
AcDbLine
10
-81.8664674925499
20
-1.71394045618493
30
0.000000000000000
11
-82.4032435061828
21
13.6573134263994
31
0.000000000000000
  0
INSERT
  5
F10060
330
F10002
100
AcDbEntity
  8
Bemassung
 62
     0
370
    -2
100
AcDbBlockReference
  2
VDDIM_DEFAULT
10
-81.8664674925499
20
11.6666828865693
30
0.000000000000000
 41
2.50000000000000
 42
2.50000000000000
 43
2.50000000000000
 50
179.785899687237
  0
INSERT
  5
F10061
330
F10002
100
AcDbEntity
  8
Bemassung
 62
     0
370
    -2
100
AcDbBlockReference
  2
VDDIM_DEFAULT
10
-82.3334445127778
20
11.6585317723612
30
0.000000000000000
 41
2.50000000000000
 42
2.50000000000000
 43
2.50000000000000
 50
2.21410031276293
  0
MTEXT
  5
F10062
330
F10002
100
AcDbEntity
  8
Bemassung
 62
     0
100
AcDbMText
10
-88.4564620648569
20
9.93136128218249
30
0.000000000000000
 40
2.50000000000000
 41
0.0
 71
     8
 72
     1
  1
2°
 11
0.862415783820529
 21
0.506200568764223
 31
0.0
 73
     1
 44
1.0
1001
ACAD
1000
MTEXTBEGIN
1070
73
1070
1
1070
44
1040
1.0
1070
74
1070
0
1000
MTEXTEND
  0
POINT
  5
F10063
330
F10002
100
AcDbEntity
  8
Bemassung
 62
     0
100
AcDbPoint
10
-81.8664674925499
20
-1.71394045618493
30
0.000000000000000
  0
POINT
  5
F10064
330
F10002
100
AcDbEntity
  8
Bemassung
 62
     0
100
AcDbPoint
10
-81.8664674925499
20
11.6666828865693
30
0.000000000000000
  0
POINT
  5
F10065
330
F10002
100
AcDbEntity
  8
Bemassung
 62
     0
100
AcDbPoint
10
-82.3334445127778
20
11.6585317723612
30
0.000000000000000
  0
POINT
  5
F10066
330
F10002
100
AcDbEntity
  8
Bemassung
 62
     0
100
AcDbPoint
10
-82.0999915695119
20
11.6646449528237
30
0.000000000000000
  0
ENDBLK
  5
F10067
330
F10002
100
AcDbEntity
  8
0
100
AcDbBlockEnd
  0
BLOCK
  5
F10068
330
F1001B
100
AcDbEntity
  8
0
100
AcDbBlockBegin
  2
*D8
 70
     1
 10
0.0
 20
0.0
 30
0.0
  3
*D8
  1

 0
ARC
  5
F10069
330
F1001B
100
AcDbEntity
  8
Bemassung
 62
     0
370
   -2
100
AcDbCircle
10
-66.8953080350359
20
-0.00696055684443309
30
0.000000000000000
 40
18.9004235869318
100
AcDbArc
 50
0.000000000000000
 51
15.0000000000000
  0
LINE
  5
F1006A
330
F1001B
100
AcDbEntity
  8
Bemassung
 62
     0
370
    -2
100
AcDbLine
10
-66.8953080350359
20
-0.00696055684443309
30
0.000000000000000
11
-45.9948844481041
21
-0.00696055684443309
31
0.000000000000000
  0
LINE
  5
F1006B
330
F1001B
100
AcDbEntity
  8
Bemassung
 62
     0
370
    -2
100
AcDbLine
10
-66.8953080350359
20
-0.00696055684443309
30
0.000000000000000
11
-46.7070491120373
21
5.40246711816345
31
0.000000000000000
  0
INSERT
  5
F1006C
330
F1001B
100
AcDbEntity
  8
Bemassung
 62
     0
370
    -2
100
AcDbBlockReference
  2
VDDIM_DEFAULT
10
-47.9948844481041
20
-0.00696055684443309
30
0.000000000000000
 41
2.50000000000000
 42
2.50000000000000
 43
2.50000000000000
 50
89.8484270839781
  0
INSERT
  5
F1006D
330
F1001B
100
AcDbEntity
  8
Bemassung
 62
     0
370
    -2
100
AcDbBlockReference
  2
VDDIM_DEFAULT
10
-48.6389007646154
20
4.88482902795841
30
0.000000000000000
 41
2.50000000000000
 42
2.50000000000000
 43
2.50000000000000
 50
285.151572916022
  0
MTEXT
  5
F1006E
330
F1001B
100
AcDbEntity
  8
Bemassung
 62
     0
100
AcDbMText
10
-48.1501355632478
20
2.41058381055906
30
0.000000000000000
 40
2.50000000000000
 41
0.0
 71
     8
 72
     1
  1
15°
 11
0.133917896001395
 21
-0.990992430410323
 31
0.0
 73
     1
 44
1.0
1001
ACAD
1000
MTEXTBEGIN
1070
73
1070
1
1070
44
1040
1.0
1070
74
1070
0
1000
MTEXTEND
  0
POINT
  5
F1006F
330
F1001B
100
AcDbEntity
  8
Bemassung
 62
     0
100
AcDbPoint
10
-66.8953080350359
20
-0.00696055684443309
30
0.000000000000000
  0
POINT
  5
F10070
330
F1001B
100
AcDbEntity
  8
Bemassung
 62
     0
100
AcDbPoint
10
-47.9948844481041
20
-0.00696055684443309
30
0.000000000000000
  0
POINT
  5
F10071
330
F1001B
100
AcDbEntity
  8
Bemassung
 62
     0
100
AcDbPoint
10
-48.6389007646154
20
4.88482902795841
30
0.000000000000000
  0
POINT
  5
F10072
330
F1001B
100
AcDbEntity
  8
Bemassung
 62
     0
100
AcDbPoint
10
-48.1565801919840
20
2.46003976530382
30
0.000000000000000
  0
ENDBLK
  5
F10073
330
F1001B
100
AcDbEntity
  8
0
100
AcDbBlockEnd
  0
BLOCK
  5
F10074
330
F1000C
100
AcDbEntity
  8
0
100
AcDbBlockBegin
  2
*D5
 70
     1
 10
0.0
 20
0.0
 30
0.0
  3
*D5
  1

  0
LINE
  5
F10075
330
F1000C
100
AcDbEntity
  8
Bemassung
 62
     0
370
    -2
100
AcDbLine
10
-81.8104572872138
20
-1.56802888275263
30
0.000000000000000
11
-91.6978436920346
21
7.98010918056285
31
0.000000000000000
  0
INSERT
  5
F10076
330
F1000C
100
AcDbEntity
  8
Bemassung
 62
     0
370
    -2
100
AcDbBlockReference
  2
VDDIM_DEFAULT
10
-81.8104572872138
20
-1.56802888275263
30
0.000000000000000
 41
2.50000000000000
 42
2.50000000000000
 43
2.50000000000000
 50
316.000000000000
  0
MTEXT
  5
F10077
330
F1000C
100
AcDbEntity
  8
Bemassung
 62
     0
100
AcDbMText
10
-89.0038552906004
20
5.37855482183732
30
0.000000000000000
 40
2.50000000000000
 41
0.0
 71
     8
 72
     1
  1
R0.2
 11
0.719339800338652
 21
-0.694658370458996
 31
0.0
 73
     1
 44
1.0
1001
ACAD
1000
MTEXTBEGIN
1070
73
1070
1
1070
44
1040
1.0
1070
74
1070
0
1000
MTEXTEND
  0
POINT
  5
F10078
330
F1000C
100
AcDbEntity
  8
Bemassung
 62
     0
100
AcDbPoint
10
-81.8104572872138
20
-1.56802888275263
30
0.000000000000000
  0
POINT
  5
F10079
330
F1000C
100
AcDbEntity
  8
Bemassung
 62
     0
100
AcDbPoint
10
-81.6665893271461
20
-1.70696055684443
30
0.000000000000000
  0
ENDBLK
  5
F1007A
330
F1000C
100
AcDbEntity
  8
0
100
AcDbBlockEnd
  0
BLOCK
  5
F1007B
330
F10007
100
AcDbEntity
  8
0
100
AcDbBlockBegin
  2
*D4
 70
     1
 10
0.0
 20
0.0
 30
0.0
  3
*D4
  1

  0
LINE
  5
F1007C
330
F10007
100
AcDbEntity
  8
Bemassung
 62
     0
370
    -2
100
AcDbLine
10
-81.6665893271461
20
-4.50696055684443
30
0.000000000000000
11
-93.8665893271461
21
-4.50696055684443
31
0.000000000000000
  0
LINE
  5
F1007D
330
F10007
100
AcDbEntity
  8
Bemassung
 62
     0
370
    -2
100
AcDbLine
10
-81.6665893271461
20
-1.50696055684443
30
0.000000000000000
11
-93.8665893271461
21
-1.50696055684443
31
0.000000000000000
  0
LINE
  5
F1007E
330
F10007
100
AcDbEntity
  8
Bemassung
 62
     0
370
    -2
100
AcDbLine
10
-91.8665893271461
20
-4.50696055684443
30
0.000000000000000
11
-91.8665893271461
21
-1.50696055684443
31
0.000000000000000
  0
INSERT
  5
F1007F
330
F10007
100
AcDbEntity
  8
Bemassung
 62
     0
370
    -2
100
AcDbBlockReference
  2
VDDIM_DEFAULT
10
-91.8665893271461
20
-4.50696055684443
30
0.000000000000000
 41
2.50000000000000
 42
2.50000000000000
 43
2.50000000000000
 50
270.000000000000
  0
INSERT
  5
F10080
330
F10007
100
AcDbEntity
  8
Bemassung
 62
     0
370
    -2
100
AcDbBlockReference
  2
VDDIM_DEFAULT
10
-91.8665893271461
20
-1.50696055684443
30
0.000000000000000
 41
2.50000000000000
 42
2.50000000000000
 43
2.50000000000000
 50
90.0000000000000
  0
MTEXT
  5
F10081
330
F10007
100
AcDbEntity
  8
Bemassung
 62
     0
100
AcDbMText
10
-91.1999226604794
20
-3.00696055684443
30
0.000000000000000
 40
2.50000000000000
 41
0.0
 71
     8
 72
     1
  1
3
 11
6.12323399573677e-017
 21
1.00000000000000
 31
0.0
 73
     1
 44
1.0
1001
ACAD
1000
MTEXTBEGIN
1070
73
1070
1
1070
44
1040
1.0
1070
74
1070
0
1000
MTEXTEND
  0
POINT
  5
F10082
330
F10007
100
AcDbEntity
  8
Bemassung
 62
     0
100
AcDbPoint
10
-81.6665893271461
20
-4.50696055684443
30
0.000000000000000
  0
POINT
  5
F10083
330
F10007
100
AcDbEntity
  8
Bemassung
 62
     0
100
AcDbPoint
10
-81.6665893271461
20
-1.50696055684443
30
0.000000000000000
  0
ENDBLK
  5
F10084
330
F10007
100
AcDbEntity
  8
0
100
AcDbBlockEnd
  0
BLOCK
  5
F10085
330
F10011
100
AcDbEntity
  8
0
100
AcDbBlockBegin
  2
*D6
 70
     1
 10
0.0
 20
0.0
 30
0.0
  3
*D6
  1

  0
LINE
  5
F10086
330
F10011
100
AcDbEntity
  8
Bemassung
 62
     0
370
    -2
100
AcDbLine
10
-73.8665893271461
20
-4.40696055684443
30
0.000000000000000
11
-70.5332559938128
21
-4.40696055684443
31
0.000000000000000
  0
LINE
  5
F10087
330
F10011
100
AcDbEntity
  8
Bemassung
 62
     0
370
    -2
100
AcDbLine
10
-73.8665893271461
20
-1.60696055684443
30
0.000000000000000
11
-70.5332559938128
21
-1.60696055684443
31
0.000000000000000
  0
LINE
  5
F10088
330
F10011
100
AcDbEntity
  8
Bemassung
 62
     0
370
    -2
100
AcDbLine
10
-72.5332559938128
20
-4.40696055684443
30
0.000000000000000
11
-72.5332559938128
21
10.5243619489559
31
0.000000000000000
  0
INSERT
  5
F10089
330
F10011
100
AcDbEntity
  8
Bemassung
 62
     0
370
    -2
100
AcDbBlockReference
  2
VDDIM_DEFAULT
10
-72.5332559938128
20
-4.40696055684443
30
0.000000000000000
 41
2.50000000000000
 42
2.50000000000000
 43
2.50000000000000
 50
90.0000000000000
  0
INSERT
  5
F1008A
330
F10011
100
AcDbEntity
  8
Bemassung
 62
     0
370
    -2
100
AcDbBlockReference
  2
VDDIM_DEFAULT
10
-72.5332559938128
20
-1.60696055684443
30
0.000000000000000
 41
2.50000000000000
 42
2.50000000000000
 43
2.50000000000000
 50
270.000000000000
  0
MTEXT
  5
F1008B
330
F10011
100
AcDbEntity
  8
Bemassung
 62
     0
100
AcDbMText
10
-71.8665893271461
20
1.50348027842235
30
0.000000000000000
 40
2.50000000000000
 41
0.0
 71
     8
 72
     1
  1
2.8
 11
6.12323399573677e-017
 21
1.00000000000000
 31
0.0
 73
     1
 44
1.0
1001
ACAD
1000
MTEXTBEGIN
1070
73
1070
1
1070
44
1040
1.0
1070
74
1070
0
1000
MTEXTEND
  0
POINT
  5
F1008C
330
F10011
100
AcDbEntity
  8
Bemassung
 62
     0
100
AcDbPoint
10
-73.8665893271461
20
-4.40696055684443
30
0.000000000000000
  0
POINT
  5
F1008D
330
F10011
100
AcDbEntity
  8
Bemassung
 62
     0
100
AcDbPoint
10
-73.8665893271461
20
-1.60696055684443
30
0.000000000000000
  0
ENDBLK
  5
F1008E
330
F10011
100
AcDbEntity
  8
0
100
AcDbBlockEnd
  0
BLOCK
  5
F1008F
330
F10025
100
AcDbEntity
  8
0
100
AcDbBlockBegin
  2
*D10
 70
     1
 10
0.0
 20
0.0
 30
0.0
  3
*D10
  1

  0
LINE
  5
F10090
330
F10025
100
AcDbEntity
  8
Bemassung
 62
     0
370
    -2
100
AcDbLine
10
-31.3665893271461
20
-6.00696055684443
30
0.000000000000000
11
-18.8665893271461
21
-6.00696055684443
31
0.000000000000000
  0
LINE
  5
F10091
330
F10025
100
AcDbEntity
  8
Bemassung
 62
     0
370
    -2
100
AcDbLine
10
-31.3665893271461
20
-0.00696055684443309
30
0.000000000000000
11
-18.8665893271461
21
-0.00696055684443309
31
0.000000000000000
  0
LINE
  5
F10092
330
F10025
100
AcDbEntity
  8
Bemassung
 62
     0
370
    -2
100
AcDbLine
10
-20.8665893271461
20
-6.00696055684443
30
0.000000000000000
11
-20.8665893271461
21
-0.00696055684443309
31
0.000000000000000
  0
INSERT
  5
F10093
330
F10025
100
AcDbEntity
  8
Bemassung
 62
     0
370
    -2
100
AcDbBlockReference
  2
VDDIM_DEFAULT
10
-20.8665893271461
20
-6.00696055684443
30
0.000000000000000
 41
2.50000000000000
 42
2.50000000000000
 43
2.50000000000000
 50
270.000000000000
  0
INSERT
  5
F10094
330
F10025
100
AcDbEntity
  8
Bemassung
 62
     0
370
    -2
100
AcDbBlockReference
  2
VDDIM_DEFAULT
10
-20.8665893271461
20
-0.00696055684443309
30
0.000000000000000
 41
2.50000000000000
 42
2.50000000000000
 43
2.50000000000000
 50
90.0000000000000
  0
MTEXT
  5
F10095
330
F10025
100
AcDbEntity
  8
Bemassung
 62
     0
100
AcDbMText
10
-20.1999226604794
20
-3.00696055684443
30
0.000000000000000
 40
2.50000000000000
 41
0.0
 71
     8
 72
     1
  1
6h6
 11
6.12323399573677e-017
 21
1.00000000000000
 31
0.0
 73
     1
 44
1.0
  0
POINT
  5
F10096
330
F10025
100
AcDbEntity
  8
Bemassung
 62
     0
100
AcDbPoint
10
-31.3665893271461
20
-6.00696055684443
30
0.000000000000000
  0
POINT
  5
F10097
330
F10025
100
AcDbEntity
  8
Bemassung
 62
     0
100
AcDbPoint
10
-31.3665893271461
20
-0.00696055684443309
30
0.000000000000000
  0
ENDBLK
  5
F10098
330
F10025
100
AcDbEntity
  8
0
100
AcDbBlockEnd
0
ENDSEC
0
SECTION
2
ENTITIES
  0
DIMENSION
  5
F10017
330
261
100
AcDbEntity
  8
Bemassung
100
AcDbDimension
  2
*D7
10
-72.8665893271461
20
9.99303944315557
30
0.000000000000000
11
-77.3665893271461
21
10.6597061098222
31
0.000000000000000
 70
32
 1
9
 71
     8
  3
BEM-ISBE
100
AcDbAlignedDimension
13
-81.8665893271461
23
-13.0069605568444
33
0.000000000000000
14
-72.8665893271461
24
-1.60696055684443
34
0.000000000000000
100
AcDbRotatedDimension
1001
ACAD
1000
DSTYLE
1002
{
1070
284
1070
8
1070
78
1070
8
1070
144
1040
1.00000000000000
1070
147
1040
0.625
1070
 72
1070
 0
1070
 71
1070
 0
1002
}
  0
DIMENSION
  5
F10021
330
261
100
AcDbEntity
  8
Bemassung
100
AcDbDimension
  2
*D9
10
-30.8665893271461
20
14.9930394431556
30
0.000000000000000
11
-48.8809486810910
21
15.6597061098222
31
0.000000000000000
 70
32
 1
36.029
 71
     8
  3
BEM-ISBE
100
AcDbAlignedDimension
13
-66.8953080350359
23
-0.00696055684443309
33
0.000000000000000
14
-30.8665893271461
24
-0.506960556844433
34
0.000000000000000
100
AcDbRotatedDimension
1001
ACAD
1000
DSTYLE
1002
{
1070
284
1070
8
1070
78
1070
8
1070
144
1040
1.00000000000000
1070
147
1040
0.625
1070
 72
1070
 0
1070
 71
1070
 0
1002
}
  0
DIMENSION
  5
F1002B
330
261
100
AcDbEntity
  8
Bemassung
100
AcDbDimension
  2
*D11
10
-81.8665893271461
20
-11.0069605568444
30
0.000000000000000
11
-77.8665893271461
21
-10.3402938901778
31
0.000000000000000
 70
32
 1
8
 71
     8
  3
BEM-ISBE
100
AcDbAlignedDimension
13
-73.8665893271461
23
-4.40696055684443
33
0.000000000000000
14
-81.8665893271461
24
-13.0069605568444
34
0.000000000000000
100
AcDbRotatedDimension
1001
ACAD
1000
DSTYLE
1002
{
1070
284
1070
8
1070
78
1070
8
1070
144
1040
1.00000000000000
1070
147
1040
0.625
1070
 72
1070
 0
1070
 71
1070
 0
1002
}
  0
DIMENSION
  5
F10030
330
261
100
AcDbEntity
  8
Bemassung
100
AcDbDimension
  2
*D12
10
-81.8665893271461
20
19.9930394431556
30
0.000000000000000
11
-56.3665893271461
21
20.6597061098222
31
0.000000000000000
 70
32
 1
51
 71
     8
  3
BEM-ISBE
100
AcDbAlignedDimension
13
-30.8665893271461
23
-0.506960556844433
33
0.000000000000000
14
-81.8665893271461
24
-13.0069605568444
34
0.000000000000000
100
AcDbRotatedDimension
1001
ACAD
1000
DSTYLE
1002
{
1070
284
1070
8
1070
78
1070
8
1070
144
1040
1.00000000000000
1070
147
1040
0.625
1070
 72
1070
 0
1070
 71
1070
 0
1002
}
  0
DIMENSION
  5
F10003
330
261
100
AcDbEntity
  8
Bemassung
100
AcDbDimension
  2
*D3
10
-81.8664674925499
20
-1.71394045618493
30
0.000000000000000
11
-88.4564620648569
21
9.93136128218249
31
0.000000000000000
 70
34
 1
2°
 71
     8
  3
BEM-ISBE
100
AcDb2LineAngularDimension
13
-81.8664674925499
23
-1.71394045618493
33
0.000000000000000
14
-88.4186698374293
24
9.95266682581507
34
0.000000000000000
15
-81.8664674925499
25
11.6666828865693
35
0.000000000000000
16
-82.0999915695119
26
11.6646449528237
36
0.000000000000000
1001
ACAD
1000
DSTYLE
1002
{
1070
284
1070
8
1070
79
1070
2
1070
147
1040
0.625
1070
 72
1070
 0
1070
 71
1070
 0
1002
}
  0
DIMENSION
  5
F1001C
330
261
100
AcDbEntity
  8
Bemassung
100
AcDbDimension
  2
*D8
10
-66.8953080350359
20
-0.00696055684443309
30
0.000000000000000
11
-48.1501355632478
21
2.41058381055906
31
0.000000000000000
 70
34
 1
15°
 71
     8
  3
BEM-ISBE
100
AcDb2LineAngularDimension
13
-66.8953080350359
23
-0.00696055684443309
33
0.000000000000000
14
-48.6389007646154
24
4.88482902795841
34
0.000000000000000
15
-47.9948844481041
25
-0.00696055684443309
35
0.000000000000000
16
-48.1565801919840
26
2.46003976530382
36
0.000000000000000
1001
ACAD
1000
DSTYLE
1002
{
1070
284
1070
8
1070
79
1070
2
1070
147
1040
0.625
1070
 72
1070
 0
1070
 71
1070
 0
1002
}
  0
DIMENSION
  5
F1000D
330
261
100
AcDbEntity
  8
Bemassung
100
AcDbDimension
  2
*D5
10
-81.6665893271461
20
-1.70696055684443
30
0.000000000000000
11
-89.0038552906004
21
5.37855482183732
31
0.000000000000000
 70
164
 1
R0.2
 71
     8
  3
BEM-ISBE
100
AcDbRadialDimension
15
-81.8104572872138
25
-1.56802888275263
35
0.000000000000000
40
0.0
1001
ACAD
1000
DSTYLE
1002
{
1070
284
1070
8
1070
78
1070
8
1070
144
1040
1.00000000000000
1070
147
1040
0.625
1070
 72
1070
 0
1070
 71
1070
 0
1002
}
  0
DIMENSION
  5
F10008
330
261
100
AcDbEntity
  8
Bemassung
100
AcDbDimension
  2
*D4
10
-91.8665893271461
20
-1.50696055684443
30
0.000000000000000
11
-91.1999226604794
21
-3.00696055684443
31
0.000000000000000
 70
32
 1
3
 71
     8
  3
BEM-ISBE
100
AcDbAlignedDimension
13
-81.6665893271461
23
-4.50696055684443
33
0.000000000000000
14
-81.6665893271461
24
-1.50696055684443
34
0.000000000000000
50
90.0000000000000
100
AcDbRotatedDimension
1001
ACAD
1000
DSTYLE
1002
{
1070
284
1070
8
1070
78
1070
8
1070
144
1040
1.00000000000000
1070
147
1040
0.625
1070
 72
1070
 0
1070
 71
1070
 0
1002
}
  0
DIMENSION
  5
F10012
330
261
100
AcDbEntity
  8
Bemassung
100
AcDbDimension
  2
*D6
10
-72.5332559938128
20
-1.60696055684443
30
0.000000000000000
11
-71.8665893271461
21
1.50348027842235
31
0.000000000000000
 70
32
 1
2.8
 71
     8
  3
BEM-ISBE
100
AcDbAlignedDimension
13
-73.8665893271461
23
-4.40696055684443
33
0.000000000000000
14
-73.8665893271461
24
-1.60696055684443
34
0.000000000000000
50
90.0000000000000
100
AcDbRotatedDimension
1001
ACAD
1000
DSTYLE
1002
{
1070
284
1070
8
1070
78
1070
8
1070
144
1040
1.00000000000000
1070
147
1040
0.625
1070
 72
1070
 0
1070
 71
1070
 0
1002
}
  0
DIMENSION
  5
F10026
330
261
100
AcDbEntity
  8
Bemassung
100
AcDbDimension
  2
*D10
10
-20.8665893271461
20
-0.00696055684443309
30
0.000000000000000
11
-20.1999226604794
21
-3.00696055684443
31
0.000000000000000
 70
32
 1
6h6
 71
     8
  3
BEM-ISBE
100
AcDbAlignedDimension
13
-31.3665893271461
23
-6.00696055684443
33
0.000000000000000
14
-31.3665893271461
24
-0.00696055684443309
34
0.000000000000000
50
90.0000000000000
100
AcDbRotatedDimension
1001
ACAD
1000
DSTYLE
1002
{
1070
284
1070
8
1070
78
1070
8
1070
144
1040
1.00000000000000
1070
147
1040
0.625
1070
 72
1070
 0
1070
 71
1070
 0
1002
}
  0
LINE
  5
F10099
330
F1009A
100
AcDbEntity
8
Geo
100
AcDbLine
10
-81.8213142356666
20
-3.00696055684443
30
0.000000000000000
11
-81.8664674925499
21
-1.71394045618493
31
0.000000000000000
  0
ARC
  5
F1009B
330
F1009C
100
AcDbEntity
8
Geo
100
AcDbCircle
10
-81.6665893271461
20
-1.70696055684443
30
0.000000000000000
 40
0.200000000000000
100
AcDbArc
 50
90.0000000000000
 51
182.000000000000
  0
LINE
  5
F1009D
330
F1009E
100
AcDbEntity
8
Geo
100
AcDbLine
10
-81.6665893271461
20
-1.50696055684443
30
0.000000000000000
11
-73.8665893271461
21
-1.50696055684443
31
0.000000000000000
  0
LINE
  5
F1009F
330
F100A0
100
AcDbEntity
8
Geo
100
AcDbLine
10
-73.8665893271461
20
-1.50696055684443
30
0.000000000000000
11
-73.8665893271461
21
-1.60696055684443
31
0.000000000000000
  0
LINE
  5
F100A1
330
F100A2
100
AcDbEntity
8
Geo
100
AcDbLine
10
-73.8665893271461
20
-1.60696055684443
30
0.000000000000000
11
-72.8665893271461
21
-1.60696055684443
31
0.000000000000000
  0
LINE
  5
F100A3
330
F100A4
100
AcDbEntity
8
Geo
100
AcDbLine
10
-72.8665893271461
20
-1.60696055684443
30
0.000000000000000
11
-66.8953080350359
21
-0.00696055684443309
31
0.000000000000000
  0
LINE
  5
F100A5
330
F100A6
100
AcDbEntity
8
Geo
100
AcDbLine
10
-66.8953080350359
20
-0.00696055684443309
30
0.000000000000000
11
-31.3665893271461
21
-0.00696055684443309
31
0.000000000000000
  0
LINE
  5
F100A7
330
F100A8
100
AcDbEntity
8
Geo
100
AcDbLine
10
-31.3665893271461
20
-0.00696055684443309
30
0.000000000000000
11
-30.8665893271461
21
-0.506960556844433
31
0.000000000000000
  0
LINE
  5
F100A9
330
F100AA
100
AcDbEntity
8
Geo
100
AcDbLine
10
-78.6665893271461
20
-1.50696055684443
30
0.000000000000000
11
-78.5665893271461
21
-1.50742527602050
31
0.000000000000000
  0
LINE
  5
F100AB
330
F100AC
100
AcDbEntity
8
Geo
100
AcDbLine
10
-78.5665893271461
20
-1.50742527602050
30
0.000000000000000
11
-78.4665893271461
21
-1.51017674718684
31
0.000000000000000
  0
LINE
  5
F100AD
330
F100AE
100
AcDbEntity
8
Geo
100
AcDbLine
10
-78.4665893271461
20
-1.51017674718684
30
0.000000000000000
11
-78.3665893271461
21
-1.51526319613521
31
0.000000000000000
  0
LINE
  5
F100AF
330
F100B0
100
AcDbEntity
8
Geo
100
AcDbLine
10
-78.3665893271461
20
-1.51526319613521
30
0.000000000000000
11
-78.2665893271461
21
-1.52252752087134
31
0.000000000000000
  0
LINE
  5
F100B1
330
F100B2
100
AcDbEntity
8
Geo
100
AcDbLine
10
-78.2665893271461
20
-1.52252752087134
30
0.000000000000000
11
-78.1665893271461
21
-1.53181338739627
31
0.000000000000000
  0
LINE
  5
F100B3
330
F100B4
100
AcDbEntity
8
Geo
100
AcDbLine
10
-78.1665893271461
20
-1.53181338739627
30
0.000000000000000
11
-78.0665893271461
21
-1.54296590506628
31
0.000000000000000
  0
LINE
  5
F100B5
330
F100B6
100
AcDbEntity
8
Geo
100
AcDbLine
10
-78.0665893271461
20
-1.54296590506628
30
0.000000000000000
11
-77.9665893271461
21
-1.55583223350056
31
0.000000000000000
  0
LINE
  5
F100B7
330
F100B8
100
AcDbEntity
8
Geo
100
AcDbLine
10
-77.9665893271461
20
-1.55583223350056
30
0.000000000000000
11
-77.8665893271461
21
-1.57026212336158
31
0.000000000000000
  0
LINE
  5
F100B9
330
F100BA
100
AcDbEntity
8
Geo
100
AcDbLine
10
-77.8665893271461
20
-1.57026212336158
30
0.000000000000000
11
-77.7665893271461
21
-1.58610839361281
31
0.000000000000000
  0
LINE
  5
F100BB
330
F100BC
100
AcDbEntity
8
Geo
100
AcDbLine
10
-77.7665893271461
20
-1.58610839361281
30
0.000000000000000
11
-77.6665893271461
21
-1.60322734808588
31
0.000000000000000
  0
LINE
  5
F100BD
330
F100BE
100
AcDbEntity
8
Geo
100
AcDbLine
10
-77.6665893271461
20
-1.60322734808588
30
0.000000000000000
11
-77.5665893271461
21
-1.62147913436829
31
0.000000000000000
  0
LINE
  5
F100BF
330
F100C0
100
AcDbEntity
8
Geo
100
AcDbLine
10
-77.5665893271461
20
-1.62147913436829
30
0.000000000000000
11
-77.4665893271461
21
-1.64072804815808
31
0.000000000000000
  0
LINE
  5
F100C1
330
F100C2
100
AcDbEntity
8
Geo
100
AcDbLine
10
-77.4665893271461
20
-1.64072804815808
30
0.000000000000000
11
-77.3665893271461
21
-1.66084278632618
31
0.000000000000000
  0
LINE
  5
F100C3
330
F100C4
100
AcDbEntity
8
Geo
100
AcDbLine
10
-77.3665893271461
20
-1.66084278632618
30
0.000000000000000
11
-77.2665893271461
21
-1.68169665198556
31
0.000000000000000
  0
LINE
  5
F100C5
330
F100C6
100
AcDbEntity
8
Geo
100
AcDbLine
10
-77.2665893271461
20
-1.68169665198556
30
0.000000000000000
11
-77.1665893271461
21
-1.70316771489148
31
0.000000000000000
  0
LINE
  5
F100C7
330
F100C8
100
AcDbEntity
8
Geo
100
AcDbLine
10
-77.1665893271461
20
-1.70316771489148
30
0.000000000000000
11
-77.0665893271461
21
-1.72513893049355
31
0.000000000000000
  0
LINE
  5
F100C9
330
F100CA
100
AcDbEntity
8
Geo
100
AcDbLine
10
-77.0665893271461
20
-1.72513893049355
30
0.000000000000000
11
-76.9665893271461
21
-1.74749822093066
31
0.000000000000000
  0
LINE
  5
F100CB
330
F100CC
100
AcDbEntity
8
Geo
100
AcDbLine
10
-76.9665893271461
20
-1.74749822093066
30
0.000000000000000
11
-76.8665893271461
21
-1.77013852120850
31
0.000000000000000
  0
LINE
  5
F100CD
330
F100CE
100
AcDbEntity
8
Geo
100
AcDbLine
10
-76.8665893271461
20
-1.77013852120850
30
0.000000000000000
11
-76.7665893271461
21
-1.79295779372793
31
0.000000000000000
  0
LINE
  5
F100CF
330
F100D0
100
AcDbEntity
8
Geo
100
AcDbLine
10
-76.7665893271461
20
-1.79295779372793
30
0.000000000000000
11
-76.6665893271461
21
-1.81585901424566
31
0.000000000000000
  0
LINE
  5
F100D1
330
F100D2
100
AcDbEntity
8
Geo
100
AcDbLine
10
-76.6665893271461
20
-1.81585901424566
30
0.000000000000000
11
-76.5665893271461
21
-1.83875013224757
31
0.000000000000000
  0
LINE
  5
F100D3
330
F100D4
100
AcDbEntity
8
Geo
100
AcDbLine
10
-76.5665893271461
20
-1.83875013224757
30
0.000000000000000
11
-76.4665893271461
21
-1.86154400860319
31
0.000000000000000
  0
LINE
  5
F100D5
330
F100D6
100
AcDbEntity
8
Geo
100
AcDbLine
10
-76.4665893271461
20
-1.86154400860319
30
0.000000000000000
11
-76.3665893271461
21
-1.88415833324961
31
0.000000000000000
  0
LINE
  5
F100D7
330
F100D8
100
AcDbEntity
8
Geo
100
AcDbLine
10
-76.3665893271461
20
-1.88415833324961
30
0.000000000000000
11
-76.2665893271461
21
-1.90651552552548
31
0.000000000000000
  0
LINE
  5
F100D9
330
F100DA
100
AcDbEntity
8
Geo
100
AcDbLine
10
-76.2665893271461
20
-1.90651552552548
30
0.000000000000000
11
-76.1665893271461
21
-1.92854261964434
31
0.000000000000000
  0
LINE
  5
F100DB
330
F100DC
100
AcDbEntity
8
Geo
100
AcDbLine
10
-76.1665893271461
20
-1.92854261964434
30
0.000000000000000
11
-76.0665893271461
21
-1.95017113766165
31
0.000000000000000
  0
LINE
  5
F100DD
330
F100DE
100
AcDbEntity
8
Geo
100
AcDbLine
10
-76.0665893271461
20
-1.95017113766165
30
0.000000000000000
11
-75.9665893271461
21
-1.97133695215373
31
0.000000000000000
  0
LINE
  5
F100DF
330
F100E0
100
AcDbEntity
8
Geo
100
AcDbLine
10
-75.9665893271461
20
-1.97133695215373
30
0.000000000000000
11
-75.8665893271461
21
-1.99198014069080
31
0.000000000000000
  0
LINE
  5
F100E1
330
F100E2
100
AcDbEntity
8
Geo
100
AcDbLine
10
-75.8665893271461
20
-1.99198014069080
30
0.000000000000000
11
-75.7665893271461
21
-2.01204483405102
31
0.000000000000000
  0
LINE
  5
F100E3
330
F100E4
100
AcDbEntity
8
Geo
100
AcDbLine
10
-75.7665893271461
20
-2.01204483405102
30
0.000000000000000
11
-75.6665893271461
21
-2.03147905999001
31
0.000000000000000
  0
LINE
  5
F100E5
330
F100E6
100
AcDbEntity
8
Geo
100
AcDbLine
10
-75.6665893271461
20
-2.03147905999001
30
0.000000000000000
11
-75.5665893271461
21
-2.05023458425007
31
0.000000000000000
  0
LINE
  5
F100E7
330
F100E8
100
AcDbEntity
8
Geo
100
AcDbLine
10
-75.5665893271461
20
-2.05023458425007
30
0.000000000000000
11
-75.4665893271461
21
-2.06826675036769
31
0.000000000000000
  0
LINE
  5
F100E9
330
F100EA
100
AcDbEntity
8
Geo
100
AcDbLine
10
-75.4665893271461
20
-2.06826675036769
30
0.000000000000000
11
-75.3665893271461
21
-2.08553431971602
31
0.000000000000000
  0
LINE
  5
F100EB
330
F100EC
100
AcDbEntity
8
Geo
100
AcDbLine
10
-75.3665893271461
20
-2.08553431971602
30
0.000000000000000
11
-75.2665893271461
21
-2.10199931310217
31
0.000000000000000
  0
LINE
  5
F100ED
330
F100EE
100
AcDbEntity
8
Geo
100
AcDbLine
10
-75.2665893271461
20
-2.10199931310217
30
0.000000000000000
11
-75.1665893271461
21
-2.11762685512776
31
0.000000000000000
  0
LINE
  5
F100EF
330
F100F0
100
AcDbEntity
8
Geo
100
AcDbLine
10
-75.1665893271461
20
-2.11762685512776
30
0.000000000000000
11
-75.0665893271461
21
-2.13238502241463
31
0.000000000000000
  0
LINE
  5
F100F1
330
F100F2
100
AcDbEntity
8
Geo
100
AcDbLine
10
-75.0665893271461
20
-2.13238502241463
30
0.000000000000000
11
-74.9665893271461
21
-2.14624469669707
31
0.000000000000000
  0
LINE
  5
F100F3
330
F100F4
100
AcDbEntity
8
Geo
100
AcDbLine
10
-74.9665893271461
20
-2.14624469669707
30
0.000000000000000
11
-74.8665893271461
21
-2.15917942368718
31
0.000000000000000
  0
LINE
  5
F100F5
330
F100F6
100
AcDbEntity
8
Geo
100
AcDbLine
10
-74.8665893271461
20
-2.15917942368718
30
0.000000000000000
11
-74.7665893271461
21
-2.17116527853009
31
0.000000000000000
  0
LINE
  5
F100F7
330
F100F8
100
AcDbEntity
8
Geo
100
AcDbLine
10
-74.7665893271461
20
-2.17116527853009
30
0.000000000000000
11
-74.6665893271461
21
-2.18218073858261
31
0.000000000000000
  0
LINE
  5
F100F9
330
F100FA
100
AcDbEntity
8
Geo
100
AcDbLine
10
-74.6665893271461
20
-2.18218073858261
30
0.000000000000000
11
-74.5665893271461
21
-2.19220656416988
31
0.000000000000000
  0
LINE
  5
F100FB
330
F100FC
100
AcDbEntity
8
Geo
100
AcDbLine
10
-74.5665893271461
20
-2.19220656416988
30
0.000000000000000
11
-74.4665893271461
21
-2.20122568790170
31
0.000000000000000
  0
LINE
  5
F100FD
330
F100FE
100
AcDbEntity
8
Geo
100
AcDbLine
10
-74.4665893271461
20
-2.20122568790170
30
0.000000000000000
11
-74.3665893271461
21
-2.20922311306197
31
0.000000000000000
  0
LINE
  5
F100FF
330
F10100
100
AcDbEntity
8
Geo
100
AcDbLine
10
-74.3665893271461
20
-2.20922311306197
30
0.000000000000000
11
-74.2665893271461
21
-2.21618582152085
31
0.000000000000000
  0
LINE
  5
F10101
330
F10102
100
AcDbEntity
8
Geo
100
AcDbLine
10
-74.2665893271461
20
-2.21618582152085
30
0.000000000000000
11
-74.1665893271461
21
-2.22210269156009
31
0.000000000000000
  0
LINE
  5
F10103
330
F10104
100
AcDbEntity
8
Geo
100
AcDbLine
10
-74.1665893271461
20
-2.22210269156009
30
0.000000000000000
11
-74.0665893271461
21
-2.22696442594658
31
0.000000000000000
  0
LINE
  5
F10105
330
F10106
100
AcDbEntity
8
Geo
100
AcDbLine
10
-74.0665893271461
20
-2.22696442594658
30
0.000000000000000
11
-73.9665893271461
21
-2.23076349053724
31
0.000000000000000
  0
LINE
  5
F10107
330
F10108
100
AcDbEntity
8
Geo
100
AcDbLine
10
-73.9665893271461
20
-2.23076349053724
30
0.000000000000000
11
-73.8665893271461
21
-2.23349406364984
31
0.000000000000000
  0
LINE
  5
F10109
330
F1010A
100
AcDbEntity
8
Geo
100
AcDbLine
10
-81.8665893271461
20
-1.70696055684443
30
0.000000000000000
11
-81.7665893271461
21
-1.53484660439315
31
0.000000000000000
  0
LINE
  5
F1010B
330
F1010C
100
AcDbEntity
8
Geo
100
AcDbLine
10
-81.7665893271461
20
-1.53484660439315
30
0.000000000000000
11
-81.6665893271461
21
-1.51140280693499
31
0.000000000000000
  0
LINE
  5
F1010D
330
F1010E
100
AcDbEntity
8
Geo
100
AcDbLine
10
-81.6665893271461
20
-1.51140280693499
30
0.000000000000000
11
-81.5665893271461
21
-1.51694945067042
31
0.000000000000000
  0
LINE
  5
F1010F
330
F10110
100
AcDbEntity
8
Geo
100
AcDbLine
10
-81.5665893271461
20
-1.51694945067042
30
0.000000000000000
11
-81.4665893271461
21
-1.52470324575884
31
0.000000000000000
  0
LINE
  5
F10111
330
F10112
100
AcDbEntity
8
Geo
100
AcDbLine
10
-81.4665893271461
20
-1.52470324575884
30
0.000000000000000
11
-81.3665893271461
21
-1.53465270651451
31
0.000000000000000
  0
LINE
  5
F10113
330
F10114
100
AcDbEntity
8
Geo
100
AcDbLine
10
-81.3665893271461
20
-1.53465270651451
30
0.000000000000000
11
-81.2665893271461
21
-1.54678309481522
31
0.000000000000000
  0
LINE
  5
F10115
330
F10116
100
AcDbEntity
8
Geo
100
AcDbLine
10
-81.2665893271461
20
-1.54678309481522
30
0.000000000000000
11
-81.1665893271461
21
-1.56107644193387
31
0.000000000000000
  0
LINE
  5
F10117
330
F10118
100
AcDbEntity
8
Geo
100
AcDbLine
10
-81.1665893271461
20
-1.56107644193387
30
0.000000000000000
11
-81.0665893271461
21
-1.57751157515550
31
0.000000000000000
  0
LINE
  5
F10119
330
F1011A
100
AcDbEntity
8
Geo
100
AcDbLine
10
-81.0665893271461
20
-1.57751157515550
30
0.000000000000000
11
-80.9665893271461
21
-1.59606414914042
31
0.000000000000000
  0
LINE
  5
F1011B
330
F1011C
100
AcDbEntity
8
Geo
100
AcDbLine
10
-80.9665893271461
20
-1.59606414914042
30
0.000000000000000
11
-80.8665893271461
21
-1.61670668198692
31
0.000000000000000
  0
LINE
  5
F1011D
330
F1011E
100
AcDbEntity
8
Geo
100
AcDbLine
10
-80.8665893271461
20
-1.61670668198692
30
0.000000000000000
11
-80.7665893271461
21
-1.63940859594017
31
0.000000000000000
  0
LINE
  5
F1011F
330
F10120
100
AcDbEntity
8
Geo
100
AcDbLine
10
-80.7665893271461
20
-1.63940859594017
30
0.000000000000000
11
-80.6665893271461
21
-1.66413626268699
31
0.000000000000000
  0
LINE
  5
F10121
330
F10122
100
AcDbEntity
8
Geo
100
AcDbLine
10
-80.6665893271461
20
-1.66413626268699
30
0.000000000000000
11
-80.5665893271461
21
-1.69085305316947
31
0.000000000000000
  0
LINE
  5
F10123
330
F10124
100
AcDbEntity
8
Geo
100
AcDbLine
10
-80.5665893271461
20
-1.69085305316947
30
0.000000000000000
11
-80.4665893271461
21
-1.71951939184349
31
0.000000000000000
  0
LINE
  5
F10125
330
F10126
100
AcDbEntity
8
Geo
100
AcDbLine
10
-80.4665893271461
20
-1.71951939184349
30
0.000000000000000
11
-80.3665893271461
21
-1.75009281530194
31
0.000000000000000
  0
LINE
  5
F10127
330
F10128
100
AcDbEntity
8
Geo
100
AcDbLine
10
-80.3665893271461
20
-1.75009281530194
30
0.000000000000000
11
-80.2665893271461
21
-1.78252803517573
31
0.000000000000000
  0
LINE
  5
F10129
330
F1012A
100
AcDbEntity
8
Geo
100
AcDbLine
10
-80.2665893271461
20
-1.78252803517573
30
0.000000000000000
11
-80.1665893271461
21
-1.81677700521933
31
0.000000000000000
  0
LINE
  5
F1012B
330
F1012C
100
AcDbEntity
8
Geo
100
AcDbLine
10
-80.1665893271461
20
-1.81677700521933
30
0.000000000000000
11
-80.0665893271461
21
-1.85278899248166
31
0.000000000000000
  0
LINE
  5
F1012D
330
F1012E
100
AcDbEntity
8
Geo
100
AcDbLine
10
-80.0665893271461
20
-1.85278899248166
30
0.000000000000000
11
-79.9665893271461
21
-1.89051065245671
31
0.000000000000000
  0
LINE
  5
F1012F
330
F10130
100
AcDbEntity
8
Geo
100
AcDbLine
10
-79.9665893271461
20
-1.89051065245671
30
0.000000000000000
11
-79.8665893271461
21
-1.92988610810267
31
0.000000000000000
  0
LINE
  5
F10131
330
F10132
100
AcDbEntity
8
Geo
100
AcDbLine
10
-79.8665893271461
20
-1.92988610810267
30
0.000000000000000
11
-79.7665893271461
21
-1.97085703261257
31
0.000000000000000
  0
LINE
  5
F10133
330
F10134
100
AcDbEntity
8
Geo
100
AcDbLine
10
-79.7665893271461
20
-1.97085703261257
30
0.000000000000000
11
-79.6665893271461
21
-2.01336273581363
31
0.000000000000000
  0
LINE
  5
F10135
330
F10136
100
AcDbEntity
8
Geo
100
AcDbLine
10
-79.6665893271461
20
-2.01336273581363
30
0.000000000000000
11
-79.5665893271461
21
-2.05734025406756
31
0.000000000000000
  0
LINE
  5
F10137
330
F10138
100
AcDbEntity
8
Geo
100
AcDbLine
10
-79.5665893271461
20
-2.05734025406756
30
0.000000000000000
11
-79.4665893271461
21
-2.10272444353852
31
0.000000000000000
  0
LINE
  5
F10139
330
F1013A
100
AcDbEntity
8
Geo
100
AcDbLine
10
-79.4665893271461
20
-2.10272444353852
30
0.000000000000000
11
-79.3665893271461
21
-2.14944807669056
31
0.000000000000000
  0
LINE
  5
F1013B
330
F1013C
100
AcDbEntity
8
Geo
100
AcDbLine
10
-79.3665893271461
20
-2.14944807669056
30
0.000000000000000
11
-79.2665893271461
21
-2.19744194187170
31
0.000000000000000
  0
LINE
  5
F1013D
330
F1013E
100
AcDbEntity
8
Geo
100
AcDbLine
10
-79.2665893271461
20
-2.19744194187170
30
0.000000000000000
11
-79.1665893271461
21
-2.24663494583704
31
0.000000000000000
  0
LINE
  5
F1013F
330
F10140
100
AcDbEntity
8
Geo
100
AcDbLine
10
-79.1665893271461
20
-2.24663494583704
30
0.000000000000000
11
-79.0665893271461
21
-2.29695421905911
31
0.000000000000000
  0
LINE
  5
F10141
330
F10142
100
AcDbEntity
8
Geo
100
AcDbLine
10
-79.0665893271461
20
-2.29695421905911
30
0.000000000000000
11
-78.9665893271461
21
-2.34832522366933
31
0.000000000000000
  0
LINE
  5
F10143
330
F10144
100
AcDbEntity
8
Geo
100
AcDbLine
10
-78.9665893271461
20
-2.34832522366933
30
0.000000000000000
11
-78.8665893271461
21
-2.40067186387094
31
0.000000000000000
  0
LINE
  5
F10145
330
F10146
100
AcDbEntity
8
Geo
100
AcDbLine
10
-78.8665893271461
20
-2.40067186387094
30
0.000000000000000
11
-78.7665893271461
21
-2.39410646314137
31
0.000000000000000
  0
LINE
  5
F10147
330
F10148
100
AcDbEntity
8
Geo
100
AcDbLine
10
-78.7665893271461
20
-2.39410646314137
30
0.000000000000000
11
-78.6665893271461
21
-2.38768209868933
31
0.000000000000000
  0
LINE
  5
F10149
330
F1014A
100
AcDbEntity
8
Geo
100
AcDbLine
10
-78.6665893271461
20
-2.38768209868933
30
0.000000000000000
11
-78.5665893271461
21
-2.38139810547264
31
0.000000000000000
  0
LINE
  5
F1014B
330
F1014C
100
AcDbEntity
8
Geo
100
AcDbLine
10
-78.5665893271461
20
-2.38139810547264
30
0.000000000000000
11
-78.4665893271461
21
-2.37525381772426
31
0.000000000000000
  0
LINE
  5
F1014D
330
F1014E
100
AcDbEntity
8
Geo
100
AcDbLine
10
-78.4665893271461
20
-2.37525381772426
30
0.000000000000000
11
-78.3665893271461
21
-2.36924856982015
31
0.000000000000000
  0
LINE
  5
F1014F
330
F10150
100
AcDbEntity
8
Geo
100
AcDbLine
10
-78.3665893271461
20
-2.36924856982015
30
0.000000000000000
11
-78.2665893271461
21
-2.36338169712654
31
0.000000000000000
  0
LINE
  5
F10151
330
F10152
100
AcDbEntity
8
Geo
100
AcDbLine
10
-78.2665893271461
20
-2.36338169712654
30
0.000000000000000
11
-78.1665893271461
21
-2.35765253682663
31
0.000000000000000
  0
LINE
  5
F10153
330
F10154
100
AcDbEntity
8
Geo
100
AcDbLine
10
-78.1665893271461
20
-2.35765253682663
30
0.000000000000000
11
-78.0665893271461
21
-2.35206042872693
31
0.000000000000000
  0
LINE
  5
F10155
330
F10156
100
AcDbEntity
8
Geo
100
AcDbLine
10
-78.0665893271461
20
-2.35206042872693
30
0.000000000000000
11
-77.9665893271461
21
-2.34660471604338
31
0.000000000000000
  0
LINE
  5
F10157
330
F10158
100
AcDbEntity
8
Geo
100
AcDbLine
10
-77.9665893271461
20
-2.34660471604338
30
0.000000000000000
11
-77.8665893271461
21
-2.34128474616722
31
0.000000000000000
  0
LINE
  5
F10159
330
F1015A
100
AcDbEntity
8
Geo
100
AcDbLine
10
-77.8665893271461
20
-2.34128474616722
30
0.000000000000000
11
-77.7665893271461
21
-2.33609987141106
31
0.000000000000000
  0
LINE
  5
F1015B
330
F1015C
100
AcDbEntity
8
Geo
100
AcDbLine
10
-77.7665893271461
20
-2.33609987141106
30
0.000000000000000
11
-77.6665893271461
21
-2.33104944973489
31
0.000000000000000
  0
LINE
  5
F1015D
330
F1015E
100
AcDbEntity
8
Geo
100
AcDbLine
10
-77.6665893271461
20
-2.33104944973489
30
0.000000000000000
11
-77.5665893271461
21
-2.32613284545264
31
0.000000000000000
  0
LINE
  5
F1015F
330
F10160
100
AcDbEntity
8
Geo
100
AcDbLine
10
-77.5665893271461
20
-2.32613284545264
30
0.000000000000000
11
-77.4665893271461
21
-2.32134942991893
31
0.000000000000000
  0
LINE
  5
F10161
330
F10162
100
AcDbEntity
8
Geo
100
AcDbLine
10
-77.4665893271461
20
-2.32134942991893
30
0.000000000000000
11
-77.3665893271461
21
-2.31669858219663
31
0.000000000000000
  0
LINE
  5
F10163
330
F10164
100
AcDbEntity
8
Geo
100
AcDbLine
10
-77.3665893271461
20
-2.31669858219663
30
0.000000000000000
11
-77.2665893271461
21
-2.31217968970504
31
0.000000000000000
  0
LINE
  5
F10165
330
F10166
100
AcDbEntity
8
Geo
100
AcDbLine
10
-77.2665893271461
20
-2.31217968970504
30
0.000000000000000
11
-77.1665893271461
21
-2.30779214884899
31
0.000000000000000
  0
LINE
  5
F10167
330
F10168
100
AcDbEntity
8
Geo
100
AcDbLine
10
-77.1665893271461
20
-2.30779214884899
30
0.000000000000000
11
-77.0665893271461
21
-2.30353536562903
31
0.000000000000000
  0
LINE
  5
F10169
330
F1016A
100
AcDbEntity
8
Geo
100
AcDbLine
10
-77.0665893271461
20
-2.30353536562903
30
0.000000000000000
11
-76.9665893271461
21
-2.29940875623275
31
0.000000000000000
  0
LINE
  5
F1016B
330
F1016C
100
AcDbEntity
8
Geo
100
AcDbLine
10
-76.9665893271461
20
-2.29940875623275
30
0.000000000000000
11
-76.8665893271461
21
-2.29541174760749
31
0.000000000000000
  0
LINE
  5
F1016D
330
F1016E
100
AcDbEntity
8
Geo
100
AcDbLine
10
-76.8665893271461
20
-2.29541174760749
30
0.000000000000000
11
-76.7665893271461
21
-2.29154377801451
31
0.000000000000000
  0
LINE
  5
F1016F
330
F10170
100
AcDbEntity
8
Geo
100
AcDbLine
10
-76.7665893271461
20
-2.29154377801451
30
0.000000000000000
11
-76.6665893271461
21
-2.28780429756486
31
0.000000000000000
  0
LINE
  5
F10171
330
F10172
100
AcDbEntity
8
Geo
100
AcDbLine
10
-76.6665893271461
20
-2.28780429756486
30
0.000000000000000
11
-76.5665893271461
21
-2.28419276873695
31
0.000000000000000
  0
LINE
  5
F10173
330
F10174
100
AcDbEntity
8
Geo
100
AcDbLine
10
-76.5665893271461
20
-2.28419276873695
30
0.000000000000000
11
-76.4665893271461
21
-2.28070866687615
31
0.000000000000000
  0
LINE
  5
F10175
330
F10176
100
AcDbEntity
8
Geo
100
AcDbLine
10
-76.4665893271461
20
-2.28070866687615
30
0.000000000000000
11
-76.3665893271461
21
-2.27735148067642
31
0.000000000000000
  0
LINE
  5
F10177
330
F10178
100
AcDbEntity
8
Geo
100
AcDbLine
10
-76.3665893271461
20
-2.27735148067642
30
0.000000000000000
11
-76.2665893271461
21
-2.27412071264415
31
0.000000000000000
  0
LINE
  5
F10179
330
F1017A
100
AcDbEntity
8
Geo
100
AcDbLine
10
-76.2665893271461
20
-2.27412071264415
30
0.000000000000000
11
-76.1665893271461
21
-2.27101587954439
31
0.000000000000000
  0
LINE
  5
F1017B
330
F1017C
100
AcDbEntity
8
Geo
100
AcDbLine
10
-76.1665893271461
20
-2.27101587954439
30
0.000000000000000
11
-76.0665893271461
21
-2.26803651282960
31
0.000000000000000
  0
LINE
  5
F1017D
330
F1017E
100
AcDbEntity
8
Geo
100
AcDbLine
10
-76.0665893271461
20
-2.26803651282960
30
0.000000000000000
11
-75.9665893271461
21
-2.26518215905095
31
0.000000000000000
  0
LINE
  5
F1017F
330
F10180
100
AcDbEntity
8
Geo
100
AcDbLine
10
-75.9665893271461
20
-2.26518215905095
30
0.000000000000000
11
-75.8665893271461
21
-2.26245238025245
31
0.000000000000000
  0
LINE
  5
F10181
330
F10182
100
AcDbEntity
8
Geo
100
AcDbLine
10
-75.8665893271461
20
-2.26245238025245
30
0.000000000000000
11
-75.7665893271461
21
-2.25984675434800
31
0.000000000000000
  0
LINE
  5
F10183
330
F10184
100
AcDbEntity
8
Geo
100
AcDbLine
10
-75.7665893271461
20
-2.25984675434800
30
0.000000000000000
11
-75.6665893271461
21
-2.25736487548134
31
0.000000000000000
  0
LINE
  5
F10185
330
F10186
100
AcDbEntity
8
Geo
100
AcDbLine
10
-75.6665893271461
20
-2.25736487548134
30
0.000000000000000
11
-75.5665893271461
21
-2.25500635436925
31
0.000000000000000
  0
LINE
  5
F10187
330
F10188
100
AcDbEntity
8
Geo
100
AcDbLine
10
-75.5665893271461
20
-2.25500635436925
30
0.000000000000000
11
-75.4665893271461
21
-2.25277081862795
31
0.000000000000000
  0
LINE
  5
F10189
330
F1018A
100
AcDbEntity
8
Geo
100
AcDbLine
10
-75.4665893271461
20
-2.25277081862795
30
0.000000000000000
11
-75.3665893271461
21
-2.25065791308286
31
0.000000000000000
  0
LINE
  5
F1018B
330
F1018C
100
AcDbEntity
8
Geo
100
AcDbLine
10
-75.3665893271461
20
-2.25065791308286
30
0.000000000000000
11
-75.2665893271461
21
-2.24866730006185
31
0.000000000000000
  0
LINE
  5
F1018D
330
F1018E
100
AcDbEntity
8
Geo
100
AcDbLine
10
-75.2665893271461
20
-2.24866730006185
30
0.000000000000000
11
-75.1665893271461
21
-2.24679865967204
31
0.000000000000000
  0
LINE
  5
F1018F
330
F10190
100
AcDbEntity
8
Geo
100
AcDbLine
10
-75.1665893271461
20
-2.24679865967204
30
0.000000000000000
11
-75.0665893271461
21
-2.24505169006032
31
0.000000000000000
  0
LINE
  5
F10191
330
F10192
100
AcDbEntity
8
Geo
100
AcDbLine
10
-75.0665893271461
20
-2.24505169006032
30
0.000000000000000
11
-74.9665893271461
21
-2.24342610765756
31
0.000000000000000
  0
LINE
  5
F10193
330
F10194
100
AcDbEntity
8
Geo
100
AcDbLine
10
-74.9665893271461
20
-2.24342610765756
30
0.000000000000000
11
-74.8665893271461
21
-2.24192164740677
31
0.000000000000000
  0
LINE
  5
F10195
330
F10196
100
AcDbEntity
8
Geo
100
AcDbLine
10
-74.8665893271461
20
-2.24192164740677
30
0.000000000000000
11
-74.7665893271461
21
-2.24053806297512
31
0.000000000000000
  0
LINE
  5
F10197
330
F10198
100
AcDbEntity
8
Geo
100
AcDbLine
10
-74.7665893271461
20
-2.24053806297512
30
0.000000000000000
11
-74.6665893271461
21
-2.23927512695002
31
0.000000000000000
  0
LINE
  5
F10199
330
F1019A
100
AcDbEntity
8
Geo
100
AcDbLine
10
-74.6665893271461
20
-2.23927512695002
30
0.000000000000000
11
-74.5665893271461
21
-2.23813263101928
31
0.000000000000000
  0
LINE
  5
F1019B
330
F1019C
100
AcDbEntity
8
Geo
100
AcDbLine
10
-74.5665893271461
20
-2.23813263101928
30
0.000000000000000
11
-74.4665893271461
21
-2.23711038613542
31
0.000000000000000
  0
LINE
  5
F1019D
330
F1019E
100
AcDbEntity
8
Geo
100
AcDbLine
10
-74.4665893271461
20
-2.23711038613542
30
0.000000000000000
11
-74.3665893271461
21
-2.23620822266423
31
0.000000000000000
  0
LINE
  5
F1019F
330
F101A0
100
AcDbEntity
8
Geo
100
AcDbLine
10
-74.3665893271461
20
-2.23620822266423
30
0.000000000000000
11
-74.2665893271461
21
-2.23542599051759
31
0.000000000000000
  0
LINE
  5
F101A1
330
F101A2
100
AcDbEntity
8
Geo
100
AcDbLine
10
-74.2665893271461
20
-2.23542599051759
30
0.000000000000000
11
-74.1665893271461
21
-2.23476355927060
31
0.000000000000000
  0
LINE
  5
F101A3
330
F101A4
100
AcDbEntity
8
Geo
100
AcDbLine
10
-74.1665893271461
20
-2.23476355927060
30
0.000000000000000
11
-74.0665893271461
21
-2.23422081826311
31
0.000000000000000
  0
LINE
  5
F101A5
330
F101A6
100
AcDbEntity
8
Geo
100
AcDbLine
10
-74.0665893271461
20
-2.23422081826311
30
0.000000000000000
11
-73.9665893271461
21
-2.23379767668565
31
0.000000000000000
  0
LINE
  5
F101A7
330
F101A8
100
AcDbEntity
8
Geo
100
AcDbLine
10
-73.9665893271461
20
-2.23379767668565
30
0.000000000000000
11
-73.8665893271461
21
-2.23349406364984
31
0.000000000000000
  0
LINE
  5
F101A9
330
F101AA
100
AcDbEntity
8
Geo
100
AcDbLine
10
-81.8665893271461
20
-1.77058708566073
30
0.000000000000000
11
-81.7665893271461
21
-1.62441506729030
31
0.000000000000000
  0
LINE
  5
F101AB
330
F101AC
100
AcDbEntity
8
Geo
100
AcDbLine
10
-81.7665893271461
20
-1.62441506729030
30
0.000000000000000
11
-81.6665893271461
21
-1.62024759102728
31
0.000000000000000
  0
LINE
  5
F101AD
330
F101AE
100
AcDbEntity
8
Geo
100
AcDbLine
10
-81.6665893271461
20
-1.62024759102728
30
0.000000000000000
11
-81.5665893271461
21
-1.64328023700349
31
0.000000000000000
  0
LINE
  5
F101AF
330
F101B0
100
AcDbEntity
8
Geo
100
AcDbLine
10
-81.5665893271461
20
-1.64328023700349
30
0.000000000000000
11
-81.4665893271461
21
-1.66833290071683
31
0.000000000000000
  0
LINE
  5
F101B1
330
F101B2
100
AcDbEntity
8
Geo
100
AcDbLine
10
-81.4665893271461
20
-1.66833290071683
30
0.000000000000000
11
-81.3665893271461
21
-1.69536847169181
31
0.000000000000000
  0
LINE
  5
F101B3
330
F101B4
100
AcDbEntity
8
Geo
100
AcDbLine
10
-81.3665893271461
20
-1.69536847169181
30
0.000000000000000
11
-81.2665893271461
21
-1.72434690217525
31
0.000000000000000
  0
LINE
  5
F101B5
330
F101B6
100
AcDbEntity
8
Geo
100
AcDbLine
10
-81.2665893271461
20
-1.72434690217525
30
0.000000000000000
11
-81.1665893271461
21
-1.75522526645886
31
0.000000000000000
  0
LINE
  5
F101B7
330
F101B8
100
AcDbEntity
8
Geo
100
AcDbLine
10
-81.1665893271461
20
-1.75522526645886
30
0.000000000000000
11
-81.0665893271461
21
-1.78795782446514
31
0.000000000000000
  0
LINE
  5
F101B9
330
F101BA
100
AcDbEntity
8
Geo
100
AcDbLine
10
-81.0665893271461
20
-1.78795782446514
30
0.000000000000000
11
-80.9665893271461
21
-1.82249608950200
31
0.000000000000000
  0
LINE
  5
F101BB
330
F101BC
100
AcDbEntity
8
Geo
100
AcDbLine
10
-80.9665893271461
20
-1.82249608950200
30
0.000000000000000
11
-80.8665893271461
21
-1.85878890008609
31
0.000000000000000
  0
LINE
  5
F101BD
330
F101BE
100
AcDbEntity
8
Geo
100
AcDbLine
10
-80.8665893271461
20
-1.85878890008609
30
0.000000000000000
11
-80.7665893271461
21
-1.89678249572822
31
0.000000000000000
  0
LINE
  5
F101BF
330
F101C0
100
AcDbEntity
8
Geo
100
AcDbLine
10
-80.7665893271461
20
-1.89678249572822
30
0.000000000000000
11
-80.6665893271461
21
-1.93642059656867
31
0.000000000000000
  0
LINE
  5
F101C1
330
F101C2
100
AcDbEntity
8
Geo
100
AcDbLine
10
-80.6665893271461
20
-1.93642059656867
30
0.000000000000000
11
-80.5665893271461
21
-1.97764448674448
31
0.000000000000000
  0
LINE
  5
F101C3
330
F101C4
100
AcDbEntity
8
Geo
100
AcDbLine
10
-80.5665893271461
20
-1.97764448674448
30
0.000000000000000
11
-80.4665893271461
21
-2.02039310136521
31
0.000000000000000
  0
LINE
  5
F101C5
330
F101C6
100
AcDbEntity
8
Geo
100
AcDbLine
10
-80.4665893271461
20
-2.02039310136521
30
0.000000000000000
11
-80.3665893271461
21
-2.06460311696822
31
0.000000000000000
  0
LINE
  5
F101C7
330
F101C8
100
AcDbEntity
8
Geo
100
AcDbLine
10
-80.3665893271461
20
-2.06460311696822
30
0.000000000000000
11
-80.2665893271461
21
-2.11020904531968
31
0.000000000000000
  0
LINE
  5
F101C9
330
F101CA
100
AcDbEntity
8
Geo
100
AcDbLine
10
-80.2665893271461
20
-2.11020904531968
30
0.000000000000000
11
-80.1665893271461
21
-2.15714333042214
31
0.000000000000000
  0
LINE
  5
F101CB
330
F101CC
100
AcDbEntity
8
Geo
100
AcDbLine
10
-80.1665893271461
20
-2.15714333042214
30
0.000000000000000
11
-80.0665893271461
21
-2.20533644858518
31
0.000000000000000
  0
LINE
  5
F101CD
330
F101CE
100
AcDbEntity
8
Geo
100
AcDbLine
10
-80.0665893271461
20
-2.20533644858518
30
0.000000000000000
11
-79.9665893271461
21
-2.25471701141076
31
0.000000000000000
  0
LINE
  5
F101CF
330
F101D0
100
AcDbEntity
8
Geo
100
AcDbLine
10
-79.9665893271461
20
-2.25471701141076
30
0.000000000000000
11
-79.8665893271461
21
-2.30521187154070
31
0.000000000000000
  0
LINE
  5
F101D1
330
F101D2
100
AcDbEntity
8
Geo
100
AcDbLine
10
-79.8665893271461
20
-2.30521187154070
30
0.000000000000000
11
-79.7665893271461
21
-2.35674623100981
31
0.000000000000000
  0
LINE
  5
F101D3
330
F101D4
100
AcDbEntity
8
Geo
100
AcDbLine
10
-79.7665893271461
20
-2.35674623100981
30
0.000000000000000
11
-79.6665893271461
21
-2.40924375204400
31
0.000000000000000
  0
LINE
  5
F101D5
330
F101D6
100
AcDbEntity
8
Geo
100
AcDbLine
10
-79.6665893271461
20
-2.40924375204400
30
0.000000000000000
11
-79.5665893271461
21
-2.46262667013929
31
0.000000000000000
  0
LINE
  5
F101D7
330
F101D8
100
AcDbEntity
8
Geo
100
AcDbLine
10
-79.5665893271461
20
-2.46262667013929
30
0.000000000000000
11
-79.4665893271461
21
-2.51681590925430
31
0.000000000000000
  0
LINE
  5
F101D9
330
F101DA
100
AcDbEntity
8
Geo
100
AcDbLine
10
-79.4665893271461
20
-2.51681590925430
30
0.000000000000000
11
-79.3665893271461
21
-2.57173119894545
31
0.000000000000000
  0
LINE
  5
F101DB
330
F101DC
100
AcDbEntity
8
Geo
100
AcDbLine
10
-79.3665893271461
20
-2.57173119894545
30
0.000000000000000
11
-79.2665893271461
21
-2.62729119327146
31
0.000000000000000
  0
LINE
  5
F101DD
330
F101DE
100
AcDbEntity
8
Geo
100
AcDbLine
10
-79.2665893271461
20
-2.62729119327146
30
0.000000000000000
11
-79.1665893271461
21
-2.68341359129099
31
0.000000000000000
  0
LINE
  5
F101DF
330
F101E0
100
AcDbEntity
8
Geo
100
AcDbLine
10
-79.1665893271461
20
-2.68341359129099
30
0.000000000000000
11
-79.0665893271461
21
-2.74001525897491
31
0.000000000000000
  0
LINE
  5
F101E1
330
F101E2
100
AcDbEntity
8
Geo
100
AcDbLine
10
-79.0665893271461
20
-2.74001525897491
30
0.000000000000000
11
-78.9665893271461
21
-2.79701235235258
31
0.000000000000000
  0
LINE
  5
F101E3
330
F101E4
100
AcDbEntity
8
Geo
100
AcDbLine
10
-78.9665893271461
20
-2.79701235235258
30
0.000000000000000
11
-78.8665893271461
21
-2.85432044170986
31
0.000000000000000
  0
LINE
  5
F101E5
330
F101E6
100
AcDbEntity
8
Geo
100
AcDbLine
10
-78.8665893271461
20
-2.85432044170986
30
0.000000000000000
11
-78.7665893271461
21
-2.91877607455811
31
0.000000000000000
  0
LINE
  5
F101E7
330
F101E8
100
AcDbEntity
8
Geo
100
AcDbLine
10
-78.7665893271461
20
-2.91877607455811
30
0.000000000000000
11
-78.6665893271461
21
-2.98214105302661
31
0.000000000000000
  0
LINE
  5
F101E9
330
F101EA
100
AcDbEntity
8
Geo
100
AcDbLine
10
-78.6665893271461
20
-2.98214105302661
30
0.000000000000000
11
-78.5665893271461
21
-3.04429608368269
31
0.000000000000000
  0
LINE
  5
F101EB
330
F101EC
100
AcDbEntity
8
Geo
100
AcDbLine
10
-78.5665893271461
20
-3.04429608368269
30
0.000000000000000
11
-78.4665893271461
21
-3.10513502983459
31
0.000000000000000
  0
LINE
  5
F101ED
330
F101EE
100
AcDbEntity
8
Geo
100
AcDbLine
10
-78.4665893271461
20
-3.10513502983459
30
0.000000000000000
11
-78.3665893271461
21
-3.16456444021389
31
0.000000000000000
  0
LINE
  5
F101EF
330
F101F0
100
AcDbEntity
8
Geo
100
AcDbLine
10
-78.3665893271461
20
-3.16456444021389
30
0.000000000000000
11
-78.2665893271461
21
-3.22250303922717
31
0.000000000000000
  0
LINE
  5
F101F1
330
F101F2
100
AcDbEntity
8
Geo
100
AcDbLine
10
-78.2665893271461
20
-3.22250303922717
30
0.000000000000000
11
-78.1665893271461
21
-3.27888118583215
31
0.000000000000000
  0
LINE
  5
F101F3
330
F101F4
100
AcDbEntity
8
Geo
100
AcDbLine
10
-78.1665893271461
20
-3.27888118583215
30
0.000000000000000
11
-78.0665893271461
21
-3.33364030761723
31
0.000000000000000
  0
LINE
  5
F101F5
330
F101F6
100
AcDbEntity
8
Geo
100
AcDbLine
10
-78.0665893271461
20
-3.33364030761723
30
0.000000000000000
11
-77.9665893271461
21
-3.38673231618050
31
0.000000000000000
  0
LINE
  5
F101F7
330
F101F8
100
AcDbEntity
8
Geo
100
AcDbLine
10
-77.9665893271461
20
-3.38673231618050
30
0.000000000000000
11
-77.8665893271461
21
-3.43811900942064
31
0.000000000000000
  0
LINE
  5
F101F9
330
F101FA
100
AcDbEntity
8
Geo
100
AcDbLine
10
-77.8665893271461
20
-3.43811900942064
30
0.000000000000000
11
-77.7665893271461
21
-3.48777146587210
31
0.000000000000000
  0
LINE
  5
F101FB
330
F101FC
100
AcDbEntity
8
Geo
100
AcDbLine
10
-77.7665893271461
20
-3.48777146587210
30
0.000000000000000
11
-77.6665893271461
21
-3.53566943574511
31
0.000000000000000
  0
LINE
  5
F101FD
330
F101FE
100
AcDbEntity
8
Geo
100
AcDbLine
10
-77.6665893271461
20
-3.53566943574511
30
0.000000000000000
11
-77.5665893271461
21
-3.58180073287034
31
0.000000000000000
  0
LINE
  5
F101FF
330
F10200
100
AcDbEntity
8
Geo
100
AcDbLine
10
-77.5665893271461
20
-3.58180073287034
30
0.000000000000000
11
-77.4665893271461
21
-3.62616063130228
31
0.000000000000000
  0
LINE
  5
F10201
330
F10202
100
AcDbEntity
8
Geo
100
AcDbLine
10
-77.4665893271461
20
-3.62616063130228
30
0.000000000000000
11
-77.3665893271461
21
-3.66875126990633
31
0.000000000000000
  0
LINE
  5
F10203
330
F10204
100
AcDbEntity
8
Geo
100
AcDbLine
10
-77.3665893271461
20
-3.66875126990633
30
0.000000000000000
11
-77.2665893271461
21
-3.70958106784465
31
0.000000000000000
  0
LINE
  5
F10205
330
F10206
100
AcDbEntity
8
Geo
100
AcDbLine
10
-77.2665893271461
20
-3.70958106784465
30
0.000000000000000
11
-77.1665893271461
21
-3.74866415348682
31
0.000000000000000
  0
LINE
  5
F10207
330
F10208
100
AcDbEntity
8
Geo
100
AcDbLine
10
-77.1665893271461
20
-3.74866415348682
30
0.000000000000000
11
-77.0665893271461
21
-3.78601980890373
31
0.000000000000000
  0
LINE
  5
F10209
330
F1020A
100
AcDbEntity
8
Geo
100
AcDbLine
10
-77.0665893271461
20
-3.78601980890373
30
0.000000000000000
11
-76.9665893271461
21
-3.82167193175867
31
0.000000000000000
  0
LINE
  5
F1020B
330
F1020C
100
AcDbEntity
8
Geo
100
AcDbLine
10
-76.9665893271461
20
-3.82167193175867
30
0.000000000000000
11
-76.8665893271461
21
-3.85564851608822
31
0.000000000000000
  0
LINE
  5
F1020D
330
F1020E
100
AcDbEntity
8
Geo
100
AcDbLine
10
-76.8665893271461
20
-3.85564851608822
30
0.000000000000000
11
-76.7665893271461
21
-3.88798115316752
31
0.000000000000000
  0
LINE
  5
F1020F
330
F10210
100
AcDbEntity
8
Geo
100
AcDbLine
10
-76.7665893271461
20
-3.88798115316752
30
0.000000000000000
11
-76.6665893271461
21
-3.91870455338010
31
0.000000000000000
  0
LINE
  5
F10211
330
F10212
100
AcDbEntity
8
Geo
100
AcDbLine
10
-76.6665893271461
20
-3.91870455338010
30
0.000000000000000
11
-76.5665893271461
21
-3.94785608976146
31
0.000000000000000
  0
LINE
  5
F10213
330
F10214
100
AcDbEntity
8
Geo
100
AcDbLine
10
-76.5665893271461
20
-3.94785608976146
30
0.000000000000000
11
-76.4665893271461
21
-3.97547536365697
31
0.000000000000000
  0
LINE
  5
F10215
330
F10216
100
AcDbEntity
8
Geo
100
AcDbLine
10
-76.4665893271461
20
-3.97547536365697
30
0.000000000000000
11
-76.3665893271461
21
-4.00160379272880
31
0.000000000000000
  0
LINE
  5
F10217
330
F10218
100
AcDbEntity
8
Geo
100
AcDbLine
10
-76.3665893271461
20
-4.00160379272880
30
0.000000000000000
11
-76.2665893271461
21
-4.02628422136196
31
0.000000000000000
  0
LINE
  5
F10219
330
F1021A
100
AcDbEntity
8
Geo
100
AcDbLine
10
-76.2665893271461
20
-4.02628422136196
30
0.000000000000000
11
-76.1665893271461
21
-4.04956055335561
31
0.000000000000000
  0
LINE
  5
F1021B
330
F1021C
100
AcDbEntity
8
Geo
100
AcDbLine
10
-76.1665893271461
20
-4.04956055335561
30
0.000000000000000
11
-76.0665893271461
21
-4.07147740664218
31
0.000000000000000
  0
LINE
  5
F1021D
330
F1021E
100
AcDbEntity
8
Geo
100
AcDbLine
10
-76.0665893271461
20
-4.07147740664218
30
0.000000000000000
11
-75.9665893271461
21
-4.09207978965134
31
0.000000000000000
  0
LINE
  5
F1021F
330
F10220
100
AcDbEntity
8
Geo
100
AcDbLine
10
-75.9665893271461
20
-4.09207978965134
30
0.000000000000000
11
-75.8665893271461
21
-4.11141279882894
31
0.000000000000000
  0
LINE
  5
F10221
330
F10222
100
AcDbEntity
8
Geo
100
AcDbLine
10
-75.8665893271461
20
-4.11141279882894
30
0.000000000000000
11
-75.7665893271461
21
-4.12952133673052
31
0.000000000000000
  0
LINE
  5
F10223
330
F10224
100
AcDbEntity
8
Geo
100
AcDbLine
10
-75.7665893271461
20
-4.12952133673052
30
0.000000000000000
11
-75.6665893271461
21
-4.14644985003444
31
0.000000000000000
  0
LINE
  5
F10225
330
F10226
100
AcDbEntity
8
Geo
100
AcDbLine
10
-75.6665893271461
20
-4.14644985003444
30
0.000000000000000
11
-75.5665893271461
21
-4.16224208675970
31
0.000000000000000
  0
LINE
  5
F10227
330
F10228
100
AcDbEntity
8
Geo
100
AcDbLine
10
-75.5665893271461
20
-4.16224208675970
30
0.000000000000000
11
-75.4665893271461
21
-4.17694087192765
31
0.000000000000000
  0
LINE
  5
F10229
330
F1022A
100
AcDbEntity
8
Geo
100
AcDbLine
10
-75.4665893271461
20
-4.17694087192765
30
0.000000000000000
11
-75.3665893271461
21
-4.19058790087269
31
0.000000000000000
  0
LINE
  5
F1022B
330
F1022C
100
AcDbEntity
8
Geo
100
AcDbLine
10
-75.3665893271461
20
-4.19058790087269
30
0.000000000000000
11
-75.2665893271461
21
-4.20322354938598
31
0.000000000000000
  0
LINE
  5
F1022D
330
F1022E
100
AcDbEntity
8
Geo
100
AcDbLine
10
-75.2665893271461
20
-4.20322354938598
30
0.000000000000000
11
-75.1665893271461
21
-4.21488669986433
31
0.000000000000000
  0
LINE
  5
F1022F
330
F10230
100
AcDbEntity
8
Geo
100
AcDbLine
10
-75.1665893271461
20
-4.21488669986433
30
0.000000000000000
11
-75.0665893271461
21
-4.22561458263552
31
0.000000000000000
  0
LINE
  5
F10231
330
F10232
100
AcDbEntity
8
Geo
100
AcDbLine
10
-75.0665893271461
20
-4.22561458263552
30
0.000000000000000
11
-74.9665893271461
21
-4.23544263163869
31
0.000000000000000
  0
LINE
  5
F10233
330
F10234
100
AcDbEntity
8
Geo
100
AcDbLine
10
-74.9665893271461
20
-4.23544263163869
30
0.000000000000000
11
-74.8665893271461
21
-4.24440435365405
31
0.000000000000000
  0
LINE
  5
F10235
330
F10236
100
AcDbEntity
8
Geo
100
AcDbLine
10
-74.8665893271461
20
-4.24440435365405
30
0.000000000000000
11
-74.7665893271461
21
-4.25253121029909
31
0.000000000000000
  0
LINE
  5
F10237
330
F10238
100
AcDbEntity
8
Geo
100
AcDbLine
10
-74.7665893271461
20
-4.25253121029909
30
0.000000000000000
11
-74.6665893271461
21
-4.25985251203770
31
0.000000000000000
  0
LINE
  5
F10239
330
F1023A
100
AcDbEntity
8
Geo
100
AcDbLine
10
-74.6665893271461
20
-4.25985251203770
30
0.000000000000000
11
-74.5665893271461
21
-4.26639532348416
31
0.000000000000000
  0
LINE
  5
F1023B
330
F1023C
100
AcDbEntity
8
Geo
100
AcDbLine
10
-74.5665893271461
20
-4.26639532348416
30
0.000000000000000
11
-74.4665893271461
21
-4.27218437932401
31
0.000000000000000
  0
LINE
  5
F1023D
330
F1023E
100
AcDbEntity
8
Geo
100
AcDbLine
10
-74.4665893271461
20
-4.27218437932401
30
0.000000000000000
11
-74.3665893271461
21
-4.27724201021901
31
0.000000000000000
  0
LINE
  5
F1023F
330
F10240
100
AcDbEntity
8
Geo
100
AcDbLine
10
-74.3665893271461
20
-4.27724201021901
30
0.000000000000000
11
-74.2665893271461
21
-4.28158807811248
31
0.000000000000000
  0
LINE
  5
F10241
330
F10242
100
AcDbEntity
8
Geo
100
AcDbLine
10
-74.2665893271461
20
-4.28158807811248
30
0.000000000000000
11
-74.1665893271461
21
-4.28523992040363
31
0.000000000000000
  0
LINE
  5
F10243
330
F10244
100
AcDbEntity
8
Geo
100
AcDbLine
10
-74.1665893271461
20
-4.28523992040363
30
0.000000000000000
11
-74.0665893271461
21
-4.28821230251520
31
0.000000000000000
  0
LINE
  5
F10245
330
F10246
100
AcDbEntity
8
Geo
100
AcDbLine
10
-74.0665893271461
20
-4.28821230251520
30
0.000000000000000
11
-73.9665893271461
21
-4.29051737843673
31
0.000000000000000
  0
LINE
  5
F10247
330
F10248
100
AcDbEntity
8
Geo
100
AcDbLine
10
-73.9665893271461
20
-4.29051737843673
30
0.000000000000000
11
-73.8665893271461
21
-4.29216465888631
31
0.000000000000000
  0
LINE
  5
F10249
330
F1024A
100
AcDbEntity
8
Geo
100
AcDbLine
10
-81.8665893271461
20
-3.00696055684444
30
0.000000000000000
11
-81.7665893271461
21
-3.06365024696683
31
0.000000000000000
  0
LINE
  5
F1024B
330
F1024C
100
AcDbEntity
8
Geo
100
AcDbLine
10
-81.7665893271461
20
-3.06365024696683
30
0.000000000000000
11
-81.6665893271461
21
-3.12231659997094
31
0.000000000000000
  0
LINE
  5
F1024D
330
F1024E
100
AcDbEntity
8
Geo
100
AcDbLine
10
-81.6665893271461
20
-3.12231659997094
30
0.000000000000000
11
-81.5665893271461
21
-3.17978099394054
31
0.000000000000000
  0
LINE
  5
F1024F
330
F10250
100
AcDbEntity
8
Geo
100
AcDbLine
10
-81.5665893271461
20
-3.17978099394054
30
0.000000000000000
11
-81.4665893271461
21
-3.23698938924008
31
0.000000000000000
  0
LINE
  5
F10251
330
F10252
100
AcDbEntity
8
Geo
100
AcDbLine
10
-81.4665893271461
20
-3.23698938924008
30
0.000000000000000
11
-81.3665893271461
21
-3.29385704315417
31
0.000000000000000
  0
LINE
  5
F10253
330
F10254
100
AcDbEntity
8
Geo
100
AcDbLine
10
-81.3665893271461
20
-3.29385704315417
30
0.000000000000000
11
-81.2665893271461
21
-3.35029971770716
31
0.000000000000000
  0
LINE
  5
F10255
330
F10256
100
AcDbEntity
8
Geo
100
AcDbLine
10
-81.2665893271461
20
-3.35029971770716
30
0.000000000000000
11
-81.1665893271461
21
-3.40623380444474
31
0.000000000000000
  0
LINE
  5
F10257
330
F10258
100
AcDbEntity
8
Geo
100
AcDbLine
10
-81.1665893271461
20
-3.40623380444474
30
0.000000000000000
11
-81.0665893271461
21
-3.46157644828300
31
0.000000000000000
  0
LINE
  5
F10259
330
F1025A
100
AcDbEntity
8
Geo
100
AcDbLine
10
-81.0665893271461
20
-3.46157644828300
30
0.000000000000000
11
-80.9665893271461
21
-3.51624567024156
31
0.000000000000000
  0
LINE
  5
F1025B
330
F1025C
100
AcDbEntity
8
Geo
100
AcDbLine
10
-80.9665893271461
20
-3.51624567024156
30
0.000000000000000
11
-80.8665893271461
21
-3.57016048887895
31
0.000000000000000
  0
LINE
  5
F1025D
330
F1025E
100
AcDbEntity
8
Geo
100
AcDbLine
10
-80.8665893271461
20
-3.57016048887895
30
0.000000000000000
11
-80.7665893271461
21
-3.62324104025024
31
0.000000000000000
  0
LINE
  5
F1025F
330
F10260
100
AcDbEntity
8
Geo
100
AcDbLine
10
-80.7665893271461
20
-3.62324104025024
30
0.000000000000000
11
-80.6665893271461
21
-3.67540869620946
31
0.000000000000000
  0
LINE
  5
F10261
330
F10262
100
AcDbEntity
8
Geo
100
AcDbLine
10
-80.6665893271461
20
-3.67540869620946
30
0.000000000000000
11
-80.5665893271461
21
-3.72658618088130
31
0.000000000000000
  0
LINE
  5
F10263
330
F10264
100
AcDbEntity
8
Geo
100
AcDbLine
10
-80.5665893271461
20
-3.72658618088130
30
0.000000000000000
11
-80.4665893271461
21
-3.77669768512980
31
0.000000000000000
  0
LINE
  5
F10265
330
F10266
100
AcDbEntity
8
Geo
100
AcDbLine
10
-80.4665893271461
20
-3.77669768512980
30
0.000000000000000
11
-80.3665893271461
21
-3.82566897885430
31
0.000000000000000
  0
LINE
  5
F10267
330
F10268
100
AcDbEntity
8
Geo
100
AcDbLine
10
-80.3665893271461
20
-3.82566897885430
30
0.000000000000000
11
-80.2665893271461
21
-3.87342752094637
31
0.000000000000000
  0
LINE
  5
F10269
330
F1026A
100
AcDbEntity
8
Geo
100
AcDbLine
10
-80.2665893271461
20
-3.87342752094637
30
0.000000000000000
11
-80.1665893271461
21
-3.91990256674488
31
0.000000000000000
  0
LINE
  5
F1026B
330
F1026C
100
AcDbEntity
8
Geo
100
AcDbLine
10
-80.1665893271461
20
-3.91990256674488
30
0.000000000000000
11
-80.0665893271461
21
-3.96502527282995
31
0.000000000000000
  0
LINE
  5
F1026D
330
F1026E
100
AcDbEntity
8
Geo
100
AcDbLine
10
-80.0665893271461
20
-3.96502527282995
30
0.000000000000000
11
-79.9665893271461
21
-4.00872879900059
31
0.000000000000000
  0
LINE
  5
F1026F
330
F10270
100
AcDbEntity
8
Geo
100
AcDbLine
10
-79.9665893271461
20
-4.00872879900059
30
0.000000000000000
11
-79.8665893271461
21
-4.05094840728506
31
0.000000000000000
  0
LINE
  5
F10271
330
F10272
100
AcDbEntity
8
Geo
100
AcDbLine
10
-79.8665893271461
20
-4.05094840728506
30
0.000000000000000
11
-79.7665893271461
21
-4.09162155783706
31
0.000000000000000
  0
LINE
  5
F10273
330
F10274
100
AcDbEntity
8
Geo
100
AcDbLine
10
-79.7665893271461
20
-4.09162155783706
30
0.000000000000000
11
-79.6665893271461
21
-4.13068800157596
31
0.000000000000000
  0
LINE
  5
F10275
330
F10276
100
AcDbEntity
8
Geo
100
AcDbLine
10
-79.6665893271461
20
-4.13068800157596
30
0.000000000000000
11
-79.5665893271461
21
-4.16808986943368
31
0.000000000000000
  0
LINE
  5
F10277
330
F10278
100
AcDbEntity
8
Geo
100
AcDbLine
10
-79.5665893271461
20
-4.16808986943368
30
0.000000000000000
11
-79.4665893271461
21
-4.20377175807603
31
0.000000000000000
  0
LINE
  5
F10279
330
F1027A
100
AcDbEntity
8
Geo
100
AcDbLine
10
-79.4665893271461
20
-4.20377175807603
30
0.000000000000000
11
-79.3665893271461
21
-4.23768081197163
31
0.000000000000000
  0
LINE
  5
F1027B
330
F1027C
100
AcDbEntity
8
Geo
100
AcDbLine
10
-79.3665893271461
20
-4.23768081197163
30
0.000000000000000
11
-79.2665893271461
21
-4.26976680168670
31
0.000000000000000
  0
LINE
  5
F1027D
330
F1027E
100
AcDbEntity
8
Geo
100
AcDbLine
10
-79.2665893271461
20
-4.26976680168670
30
0.000000000000000
11
-79.1665893271461
21
-4.29998219828987
31
0.000000000000000
  0
LINE
  5
F1027F
330
F10280
100
AcDbEntity
8
Geo
100
AcDbLine
10
-79.1665893271461
20
-4.29998219828987
30
0.000000000000000
11
-79.0665893271461
21
-4.32828224375670
31
0.000000000000000
  0
LINE
  5
F10281
330
F10282
100
AcDbEntity
8
Geo
100
AcDbLine
10
-79.0665893271461
20
-4.32828224375670
30
0.000000000000000
11
-78.9665893271461
21
-4.35462501726970
31
0.000000000000000
  0
LINE
  5
F10283
330
F10284
100
AcDbEntity
8
Geo
100
AcDbLine
10
-78.9665893271461
20
-4.35462501726970
30
0.000000000000000
11
-78.8665893271461
21
-4.37897149731557
31
0.000000000000000
  0
LINE
  5
F10285
330
F10286
100
AcDbEntity
8
Geo
100
AcDbLine
10
-78.8665893271461
20
-4.37897149731557
30
0.000000000000000
11
-78.7665893271461
21
-4.37605144492725
31
0.000000000000000
  0
LINE
  5
F10287
330
F10288
100
AcDbEntity
8
Geo
100
AcDbLine
10
-78.7665893271461
20
-4.37605144492725
30
0.000000000000000
11
-78.6665893271461
21
-4.37315753798041
31
0.000000000000000
  0
LINE
  5
F10289
330
F1028A
100
AcDbEntity
8
Geo
100
AcDbLine
10
-78.6665893271461
20
-4.37315753798041
30
0.000000000000000
11
-78.5665893271461
21
-4.37029163161450
31
0.000000000000000
  0
LINE
  5
F1028B
330
F1028C
100
AcDbEntity
8
Geo
100
AcDbLine
10
-78.5665893271461
20
-4.37029163161450
30
0.000000000000000
11
-78.4665893271461
21
-4.36745553873527
31
0.000000000000000
  0
LINE
  5
F1028D
330
F1028E
100
AcDbEntity
8
Geo
100
AcDbLine
10
-78.4665893271461
20
-4.36745553873527
30
0.000000000000000
11
-78.3665893271461
21
-4.36465103026080
31
0.000000000000000
  0
LINE
  5
F1028F
330
F10290
100
AcDbEntity
8
Geo
100
AcDbLine
10
-78.3665893271461
20
-4.36465103026080
30
0.000000000000000
11
-78.2665893271461
21
-4.36187983537147
31
0.000000000000000
  0
LINE
  5
F10291
330
F10292
100
AcDbEntity
8
Geo
100
AcDbLine
10
-78.2665893271461
20
-4.36187983537147
30
0.000000000000000
11
-78.1665893271461
21
-4.35914364176325
31
0.000000000000000
  0
LINE
  5
F10293
330
F10294
100
AcDbEntity
8
Geo
100
AcDbLine
10
-78.1665893271461
20
-4.35914364176325
30
0.000000000000000
11
-78.0665893271461
21
-4.35644409590361
31
0.000000000000000
  0
LINE
  5
F10295
330
F10296
100
AcDbEntity
8
Geo
100
AcDbLine
10
-78.0665893271461
20
-4.35644409590361
30
0.000000000000000
11
-77.9665893271461
21
-4.35378280328972
31
0.000000000000000
  0
LINE
  5
F10297
330
F10298
100
AcDbEntity
8
Geo
100
AcDbLine
10
-77.9665893271461
20
-4.35378280328972
30
0.000000000000000
11
-77.8665893271461
21
-4.35116132870824
31
0.000000000000000
  0
LINE
  5
F10299
330
F1029A
100
AcDbEntity
8
Geo
100
AcDbLine
10
-77.8665893271461
20
-4.35116132870824
30
0.000000000000000
11
-77.7665893271461
21
-4.34858119649629
31
0.000000000000000
  0
LINE
  5
F1029B
330
F1029C
100
AcDbEntity
8
Geo
100
AcDbLine
10
-77.7665893271461
20
-4.34858119649629
30
0.000000000000000
11
-77.6665893271461
21
-4.34604389080314
31
0.000000000000000
  0
LINE
  5
F1029D
330
F1029E
100
AcDbEntity
8
Geo
100
AcDbLine
10
-77.6665893271461
20
-4.34604389080314
30
0.000000000000000
11
-77.5665893271461
21
-4.34355085585196
31
0.000000000000000
  0
LINE
  5
F1029F
330
F102A0
100
AcDbEntity
8
Geo
100
AcDbLine
10
-77.5665893271461
20
-4.34355085585196
30
0.000000000000000
11
-77.4665893271461
21
-4.34110349620136
31
0.000000000000000
  0
LINE
  5
F102A1
330
F102A2
100
AcDbEntity
8
Geo
100
AcDbLine
10
-77.4665893271461
20
-4.34110349620136
30
0.000000000000000
11
-77.3665893271461
21
-4.33870317700620
31
0.000000000000000
  0
LINE
  5
F102A3
330
F102A4
100
AcDbEntity
8
Geo
100
AcDbLine
10
-77.3665893271461
20
-4.33870317700620
30
0.000000000000000
11
-77.2665893271461
21
-4.33635122427709
31
0.000000000000000
  0
LINE
  5
F102A5
330
F102A6
100
AcDbEntity
8
Geo
100
AcDbLine
10
-77.2665893271461
20
-4.33635122427709
30
0.000000000000000
11
-77.1665893271461
21
-4.33404892513839
31
0.000000000000000
  0
LINE
  5
F102A7
330
F102A8
100
AcDbEntity
8
Geo
100
AcDbLine
10
-77.1665893271461
20
-4.33404892513839
30
0.000000000000000
11
-77.0665893271461
21
-4.33179752808413
31
0.000000000000000
  0
LINE
  5
F102A9
330
F102AA
100
AcDbEntity
8
Geo
100
AcDbLine
10
-77.0665893271461
20
-4.33179752808413
30
0.000000000000000
11
-76.9665893271461
21
-4.32959824323144
31
0.000000000000000
  0
LINE
  5
F102AB
330
F102AC
100
AcDbEntity
8
Geo
100
AcDbLine
10
-76.9665893271461
20
-4.32959824323144
30
0.000000000000000
11
-76.8665893271461
21
-4.32745224257119
31
0.000000000000000
  0
LINE
  5
F102AD
330
F102AE
100
AcDbEntity
8
Geo
100
AcDbLine
10
-76.8665893271461
20
-4.32745224257119
30
0.000000000000000
11
-76.7665893271461
21
-4.32536066021542
31
0.000000000000000
  0
LINE
  5
F102AF
330
F102B0
100
AcDbEntity
8
Geo
100
AcDbLine
10
-76.7665893271461
20
-4.32536066021542
30
0.000000000000000
11
-76.6665893271461
21
-4.32332459264115
31
0.000000000000000
  0
LINE
  5
F102B1
330
F102B2
100
AcDbEntity
8
Geo
100
AcDbLine
10
-76.6665893271461
20
-4.32332459264115
30
0.000000000000000
11
-76.5665893271461
21
-4.32134509893028
31
0.000000000000000
  0
LINE
  5
F102B3
330
F102B4
100
AcDbEntity
8
Geo
100
AcDbLine
10
-76.5665893271461
20
-4.32134509893028
30
0.000000000000000
11
-76.4665893271461
21
-4.31942320100521
31
0.000000000000000
  0
LINE
  5
F102B5
330
F102B6
100
AcDbEntity
8
Geo
100
AcDbLine
10
-76.4665893271461
20
-4.31942320100521
30
0.000000000000000
11
-76.3665893271461
21
-4.31755988385985
31
0.000000000000000
  0
LINE
  5
F102B7
330
F102B8
100
AcDbEntity
8
Geo
100
AcDbLine
10
-76.3665893271461
20
-4.31755988385985
30
0.000000000000000
11
-76.2665893271461
21
-4.31575609578568
31
0.000000000000000
  0
LINE
  5
F102B9
330
F102BA
100
AcDbEntity
8
Geo
100
AcDbLine
10
-76.2665893271461
20
-4.31575609578568
30
0.000000000000000
11
-76.1665893271461
21
-4.31401274859262
31
0.000000000000000
  0
LINE
  5
F102BB
330
F102BC
100
AcDbEntity
8
Geo
100
AcDbLine
10
-76.1665893271461
20
-4.31401274859262
30
0.000000000000000
11
-76.0665893271461
21
-4.31233071782437
31
0.000000000000000
  0
LINE
  5
F102BD
330
F102BE
100
AcDbEntity
8
Geo
100
AcDbLine
10
-76.0665893271461
20
-4.31233071782437
30
0.000000000000000
11
-75.9665893271461
21
-4.31071084296787
31
0.000000000000000
  0
LINE
  5
F102BF
330
F102C0
100
AcDbEntity
8
Geo
100
AcDbLine
10
-75.9665893271461
20
-4.31071084296787
30
0.000000000000000
11
-75.8665893271461
21
-4.30915392765681
31
0.000000000000000
  0
LINE
  5
F102C1
330
F102C2
100
AcDbEntity
8
Geo
100
AcDbLine
10
-75.8665893271461
20
-4.30915392765681
30
0.000000000000000
11
-75.7665893271461
21
-4.30766073986869
31
0.000000000000000
  0
LINE
  5
F102C3
330
F102C4
100
AcDbEntity
8
Geo
100
AcDbLine
10
-75.7665893271461
20
-4.30766073986869
30
0.000000000000000
11
-75.6665893271461
21
-4.30623201211535
31
0.000000000000000
  0
LINE
  5
F102C5
330
F102C6
100
AcDbEntity
8
Geo
100
AcDbLine
10
-75.6665893271461
20
-4.30623201211535
30
0.000000000000000
11
-75.5665893271461
21
-4.30486844162668
31
0.000000000000000
  0
LINE
  5
F102C7
330
F102C8
100
AcDbEntity
8
Geo
100
AcDbLine
10
-75.5665893271461
20
-4.30486844162668
30
0.000000000000000
11
-75.4665893271461
21
-4.30357069052724
31
0.000000000000000
  0
LINE
  5
F102C9
330
F102CA
100
AcDbEntity
8
Geo
100
AcDbLine
10
-75.4665893271461
20
-4.30357069052724
30
0.000000000000000
11
-75.3665893271461
21
-4.30233938600572
31
0.000000000000000
  0
LINE
  5
F102CB
330
F102CC
100
AcDbEntity
8
Geo
100
AcDbLine
10
-75.3665893271461
20
-4.30233938600572
30
0.000000000000000
11
-75.2665893271461
21
-4.30117512047678
31
0.000000000000000
  0
LINE
  5
F102CD
330
F102CE
100
AcDbEntity
8
Geo
100
AcDbLine
10
-75.2665893271461
20
-4.30117512047678
30
0.000000000000000
11
-75.1665893271461
21
-4.30007845173541
31
0.000000000000000
  0
LINE
  5
F102CF
330
F102D0
100
AcDbEntity
8
Geo
100
AcDbLine
10
-75.1665893271461
20
-4.30007845173541
30
0.000000000000000
11
-75.0665893271461
21
-4.29904990310333
31
0.000000000000000
  0
LINE
  5
F102D1
330
F102D2
100
AcDbEntity
8
Geo
100
AcDbLine
10
-75.0665893271461
20
-4.29904990310333
30
0.000000000000000
11
-74.9665893271461
21
-4.29808996356744
31
0.000000000000000
  0
LINE
  5
F102D3
330
F102D4
100
AcDbEntity
8
Geo
100
AcDbLine
10
-74.9665893271461
20
-4.29808996356744
30
0.000000000000000
11
-74.8665893271461
21
-4.29719908791008
31
0.000000000000000
  0
LINE
  5
F102D5
330
F102D6
100
AcDbEntity
8
Geo
100
AcDbLine
10
-74.8665893271461
20
-4.29719908791008
30
0.000000000000000
11
-74.7665893271461
21
-4.29637769683101
31
0.000000000000000
  0
LINE
  5
F102D7
330
F102D8
100
AcDbEntity
8
Geo
100
AcDbLine
10
-74.7665893271461
20
-4.29637769683101
30
0.000000000000000
11
-74.6665893271461
21
-4.29562617706088
31
0.000000000000000
  0
LINE
  5
F102D9
330
F102DA
100
AcDbEntity
8
Geo
100
AcDbLine
10
-74.6665893271461
20
-4.29562617706088
30
0.000000000000000
11
-74.5665893271461
21
-4.29494488146620
31
0.000000000000000
  0
LINE
  5
F102DB
330
F102DC
100
AcDbEntity
8
Geo
100
AcDbLine
10
-74.5665893271461
20
-4.29494488146620
30
0.000000000000000
11
-74.4665893271461
21
-4.29433412914554
31
0.000000000000000
  0
LINE
  5
F102DD
330
F102DE
100
AcDbEntity
8
Geo
100
AcDbLine
10
-74.4665893271461
20
-4.29433412914554
30
0.000000000000000
11
-74.3665893271461
21
-4.29379420551693
31
0.000000000000000
  0
LINE
  5
F102DF
330
F102E0
100
AcDbEntity
8
Geo
100
AcDbLine
10
-74.3665893271461
20
-4.29379420551693
30
0.000000000000000
11
-74.2665893271461
21
-4.29332536239644
31
0.000000000000000
  0
LINE
  5
F102E1
330
F102E2
100
AcDbEntity
8
Geo
100
AcDbLine
10
-74.2665893271461
20
-4.29332536239644
30
0.000000000000000
11
-74.1665893271461
21
-4.29292781806766
31
0.000000000000000
  0
LINE
  5
F102E3
330
F102E4
100
AcDbEntity
8
Geo
100
AcDbLine
10
-74.1665893271461
20
-4.29292781806766
30
0.000000000000000
11
-74.0665893271461
21
-4.29260175734217
31
0.000000000000000
  0
LINE
  5
F102E5
330
F102E6
100
AcDbEntity
8
Geo
100
AcDbLine
10
-74.0665893271461
20
-4.29260175734217
30
0.000000000000000
11
-73.9665893271461
21
-4.29234733161092
31
0.000000000000000
  0
LINE
  5
F102E7
330
F102E8
100
AcDbEntity
8
Geo
100
AcDbLine
10
-73.9665893271461
20
-4.29234733161092
30
0.000000000000000
11
-73.8665893271461
21
-4.29216465888631
31
0.000000000000000
  0
LINE
  5
F102E9
330
F102EA
100
AcDbEntity
8
Geo
100
AcDbLine
10
-81.8665893271461
20
-3.40868264953186
30
0.000000000000000
11
-81.7665893271461
21
-3.51578388500600
31
0.000000000000000
  0
LINE
  5
F102EB
330
F102EC
100
AcDbEntity
8
Geo
100
AcDbLine
10
-81.7665893271461
20
-3.51578388500600
30
0.000000000000000
11
-81.6665893271461
21
-3.57882343414509
31
0.000000000000000
  0
LINE
  5
F102ED
330
F102EE
100
AcDbEntity
8
Geo
100
AcDbLine
10
-81.6665893271461
20
-3.57882343414509
30
0.000000000000000
11
-81.5665893271461
21
-3.63176131330884
31
0.000000000000000
  0
LINE
  5
F102EF
330
F102F0
100
AcDbEntity
8
Geo
100
AcDbLine
10
-81.5665893271461
20
-3.63176131330884
30
0.000000000000000
11
-81.4665893271461
21
-3.68377367599203
31
0.000000000000000
  0
LINE
  5
F102F1
330
F102F2
100
AcDbEntity
8
Geo
100
AcDbLine
10
-81.4665893271461
20
-3.68377367599203
30
0.000000000000000
11
-81.3665893271461
21
-3.73478347635507
31
0.000000000000000
  0
LINE
  5
F102F3
330
F102F4
100
AcDbEntity
8
Geo
100
AcDbLine
10
-81.3665893271461
20
-3.73478347635507
30
0.000000000000000
11
-81.2665893271461
21
-3.78471515365254
31
0.000000000000000
  0
LINE
  5
F102F5
330
F102F6
100
AcDbEntity
8
Geo
100
AcDbLine
10
-81.2665893271461
20
-3.78471515365254
30
0.000000000000000
11
-81.1665893271461
21
-3.83349474416117
31
0.000000000000000
  0
LINE
  5
F102F7
330
F102F8
100
AcDbEntity
8
Geo
100
AcDbLine
10
-81.1665893271461
20
-3.83349474416117
30
0.000000000000000
11
-81.0665893271461
21
-3.88104999074224
31
0.000000000000000
  0
LINE
  5
F102F9
330
F102FA
100
AcDbEntity
8
Geo
100
AcDbLine
10
-81.0665893271461
20
-3.88104999074224
30
0.000000000000000
11
-80.9665893271461
21
-3.92731044987598
31
0.000000000000000
  0
LINE
  5
F102FB
330
F102FC
100
AcDbEntity
8
Geo
100
AcDbLine
10
-80.9665893271461
20
-3.92731044987598
30
0.000000000000000
11
-80.8665893271461
21
-3.97220759600943
31
0.000000000000000
  0
LINE
  5
F102FD
330
F102FE
100
AcDbEntity
8
Geo
100
AcDbLine
10
-80.8665893271461
20
-3.97220759600943
30
0.000000000000000
11
-80.7665893271461
21
-4.01567492306325
31
0.000000000000000
  0
LINE
  5
F102FF
330
F10300
100
AcDbEntity
8
Geo
100
AcDbLine
10
-80.7665893271461
20
-4.01567492306325
30
0.000000000000000
11
-80.6665893271461
21
-4.05764804294710
31
0.000000000000000
  0
LINE
  5
F10301
330
F10302
100
AcDbEntity
8
Geo
100
AcDbLine
10
-80.6665893271461
20
-4.05764804294710
30
0.000000000000000
11
-80.5665893271461
21
-4.09806478093761
31
0.000000000000000
  0
LINE
  5
F10303
330
F10304
100
AcDbEntity
8
Geo
100
AcDbLine
10
-80.5665893271461
20
-4.09806478093761
30
0.000000000000000
11
-80.4665893271461
21
-4.13686526777772
31
0.000000000000000
  0
LINE
  5
F10305
330
F10306
100
AcDbEntity
8
Geo
100
AcDbLine
10
-80.4665893271461
20
-4.13686526777772
30
0.000000000000000
11
-80.3665893271461
21
-4.17399202836092
31
0.000000000000000
  0
LINE
  5
F10307
330
F10308
100
AcDbEntity
8
Geo
100
AcDbLine
10
-80.3665893271461
20
-4.17399202836092
30
0.000000000000000
11
-80.2665893271461
21
-4.20939006686906
31
0.000000000000000
  0
LINE
  5
F10309
330
F1030A
100
AcDbEntity
8
Geo
100
AcDbLine
10
-80.2665893271461
20
-4.20939006686906
30
0.000000000000000
11
-80.1665893271461
21
-4.24300694823753
31
0.000000000000000
  0
LINE
  5
F1030B
330
F1030C
100
AcDbEntity
8
Geo
100
AcDbLine
10
-80.1665893271461
20
-4.24300694823753
30
0.000000000000000
11
-80.0665893271461
21
-4.27479287582733
31
0.000000000000000
  0
LINE
  5
F1030D
330
F1030E
100
AcDbEntity
8
Geo
100
AcDbLine
10
-80.0665893271461
20
-4.27479287582733
30
0.000000000000000
11
-79.9665893271461
21
-4.30470076518868
31
0.000000000000000
  0
LINE
  5
F1030F
330
F10310
100
AcDbEntity
8
Geo
100
AcDbLine
10
-79.9665893271461
20
-4.30470076518868
30
0.000000000000000
11
-79.8665893271461
21
-4.33268631380719
31
0.000000000000000
  0
LINE
  5
F10311
330
F10312
100
AcDbEntity
8
Geo
100
AcDbLine
10
-79.8665893271461
20
-4.33268631380719
30
0.000000000000000
11
-79.7665893271461
21
-4.35870806672911
31
0.000000000000000
  0
LINE
  5
F10313
330
F10314
100
AcDbEntity
8
Geo
100
AcDbLine
10
-79.7665893271461
20
-4.35870806672911
30
0.000000000000000
11
-79.6665893271461
21
-4.38272747796848
31
0.000000000000000
  0
LINE
  5
F10315
330
F10316
100
AcDbEntity
8
Geo
100
AcDbLine
10
-79.6665893271461
20
-4.38272747796848
30
0.000000000000000
11
-79.5665893271461
21
-4.40470896760528
31
0.000000000000000
  0
LINE
  5
F10317
330
F10318
100
AcDbEntity
8
Geo
100
AcDbLine
10
-79.5665893271461
20
-4.40470896760528
30
0.000000000000000
11
-79.4665893271461
21
-4.42461997448985
31
0.000000000000000
  0
LINE
  5
F10319
330
F1031A
100
AcDbEntity
8
Geo
100
AcDbLine
10
-79.4665893271461
20
-4.42461997448985
30
0.000000000000000
11
-79.3665893271461
21
-4.44243100447574
31
0.000000000000000
  0
LINE
  5
F1031B
330
F1031C
100
AcDbEntity
8
Geo
100
AcDbLine
10
-79.3665893271461
20
-4.44243100447574
30
0.000000000000000
11
-79.2665893271461
21
-4.45811567410933
31
0.000000000000000
  0
LINE
  5
F1031D
330
F1031E
100
AcDbEntity
8
Geo
100
AcDbLine
10
-79.2665893271461
20
-4.45811567410933
30
0.000000000000000
11
-79.1665893271461
21
-4.47165074971156
31
0.000000000000000
  0
LINE
  5
F1031F
330
F10320
100
AcDbEntity
8
Geo
100
AcDbLine
10
-79.1665893271461
20
-4.47165074971156
30
0.000000000000000
11
-79.0665893271461
21
-4.48301618179403
31
0.000000000000000
  0
LINE
  5
F10321
330
F10322
100
AcDbEntity
8
Geo
100
AcDbLine
10
-79.0665893271461
20
-4.48301618179403
30
0.000000000000000
11
-78.9665893271461
21
-4.49219513475819
31
0.000000000000000
  0
LINE
  5
F10323
330
F10324
100
AcDbEntity
8
Geo
100
AcDbLine
10
-78.9665893271461
20
-4.49219513475819
30
0.000000000000000
11
-78.8665893271461
21
-4.49917401183393
31
0.000000000000000
  0
LINE
  5
F10325
330
F10326
100
AcDbEntity
8
Geo
100
AcDbLine
10
-78.8665893271461
20
-4.49917401183393
30
0.000000000000000
11
-78.7665893271461
21
-4.50436614554907
31
0.000000000000000
  0
LINE
  5
F10327
330
F10328
100
AcDbEntity
8
Geo
100
AcDbLine
10
-78.7665893271461
20
-4.50436614554907
30
0.000000000000000
11
-78.6665893271461
21
-4.50675520686497
31
0.000000000000000
  0
LINE
  5
F10329
330
F1032A
100
AcDbEntity
8
Geo
100
AcDbLine
10
-78.6665893271461
20
-4.50675520686497
30
0.000000000000000
11
-78.5665893271461
21
-4.50696055684443
31
0.000000000000000
  0
LINE
  5
F1032B
330
F1032C
100
AcDbEntity
8
Geo
100
AcDbLine
10
-81.8665893271461
20
-1.73300778349447
30
0.000000000000000
11
-81.7665893271461
21
-1.56655892560130
31
0.000000000000000
  0
LINE
  5
F1032D
330
F1032E
100
AcDbEntity
8
Geo
100
AcDbLine
10
-81.8665893271461
20
-3.15468171979626
30
0.000000000000000
11
-81.7665893271461
21
-3.21025968964905
31
0.000000000000000
  0
LINE
  5
F1032F
330
F10330
100
AcDbEntity
8
Geo
100
AcDbLine
10
-81.7665893271461
20
-1.56655892560130
30
0.000000000000000
11
-81.6665893271461
21
-1.54873324728451
31
0.000000000000000
  0
LINE
  5
F10331
330
F10332
100
AcDbEntity
8
Geo
100
AcDbLine
10
-81.7665893271461
20
-3.21025968964905
30
0.000000000000000
11
-81.6665893271461
21
-3.26759715002259
31
0.000000000000000
  0
LINE
  5
F10333
330
F10334
100
AcDbEntity
8
Geo
100
AcDbLine
10
-81.6665893271461
20
-1.54873324728451
30
0.000000000000000
11
-81.5665893271461
21
-1.55984271263260
31
0.000000000000000
  0
LINE
  5
F10335
330
F10336
100
AcDbEntity
8
Geo
100
AcDbLine
10
-81.6665893271461
20
-3.26759715002259
30
0.000000000000000
11
-81.5665893271461
21
-3.32351744748745
31
0.000000000000000
  0
LINE
  5
F10337
330
F10338
100
AcDbEntity
8
Geo
100
AcDbLine
10
-81.5665893271461
20
-1.55984271263260
30
0.000000000000000
11
-81.4665893271461
21
-1.57309579160514
31
0.000000000000000
  0
LINE
  5
F10339
330
F1033A
100
AcDbEntity
8
Geo
100
AcDbLine
10
-81.5665893271461
20
-3.32351744748745
30
0.000000000000000
11
-81.4665893271461
21
-3.37896882967605
31
0.000000000000000
  0
LINE
  5
F1033B
330
F1033C
100
AcDbEntity
8
Geo
100
AcDbLine
10
-81.4665893271461
20
-1.57309579160514
30
0.000000000000000
11
-81.3665893271461
21
-1.58847285243493
31
0.000000000000000
  0
LINE
  5
F1033D
330
F1033E
100
AcDbEntity
8
Geo
100
AcDbLine
10
-81.4665893271461
20
-3.37896882967605
30
0.000000000000000
11
-81.3665893271461
21
-3.43386915653406
31
0.000000000000000
  0
LINE
  5
F1033F
330
F10340
100
AcDbEntity
8
Geo
100
AcDbLine
10
-81.3665893271461
20
-1.58847285243493
30
0.000000000000000
11
-81.2665893271461
21
-1.60595111710342
31
0.000000000000000
  0
LINE
  5
F10341
330
F10342
100
AcDbEntity
8
Geo
100
AcDbLine
10
-81.3665893271461
20
-3.43386915653406
30
0.000000000000000
11
-81.2665893271461
21
-3.48813710428461
31
0.000000000000000
  0
LINE
  5
F10343
330
F10344
100
AcDbEntity
8
Geo
100
AcDbLine
10
-81.2665893271461
20
-1.60595111710342
30
0.000000000000000
11
-81.1665893271461
21
-1.62550469508176
31
0.000000000000000
  0
LINE
  5
F10345
330
F10346
100
AcDbEntity
8
Geo
100
AcDbLine
10
-81.2665893271461
20
-3.48813710428461
30
0.000000000000000
11
-81.1665893271461
21
-3.54169228589315
31
0.000000000000000
  0
LINE
  5
F10347
330
F10348
100
AcDbEntity
8
Geo
100
AcDbLine
10
-81.1665893271461
20
-1.62550469508176
30
0.000000000000000
11
-81.0665893271461
21
-1.64710462168244
31
0.000000000000000
  0
LINE
  5
F10349
330
F1034A
100
AcDbEntity
8
Geo
100
AcDbLine
10
-81.1665893271461
20
-3.54169228589315
30
0.000000000000000
11
-81.0665893271461
21
-3.59445537014459
31
0.000000000000000
  0
LINE
  5
F1034B
330
F1034C
100
AcDbEntity
8
Geo
100
AcDbLine
10
-81.0665893271461
20
-1.64710462168244
30
0.000000000000000
11
-80.9665893271461
21
-1.67071890096460
31
0.000000000000000
  0
LINE
  5
F1034D
330
F1034E
100
AcDbEntity
8
Geo
100
AcDbLine
10
-81.0665893271461
20
-3.59445537014459
30
0.000000000000000
11
-80.9665893271461
21
-3.64634819915653
31
0.000000000000000
  0
LINE
  5
F1034F
330
F10350
100
AcDbEntity
8
Geo
100
AcDbLine
10
-80.9665893271461
20
-1.67071890096460
30
0.000000000000000
11
-80.8665893271461
21
-1.69631255312962
31
0.000000000000000
  0
LINE
  5
F10351
330
F10352
100
AcDbEntity
8
Geo
100
AcDbLine
10
-80.9665893271461
20
-3.64634819915653
30
0.000000000000000
11
-80.8665893271461
21
-3.69729390415445
31
0.000000000000000
  0
LINE
  5
F10353
330
F10354
100
AcDbEntity
8
Geo
100
AcDbLine
10
-80.8665893271461
20
-1.69631255312962
30
0.000000000000000
11
-80.7665893271461
21
-1.72384766633657
31
0.000000000000000
  0
LINE
  5
F10355
330
F10356
100
AcDbEntity
8
Geo
100
AcDbLine
10
-80.8665893271461
20
-3.69729390415445
30
0.000000000000000
11
-80.7665893271461
21
-3.74721701933729
31
0.000000000000000
  0
LINE
  5
F10357
330
F10358
100
AcDbEntity
8
Geo
100
AcDbLine
10
-80.7665893271461
20
-1.72384766633657
30
0.000000000000000
11
-80.6665893271461
21
-1.75328345286105
31
0.000000000000000
  0
LINE
  5
F10359
330
F1035A
100
AcDbEntity
8
Geo
100
AcDbLine
10
-80.7665893271461
20
-3.74721701933729
30
0.000000000000000
11
-80.6665893271461
21
-3.79604359366484
31
0.000000000000000
  0
LINE
  5
F1035B
330
F1035C
100
AcDbEntity
8
Geo
100
AcDbLine
10
-80.6665893271461
20
-1.75328345286105
30
0.000000000000000
11
-80.5665893271461
21
-1.78457630951393
31
0.000000000000000
  0
LINE
  5
F1035D
330
F1035E
100
AcDbEntity
8
Geo
100
AcDbLine
10
-80.6665893271461
20
-3.79604359366484
30
0.000000000000000
11
-80.5665893271461
21
-3.84370130040133
31
0.000000000000000
  0
LINE
  5
F1035F
330
F10360
100
AcDbEntity
8
Geo
100
AcDbLine
10
-80.5665893271461
20
-1.78457630951393
30
0.000000000000000
11
-80.4665893271461
21
-1.81767988223074
31
0.000000000000000
  0
LINE
  5
F10361
330
F10362
100
AcDbEntity
8
Geo
100
AcDbLine
10
-80.5665893271461
20
-3.84370130040133
30
0.000000000000000
11
-80.4665893271461
21
-3.89011954425287
31
0.000000000000000
  0
LINE
  5
F10363
330
F10364
100
AcDbEntity
8
Geo
100
AcDbLine
10
-80.4665893271461
20
-1.81767988223074
30
0.000000000000000
11
-80.3665893271461
21
-1.85254513473583
31
0.000000000000000
  0
LINE
  5
F10365
330
F10366
100
AcDbEntity
8
Geo
100
AcDbLine
10
-80.4665893271461
20
-3.89011954425287
30
0.000000000000000
11
-80.3665893271461
21
-3.93522956594024
31
0.000000000000000
  0
LINE
  5
F10367
330
F10368
100
AcDbEntity
8
Geo
100
AcDbLine
10
-80.3665893271461
20
-1.85254513473583
30
0.000000000000000
11
-80.2665893271461
21
-1.88912042117978
31
0.000000000000000
  0
LINE
  5
F10369
330
F1036A
100
AcDbEntity
8
Geo
100
AcDbLine
10
-80.3665893271461
20
-3.93522956594024
30
0.000000000000000
11
-80.2665893271461
21
-3.97896454405185
31
0.000000000000000
  0
LINE
  5
F1036B
330
F1036C
100
AcDbEntity
8
Geo
100
AcDbLine
10
-80.2665893271461
20
-1.88912042117978
30
0.000000000000000
11
-80.1665893271461
21
-1.92735156264227
31
0.000000000000000
  0
LINE
  5
F1036D
330
F1036E
100
AcDbEntity
8
Geo
100
AcDbLine
10
-80.2665893271461
20
-3.97896454405185
30
0.000000000000000
11
-80.1665893271461
21
-4.02125969402620
31
0.000000000000000
  0
LINE
  5
F1036F
330
F10370
100
AcDbEntity
8
Geo
100
AcDbLine
10
-80.1665893271461
20
-1.92735156264227
30
0.000000000000000
11
-80.0665893271461
21
-1.96718192738732
31
0.000000000000000
  0
LINE
  5
F10371
330
F10372
100
AcDbEntity
8
Geo
100
AcDbLine
10
-80.1665893271461
20
-4.02125969402620
30
0.000000000000000
11
-80.0665893271461
21
-4.06205236411723
31
0.000000000000000
  0
LINE
  5
F10373
330
F10374
100
AcDbEntity
8
Geo
100
AcDbLine
10
-80.0665893271461
20
-1.96718192738732
30
0.000000000000000
11
-79.9665893271461
21
-2.00855251475172
31
0.000000000000000
  0
LINE
  5
F10375
330
F10376
100
AcDbEntity
8
Geo
100
AcDbLine
10
-80.0665893271461
20
-4.06205236411723
30
0.000000000000000
11
-79.9665893271461
21
-4.10128212820017
31
0.000000000000000
  0
LINE
  5
F10377
330
F10378
100
AcDbEntity
8
Geo
100
AcDbLine
10
-79.9665893271461
20
-2.00855251475172
30
0.000000000000000
11
-79.8665893271461
21
-2.05140204254268
31
0.000000000000000
  0
LINE
  5
F10379
330
F1037A
100
AcDbEntity
8
Geo
100
AcDbLine
10
-79.9665893271461
20
-4.10128212820017
30
0.000000000000000
11
-79.8665893271461
21
-4.13889087528074
31
0.000000000000000
  0
LINE
  5
F1037B
330
F1037C
100
AcDbEntity
8
Geo
100
AcDbLine
10
-79.8665893271461
20
-2.05140204254268
30
0.000000000000000
11
-79.7665893271461
21
-2.09566703781504
31
0.000000000000000
  0
LINE
  5
F1037D
330
F1037E
100
AcDbEntity
8
Geo
100
AcDbLine
10
-79.8665893271461
20
-4.13889087528074
30
0.000000000000000
11
-79.7665893271461
21
-4.17482289557486
31
0.000000000000000
  0
LINE
  5
F1037F
330
F10380
100
AcDbEntity
8
Geo
100
AcDbLine
10
-79.7665893271461
20
-2.09566703781504
30
0.000000000000000
11
-79.6665893271461
21
-2.14128193089363
31
0.000000000000000
  0
LINE
  5
F10381
330
F10382
100
AcDbEntity
8
Geo
100
AcDbLine
10
-79.7665893271461
20
-4.17482289557486
30
0.000000000000000
11
-79.6665893271461
21
-4.20902496303148
31
0.000000000000000
  0
LINE
  5
F10383
330
F10384
100
AcDbEntity
8
Geo
100
AcDbLine
10
-79.6665893271461
20
-2.14128193089363
30
0.000000000000000
11
-79.5665893271461
21
-2.18817915250159
31
0.000000000000000
  0
LINE
  5
F10385
330
F10386
100
AcDbEntity
8
Geo
100
AcDbLine
10
-79.6665893271461
20
-4.20902496303148
30
0.000000000000000
11
-79.5665893271461
21
-4.24144641417624
31
0.000000000000000
  0
LINE
  5
F10387
330
F10388
100
AcDbEntity
8
Geo
100
AcDbLine
10
-79.5665893271461
20
-2.18817915250159
30
0.000000000000000
11
-79.4665893271461
21
-2.23628923385061
31
0.000000000000000
  0
LINE
  5
F10389
330
F1038A
100
AcDbEntity
8
Geo
100
AcDbLine
10
-79.5665893271461
20
-4.24144641417624
30
0.000000000000000
11
-79.4665893271461
21
-4.27203922315923
31
0.000000000000000
  0
LINE
  5
F1038B
330
F1038C
100
AcDbEntity
8
Geo
100
AcDbLine
10
-79.4665893271461
20
-2.23628923385061
30
0.000000000000000
11
-79.3665893271461
21
-2.28554090954494
31
0.000000000000000
  0
LINE
  5
F1038D
330
F1038E
100
AcDbEntity
8
Geo
100
AcDbLine
10
-79.4665893271461
20
-4.27203922315923
30
0.000000000000000
11
-79.3665893271461
21
-4.30075807289560
31
0.000000000000000
  0
LINE
  5
F1038F
330
F10390
100
AcDbEntity
8
Geo
100
AcDbLine
10
-79.3665893271461
20
-2.28554090954494
30
0.000000000000000
11
-79.2665893271461
21
-2.33586122314673
31
0.000000000000000
  0
LINE
  5
F10391
330
F10392
100
AcDbEntity
8
Geo
100
AcDbLine
10
-79.3665893271461
20
-4.30075807289560
30
0.000000000000000
11
-79.2665893271461
21
-4.32756042219366
31
0.000000000000000
  0
LINE
  5
F10393
330
F10394
100
AcDbEntity
8
Geo
100
AcDbLine
10
-79.2665893271461
20
-2.33586122314673
30
0.000000000000000
11
-79.1665893271461
21
-2.38717563524634
31
0.000000000000000
  0
LINE
  5
F10395
330
F10396
100
AcDbEntity
8
Geo
100
AcDbLine
10
-79.2665893271461
20
-4.32756042219366
30
0.000000000000000
11
-79.1665893271461
21
-4.35240656877116
31
0.000000000000000
  0
LINE
  5
F10397
330
F10398
100
AcDbEntity
8
Geo
100
AcDbLine
10
-79.1665893271461
20
-2.38717563524634
30
0.000000000000000
11
-79.0665893271461
21
-2.43940813387738
31
0.000000000000000
  0
LINE
  5
F10399
330
F1039A
100
AcDbEntity
8
Geo
100
AcDbLine
10
-79.1665893271461
20
-4.35240656877116
30
0.000000000000000
11
-79.0665893271461
21
-4.37525970806617
31
0.000000000000000
  0
LINE
  5
F1039B
330
F1039C
100
AcDbEntity
8
Geo
100
AcDbLine
10
-79.0665893271461
20
-2.43940813387738
30
0.000000000000000
11
-78.9665893271461
21
-2.49248134711320
31
0.000000000000000
  0
LINE
  5
F1039D
330
F1039E
100
AcDbEntity
8
Geo
100
AcDbLine
10
-79.0665893271461
20
-4.37525970806617
30
0.000000000000000
11
-78.9665893271461
21
-4.39608598775563
31
0.000000000000000
  0
LINE
  5
F1039F
330
F103A0
100
AcDbEntity
8
Geo
100
AcDbLine
10
-81.8665893271461
20
-3.00696055684443
30
0.000000000000000
11
-81.8665893271461
21
-3.00696055684443
31
0.000000000000000
  0
LINE
  5
F103A1
330
F103A2
100
AcDbEntity
8
Geo
100
AcDbLine
10
-81.8665893271461
20
-3.00696055684443
30
0.000000000000000
11
-81.8665893271461
21
-3.00696055684443
31
0.000000000000000
  0
LINE
  5
F103A3
330
F103A4
100
AcDbEntity
8
Geo
100
AcDbLine
10
-82.8665893271461
20
-3.00696055684443
30
0.000000000000000
11
-82.5665893271461
21
-3.00696055684443
31
0.000000000000000
  0
LINE
  5
F103A5
330
F103A6
100
AcDbEntity
8
Geo
100
AcDbLine
10
-82.4390893271461
20
-3.00696055684443
30
0.000000000000000
11
-82.3540893271461
21
-3.00696055684443
31
0.000000000000000
  0
LINE
  5
F103A7
330
F103A8
100
AcDbEntity
8
Geo
100
AcDbLine
10
-82.1415893271461
20
-3.00696055684443
30
0.000000000000000
11
-81.7165893271461
21
-3.00696055684443
31
0.000000000000000
  0
LINE
  5
F103A9
330
F103AA
100
AcDbEntity
8
Geo
100
AcDbLine
10
-81.5890893271461
20
-3.00696055684443
30
0.000000000000000
11
-81.5040893271461
21
-3.00696055684443
31
0.000000000000000
  0
LINE
  5
F103AB
330
F103AC
100
AcDbEntity
8
Geo
100
AcDbLine
10
-81.2915893271461
20
-3.00696055684443
30
0.000000000000000
11
-80.8665893271461
21
-3.00696055684443
31
0.000000000000000
  0
LINE
  5
F103AD
330
F103AE
100
AcDbEntity
8
Geo
100
AcDbLine
10
-30.8665893271461
20
-0.506960556844433
30
0.000000000000000
11
-30.8665893271461
21
-3.00696055684443
31
0.000000000000000
  0
LINE
  5
F103AF
330
F103B0
100
AcDbEntity
8
Geo
100
AcDbLine
10
-81.8213142356666
20
-3.00696055684443
30
0.000000000000000
11
-81.8664674925499
21
-4.29998065750393
31
0.000000000000000
  0
ARC
  5
F103B1
330
F103B2
100
AcDbEntity
8
Geo
100
AcDbCircle
10
-81.6665893271461
20
-4.30696055684443
30
0.000000000000000
 40
0.199999999999999
100
AcDbArc
 50
178.000000000000
 51
270.000000000000
  0
LINE
  5
F103B3
330
F103B4
100
AcDbEntity
8
Geo
100
AcDbLine
10
-81.6665893271461
20
-4.50696055684443
30
0.000000000000000
11
-73.8665893271461
21
-4.50696055684443
31
0.000000000000000
  0
LINE
  5
F103B5
330
F103B6
100
AcDbEntity
8
Geo
100
AcDbLine
10
-73.8665893271461
20
-4.50696055684443
30
0.000000000000000
11
-73.8665893271461
21
-4.40696055684443
31
0.000000000000000
  0
LINE
  5
F103B7
330
F103B8
100
AcDbEntity
8
Geo
100
AcDbLine
10
-73.8665893271461
20
-4.40696055684443
30
0.000000000000000
11
-72.8665893271461
21
-4.40696055684443
31
0.000000000000000
  0
LINE
  5
F103B9
330
F103BA
100
AcDbEntity
8
Geo
100
AcDbLine
10
-72.8665893271461
20
-4.40696055684443
30
0.000000000000000
11
-66.8953080350359
21
-6.00696055684443
31
0.000000000000000
  0
LINE
  5
F103BB
330
F103BC
100
AcDbEntity
8
Geo
100
AcDbLine
10
-66.8953080350359
20
-6.00696055684443
30
0.000000000000000
11
-31.3665893271461
21
-6.00696055684443
31
0.000000000000000
  0
LINE
  5
F103BD
330
F103BE
100
AcDbEntity
8
Geo
100
AcDbLine
10
-31.3665893271461
20
-6.00696055684443
30
0.000000000000000
11
-30.8665893271461
21
-5.50696055684443
31
0.000000000000000
  0
LINE
  5
F103BF
330
F103C0
100
AcDbEntity
8
Geo
100
AcDbLine
10
-81.6665893271461
20
-1.50696055684443
30
0.000000000000000
11
-81.6665893271461
21
-4.50696055684443
31
0.000000000000000
  0
LINE
  5
F103C1
330
F103C2
100
AcDbEntity
8
Geo
100
AcDbLine
10
-81.6665893271461
20
-1.50696055684443
30
0.000000000000000
11
-81.6665893271461
21
-4.50696055684443
31
0.000000000000000
  0
LINE
  5
F103C3
330
F103C4
100
AcDbEntity
8
Geo
100
AcDbLine
10
-73.8665893271461
20
-1.50696055684443
30
0.000000000000000
11
-73.8665893271461
21
-4.50696055684443
31
0.000000000000000
  0
LINE
  5
F103C5
330
F103C6
100
AcDbEntity
8
Geo
100
AcDbLine
10
-73.8665893271461
20
-1.60696055684443
30
0.000000000000000
11
-73.8665893271461
21
-4.40696055684443
31
0.000000000000000
  0
LINE
  5
F103C7
330
F103C8
100
AcDbEntity
8
Geo
100
AcDbLine
10
-72.8665893271461
20
-1.60696055684443
30
0.000000000000000
11
-72.8665893271461
21
-4.40696055684443
31
0.000000000000000
  0
LINE
  5
F103C9
330
F103CA
100
AcDbEntity
8
Geo
100
AcDbLine
10
-66.8953080350359
20
-0.00696055684443309
30
0.000000000000000
11
-66.8953080350359
21
-6.00696055684443
31
0.000000000000000
  0
LINE
  5
F103CB
330
F103CC
100
AcDbEntity
8
Geo
100
AcDbLine
10
-66.8953080350359
20
-0.00696055684443309
30
0.000000000000000
11
-66.8953080350359
21
-6.00696055684443
31
0.000000000000000
  0
LINE
  5
F103CD
330
F103CE
100
AcDbEntity
8
Geo
100
AcDbLine
10
-31.3665893271461
20
-0.00696055684443309
30
0.000000000000000
11
-31.3665893271461
21
-6.00696055684443
31
0.000000000000000
  0
LINE
  5
F103CF
330
F103D0
100
AcDbEntity
8
Geo
100
AcDbLine
10
-30.8665893271461
20
-0.506960556844433
30
0.000000000000000
11
-30.8665893271461
21
-5.50696055684443
31
0.000000000000000
  0
LWPOLYLINE
  5
F103D1
330
F103D2
100
AcDbEntity
8
Rahmen
100
AcDbPolyline
90
   4
70
   1
43
   0.0
 10
-125.540603248260
 20
102.988399071926
 10
134.310904872390
 20
102.988399071926
 10
134.310904872390
 20
-103.238979118329
 10
-125.540603248260
 20
-103.238979118329
  0
TEXT
  5
F103D3
330
F103D4
 100
AcDbEntity
8
Text
100
AcDbText
10
-124.538283062645
20
-102.738979118329
30
0.000000000000000
40
1.00000000000000
1
ISBESketcher
100
AcDbText
  0
LWPOLYLINE
  5
F103D5
330
F103D6
100
AcDbEntity
8
Rahmen
100
AcDbPolyline
90
   4
70
   1
43
   0.0
 10
94.4686774941995
 20
-100.232018561485
 10
134.310904872390
 20
-100.232018561485
 10
134.310904872390
 20
-103.238979118329
 10
94.4686774941995
 20
-103.238979118329
  0
TEXT
  5
F103D7
330
F103D8
 100
AcDbEntity
8
Text
100
AcDbText
10
95.5000000000000
20
-102.001740139211
30
0.000000000000000
40
0.750000000000000
1
Created by:
100
AcDbText
  0
TEXT
  5
F103D9
330
F103DA
 100
AcDbEntity
8
Text
100
AcDbText
10
120.119489559165
20
-102.001740139211
30
0.000000000000000
40
0.750000000000000
1
nsarkol
100
AcDbText
  0
LWPOLYLINE
  5
F103DB
330
F103DC
100
AcDbEntity
8
Rahmen
100
AcDbPolyline
90
   4
70
   1
43
   0.0
 10
54.3758700696056
 20
-100.232018561485
 10
94.4686774941995
 20
-100.232018561485
 10
94.4686774941995
 20
-103.238979118329
 10
54.3758700696056
 20
-103.238979118329
  0
TEXT
  5
F103DD
330
F103DE
 100
AcDbEntity
8
Text
100
AcDbText
10
55.5000000000000
20
-102.001740139211
30
0.000000000000000
40
0.750000000000000
1
Created for:
100
AcDbText
  0
TEXT
  5
F103DF
330
F103E0
 100
AcDbEntity
8
Text
100
AcDbText
10
0.000000000000000
20
0.250000000000000
30
0.000000000000000
40
0.750000000000000
1

100
AcDbText
  0
LWPOLYLINE
  5
F103E1
330
F103E2
100
AcDbEntity
8
Rahmen
100
AcDbPolyline
90
   4
70
   1
43
   0.0
 10
121.030162412993
 20
-97.2250580046404
 10
134.310904872390
 20
-97.2250580046404
 10
134.310904872390
 20
-100.232018561485
 10
121.030162412993
 20
-100.232018561485
  0
TEXT
  5
F103E3
330
F103E4
 100
AcDbEntity
8
Text
100
AcDbText
10
122.166666666667
20
-99.0017401392111
30
0.000000000000000
40
0.750000000000000
1
Pages
100
AcDbText
  0
TEXT
  5
F103E5
330
F103E6
 100
AcDbEntity
8
Text
100
AcDbText
10
0.000000000000000
20
0.250000000000000
30
0.000000000000000
40
0.750000000000000
1

100
AcDbText
  0
LWPOLYLINE
  5
F103E7
330
F103E8
100
AcDbEntity
8
Rahmen
100
AcDbPolyline
90
   4
70
   1
43
   0.0
 10
121.030162412993
 20
-94.2180974477958
 10
134.310904872390
 20
-94.2180974477958
 10
134.310904872390
 20
-97.2250580046404
 10
121.030162412993
 20
-97.2250580046404
  0
TEXT
  5
F103E9
330
F103EA
 100
AcDbEntity
8
Text
100
AcDbText
10
122.166666666667
20
-96.0017401392111
30
0.000000000000000
40
0.750000000000000
1
Page
100
AcDbText
  0
TEXT
  5
F103EB
330
F103EC
 100
AcDbEntity
8
Text
100
AcDbText
10
0.000000000000000
20
0.250000000000000
30
0.000000000000000
40
0.750000000000000
1

100
AcDbText
  0
LWPOLYLINE
  5
F103ED
330
F103EE
100
AcDbEntity
8
Rahmen
100
AcDbPolyline
90
   4
70
   1
43
   0.0
 10
54.3758700696056
 20
-94.2180974477958
 10
121.030162412993
 20
-94.2180974477958
 10
121.030162412993
 20
-100.232018561485
 10
54.3758700696056
 20
-100.232018561485
  0
TEXT
  5
F103EF
330
F103F0
 100
AcDbEntity
8
Text
100
AcDbText
10
55.5000000000000
20
-96.0017401392111
30
0.000000000000000
40
0.750000000000000
1
Date:
100
AcDbText
  0
TEXT
  5
F103F1
330
F103F2
 100
AcDbEntity
8
Text
100
AcDbText
10
84.4505027068832
20
-99.0017401392111
30
0.000000000000000
40
0.750000000000000
1
05.07.2016
100
AcDbText
  0
LWPOLYLINE
  5
F103F3
330
F103F4
100
AcDbEntity
8
Rahmen
100
AcDbPolyline
90
   4
70
   1
43
   0.0
 10
54.3758700696056
 20
-88.2041763341067
 10
134.310904872390
 20
-88.2041763341067
 10
134.310904872390
 20
-94.2180974477958
 10
54.3758700696056
 20
-94.2180974477958
  0
TEXT
  5
F103F5
330
F103F6
 100
AcDbEntity
8
Text
100
AcDbText
10
0.000000000000000
20
0.500000000000000
30
0.000000000000000
40
1.50000000000000
1

100
AcDbText
  0
TEXT
  5
F103F7
330
F103F8
 100
AcDbEntity
8
Text
100
AcDbText
10
67.5626450116009
20
-92.5471771075019
30
0.000000000000000
40
2.50000000000000
1
VHRS 5 030 051 06 03 020 L
100
AcDbText
  0
LWPOLYLINE
  5
F103F9
330
F103FA
100
AcDbEntity
8
Rahmen
100
AcDbPolyline
90
   4
70
   1
43
   0.0
 10
94.4686774941995
 20
-82.1902552204176
 10
134.310904872390
 20
-82.1902552204176
 10
134.310904872390
 20
-88.2041763341067
 10
94.4686774941995
 20
-88.2041763341067
  0
TEXT
  5
F103FB
330
F103FC
 100
AcDbEntity
8
Text
100
AcDbText
10
95.5000000000000
20
-84.0017401392111
30
0.000000000000000
40
0.750000000000000
1
Work piece material:
100
AcDbText
  0
TEXT
  5
F103FD
330
F103FE
 100
AcDbEntity
8
Text
100
AcDbText
10
0.000000000000000
20
0.250000000000000
30
0.000000000000000
40
0.750000000000000
1

100
AcDbText
  0
LWPOLYLINE
  5
F103FF
330
F10400
100
AcDbEntity
8
Rahmen
100
AcDbPolyline
90
   4
70
   1
43
   0.0
 10
54.3758700696056
 20
-82.1902552204176
 10
94.4686774941995
 20
-82.1902552204176
 10
94.4686774941995
 20
-88.2041763341067
 10
54.3758700696056
 20
-88.2041763341067
  0
TEXT
  5
F10401
330
F10402
 100
AcDbEntity
8
Text
100
AcDbText
10
55.5000000000000
20
-84.0017401392111
30
0.000000000000000
40
0.750000000000000
1
Tool material:
100
AcDbText
  0
TEXT
  5
F10403
330
F10404
 100
AcDbEntity
8
Text
100
AcDbText
10
0.000000000000000
20
0.250000000000000
30
0.000000000000000
40
0.750000000000000
1

100
AcDbText
  0
LWPOLYLINE
  5
F10405
330
F10406
100
AcDbEntity
8
Rahmen
100
AcDbPolyline
90
   4
70
   1
43
   0.0
 10
94.4686774941995
 20
-79.1832946635731
 10
134.310904872390
 20
-79.1832946635731
 10
134.310904872390
 20
-82.1902552204176
 10
94.4686774941995
 20
-82.1902552204176
  0
TEXT
  5
F10407
330
F10408
 100
AcDbEntity
8
Text
100
AcDbText
10
0.000000000000000
20
0.500000000000000
30
0.000000000000000
40
1.50000000000000
1

100
AcDbText
  0
TEXT
  5
F10409
330
F1040A
 100
AcDbEntity
8
Text
100
AcDbText
10
0.000000000000000
20
0.250000000000000
30
0.000000000000000
40
0.750000000000000
1

100
AcDbText
  0
LWPOLYLINE
  5
F1040B
330
F1040C
100
AcDbEntity
8
Rahmen
100
AcDbPolyline
90
   4
70
   1
43
   0.0
 10
54.3758700696056
 20
-79.1832946635731
 10
94.4686774941995
 20
-79.1832946635731
 10
94.4686774941995
 20
-82.1902552204176
 10
54.3758700696056
 20
-82.1902552204176
  0
TEXT
  5
F1040D
330
F1040E
 100
AcDbEntity
8
Text
100
AcDbText
10
55.5000000000000
20
-81.0017401392111
30
0.000000000000000
40
0.750000000000000
1
Scale:
100
AcDbText
  0
TEXT
  5
F1040F
330
F10410
 100
AcDbEntity
8
Text
100
AcDbText
10
81.2470997679814
20
-81.0017401392111
30
0.000000000000000
40
0.750000000000000
1
3 : 1
100
AcDbText
0
VIEWPORT
5
294
102
{ACAD_XDICTIONARY
360
58A
102
}
330
25D
100
AcDbEntity
67
1
8
0
60
1
100
AcDbViewport
10
0.0
20
0.0
30
0.0
40
10.0
41
10.0
68
-1
69
1
12
0.0
22
0.0
13
0.0
23
0.0
14
1.0
24
1.0
15
0.0
25
0.0
16
0.0
26
0.0
36
1.0
17
0.0
27
0.0
37
0.0
42
0.0
43
0.0
44
0.0
45
10.0
50
0.0
51
0.0000000000007958
72
100
90
32800
1

281
0
71
0
74
0
110
0.0
120
0.0
130
0.0
111
1.0
121
0.0
131
0.0
112
0.0
122
1.0
132
0.0
79
0
146
0.0
1001
VD_INVISIBLE_NOT_FOR_READ
1000
VD_INVISIBLE_NOT_FOR_READ
0
VIEWPORT
5
295
102
{ACAD_XDICTIONARY
360
58C
102
}
330
25D
100
AcDbEntity
67
1
8
0
60
1
100
AcDbViewport
10
0.0
20
0.0
30
0.0
40
10.0
41
10.0
68
0
69
2
12
0.0
22
0.0
13
0.0
23
0.0
14
1.0
24
1.0
15
0.0
25
0.0
16
0.0
26
0.0
36
1.0
17
0.0
27
0.0
37
0.0
42
0.0
43
0.0
44
0.0
45
10.0
50
0.0
51
0.0000000000007958
72
100
90
163872
1

281
0
71
0
74
0
110
0.0
120
0.0
130
0.0
111
1.0
121
0.0
131
0.0
112
0.0
122
1.0
132
0.0
79
0
146
0.0
1001
VD_INVISIBLE_NOT_FOR_READ
1000
VD_INVISIBLE_NOT_FOR_READ
0
ENDSEC
0
SECTION
2
OBJECTS
0
DICTIONARY
5
13
330
0
100
AcDbDictionary
281
1
3
ACAD_COLOR
350
FA7
3
ACAD_GROUP
350
14
3
ACAD_LAYOUT
350
FCF
3
ACAD_MATERIAL
350
F7A
3
ACAD_MLEADERSTYLE
350
FCD
3
ACAD_MLINESTYLE
350
16
3
ACAD_PLOTSETTINGS
350
17
3
ACAD_PLOTSTYLENAME
350
18
3
ACAD_SCALELIST
350
FAB
3
ACAD_TABLESTYLE
350
FA8
3
ACAD_VISUALSTYLE
350
F93
3
ACDB_RECOMPOSE_DATA
350
107E
3
AcDbVariableDictionary
350
FF0
3
DWGPROPS
350
107F
0
DICTIONARY
5
F10019
330
F10018
100
AcDbDictionary
280
1
281
1
3
ACAD_MTEXT_2008_RT
360
F1001A
0
DICTIONARY
5
F10023
330
F10022
100
AcDbDictionary
280
1
281
1
3
ACAD_MTEXT_2008_RT
360
F10024
0
DICTIONARY
5
F1002D
330
F1002C
100
AcDbDictionary
280
1
281
1
3
ACAD_MTEXT_2008_RT
360
F1002E
0
DICTIONARY
5
F10032
330
F10031
100
AcDbDictionary
280
1
281
1
3
ACAD_MTEXT_2008_RT
360
F10033
0
DICTIONARY
5
F10005
330
F10004
100
AcDbDictionary
280
1
281
1
3
ACAD_MTEXT_2008_RT
360
F10006
0
DICTIONARY
5
F1001E
330
F1001D
100
AcDbDictionary
280
1
281
1
3
ACAD_MTEXT_2008_RT
360
F1001F
0
DICTIONARY
5
F1000F
330
F1000E
100
AcDbDictionary
280
1
281
1
3
ACAD_MTEXT_2008_RT
360
F10010
0
DICTIONARY
5
F1000A
330
F10009
100
AcDbDictionary
280
1
281
1
3
ACAD_MTEXT_2008_RT
360
F1000B
0
DICTIONARY
5
F10014
330
F10013
100
AcDbDictionary
280
1
281
1
3
ACAD_MTEXT_2008_RT
360
F10015
0
DICTIONARY
5
F10028
330
F10027
100
AcDbDictionary
280
1
281
1
3
ACAD_MTEXT_2008_RT
360
F10029
0
DICTIONARY
5
FA7
102
{ACAD_REACTORS
330
13
102
}
330
13
100
AcDbDictionary
281
1
0
DICTIONARY
5
14
330
13
100
AcDbDictionary
281
1
0
DICTIONARY
5
FCF
102
{ACAD_REACTORS
330
13
102
}
330
13
100
AcDbDictionary
281
1
3
Layout1
350
FD1
3
Model
350
FD0
0
DICTIONARY
5
F7A
102
{ACAD_REACTORS
330
13
102
}
330
13
100
AcDbDictionary
281
1
3
ByBlock
350
F83
3
ByLayer
350
F7B
3
Global
350
F8B
0
DICTIONARY
5
FCD
102
{ACAD_REACTORS
330
13
102
}
330
13
100
AcDbDictionary
281
1
3
Standard
350
FCE
0
DICTIONARY
5
16
330
13
100
AcDbDictionary
281
1
3
Standard
350
FAA
0
DICTIONARY
5
17
102
{ACAD_REACTORS
330
13
102
}
330
13
100
AcDbDictionary
281
1
0
ACDBDICTIONARYWDFLT
5
18
102
{ACAD_REACTORS
330
13
102
}
330
13
100
AcDbDictionary
281
1
3
Normal
350
19
100
AcDbDictionaryWithDefault
340
19
0
DICTIONARY
5
FAB
102
{ACAD_REACTORS
330
13
102
}
330
13
100
AcDbDictionary
281
1
3
A0
350
FAC
3
A1
350
FAD
3
A2
350
FAE
3
A3
350
FAF
3
A4
350
FB0
3
A5
350
FB1
3
A6
350
FB2
3
A7
350
FB3
3
A8
350
FB4
3
A9
350
FB5
3
B0
350
FB6
3
B1
350
FB7
3
B2
350
FB8
3
B3
350
FB9
3
B4
350
FBA
3
B5
350
FBB
3
B6
350
FBC
3
B7
350
FBD
3
B8
350
FBE
3
B9
350
FBF
3
C0
350
FC0
3
C1
350
FC1
3
C2
350
FC2
3
C3
350
FC3
3
C4
350
FC4
3
C5
350
FC5
3
C6
350
FC6
3
C7
350
FC7
3
C8
350
FC8
3
C9
350
FC9
3
D0
350
FCA
3
D1
350
FCB
3
D2
350
FCC
0
DICTIONARY
5
FA8
102
{ACAD_REACTORS
330
13
102
}
330
13
100
AcDbDictionary
281
1
3
Standard
350
FA9
0
DICTIONARY
5
F93
102
{ACAD_REACTORS
330
13
102
}
330
13
100
AcDbDictionary
281
1
3
2dWireframe
350
F99
3
3D Hidden
350
F9B
3
3dWireframe
350
F9A
3
Basic
350
F98
3
Brighten
350
F9F
3
ColorChange
350
FA3
3
Conceptual
350
F9C
3
Dim
350
F9E
3
EdgeColorOff
350
FA6
3
Facepattern
350
FA2
3
Flat
350
F94
3
FlatWithEdges
350
F95
3
Gouraud
350
F96
3
GouraudWithEdges
350
F97
3
JitterOff
350
FA4
3
Linepattern
350
FA1
3
OverhangOff
350
FA5
3
Realistic
350
F9D
3
Thicken
350
FA0
0
XRECORD
5
107E
102
{ACAD_REACTORS
330
13
102
}
330
13
100
AcDbXrecord
280
1
90
1
330
FA9
330
F10018
330
F10022
330
F1002C
330
F10031
330
F10004
330
F1001D
330
F1000E
330
F10009
330
F10013
330
F10027
0
XRECORD
5
F1001A
102
{ACAD_REACTORS
330
F10019
102
}
330
F10019
100
AcDbXrecord
280
1
40
48458.0
1
9
0
XRECORD
5
F10024
102
{ACAD_REACTORS
330
F10023
102
}
330
F10023
100
AcDbXrecord
280
1
40
48458.0
1
36.029
0
XRECORD
5
F1002E
102
{ACAD_REACTORS
330
F1002D
102
}
330
F1002D
100
AcDbXrecord
280
1
40
48458.0
1
8
0
XRECORD
5
F10033
102
{ACAD_REACTORS
330
F10032
102
}
330
F10032
100
AcDbXrecord
280
1
40
48458.0
1
51
0
XRECORD
5
F10006
102
{ACAD_REACTORS
330
F10005
102
}
330
F10005
100
AcDbXrecord
280
1
40
48458.0
1
2°
0
XRECORD
5
F1001F
102
{ACAD_REACTORS
330
F1001E
102
}
330
F1001E
100
AcDbXrecord
280
1
40
48458.0
1
15°
0
XRECORD
5
F10010
102
{ACAD_REACTORS
330
F1000F
102
}
330
F1000F
100
AcDbXrecord
280
1
40
48458.0
1
R0.2
0
XRECORD
5
F1000B
102
{ACAD_REACTORS
330
F1000A
102
}
330
F1000A
100
AcDbXrecord
280
1
40
48458.0
1
3
0
XRECORD
5
F10015
102
{ACAD_REACTORS
330
F10014
102
}
330
F10014
100
AcDbXrecord
280
1
40
48458.0
1
2.8
0
LAYOUT
5
FD1
102
{ACAD_XDICTIONARY
360
10A9
102
}
102
{ACAD_REACTORS
330
FCF
102
}
330
FCF
100
AcDbPlotSettings
1

2
Microsoft XPS Document Writer
4

6

40
0.0
41
0.0
42
0.0
43
0.0
44
0.0
45
0.0
46
0.0
47
0.0
48
0.0
49
0.0
140
0.0
141
0.0
142
1.0
143
1.0
70
688
72
0
73
0
74
5
7

75
16
147
1.0
148
0.0
149
0.0
100
AcDbLayout
1
Layout1
70
1
71
1
10
0.0
20
0.0
11
12.0
21
9.0
12
0.0
22
0.0
32
0.0
14
1.000000000000000E+20
24
1.000000000000000E+20
34
1.000000000000000E+20
15
-1.000000000000000E+20
25
-1.000000000000000E+20
35
-1.000000000000000E+20
146
0.0
13
0.0
23
0.0
33
0.0
16
1.0
26
0.0
36
0.0
17
0.0
27
1.0
37
0.0
76
0
330
25D
0
LAYOUT
5
FD0
102
{ACAD_XDICTIONARY
360
10A7
102
}
102
{ACAD_REACTORS
330
FCF
102
}
330
FCF
100
AcDbPlotSettings
1

2
Microsoft XPS Document Writer
4

6

40
0.0
41
0.0
42
0.0
43
0.0
44
0.0
45
0.0
46
0.0
47
0.0
48
0.0
49
0.0
140
0.0
141
0.0
142
1.0
143
1.0
70
1712
72
0
73
0
74
0
7

75
0
147
1.0
148
0.0
149
0.0
100
AcDbLayout
1
Model
70
1
71
0
10
0.0
20
0.0
11
12.0
21
9.0
12
0.0
22
0.0
32
0.0
14
0.0
24
0.0
34
0.0
15
0.0
25
0.0
35
0.0
146
0.0
13
0.0
23
0.0
33
0.0
16
1.0
26
0.0
36
0.0
17
0.0
27
1.0
37
0.0
76
0
330
261
331
26B
0
MATERIAL
5
F83
102
{ACAD_XDICTIONARY
360
F84
102
}
102
{ACAD_REACTORS
330
F7A
102
}
330
F7A
100
AcDbMaterial
1
ByBlock
72
0
43
0.0208333333333333
43
0.0
43
0.0
43
0.0
43
0.0
43
0.0208333333333333
43
0.0
43
0.0
43
0.0
43
0.0
43
1.0
43
0.0
43
0.0
43
0.0
43
0.0
43
1.0
77
0
47
0.0208333333333333
47
0.0
47
0.0
47
0.0
47
0.0
47
0.0208333333333333
47
0.0
47
0.0
47
0.0
47
0.0
47
1.0
47
0.0
47
0.0
47
0.0
47
0.0
47
1.0
171
0
49
0.0208333333333333
49
0.0
49
0.0
49
0.0
49
0.0
49
0.0208333333333333
49
0.0
49
0.0
49
0.0
49
0.0
49
1.0
49
0.0
49
0.0
49
0.0
49
0.0
49
1.0
175
0
142
0.0208333333333333
142
0.0
142
0.0
142
0.0
142
0.0
142
0.0208333333333333
142
0.0
142
0.0
142
0.0
142
0.0
142
1.0
142
0.0
142
0.0
142
0.0
142
0.0
142
1.0
179
0
144
0.0208333333333333
144
0.0
144
0.0
144
0.0
144
0.0
144
0.0208333333333333
144
0.0
144
0.0
144
0.0
144
0.0
144
1.0
144
0.0
144
0.0
144
0.0
144
0.0
144
1.0
147
0.0208333333333333
147
0.0
147
0.0
147
0.0
147
0.0
147
0.0208333333333333
147
0.0
147
0.0
147
0.0
147
0.0
147
1.0
147
0.0
147
0.0
147
0.0
147
0.0
147
1.0
0
MATERIAL
5
F7B
102
{ACAD_XDICTIONARY
360
F7C
102
}
102
{ACAD_REACTORS
330
F7A
102
}
330
F7A
100
AcDbMaterial
1
ByLayer
72
0
43
0.0208333333333333
43
0.0
43
0.0
43
0.0
43
0.0
43
0.0208333333333333
43
0.0
43
0.0
43
0.0
43
0.0
43
1.0
43
0.0
43
0.0
43
0.0
43
0.0
43
1.0
77
0
47
0.0208333333333333
47
0.0
47
0.0
47
0.0
47
0.0
47
0.0208333333333333
47
0.0
47
0.0
47
0.0
47
0.0
47
1.0
47
0.0
47
0.0
47
0.0
47
0.0
47
1.0
171
0
49
0.0208333333333333
49
0.0
49
0.0
49
0.0
49
0.0
49
0.0208333333333333
49
0.0
49
0.0
49
0.0
49
0.0
49
1.0
49
0.0
49
0.0
49
0.0
49
0.0
49
1.0
175
0
142
0.0208333333333333
142
0.0
142
0.0
142
0.0
142
0.0
142
0.0208333333333333
142
0.0
142
0.0
142
0.0
142
0.0
142
1.0
142
0.0
142
0.0
142
0.0
142
0.0
142
1.0
179
0
144
0.0208333333333333
144
0.0
144
0.0
144
0.0
144
0.0
144
0.0208333333333333
144
0.0
144
0.0
144
0.0
144
0.0
144
1.0
144
0.0
144
0.0
144
0.0
144
0.0
144
1.0
147
0.0208333333333333
147
0.0
147
0.0
147
0.0
147
0.0
147
0.0208333333333333
147
0.0
147
0.0
147
0.0
147
0.0
147
1.0
147
0.0
147
0.0
147
0.0
147
0.0
147
1.0
0
MATERIAL
5
F8B
102
{ACAD_XDICTIONARY
360
F8C
102
}
102
{ACAD_REACTORS
330
F7A
102
}
330
F7A
100
AcDbMaterial
1
Global
72
0
43
0.0208333333333333
43
0.0
43
0.0
43
0.0
43
0.0
43
0.0208333333333333
43
0.0
43
0.0
43
0.0
43
0.0
43
1.0
43
0.0
43
0.0
43
0.0
43
0.0
43
1.0
77
0
47
0.0208333333333333
47
0.0
47
0.0
47
0.0
47
0.0
47
0.0208333333333333
47
0.0
47
0.0
47
0.0
47
0.0
47
1.0
47
0.0
47
0.0
47
0.0
47
0.0
47
1.0
171
0
49
0.0208333333333333
49
0.0
49
0.0
49
0.0
49
0.0
49
0.0208333333333333
49
0.0
49
0.0
49
0.0
49
0.0
49
1.0
49
0.0
49
0.0
49
0.0
49
0.0
49
1.0
175
0
142
0.0208333333333333
142
0.0
142
0.0
142
0.0
142
0.0
142
0.0208333333333333
142
0.0
142
0.0
142
0.0
142
0.0
142
1.0
142
0.0
142
0.0
142
0.0
142
0.0
142
1.0
179
0
144
0.0208333333333333
144
0.0
144
0.0
144
0.0
144
0.0
144
0.0208333333333333
144
0.0
144
0.0
144
0.0
144
0.0
144
1.0
144
0.0
144
0.0
144
0.0
144
0.0
144
1.0
147
0.0208333333333333
147
0.0
147
0.0
147
0.0
147
0.0
147
0.0208333333333333
147
0.0
147
0.0
147
0.0
147
0.0
147
1.0
147
0.0
147
0.0
147
0.0
147
0.0
147
1.0
0
MLEADERSTYLE
5
FCE
102
{ACAD_REACTORS
330
FCD
102
}
330
FCD
100
AcDbMLeaderStyle
170
2
171
1
172
0
90
2
40
0.0
41
0.0
173
1
91
-1056964608
340
256
92
-2
290
1
42
0.09
291
1
43
0.36
3
Standard
44
0.18
300

342
253
174
1
178
6
175
1
176
0
93
-1056964608
45
0.18
292
0
297
0
46
0.18
94
-1056964608
47
1.0
49
1.0
140
1.0
293
1
141
0.0
294
1
177
0
142
1.0
295
0
296
0
143
0.125
1001
ACAD_MLEADERVER
1070
2
0
MLINESTYLE
5
FAA
102
{ACAD_REACTORS
330
16
102
}
330
16
100
AcDbMlineStyle
2
STANDARD
70
0
3

62
256
51
90.0
52
90.0
71
2
49
0.5
62
256
6
BYLAYER
49
-0.5
62
256
6
BYLAYER
0
ACDBPLACEHOLDER
5
19
102
{ACAD_REACTORS
330
18
102
}
330
18
0
SCALE
5
FAC
102
{ACAD_REACTORS
330
FAB
102
}
330
FAB
100
AcDbScale
70
0
300
1:1
140
1.0
141
1.0
290
1
0
SCALE
5
FAD
102
{ACAD_REACTORS
330
FAB
102
}
330
FAB
100
AcDbScale
70
0
300
1:2
140
1.0
141
2.0
290
0
0
SCALE
5
FAE
102
{ACAD_REACTORS
330
FAB
102
}
330
FAB
100
AcDbScale
70
0
300
1:4
140
1.0
141
4.0
290
0
0
SCALE
5
FAF
102
{ACAD_REACTORS
330
FAB
102
}
330
FAB
100
AcDbScale
70
0
300
1:5
140
1.0
141
5.0
290
0
0
SCALE
5
FB0
102
{ACAD_REACTORS
330
FAB
102
}
330
FAB
100
AcDbScale
70
0
300
1:8
140
1.0
141
8.0
290
0
0
SCALE
5
FB1
102
{ACAD_REACTORS
330
FAB
102
}
330
FAB
100
AcDbScale
70
0
300
1:10
140
1.0
141
10.0
290
0
0
SCALE
5
FB2
102
{ACAD_REACTORS
330
FAB
102
}
330
FAB
100
AcDbScale
70
0
300
1:16
140
1.0
141
16.0
290
0
0
SCALE
5
FB3
102
{ACAD_REACTORS
330
FAB
102
}
330
FAB
100
AcDbScale
70
0
300
1:20
140
1.0
141
20.0
290
0
0
SCALE
5
FB4
102
{ACAD_REACTORS
330
FAB
102
}
330
FAB
100
AcDbScale
70
0
300
1:30
140
1.0
141
30.0
290
0
0
SCALE
5
FB5
102
{ACAD_REACTORS
330
FAB
102
}
330
FAB
100
AcDbScale
70
0
300
1:40
140
1.0
141
40.0
290
0
0
SCALE
5
FB6
102
{ACAD_REACTORS
330
FAB
102
}
330
FAB
100
AcDbScale
70
0
300
1:50
140
1.0
141
50.0
290
0
0
SCALE
5
FB7
102
{ACAD_REACTORS
330
FAB
102
}
330
FAB
100
AcDbScale
70
0
300
1:100
140
1.0
141
100.0
290
0
0
SCALE
5
FB8
102
{ACAD_REACTORS
330
FAB
102
}
330
FAB
100
AcDbScale
70
0
300
2:1
140
2.0
141
1.0
290
0
0
SCALE
5
FB9
102
{ACAD_REACTORS
330
FAB
102
}
330
FAB
100
AcDbScale
70
0
300
4:1
140
4.0
141
1.0
290
0
0
SCALE
5
FBA
102
{ACAD_REACTORS
330
FAB
102
}
330
FAB
100
AcDbScale
70
0
300
8:1
140
8.0
141
1.0
290
0
0
SCALE
5
FBB
102
{ACAD_REACTORS
330
FAB
102
}
330
FAB
100
AcDbScale
70
0
300
10:1
140
10.0
141
1.0
290
0
0
SCALE
5
FBC
102
{ACAD_REACTORS
330
FAB
102
}
330
FAB
100
AcDbScale
70
0
300
100:1
140
100.0
141
1.0
290
0
0
SCALE
5
FBD
102
{ACAD_REACTORS
330
FAB
102
}
330
FAB
100
AcDbScale
70
0
300
1/128" = 1'-0"
140
0.0078125
141
12.0
290
0
0
SCALE
5
FBE
102
{ACAD_REACTORS
330
FAB
102
}
330
FAB
100
AcDbScale
70
0
300
1/64" = 1'-0"
140
0.015625
141
12.0
290
0
0
SCALE
5
FBF
102
{ACAD_REACTORS
330
FAB
102
}
330
FAB
100
AcDbScale
70
0
300
1/32" = 1'-0"
140
0.03125
141
12.0
290
0
0
SCALE
5
FC0
102
{ACAD_REACTORS
330
FAB
102
}
330
FAB
100
AcDbScale
70
0
300
1/16" = 1'-0"
140
0.0625
141
12.0
290
0
0
SCALE
5
FC1
102
{ACAD_REACTORS
330
FAB
102
}
330
FAB
100
AcDbScale
70
0
300
3/32" = 1'-0"
140
0.09375
141
12.0
290
0
0
SCALE
5
FC2
102
{ACAD_REACTORS
330
FAB
102
}
330
FAB
100
AcDbScale
70
0
300
1/8" = 1'-0"
140
0.125
141
12.0
290
0
0
SCALE
5
FC3
102
{ACAD_REACTORS
330
FAB
102
}
330
FAB
100
AcDbScale
70
0
300
3/16" = 1'-0"
140
0.1875
141
12.0
290
0
0
SCALE
5
FC4
102
{ACAD_REACTORS
330
FAB
102
}
330
FAB
100
AcDbScale
70
0
300
1/4" = 1'-0"
140
0.25
141
12.0
290
0
0
SCALE
5
FC5
102
{ACAD_REACTORS
330
FAB
102
}
330
FAB
100
AcDbScale
70
0
300
3/8" = 1'-0"
140
0.375
141
12.0
290
0
0
SCALE
5
FC6
102
{ACAD_REACTORS
330
FAB
102
}
330
FAB
100
AcDbScale
70
0
300
1/2" = 1'-0"
140
0.5
141
12.0
290
0
0
SCALE
5
FC7
102
{ACAD_REACTORS
330
FAB
102
}
330
FAB
100
AcDbScale
70
0
300
3/4" = 1'-0"
140
0.75
141
12.0
290
0
0
SCALE
5
FC8
102
{ACAD_REACTORS
330
FAB
102
}
330
FAB
100
AcDbScale
70
0
300
1" = 1'-0"
140
1.0
141
12.0
290
0
0
SCALE
5
FC9
102
{ACAD_REACTORS
330
FAB
102
}
330
FAB
100
AcDbScale
70
0
300
1-1/2" = 1'-0"
140
1.5
141
12.0
290
0
0
SCALE
5
FCA
102
{ACAD_REACTORS
330
FAB
102
}
330
FAB
100
AcDbScale
70
0
300
3" = 1'-0"
140
3.0
141
12.0
290
0
0
SCALE
5
FCB
102
{ACAD_REACTORS
330
FAB
102
}
330
FAB
100
AcDbScale
70
0
300
6" = 1'-0"
140
6.0
141
12.0
290
0
0
SCALE
5
FCC
102
{ACAD_REACTORS
330
FAB
102
}
330
FAB
100
AcDbScale
70
0
300
1'-0" = 1'-0"
140
12.0
141
12.0
290
0
0
TABLESTYLE
5
FA9
102
{ACAD_XDICTIONARY
360
FF8
102
}
102
{ACAD_REACTORS
330
FA8
102
}
330
FA8
100
AcDbTableStyle
3
Standard
70
0
71
0
40
0.06
41
0.06
280
0
281
0
7
Standard
140
0.18
170
2
62
0
63
7
283
0
274
-2
284
1
64
0
275
-2
285
1
65
0
276
-2
286
1
66
0
277
-2
287
1
67
0
278
-2
288
1
68
0
279
-2
289
1
69
0
7
Standard
140
0.25
170
5
62
0
63
7
283
0
274
-2
284
1
64
0
275
-2
285
1
65
0
276
-2
286
1
66
0
277
-2
287
1
67
0
278
-2
288
1
68
0
279
-2
289
1
69
0
7
Standard
140
0.18
170
5
62
0
63
7
283
0
274
-2
284
1
64
0
275
-2
285
1
65
0
276
-2
286
1
66
0
277
-2
287
1
67
0
278
-2
288
1
68
0
279
-2
289
1
69
0
0
VISUALSTYLE
5
F99
102
{ACAD_XDICTIONARY
360
108A
102
}
102
{ACAD_REACTORS
330
F93
102
}
330
F93
100
AcDbVisualStyle
2

70
4
71
0
72
2
73
0
90
0
40
-0.6
41
-30.0
62
5
63
7
74
1
91
4
64
7
65
257
75
1
175
1
42
1.0
92
0
66
257
43
1.0
76
1
77
6
78
2
67
7
79
5
170
0
171
0
290
0
174
0
93
1
44
0.0
173
0
291
0
45
0.0
1001
ACAD
1000
AcDbSavedByObjectVersion
1070
0
0
VISUALSTYLE
5
F9B
102
{ACAD_XDICTIONARY
360
108E
102
}
102
{ACAD_REACTORS
330
F93
102
}
330
F93
100
AcDbVisualStyle
2

70
6
71
1
72
2
73
2
90
0
40
-0.6
41
-30.0
62
5
63
7
74
2
91
2
64
7
65
257
75
2
175
1
42
179.0
92
0
66
257
43
1.0
76
1
77
6
78
2
67
7
79
3
170
0
171
0
290
0
174
0
93
1
44
0.0
173
0
291
0
45
0.0
1001
ACAD
1000
AcDbSavedByObjectVersion
1070
0
0
VISUALSTYLE
5
F9A
102
{ACAD_XDICTIONARY
360
108C
102
}
102
{ACAD_REACTORS
330
F93
102
}
330
F93
100
AcDbVisualStyle
2

70
5
71
0
72
2
73
0
90
0
40
-0.6
41
-30.0
62
5
63
7
74
1
91
4
64
7
65
257
75
1
175
1
42
1.0
92
0
66
257
43
1.0
76
1
77
6
78
2
67
7
79
5
170
0
171
0
290
0
174
0
93
1
44
0.0
173
0
291
0
45
0.0
1001
ACAD
1000
AcDbSavedByObjectVersion
1070
0
0
VISUALSTYLE
5
F98
102
{ACAD_XDICTIONARY
360
1088
102
}
102
{ACAD_REACTORS
330
F93
102
}
330
F93
100
AcDbVisualStyle
2

70
7
71
1
72
0
73
1
90
0
40
-0.6
41
-30.0
62
5
63
7
74
0
91
4
64
7
65
257
75
1
175
1
42
1.0
92
8
66
7
43
1.0
76
1
77
6
78
2
67
7
79
5
170
0
171
0
290
0
174
0
93
1
44
0.0
173
0
291
1
45
0.0
1001
ACAD
1000
AcDbSavedByObjectVersion
1070
0
0
VISUALSTYLE
5
F9F
102
{ACAD_XDICTIONARY
360
1096
102
}
102
{ACAD_REACTORS
330
F93
102
}
330
F93
100
AcDbVisualStyle
2

70
12
71
2
72
2
73
0
90
0
40
-0.6
41
-30.0
62
5
63
7
74
1
91
4
64
7
65
257
75
1
175
1
42
1.0
92
8
66
7
43
1.0
76
1
77
6
78
2
67
7
79
5
170
0
171
0
290
0
174
0
93
1
44
50.0
173
0
291
1
45
0.0
1001
ACAD
1000
AcDbSavedByObjectVersion
1070
0
0
VISUALSTYLE
5
FA3
102
{ACAD_XDICTIONARY
360
109E
102
}
102
{ACAD_REACTORS
330
F93
102
}
330
F93
100
AcDbVisualStyle
2

70
16
71
2
72
2
73
3
90
0
40
-0.6
41
-30.0
62
5
63
8
74
1
91
4
64
7
65
257
75
1
175
1
42
1.0
92
8
66
8
43
1.0
76
1
77
6
78
2
67
7
79
5
170
0
171
0
290
0
174
0
93
1
44
0.0
173
0
291
1
45
0.0
1001
ACAD
1000
AcDbSavedByObjectVersion
1070
0
0
VISUALSTYLE
5
F9C
102
{ACAD_XDICTIONARY
360
1090
102
}
102
{ACAD_REACTORS
330
F93
102
}
330
F93
100
AcDbVisualStyle
2

70
9
71
3
72
2
73
0
90
0
40
-0.6
41
-30.0
62
5
63
7
74
2
91
2
64
7
65
257
75
1
175
1
42
179.0
92
8
66
7
43
1.0
76
1
77
6
78
2
67
7
79
3
170
0
171
0
290
0
174
0
93
1
44
0.0
173
0
291
0
45
0.0
1001
ACAD
1000
AcDbSavedByObjectVersion
1070
0
0
VISUALSTYLE
5
F9E
102
{ACAD_XDICTIONARY
360
1094
102
}
102
{ACAD_REACTORS
330
F93
102
}
330
F93
100
AcDbVisualStyle
2

70
11
71
2
72
2
73
0
90
0
40
-0.6
41
-30.0
62
5
63
7
74
1
91
4
64
7
65
257
75
1
175
1
42
1.0
92
8
66
7
43
1.0
76
1
77
6
78
2
67
7
79
5
170
0
171
0
290
0
174
0
93
1
44
-50.0
173
0
291
1
45
0.0
1001
ACAD
1000
AcDbSavedByObjectVersion
1070
0
0
VISUALSTYLE
5
FA6
102
{ACAD_XDICTIONARY
360
10A4
102
}
102
{ACAD_REACTORS
330
F93
102
}
330
F93
100
AcDbVisualStyle
2

70
22
71
2
72
2
73
0
90
0
40
-0.6
41
-30.0
62
5
63
7
74
1
91
4
64
7
65
257
75
1
175
1
42
1.0
92
8
66
7
43
1.0
76
1
77
6
78
2
67
7
79
5
170
0
171
0
290
0
174
0
93
1
44
0.0
173
0
291
1
45
0.0
1001
ACAD
1000
AcDbSavedByObjectVersion
1070
0
0
VISUALSTYLE
5
FA2
102
{ACAD_XDICTIONARY
360
109C
102
}
102
{ACAD_REACTORS
330
F93
102
}
330
F93
100
AcDbVisualStyle
2

70
15
71
2
72
2
73
0
90
0
40
-0.6
41
-30.0
62
5
63
7
74
1
91
4
64
7
65
257
75
1
175
1
42
1.0
92
8
66
7
43
1.0
76
1
77
6
78
2
67
7
79
5
170
0
171
0
290
0
174
0
93
1
44
0.0
173
0
291
1
45
0.0
1001
ACAD
1000
AcDbSavedByObjectVersion
1070
0
0
VISUALSTYLE
5
F94
102
{ACAD_XDICTIONARY
360
1080
102
}
102
{ACAD_REACTORS
330
F93
102
}
330
F93
100
AcDbVisualStyle
2

70
0
71
2
72
1
73
1
90
2
40
-0.6
41
30.0
62
5
63
7
74
0
91
4
64
7
65
257
75
1
175
1
42
1.0
92
8
66
7
43
1.0
76
1
77
6
78
2
67
7
79
5
170
0
171
0
290
0
174
0
93
13
44
0.0
173
0
291
1
45
0.0
1001
ACAD
1000
AcDbSavedByObjectVersion
1070
0
0
VISUALSTYLE
5
F95
102
{ACAD_XDICTIONARY
360
1082
102
}
102
{ACAD_REACTORS
330
F93
102
}
330
F93
100
AcDbVisualStyle
2

70
1
71
2
72
1
73
1
90
2
40
-0.6
41
30.0
62
5
63
7
74
1
91
4
64
7
65
257
75
1
175
1
42
1.0
92
0
66
257
43
1.0
76
1
77
6
78
2
67
7
79
5
170
0
171
0
290
0
174
0
93
13
44
0.0
173
0
291
1
45
0.0
1001
ACAD
1000
AcDbSavedByObjectVersion
1070
0
0
VISUALSTYLE
5
F96
102
{ACAD_XDICTIONARY
360
1084
102
}
102
{ACAD_REACTORS
330
F93
102
}
330
F93
100
AcDbVisualStyle
2

70
2
71
2
72
2
73
1
90
2
40
-0.6
41
30.0
62
5
63
7
74
0
91
4
64
7
65
257
75
1
175
1
42
1.0
92
0
66
7
43
1.0
76
1
77
6
78
2
67
7
79
5
170
0
171
0
290
0
174
0
93
13
44
0.0
173
0
291
1
45
0.0
1001
ACAD
1000
AcDbSavedByObjectVersion
1070
0
0
VISUALSTYLE
5
F97
102
{ACAD_XDICTIONARY
360
1086
102
}
102
{ACAD_REACTORS
330
F93
102
}
330
F93
100
AcDbVisualStyle
2

70
3
71
2
72
2
73
1
90
2
40
-0.6
41
30.0
62
5
63
7
74
1
91
4
64
7
65
257
75
1
175
1
42
1.0
92
0
66
257
43
1.0
76
1
77
6
78
2
67
7
79
5
170
0
171
0
290
0
174
0
93
13
44
0.0
173
0
291
1
45
0.0
1001
ACAD
1000
AcDbSavedByObjectVersion
1070
0
0
VISUALSTYLE
5
FA4
102
{ACAD_XDICTIONARY
360
10A0
102
}
102
{ACAD_REACTORS
330
F93
102
}
330
F93
100
AcDbVisualStyle
2

70
20
71
2
72
2
73
0
90
0
40
-0.6
41
-30.0
62
5
63
7
74
1
91
4
64
7
65
257
75
1
175
1
42
1.0
92
10
66
7
43
1.0
76
1
77
6
78
2
67
7
79
5
170
0
171
0
290
0
174
0
93
1
44
0.0
173
0
291
1
45
0.0
1001
ACAD
1000
AcDbSavedByObjectVersion
1070
0
0
VISUALSTYLE
5
FA1
102
{ACAD_XDICTIONARY
360
109A
102
}
102
{ACAD_REACTORS
330
F93
102
}
330
F93
100
AcDbVisualStyle
2

70
14
71
2
72
2
73
0
90
0
40
-0.6
41
-30.0
62
5
63
7
74
1
91
4
64
7
65
257
75
7
175
7
42
1.0
92
8
66
7
43
1.0
76
1
77
6
78
2
67
7
79
5
170
0
171
0
290
0
174
0
93
1
44
0.0
173
0
291
1
45
0.0
1001
ACAD
1000
AcDbSavedByObjectVersion
1070
0
0
VISUALSTYLE
5
FA5
102
{ACAD_XDICTIONARY
360
10A2
102
}
102
{ACAD_REACTORS
330
F93
102
}
330
F93
100
AcDbVisualStyle
2

70
21
71
2
72
2
73
0
90
0
40
-0.6
41
-30.0
62
5
63
7
74
1
91
4
64
7
65
257
75
1
175
1
42
1.0
92
9
66
7
43
1.0
76
1
77
6
78
2
67
7
79
5
170
0
171
0
290
0
174
0
93
1
44
0.0
173
0
291
1
45
0.0
1001
ACAD
1000
AcDbSavedByObjectVersion
1070
0
0
VISUALSTYLE
5
F9D
102
{ACAD_XDICTIONARY
360
1092
102
}
102
{ACAD_REACTORS
330
F93
102
}
330
F93
100
AcDbVisualStyle
2

70
8
71
2
72
2
73
0
90
0
40
-0.6
41
-30.0
62
5
63
7
74
1
91
0
64
7
65
257
75
1
175
1
42
1.0
92
8
66
8
43
1.0
76
1
77
6
78
2
67
7
79
5
170
0
171
0
290
0
174
0
93
13
44
0.0
173
0
291
0
45
0.0
1001
ACAD
1000
AcDbSavedByObjectVersion
1070
0
0
VISUALSTYLE
5
FA0
102
{ACAD_XDICTIONARY
360
1098
102
}
102
{ACAD_REACTORS
330
F93
102
}
330
F93
100
AcDbVisualStyle
2

70
13
71
2
72
2
73
0
90
0
40
-0.6
41
-30.0
62
5
63
7
74
1
91
4
64
7
65
257
75
1
175
1
42
1.0
92
12
66
7
43
1.0
76
1
77
6
78
2
67
7
79
5
170
0
171
0
290
0
174
0
93
1
44
0.0
173
0
291
1
45
0.0
1001
ACAD
1000
AcDbSavedByObjectVersion
1070
0
0
DICTIONARYVAR
5
FF3
102
{ACAD_REACTORS
330
FF0
102
}
330
FF0
100
DictionaryVariables
280
0
1
1:1
0
DICTIONARYVAR
5
FF2
102
{ACAD_REACTORS
330
FF0
102
}
330
FF0
100
DictionaryVariables
280
0
1
STANDARD
0
DICTIONARYVAR
5
FF1
102
{ACAD_REACTORS
330
FF0
102
}
330
FF0
100
DictionaryVariables
280
0
1
STANDARD
0
DICTIONARYVAR
5
FF6
102
{ACAD_REACTORS
330
FF0
102
}
330
FF0
100
DictionaryVariables
280
0
1
1
0
DICTIONARYVAR
5
FF5
102
{ACAD_REACTORS
330
FF0
102
}
330
FF0
100
DictionaryVariables
280
0
1
0
0
DICTIONARYVAR
5
FF4
102
{ACAD_REACTORS
330
FF0
102
}
330
FF0
100
DictionaryVariables
280
0
1
127
0
DICTIONARYVAR
5
1078
102
{ACAD_REACTORS
330
FF0
102
}
330
FF0
100
DictionaryVariables
280
0
1
2
0
DICTIONARY
5
10A9
330
FD1
100
AcDbDictionary
280
1
281
1
3
ACAD_XREC_ROUNDTRIP
360
10AA
0
DICTIONARY
5
10A7
330
FD0
100
AcDbDictionary
280
1
281
1
3
ACAD_XREC_ROUNDTRIP
360
10A8
0
DICTIONARY
5
F84
330
F83
100
AcDbDictionary
280
1
281
1
3
ACAD_XREC_ROUNDTRIP
360
FFF
3
BUMPTILE
360
F86
3
DIFFUSETILE
360
F85
3
OPACITYTILE
360
F89
3
REFLECTIONTILE
360
F88
3
REFRACTIONTILE
360
F8A
3
SPECULARTILE
360
F87
0
DICTIONARY
5
F7C
330
F7B
100
AcDbDictionary
280
1
281
1
3
ACAD_XREC_ROUNDTRIP
360
FFE
3
BUMPTILE
360
F7E
3
DIFFUSETILE
360
F7D
3
OPACITYTILE
360
F81
3
REFLECTIONTILE
360
F80
3
REFRACTIONTILE
360
F82
3
SPECULARTILE
360
F7F
0
DICTIONARY
5
F8C
330
F8B
100
AcDbDictionary
280
1
281
1
3
ACAD_XREC_ROUNDTRIP
360
1000
3
BUMPTILE
360
F8E
3
DIFFUSETILE
360
F8D
3
OPACITYTILE
360
F91
3
REFLECTIONTILE
360
F90
3
REFRACTIONTILE
360
F92
3
SPECULARTILE
360
F8F
0
DICTIONARY
5
FF8
330
FA9
100
AcDbDictionary
280
1
281
1
3
ACAD_ROUNDTRIP_2008_TABLESTYLE_CELLSTYLEMAP
360
1079
3
ACAD_XREC_ROUNDTRIP
360
10A6
0
DICTIONARY
5
108A
330
F99
100
AcDbDictionary
280
1
281
1
3
ACAD_XREC_ROUNDTRIP
360
108B
0
DICTIONARY
5
108E
330
F9B
100
AcDbDictionary
280
1
281
1
3
ACAD_XREC_ROUNDTRIP
360
108F
0
DICTIONARY
5
108C
330
F9A
100
AcDbDictionary
280
1
281
1
3
ACAD_XREC_ROUNDTRIP
360
108D
0
DICTIONARY
5
1088
330
F98
100
AcDbDictionary
280
1
281
1
3
ACAD_XREC_ROUNDTRIP
360
1089
0
DICTIONARY
5
1096
330
F9F
100
AcDbDictionary
280
1
281
1
3
ACAD_XREC_ROUNDTRIP
360
1097
0
DICTIONARY
5
109E
330
FA3
100
AcDbDictionary
280
1
281
1
3
ACAD_XREC_ROUNDTRIP
360
109F
0
DICTIONARY
5
1090
330
F9C
100
AcDbDictionary
280
1
281
1
3
ACAD_XREC_ROUNDTRIP
360
1091
0
DICTIONARY
5
1094
330
F9E
100
AcDbDictionary
280
1
281
1
3
ACAD_XREC_ROUNDTRIP
360
1095
0
DICTIONARY
5
10A4
330
FA6
100
AcDbDictionary
280
1
281
1
3
ACAD_XREC_ROUNDTRIP
360
10A5
0
DICTIONARY
5
109C
330
FA2
100
AcDbDictionary
280
1
281
1
3
ACAD_XREC_ROUNDTRIP
360
109D
0
DICTIONARY
5
1080
330
F94
100
AcDbDictionary
280
1
281
1
3
ACAD_XREC_ROUNDTRIP
360
1081
0
DICTIONARY
5
1082
330
F95
100
AcDbDictionary
280
1
281
1
3
ACAD_XREC_ROUNDTRIP
360
1083
0
DICTIONARY
5
1084
330
F96
100
AcDbDictionary
280
1
281
1
3
ACAD_XREC_ROUNDTRIP
360
1085
0
DICTIONARY
5
1086
330
F97
100
AcDbDictionary
280
1
281
1
3
ACAD_XREC_ROUNDTRIP
360
1087
0
DICTIONARY
5
10A0
330
FA4
100
AcDbDictionary
280
1
281
1
3
ACAD_XREC_ROUNDTRIP
360
10A1
0
DICTIONARY
5
109A
330
FA1
100
AcDbDictionary
280
1
281
1
3
ACAD_XREC_ROUNDTRIP
360
109B
0
DICTIONARY
5
10A2
330
FA5
100
AcDbDictionary
280
1
281
1
3
ACAD_XREC_ROUNDTRIP
360
10A3
0
DICTIONARY
5
1092
330
F9D
100
AcDbDictionary
280
1
281
1
3
ACAD_XREC_ROUNDTRIP
360
1093
0
DICTIONARY
5
1098
330
FA0
100
AcDbDictionary
280
1
281
1
3
ACAD_XREC_ROUNDTRIP
360
1099
0
XRECORD
5
10AA
102
{ACAD_REACTORS
330
10A9
102
}
330
10A9
100
AcDbXrecord
280
1
102
SHADEPLOT
70
0
102
SHADEPLOTRESLEVEL
70
2
102
SHADEPLOTCUSTOMDPI
70
300
0
XRECORD
5
10A8
102
{ACAD_REACTORS
330
10A7
102
}
330
10A7
100
AcDbXrecord
280
1
102
SHADEPLOT
70
0
102
SHADEPLOTRESLEVEL
70
2
102
SHADEPLOTCUSTOMDPI
70
300
0
XRECORD
5
FFF
102
{ACAD_REACTORS
330
F84
102
}
330
F84
100
AcDbXrecord
280
1
102
MATERIAL
148
0.0
149
0.0
149
0.0
93
0
94
127
282
0
72
0
77
0
171
0
175
0
179
0
273
0
0
XRECORD
5
F86
102
{ACAD_REACTORS
330
F84
102
}
330
F84
100
AcDbXrecord
280
1
270
1
271
1
0
XRECORD
5
F85
102
{ACAD_REACTORS
330
F84
102
}
330
F84
100
AcDbXrecord
280
1
270
1
271
1
0
XRECORD
5
F89
102
{ACAD_REACTORS
330
F84
102
}
330
F84
100
AcDbXrecord
280
1
270
1
271
1
0
XRECORD
5
F88
102
{ACAD_REACTORS
330
F84
102
}
330
F84
100
AcDbXrecord
280
1
270
1
271
1
0
XRECORD
5
F8A
102
{ACAD_REACTORS
330
F84
102
}
330
F84
100
AcDbXrecord
280
1
270
1
271
1
0
XRECORD
5
F87
102
{ACAD_REACTORS
330
F84
102
}
330
F84
100
AcDbXrecord
280
1
270
1
271
1
0
XRECORD
5
FFE
102
{ACAD_REACTORS
330
F7C
102
}
330
F7C
100
AcDbXrecord
280
1
102
MATERIAL
148
0.0
149
0.0
149
0.0
93
0
94
127
282
0
72
0
77
0
171
0
175
0
179
0
273
0
0
XRECORD
5
F7E
102
{ACAD_REACTORS
330
F7C
102
}
330
F7C
100
AcDbXrecord
280
1
270
1
271
1
0
XRECORD
5
F7D
102
{ACAD_REACTORS
330
F7C
102
}
330
F7C
100
AcDbXrecord
280
1
270
1
271
1
0
XRECORD
5
F81
102
{ACAD_REACTORS
330
F7C
102
}
330
F7C
100
AcDbXrecord
280
1
270
1
271
1
0
XRECORD
5
F80
102
{ACAD_REACTORS
330
F7C
102
}
330
F7C
100
AcDbXrecord
280
1
270
1
271
1
0
XRECORD
5
F82
102
{ACAD_REACTORS
330
F7C
102
}
330
F7C
100
AcDbXrecord
280
1
270
1
271
1
0
XRECORD
5
F7F
102
{ACAD_REACTORS
330
F7C
102
}
330
F7C
100
AcDbXrecord
280
1
270
1
271
1
0
XRECORD
5
1000
102
{ACAD_REACTORS
330
F8C
102
}
330
F8C
100
AcDbXrecord
280
1
102
MATERIAL
148
0.0
149
0.0
149
0.0
93
0
94
127
282
0
72
0
77
0
171
0
175
0
179
0
273
0
0
XRECORD
5
F8E
102
{ACAD_REACTORS
330
F8C
102
}
330
F8C
100
AcDbXrecord
280
1
270
1
271
1
0
XRECORD
5
F8D
102
{ACAD_REACTORS
330
F8C
102
}
330
F8C
100
AcDbXrecord
280
1
270
1
271
1
0
XRECORD
5
F91
102
{ACAD_REACTORS
330
F8C
102
}
330
F8C
100
AcDbXrecord
280
1
270
1
271
1
0
XRECORD
5
F90
102
{ACAD_REACTORS
330
F8C
102
}
330
F8C
100
AcDbXrecord
280
1
270
1
271
1
0
XRECORD
5
F92
102
{ACAD_REACTORS
330
F8C
102
}
330
F8C
100
AcDbXrecord
280
1
270
1
271
1
0
XRECORD
5
F8F
102
{ACAD_REACTORS
330
F8C
102
}
330
F8C
100
AcDbXrecord
280
1
270
1
271
1
0
CELLSTYLEMAP
5
1079
102
{ACAD_REACTORS
330
FF8
102
}
330
FF8
100
AcDbCellStyleMap
90
3
300
CELLSTYLE
1
TABLEFORMAT_BEGIN
90
5
170
1
91
0
92
32768
62
257
93
1
300
CONTENTFORMAT
1
CONTENTFORMAT_BEGIN
90
0
91
0
92
512
93
0
300

40
0.0
140
1.0
94
5
62
0
340
253
144
0.25
309
CONTENTFORMAT_END
171
1
301
MARGIN
1
CELLMARGIN_BEGIN
40
0.06
40
0.06
40
0.06
40
0.06
40
0.18
40
0.18
309
CELLMARGIN_END
94
6
95
1
302
GRIDFORMAT
1
GRIDFORMAT_BEGIN
90
0
91
1
62
0
92
-2
340
0
93
0
40
0.045
309
GRIDFORMAT_END
95
2
302
GRIDFORMAT
1
GRIDFORMAT_BEGIN
90
0
91
1
62
0
92
-2
340
0
93
0
40
0.045
309
GRIDFORMAT_END
95
4
302
GRIDFORMAT
1
GRIDFORMAT_BEGIN
90
0
91
1
62
0
92
-2
340
0
93
0
40
0.045
309
GRIDFORMAT_END
95
8
302
GRIDFORMAT
1
GRIDFORMAT_BEGIN
90
0
91
1
62
0
92
-2
340
0
93
0
40
0.045
309
GRIDFORMAT_END
95
16
302
GRIDFORMAT
1
GRIDFORMAT_BEGIN
90
0
91
1
62
0
92
-2
340
0
93
0
40
0.045
309
GRIDFORMAT_END
95
32
302
GRIDFORMAT
1
GRIDFORMAT_BEGIN
90
0
91
1
62
0
92
-2
340
0
93
0
40
0.045
309
GRIDFORMAT_END
309
TABLEFORMAT_END
1
CELLSTYLE_BEGIN
90
1
91
1
300
_TITLE
309
CELLSTYLE_END
300
CELLSTYLE
1
TABLEFORMAT_BEGIN
90
5
170
1
91
0
92
0
62
257
93
1
300
CONTENTFORMAT
1
CONTENTFORMAT_BEGIN
90
0
91
0
92
512
93
0
300

40
0.0
140
1.0
94
5
62
0
340
253
144
0.18
309
CONTENTFORMAT_END
171
1
301
MARGIN
1
CELLMARGIN_BEGIN
40
0.06
40
0.06
40
0.06
40
0.06
40
0.18
40
0.18
309
CELLMARGIN_END
94
6
95
1
302
GRIDFORMAT
1
GRIDFORMAT_BEGIN
90
0
91
1
62
0
92
-2
340
0
93
0
40
0.045
309
GRIDFORMAT_END
95
2
302
GRIDFORMAT
1
GRIDFORMAT_BEGIN
90
0
91
1
62
0
92
-2
340
0
93
0
40
0.045
309
GRIDFORMAT_END
95
4
302
GRIDFORMAT
1
GRIDFORMAT_BEGIN
90
0
91
1
62
0
92
-2
340
0
93
0
40
0.045
309
GRIDFORMAT_END
95
8
302
GRIDFORMAT
1
GRIDFORMAT_BEGIN
90
0
91
1
62
0
92
-2
340
0
93
0
40
0.045
309
GRIDFORMAT_END
95
16
302
GRIDFORMAT
1
GRIDFORMAT_BEGIN
90
0
91
1
62
0
92
-2
340
0
93
0
40
0.045
309
GRIDFORMAT_END
95
32
302
GRIDFORMAT
1
GRIDFORMAT_BEGIN
90
0
91
1
62
0
92
-2
340
0
93
0
40
0.045
309
GRIDFORMAT_END
309
TABLEFORMAT_END
1
CELLSTYLE_BEGIN
90
2
91
1
300
_HEADER
309
CELLSTYLE_END
300
CELLSTYLE
1
TABLEFORMAT_BEGIN
90
5
170
1
91
0
92
0
62
257
93
1
300
CONTENTFORMAT
1
CONTENTFORMAT_BEGIN
90
0
91
0
92
512
93
0
300

40
0.0
140
1.0
94
2
62
0
340
253
144
0.18
309
CONTENTFORMAT_END
171
1
301
MARGIN
1
CELLMARGIN_BEGIN
40
0.06
40
0.06
40
0.06
40
0.06
40
0.18
40
0.18
309
CELLMARGIN_END
94
6
95
1
302
GRIDFORMAT
1
GRIDFORMAT_BEGIN
90
0
91
1
62
0
92
-2
340
0
93
0
40
0.045
309
GRIDFORMAT_END
95
2
302
GRIDFORMAT
1
GRIDFORMAT_BEGIN
90
0
91
1
62
0
92
-2
340
0
93
0
40
0.045
309
GRIDFORMAT_END
95
4
302
GRIDFORMAT
1
GRIDFORMAT_BEGIN
90
0
91
1
62
0
92
-2
340
0
93
0
40
0.045
309
GRIDFORMAT_END
95
8
302
GRIDFORMAT
1
GRIDFORMAT_BEGIN
90
0
91
1
62
0
92
-2
340
0
93
0
40
0.045
309
GRIDFORMAT_END
95
16
302
GRIDFORMAT
1
GRIDFORMAT_BEGIN
90
0
91
1
62
0
92
-2
340
0
93
0
40
0.045
309
GRIDFORMAT_END
95
32
302
GRIDFORMAT
1
GRIDFORMAT_BEGIN
90
0
91
1
62
0
92
-2
340
0
93
0
40
0.045
309
GRIDFORMAT_END
309
TABLEFORMAT_END
1
CELLSTYLE_BEGIN
90
3
91
2
300
_DATA
309
CELLSTYLE_END
0
XRECORD
5
10A6
102
{ACAD_REACTORS
330
FF8
102
}
330
FF8
100
AcDbXrecord
280
1
102
ACAD_ROUNDTRIP_PRE2007_TABLESTYLE
90
512
91
0
1

92
512
93
0
2

94
512
95
0
3

0
XRECORD
5
108B
102
{ACAD_REACTORS
330
108A
102
}
330
108A
100
AcDbXrecord
280
1
102
RTVSPropertyOp0
70
1
102
RTVSPropertyOp1
70
1
102
RTVSPropertyOp2
70
1
102
RTVSPropertyOp3
70
1
102
RTVSPropertyOp4
70
1
102
RTVSPropertyOp5
70
1
102
RTVSPropertyOp6
70
1
102
RTVSPropertyOp7
70
1
102
RTVSPropertyOp8
70
1
102
RTVSPropertyOp9
70
1
102
RTVSPropertyOp10
70
1
102
RTVSPropertyOp11
70
1
102
RTVSPropertyOp12
70
1
102
RTVSPropertyOp13
70
1
102
RTVSPropertyOp14
70
1
102
RTVSPropertyOp15
70
1
102
RTVSPropertyOp16
70
1
102
RTVSPropertyOp17
70
1
102
RTVSPropertyOp18
70
1
102
RTVSPropertyOp19
70
1
102
RTVSPropertyOp20
70
1
102
RTVSPropertyOp21
70
1
102
RTVSPropertyOp22
70
1
102
RTVSPropertyOp23
70
1
102
RTVSPropertyOp24
70
1
102
RTVSPropertyOp25
70
1
102
RTVSPropertyOp26
70
1
102
RTVSPropertyOp27
70
1
0
XRECORD
5
108F
102
{ACAD_REACTORS
330
108E
102
}
330
108E
100
AcDbXrecord
280
1
102
RTVSPropertyOp0
70
1
102
RTVSPropertyOp1
70
1
102
RTVSPropertyOp2
70
1
102
RTVSPropertyOp3
70
1
102
RTVSPropertyOp4
70
1
102
RTVSPropertyOp5
70
1
102
RTVSPropertyOp6
70
1
102
RTVSPropertyOp7
70
1
102
RTVSPropertyOp8
70
1
102
RTVSPropertyOp9
70
1
102
RTVSPropertyOp10
70
1
102
RTVSPropertyOp11
70
1
102
RTVSPropertyOp12
70
1
102
RTVSPropertyOp13
70
1
102
RTVSPropertyOp14
70
1
102
RTVSPropertyOp15
70
1
102
RTVSPropertyOp16
70
1
102
RTVSPropertyOp17
70
1
102
RTVSPropertyOp18
70
1
102
RTVSPropertyOp19
70
1
102
RTVSPropertyOp20
70
1
102
RTVSPropertyOp21
70
1
102
RTVSPropertyOp22
70
1
102
RTVSPropertyOp23
70
1
102
RTVSPropertyOp24
70
1
102
RTVSPropertyOp25
70
1
102
RTVSPropertyOp26
70
1
102
RTVSPropertyOp27
70
1
0
XRECORD
5
108D
102
{ACAD_REACTORS
330
108C
102
}
330
108C
100
AcDbXrecord
280
1
102
RTVSPropertyOp0
70
1
102
RTVSPropertyOp1
70
1
102
RTVSPropertyOp2
70
1
102
RTVSPropertyOp3
70
1
102
RTVSPropertyOp4
70
1
102
RTVSPropertyOp5
70
1
102
RTVSPropertyOp6
70
1
102
RTVSPropertyOp7
70
1
102
RTVSPropertyOp8
70
1
102
RTVSPropertyOp9
70
1
102
RTVSPropertyOp10
70
1
102
RTVSPropertyOp11
70
1
102
RTVSPropertyOp12
70
1
102
RTVSPropertyOp13
70
1
102
RTVSPropertyOp14
70
1
102
RTVSPropertyOp15
70
1
102
RTVSPropertyOp16
70
1
102
RTVSPropertyOp17
70
1
102
RTVSPropertyOp18
70
1
102
RTVSPropertyOp19
70
1
102
RTVSPropertyOp20
70
1
102
RTVSPropertyOp21
70
1
102
RTVSPropertyOp22
70
1
102
RTVSPropertyOp23
70
1
102
RTVSPropertyOp24
70
1
102
RTVSPropertyOp25
70
1
102
RTVSPropertyOp26
70
1
102
RTVSPropertyOp27
70
1
0
XRECORD
5
1089
102
{ACAD_REACTORS
330
1088
102
}
330
1088
100
AcDbXrecord
280
1
102
RTVSPropertyOp0
70
1
102
RTVSPropertyOp1
70
1
102
RTVSPropertyOp2
70
1
102
RTVSPropertyOp3
70
1
102
RTVSPropertyOp4
70
1
102
RTVSPropertyOp5
70
1
102
RTVSPropertyOp6
70
1
102
RTVSPropertyOp7
70
1
102
RTVSPropertyOp8
70
1
102
RTVSPropertyOp9
70
1
102
RTVSPropertyOp10
70
1
102
RTVSPropertyOp11
70
1
102
RTVSPropertyOp12
70
1
102
RTVSPropertyOp13
70
1
102
RTVSPropertyOp14
70
1
102
RTVSPropertyOp15
70
1
102
RTVSPropertyOp16
70
1
102
RTVSPropertyOp17
70
1
102
RTVSPropertyOp18
70
1
102
RTVSPropertyOp19
70
1
102
RTVSPropertyOp20
70
1
102
RTVSPropertyOp21
70
1
102
RTVSPropertyOp22
70
1
102
RTVSPropertyOp23
70
1
102
RTVSPropertyOp24
70
1
102
RTVSPropertyOp25
70
1
102
RTVSPropertyOp26
70
1
102
RTVSPropertyOp27
70
1
0
XRECORD
5
1097
102
{ACAD_REACTORS
330
1096
102
}
330
1096
100
AcDbXrecord
280
1
102
RTVSPropertyOp0
70
1
102
RTVSPropertyOp1
70
1
102
RTVSPropertyOp2
70
1
102
RTVSPropertyOp3
70
1
102
RTVSPropertyOp4
70
1
102
RTVSPropertyOp5
70
1
102
RTVSPropertyOp6
70
1
102
RTVSPropertyOp7
70
1
102
RTVSPropertyOp8
70
1
102
RTVSPropertyOp9
70
1
102
RTVSPropertyOp10
70
1
102
RTVSPropertyOp11
70
1
102
RTVSPropertyOp12
70
1
102
RTVSPropertyOp13
70
1
102
RTVSPropertyOp14
70
1
102
RTVSPropertyOp15
70
1
102
RTVSPropertyOp16
70
1
102
RTVSPropertyOp17
70
1
102
RTVSPropertyOp18
70
1
102
RTVSPropertyOp19
70
1
102
RTVSPropertyOp20
70
1
102
RTVSPropertyOp21
70
1
102
RTVSPropertyOp22
70
1
102
RTVSPropertyOp23
70
1
102
RTVSPropertyOp24
70
1
102
RTVSPropertyOp25
70
1
102
RTVSPropertyOp26
70
1
102
RTVSPropertyOp27
70
1
0
XRECORD
5
109F
102
{ACAD_REACTORS
330
109E
102
}
330
109E
100
AcDbXrecord
280
1
102
RTVSPropertyOp0
70
1
102
RTVSPropertyOp1
70
1
102
RTVSPropertyOp2
70
1
102
RTVSPropertyOp3
70
1
102
RTVSPropertyOp4
70
1
102
RTVSPropertyOp5
70
1
102
RTVSPropertyOp6
70
1
102
RTVSPropertyOp7
70
1
102
RTVSPropertyOp8
70
1
102
RTVSPropertyOp9
70
1
102
RTVSPropertyOp10
70
1
102
RTVSPropertyOp11
70
1
102
RTVSPropertyOp12
70
1
102
RTVSPropertyOp13
70
1
102
RTVSPropertyOp14
70
1
102
RTVSPropertyOp15
70
1
102
RTVSPropertyOp16
70
1
102
RTVSPropertyOp17
70
1
102
RTVSPropertyOp18
70
1
102
RTVSPropertyOp19
70
1
102
RTVSPropertyOp20
70
1
102
RTVSPropertyOp21
70
1
102
RTVSPropertyOp22
70
1
102
RTVSPropertyOp23
70
1
102
RTVSPropertyOp24
70
1
102
RTVSPropertyOp25
70
1
102
RTVSPropertyOp26
70
1
102
RTVSPropertyOp27
70
1
0
XRECORD
5
1091
102
{ACAD_REACTORS
330
1090
102
}
330
1090
100
AcDbXrecord
280
1
102
RTVSPropertyOp0
70
1
102
RTVSPropertyOp1
70
1
102
RTVSPropertyOp2
70
1
102
RTVSPropertyOp3
70
1
102
RTVSPropertyOp4
70
1
102
RTVSPropertyOp5
70
1
102
RTVSPropertyOp6
70
1
102
RTVSPropertyOp7
70
1
102
RTVSPropertyOp8
70
1
102
RTVSPropertyOp9
70
1
102
RTVSPropertyOp10
70
1
102
RTVSPropertyOp11
70
1
102
RTVSPropertyOp12
70
1
102
RTVSPropertyOp13
70
1
102
RTVSPropertyOp14
70
1
102
RTVSPropertyOp15
70
1
102
RTVSPropertyOp16
70
1
102
RTVSPropertyOp17
70
1
102
RTVSPropertyOp18
70
1
102
RTVSPropertyOp19
70
1
102
RTVSPropertyOp20
70
1
102
RTVSPropertyOp21
70
1
102
RTVSPropertyOp22
70
1
102
RTVSPropertyOp23
70
1
102
RTVSPropertyOp24
70
1
102
RTVSPropertyOp25
70
1
102
RTVSPropertyOp26
70
1
102
RTVSPropertyOp27
70
1
0
XRECORD
5
1095
102
{ACAD_REACTORS
330
1094
102
}
330
1094
100
AcDbXrecord
280
1
102
RTVSPropertyOp0
70
1
102
RTVSPropertyOp1
70
1
102
RTVSPropertyOp2
70
1
102
RTVSPropertyOp3
70
1
102
RTVSPropertyOp4
70
1
102
RTVSPropertyOp5
70
1
102
RTVSPropertyOp6
70
1
102
RTVSPropertyOp7
70
1
102
RTVSPropertyOp8
70
1
102
RTVSPropertyOp9
70
1
102
RTVSPropertyOp10
70
1
102
RTVSPropertyOp11
70
1
102
RTVSPropertyOp12
70
1
102
RTVSPropertyOp13
70
1
102
RTVSPropertyOp14
70
1
102
RTVSPropertyOp15
70
1
102
RTVSPropertyOp16
70
1
102
RTVSPropertyOp17
70
1
102
RTVSPropertyOp18
70
1
102
RTVSPropertyOp19
70
1
102
RTVSPropertyOp20
70
1
102
RTVSPropertyOp21
70
1
102
RTVSPropertyOp22
70
1
102
RTVSPropertyOp23
70
1
102
RTVSPropertyOp24
70
1
102
RTVSPropertyOp25
70
1
102
RTVSPropertyOp26
70
1
102
RTVSPropertyOp27
70
1
0
XRECORD
5
10A5
102
{ACAD_REACTORS
330
10A4
102
}
330
10A4
100
AcDbXrecord
280
1
102
RTVSPropertyOp0
70
0
102
RTVSPropertyOp1
70
0
102
RTVSPropertyOp2
70
0
102
RTVSPropertyOp3
70
0
102
RTVSPropertyOp4
70
0
102
RTVSPropertyOp5
70
0
102
RTVSPropertyOp6
70
0
102
RTVSPropertyOp7
70
0
102
RTVSPropertyOp8
70
0
102
RTVSPropertyOp9
70
0
102
RTVSPropertyOp10
70
0
102
RTVSPropertyOp11
70
0
102
RTVSPropertyOp12
70
0
102
RTVSPropertyOp13
70
0
102
RTVSPropertyOp14
70
2
102
RTVSPropertyOp15
70
0
102
RTVSPropertyOp16
70
0
102
RTVSPropertyOp17
70
0
102
RTVSPropertyOp18
70
0
102
RTVSPropertyOp19
70
0
102
RTVSPropertyOp20
70
0
102
RTVSPropertyOp21
70
0
102
RTVSPropertyOp22
70
0
102
RTVSPropertyOp23
70
0
102
RTVSPropertyOp24
70
0
102
RTVSPropertyOp25
70
0
102
RTVSPropertyOp26
70
0
102
RTVSPropertyOp27
70
0
0
XRECORD
5
109D
102
{ACAD_REACTORS
330
109C
102
}
330
109C
100
AcDbXrecord
280
1
102
RTVSPropertyOp0
70
1
102
RTVSPropertyOp1
70
1
102
RTVSPropertyOp2
70
1
102
RTVSPropertyOp3
70
1
102
RTVSPropertyOp4
70
1
102
RTVSPropertyOp5
70
1
102
RTVSPropertyOp6
70
1
102
RTVSPropertyOp7
70
1
102
RTVSPropertyOp8
70
1
102
RTVSPropertyOp9
70
1
102
RTVSPropertyOp10
70
1
102
RTVSPropertyOp11
70
1
102
RTVSPropertyOp12
70
1
102
RTVSPropertyOp13
70
1
102
RTVSPropertyOp14
70
1
102
RTVSPropertyOp15
70
1
102
RTVSPropertyOp16
70
1
102
RTVSPropertyOp17
70
1
102
RTVSPropertyOp18
70
1
102
RTVSPropertyOp19
70
1
102
RTVSPropertyOp20
70
1
102
RTVSPropertyOp21
70
1
102
RTVSPropertyOp22
70
1
102
RTVSPropertyOp23
70
1
102
RTVSPropertyOp24
70
1
102
RTVSPropertyOp25
70
1
102
RTVSPropertyOp26
70
1
102
RTVSPropertyOp27
70
1
0
XRECORD
5
1081
102
{ACAD_REACTORS
330
1080
102
}
330
1080
100
AcDbXrecord
280
1
102
RTVSPropertyOp0
70
1
102
RTVSPropertyOp1
70
1
102
RTVSPropertyOp2
70
1
102
RTVSPropertyOp3
70
1
102
RTVSPropertyOp4
70
1
102
RTVSPropertyOp5
70
1
102
RTVSPropertyOp6
70
1
102
RTVSPropertyOp7
70
1
102
RTVSPropertyOp8
70
1
102
RTVSPropertyOp9
70
1
102
RTVSPropertyOp10
70
1
102
RTVSPropertyOp11
70
1
102
RTVSPropertyOp12
70
1
102
RTVSPropertyOp13
70
1
102
RTVSPropertyOp14
70
1
102
RTVSPropertyOp15
70
1
102
RTVSPropertyOp16
70
1
102
RTVSPropertyOp17
70
1
102
RTVSPropertyOp18
70
1
102
RTVSPropertyOp19
70
1
102
RTVSPropertyOp20
70
1
102
RTVSPropertyOp21
70
1
102
RTVSPropertyOp22
70
1
102
RTVSPropertyOp23
70
1
102
RTVSPropertyOp24
70
1
102
RTVSPropertyOp25
70
1
102
RTVSPropertyOp26
70
1
102
RTVSPropertyOp27
70
1
0
XRECORD
5
1083
102
{ACAD_REACTORS
330
1082
102
}
330
1082
100
AcDbXrecord
280
1
102
RTVSPropertyOp0
70
1
102
RTVSPropertyOp1
70
1
102
RTVSPropertyOp2
70
1
102
RTVSPropertyOp3
70
1
102
RTVSPropertyOp4
70
1
102
RTVSPropertyOp5
70
1
102
RTVSPropertyOp6
70
1
102
RTVSPropertyOp7
70
1
102
RTVSPropertyOp8
70
1
102
RTVSPropertyOp9
70
1
102
RTVSPropertyOp10
70
1
102
RTVSPropertyOp11
70
1
102
RTVSPropertyOp12
70
1
102
RTVSPropertyOp13
70
1
102
RTVSPropertyOp14
70
1
102
RTVSPropertyOp15
70
1
102
RTVSPropertyOp16
70
1
102
RTVSPropertyOp17
70
1
102
RTVSPropertyOp18
70
1
102
RTVSPropertyOp19
70
1
102
RTVSPropertyOp20
70
1
102
RTVSPropertyOp21
70
1
102
RTVSPropertyOp22
70
1
102
RTVSPropertyOp23
70
1
102
RTVSPropertyOp24
70
1
102
RTVSPropertyOp25
70
1
102
RTVSPropertyOp26
70
1
102
RTVSPropertyOp27
70
1
0
XRECORD
5
1085
102
{ACAD_REACTORS
330
1084
102
}
330
1084
100
AcDbXrecord
280
1
102
RTVSPropertyOp0
70
1
102
RTVSPropertyOp1
70
1
102
RTVSPropertyOp2
70
1
102
RTVSPropertyOp3
70
1
102
RTVSPropertyOp4
70
1
102
RTVSPropertyOp5
70
1
102
RTVSPropertyOp6
70
1
102
RTVSPropertyOp7
70
1
102
RTVSPropertyOp8
70
1
102
RTVSPropertyOp9
70
1
102
RTVSPropertyOp10
70
1
102
RTVSPropertyOp11
70
1
102
RTVSPropertyOp12
70
1
102
RTVSPropertyOp13
70
1
102
RTVSPropertyOp14
70
1
102
RTVSPropertyOp15
70
1
102
RTVSPropertyOp16
70
1
102
RTVSPropertyOp17
70
1
102
RTVSPropertyOp18
70
1
102
RTVSPropertyOp19
70
1
102
RTVSPropertyOp20
70
1
102
RTVSPropertyOp21
70
1
102
RTVSPropertyOp22
70
1
102
RTVSPropertyOp23
70
1
102
RTVSPropertyOp24
70
1
102
RTVSPropertyOp25
70
1
102
RTVSPropertyOp26
70
1
102
RTVSPropertyOp27
70
1
0
XRECORD
5
1087
102
{ACAD_REACTORS
330
1086
102
}
330
1086
100
AcDbXrecord
280
1
102
RTVSPropertyOp0
70
1
102
RTVSPropertyOp1
70
1
102
RTVSPropertyOp2
70
1
102
RTVSPropertyOp3
70
1
102
RTVSPropertyOp4
70
1
102
RTVSPropertyOp5
70
1
102
RTVSPropertyOp6
70
1
102
RTVSPropertyOp7
70
1
102
RTVSPropertyOp8
70
1
102
RTVSPropertyOp9
70
1
102
RTVSPropertyOp10
70
1
102
RTVSPropertyOp11
70
1
102
RTVSPropertyOp12
70
1
102
RTVSPropertyOp13
70
1
102
RTVSPropertyOp14
70
1
102
RTVSPropertyOp15
70
1
102
RTVSPropertyOp16
70
1
102
RTVSPropertyOp17
70
1
102
RTVSPropertyOp18
70
1
102
RTVSPropertyOp19
70
1
102
RTVSPropertyOp20
70
1
102
RTVSPropertyOp21
70
1
102
RTVSPropertyOp22
70
1
102
RTVSPropertyOp23
70
1
102
RTVSPropertyOp24
70
1
102
RTVSPropertyOp25
70
1
102
RTVSPropertyOp26
70
1
102
RTVSPropertyOp27
70
1
0
XRECORD
5
10A1
102
{ACAD_REACTORS
330
10A0
102
}
330
10A0
100
AcDbXrecord
280
1
102
RTVSPropertyOp0
70
0
102
RTVSPropertyOp1
70
0
102
RTVSPropertyOp2
70
0
102
RTVSPropertyOp3
70
0
102
RTVSPropertyOp4
70
0
102
RTVSPropertyOp5
70
0
102
RTVSPropertyOp6
70
0
102
RTVSPropertyOp7
70
0
102
RTVSPropertyOp8
70
0
102
RTVSPropertyOp9
70
0
102
RTVSPropertyOp10
70
0
102
RTVSPropertyOp11
70
0
102
RTVSPropertyOp12
70
0
102
RTVSPropertyOp13
70
0
102
RTVSPropertyOp14
70
2
102
RTVSPropertyOp15
70
0
102
RTVSPropertyOp16
70
0
102
RTVSPropertyOp17
70
0
102
RTVSPropertyOp18
70
0
102
RTVSPropertyOp19
70
0
102
RTVSPropertyOp20
70
0
102
RTVSPropertyOp21
70
0
102
RTVSPropertyOp22
70
0
102
RTVSPropertyOp23
70
0
102
RTVSPropertyOp24
70
0
102
RTVSPropertyOp25
70
0
102
RTVSPropertyOp26
70
0
102
RTVSPropertyOp27
70
0
0
XRECORD
5
109B
102
{ACAD_REACTORS
330
109A
102
}
330
109A
100
AcDbXrecord
280
1
102
RTVSPropertyOp0
70
1
102
RTVSPropertyOp1
70
1
102
RTVSPropertyOp2
70
1
102
RTVSPropertyOp3
70
1
102
RTVSPropertyOp4
70
1
102
RTVSPropertyOp5
70
1
102
RTVSPropertyOp6
70
1
102
RTVSPropertyOp7
70
1
102
RTVSPropertyOp8
70
1
102
RTVSPropertyOp9
70
1
102
RTVSPropertyOp10
70
1
102
RTVSPropertyOp11
70
1
102
RTVSPropertyOp12
70
1
102
RTVSPropertyOp13
70
1
102
RTVSPropertyOp14
70
1
102
RTVSPropertyOp15
70
1
102
RTVSPropertyOp16
70
1
102
RTVSPropertyOp17
70
1
102
RTVSPropertyOp18
70
1
102
RTVSPropertyOp19
70
1
102
RTVSPropertyOp20
70
1
102
RTVSPropertyOp21
70
1
102
RTVSPropertyOp22
70
1
102
RTVSPropertyOp23
70
1
102
RTVSPropertyOp24
70
1
102
RTVSPropertyOp25
70
1
102
RTVSPropertyOp26
70
1
102
RTVSPropertyOp27
70
1
0
XRECORD
5
10A3
102
{ACAD_REACTORS
330
10A2
102
}
330
10A2
100
AcDbXrecord
280
1
102
RTVSPropertyOp0
70
0
102
RTVSPropertyOp1
70
0
102
RTVSPropertyOp2
70
0
102
RTVSPropertyOp3
70
0
102
RTVSPropertyOp4
70
0
102
RTVSPropertyOp5
70
0
102
RTVSPropertyOp6
70
0
102
RTVSPropertyOp7
70
0
102
RTVSPropertyOp8
70
0
102
RTVSPropertyOp9
70
0
102
RTVSPropertyOp10
70
0
102
RTVSPropertyOp11
70
0
102
RTVSPropertyOp12
70
0
102
RTVSPropertyOp13
70
0
102
RTVSPropertyOp14
70
2
102
RTVSPropertyOp15
70
0
102
RTVSPropertyOp16
70
0
102
RTVSPropertyOp17
70
0
102
RTVSPropertyOp18
70
0
102
RTVSPropertyOp19
70
0
102
RTVSPropertyOp20
70
0
102
RTVSPropertyOp21
70
0
102
RTVSPropertyOp22
70
0
102
RTVSPropertyOp23
70
0
102
RTVSPropertyOp24
70
0
102
RTVSPropertyOp25
70
0
102
RTVSPropertyOp26
70
0
102
RTVSPropertyOp27
70
0
0
XRECORD
5
1093
102
{ACAD_REACTORS
330
1092
102
}
330
1092
100
AcDbXrecord
280
1
102
RTVSPropertyOp0
70
1
102
RTVSPropertyOp1
70
1
102
RTVSPropertyOp2
70
1
102
RTVSPropertyOp3
70
1
102
RTVSPropertyOp4
70
1
102
RTVSPropertyOp5
70
1
102
RTVSPropertyOp6
70
1
102
RTVSPropertyOp7
70
1
102
RTVSPropertyOp8
70
1
102
RTVSPropertyOp9
70
1
102
RTVSPropertyOp10
70
1
102
RTVSPropertyOp11
70
1
102
RTVSPropertyOp12
70
1
102
RTVSPropertyOp13
70
1
102
RTVSPropertyOp14
70
1
102
RTVSPropertyOp15
70
1
102
RTVSPropertyOp16
70
1
102
RTVSPropertyOp17
70
1
102
RTVSPropertyOp18
70
1
102
RTVSPropertyOp19
70
1
102
RTVSPropertyOp20
70
1
102
RTVSPropertyOp21
70
1
102
RTVSPropertyOp22
70
1
102
RTVSPropertyOp23
70
1
102
RTVSPropertyOp24
70
1
102
RTVSPropertyOp25
70
1
102
RTVSPropertyOp26
70
1
102
RTVSPropertyOp27
70
1
0
XRECORD
5
1099
102
{ACAD_REACTORS
330
1098
102
}
330
1098
100
AcDbXrecord
280
1
102
RTVSPropertyOp0
70
1
102
RTVSPropertyOp1
70
1
102
RTVSPropertyOp2
70
1
102
RTVSPropertyOp3
70
1
102
RTVSPropertyOp4
70
1
102
RTVSPropertyOp5
70
1
102
RTVSPropertyOp6
70
1
102
RTVSPropertyOp7
70
1
102
RTVSPropertyOp8
70
1
102
RTVSPropertyOp9
70
1
102
RTVSPropertyOp10
70
1
102
RTVSPropertyOp11
70
1
102
RTVSPropertyOp12
70
1
102
RTVSPropertyOp13
70
1
102
RTVSPropertyOp14
70
1
102
RTVSPropertyOp15
70
1
102
RTVSPropertyOp16
70
1
102
RTVSPropertyOp17
70
1
102
RTVSPropertyOp18
70
1
102
RTVSPropertyOp19
70
1
102
RTVSPropertyOp20
70
1
102
RTVSPropertyOp21
70
1
102
RTVSPropertyOp22
70
1
102
RTVSPropertyOp23
70
1
102
RTVSPropertyOp24
70
1
102
RTVSPropertyOp25
70
1
102
RTVSPropertyOp26
70
1
102
RTVSPropertyOp27
70
1
0
ENDSEC
0
EOF
