0
SECTION
2
HEADER
9
$ACADVER
1
AC1015
9
$ACADMAINTVER
70
20
9
$DWGCODEPAGE
3
ANSI_1252
9
$INSBASE
10
0.0
20
0.0
30
0.0
9
$EXTMIN
10
-150.000000000000
20
-105.000000000000
30
0.0
9
$EXTMAX
10
150.000000000000
20
105.000000000000
30
0.0
9
$LIMMIN
10
0.0
20
0.0
9
$LIMMAX
10
12.0
20
9.0
9
$ORTHOMODE
70
0
9
$REGENMODE
70
1
9
$FILLMODE
70
1
9
$QTEXTMODE
70
0
9
$MIRRTEXT
70
1
9
$LTSCALE
40
1.0
9
$ATTMODE
70
1
9
$TEXTSIZE
40
0.2
9
$TRACEWID
40
0.05
9
$TEXTSTYLE
7
Standard
9
$CLAYER
8
0
9
$CELTYPE
6
ByLayer
9
$CECOLOR
62
256
9
$CELTSCALE
40
1.0
9
$DISPSILH
70
0
9
$DIMSCALE
40
1.0
9
$DIMASZ
40
2.5
9
$DIMEXO
40
0.625
9
$DIMDLI
40
0.38
9
$DIMRND
40
0.0
9
$DIMDLE
40
0.0
9
$DIMEXE
40
1.25
9
$DIMTP
40
0.0
9
$DIMTM
40
0.000000001
9
$DIMTXT
40
2.5
9
$DIMCEN
40
0.09
9
$DIMTSZ
40
0.0
9
$DIMTOL
70
1
9
$DIMLIM
70
0
9
$DIMTIH
70
0
9
$DIMTOH
70
0
9
$DIMSE1
70
0
9
$DIMSE2
70
0
9
$DIMTAD
70
1
9
$DIMZIN
70
0
9
$DIMBLK
1
VDDIM_DEFAULT
9
$DIMASO
70
1
9
$DIMSHO
70
1
9
$DIMPOST
1

9
$DIMAPOST
1

9
$DIMALT
70
0
9
$DIMALTD
70
2
9
$DIMALTF
40
25.4
9
$DIMLFAC
40
1.00000000000000
9
$DIMTOFL
70
0
9
$DIMTVP
40
0.0
9
$DIMTIX
70
0
9
$DIMSOXD
70
0
9
$DIMSAH
70
0
9
$DIMBLK1
1

9
$DIMBLK2
1

9
$DIMSTYLE
2
BEM-ISBE
9
$DIMCLRD
70
0
9
$DIMCLRE
70
0
9
$DIMCLRT
70
0
9
$DIMTFAC
40
0.5
9
$DIMGAP
40
0.625
9
$DIMJUST
70
0
9
$DIMSD1
70
0
9
$DIMSD2
70
0
9
$DIMTOLJ
70
1
9
$DIMTZIN
70
0
9
$DIMALTZ
70
0
9
$DIMALTTZ
70
0
9
$DIMUPT
70
0
9
$DIMDEC
70
3
9
$DIMTDEC
70
3
9
$DIMALTU
70
2
9
$DIMALTTD
70
2
9
$DIMTXSTY
7
Standard
9
$DIMAUNIT
70
0
9
$DIMADEC
70
3
9
$DIMALTRND
40
0.0
9
$DIMAZIN
70
0
9
$DIMDSEP
70
46
9
$DIMATFIT
70
3
9
$DIMFRAC
70
0
9
$DIMLDRBLK
1

9
$DIMLUNIT
70
2
9
$DIMLWD
70
-2
9
$DIMLWE
70
-2
9
$DIMTMOVE
70
0
9
$LUNITS
70
2
9
$LUPREC
70
4
9
$SKETCHINC
40
0.1
9
$FILLETRAD
40
0.5
9
$AUNITS
70
0
9
$AUPREC
70
0
9
$MENU
1
.
9
$ELEVATION
40
0.0
9
$PELEVATION
40
0.0
9
$THICKNESS
40
0.0
9
$LIMCHECK
70
0
9
$CHAMFERA
40
0.5
9
$CHAMFERB
40
0.5
9
$CHAMFERC
40
1.0
9
$CHAMFERD
40
0.0
9
$SKPOLY
70
0
9
$TDCREATE
40
0.0
9
$TDUCREATE
40
0.0
9
$TDUPDATE
40
0.0
9
$TDUUPDATE
40
0.0
9
$TDINDWG
40
0.0
9
$TDUSRTIMER
40
0.0
9
$USRTIMER
70
1
9
$ANGBASE
50
0.0
9
$ANGDIR
70
0
9
$PDMODE
70
0
9
$PDSIZE
40
0.0
9
$PLINEWID
40
0.0
9
$SPLFRAME
70
0
9
$SPLINETYPE
70
6
9
$SPLINESEGS
70
8
9
$HANDSEED
5
10AB
9
$SURFTAB1
70
6
9
$SURFTAB2
70
6
9
$SURFTYPE
70
6
9
$SURFU
70
6
9
$SURFV
70
6
9
$UCSBASE
2

9
$UCSNAME
2

9
$UCSORG
10
0.0
20
0.0
30
0.0
9
$UCSXDIR
10
1.0
20
0.0
30
0.0
9
$UCSYDIR
10
0.0
20
1.0
30
0.0
9
$UCSORTHOREF
2

9
$UCSORTHOVIEW
70
0
9
$UCSORGTOP
10
0.0
20
0.0
30
0.0
9
$UCSORGBOTTOM
10
0.0
20
0.0
30
0.0
9
$UCSORGLEFT
10
0.0
20
0.0
30
0.0
9
$UCSORGRIGHT
10
0.0
20
0.0
30
0.0
9
$UCSORGFRONT
10
0.0
20
0.0
30
0.0
9
$UCSORGBACK
10
0.0
20
0.0
30
0.0
9
$PUCSBASE
2

9
$PUCSNAME
2

9
$PUCSORG
10
0.0
20
0.0
30
0.0
9
$PUCSXDIR
10
1.0
20
0.0
30
0.0
9
$PUCSYDIR
10
0.0
20
1.0
30
0.0
9
$PUCSORTHOREF
2

9
$PUCSORTHOVIEW
70
0
9
$PUCSORGTOP
10
0.0
20
0.0
30
0.0
9
$PUCSORGBOTTOM
10
0.0
20
0.0
30
0.0
9
$PUCSORGLEFT
10
0.0
20
0.0
30
0.0
9
$PUCSORGRIGHT
10
0.0
20
0.0
30
0.0
9
$PUCSORGFRONT
10
0.0
20
0.0
30
0.0
9
$PUCSORGBACK
10
0.0
20
0.0
30
0.0
9
$USERI1
70
0
9
$USERI2
70
0
9
$USERI3
70
0
9
$USERI4
70
0
9
$USERI5
70
0
9
$USERR1
40
0.0
9
$USERR2
40
0.0
9
$USERR3
40
0.0
9
$USERR4
40
0.0
9
$USERR5
40
0.0
9
$WORLDVIEW
70
1
9
$SHADEDGE
70
3
9
$SHADEDIF
70
70
9
$TILEMODE
70
1
9
$MAXACTVP
70
64
9
$PINSBASE
10
0.0
20
0.0
30
0.0
9
$PLIMCHECK
70
0
9
$PEXTMIN
10
1.000000000000000E+20
20
1.000000000000000E+20
30
1.000000000000000E+20
9
$PEXTMAX
10
-1.000000000000000E+20
20
-1.000000000000000E+20
30
-1.000000000000000E+20
9
$PLIMMIN
10
0.0
20
0.0
9
$PLIMMAX
10
12.0
20
9.0
9
$UNITMODE
70
0
9
$VISRETAIN
70
1
9
$PLINEGEN
70
0
9
$PSLTSCALE
70
1
9
$TREEDEPTH
70
3020
9
$CMLSTYLE
2
Standard
9
$CMLJUST
70
0
9
$CMLSCALE
40
1.0
9
$PROXYGRAPHICS
70
1
9
$MEASUREMENT
70
0
9
$CELWEIGHT
370
-1
9
$ENDCAPS
280
0
9
$JOINSTYLE
280
0
9
$LWDISPLAY
290
0
9
$INSUNITS
70
4
9
$HYPERLINKBASE
1

9
$STYLESHEET
1

9
$XEDIT
290
1
9
$CEPSNTYPE
380
0
9
$PSTYLEMODE
290
0
9
$FINGERPRINTGUID
2
{FAEB1C30-E019-11D5-929B-00C0DF256EC4}
9
$VERSIONGUID
2
{04C5C4E4-4947-4D90-8812-D401569E61F7}
9
$EXTNAMES
290
1
9
$PSVPSCALE
40
0.0
9
$OLESTARTUP
290
0
0
ENDSEC
0
SECTION
2
TABLES
0
TABLE
2
VPORT
5
24A
330
0
100
AcDbSymbolTable
70
1
0
VPORT
5
26B
330
24A
100
AcDbSymbolTableRecord
100
AcDbViewportTableRecord
2
*Active
70
0
10
0.0
20
0.0
11
1.0
21
1.0
12
0.000000000000000
22
0.000000000000000
13
0.0
23
0.0
14
10.0
24
10.0
15
10.0
25
10.0
16
0.0
26
0.0
36
1.0
17
0.0
27
0.0
37
0.0
40
210.000000000000
41
1.42857142857143
42
1.0
43
0.0
44
0.0
50
0.0
51
0.0000000000007958
71
0
72
100
73
1
74
3
75
0
76
0
77
0
78
1
281
0
65
1
110
0.0
120
0.0
130
0.0
111
1.0
121
0.0
131
0.0
112
0.0
122
1.0
132
0.0
79
0
146
0.0
0
ENDTAB
0
TABLE
2
LTYPE
5
247
330
0
100
AcDbSymbolTable
70
25
0
LTYPE
5
256
330
247
100
AcDbSymbolTableRecord
100
AcDbLinetypeTableRecord
2
ByBlock
70
0
3

72
65
73
0
40
0.0
0
LTYPE
5
257
330
247
100
AcDbSymbolTableRecord
100
AcDbLinetypeTableRecord
2
ByLayer
70
0
3

72
65
73
0
40
0.0
0
LTYPE
5
258
330
247
100
AcDbSymbolTableRecord
100
AcDbLinetypeTableRecord
2
Continuous
70
0
3
Solid line
72
65
73
0
40
0.0
0
LTYPE
5
273
330
247
100
AcDbSymbolTableRecord
100
AcDbLinetypeTableRecord
2
CENTER
70
0
3
Center ____ _ ____ _ ____ _ ____ _ ____ _ ____
72
65
73
4
40
2.0
49
1.25
74
0
49
-0.25
74
0
49
0.25
74
0
49
-0.25
74
0
0
LTYPE
5
274
330
247
100
AcDbSymbolTableRecord
100
AcDbLinetypeTableRecord
2
DASHDOT
70
0
3
Dashdot __ . __ . __ . __ . __ . __ . __ . __
72
65
73
4
40
1.0
49
0.5
74
0
49
-0.25
74
0
49
0.0
74
0
49
-0.25
74
0
0
LTYPE
5
275
330
247
100
AcDbSymbolTableRecord
100
AcDbLinetypeTableRecord
2
DASHED
70
0
3
Dashed __ __ __ __ __ __ __ __ __ __ __ __ __ _
72
65
73
2
40
0.75
49
0.5
74
0
49
-0.25
74
0
0
LTYPE
5
276
330
247
100
AcDbSymbolTableRecord
100
AcDbLinetypeTableRecord
2
HIDDEN
70
0
3
Hidden __ __ __ __ __ __ __ __ __ __ __ __ __ __
72
65
73
2
40
0.375
49
0.25
74
0
49
-0.125
74
0
0
LTYPE
5
277
330
247
100
AcDbSymbolTableRecord
100
AcDbLinetypeTableRecord
2
HIDDEN2
70
0
3
Hidden2 _ _ _ _ _ _ _ _ _ _ _ _ _ _ _ _ _
72
65
73
2
40
0.1875
49
0.125
74
0
49
-0.0625
74
0
0
LTYPE
5
278
330
247
100
AcDbSymbolTableRecord
100
AcDbLinetypeTableRecord
2
BORDER
70
0
3
Border __ __ . __ __ . __ __ . __ __ . __ __ .
72
65
73
6
40
1.75
49
0.5
74
0
49
-0.25
74
0
49
0.5
74
0
49
-0.25
74
0
49
0.0
74
0
49
-0.25
74
0
0
LTYPE
5
279
330
247
100
AcDbSymbolTableRecord
100
AcDbLinetypeTableRecord
2
BORDER2
70
0
3
Border2 __.__.__.__.__.__.__.__.__.__.__.
72
65
73
6
40
0.875
49
0.25
74
0
49
-0.125
74
0
49
0.25
74
0
49
-0.125
74
0
49
0.0
74
0
49
-0.125
74
0
0
LTYPE
5
27A
330
247
100
AcDbSymbolTableRecord
100
AcDbLinetypeTableRecord
2
BORDERX2
70
0
3
Borderx2  ____  ____  .  ____  ____  .  ___
72
65
73
6
40
3.5
49
1.0
74
0
49
-0.5
74
0
49
1.0
74
0
49
-0.5
74
0
49
0.0
74
0
49
-0.5
74
0
0
LTYPE
5
27B
330
247
100
AcDbSymbolTableRecord
100
AcDbLinetypeTableRecord
2
CENTER2
70
0
3
Center2  ___ _ ___ _ ___ _ ___ _ ___ _ ___
72
65
73
4
40
1.125
49
0.75
74
0
49
-0.125
74
0
49
0.125
74
0
49
-0.125
74
0
0
LTYPE
5
27C
330
247
100
AcDbSymbolTableRecord
100
AcDbLinetypeTableRecord
2
CENTERX2
70
0
3
Centerx2  ________  __  ________  __  _____
72
65
73
4
40
4.0
49
2.5
74
0
49
-0.5
74
0
49
0.5
74
0
49
-0.5
74
0
0
LTYPE
5
27D
330
247
100
AcDbSymbolTableRecord
100
AcDbLinetypeTableRecord
2
DASHDOT2
70
0
3
Dashdot2  _._._._._._._._._._._._._._._.
72
65
73
4
40
0.5
49
0.25
74
0
49
-0.125
74
0
49
0.0
74
0
49
-0.125
74
0
0
LTYPE
5
27E
330
247
100
AcDbSymbolTableRecord
100
AcDbLinetypeTableRecord
2
DASHDOTX2
70
0
3
Dashdotx2 ____  .  ____  .  ____  .  ___
72
65
73
4
40
2.0
49
1.0
74
0
49
-0.5
74
0
49
0.0
74
0
49
-0.5
74
0
0
LTYPE
5
27F
330
247
100
AcDbSymbolTableRecord
100
AcDbLinetypeTableRecord
2
DASHED2
70
0
3
Dashed2 _ _ _ _ _ _ _ _ _ _ _ _ _ _ _ _ _
72
65
73
2
40
0.375
49
0.25
74
0
49
-0.125
74
0
0
LTYPE
5
280
330
247
100
AcDbSymbolTableRecord
100
AcDbLinetypeTableRecord
2
DASHEDX2
70
0
3
Dashedx2 ____  ____  ____  ____  ____  ___
72
65
73
2
40
1.5
49
1.0
74
0
49
-0.5
74
0
0
LTYPE
5
281
330
247
100
AcDbSymbolTableRecord
100
AcDbLinetypeTableRecord
2
DIVIDE
70
0
3
Divide ____ . . ____ . . ____ . . ____ . . ____
72
65
73
6
40
1.25
49
0.5
74
0
49
-0.25
74
0
49
0.0
74
0
49
-0.25
74
0
49
0.0
74
0
49
-0.25
74
0
0
LTYPE
5
282
330
247
100
AcDbSymbolTableRecord
100
AcDbLinetypeTableRecord
2
DIVIDE2
70
0
3
Divide2 __..__..__..__..__..__..__..__.._
72
65
73
6
40
0.625
49
0.25
74
0
49
-0.125
74
0
49
0.0
74
0
49
-0.125
74
0
49
0.0
74
0
49
-0.125
74
0
0
LTYPE
5
283
330
247
100
AcDbSymbolTableRecord
100
AcDbLinetypeTableRecord
2
DIVIDEX2
70
0
3
Dividex2 ________  .  .  ________  .  .  _
72
65
73
6
40
2.5
49
1.0
74
0
49
-0.5
74
0
49
0.0
74
0
49
-0.5
74
0
49
0.0
74
0
49
-0.5
74
0
0
LTYPE
5
284
330
247
100
AcDbSymbolTableRecord
100
AcDbLinetypeTableRecord
2
DOT
70
0
3
Dot . . . . . . . . . . . . . . . . . . . . . . . .
72
65
73
2
40
0.25
49
0.0
74
0
49
-0.25
74
0
0
LTYPE
5
285
330
247
100
AcDbSymbolTableRecord
100
AcDbLinetypeTableRecord
2
DOT2
70
0
3
Dot2 ........................................
72
65
73
2
40
0.125
49
0.0
74
0
49
-0.125
74
0
0
LTYPE
5
286
330
247
100
AcDbSymbolTableRecord
100
AcDbLinetypeTableRecord
2
DOTX2
70
0
3
Dotx2 .  .  .  .  .  .  .  .  .  .  .  .  .  .
72
65
73
2
40
0.5
49
0.0
74
0
49
-0.5
74
0
0
LTYPE
5
287
330
247
100
AcDbSymbolTableRecord
100
AcDbLinetypeTableRecord
2
HIDDENX2
70
0
3
Hiddenx2 ____ ____ ____ ____ ____ ____ ____
72
65
73
2
40
0.75
49
0.5
74
0
49
-0.25
74
0
0
LTYPE
5
288
330
247
100
AcDbSymbolTableRecord
100
AcDbLinetypeTableRecord
2
PHANTOM
70
0
3
Phantom ______  __  __  ______  __  __  ______
72
65
73
6
40
2.5
49
1.25
74
0
49
-0.25
74
0
49
0.25
74
0
49
-0.25
74
0
49
0.25
74
0
49
-0.25
74
0
0
LTYPE
5
289
330
247
100
AcDbSymbolTableRecord
100
AcDbLinetypeTableRecord
2
PHANTOM2
70
0
3
Phantom2 ___ _ _ ___ _ _ ___ _ _ ___ _ _
72
65
73
6
40
1.25
49
0.625
74
0
49
-0.125
74
0
49
0.125
74
0
49
-0.125
74
0
49
0.125
74
0
49
-0.125
74
0
0
LTYPE
5
28A
330
247
100
AcDbSymbolTableRecord
100
AcDbLinetypeTableRecord
2
PHANTOMX2
70
0
3
Phantomx2 ____________    ____    ____   _
72
65
73
6
40
5.0
49
2.5
74
0
49
-0.5
74
0
49
0.5
74
0
49
-0.5
74
0
49
0.5
74
0
49
-0.5
74
0
0
ENDTAB
0
TABLE
2
LAYER
5
244
330
0
100
AcDbSymbolTable
70
6
0
LAYER
5
252
330
244
100
AcDbSymbolTableRecord
100
AcDbLayerTableRecord
2
0
70
0
62
7
6
Continuous
370
0
390
251
0
LAYER
5
23F
330
244
100
AcDbSymbolTableRecord
100
AcDbLayerTableRecord
2
Bemassung
70
0
 62
   7
6
Continuous
370
0
390
251
0
LAYER
5
240
330
244
100
AcDbSymbolTableRecord
100
AcDbLayerTableRecord
2
Rahmen
70
0
 62
   7
6
Continuous
370
0
390
251
0
LAYER
5
241
330
244
100
AcDbSymbolTableRecord
100
AcDbLayerTableRecord
2
Geo
70
0
 62
   7
6
Continuous
370
0
390
251
0
LAYER
5
33A
330
244
100
AcDbSymbolTableRecord
100
AcDbLayerTableRecord
2
Defpoints
70
0
62
7
6
Continuous
290
0
370
-3
390
251
0
LAYER
5
57E
330
244
100
AcDbSymbolTableRecord
100
AcDbLayerTableRecord
2
Text
70
0
 62
   7
6
Continuous
370
0
390
251
1001
AcAecLayerStandard
1000

1000

0
ENDTAB
0
TABLE
2
STYLE
5
245
330
0
100
AcDbSymbolTable
70
2
0
STYLE
5
253
330
245
100
AcDbSymbolTableRecord
100
AcDbTextStyleTableRecord
2
Standard
70
0
40
0.0
41
1.0
50
0.0
71
0
42
0.2
3
Arial
4

1001
ACAD
1000
Arial
1071
0
0
STYLE
5
132
330
245
100
AcDbSymbolTableRecord
100
AcDbTextStyleTableRecord
2
Beschriftung
70
0
40
0.0
41
1.0
50
0.0
71
0
42
0.2
3
Arial
4

1001
ACAD
1000
Arial
1071
0
1001
AcadAnnotative
1000
AnnotativeData
1070
1
1070
1
0
ENDTAB
0
TABLE
2
VIEW
5
248
330
0
100
AcDbSymbolTable
70
0
0
ENDTAB
0
TABLE
2
UCS
5
249
330
0
100
AcDbSymbolTable
70
0
0
ENDTAB
0
TABLE
2
APPID
5
24B
330
0
100
AcDbSymbolTable
70
13
0
APPID
5
254
330
24B
100
AcDbSymbolTableRecord
100
AcDbRegAppTableRecord
2
ACAD
70
0
0
APPID
5
26C
330
24B
100
AcDbSymbolTableRecord
100
AcDbRegAppTableRecord
2
VD_INVISIBLE_NOT_FOR_READ
70
0
0
APPID
5
26D
330
24B
100
AcDbSymbolTableRecord
100
AcDbRegAppTableRecord
2
VD_TEMPHATCH
70
0
0
APPID
5
26E
330
24B
100
AcDbSymbolTableRecord
100
AcDbRegAppTableRecord
2
VDEXTRAPARAM
70
0
0
APPID
5
26F
330
24B
100
AcDbSymbolTableRecord
100
AcDbRegAppTableRecord
2
PE_URL
70
0
0
APPID
5
270
330
24B
100
AcDbSymbolTableRecord
100
AcDbRegAppTableRecord
2
VD_UNKNOWN
70
0
0
APPID
5
28F
330
24B
100
AcDbSymbolTableRecord
100
AcDbRegAppTableRecord
2
AcadAnnotative
70
0
0
APPID
5
290
330
24B
100
AcDbSymbolTableRecord
100
AcDbRegAppTableRecord
2
ACAD_DSTYLE_DIMJAG
70
0
0
APPID
5
291
330
24B
100
AcDbSymbolTableRecord
100
AcDbRegAppTableRecord
2
ACAD_DSTYLE_DIMTALN
70
0
0
APPID
5
293
330
24B
100
AcDbSymbolTableRecord
100
AcDbRegAppTableRecord
2
ACAD_PSEXT
70
0
0
APPID
5
42A
330
24B
100
AcDbSymbolTableRecord
100
AcDbRegAppTableRecord
2
ACAD_MLEADERVER
70
0
0
APPID
5
532
330
24B
100
AcDbSymbolTableRecord
100
AcDbRegAppTableRecord
2
ACAD_EXEMPT_FROM_CAD_STANDARDS
70
0
0
APPID
5
57F
330
24B
100
AcDbSymbolTableRecord
100
AcDbRegAppTableRecord
2
AcAecLayerStandard
70
0
0
ENDTAB
0
TABLE
2
DIMSTYLE
5
24C
330
0
100
AcDbSymbolTable
70
3
100
AcDbDimStyleTable
71
2
340
27
340
269
0
DIMSTYLE
105
269
330
24C
100
AcDbSymbolTableRecord
100
AcDbDimStyleTableRecord
2
Standard
70
0
172
1
174
1
288
1
340
253
342
23C
0
DIMSTYLE
105
137
330
24C
100
AcDbSymbolTableRecord
100
AcDbDimStyleTableRecord
2
Beschriftung
70
0
41
2.5
42
0.625
44
1.25
73
0
74
0
77
1
140
2.5
147
0.625
172
1
174
1
271
2
288
1
340
253
342
23C
1001
AcadAnnotative
1000
AnnotativeData
1070
1
1070
1
1001
ACAD_DSTYLE_DIMJAG
1070
388
1040
1.5
1001
ACAD_DSTYLE_DIMTALN
1070
392
1070
0
0
DIMSTYLE
105
27
102
{ACAD_REACTORS
330
F1000D
330
F10017
330
F10021
330
F10026
330
F10012
330
F10008
330
F10003
330
F1001C
102
}
330
24C
100
AcDbSymbolTableRecord
100
AcDbDimStyleTableRecord
2
BEM-ISBE
70
0
41
2.5
42
0.625
44
1.25
48
0.000000001
71
1
73
0
74
0
77
1
140
2.5
144
1.00000000000000
146
0.5
147
0.625
171
 3
172
 1
179
 3
271
 3
272
 3
274
 3
340
253
342
23C
1001
ACAD_DSTYLE_DIMJAG
1070
388
1040
1.5
1001
ACAD_DSTYLE_DIMTALN
1070
392
1070
1
0
ENDTAB
0
TABLE
2
BLOCK_RECORD
5
243
330
0
100
AcDbSymbolTable
70
5
0
BLOCK_RECORD
5
261
330
243
100
AcDbSymbolTableRecord
100
AcDbBlockTableRecord
2
*Model_Space
340
FD0
0
BLOCK_RECORD
5
25D
330
243
100
AcDbSymbolTableRecord
100
AcDbBlockTableRecord
2
*Paper_Space
340
FD1
0
BLOCK_RECORD
5
265
330
243
100
AcDbSymbolTableRecord
100
AcDbBlockTableRecord
2
*Paper_Space0
340
0
0
BLOCK_RECORD
5
23C
330
243
100
AcDbSymbolTableRecord
100
AcDbBlockTableRecord
2
VDDIM_DEFAULT
340
0
102
{BLKREFS
102
}
0
BLOCK_RECORD
5
23E
330
243
100
AcDbSymbolTableRecord
100
AcDbBlockTableRecord
2
VDDIM_NONE
340
0
0
BLOCK_RECORD
5
F1000C
330
243
100
AcDbSymbolTableRecord
100
AcDbBlockTableRecord
2
*D5
340
0
0
BLOCK_RECORD
5
F10016
330
243
100
AcDbSymbolTableRecord
100
AcDbBlockTableRecord
2
*D7
340
0
0
BLOCK_RECORD
5
F10020
330
243
100
AcDbSymbolTableRecord
100
AcDbBlockTableRecord
2
*D9
340
0
0
BLOCK_RECORD
5
F10025
330
243
100
AcDbSymbolTableRecord
100
AcDbBlockTableRecord
2
*D10
340
0
0
BLOCK_RECORD
5
F10011
330
243
100
AcDbSymbolTableRecord
100
AcDbBlockTableRecord
2
*D6
340
0
0
BLOCK_RECORD
5
F10007
330
243
100
AcDbSymbolTableRecord
100
AcDbBlockTableRecord
2
*D4
340
0
0
BLOCK_RECORD
5
F10002
330
243
100
AcDbSymbolTableRecord
100
AcDbBlockTableRecord
2
*D3
340
0
0
BLOCK_RECORD
5
F1001B
330
243
100
AcDbSymbolTableRecord
100
AcDbBlockTableRecord
2
*D8
340
0
0
ENDTAB
0
ENDSEC
0
SECTION
2
BLOCKS
0
BLOCK
5
262
330
261
100
AcDbEntity
8
0
100
AcDbBlockBegin
2
*Model_Space
70
0
10
0.0
20
0.0
30
0.0
3
*Model_Space
1

0
ENDBLK
5
263
330
261
100
AcDbEntity
8
0
100
AcDbBlockEnd
0
BLOCK
5
25E
330
25D
100
AcDbEntity
67
1
8
0
100
AcDbBlockBegin
2
*Paper_Space
70
0
10
0.0
20
0.0
30
0.0
3
*Paper_Space
1

0
ENDBLK
5
25F
330
25D
100
AcDbEntity
67
1
8
0
100
AcDbBlockEnd
0
BLOCK
5
266
330
265
100
AcDbEntity
8
0
100
AcDbBlockBegin
2
*Paper_Space0
70
0
10
0.0
20
0.0
30
0.0
3
*Paper_Space0
1

0
VIEWPORT
5
296
102
{ACAD_XDICTIONARY
360
58E
102
}
330
265
100
AcDbEntity
8
0
60
1
100
AcDbViewport
10
0.0
20
0.0
30
0.0
40
10.0
41
10.0
69
0
12
0.0
22
0.0
13
0.0
23
0.0
14
1.0
24
1.0
15
0.0
25
0.0
16
0.0
26
0.0
36
1.0
17
0.0
27
0.0
37
0.0
42
0.0
43
0.0
44
0.0
45
10.0
50
0.0
51
0.0000000000007958
72
100
90
163872
1

281
0
71
0
74
0
110
0.0
120
0.0
130
0.0
111
1.0
121
0.0
131
0.0
112
0.0
122
1.0
132
0.0
79
0
146
0.0
1001
VD_INVISIBLE_NOT_FOR_READ
1000
VD_INVISIBLE_NOT_FOR_READ
0
VIEWPORT
5
297
102
{ACAD_XDICTIONARY
360
590
102
}
330
265
100
AcDbEntity
8
0
60
1
100
AcDbViewport
10
0.0
20
0.0
30
0.0
40
10.0
41
10.0
69
0
12
0.0
22
0.0
13
0.0
23
0.0
14
1.0
24
1.0
15
0.0
25
0.0
16
0.0
26
0.0
36
1.0
17
0.0
27
0.0
37
0.0
42
0.0
43
0.0
44
0.0
45
10.0
50
0.0
51
0.0000000000007958
72
100
90
163872
1

281
0
71
0
74
0
110
0.0
120
0.0
130
0.0
111
1.0
121
0.0
131
0.0
112
0.0
122
1.0
132
0.0
79
0
146
0.0
1001
VD_INVISIBLE_NOT_FOR_READ
1000
VD_INVISIBLE_NOT_FOR_READ
0
ENDBLK
5
267
330
265
100
AcDbEntity
8
0
100
AcDbBlockEnd
0
BLOCK
5
28B
330
23C
100
AcDbEntity
8
0
100
AcDbBlockBegin
2
VDDIM_DEFAULT
70
0
10
0.0
20
0.0
30
0.0
3
VDDIM_DEFAULT
1

0
LWPOLYLINE
5
23D
330
23C
100
AcDbEntity
8
0
6
Continuous
62
0
100
AcDbPolyline
90
4
70
0
43
0.0
10
0.0
20
0.0
10
-1.0
20
-0.1665
10
-1.0
20
0.1665
10
0.0
20
0.0
1001
VDEXTRAPARAM
1071
1
1071
0
1071
0
1040
1.0
1000

1000

1040
0.0
1040
0.0
0
HATCH
5
292
330
23C
100
AcDbEntity
8
0
6
Continuous
62
0
100
AcDbHatch
10
0.0
20
0.0
30
0.0
210
0.0
220
0.0
230
1.0
2
SOLID
70
1
71
0
91
1
92
2
72
0
73
1
93
3
10
0.0
20
0.0
10
-1.0
20
-0.1665
10
-1.0
20
0.1665
97
0
75
0
76
1
98
1
10
0.0
20
0.0
1001
VDEXTRAPARAM
1071
1
1071
0
1071
0
1040
1.0
1000

1000

1040
0.0
1040
0.0
1001
VD_TEMPHATCH
1000
VD_TEMPHATCH
0
ENDBLK
5
28C
330
23C
100
AcDbEntity
8
0
100
AcDbBlockEnd
0
BLOCK
5
28D
330
23E
100
AcDbEntity
8
0
100
AcDbBlockBegin
2
VDDIM_NONE
70
0
10
0.0
20
0.0
30
0.0
3
VDDIM_NONE
1

0
ENDBLK
5
28E
330
23E
100
AcDbEntity
8
0
100
AcDbBlockEnd
  0
BLOCK
  5
F1002A
330
F1000C
100
AcDbEntity
  8
0
100
AcDbBlockBegin
  2
*D5
 70
     1
 10
0.0
 20
0.0
 30
0.0
  3
*D5
  1

  0
LINE
  5
F1002B
330
F1000C
100
AcDbEntity
  8
Bemassung
 62
     0
370
    -2
100
AcDbLine
10
-85.1241299303943
20
-11.7540603248259
30
0.000000000000000
11
-85.1241299303943
21
28.2459396751741
31
0.000000000000000
  0
LINE
  5
F1002C
330
F1000C
100
AcDbEntity
  8
Bemassung
 62
     0
370
    -2
100
AcDbLine
10
-63.1241299303943
20
0.745939675174071
30
0.000000000000000
11
-63.1241299303943
21
13.2459396751741
31
0.000000000000000
  0
LINE
  5
F1002D
330
F1000C
100
AcDbEntity
  8
Bemassung
 62
     0
370
    -2
100
AcDbLine
10
-85.1241299303943
20
11.2459396751741
30
0.000000000000000
11
-50.1160092807424
21
11.2459396751741
31
0.000000000000000
  0
INSERT
  5
F1002E
330
F1000C
100
AcDbEntity
  8
Bemassung
 62
     0
370
    -2
100
AcDbBlockReference
  2
VDDIM_DEFAULT
10
-85.1241299303943
20
11.2459396751741
30
0.000000000000000
 41
2.50000000000000
 42
2.50000000000000
 43
2.50000000000000
 50
180.000000000000
  0
INSERT
  5
F1002F
330
F1000C
100
AcDbEntity
  8
Bemassung
 62
     0
370
    -2
100
AcDbBlockReference
  2
VDDIM_DEFAULT
10
-63.1241299303943
20
11.2459396751741
30
0.000000000000000
 41
2.50000000000000
 42
2.50000000000000
 43
2.50000000000000
  0
MTEXT
  5
F10030
330
F1000C
100
AcDbEntity
  8
Bemassung
 62
     0
100
AcDbMText
10
-74.1241299303943
20
11.9126063418407
30
0.000000000000000
 40
2.50000000000000
 41
0.0
 71
     8
 72
     1
  1
22
 11
1.00000000000000
 21
0.000000000000000
 31
0.0
 73
     1
 44
1.0
1001
ACAD
1000
MTEXTBEGIN
1070
73
1070
1
1070
44
1040
1.0
1070
74
1070
0
1000
MTEXTEND
  0
POINT
  5
F10031
330
F1000C
100
AcDbEntity
  8
Bemassung
 62
     0
100
AcDbPoint
10
-85.1241299303943
20
-11.7540603248259
30
0.000000000000000
  0
POINT
  5
F10032
330
F1000C
100
AcDbEntity
  8
Bemassung
 62
     0
100
AcDbPoint
10
-63.1241299303943
20
0.745939675174071
30
0.000000000000000
  0
ENDBLK
  5
F10033
330
F1000C
100
AcDbEntity
  8
0
100
AcDbBlockEnd
  0
BLOCK
  5
F10034
330
F10016
100
AcDbEntity
  8
0
100
AcDbBlockBegin
  2
*D7
 70
     1
 10
0.0
 20
0.0
 30
0.0
  3
*D7
  1

  0
LINE
  5
F10035
330
F10016
100
AcDbEntity
  8
Bemassung
 62
     0
370
    -2
100
AcDbLine
10
-61.2581045266098
20
1.24593967517407
30
0.000000000000000
11
-61.2581045266098
21
18.2459396751741
31
0.000000000000000
  0
LINE
  5
F10036
330
F10016
100
AcDbEntity
  8
Bemassung
 62
     0
370
    -2
100
AcDbLine
10
-25.1241299303942
20
0.945939675174071
30
0.000000000000000
11
-25.1241299303942
21
28.2459396751741
31
0.000000000000000
  0
LINE
  5
F10037
330
F10016
100
AcDbEntity
  8
Bemassung
 62
     0
370
    -2
100
AcDbLine
10
-61.2581045266098
20
16.2459396751741
30
0.000000000000000
11
46.8584686774942
21
16.2459396751741
31
0.000000000000000
  0
INSERT
  5
F10038
330
F10016
100
AcDbEntity
  8
Bemassung
 62
     0
370
    -2
100
AcDbBlockReference
  2
VDDIM_DEFAULT
10
-61.2581045266098
20
16.2459396751741
30
0.000000000000000
 41
2.50000000000000
 42
2.50000000000000
 43
2.50000000000000
 50
180.000000000000
  0
INSERT
  5
F10039
330
F10016
100
AcDbEntity
  8
Bemassung
 62
     0
370
    -2
100
AcDbBlockReference
  2
VDDIM_DEFAULT
10
-25.1241299303942
20
16.2459396751741
30
0.000000000000000
 41
2.50000000000000
 42
2.50000000000000
 43
2.50000000000000
  0
MTEXT
  5
F1003A
330
F10016
100
AcDbEntity
  8
Bemassung
 62
     0
100
AcDbMText
10
-43.1911172285020
20
16.9126063418407
30
0.000000000000000
 40
2.50000000000000
 41
0.0
 71
     8
 72
     1
  1
36.134
 11
1.00000000000000
 21
0.000000000000000
 31
0.0
 73
     1
 44
1.0
1001
ACAD
1000
MTEXTBEGIN
1070
73
1070
1
1070
44
1040
1.0
1070
74
1070
0
1000
MTEXTEND
  0
POINT
  5
F1003B
330
F10016
100
AcDbEntity
  8
Bemassung
 62
     0
100
AcDbPoint
10
-61.2581045266098
20
1.24593967517407
30
0.000000000000000
  0
POINT
  5
F1003C
330
F10016
100
AcDbEntity
  8
Bemassung
 62
     0
100
AcDbPoint
10
-25.1241299303942
20
0.945939675174071
30
0.000000000000000
  0
ENDBLK
  5
F1003D
330
F10016
100
AcDbEntity
  8
0
100
AcDbBlockEnd
  0
BLOCK
  5
F1003E
330
F10020
100
AcDbEntity
  8
0
100
AcDbBlockBegin
  2
*D9
 70
     1
 10
0.0
 20
0.0
 30
0.0
  3
*D9
  1

  0
LINE
  5
F1003F
330
F10020
100
AcDbEntity
  8
Bemassung
 62
     0
370
    -2
100
AcDbLine
10
-65.1241299303943
20
-4.25406032482593
30
0.000000000000000
11
-65.1241299303943
21
-11.7540603248259
31
0.000000000000000
  0
LINE
  5
F10040
330
F10020
100
AcDbEntity
  8
Bemassung
 62
     0
370
    -2
100
AcDbLine
10
-85.1241299303943
20
-11.7540603248259
30
0.000000000000000
11
-85.1241299303943
21
28.2459396751741
31
0.000000000000000
  0
LINE
  5
F10041
330
F10020
100
AcDbEntity
  8
Bemassung
 62
     0
370
    -2
100
AcDbLine
10
-52.8723897911833
20
-9.75406032482593
30
0.000000000000000
11
-85.1241299303943
21
-9.75406032482593
31
0.000000000000000
  0
INSERT
  5
F10042
330
F10020
100
AcDbEntity
  8
Bemassung
 62
     0
370
    -2
100
AcDbBlockReference
  2
VDDIM_DEFAULT
10
-65.1241299303943
20
-9.75406032482593
30
0.000000000000000
 41
2.50000000000000
 42
2.50000000000000
 43
2.50000000000000
  0
INSERT
  5
F10043
330
F10020
100
AcDbEntity
  8
Bemassung
 62
     0
370
    -2
100
AcDbBlockReference
  2
VDDIM_DEFAULT
10
-85.1241299303943
20
-9.75406032482593
30
0.000000000000000
 41
2.50000000000000
 42
2.50000000000000
 43
2.50000000000000
 50
180.000000000000
  0
MTEXT
  5
F10044
330
F10020
100
AcDbEntity
  8
Bemassung
 62
     0
100
AcDbMText
10
-75.1241299303943
20
-9.08739365815926
30
0.000000000000000
 40
2.50000000000000
 41
0.0
 71
     8
 72
     1
  1
20
 11
1.00000000000000
 21
0.000000000000000
 31
0.0
 73
     1
 44
1.0
1001
ACAD
1000
MTEXTBEGIN
1070
73
1070
1
1070
44
1040
1.0
1070
74
1070
0
1000
MTEXTEND
  0
POINT
  5
F10045
330
F10020
100
AcDbEntity
  8
Bemassung
 62
     0
100
AcDbPoint
10
-65.1241299303943
20
-4.25406032482593
30
0.000000000000000
  0
POINT
  5
F10046
330
F10020
100
AcDbEntity
  8
Bemassung
 62
     0
100
AcDbPoint
10
-85.1241299303943
20
-11.7540603248259
30
0.000000000000000
  0
ENDBLK
  5
F10047
330
F10020
100
AcDbEntity
  8
0
100
AcDbBlockEnd
  0
BLOCK
  5
F10048
330
F10025
100
AcDbEntity
  8
0
100
AcDbBlockBegin
  2
*D10
 70
     1
 10
0.0
 20
0.0
 30
0.0
  3
*D10
  1

  0
LINE
  5
F10049
330
F10025
100
AcDbEntity
  8
Bemassung
 62
     0
370
    -2
100
AcDbLine
10
-25.1241299303942
20
0.945939675174071
30
0.000000000000000
11
-25.1241299303942
21
28.2459396751741
31
0.000000000000000
  0
LINE
  5
F1004A
330
F10025
100
AcDbEntity
  8
Bemassung
 62
     0
370
    -2
100
AcDbLine
10
-85.1241299303943
20
-11.7540603248259
30
0.000000000000000
11
-85.1241299303943
21
28.2459396751741
31
0.000000000000000
  0
LINE
  5
F1004B
330
F10025
100
AcDbEntity
  8
Bemassung
 62
     0
370
    -2
100
AcDbLine
10
22.5522041763341
20
26.2459396751741
30
0.000000000000000
11
-85.1241299303943
21
26.2459396751741
31
0.000000000000000
  0
INSERT
  5
F1004C
330
F10025
100
AcDbEntity
  8
Bemassung
 62
     0
370
    -2
100
AcDbBlockReference
  2
VDDIM_DEFAULT
10
-25.1241299303942
20
26.2459396751741
30
0.000000000000000
 41
2.50000000000000
 42
2.50000000000000
 43
2.50000000000000
  0
INSERT
  5
F1004D
330
F10025
100
AcDbEntity
  8
Bemassung
 62
     0
370
    -2
100
AcDbBlockReference
  2
VDDIM_DEFAULT
10
-85.1241299303943
20
26.2459396751741
30
0.000000000000000
 41
2.50000000000000
 42
2.50000000000000
 43
2.50000000000000
 50
180.000000000000
  0
MTEXT
  5
F1004E
330
F10025
100
AcDbEntity
  8
Bemassung
 62
     0
100
AcDbMText
10
-49.9408352668212
20
26.9126063418407
30
0.000000000000000
 40
2.50000000000000
 41
0.0
 71
     8
 72
     1
  1
60
 11
1.00000000000000
 21
0.000000000000000
 31
0.0
 73
     1
 44
1.0
1001
ACAD
1000
MTEXTBEGIN
1070
73
1070
1
1070
44
1040
1.0
1070
74
1070
0
1000
MTEXTEND
  0
POINT
  5
F1004F
330
F10025
100
AcDbEntity
  8
Bemassung
 62
     0
100
AcDbPoint
10
-25.1241299303942
20
0.945939675174071
30
0.000000000000000
  0
POINT
  5
F10050
330
F10025
100
AcDbEntity
  8
Bemassung
 62
     0
100
AcDbPoint
10
-85.1241299303943
20
-11.7540603248259
30
0.000000000000000
  0
ENDBLK
  5
F10051
330
F10025
100
AcDbEntity
  8
0
100
AcDbBlockEnd
  0
BLOCK
  5
F10052
330
F10011
100
AcDbEntity
  8
0
100
AcDbBlockBegin
  2
*D6
 70
     1
 10
0.0
 20
0.0
 30
0.0
  3
*D6
  1

 0
ARC
  5
F10053
330
F10011
100
AcDbEntity
  8
Bemassung
 62
     0
370
   -2
100
AcDbCircle
10
-61.2581045266098
20
1.24593967517407
30
0.000000000000000
 40
40.5238000919950
100
AcDbArc
 50
0.000000000000000
 51
15.0000000000000
  0
LINE
  5
F10054
330
F10011
100
AcDbEntity
  8
Bemassung
 62
     0
370
    -2
100
AcDbLine
10
-61.2581045266098
20
1.24593967517407
30
0.000000000000000
11
-18.7343044346148
21
1.24593967517407
31
0.000000000000000
  0
LINE
  5
F10055
330
F10011
100
AcDbEntity
  8
Bemassung
 62
     0
370
    -2
100
AcDbLine
10
-61.2581045266098
20
1.24593967517407
30
0.000000000000000
11
-20.1832677857984
21
12.2519090091147
31
0.000000000000000
  0
INSERT
  5
F10056
330
F10011
100
AcDbEntity
  8
Bemassung
 62
     0
370
    -2
100
AcDbBlockReference
  2
VDDIM_DEFAULT
10
-20.7343044346148
20
1.24593967517407
30
0.000000000000000
 41
2.50000000000000
 42
2.50000000000000
 43
2.50000000000000
 50
271.767630048296
  0
INSERT
  5
F10057
330
F10011
100
AcDbEntity
  8
Bemassung
 62
     0
370
    -2
100
AcDbBlockReference
  2
VDDIM_DEFAULT
10
-22.1151194383765
20
11.7342709189096
30
0.000000000000000
 41
2.50000000000000
 42
2.50000000000000
 43
2.50000000000000
 50
103.232369951704
  0
MTEXT
  5
F10058
330
F10011
100
AcDbEntity
  8
Bemassung
 62
     0
100
AcDbMText
10
-20.9479248080016
20
5.40139211136894
30
0.000000000000000
 40
2.50000000000000
 41
0.0
 71
     8
 72
     1
  1
15°
 11
0.105006313285611
 21
-0.994471555234319
 31
0.0
 73
     1
 44
1.0
1001
ACAD
1000
MTEXTBEGIN
1070
73
1070
1
1070
44
1040
1.0
1070
74
1070
0
1000
MTEXTEND
  0
POINT
  5
F10059
330
F10011
100
AcDbEntity
  8
Bemassung
 62
     0
100
AcDbPoint
10
-61.2581045266098
20
1.24593967517407
30
0.000000000000000
  0
POINT
  5
F1005A
330
F10011
100
AcDbEntity
  8
Bemassung
 62
     0
100
AcDbPoint
10
-20.7343044346148
20
1.24593967517407
30
0.000000000000000
  0
POINT
  5
F1005B
330
F10011
100
AcDbEntity
  8
Bemassung
 62
     0
100
AcDbPoint
10
-22.1151194383765
20
11.7342709189096
30
0.000000000000000
  0
POINT
  5
F1005C
330
F10011
100
AcDbEntity
  8
Bemassung
 62
     0
100
AcDbPoint
10
-21.0809911620618
20
6.53535699546875
30
0.000000000000000
  0
ENDBLK
  5
F1005D
330
F10011
100
AcDbEntity
  8
0
100
AcDbBlockEnd
  0
BLOCK
  5
F1005E
330
F10007
100
AcDbEntity
  8
0
100
AcDbBlockBegin
  2
*D4
 70
     1
 10
0.0
 20
0.0
 30
0.0
  3
*D4
  1

  0
LINE
  5
F1005F
330
F10007
100
AcDbEntity
  8
Bemassung
 62
     0
370
    -2
100
AcDbLine
10
-85.1150274687309
20
0.519278765635565
30
0.000000000000000
11
-102.312779082586
21
17.4136120376792
31
0.000000000000000
  0
INSERT
  5
F10060
330
F10007
100
AcDbEntity
  8
Bemassung
 62
     0
370
    -2
100
AcDbBlockReference
  2
VDDIM_DEFAULT
10
-85.1150274687309
20
0.519278765635565
30
0.000000000000000
 41
2.50000000000000
 42
2.50000000000000
 43
2.50000000000000
 50
315.509916934830
  0
MTEXT
  5
F10061
330
F10007
100
AcDbEntity
  8
Bemassung
 62
     0
100
AcDbMText
10
-96.8390951929895
20
12.0364998469116
30
0.000000000000000
 40
2.50000000000000
 41
0.0
 71
     8
 72
     1
  1
R0.3
 11
0.713371754063361
 21
-0.700785802156810
 31
0.0
 73
     1
 44
1.0
1001
ACAD
1000
MTEXTBEGIN
1070
73
1070
1
1070
44
1040
1.0
1070
74
1070
0
1000
MTEXTEND
  0
POINT
  5
F10062
330
F10007
100
AcDbEntity
  8
Bemassung
 62
     0
100
AcDbPoint
10
-85.1150274687309
20
0.519278765635565
30
0.000000000000000
  0
POINT
  5
F10063
330
F10007
100
AcDbEntity
  8
Bemassung
 62
     0
100
AcDbPoint
10
-84.8241299303943
20
0.445939675174071
30
0.000000000000000
  0
ENDBLK
  5
F10064
330
F10007
100
AcDbEntity
  8
0
100
AcDbBlockEnd
  0
BLOCK
  5
F10065
330
F10002
100
AcDbEntity
  8
0
100
AcDbBlockBegin
  2
*D3
 70
     1
 10
0.0
 20
0.0
 30
0.0
  3
*D3
  1

  0
LINE
  5
F10066
330
F10002
100
AcDbEntity
  8
Bemassung
 62
     0
370
    -2
100
AcDbLine
10
-84.8241299303943
20
-4.25406032482593
30
0.000000000000000
11
-97.1241299303943
21
-4.25406032482593
31
0.000000000000000
  0
LINE
  5
F10067
330
F10002
100
AcDbEntity
  8
Bemassung
 62
     0
370
    -2
100
AcDbLine
10
-84.8241299303943
20
0.745939675174071
30
0.000000000000000
11
-97.1241299303943
21
0.745939675174071
31
0.000000000000000
  0
LINE
  5
F10068
330
F10002
100
AcDbEntity
  8
Bemassung
 62
     0
370
    -2
100
AcDbLine
10
-95.1241299303943
20
-4.51044083526682
30
0.000000000000000
11
-95.1241299303943
21
1.00232018561485
31
0.000000000000000
  0
INSERT
  5
F10069
330
F10002
100
AcDbEntity
  8
Bemassung
 62
     0
370
    -2
100
AcDbBlockReference
  2
VDDIM_DEFAULT
10
-95.1241299303943
20
-4.25406032482593
30
0.000000000000000
 41
2.50000000000000
 42
2.50000000000000
 43
2.50000000000000
 50
270.000000000000
  0
INSERT
  5
F1006A
330
F10002
100
AcDbEntity
  8
Bemassung
 62
     0
370
    -2
100
AcDbBlockReference
  2
VDDIM_DEFAULT
10
-95.1241299303943
20
0.745939675174071
30
0.000000000000000
 41
2.50000000000000
 42
2.50000000000000
 43
2.50000000000000
 50
90.0000000000000
  0
MTEXT
  5
F1006B
330
F10002
100
AcDbEntity
  8
Bemassung
 62
     0
100
AcDbMText
10
-94.4574632637276
20
-1.75406032482593
30
0.000000000000000
 40
2.50000000000000
 41
0.0
 71
     8
 72
     1
  1
5
 11
6.12323399573677e-017
 21
1.00000000000000
 31
0.0
 73
     1
 44
1.0
1001
ACAD
1000
MTEXTBEGIN
1070
73
1070
1
1070
44
1040
1.0
1070
74
1070
0
1000
MTEXTEND
  0
POINT
  5
F1006C
330
F10002
100
AcDbEntity
  8
Bemassung
 62
     0
100
AcDbPoint
10
-84.8241299303943
20
-4.25406032482593
30
0.000000000000000
  0
POINT
  5
F1006D
330
F10002
100
AcDbEntity
  8
Bemassung
 62
     0
100
AcDbPoint
10
-84.8241299303943
20
0.745939675174071
30
0.000000000000000
  0
ENDBLK
  5
F1006E
330
F10002
100
AcDbEntity
  8
0
100
AcDbBlockEnd
  0
BLOCK
  5
F1006F
330
F1001B
100
AcDbEntity
  8
0
100
AcDbBlockBegin
  2
*D8
 70
     1
 10
0.0
 20
0.0
 30
0.0
  3
*D8
  1

  0
LINE
  5
F10070
330
F1001B
100
AcDbEntity
  8
Bemassung
 62
     0
370
    -2
100
AcDbLine
10
-25.4241299303942
20
-4.75406032482593
30
0.000000000000000
11
-13.1241299303942
21
-4.75406032482593
31
0.000000000000000
  0
LINE
  5
F10071
330
F1001B
100
AcDbEntity
  8
Bemassung
 62
     0
370
    -2
100
AcDbLine
10
-25.4241299303942
20
1.24593967517407
30
0.000000000000000
11
-13.1241299303942
21
1.24593967517407
31
0.000000000000000
  0
LINE
  5
F10072
330
F1001B
100
AcDbEntity
  8
Bemassung
 62
     0
370
    -2
100
AcDbLine
10
-15.1241299303942
20
-6.01392111368909
30
0.000000000000000
11
-15.1241299303942
21
2.50580046403712
31
0.000000000000000
  0
INSERT
  5
F10073
330
F1001B
100
AcDbEntity
  8
Bemassung
 62
     0
370
    -2
100
AcDbBlockReference
  2
VDDIM_DEFAULT
10
-15.1241299303942
20
-4.75406032482593
30
0.000000000000000
 41
2.50000000000000
 42
2.50000000000000
 43
2.50000000000000
 50
270.000000000000
  0
INSERT
  5
F10074
330
F1001B
100
AcDbEntity
  8
Bemassung
 62
     0
370
    -2
100
AcDbBlockReference
  2
VDDIM_DEFAULT
10
-15.1241299303942
20
1.24593967517407
30
0.000000000000000
 41
2.50000000000000
 42
2.50000000000000
 43
2.50000000000000
 50
90.0000000000000
  0
MTEXT
  5
F10075
330
F1001B
100
AcDbEntity
  8
Bemassung
 62
     0
100
AcDbMText
10
-14.4574632637276
20
-1.75406032482593
30
0.000000000000000
 40
2.50000000000000
 41
0.0
 71
     8
 72
     1
  1
6h5
 11
6.12323399573677e-017
 21
1.00000000000000
 31
0.0
 73
     1
 44
1.0
  0
POINT
  5
F10076
330
F1001B
100
AcDbEntity
  8
Bemassung
 62
     0
100
AcDbPoint
10
-25.4241299303942
20
-4.75406032482593
30
0.000000000000000
  0
POINT
  5
F10077
330
F1001B
100
AcDbEntity
  8
Bemassung
 62
     0
100
AcDbPoint
10
-25.4241299303942
20
1.24593967517407
30
0.000000000000000
  0
ENDBLK
  5
F10078
330
F1001B
100
AcDbEntity
  8
0
100
AcDbBlockEnd
0
ENDSEC
0
SECTION
2
ENTITIES
  0
DIMENSION
  5
F1000D
330
261
100
AcDbEntity
  8
Bemassung
100
AcDbDimension
  2
*D5
10
-63.1241299303943
20
11.2459396751741
30
0.000000000000000
11
-74.1241299303943
21
11.9126063418407
31
0.000000000000000
 70
32
 1
22
 71
     8
  3
BEM-ISBE
100
AcDbAlignedDimension
13
-85.1241299303943
23
-11.7540603248259
33
0.000000000000000
14
-63.1241299303943
24
0.745939675174071
34
0.000000000000000
100
AcDbRotatedDimension
1001
ACAD
1000
DSTYLE
1002
{
1070
284
1070
8
1070
78
1070
8
1070
144
1040
1.00000000000000
1070
147
1040
0.625
1070
 72
1070
 0
1070
 71
1070
 0
1002
}
  0
DIMENSION
  5
F10017
330
261
100
AcDbEntity
  8
Bemassung
100
AcDbDimension
  2
*D7
10
-25.1241299303942
20
16.2459396751741
30
0.000000000000000
11
-43.1911172285020
21
16.9126063418407
31
0.000000000000000
 70
32
 1
36.134
 71
     8
  3
BEM-ISBE
100
AcDbAlignedDimension
13
-61.2581045266098
23
1.24593967517407
33
0.000000000000000
14
-25.1241299303942
24
0.945939675174071
34
0.000000000000000
100
AcDbRotatedDimension
1001
ACAD
1000
DSTYLE
1002
{
1070
284
1070
8
1070
78
1070
8
1070
144
1040
1.00000000000000
1070
147
1040
0.625
1070
 72
1070
 0
1070
 71
1070
 0
1002
}
  0
DIMENSION
  5
F10021
330
261
100
AcDbEntity
  8
Bemassung
100
AcDbDimension
  2
*D9
10
-85.1241299303943
20
-9.75406032482593
30
0.000000000000000
11
-75.1241299303943
21
-9.08739365815926
31
0.000000000000000
 70
32
 1
20
 71
     8
  3
BEM-ISBE
100
AcDbAlignedDimension
13
-65.1241299303943
23
-4.25406032482593
33
0.000000000000000
14
-85.1241299303943
24
-11.7540603248259
34
0.000000000000000
100
AcDbRotatedDimension
1001
ACAD
1000
DSTYLE
1002
{
1070
284
1070
8
1070
78
1070
8
1070
144
1040
1.00000000000000
1070
147
1040
0.625
1070
 72
1070
 0
1070
 71
1070
 0
1002
}
  0
DIMENSION
  5
F10026
330
261
100
AcDbEntity
  8
Bemassung
100
AcDbDimension
  2
*D10
10
-85.1241299303943
20
26.2459396751741
30
0.000000000000000
11
-49.9408352668212
21
26.9126063418407
31
0.000000000000000
 70
32
 1
60
 71
     8
  3
BEM-ISBE
100
AcDbAlignedDimension
13
-25.1241299303942
23
0.945939675174071
33
0.000000000000000
14
-85.1241299303943
24
-11.7540603248259
34
0.000000000000000
100
AcDbRotatedDimension
1001
ACAD
1000
DSTYLE
1002
{
1070
284
1070
8
1070
78
1070
8
1070
144
1040
1.00000000000000
1070
147
1040
0.625
1070
 72
1070
 0
1070
 71
1070
 0
1002
}
  0
DIMENSION
  5
F10012
330
261
100
AcDbEntity
  8
Bemassung
100
AcDbDimension
  2
*D6
10
-61.2581045266098
20
1.24593967517407
30
0.000000000000000
11
-20.9479248080016
21
5.40139211136894
31
0.000000000000000
 70
34
 1
15°
 71
     8
  3
BEM-ISBE
100
AcDb2LineAngularDimension
13
-61.2581045266098
23
1.24593967517407
33
0.000000000000000
14
-22.1151194383765
24
11.7342709189096
34
0.000000000000000
15
-20.7343044346148
25
1.24593967517407
35
0.000000000000000
16
-21.0809911620618
26
6.53535699546875
36
0.000000000000000
1001
ACAD
1000
DSTYLE
1002
{
1070
284
1070
8
1070
79
1070
2
1070
147
1040
0.625
1070
 72
1070
 0
1070
 71
1070
 0
1002
}
  0
DIMENSION
  5
F10008
330
261
100
AcDbEntity
  8
Bemassung
100
AcDbDimension
  2
*D4
10
-84.8241299303943
20
0.445939675174071
30
0.000000000000000
11
-96.8390951929895
21
12.0364998469116
31
0.000000000000000
 70
164
 1
R0.3
 71
     8
  3
BEM-ISBE
100
AcDbRadialDimension
15
-85.1150274687309
25
0.519278765635565
35
0.000000000000000
40
0.0
1001
ACAD
1000
DSTYLE
1002
{
1070
284
1070
8
1070
78
1070
8
1070
144
1040
1.00000000000000
1070
147
1040
0.625
1070
 72
1070
 0
1070
 71
1070
 0
1002
}
  0
DIMENSION
  5
F10003
330
261
100
AcDbEntity
  8
Bemassung
100
AcDbDimension
  2
*D3
10
-95.1241299303943
20
0.745939675174071
30
0.000000000000000
11
-94.4574632637276
21
-1.75406032482593
31
0.000000000000000
 70
32
 1
5
 71
     8
  3
BEM-ISBE
100
AcDbAlignedDimension
13
-84.8241299303943
23
-4.25406032482593
33
0.000000000000000
14
-84.8241299303943
24
0.745939675174071
34
0.000000000000000
50
90.0000000000000
100
AcDbRotatedDimension
1001
ACAD
1000
DSTYLE
1002
{
1070
284
1070
8
1070
78
1070
8
1070
144
1040
1.00000000000000
1070
147
1040
0.625
1070
 72
1070
 0
1070
 71
1070
 0
1002
}
  0
DIMENSION
  5
F1001C
330
261
100
AcDbEntity
  8
Bemassung
100
AcDbDimension
  2
*D8
10
-15.1241299303942
20
1.24593967517407
30
0.000000000000000
11
-14.4574632637276
21
-1.75406032482593
31
0.000000000000000
 70
32
 1
6h5
 71
     8
  3
BEM-ISBE
100
AcDbAlignedDimension
13
-25.4241299303942
23
-4.75406032482593
33
0.000000000000000
14
-25.4241299303942
24
1.24593967517407
34
0.000000000000000
50
90.0000000000000
100
AcDbRotatedDimension
1001
ACAD
1000
DSTYLE
1002
{
1070
284
1070
8
1070
78
1070
8
1070
144
1040
1.00000000000000
1070
147
1040
0.625
1070
 72
1070
 0
1070
 71
1070
 0
1002
}
  0
LINE
  5
F10079
330
F1007A
100
AcDbEntity
8
Geo
100
AcDbLine
10
-85.0474871008021
20
-1.75406032482593
30
0.000000000000000
11
-85.1239471785000
21
0.435469826163321
31
0.000000000000000
  0
ARC
  5
F1007B
330
F1007C
100
AcDbEntity
8
Geo
100
AcDbCircle
10
-84.8241299303943
20
0.445939675174071
30
0.000000000000000
 40
0.300000000000000
100
AcDbArc
 50
90.0000000000000
 51
182.000000000000
  0
LINE
  5
F1007D
330
F1007E
100
AcDbEntity
8
Geo
100
AcDbLine
10
-84.8241299303943
20
0.745939675174071
30
0.000000000000000
11
-65.1241299303943
21
0.745939675174071
31
0.000000000000000
  0
LINE
  5
F1007F
330
F10080
100
AcDbEntity
8
Geo
100
AcDbLine
10
-65.1241299303943
20
0.745939675174071
30
0.000000000000000
11
-63.1241299303943
21
0.745939675174071
31
0.000000000000000
  0
LINE
  5
F10081
330
F10082
100
AcDbEntity
8
Geo
100
AcDbLine
10
-63.1241299303943
20
0.745939675174071
30
0.000000000000000
11
-61.2581045266098
21
1.24593967517407
31
0.000000000000000
  0
LINE
  5
F10083
330
F10084
100
AcDbEntity
8
Geo
100
AcDbLine
10
-61.2581045266098
20
1.24593967517407
30
0.000000000000000
11
-25.4241299303942
21
1.24593967517407
31
0.000000000000000
  0
LINE
  5
F10085
330
F10086
100
AcDbEntity
8
Geo
100
AcDbLine
10
-25.4241299303942
20
1.24593967517407
30
0.000000000000000
11
-25.1241299303942
21
0.945939675174071
31
0.000000000000000
  0
LINE
  5
F10087
330
F10088
100
AcDbEntity
8
Geo
100
AcDbLine
10
-81.9241299303943
20
0.745161182766285
30
0.000000000000000
11
-81.8241299303943
21
0.745710733099196
31
0.000000000000000
  0
LINE
  5
F10089
330
F1008A
100
AcDbEntity
8
Geo
100
AcDbLine
10
-81.8241299303943
20
0.745710733099196
30
0.000000000000000
11
-81.7241299303943
21
0.742557376084767
31
0.000000000000000
  0
LINE
  5
F1008B
330
F1008C
100
AcDbEntity
8
Geo
100
AcDbLine
10
-81.7241299303943
20
0.742557376084767
30
0.000000000000000
11
-81.6241299303943
21
0.735705782786302
31
0.000000000000000
  0
LINE
  5
F1008D
330
F1008E
100
AcDbEntity
8
Geo
100
AcDbLine
10
-81.6241299303943
20
0.735705782786302
30
0.000000000000000
11
-81.5241299303943
21
0.725166102459306
31
0.000000000000000
  0
LINE
  5
F1008F
330
F10090
100
AcDbEntity
8
Geo
100
AcDbLine
10
-81.5241299303943
20
0.725166102459306
30
0.000000000000000
11
-81.4241299303943
21
0.710953947517401
31
0.000000000000000
  0
LINE
  5
F10091
330
F10092
100
AcDbEntity
8
Geo
100
AcDbLine
10
-81.4241299303943
20
0.710953947517401
30
0.000000000000000
11
-81.3241299303943
21
0.693090370405687
31
0.000000000000000
  0
LINE
  5
F10093
330
F10094
100
AcDbEntity
8
Geo
100
AcDbLine
10
-81.3241299303943
20
0.693090370405687
30
0.000000000000000
11
-81.2241299303943
21
0.671601832415779
31
0.000000000000000
  0
LINE
  5
F10095
330
F10096
100
AcDbEntity
8
Geo
100
AcDbLine
10
-81.2241299303943
20
0.671601832415779
30
0.000000000000000
11
-81.1241299303943
21
0.646520164488736
31
0.000000000000000
  0
LINE
  5
F10097
330
F10098
100
AcDbEntity
8
Geo
100
AcDbLine
10
-81.1241299303943
20
0.646520164488736
30
0.000000000000000
11
-81.0241299303943
21
0.617882520063934
31
0.000000000000000
  0
LINE
  5
F10099
330
F1009A
100
AcDbEntity
8
Geo
100
AcDbLine
10
-81.0241299303943
20
0.617882520063934
30
0.000000000000000
11
-80.9241299303943
21
0.585731320043723
31
0.000000000000000
  0
LINE
  5
F1009B
330
F1009C
100
AcDbEntity
8
Geo
100
AcDbLine
10
-80.9241299303943
20
0.585731320043723
30
0.000000000000000
11
-80.8241299303943
21
0.550114189955411
31
0.000000000000000
  0
LINE
  5
F1009D
330
F1009E
100
AcDbEntity
8
Geo
100
AcDbLine
10
-80.8241299303943
20
0.550114189955411
30
0.000000000000000
11
-80.7241299303943
21
0.511083889403634
31
0.000000000000000
  0
LINE
  5
F1009F
330
F100A0
100
AcDbEntity
8
Geo
100
AcDbLine
10
-80.7241299303943
20
0.511083889403634
30
0.000000000000000
11
-80.6241299303943
21
0.468698233917628
31
0.000000000000000
  0
LINE
  5
F100A1
330
F100A2
100
AcDbEntity
8
Geo
100
AcDbLine
10
-80.6241299303943
20
0.468698233917628
30
0.000000000000000
11
-80.5241299303943
21
0.423020009309165
31
0.000000000000000
  0
LINE
  5
F100A3
330
F100A4
100
AcDbEntity
8
Geo
100
AcDbLine
10
-80.5241299303943
20
0.423020009309165
30
0.000000000000000
11
-80.4241299303943
21
0.374116878668024
31
0.000000000000000
  0
LINE
  5
F100A5
330
F100A6
100
AcDbEntity
8
Geo
100
AcDbLine
10
-80.4241299303943
20
0.374116878668024
30
0.000000000000000
11
-80.3241299303943
21
0.322061282132748
31
0.000000000000000
  0
LINE
  5
F100A7
330
F100A8
100
AcDbEntity
8
Geo
100
AcDbLine
10
-80.3241299303943
20
0.322061282132748
30
0.000000000000000
11
-80.2241299303943
21
0.266930329585166
31
0.000000000000000
  0
LINE
  5
F100A9
330
F100AA
100
AcDbEntity
8
Geo
100
AcDbLine
10
-80.2241299303943
20
0.266930329585166
30
0.000000000000000
11
-80.1241299303943
21
0.208805686427639
31
0.000000000000000
  0
LINE
  5
F100AB
330
F100AC
100
AcDbEntity
8
Geo
100
AcDbLine
10
-80.1241299303943
20
0.208805686427639
30
0.000000000000000
11
-80.0241299303943
21
0.147773452612210
31
0.000000000000000
  0
LINE
  5
F100AD
330
F100AE
100
AcDbEntity
8
Geo
100
AcDbLine
10
-80.0241299303943
20
0.147773452612210
30
0.000000000000000
11
-79.9241299303943
21
0.0839240351008732
31
0.000000000000000
  0
LINE
  5
F100AF
330
F100B0
100
AcDbEntity
8
Geo
100
AcDbLine
10
-79.9241299303943
20
0.0839240351008732
30
0.000000000000000
11
-79.8241299303943
21
0.0173520139458572
31
0.000000000000000
  0
LINE
  5
F100B1
330
F100B2
100
AcDbEntity
8
Geo
100
AcDbLine
10
-79.8241299303943
20
0.0173520139458572
30
0.000000000000000
11
-79.7241299303943
21
-0.0518439978116616
31
0.000000000000000
  0
LINE
  5
F100B3
330
F100B4
100
AcDbEntity
8
Geo
100
AcDbLine
10
-79.7241299303943
20
-0.0518439978116616
30
0.000000000000000
11
-79.6241299303943
21
-0.123561500216926
31
0.000000000000000
  0
LINE
  5
F100B5
330
F100B6
100
AcDbEntity
8
Geo
100
AcDbLine
10
-79.6241299303943
20
-0.123561500216926
30
0.000000000000000
11
-79.5241299303943
21
-0.197694258234631
31
0.000000000000000
  0
LINE
  5
F100B7
330
F100B8
100
AcDbEntity
8
Geo
100
AcDbLine
10
-79.5241299303943
20
-0.197694258234631
30
0.000000000000000
11
-79.4241299303943
21
-0.274132459114739
31
0.000000000000000
  0
LINE
  5
F100B9
330
F100BA
100
AcDbEntity
8
Geo
100
AcDbLine
10
-79.4241299303943
20
-0.274132459114739
30
0.000000000000000
11
-79.3241299303943
21
-0.352762875057941
31
0.000000000000000
  0
LINE
  5
F100BB
330
F100BC
100
AcDbEntity
8
Geo
100
AcDbLine
10
-79.3241299303943
20
-0.352762875057941
30
0.000000000000000
11
-79.2241299303943
21
-0.433469030939849
31
0.000000000000000
  0
LINE
  5
F100BD
330
F100BE
100
AcDbEntity
8
Geo
100
AcDbLine
10
-79.2241299303943
20
-0.433469030939849
30
0.000000000000000
11
-79.1241299303943
21
-0.516131376845423
31
0.000000000000000
  0
LINE
  5
F100BF
330
F100C0
100
AcDbEntity
8
Geo
100
AcDbLine
10
-79.1241299303943
20
-0.516131376845423
30
0.000000000000000
11
-79.0241299303943
21
-0.600627465158097
31
0.000000000000000
  0
LINE
  5
F100C1
330
F100C2
100
AcDbEntity
8
Geo
100
AcDbLine
10
-79.0241299303943
20
-0.600627465158097
30
0.000000000000000
11
-78.9241299303943
21
-0.686832131941264
31
0.000000000000000
  0
LINE
  5
F100C3
330
F100C4
100
AcDbEntity
8
Geo
100
AcDbLine
10
-78.9241299303943
20
-0.686832131941264
30
0.000000000000000
11
-78.8241299303943
21
-0.774617682343427
31
0.000000000000000
  0
LINE
  5
F100C5
330
F100C6
100
AcDbEntity
8
Geo
100
AcDbLine
10
-78.8241299303943
20
-0.774617682343427
30
0.000000000000000
11
-78.7241299303943
21
-0.863854079752419
31
0.000000000000000
  0
LINE
  5
F100C7
330
F100C8
100
AcDbEntity
8
Geo
100
AcDbLine
10
-78.7241299303943
20
-0.863854079752419
30
0.000000000000000
11
-78.6241299303943
21
-0.954409138418441
31
0.000000000000000
  0
LINE
  5
F100C9
330
F100CA
100
AcDbEntity
8
Geo
100
AcDbLine
10
-78.6241299303943
20
-0.954409138418441
30
0.000000000000000
11
-78.5241299303943
21
-1.04614871926063
31
0.000000000000000
  0
LINE
  5
F100CB
330
F100CC
100
AcDbEntity
8
Geo
100
AcDbLine
10
-78.5241299303943
20
-1.04614871926063
30
0.000000000000000
11
-78.4241299303943
21
-1.13893692856710
31
0.000000000000000
  0
LINE
  5
F100CD
330
F100CE
100
AcDbEntity
8
Geo
100
AcDbLine
10
-78.4241299303943
20
-1.13893692856710
30
0.000000000000000
11
-78.3241299303943
21
-1.23263631929408
31
0.000000000000000
  0
LINE
  5
F100CF
330
F100D0
100
AcDbEntity
8
Geo
100
AcDbLine
10
-78.3241299303943
20
-1.23263631929408
30
0.000000000000000
11
-78.2241299303943
21
-1.32710809466607
31
0.000000000000000
  0
LINE
  5
F100D1
330
F100D2
100
AcDbEntity
8
Geo
100
AcDbLine
10
-78.2241299303943
20
-1.32710809466607
30
0.000000000000000
11
-78.1241299303943
21
-1.42221231377526
31
0.000000000000000
  0
LINE
  5
F100D3
330
F100D4
100
AcDbEntity
8
Geo
100
AcDbLine
10
-78.1241299303943
20
-1.42221231377526
30
0.000000000000000
11
-78.0241299303943
21
-1.51780809887583
31
0.000000000000000
  0
LINE
  5
F100D5
330
F100D6
100
AcDbEntity
8
Geo
100
AcDbLine
10
-78.0241299303943
20
-1.51780809887583
30
0.000000000000000
11
-77.9241299303943
21
-1.61375384406595
31
0.000000000000000
  0
LINE
  5
F100D7
330
F100D8
100
AcDbEntity
8
Geo
100
AcDbLine
10
-77.9241299303943
20
-1.61375384406595
30
0.000000000000000
11
-77.8241299303943
21
-1.70990742504841
31
0.000000000000000
  0
LINE
  5
F100D9
330
F100DA
100
AcDbEntity
8
Geo
100
AcDbLine
10
-77.8241299303943
20
-1.70990742504841
30
0.000000000000000
11
-77.7241299303943
21
-1.80612640965913
31
0.000000000000000
  0
LINE
  5
F100DB
330
F100DC
100
AcDbEntity
8
Geo
100
AcDbLine
10
-77.7241299303943
20
-1.80612640965913
30
0.000000000000000
11
-77.6241299303943
21
-1.90226826885171
31
0.000000000000000
  0
LINE
  5
F100DD
330
F100DE
100
AcDbEntity
8
Geo
100
AcDbLine
10
-77.6241299303943
20
-1.90226826885171
30
0.000000000000000
11
-77.5241299303943
21
-1.99819058782555
31
0.000000000000000
  0
LINE
  5
F100DF
330
F100E0
100
AcDbEntity
8
Geo
100
AcDbLine
10
-77.5241299303943
20
-1.99819058782555
30
0.000000000000000
11
-77.4241299303943
21
-2.09375127698465
31
0.000000000000000
  0
LINE
  5
F100E1
330
F100E2
100
AcDbEntity
8
Geo
100
AcDbLine
10
-77.4241299303943
20
-2.09375127698465
30
0.000000000000000
11
-77.3241299303943
21
-2.18880878241475
31
0.000000000000000
  0
LINE
  5
F100E3
330
F100E4
100
AcDbEntity
8
Geo
100
AcDbLine
10
-77.3241299303943
20
-2.18880878241475
30
0.000000000000000
11
-77.2241299303943
21
-2.28322229556694
31
0.000000000000000
  0
LINE
  5
F100E5
330
F100E6
100
AcDbEntity
8
Geo
100
AcDbLine
10
-77.2241299303943
20
-2.28322229556694
30
0.000000000000000
11
-77.1241299303943
21
-2.37685196183716
31
0.000000000000000
  0
LINE
  5
F100E7
330
F100E8
100
AcDbEntity
8
Geo
100
AcDbLine
10
-77.1241299303943
20
-2.37685196183716
30
0.000000000000000
11
-77.0241299303943
21
-2.46955908773264
31
0.000000000000000
  0
LINE
  5
F100E9
330
F100EA
100
AcDbEntity
8
Geo
100
AcDbLine
10
-77.0241299303943
20
-2.46955908773264
30
0.000000000000000
11
-76.9241299303943
21
-2.56120634631835
31
0.000000000000000
  0
LINE
  5
F100EB
330
F100EC
100
AcDbEntity
8
Geo
100
AcDbLine
10
-76.9241299303943
20
-2.56120634631835
30
0.000000000000000
11
-76.8241299303943
21
-2.65165798063925
31
0.000000000000000
  0
LINE
  5
F100ED
330
F100EE
100
AcDbEntity
8
Geo
100
AcDbLine
10
-76.8241299303943
20
-2.65165798063925
30
0.000000000000000
11
-76.7241299303943
21
-2.74078000481679
31
0.000000000000000
  0
LINE
  5
F100EF
330
F100F0
100
AcDbEntity
8
Geo
100
AcDbLine
10
-76.7241299303943
20
-2.74078000481679
30
0.000000000000000
11
-76.6241299303943
21
-2.82844040252209
31
0.000000000000000
  0
LINE
  5
F100F1
330
F100F2
100
AcDbEntity
8
Geo
100
AcDbLine
10
-76.6241299303943
20
-2.82844040252209
30
0.000000000000000
11
-76.5241299303943
21
-2.91450932253150
31
0.000000000000000
  0
LINE
  5
F100F3
330
F100F4
100
AcDbEntity
8
Geo
100
AcDbLine
10
-76.5241299303943
20
-2.91450932253150
30
0.000000000000000
11
-76.4241299303943
21
-2.99885927107503
31
0.000000000000000
  0
LINE
  5
F100F5
330
F100F6
100
AcDbEntity
8
Geo
100
AcDbLine
10
-76.4241299303943
20
-2.99885927107503
30
0.000000000000000
11
-76.3241299303943
21
-3.08136530069269
31
0.000000000000000
  0
LINE
  5
F100F7
330
F100F8
100
AcDbEntity
8
Geo
100
AcDbLine
10
-76.3241299303943
20
-3.08136530069269
30
0.000000000000000
11
-76.2241299303943
21
-3.16190519531902
31
0.000000000000000
  0
LINE
  5
F100F9
330
F100FA
100
AcDbEntity
8
Geo
100
AcDbLine
10
-76.2241299303943
20
-3.16190519531902
30
0.000000000000000
11
-76.1241299303943
21
-3.24035965132156
31
0.000000000000000
  0
LINE
  5
F100FB
330
F100FC
100
AcDbEntity
8
Geo
100
AcDbLine
10
-76.1241299303943
20
-3.24035965132156
30
0.000000000000000
11
-76.0241299303943
21
-3.31661245422510
31
0.000000000000000
  0
LINE
  5
F100FD
330
F100FE
100
AcDbEntity
8
Geo
100
AcDbLine
10
-76.0241299303943
20
-3.31661245422510
30
0.000000000000000
11
-75.9241299303943
21
-3.39055065086013
31
0.000000000000000
  0
LINE
  5
F100FF
330
F10100
100
AcDbEntity
8
Geo
100
AcDbLine
10
-75.9241299303943
20
-3.39055065086013
30
0.000000000000000
11
-75.8241299303943
21
-3.46206471668009
31
0.000000000000000
  0
LINE
  5
F10101
330
F10102
100
AcDbEntity
8
Geo
100
AcDbLine
10
-75.8241299303943
20
-3.46206471668009
30
0.000000000000000
11
-75.7241299303943
21
-3.53104871800001
31
0.000000000000000
  0
LINE
  5
F10103
330
F10104
100
AcDbEntity
8
Geo
100
AcDbLine
10
-75.7241299303943
20
-3.53104871800001
30
0.000000000000000
11
-75.6241299303943
21
-3.59740046891589
31
0.000000000000000
  0
LINE
  5
F10105
330
F10106
100
AcDbEntity
8
Geo
100
AcDbLine
10
-75.6241299303943
20
-3.59740046891589
30
0.000000000000000
11
-75.5241299303943
21
-3.66102168267256
31
0.000000000000000
  0
LINE
  5
F10107
330
F10108
100
AcDbEntity
8
Geo
100
AcDbLine
10
-75.5241299303943
20
-3.66102168267256
30
0.000000000000000
11
-75.4241299303943
21
-3.72181811725568
31
0.000000000000000
  0
LINE
  5
F10109
330
F1010A
100
AcDbEntity
8
Geo
100
AcDbLine
10
-75.4241299303943
20
-3.72181811725568
30
0.000000000000000
11
-75.3241299303943
21
-3.77969971499233
31
0.000000000000000
  0
LINE
  5
F1010B
330
F1010C
100
AcDbEntity
8
Geo
100
AcDbLine
10
-75.3241299303943
20
-3.77969971499233
30
0.000000000000000
11
-75.2241299303943
21
-3.83458073595331
31
0.000000000000000
  0
LINE
  5
F1010D
330
F1010E
100
AcDbEntity
8
Geo
100
AcDbLine
10
-75.2241299303943
20
-3.83458073595331
30
0.000000000000000
11
-75.1241299303943
21
-3.88637988495957
31
0.000000000000000
  0
LINE
  5
F1010F
330
F10110
100
AcDbEntity
8
Geo
100
AcDbLine
10
-75.1241299303943
20
-3.88637988495957
30
0.000000000000000
11
-75.0241299303943
21
-3.93502043200463
31
0.000000000000000
  0
LINE
  5
F10111
330
F10112
100
AcDbEntity
8
Geo
100
AcDbLine
10
-75.0241299303943
20
-3.93502043200463
30
0.000000000000000
11
-74.9241299303943
21
-3.98043032591468
31
0.000000000000000
  0
LINE
  5
F10113
330
F10114
100
AcDbEntity
8
Geo
100
AcDbLine
10
-74.9241299303943
20
-3.98043032591468
30
0.000000000000000
11
-74.8241299303943
21
-4.02254230107780
31
0.000000000000000
  0
LINE
  5
F10115
330
F10116
100
AcDbEntity
8
Geo
100
AcDbLine
10
-74.8241299303943
20
-4.02254230107780
30
0.000000000000000
11
-74.7241299303943
21
-4.06129397708452
31
0.000000000000000
  0
LINE
  5
F10117
330
F10118
100
AcDbEntity
8
Geo
100
AcDbLine
10
-74.7241299303943
20
-4.06129397708452
30
0.000000000000000
11
-74.6241299303943
21
-4.09662795113173
31
0.000000000000000
  0
LINE
  5
F10119
330
F1011A
100
AcDbEntity
8
Geo
100
AcDbLine
10
-74.6241299303943
20
-4.09662795113173
30
0.000000000000000
11
-74.5241299303943
21
-4.12849188305344
31
0.000000000000000
  0
LINE
  5
F1011B
330
F1011C
100
AcDbEntity
8
Geo
100
AcDbLine
10
-74.5241299303943
20
-4.12849188305344
30
0.000000000000000
11
-74.4241299303943
21
-4.15683857285219
31
0.000000000000000
  0
LINE
  5
F1011D
330
F1011E
100
AcDbEntity
8
Geo
100
AcDbLine
10
-74.4241299303943
20
-4.15683857285219
30
0.000000000000000
11
-74.3241299303943
21
-4.18162603061630
31
0.000000000000000
  0
LINE
  5
F1011F
330
F10120
100
AcDbEntity
8
Geo
100
AcDbLine
10
-74.3241299303943
20
-4.18162603061630
30
0.000000000000000
11
-74.2241299303943
21
-4.20281753871949
31
0.000000000000000
  0
LINE
  5
F10121
330
F10122
100
AcDbEntity
8
Geo
100
AcDbLine
10
-74.2241299303943
20
-4.20281753871949
30
0.000000000000000
11
-74.1241299303943
21
-4.22038170621065
31
0.000000000000000
  0
LINE
  5
F10123
330
F10124
100
AcDbEntity
8
Geo
100
AcDbLine
10
-74.1241299303943
20
-4.22038170621065
30
0.000000000000000
11
-74.0241299303943
21
-4.23429251531322
31
0.000000000000000
  0
LINE
  5
F10125
330
F10126
100
AcDbEntity
8
Geo
100
AcDbLine
10
-74.0241299303943
20
-4.23429251531322
30
0.000000000000000
11
-73.9241299303943
21
-4.24452935996526
31
0.000000000000000
  0
LINE
  5
F10127
330
F10128
100
AcDbEntity
8
Geo
100
AcDbLine
10
-73.9241299303943
20
-4.24452935996526
30
0.000000000000000
11
-73.8241299303943
21
-4.25107707634322
31
0.000000000000000
  0
LINE
  5
F10129
330
F1012A
100
AcDbEntity
8
Geo
100
AcDbLine
10
-73.8241299303943
20
-4.25107707634322
30
0.000000000000000
11
-73.7241299303943
21
-4.25392596532404
31
0.000000000000000
  0
LINE
  5
F1012B
330
F1012C
100
AcDbEntity
8
Geo
100
AcDbLine
10
-85.1241299303943
20
0.445939675174071
30
0.000000000000000
11
-85.0241299303943
21
0.667751430256043
31
0.000000000000000
  0
LINE
  5
F1012D
330
F1012E
100
AcDbEntity
8
Geo
100
AcDbLine
10
-85.0241299303943
20
0.667751430256043
30
0.000000000000000
11
-84.9241299303943
21
0.721429448805805
31
0.000000000000000
  0
LINE
  5
F1012F
330
F10130
100
AcDbEntity
8
Geo
100
AcDbLine
10
-84.9241299303943
20
0.721429448805805
30
0.000000000000000
11
-84.8241299303943
21
0.729291518797430
31
0.000000000000000
  0
LINE
  5
F10131
330
F10132
100
AcDbEntity
8
Geo
100
AcDbLine
10
-84.8241299303943
20
0.729291518797430
30
0.000000000000000
11
-84.7241299303943
21
0.716368526983397
31
0.000000000000000
  0
LINE
  5
F10133
330
F10134
100
AcDbEntity
8
Geo
100
AcDbLine
10
-84.7241299303943
20
0.716368526983397
30
0.000000000000000
11
-84.6241299303943
21
0.699786092390617
31
0.000000000000000
  0
LINE
  5
F10135
330
F10136
100
AcDbEntity
8
Geo
100
AcDbLine
10
-84.6241299303943
20
0.699786092390617
30
0.000000000000000
11
-84.5241299303943
21
0.679568778556098
31
0.000000000000000
  0
LINE
  5
F10137
330
F10138
100
AcDbEntity
8
Geo
100
AcDbLine
10
-84.5241299303943
20
0.679568778556098
30
0.000000000000000
11
-84.4241299303943
21
0.655746533358348
31
0.000000000000000
  0
LINE
  5
F10139
330
F1013A
100
AcDbEntity
8
Geo
100
AcDbLine
10
-84.4241299303943
20
0.655746533358348
30
0.000000000000000
11
-84.3241299303943
21
0.628354644655625
31
0.000000000000000
  0
LINE
  5
F1013B
330
F1013C
100
AcDbEntity
8
Geo
100
AcDbLine
10
-84.3241299303943
20
0.628354644655625
30
0.000000000000000
11
-84.2241299303943
21
0.597433688014087
31
0.000000000000000
  0
LINE
  5
F1013D
330
F1013E
100
AcDbEntity
8
Geo
100
AcDbLine
10
-84.2241299303943
20
0.597433688014087
30
0.000000000000000
11
-84.1241299303943
21
0.563029466603255
31
0.000000000000000
  0
LINE
  5
F1013F
330
F10140
100
AcDbEntity
8
Geo
100
AcDbLine
10
-84.1241299303943
20
0.563029466603255
30
0.000000000000000
11
-84.0241299303943
21
0.525192943347849
31
0.000000000000000
  0
LINE
  5
F10141
330
F10142
100
AcDbEntity
8
Geo
100
AcDbLine
10
-84.0241299303943
20
0.525192943347849
30
0.000000000000000
11
-83.9241299303943
21
0.483980165436478
31
0.000000000000000
  0
LINE
  5
F10143
330
F10144
100
AcDbEntity
8
Geo
100
AcDbLine
10
-83.9241299303943
20
0.483980165436478
30
0.000000000000000
11
-83.8241299303943
21
0.439452181299016
31
0.000000000000000
  0
LINE
  5
F10145
330
F10146
100
AcDbEntity
8
Geo
100
AcDbLine
10
-83.8241299303943
20
0.439452181299016
30
0.000000000000000
11
-83.7241299303943
21
0.391674950175650
31
0.000000000000000
  0
LINE
  5
F10147
330
F10148
100
AcDbEntity
8
Geo
100
AcDbLine
10
-83.7241299303943
20
0.391674950175650
30
0.000000000000000
11
-83.6241299303943
21
0.340719244411554
31
0.000000000000000
  0
LINE
  5
F10149
330
F1014A
100
AcDbEntity
8
Geo
100
AcDbLine
10
-83.6241299303943
20
0.340719244411554
30
0.000000000000000
11
-83.5241299303943
21
0.286660544621907
31
0.000000000000000
  0
LINE
  5
F1014B
330
F1014C
100
AcDbEntity
8
Geo
100
AcDbLine
10
-83.5241299303943
20
0.286660544621907
30
0.000000000000000
11
-83.4241299303943
21
0.229578927882569
31
0.000000000000000
  0
LINE
  5
F1014D
330
F1014E
100
AcDbEntity
8
Geo
100
AcDbLine
10
-83.4241299303943
20
0.229578927882569
30
0.000000000000000
11
-83.3241299303943
21
0.169558949112022
31
0.000000000000000
  0
LINE
  5
F1014F
330
F10150
100
AcDbEntity
8
Geo
100
AcDbLine
10
-83.3241299303943
20
0.169558949112022
30
0.000000000000000
11
-83.2241299303943
21
0.106689515820283
31
0.000000000000000
  0
LINE
  5
F10151
330
F10152
100
AcDbEntity
8
Geo
100
AcDbLine
10
-83.2241299303943
20
0.106689515820283
30
0.000000000000000
11
-83.1241299303943
21
0.0410637564103402
31
0.000000000000000
  0
LINE
  5
F10153
330
F10154
100
AcDbEntity
8
Geo
100
AcDbLine
10
-83.1241299303943
20
0.0410637564103402
30
0.000000000000000
11
-83.0241299303943
21
-0.0272211177728221
31
0.000000000000000
  0
LINE
  5
F10155
330
F10156
100
AcDbEntity
8
Geo
100
AcDbLine
10
-83.0241299303943
20
-0.0272211177728221
30
0.000000000000000
11
-82.9241299303943
21
-0.0980639564412513
31
0.000000000000000
  0
LINE
  5
F10157
330
F10158
100
AcDbEntity
8
Geo
100
AcDbLine
10
-82.9241299303943
20
-0.0980639564412513
30
0.000000000000000
11
-82.8241299303943
21
-0.171359820197806
31
0.000000000000000
  0
LINE
  5
F10159
330
F1015A
100
AcDbEntity
8
Geo
100
AcDbLine
10
-82.8241299303943
20
-0.171359820197806
30
0.000000000000000
11
-82.7241299303943
21
-0.247000135982735
31
0.000000000000000
  0
LINE
  5
F1015B
330
F1015C
100
AcDbEntity
8
Geo
100
AcDbLine
10
-82.7241299303943
20
-0.247000135982735
30
0.000000000000000
11
-82.6241299303943
21
-0.324872857902801
31
0.000000000000000
  0
LINE
  5
F1015D
330
F1015E
100
AcDbEntity
8
Geo
100
AcDbLine
10
-82.6241299303943
20
-0.324872857902801
30
0.000000000000000
11
-82.5241299303943
21
-0.404862633204703
31
0.000000000000000
  0
LINE
  5
F1015F
330
F10160
100
AcDbEntity
8
Geo
100
AcDbLine
10
-82.5241299303943
20
-0.404862633204703
30
0.000000000000000
11
-82.4241299303943
21
-0.486850973146946
31
0.000000000000000
  0
LINE
  5
F10161
330
F10162
100
AcDbEntity
8
Geo
100
AcDbLine
10
-82.4241299303943
20
-0.486850973146946
30
0.000000000000000
11
-82.3241299303943
21
-0.570716428517049
31
0.000000000000000
  0
LINE
  5
F10163
330
F10164
100
AcDbEntity
8
Geo
100
AcDbLine
10
-82.3241299303943
20
-0.570716428517049
30
0.000000000000000
11
-82.2241299303943
21
-0.656334769534091
31
0.000000000000000
  0
LINE
  5
F10165
330
F10166
100
AcDbEntity
8
Geo
100
AcDbLine
10
-82.2241299303943
20
-0.656334769534091
30
0.000000000000000
11
-82.1241299303943
21
-0.743579169870112
31
0.000000000000000
  0
LINE
  5
F10167
330
F10168
100
AcDbEntity
8
Geo
100
AcDbLine
10
-82.1241299303943
20
-0.743579169870112
30
0.000000000000000
11
-82.0241299303943
21
-0.832320394517772
31
0.000000000000000
  0
LINE
  5
F10169
330
F1016A
100
AcDbEntity
8
Geo
100
AcDbLine
10
-82.0241299303943
20
-0.832320394517772
30
0.000000000000000
11
-81.9241299303943
21
-0.922426991225986
31
0.000000000000000
  0
LINE
  5
F1016B
330
F1016C
100
AcDbEntity
8
Geo
100
AcDbLine
10
-81.9241299303943
20
-0.922426991225986
30
0.000000000000000
11
-81.8241299303943
21
-1.01376548521996
31
0.000000000000000
  0
LINE
  5
F1016D
330
F1016E
100
AcDbEntity
8
Geo
100
AcDbLine
10
-81.8241299303943
20
-1.01376548521996
30
0.000000000000000
11
-81.7241299303943
21
-1.10620057691719
31
0.000000000000000
  0
LINE
  5
F1016F
330
F10170
100
AcDbEntity
8
Geo
100
AcDbLine
10
-81.7241299303943
20
-1.10620057691719
30
0.000000000000000
11
-81.6241299303943
21
-1.19959534234652
31
0.000000000000000
  0
LINE
  5
F10171
330
F10172
100
AcDbEntity
8
Geo
100
AcDbLine
10
-81.6241299303943
20
-1.19959534234652
30
0.000000000000000
11
-81.5241299303943
21
-1.29381143597347
31
0.000000000000000
  0
LINE
  5
F10173
330
F10174
100
AcDbEntity
8
Geo
100
AcDbLine
10
-81.5241299303943
20
-1.29381143597347
30
0.000000000000000
11
-81.4241299303943
21
-1.38870929563125
31
0.000000000000000
  0
LINE
  5
F10175
330
F10176
100
AcDbEntity
8
Geo
100
AcDbLine
10
-81.4241299303943
20
-1.38870929563125
30
0.000000000000000
11
-81.3241299303943
21
-1.48414834925401
31
0.000000000000000
  0
LINE
  5
F10177
330
F10178
100
AcDbEntity
8
Geo
100
AcDbLine
10
-81.3241299303943
20
-1.48414834925401
30
0.000000000000000
11
-81.2241299303943
21
-1.57998722310602
31
0.000000000000000
  0
LINE
  5
F10179
330
F1017A
100
AcDbEntity
8
Geo
100
AcDbLine
10
-81.2241299303943
20
-1.57998722310602
30
0.000000000000000
11
-81.1241299303943
21
-1.67608395119844
31
0.000000000000000
  0
LINE
  5
F1017B
330
F1017C
100
AcDbEntity
8
Geo
100
AcDbLine
10
-81.1241299303943
20
-1.67608395119844
30
0.000000000000000
11
-81.0241299303943
21
-1.77229618558329
31
0.000000000000000
  0
LINE
  5
F1017D
330
F1017E
100
AcDbEntity
8
Geo
100
AcDbLine
10
-81.0241299303943
20
-1.77229618558329
30
0.000000000000000
11
-80.9241299303943
21
-1.86848140721329
31
0.000000000000000
  0
LINE
  5
F1017F
330
F10180
100
AcDbEntity
8
Geo
100
AcDbLine
10
-80.9241299303943
20
-1.86848140721329
30
0.000000000000000
11
-80.8241299303943
21
-1.96449713705510
31
0.000000000000000
  0
LINE
  5
F10181
330
F10182
100
AcDbEntity
8
Geo
100
AcDbLine
10
-80.8241299303943
20
-1.96449713705510
30
0.000000000000000
11
-80.7241299303943
21
-2.06020114714334
31
0.000000000000000
  0
LINE
  5
F10183
330
F10184
100
AcDbEntity
8
Geo
100
AcDbLine
10
-80.7241299303943
20
-2.06020114714334
30
0.000000000000000
11
-80.6241299303943
21
-2.15545167126266
31
0.000000000000000
  0
LINE
  5
F10185
330
F10186
100
AcDbEntity
8
Geo
100
AcDbLine
10
-80.6241299303943
20
-2.15545167126266
30
0.000000000000000
11
-80.5241299303943
21
-2.25010761494584
31
0.000000000000000
  0
LINE
  5
F10187
330
F10188
100
AcDbEntity
8
Geo
100
AcDbLine
10
-80.5241299303943
20
-2.25010761494584
30
0.000000000000000
11
-80.4241299303943
21
-2.34402876447681
31
0.000000000000000
  0
LINE
  5
F10189
330
F1018A
100
AcDbEntity
8
Geo
100
AcDbLine
10
-80.4241299303943
20
-2.34402876447681
30
0.000000000000000
11
-80.3241299303943
21
-2.43707599458906
31
0.000000000000000
  0
LINE
  5
F1018B
330
F1018C
100
AcDbEntity
8
Geo
100
AcDbLine
10
-80.3241299303943
20
-2.43707599458906
30
0.000000000000000
11
-80.2241299303943
21
-2.52911147455167
31
0.000000000000000
  0
LINE
  5
F1018D
330
F1018E
100
AcDbEntity
8
Geo
100
AcDbLine
10
-80.2241299303943
20
-2.52911147455167
30
0.000000000000000
11
-80.1241299303943
21
-2.61999887233781
31
0.000000000000000
  0
LINE
  5
F1018F
330
F10190
100
AcDbEntity
8
Geo
100
AcDbLine
10
-80.1241299303943
20
-2.61999887233781
30
0.000000000000000
11
-80.0241299303943
21
-2.70960355657313
31
0.000000000000000
  0
LINE
  5
F10191
330
F10192
100
AcDbEntity
8
Geo
100
AcDbLine
10
-80.0241299303943
20
-2.70960355657313
30
0.000000000000000
11
-79.9241299303943
21
-2.79779279596509
31
0.000000000000000
  0
LINE
  5
F10193
330
F10194
100
AcDbEntity
8
Geo
100
AcDbLine
10
-79.9241299303943
20
-2.79779279596509
30
0.000000000000000
11
-79.8241299303943
21
-2.88443595591758
31
0.000000000000000
  0
LINE
  5
F10195
330
F10196
100
AcDbEntity
8
Geo
100
AcDbLine
10
-79.8241299303943
20
-2.88443595591758
30
0.000000000000000
11
-79.7241299303943
21
-2.96940469203979
31
0.000000000000000
  0
LINE
  5
F10197
330
F10198
100
AcDbEntity
8
Geo
100
AcDbLine
10
-79.7241299303943
20
-2.96940469203979
30
0.000000000000000
11
-79.6241299303943
21
-3.05257314026258
31
0.000000000000000
  0
LINE
  5
F10199
330
F1019A
100
AcDbEntity
8
Geo
100
AcDbLine
10
-79.6241299303943
20
-3.05257314026258
30
0.000000000000000
11
-79.5241299303943
21
-3.13381810328074
31
0.000000000000000
  0
LINE
  5
F1019B
330
F1019C
100
AcDbEntity
8
Geo
100
AcDbLine
10
-79.5241299303943
20
-3.13381810328074
30
0.000000000000000
11
-79.4241299303943
21
-3.21301923304497
31
0.000000000000000
  0
LINE
  5
F1019D
330
F1019E
100
AcDbEntity
8
Geo
100
AcDbLine
10
-79.4241299303943
20
-3.21301923304497
30
0.000000000000000
11
-79.3241299303943
21
-3.29005920903330
31
0.000000000000000
  0
LINE
  5
F1019F
330
F101A0
100
AcDbEntity
8
Geo
100
AcDbLine
10
-79.3241299303943
20
-3.29005920903330
30
0.000000000000000
11
-79.2241299303943
21
-3.36482391203782
31
0.000000000000000
  0
LINE
  5
F101A1
330
F101A2
100
AcDbEntity
8
Geo
100
AcDbLine
10
-79.2241299303943
20
-3.36482391203782
30
0.000000000000000
11
-79.1241299303943
21
-3.43720259320925
31
0.000000000000000
  0
LINE
  5
F101A3
330
F101A4
100
AcDbEntity
8
Geo
100
AcDbLine
10
-79.1241299303943
20
-3.43720259320925
30
0.000000000000000
11
-79.0241299303943
21
-3.50708803810912
31
0.000000000000000
  0
LINE
  5
F101A5
330
F101A6
100
AcDbEntity
8
Geo
100
AcDbLine
10
-79.0241299303943
20
-3.50708803810912
30
0.000000000000000
11
-78.9241299303943
21
-3.57437672552633
31
0.000000000000000
  0
LINE
  5
F101A7
330
F101A8
100
AcDbEntity
8
Geo
100
AcDbLine
10
-78.9241299303943
20
-3.57437672552633
30
0.000000000000000
11
-78.8241299303943
21
-3.63896898082299
31
0.000000000000000
  0
LINE
  5
F101A9
330
F101AA
100
AcDbEntity
8
Geo
100
AcDbLine
10
-78.8241299303943
20
-3.63896898082299
30
0.000000000000000
11
-78.7241299303943
21
-3.70076912358228
31
0.000000000000000
  0
LINE
  5
F101AB
330
F101AC
100
AcDbEntity
8
Geo
100
AcDbLine
10
-78.7241299303943
20
-3.70076912358228
30
0.000000000000000
11
-78.6241299303943
21
-3.75968560933979
31
0.000000000000000
  0
LINE
  5
F101AD
330
F101AE
100
AcDbEntity
8
Geo
100
AcDbLine
10
-78.6241299303943
20
-3.75968560933979
30
0.000000000000000
11
-78.5241299303943
21
-3.81563116518814
31
0.000000000000000
  0
LINE
  5
F101AF
330
F101B0
100
AcDbEntity
8
Geo
100
AcDbLine
10
-78.5241299303943
20
-3.81563116518814
30
0.000000000000000
11
-78.4241299303943
21
-3.86852291905426
31
0.000000000000000
  0
LINE
  5
F101B1
330
F101B2
100
AcDbEntity
8
Geo
100
AcDbLine
10
-78.4241299303943
20
-3.86852291905426
30
0.000000000000000
11
-78.3241299303943
21
-3.91828252245762
31
0.000000000000000
  0
LINE
  5
F101B3
330
F101B4
100
AcDbEntity
8
Geo
100
AcDbLine
10
-78.3241299303943
20
-3.91828252245762
30
0.000000000000000
11
-78.2241299303943
21
-3.96483626656780
31
0.000000000000000
  0
LINE
  5
F101B5
330
F101B6
100
AcDbEntity
8
Geo
100
AcDbLine
10
-78.2241299303943
20
-3.96483626656780
30
0.000000000000000
11
-78.1241299303943
21
-4.00811519138921
31
0.000000000000000
  0
LINE
  5
F101B7
330
F101B8
100
AcDbEntity
8
Geo
100
AcDbLine
10
-78.1241299303943
20
-4.00811519138921
30
0.000000000000000
11
-78.0241299303943
21
-4.04805518791147
31
0.000000000000000
  0
LINE
  5
F101B9
330
F101BA
100
AcDbEntity
8
Geo
100
AcDbLine
10
-78.0241299303943
20
-4.04805518791147
30
0.000000000000000
11
-77.9241299303943
21
-4.08459709307399
31
0.000000000000000
  0
LINE
  5
F101BB
330
F101BC
100
AcDbEntity
8
Geo
100
AcDbLine
10
-77.9241299303943
20
-4.08459709307399
30
0.000000000000000
11
-77.8241299303943
21
-4.11768677740411
31
0.000000000000000
  0
LINE
  5
F101BD
330
F101BE
100
AcDbEntity
8
Geo
100
AcDbLine
10
-77.8241299303943
20
-4.11768677740411
30
0.000000000000000
11
-77.7241299303943
21
-4.14727522519904
31
0.000000000000000
  0
LINE
  5
F101BF
330
F101C0
100
AcDbEntity
8
Geo
100
AcDbLine
10
-77.7241299303943
20
-4.14727522519904
30
0.000000000000000
11
-77.6241299303943
21
-4.17331860713273
31
0.000000000000000
  0
LINE
  5
F101C1
330
F101C2
100
AcDbEntity
8
Geo
100
AcDbLine
10
-77.6241299303943
20
-4.17331860713273
30
0.000000000000000
11
-77.5241299303943
21
-4.19577834518022
31
0.000000000000000
  0
LINE
  5
F101C3
330
F101C4
100
AcDbEntity
8
Geo
100
AcDbLine
10
-77.5241299303943
20
-4.19577834518022
30
0.000000000000000
11
-77.4241299303943
21
-4.21462116976315
31
0.000000000000000
  0
LINE
  5
F101C5
330
F101C6
100
AcDbEntity
8
Geo
100
AcDbLine
10
-77.4241299303943
20
-4.21462116976315
30
0.000000000000000
11
-77.3241299303943
21
-4.22981916903202
31
0.000000000000000
  0
LINE
  5
F101C7
330
F101C8
100
AcDbEntity
8
Geo
100
AcDbLine
10
-77.3241299303943
20
-4.22981916903202
30
0.000000000000000
11
-77.2241299303943
21
-4.24134983021191
31
0.000000000000000
  0
LINE
  5
F101C9
330
F101CA
100
AcDbEntity
8
Geo
100
AcDbLine
10
-77.2241299303943
20
-4.24134983021191
30
0.000000000000000
11
-77.1241299303943
21
-4.24919607295065
31
0.000000000000000
  0
LINE
  5
F101CB
330
F101CC
100
AcDbEntity
8
Geo
100
AcDbLine
10
-77.1241299303943
20
-4.24919607295065
30
0.000000000000000
11
-77.0241299303943
21
-4.25334627461994
31
0.000000000000000
  0
LINE
  5
F101CD
330
F101CE
100
AcDbEntity
8
Geo
100
AcDbLine
10
-85.1241299303943
20
0.338264011023407
30
0.000000000000000
11
-85.0241299303943
21
0.520400095145243
31
0.000000000000000
  0
LINE
  5
F101CF
330
F101D0
100
AcDbEntity
8
Geo
100
AcDbLine
10
-85.0241299303943
20
0.520400095145243
30
0.000000000000000
11
-84.9241299303943
21
0.541266462822861
31
0.000000000000000
  0
LINE
  5
F101D1
330
F101D2
100
AcDbEntity
8
Geo
100
AcDbLine
10
-84.9241299303943
20
0.541266462822861
30
0.000000000000000
11
-84.8241299303943
21
0.518740208242309
31
0.000000000000000
  0
LINE
  5
F101D3
330
F101D4
100
AcDbEntity
8
Geo
100
AcDbLine
10
-84.8241299303943
20
0.518740208242309
30
0.000000000000000
11
-84.7241299303943
21
0.476985768720083
31
0.000000000000000
  0
LINE
  5
F101D5
330
F101D6
100
AcDbEntity
8
Geo
100
AcDbLine
10
-84.7241299303943
20
0.476985768720083
30
0.000000000000000
11
-84.6241299303943
21
0.431926483761770
31
0.000000000000000
  0
LINE
  5
F101D7
330
F101D8
100
AcDbEntity
8
Geo
100
AcDbLine
10
-84.6241299303943
20
0.431926483761770
30
0.000000000000000
11
-84.5241299303943
21
0.383629099622718
31
0.000000000000000
  0
LINE
  5
F101D9
330
F101DA
100
AcDbEntity
8
Geo
100
AcDbLine
10
-84.5241299303943
20
0.383629099622718
30
0.000000000000000
11
-84.4241299303943
21
0.332165159150026
31
0.000000000000000
  0
LINE
  5
F101DB
330
F101DC
100
AcDbEntity
8
Geo
100
AcDbLine
10
-84.4241299303943
20
0.332165159150026
30
0.000000000000000
11
-84.3241299303943
21
0.277610895806234
31
0.000000000000000
  0
LINE
  5
F101DD
330
F101DE
100
AcDbEntity
8
Geo
100
AcDbLine
10
-84.3241299303943
20
0.277610895806234
30
0.000000000000000
11
-84.2241299303943
21
0.220047120744796
31
0.000000000000000
  0
LINE
  5
F101DF
330
F101E0
100
AcDbEntity
8
Geo
100
AcDbLine
10
-84.2241299303943
20
0.220047120744796
30
0.000000000000000
11
-84.1241299303943
21
0.159559103104636
31
0.000000000000000
  0
LINE
  5
F101E1
330
F101E2
100
AcDbEntity
8
Geo
100
AcDbLine
10
-84.1241299303943
20
0.159559103104636
30
0.000000000000000
11
-84.0241299303943
21
0.0962364437010916
31
0.000000000000000
  0
LINE
  5
F101E3
330
F101E4
100
AcDbEntity
8
Geo
100
AcDbLine
10
-84.0241299303943
20
0.0962364437010916
30
0.000000000000000
11
-83.9241299303943
21
0.0301729423003509
31
0.000000000000000
  0
LINE
  5
F101E5
330
F101E6
100
AcDbEntity
8
Geo
100
AcDbLine
10
-83.9241299303943
20
0.0301729423003509
30
0.000000000000000
11
-83.8241299303943
21
-0.0385335413260077
31
0.000000000000000
  0
LINE
  5
F101E7
330
F101E8
100
AcDbEntity
8
Geo
100
AcDbLine
10
-83.8241299303943
20
-0.0385335413260077
30
0.000000000000000
11
-83.7241299303943
21
-0.109781232360556
31
0.000000000000000
  0
LINE
  5
F101E9
330
F101EA
100
AcDbEntity
8
Geo
100
AcDbLine
10
-83.7241299303943
20
-0.109781232360556
30
0.000000000000000
11
-83.6241299303943
21
-0.183464591698914
31
0.000000000000000
  0
LINE
  5
F101EB
330
F101EC
100
AcDbEntity
8
Geo
100
AcDbLine
10
-83.6241299303943
20
-0.183464591698914
30
0.000000000000000
11
-83.5241299303943
21
-0.259474472284670
31
0.000000000000000
  0
LINE
  5
F101ED
330
F101EE
100
AcDbEntity
8
Geo
100
AcDbLine
10
-83.5241299303943
20
-0.259474472284670
30
0.000000000000000
11
-83.4241299303943
21
-0.337698280788769
31
0.000000000000000
  0
LINE
  5
F101EF
330
F101F0
100
AcDbEntity
8
Geo
100
AcDbLine
10
-83.4241299303943
20
-0.337698280788769
30
0.000000000000000
11
-83.3241299303943
21
-0.418020144393846
31
0.000000000000000
  0
LINE
  5
F101F1
330
F101F2
100
AcDbEntity
8
Geo
100
AcDbLine
10
-83.3241299303943
20
-0.418020144393846
30
0.000000000000000
11
-83.2241299303943
21
-0.500321082436471
31
0.000000000000000
  0
LINE
  5
F101F3
330
F101F4
100
AcDbEntity
8
Geo
100
AcDbLine
10
-83.2241299303943
20
-0.500321082436471
30
0.000000000000000
11
-83.1241299303943
21
-0.584479182653038
31
0.000000000000000
  0
LINE
  5
F101F5
330
F101F6
100
AcDbEntity
8
Geo
100
AcDbLine
10
-83.1241299303943
20
-0.584479182653038
30
0.000000000000000
11
-83.0241299303943
21
-0.670369781768225
31
0.000000000000000
  0
LINE
  5
F101F7
330
F101F8
100
AcDbEntity
8
Geo
100
AcDbLine
10
-83.0241299303943
20
-0.670369781768225
30
0.000000000000000
11
-82.9241299303943
21
-0.757865650158538
31
0.000000000000000
  0
LINE
  5
F101F9
330
F101FA
100
AcDbEntity
8
Geo
100
AcDbLine
10
-82.9241299303943
20
-0.757865650158538
30
0.000000000000000
11
-82.8241299303943
21
-0.846837180317359
31
0.000000000000000
  0
LINE
  5
F101FB
330
F101FC
100
AcDbEntity
8
Geo
100
AcDbLine
10
-82.8241299303943
20
-0.846837180317359
30
0.000000000000000
11
-82.7241299303943
21
-0.937152578842375
31
0.000000000000000
  0
LINE
  5
F101FD
330
F101FE
100
AcDbEntity
8
Geo
100
AcDbLine
10
-82.7241299303943
20
-0.937152578842375
30
0.000000000000000
11
-82.6241299303943
21
-1.02867806166096
31
0.000000000000000
  0
LINE
  5
F101FF
330
F10200
100
AcDbEntity
8
Geo
100
AcDbLine
10
-82.6241299303943
20
-1.02867806166096
30
0.000000000000000
11
-82.5241299303943
21
-1.12127805220431
31
0.000000000000000
  0
LINE
  5
F10201
330
F10202
100
AcDbEntity
8
Geo
100
AcDbLine
10
-82.5241299303943
20
-1.12127805220431
30
0.000000000000000
11
-82.4241299303943
21
-1.21481538223686
31
0.000000000000000
  0
LINE
  5
F10203
330
F10204
100
AcDbEntity
8
Geo
100
AcDbLine
10
-82.4241299303943
20
-1.21481538223686
30
0.000000000000000
11
-82.3241299303943
21
-1.30915149504339
31
0.000000000000000
  0
LINE
  5
F10205
330
F10206
100
AcDbEntity
8
Geo
100
AcDbLine
10
-82.3241299303943
20
-1.30915149504339
30
0.000000000000000
11
-82.2241299303943
21
-1.40414665067284
31
0.000000000000000
  0
LINE
  5
F10207
330
F10208
100
AcDbEntity
8
Geo
100
AcDbLine
10
-82.2241299303943
20
-1.40414665067284
30
0.000000000000000
11
-82.1241299303943
21
-1.49966013293498
31
0.000000000000000
  0
LINE
  5
F10209
330
F1020A
100
AcDbEntity
8
Geo
100
AcDbLine
10
-82.1241299303943
20
-1.49966013293498
30
0.000000000000000
11
-82.0241299303943
21
-1.59555045784307
31
0.000000000000000
  0
LINE
  5
F1020B
330
F1020C
100
AcDbEntity
8
Geo
100
AcDbLine
10
-82.0241299303943
20
-1.59555045784307
30
0.000000000000000
11
-81.9241299303943
21
-1.69167558319387
31
0.000000000000000
  0
LINE
  5
F1020D
330
F1020E
100
AcDbEntity
8
Geo
100
AcDbLine
10
-81.9241299303943
20
-1.69167558319387
30
0.000000000000000
11
-81.8241299303943
21
-1.78789311897458
31
0.000000000000000
  0
LINE
  5
F1020F
330
F10210
100
AcDbEntity
8
Geo
100
AcDbLine
10
-81.8241299303943
20
-1.78789311897458
30
0.000000000000000
11
-81.7241299303943
21
-1.88406053828497
31
0.000000000000000
  0
LINE
  5
F10211
330
F10212
100
AcDbEntity
8
Geo
100
AcDbLine
10
-81.7241299303943
20
-1.88406053828497
30
0.000000000000000
11
-81.6241299303943
21
-1.98003538846226
31
0.000000000000000
  0
LINE
  5
F10213
330
F10214
100
AcDbEntity
8
Geo
100
AcDbLine
10
-81.6241299303943
20
-1.98003538846226
30
0.000000000000000
11
-81.5241299303943
21
-2.07567550209606
31
0.000000000000000
  0
LINE
  5
F10215
330
F10216
100
AcDbEntity
8
Geo
100
AcDbLine
10
-81.5241299303943
20
-2.07567550209606
30
0.000000000000000
11
-81.4241299303943
21
-2.17083920762074
31
0.000000000000000
  0
LINE
  5
F10217
330
F10218
100
AcDbEntity
8
Geo
100
AcDbLine
10
-81.4241299303943
20
-2.17083920762074
30
0.000000000000000
11
-81.3241299303943
21
-2.26538553917334
31
0.000000000000000
  0
LINE
  5
F10219
330
F1021A
100
AcDbEntity
8
Geo
100
AcDbLine
10
-81.3241299303943
20
-2.26538553917334
30
0.000000000000000
11
-81.2241299303943
21
-2.35917444540610
31
0.000000000000000
  0
LINE
  5
F1021B
330
F1021C
100
AcDbEntity
8
Geo
100
AcDbLine
10
-81.2241299303943
20
-2.35917444540610
30
0.000000000000000
11
-81.1241299303943
21
-2.45206699694431
31
0.000000000000000
  0
LINE
  5
F1021D
330
F1021E
100
AcDbEntity
8
Geo
100
AcDbLine
10
-81.1241299303943
20
-2.45206699694431
30
0.000000000000000
11
-81.0241299303943
21
-2.54392559218220
31
0.000000000000000
  0
LINE
  5
F1021F
330
F10220
100
AcDbEntity
8
Geo
100
AcDbLine
10
-81.0241299303943
20
-2.54392559218220
30
0.000000000000000
11
-80.9241299303943
21
-2.63461416111204
31
0.000000000000000
  0
LINE
  5
F10221
330
F10222
100
AcDbEntity
8
Geo
100
AcDbLine
10
-80.9241299303943
20
-2.63461416111204
30
0.000000000000000
11
-80.8241299303943
21
-2.72399836688439
31
0.000000000000000
  0
LINE
  5
F10223
330
F10224
100
AcDbEntity
8
Geo
100
AcDbLine
10
-80.8241299303943
20
-2.72399836688439
30
0.000000000000000
11
-80.7241299303943
21
-2.81194580480113
31
0.000000000000000
  0
LINE
  5
F10225
330
F10226
100
AcDbEntity
8
Geo
100
AcDbLine
10
-80.7241299303943
20
-2.81194580480113
30
0.000000000000000
11
-80.6241299303943
21
-2.89832619844634
31
0.000000000000000
  0
LINE
  5
F10227
330
F10228
100
AcDbEntity
8
Geo
100
AcDbLine
10
-80.6241299303943
20
-2.89832619844634
30
0.000000000000000
11
-80.5241299303943
21
-2.98301159266459
31
0.000000000000000
  0
LINE
  5
F10229
330
F1022A
100
AcDbEntity
8
Geo
100
AcDbLine
10
-80.5241299303943
20
-2.98301159266459
30
0.000000000000000
11
-80.4241299303943
21
-3.06587654310068
31
0.000000000000000
  0
LINE
  5
F1022B
330
F1022C
100
AcDbEntity
8
Geo
100
AcDbLine
10
-80.4241299303943
20
-3.06587654310068
30
0.000000000000000
11
-80.3241299303943
21
-3.14679830202025
31
0.000000000000000
  0
LINE
  5
F1022D
330
F1022E
100
AcDbEntity
8
Geo
100
AcDbLine
10
-80.3241299303943
20
-3.14679830202025
30
0.000000000000000
11
-80.2241299303943
21
-3.22565700013579
31
0.000000000000000
  0
LINE
  5
F1022F
330
F10230
100
AcDbEntity
8
Geo
100
AcDbLine
10
-80.2241299303943
20
-3.22565700013579
30
0.000000000000000
11
-80.1241299303943
21
-3.30233582416884
31
0.000000000000000
  0
LINE
  5
F10231
330
F10232
100
AcDbEntity
8
Geo
100
AcDbLine
10
-80.1241299303943
20
-3.30233582416884
30
0.000000000000000
11
-80.0241299303943
21
-3.37672118988535
31
0.000000000000000
  0
LINE
  5
F10233
330
F10234
100
AcDbEntity
8
Geo
100
AcDbLine
10
-80.0241299303943
20
-3.37672118988535
30
0.000000000000000
11
-79.9241299303943
21
-3.44870291034787
31
0.000000000000000
  0
LINE
  5
F10235
330
F10236
100
AcDbEntity
8
Geo
100
AcDbLine
10
-79.9241299303943
20
-3.44870291034787
30
0.000000000000000
11
-79.8241299303943
21
-3.51817435913525
31
0.000000000000000
  0
LINE
  5
F10237
330
F10238
100
AcDbEntity
8
Geo
100
AcDbLine
10
-79.8241299303943
20
-3.51817435913525
30
0.000000000000000
11
-79.7241299303943
21
-3.58503262828824
31
0.000000000000000
  0
LINE
  5
F10239
330
F1023A
100
AcDbEntity
8
Geo
100
AcDbLine
10
-79.7241299303943
20
-3.58503262828824
30
0.000000000000000
11
-79.6241299303943
21
-3.64917868074692
31
0.000000000000000
  0
LINE
  5
F1023B
330
F1023C
100
AcDbEntity
8
Geo
100
AcDbLine
10
-79.6241299303943
20
-3.64917868074692
30
0.000000000000000
11
-79.5241299303943
21
-3.71051749705413
31
0.000000000000000
  0
LINE
  5
F1023D
330
F1023E
100
AcDbEntity
8
Geo
100
AcDbLine
10
-79.5241299303943
20
-3.71051749705413
30
0.000000000000000
11
-79.4241299303943
21
-3.76895821610765
31
0.000000000000000
  0
LINE
  5
F1023F
330
F10240
100
AcDbEntity
8
Geo
100
AcDbLine
10
-79.4241299303943
20
-3.76895821610765
30
0.000000000000000
11
-79.3241299303943
21
-3.82441426975268
31
0.000000000000000
  0
LINE
  5
F10241
330
F10242
100
AcDbEntity
8
Geo
100
AcDbLine
10
-79.3241299303943
20
-3.82441426975268
30
0.000000000000000
11
-79.2241299303943
21
-3.87680351101504
31
0.000000000000000
  0
LINE
  5
F10243
330
F10244
100
AcDbEntity
8
Geo
100
AcDbLine
10
-79.2241299303943
20
-3.87680351101504
30
0.000000000000000
11
-79.1241299303943
21
-3.92604833578545
31
0.000000000000000
  0
LINE
  5
F10245
330
F10246
100
AcDbEntity
8
Geo
100
AcDbLine
10
-79.1241299303943
20
-3.92604833578545
30
0.000000000000000
11
-79.0241299303943
21
-3.97207579777433
31
0.000000000000000
  0
LINE
  5
F10247
330
F10248
100
AcDbEntity
8
Geo
100
AcDbLine
10
-79.0241299303943
20
-3.97207579777433
30
0.000000000000000
11
-78.9241299303943
21
-4.01481771656706
31
0.000000000000000
  0
LINE
  5
F10249
330
F1024A
100
AcDbEntity
8
Geo
100
AcDbLine
10
-78.9241299303943
20
-4.01481771656706
30
0.000000000000000
11
-78.8241299303943
21
-4.05421077861953
31
0.000000000000000
  0
LINE
  5
F1024B
330
F1024C
100
AcDbEntity
8
Geo
100
AcDbLine
10
-78.8241299303943
20
-4.05421077861953
30
0.000000000000000
11
-78.7241299303943
21
-4.09019663104441
31
0.000000000000000
  0
LINE
  5
F1024D
330
F1024E
100
AcDbEntity
8
Geo
100
AcDbLine
10
-78.7241299303943
20
-4.09019663104441
30
0.000000000000000
11
-78.6241299303943
21
-4.12272196804919
31
0.000000000000000
  0
LINE
  5
F1024F
330
F10250
100
AcDbEntity
8
Geo
100
AcDbLine
10
-78.6241299303943
20
-4.12272196804919
30
0.000000000000000
11
-78.5241299303943
21
-4.15173860989796
31
0.000000000000000
  0
LINE
  5
F10251
330
F10252
100
AcDbEntity
8
Geo
100
AcDbLine
10
-78.5241299303943
20
-4.15173860989796
30
0.000000000000000
11
-78.4241299303943
21
-4.17720357428004
31
0.000000000000000
  0
LINE
  5
F10253
330
F10254
100
AcDbEntity
8
Geo
100
AcDbLine
10
-78.4241299303943
20
-4.17720357428004
30
0.000000000000000
11
-78.3241299303943
21
-4.19907913997953
31
0.000000000000000
  0
LINE
  5
F10255
330
F10256
100
AcDbEntity
8
Geo
100
AcDbLine
10
-78.3241299303943
20
-4.19907913997953
30
0.000000000000000
11
-78.2241299303943
21
-4.21733290275179
31
0.000000000000000
  0
LINE
  5
F10257
330
F10258
100
AcDbEntity
8
Geo
100
AcDbLine
10
-78.2241299303943
20
-4.21733290275179
30
0.000000000000000
11
-78.1241299303943
21
-4.23193782332373
31
0.000000000000000
  0
LINE
  5
F10259
330
F1025A
100
AcDbEntity
8
Geo
100
AcDbLine
10
-78.1241299303943
20
-4.23193782332373
30
0.000000000000000
11
-78.0241299303943
21
-4.24287226744707
31
0.000000000000000
  0
LINE
  5
F1025B
330
F1025C
100
AcDbEntity
8
Geo
100
AcDbLine
10
-78.0241299303943
20
-4.24287226744707
30
0.000000000000000
11
-77.9241299303943
21
-4.25012003794514
31
0.000000000000000
  0
LINE
  5
F1025D
330
F1025E
100
AcDbEntity
8
Geo
100
AcDbLine
10
-77.9241299303943
20
-4.25012003794514
30
0.000000000000000
11
-77.8241299303943
21
-4.25367039870570
31
0.000000000000000
  0
LINE
  5
F1025F
330
F10260
100
AcDbEntity
8
Geo
100
AcDbLine
10
-69.7241299303943
20
0.745939675174071
30
0.000000000000000
11
-69.6241299303943
21
0.745769245020043
31
0.000000000000000
  0
LINE
  5
F10261
330
F10262
100
AcDbEntity
8
Geo
100
AcDbLine
10
-69.6241299303943
20
0.745769245020043
30
0.000000000000000
11
-69.5241299303943
21
0.742738982091543
31
0.000000000000000
  0
LINE
  5
F10263
330
F10264
100
AcDbEntity
8
Geo
100
AcDbLine
10
-69.5241299303943
20
0.742738982091543
30
0.000000000000000
11
-69.4241299303943
21
0.736111185627091
31
0.000000000000000
  0
LINE
  5
F10265
330
F10266
100
AcDbEntity
8
Geo
100
AcDbLine
10
-69.4241299303943
20
0.736111185627091
30
0.000000000000000
11
-69.3241299303943
21
0.726133754337294
31
0.000000000000000
  0
LINE
  5
F10267
330
F10268
100
AcDbEntity
8
Geo
100
AcDbLine
10
-69.3241299303943
20
0.726133754337294
30
0.000000000000000
11
-69.2241299303943
21
0.713052817670655
31
0.000000000000000
  0
LINE
  5
F10269
330
F1026A
100
AcDbEntity
8
Geo
100
AcDbLine
10
-69.2241299303943
20
0.713052817670655
30
0.000000000000000
11
-69.1241299303943
21
0.697111745363591
31
0.000000000000000
  0
LINE
  5
F1026B
330
F1026C
100
AcDbEntity
8
Geo
100
AcDbLine
10
-69.1241299303943
20
0.697111745363591
30
0.000000000000000
11
-69.0241299303943
21
0.678550261159144
31
0.000000000000000
  0
LINE
  5
F1026D
330
F1026E
100
AcDbEntity
8
Geo
100
AcDbLine
10
-69.0241299303943
20
0.678550261159144
30
0.000000000000000
11
-68.9241299303943
21
0.657603656720855
31
0.000000000000000
  0
LINE
  5
F1026F
330
F10270
100
AcDbEntity
8
Geo
100
AcDbLine
10
-68.9241299303943
20
0.657603656720855
30
0.000000000000000
11
-68.8241299303943
21
0.634502101399134
31
0.000000000000000
  0
LINE
  5
F10271
330
F10272
100
AcDbEntity
8
Geo
100
AcDbLine
10
-68.8241299303943
20
0.634502101399134
30
0.000000000000000
11
-68.7241299303943
21
0.609470043214033
31
0.000000000000000
  0
LINE
  5
F10273
330
F10274
100
AcDbEntity
8
Geo
100
AcDbLine
10
-68.7241299303943
20
0.609470043214033
30
0.000000000000000
11
-68.6241299303943
21
0.582725696194451
31
0.000000000000000
  0
LINE
  5
F10275
330
F10276
100
AcDbEntity
8
Geo
100
AcDbLine
10
-68.6241299303943
20
0.582725696194451
30
0.000000000000000
11
-68.5241299303943
21
0.554480609053564
31
0.000000000000000
  0
LINE
  5
F10277
330
F10278
100
AcDbEntity
8
Geo
100
AcDbLine
10
-68.5241299303943
20
0.554480609053564
30
0.000000000000000
11
-68.4241299303943
21
0.524939310077490
31
0.000000000000000
  0
LINE
  5
F10279
330
F1027A
100
AcDbEntity
8
Geo
100
AcDbLine
10
-68.4241299303943
20
0.524939310077490
30
0.000000000000000
11
-68.3241299303943
21
0.494299023053230
31
0.000000000000000
  0
LINE
  5
F1027B
330
F1027C
100
AcDbEntity
8
Geo
100
AcDbLine
10
-68.3241299303943
20
0.494299023053230
30
0.000000000000000
11
-68.2241299303943
21
0.462749449057030
31
0.000000000000000
  0
LINE
  5
F1027D
330
F1027E
100
AcDbEntity
8
Geo
100
AcDbLine
10
-68.2241299303943
20
0.462749449057030
30
0.000000000000000
11
-68.1241299303943
21
0.430472608960131
31
0.000000000000000
  0
LINE
  5
F1027F
330
F10280
100
AcDbEntity
8
Geo
100
AcDbLine
10
-68.1241299303943
20
0.430472608960131
30
0.000000000000000
11
-68.0241299303943
21
0.397642741580226
31
0.000000000000000
  0
LINE
  5
F10281
330
F10282
100
AcDbEntity
8
Geo
100
AcDbLine
10
-68.0241299303943
20
0.397642741580226
30
0.000000000000000
11
-67.9241299303943
21
0.364426252508998
31
0.000000000000000
  0
LINE
  5
F10283
330
F10284
100
AcDbEntity
8
Geo
100
AcDbLine
10
-67.9241299303943
20
0.364426252508998
30
0.000000000000000
11
-67.8241299303943
21
0.330981708774309
31
0.000000000000000
  0
LINE
  5
F10285
330
F10286
100
AcDbEntity
8
Geo
100
AcDbLine
10
-67.8241299303943
20
0.330981708774309
30
0.000000000000000
11
-67.7241299303943
21
0.297459874645591
31
0.000000000000000
  0
LINE
  5
F10287
330
F10288
100
AcDbEntity
8
Geo
100
AcDbLine
10
-67.7241299303943
20
0.297459874645591
30
0.000000000000000
11
-67.6241299303943
21
0.264003784058973
31
0.000000000000000
  0
LINE
  5
F10289
330
F1028A
100
AcDbEntity
8
Geo
100
AcDbLine
10
-67.6241299303943
20
0.264003784058973
30
0.000000000000000
11
-67.5241299303943
21
0.230748845320892
31
0.000000000000000
  0
LINE
  5
F1028B
330
F1028C
100
AcDbEntity
8
Geo
100
AcDbLine
10
-67.5241299303943
20
0.230748845320892
30
0.000000000000000
11
-67.4241299303943
21
0.197822973942078
31
0.000000000000000
  0
LINE
  5
F1028D
330
F1028E
100
AcDbEntity
8
Geo
100
AcDbLine
10
-67.4241299303943
20
0.197822973942078
30
0.000000000000000
11
-67.3241299303943
21
0.165346749655032
31
0.000000000000000
  0
LINE
  5
F1028F
330
F10290
100
AcDbEntity
8
Geo
100
AcDbLine
10
-67.3241299303943
20
0.165346749655032
30
0.000000000000000
11
-67.2241299303943
21
0.133433593874425
31
0.000000000000000
  0
LINE
  5
F10291
330
F10292
100
AcDbEntity
8
Geo
100
AcDbLine
10
-67.2241299303943
20
0.133433593874425
30
0.000000000000000
11
-67.1241299303942
21
0.102189964069160
31
0.000000000000000
  0
LINE
  5
F10293
330
F10294
100
AcDbEntity
8
Geo
100
AcDbLine
10
-67.1241299303942
20
0.102189964069160
30
0.000000000000000
11
-67.0241299303943
21
0.0717155617247571
31
0.000000000000000
  0
LINE
  5
F10295
330
F10296
100
AcDbEntity
8
Geo
100
AcDbLine
10
-67.0241299303943
20
0.0717155617247571
30
0.000000000000000
11
-66.9241299303942
21
0.0421035507835574
31
0.000000000000000
  0
LINE
  5
F10297
330
F10298
100
AcDbEntity
8
Geo
100
AcDbLine
10
-66.9241299303942
20
0.0421035507835574
30
0.000000000000000
11
-66.8241299303943
21
0.0134407836562671
31
0.000000000000000
  0
LINE
  5
F10299
330
F1029A
100
AcDbEntity
8
Geo
100
AcDbLine
10
-66.8241299303943
20
0.0134407836562671
30
0.000000000000000
11
-66.7241299303942
21
-0.0141919678996700
31
0.000000000000000
  0
LINE
  5
F1029B
330
F1029C
100
AcDbEntity
8
Geo
100
AcDbLine
10
-66.7241299303942
20
-0.0141919678996700
30
0.000000000000000
11
-66.6241299303942
21
-0.0407197795427463
31
0.000000000000000
  0
LINE
  5
F1029D
330
F1029E
100
AcDbEntity
8
Geo
100
AcDbLine
10
-66.6241299303942
20
-0.0407197795427463
30
0.000000000000000
11
-66.5241299303942
21
-0.0660733410684859
31
0.000000000000000
  0
LINE
  5
F1029F
330
F102A0
100
AcDbEntity
8
Geo
100
AcDbLine
10
-66.5241299303942
20
-0.0660733410684859
30
0.000000000000000
11
-66.4241299303942
21
-0.0901887252228215
31
0.000000000000000
  0
LINE
  5
F102A1
330
F102A2
100
AcDbEntity
8
Geo
100
AcDbLine
10
-66.4241299303942
20
-0.0901887252228215
30
0.000000000000000
11
-66.3241299303942
21
-0.113007160565532
31
0.000000000000000
  0
LINE
  5
F102A3
330
F102A4
100
AcDbEntity
8
Geo
100
AcDbLine
10
-66.3241299303942
20
-0.113007160565532
30
0.000000000000000
11
-66.2241299303942
21
-0.134474810173357
31
0.000000000000000
  0
LINE
  5
F102A5
330
F102A6
100
AcDbEntity
8
Geo
100
AcDbLine
10
-66.2241299303942
20
-0.134474810173357
30
0.000000000000000
11
-66.1241299303942
21
-0.154542557812358
31
0.000000000000000
  0
LINE
  5
F102A7
330
F102A8
100
AcDbEntity
8
Geo
100
AcDbLine
10
-66.1241299303942
20
-0.154542557812358
30
0.000000000000000
11
-66.0241299303942
21
-0.173165803057200
31
0.000000000000000
  0
LINE
  5
F102A9
330
F102AA
100
AcDbEntity
8
Geo
100
AcDbLine
10
-66.0241299303942
20
-0.173165803057200
30
0.000000000000000
11
-65.9241299303942
21
-0.190304266691452
31
0.000000000000000
  0
LINE
  5
F102AB
330
F102AC
100
AcDbEntity
8
Geo
100
AcDbLine
10
-65.9241299303942
20
-0.190304266691452
30
0.000000000000000
11
-65.8241299303942
21
-0.205921807587342
31
0.000000000000000
  0
LINE
  5
F102AD
330
F102AE
100
AcDbEntity
8
Geo
100
AcDbLine
10
-65.8241299303942
20
-0.205921807587342
30
0.000000000000000
11
-65.7241299303942
21
-0.219986252135647
31
0.000000000000000
  0
LINE
  5
F102AF
330
F102B0
100
AcDbEntity
8
Geo
100
AcDbLine
10
-65.7241299303942
20
-0.219986252135647
30
0.000000000000000
11
-65.6241299303942
21
-0.232469237176128
31
0.000000000000000
  0
LINE
  5
F102B1
330
F102B2
100
AcDbEntity
8
Geo
100
AcDbLine
10
-65.6241299303942
20
-0.232469237176128
30
0.000000000000000
11
-65.5241299303942
21
-0.243346067265673
31
0.000000000000000
  0
LINE
  5
F102B3
330
F102B4
100
AcDbEntity
8
Geo
100
AcDbLine
10
-65.5241299303942
20
-0.243346067265673
30
0.000000000000000
11
-65.4241299303942
21
-0.252595587014735
31
0.000000000000000
  0
LINE
  5
F102B5
330
F102B6
100
AcDbEntity
8
Geo
100
AcDbLine
10
-65.4241299303942
20
-0.252595587014735
30
0.000000000000000
11
-65.3241299303942
21
-0.260200069122087
31
0.000000000000000
  0
LINE
  5
F102B7
330
F102B8
100
AcDbEntity
8
Geo
100
AcDbLine
10
-65.3241299303942
20
-0.260200069122087
30
0.000000000000000
11
-65.2241299303942
21
-0.266145118642874
31
0.000000000000000
  0
LINE
  5
F102B9
330
F102BA
100
AcDbEntity
8
Geo
100
AcDbLine
10
-65.2241299303942
20
-0.266145118642874
30
0.000000000000000
11
-65.1241299303943
21
-0.270419593934650
31
0.000000000000000
  0
LINE
  5
F102BB
330
F102BC
100
AcDbEntity
8
Geo
100
AcDbLine
10
-85.1241299303943
20
-1.75406032482594
30
0.000000000000000
11
-85.0241299303943
21
-1.84732196241979
31
0.000000000000000
  0
LINE
  5
F102BD
330
F102BE
100
AcDbEntity
8
Geo
100
AcDbLine
10
-85.0241299303943
20
-1.84732196241979
30
0.000000000000000
11
-84.9241299303943
21
-1.94500093217030
31
0.000000000000000
  0
LINE
  5
F102BF
330
F102C0
100
AcDbEntity
8
Geo
100
AcDbLine
10
-84.9241299303943
20
-1.94500093217030
30
0.000000000000000
11
-84.8241299303943
21
-2.04209438665277
31
0.000000000000000
  0
LINE
  5
F102C1
330
F102C2
100
AcDbEntity
8
Geo
100
AcDbLine
10
-84.8241299303943
20
-2.04209438665277
30
0.000000000000000
11
-84.7241299303943
21
-2.13744171215200
31
0.000000000000000
  0
LINE
  5
F102C3
330
F102C4
100
AcDbEntity
8
Geo
100
AcDbLine
10
-84.7241299303943
20
-2.13744171215200
30
0.000000000000000
11
-84.6241299303943
21
-2.23222113534215
31
0.000000000000000
  0
LINE
  5
F102C5
330
F102C6
100
AcDbEntity
8
Geo
100
AcDbLine
10
-84.6241299303943
20
-2.23222113534215
30
0.000000000000000
11
-84.5241299303943
21
-2.32629225959714
31
0.000000000000000
  0
LINE
  5
F102C7
330
F102C8
100
AcDbEntity
8
Geo
100
AcDbLine
10
-84.5241299303943
20
-2.32629225959714
30
0.000000000000000
11
-84.4241299303943
21
-2.41951573749310
31
0.000000000000000
  0
LINE
  5
F102C9
330
F102CA
100
AcDbEntity
8
Geo
100
AcDbLine
10
-84.4241299303943
20
-2.41951573749310
30
0.000000000000000
11
-84.3241299303943
21
-2.51175347722353
31
0.000000000000000
  0
LINE
  5
F102CB
330
F102CC
100
AcDbEntity
8
Geo
100
AcDbLine
10
-84.3241299303943
20
-2.51175347722353
30
0.000000000000000
11
-84.2241299303943
21
-2.60286884715448
31
0.000000000000000
  0
LINE
  5
F102CD
330
F102CE
100
AcDbEntity
8
Geo
100
AcDbLine
10
-84.2241299303943
20
-2.60286884715448
30
0.000000000000000
11
-84.1241299303943
21
-2.69272687821679
31
0.000000000000000
  0
LINE
  5
F102CF
330
F102D0
100
AcDbEntity
8
Geo
100
AcDbLine
10
-84.1241299303943
20
-2.69272687821679
30
0.000000000000000
11
-84.0241299303943
21
-2.78119446383562
31
0.000000000000000
  0
LINE
  5
F102D1
330
F102D2
100
AcDbEntity
8
Geo
100
AcDbLine
10
-84.0241299303943
20
-2.78119446383562
30
0.000000000000000
11
-83.9241299303943
21
-2.86814055710098
31
0.000000000000000
  0
LINE
  5
F102D3
330
F102D4
100
AcDbEntity
8
Geo
100
AcDbLine
10
-83.9241299303943
20
-2.86814055710098
30
0.000000000000000
11
-83.8241299303943
21
-2.95343636488738
31
0.000000000000000
  0
LINE
  5
F102D5
330
F102D6
100
AcDbEntity
8
Geo
100
AcDbLine
10
-83.8241299303943
20
-2.95343636488738
30
0.000000000000000
11
-83.7241299303943
21
-3.03695553863488
31
0.000000000000000
  0
LINE
  5
F102D7
330
F102D8
100
AcDbEntity
8
Geo
100
AcDbLine
10
-83.7241299303943
20
-3.03695553863488
30
0.000000000000000
11
-83.6241299303943
21
-3.11857436150904
31
0.000000000000000
  0
LINE
  5
F102D9
330
F102DA
100
AcDbEntity
8
Geo
100
AcDbLine
10
-83.6241299303943
20
-3.11857436150904
30
0.000000000000000
11
-83.5241299303943
21
-3.19817193166250
31
0.000000000000000
  0
LINE
  5
F102DB
330
F102DC
100
AcDbEntity
8
Geo
100
AcDbLine
10
-83.5241299303943
20
-3.19817193166250
30
0.000000000000000
11
-83.4241299303943
21
-3.27563034132668
31
0.000000000000000
  0
LINE
  5
F102DD
330
F102DE
100
AcDbEntity
8
Geo
100
AcDbLine
10
-83.4241299303943
20
-3.27563034132668
30
0.000000000000000
11
-83.3241299303943
21
-3.35083485146845
31
0.000000000000000
  0
LINE
  5
F102DF
330
F102E0
100
AcDbEntity
8
Geo
100
AcDbLine
10
-83.3241299303943
20
-3.35083485146845
30
0.000000000000000
11
-83.2241299303943
21
-3.42367406175286
31
0.000000000000000
  0
LINE
  5
F102E1
330
F102E2
100
AcDbEntity
8
Geo
100
AcDbLine
10
-83.2241299303943
20
-3.42367406175286
30
0.000000000000000
11
-83.1241299303943
21
-3.49404007556031
31
0.000000000000000
  0
LINE
  5
F102E3
330
F102E4
100
AcDbEntity
8
Geo
100
AcDbLine
10
-83.1241299303943
20
-3.49404007556031
30
0.000000000000000
11
-83.0241299303943
21
-3.56182865981363
31
0.000000000000000
  0
LINE
  5
F102E5
330
F102E6
100
AcDbEntity
8
Geo
100
AcDbLine
10
-83.0241299303943
20
-3.56182865981363
30
0.000000000000000
11
-82.9241299303943
21
-3.62693939937847
31
0.000000000000000
  0
LINE
  5
F102E7
330
F102E8
100
AcDbEntity
8
Geo
100
AcDbLine
10
-82.9241299303943
20
-3.62693939937847
30
0.000000000000000
11
-82.8241299303943
21
-3.68927584580800
31
0.000000000000000
  0
LINE
  5
F102E9
330
F102EA
100
AcDbEntity
8
Geo
100
AcDbLine
10
-82.8241299303943
20
-3.68927584580800
30
0.000000000000000
11
-82.7241299303943
21
-3.74874566021192
31
0.000000000000000
  0
LINE
  5
F102EB
330
F102EC
100
AcDbEntity
8
Geo
100
AcDbLine
10
-82.7241299303943
20
-3.74874566021192
30
0.000000000000000
11
-82.6241299303943
21
-3.80526075003793
31
0.000000000000000
  0
LINE
  5
F102ED
330
F102EE
100
AcDbEntity
8
Geo
100
AcDbLine
10
-82.6241299303943
20
-3.80526075003793
30
0.000000000000000
11
-82.5241299303943
21
-3.85873739956304
31
0.000000000000000
  0
LINE
  5
F102EF
330
F102F0
100
AcDbEntity
8
Geo
100
AcDbLine
10
-82.5241299303943
20
-3.85873739956304
30
0.000000000000000
11
-82.4241299303943
21
-3.90909639390165
31
0.000000000000000
  0
LINE
  5
F102F1
330
F102F2
100
AcDbEntity
8
Geo
100
AcDbLine
10
-82.4241299303943
20
-3.90909639390165
30
0.000000000000000
11
-82.3241299303943
21
-3.95626313634637
31
0.000000000000000
  0
LINE
  5
F102F3
330
F102F4
100
AcDbEntity
8
Geo
100
AcDbLine
10
-82.3241299303943
20
-3.95626313634637
30
0.000000000000000
11
-82.2241299303943
21
-4.00016775886804
31
0.000000000000000
  0
LINE
  5
F102F5
330
F102F6
100
AcDbEntity
8
Geo
100
AcDbLine
10
-82.2241299303943
20
-4.00016775886804
30
0.000000000000000
11
-82.1241299303943
21
-4.04074522561116
31
0.000000000000000
  0
LINE
  5
F102F7
330
F102F8
100
AcDbEntity
8
Geo
100
AcDbLine
10
-82.1241299303943
20
-4.04074522561116
30
0.000000000000000
11
-82.0241299303943
21
-4.07793542923140
31
0.000000000000000
  0
LINE
  5
F102F9
330
F102FA
100
AcDbEntity
8
Geo
100
AcDbLine
10
-82.0241299303943
20
-4.07793542923140
30
0.000000000000000
11
-81.9241299303943
21
-4.11168327993250
31
0.000000000000000
  0
LINE
  5
F102FB
330
F102FC
100
AcDbEntity
8
Geo
100
AcDbLine
10
-81.9241299303943
20
-4.11168327993250
30
0.000000000000000
11
-81.8241299303943
21
-4.14193878707077
31
0.000000000000000
  0
LINE
  5
F102FD
330
F102FE
100
AcDbEntity
8
Geo
100
AcDbLine
10
-81.8241299303943
20
-4.14193878707077
30
0.000000000000000
11
-81.7241299303943
21
-4.16865713320608
31
0.000000000000000
  0
LINE
  5
F102FF
330
F10300
100
AcDbEntity
8
Geo
100
AcDbLine
10
-81.7241299303943
20
-4.16865713320608
30
0.000000000000000
11
-81.6241299303943
21
-4.19179874048995
31
0.000000000000000
  0
LINE
  5
F10301
330
F10302
100
AcDbEntity
8
Geo
100
AcDbLine
10
-81.6241299303943
20
-4.19179874048995
30
0.000000000000000
11
-81.5241299303943
21
-4.21132932929208
31
0.000000000000000
  0
LINE
  5
F10303
330
F10304
100
AcDbEntity
8
Geo
100
AcDbLine
10
-81.5241299303943
20
-4.21132932929208
30
0.000000000000000
11
-81.4241299303943
21
-4.22721996897881
31
0.000000000000000
  0
LINE
  5
F10305
330
F10306
100
AcDbEntity
8
Geo
100
AcDbLine
10
-81.4241299303943
20
-4.22721996897881
30
0.000000000000000
11
-81.3241299303943
21
-4.23944712076793
31
0.000000000000000
  0
LINE
  5
F10307
330
F10308
100
AcDbEntity
8
Geo
100
AcDbLine
10
-81.3241299303943
20
-4.23944712076793
30
0.000000000000000
11
-81.2241299303943
21
-4.24799267259674
31
0.000000000000000
  0
LINE
  5
F10309
330
F1030A
100
AcDbEntity
8
Geo
100
AcDbLine
10
-81.2241299303943
20
-4.24799267259674
30
0.000000000000000
11
-81.1241299303943
21
-4.25284396595133
31
0.000000000000000
  0
LINE
  5
F1030B
330
F1030C
100
AcDbEntity
8
Geo
100
AcDbLine
10
-72.9241299303943
20
0.745594951213530
30
0.000000000000000
11
-72.8241299303943
21
0.745341104533095
31
0.000000000000000
  0
LINE
  5
F1030D
330
F1030E
100
AcDbEntity
8
Geo
100
AcDbLine
10
-72.8241299303943
20
0.745341104533095
30
0.000000000000000
11
-72.7241299303943
21
0.741384898035595
31
0.000000000000000
  0
LINE
  5
F1030F
330
F10310
100
AcDbEntity
8
Geo
100
AcDbLine
10
-72.7241299303943
20
0.741384898035595
30
0.000000000000000
11
-72.6241299303943
21
0.733732192044144
31
0.000000000000000
  0
LINE
  5
F10311
330
F10312
100
AcDbEntity
8
Geo
100
AcDbLine
10
-72.6241299303943
20
0.733732192044144
30
0.000000000000000
11
-72.5241299303943
21
0.722394322501346
31
0.000000000000000
  0
LINE
  5
F10313
330
F10314
100
AcDbEntity
8
Geo
100
AcDbLine
10
-72.5241299303943
20
0.722394322501346
30
0.000000000000000
11
-72.4241299303943
21
0.707388084177389
31
0.000000000000000
  0
LINE
  5
F10315
330
F10316
100
AcDbEntity
8
Geo
100
AcDbLine
10
-72.4241299303943
20
0.707388084177389
30
0.000000000000000
11
-72.3241299303943
21
0.688735705791965
31
0.000000000000000
  0
LINE
  5
F10317
330
F10318
100
AcDbEntity
8
Geo
100
AcDbLine
10
-72.3241299303943
20
0.688735705791965
30
0.000000000000000
11
-72.2241299303943
21
0.666464817086906
31
0.000000000000000
  0
LINE
  5
F10319
330
F1031A
100
AcDbEntity
8
Geo
100
AcDbLine
10
-72.2241299303943
20
0.666464817086906
30
0.000000000000000
11
-72.1241299303943
21
0.640608407898284
31
0.000000000000000
  0
LINE
  5
F1031B
330
F1031C
100
AcDbEntity
8
Geo
100
AcDbLine
10
-72.1241299303943
20
0.640608407898284
30
0.000000000000000
11
-72.0241299303943
21
0.611204779288613
31
0.000000000000000
  0
LINE
  5
F1031D
330
F1031E
100
AcDbEntity
8
Geo
100
AcDbLine
10
-72.0241299303943
20
0.611204779288613
30
0.000000000000000
11
-71.9241299303943
21
0.578297486811540
31
0.000000000000000
  0
LINE
  5
F1031F
330
F10320
100
AcDbEntity
8
Geo
100
AcDbLine
10
-71.9241299303943
20
0.578297486811540
30
0.000000000000000
11
-71.8241299303943
21
0.541935275993061
31
0.000000000000000
  0
LINE
  5
F10321
330
F10322
100
AcDbEntity
8
Geo
100
AcDbLine
10
-71.8241299303943
20
0.541935275993061
30
0.000000000000000
11
-71.7241299303943
21
0.502172010124851
31
0.000000000000000
  0
LINE
  5
F10323
330
F10324
100
AcDbEntity
8
Geo
100
AcDbLine
10
-71.7241299303943
20
0.502172010124851
30
0.000000000000000
11
-71.6241299303943
21
0.459066590476636
31
0.000000000000000
  0
LINE
  5
F10325
330
F10326
100
AcDbEntity
8
Geo
100
AcDbLine
10
-71.6241299303943
20
0.459066590476636
30
0.000000000000000
11
-71.5241299303943
21
0.412682869045828
31
0.000000000000000
  0
LINE
  5
F10327
330
F10328
100
AcDbEntity
8
Geo
100
AcDbLine
10
-71.5241299303943
20
0.412682869045828
30
0.000000000000000
11
-71.4241299303943
21
0.363089553973654
31
0.000000000000000
  0
LINE
  5
F10329
330
F1032A
100
AcDbEntity
8
Geo
100
AcDbLine
10
-71.4241299303943
20
0.363089553973654
30
0.000000000000000
11
-71.3241299303943
21
0.310360107767883
31
0.000000000000000
  0
LINE
  5
F1032B
330
F1032C
100
AcDbEntity
8
Geo
100
AcDbLine
10
-71.3241299303943
20
0.310360107767883
30
0.000000000000000
11
-71.2241299303943
21
0.254572638482913
31
0.000000000000000
  0
LINE
  5
F1032D
330
F1032E
100
AcDbEntity
8
Geo
100
AcDbLine
10
-71.2241299303943
20
0.254572638482913
30
0.000000000000000
11
-71.1241299303943
21
0.195809784018423
31
0.000000000000000
  0
LINE
  5
F1032F
330
F10330
100
AcDbEntity
8
Geo
100
AcDbLine
10
-71.1241299303943
20
0.195809784018423
30
0.000000000000000
11
-71.0241299303943
21
0.134158589707967
31
0.000000000000000
  0
LINE
  5
F10331
330
F10332
100
AcDbEntity
8
Geo
100
AcDbLine
10
-71.0241299303943
20
0.134158589707967
30
0.000000000000000
11
-70.9241299303943
21
0.0697103793788456
31
0.000000000000000
  0
LINE
  5
F10333
330
F10334
100
AcDbEntity
8
Geo
100
AcDbLine
10
-70.9241299303943
20
0.0697103793788456
30
0.000000000000000
11
-70.8241299303943
21
0.00256062007424696
31
0.000000000000000
  0
LINE
  5
F10335
330
F10336
100
AcDbEntity
8
Geo
100
AcDbLine
10
-70.8241299303943
20
0.00256062007424696
30
0.000000000000000
11
-70.7241299303943
21
-0.0671912193619448
31
0.000000000000000
  0
LINE
  5
F10337
330
F10338
100
AcDbEntity
8
Geo
100
AcDbLine
10
-70.7241299303943
20
-0.0671912193619448
30
0.000000000000000
11
-70.6241299303943
21
-0.139441815628214
31
0.000000000000000
  0
LINE
  5
F10339
330
F1033A
100
AcDbEntity
8
Geo
100
AcDbLine
10
-70.6241299303943
20
-0.139441815628214
30
0.000000000000000
11
-70.5241299303943
21
-0.214084144018073
31
0.000000000000000
  0
LINE
  5
F1033B
330
F1033C
100
AcDbEntity
8
Geo
100
AcDbLine
10
-70.5241299303943
20
-0.214084144018073
30
0.000000000000000
11
-70.4241299303943
21
-0.291007636955607
31
0.000000000000000
  0
LINE
  5
F1033D
330
F1033E
100
AcDbEntity
8
Geo
100
AcDbLine
10
-70.4241299303943
20
-0.291007636955607
30
0.000000000000000
11
-70.3241299303943
21
-0.370098347779067
31
0.000000000000000
  0
LINE
  5
F1033F
330
F10340
100
AcDbEntity
8
Geo
100
AcDbLine
10
-70.3241299303943
20
-0.370098347779067
30
0.000000000000000
11
-70.2241299303943
21
-0.451239119529907
31
0.000000000000000
  0
LINE
  5
F10341
330
F10342
100
AcDbEntity
8
Geo
100
AcDbLine
10
-70.2241299303943
20
-0.451239119529907
30
0.000000000000000
11
-70.1241299303943
21
-0.534309758497244
31
0.000000000000000
  0
LINE
  5
F10343
330
F10344
100
AcDbEntity
8
Geo
100
AcDbLine
10
-70.1241299303943
20
-0.534309758497244
30
0.000000000000000
11
-70.0241299303943
21
-0.523870107659882
31
0.000000000000000
  0
LINE
  5
F10345
330
F10346
100
AcDbEntity
8
Geo
100
AcDbLine
10
-70.0241299303943
20
-0.523870107659882
30
0.000000000000000
11
-69.9241299303943
21
-0.513660416483896
31
0.000000000000000
  0
LINE
  5
F10347
330
F10348
100
AcDbEntity
8
Geo
100
AcDbLine
10
-69.9241299303943
20
-0.513660416483896
30
0.000000000000000
11
-69.8241299303943
21
-0.503679292477285
31
0.000000000000000
  0
LINE
  5
F10349
330
F1034A
100
AcDbEntity
8
Geo
100
AcDbLine
10
-69.8241299303943
20
-0.503679292477285
30
0.000000000000000
11
-69.7241299303943
21
-0.493925348523131
31
0.000000000000000
  0
LINE
  5
F1034B
330
F1034C
100
AcDbEntity
8
Geo
100
AcDbLine
10
-69.7241299303943
20
-0.493925348523131
30
0.000000000000000
11
-69.6241299303943
21
-0.484397204281420
31
0.000000000000000
  0
LINE
  5
F1034D
330
F1034E
100
AcDbEntity
8
Geo
100
AcDbLine
10
-69.6241299303943
20
-0.484397204281420
30
0.000000000000000
11
-69.5241299303943
21
-0.475093487556006
31
0.000000000000000
  0
LINE
  5
F1034F
330
F10350
100
AcDbEntity
8
Geo
100
AcDbLine
10
-69.5241299303943
20
-0.475093487556006
30
0.000000000000000
11
-69.4241299303943
21
-0.466012835627013
31
0.000000000000000
  0
LINE
  5
F10351
330
F10352
100
AcDbEntity
8
Geo
100
AcDbLine
10
-69.4241299303943
20
-0.466012835627013
30
0.000000000000000
11
-69.3241299303943
21
-0.457153896548988
31
0.000000000000000
  0
LINE
  5
F10353
330
F10354
100
AcDbEntity
8
Geo
100
AcDbLine
10
-69.3241299303943
20
-0.457153896548988
30
0.000000000000000
11
-69.2241299303943
21
-0.448515330415078
31
0.000000000000000
  0
LINE
  5
F10355
330
F10356
100
AcDbEntity
8
Geo
100
AcDbLine
10
-69.2241299303943
20
-0.448515330415078
30
0.000000000000000
11
-69.1241299303943
21
-0.440095810587573
31
0.000000000000000
  0
LINE
  5
F10357
330
F10358
100
AcDbEntity
8
Geo
100
AcDbLine
10
-69.1241299303943
20
-0.440095810587573
30
0.000000000000000
11
-69.0241299303943
21
-0.431894024895094
31
0.000000000000000
  0
LINE
  5
F10359
330
F1035A
100
AcDbEntity
8
Geo
100
AcDbLine
10
-69.0241299303943
20
-0.431894024895094
30
0.000000000000000
11
-68.9241299303943
21
-0.423908676796762
31
0.000000000000000
  0
LINE
  5
F1035B
330
F1035C
100
AcDbEntity
8
Geo
100
AcDbLine
10
-68.9241299303943
20
-0.423908676796762
30
0.000000000000000
11
-68.8241299303943
21
-0.416138486513642
31
0.000000000000000
  0
LINE
  5
F1035D
330
F1035E
100
AcDbEntity
8
Geo
100
AcDbLine
10
-68.8241299303943
20
-0.416138486513642
30
0.000000000000000
11
-68.7241299303943
21
-0.408582192127803
31
0.000000000000000
  0
LINE
  5
F1035F
330
F10360
100
AcDbEntity
8
Geo
100
AcDbLine
10
-68.7241299303943
20
-0.408582192127803
30
0.000000000000000
11
-68.6241299303943
21
-0.401238550649281
31
0.000000000000000
  0
LINE
  5
F10361
330
F10362
100
AcDbEntity
8
Geo
100
AcDbLine
10
-68.6241299303943
20
-0.401238550649281
30
0.000000000000000
11
-68.5241299303943
21
-0.394106339051285
31
0.000000000000000
  0
LINE
  5
F10363
330
F10364
100
AcDbEntity
8
Geo
100
AcDbLine
10
-68.5241299303943
20
-0.394106339051285
30
0.000000000000000
11
-68.4241299303943
21
-0.387184355273950
31
0.000000000000000
  0
LINE
  5
F10365
330
F10366
100
AcDbEntity
8
Geo
100
AcDbLine
10
-68.4241299303943
20
-0.387184355273950
30
0.000000000000000
11
-68.3241299303943
21
-0.380471419196955
31
0.000000000000000
  0
LINE
  5
F10367
330
F10368
100
AcDbEntity
8
Geo
100
AcDbLine
10
-68.3241299303943
20
-0.380471419196955
30
0.000000000000000
11
-68.2241299303943
21
-0.373966373581313
31
0.000000000000000
  0
LINE
  5
F10369
330
F1036A
100
AcDbEntity
8
Geo
100
AcDbLine
10
-68.2241299303943
20
-0.373966373581313
30
0.000000000000000
11
-68.1241299303943
21
-0.367668084980650
31
0.000000000000000
  0
LINE
  5
F1036B
330
F1036C
100
AcDbEntity
8
Geo
100
AcDbLine
10
-68.1241299303943
20
-0.367668084980650
30
0.000000000000000
11
-68.0241299303943
21
-0.361575444622282
31
0.000000000000000
  0
LINE
  5
F1036D
330
F1036E
100
AcDbEntity
8
Geo
100
AcDbLine
10
-68.0241299303943
20
-0.361575444622282
30
0.000000000000000
11
-67.9241299303943
21
-0.355687369258374
31
0.000000000000000
  0
LINE
  5
F1036F
330
F10370
100
AcDbEntity
8
Geo
100
AcDbLine
10
-67.9241299303943
20
-0.355687369258374
30
0.000000000000000
11
-67.8241299303943
21
-0.350002801987515
31
0.000000000000000
  0
LINE
  5
F10371
330
F10372
100
AcDbEntity
8
Geo
100
AcDbLine
10
-67.8241299303943
20
-0.350002801987515
30
0.000000000000000
11
-67.7241299303943
21
-0.344520713046966
31
0.000000000000000
  0
LINE
  5
F10373
330
F10374
100
AcDbEntity
8
Geo
100
AcDbLine
10
-67.7241299303943
20
-0.344520713046966
30
0.000000000000000
11
-67.6241299303943
21
-0.339240100575899
31
0.000000000000000
  0
LINE
  5
F10375
330
F10376
100
AcDbEntity
8
Geo
100
AcDbLine
10
-67.6241299303943
20
-0.339240100575899
30
0.000000000000000
11
-67.5241299303943
21
-0.334159991349906
31
0.000000000000000
  0
LINE
  5
F10377
330
F10378
100
AcDbEntity
8
Geo
100
AcDbLine
10
-67.5241299303943
20
-0.334159991349906
30
0.000000000000000
11
-67.4241299303943
21
-0.329279441487040
31
0.000000000000000
  0
LINE
  5
F10379
330
F1037A
100
AcDbEntity
8
Geo
100
AcDbLine
10
-67.4241299303943
20
-0.329279441487040
30
0.000000000000000
11
-67.3241299303943
21
-0.324597537125692
31
0.000000000000000
  0
LINE
  5
F1037B
330
F1037C
100
AcDbEntity
8
Geo
100
AcDbLine
10
-67.3241299303943
20
-0.324597537125692
30
0.000000000000000
11
-67.2241299303943
21
-0.320113395074536
31
0.000000000000000
  0
LINE
  5
F1037D
330
F1037E
100
AcDbEntity
8
Geo
100
AcDbLine
10
-67.2241299303943
20
-0.320113395074536
30
0.000000000000000
11
-67.1241299303942
21
-0.315826163434833
31
0.000000000000000
  0
LINE
  5
F1037F
330
F10380
100
AcDbEntity
8
Geo
100
AcDbLine
10
-67.1241299303942
20
-0.315826163434833
30
0.000000000000000
11
-67.0241299303943
21
-0.311735022195317
31
0.000000000000000
  0
LINE
  5
F10381
330
F10382
100
AcDbEntity
8
Geo
100
AcDbLine
10
-67.0241299303943
20
-0.311735022195317
30
0.000000000000000
11
-66.9241299303942
21
-0.307839183799938
31
0.000000000000000
  0
LINE
  5
F10383
330
F10384
100
AcDbEntity
8
Geo
100
AcDbLine
10
-66.9241299303942
20
-0.307839183799938
30
0.000000000000000
11
-66.8241299303943
21
-0.304137893688663
31
0.000000000000000
  0
LINE
  5
F10385
330
F10386
100
AcDbEntity
8
Geo
100
AcDbLine
10
-66.8241299303943
20
-0.304137893688663
30
0.000000000000000
11
-66.7241299303942
21
-0.300630430811599
31
0.000000000000000
  0
LINE
  5
F10387
330
F10388
100
AcDbEntity
8
Geo
100
AcDbLine
10
-66.7241299303942
20
-0.300630430811599
30
0.000000000000000
11
-66.6241299303942
21
-0.297316108116634
31
0.000000000000000
  0
LINE
  5
F10389
330
F1038A
100
AcDbEntity
8
Geo
100
AcDbLine
10
-66.6241299303942
20
-0.297316108116634
30
0.000000000000000
11
-66.5241299303942
21
-0.294194273010803
31
0.000000000000000
  0
LINE
  5
F1038B
330
F1038C
100
AcDbEntity
8
Geo
100
AcDbLine
10
-66.5241299303942
20
-0.294194273010803
30
0.000000000000000
11
-66.4241299303942
21
-0.291264307795613
31
0.000000000000000
  0
LINE
  5
F1038D
330
F1038E
100
AcDbEntity
8
Geo
100
AcDbLine
10
-66.4241299303942
20
-0.291264307795613
30
0.000000000000000
11
-66.3241299303942
21
-0.288525630076471
31
0.000000000000000
  0
LINE
  5
F1038F
330
F10390
100
AcDbEntity
8
Geo
100
AcDbLine
10
-66.3241299303942
20
-0.288525630076471
30
0.000000000000000
11
-66.2241299303942
21
-0.285977693146440
31
0.000000000000000
  0
LINE
  5
F10391
330
F10392
100
AcDbEntity
8
Geo
100
AcDbLine
10
-66.2241299303942
20
-0.285977693146440
30
0.000000000000000
11
-66.1241299303942
21
-0.283619986344471
31
0.000000000000000
  0
LINE
  5
F10393
330
F10394
100
AcDbEntity
8
Geo
100
AcDbLine
10
-66.1241299303942
20
-0.283619986344471
30
0.000000000000000
11
-66.0241299303942
21
-0.281452035388277
31
0.000000000000000
  0
LINE
  5
F10395
330
F10396
100
AcDbEntity
8
Geo
100
AcDbLine
10
-66.0241299303942
20
-0.281452035388277
30
0.000000000000000
11
-65.9241299303942
21
-0.279473402682013
31
0.000000000000000
  0
LINE
  5
F10397
330
F10398
100
AcDbEntity
8
Geo
100
AcDbLine
10
-65.9241299303942
20
-0.279473402682013
30
0.000000000000000
11
-65.8241299303942
21
-0.277683687598882
31
0.000000000000000
  0
LINE
  5
F10399
330
F1039A
100
AcDbEntity
8
Geo
100
AcDbLine
10
-65.8241299303942
20
-0.277683687598882
30
0.000000000000000
11
-65.7241299303942
21
-0.276082526738821
31
0.000000000000000
  0
LINE
  5
F1039B
330
F1039C
100
AcDbEntity
8
Geo
100
AcDbLine
10
-65.7241299303942
20
-0.276082526738821
30
0.000000000000000
11
-65.6241299303942
21
-0.274669594161369
31
0.000000000000000
  0
LINE
  5
F1039D
330
F1039E
100
AcDbEntity
8
Geo
100
AcDbLine
10
-65.6241299303942
20
-0.274669594161369
30
0.000000000000000
11
-65.5241299303942
21
-0.273444601593833
31
0.000000000000000
  0
LINE
  5
F1039F
330
F103A0
100
AcDbEntity
8
Geo
100
AcDbLine
10
-65.5241299303942
20
-0.273444601593833
30
0.000000000000000
11
-65.4241299303942
21
-0.272407298614857
31
0.000000000000000
  0
LINE
  5
F103A1
330
F103A2
100
AcDbEntity
8
Geo
100
AcDbLine
10
-65.4241299303942
20
-0.272407298614857
30
0.000000000000000
11
-65.3241299303942
21
-0.271557472813462
31
0.000000000000000
  0
LINE
  5
F103A3
330
F103A4
100
AcDbEntity
8
Geo
100
AcDbLine
10
-65.3241299303942
20
-0.271557472813462
30
0.000000000000000
11
-65.2241299303942
21
-0.270894949923655
31
0.000000000000000
  0
LINE
  5
F103A5
330
F103A6
100
AcDbEntity
8
Geo
100
AcDbLine
10
-65.2241299303942
20
-0.270894949923655
30
0.000000000000000
11
-65.1241299303943
21
-0.270419593934650
31
0.000000000000000
  0
LINE
  5
F103A7
330
F103A8
100
AcDbEntity
8
Geo
100
AcDbLine
10
-85.1241299303943
20
-2.43389771245081
30
0.000000000000000
11
-85.0241299303943
21
-2.59113840247726
31
0.000000000000000
  0
LINE
  5
F103A9
330
F103AA
100
AcDbEntity
8
Geo
100
AcDbLine
10
-85.0241299303943
20
-2.59113840247726
30
0.000000000000000
11
-84.9241299303943
21
-2.70062404311973
31
0.000000000000000
  0
LINE
  5
F103AB
330
F103AC
100
AcDbEntity
8
Geo
100
AcDbLine
10
-84.9241299303943
20
-2.70062404311973
30
0.000000000000000
11
-84.8241299303943
21
-2.79539491893327
31
0.000000000000000
  0
LINE
  5
F103AD
330
F103AE
100
AcDbEntity
8
Geo
100
AcDbLine
10
-84.8241299303943
20
-2.79539491893327
30
0.000000000000000
11
-84.7241299303943
21
-2.88208219007192
31
0.000000000000000
  0
LINE
  5
F103AF
330
F103B0
100
AcDbEntity
8
Geo
100
AcDbLine
10
-84.7241299303943
20
-2.88208219007192
30
0.000000000000000
11
-84.6241299303943
21
-2.96709852401033
31
0.000000000000000
  0
LINE
  5
F103B1
330
F103B2
100
AcDbEntity
8
Geo
100
AcDbLine
10
-84.6241299303943
20
-2.96709852401033
30
0.000000000000000
11
-84.5241299303943
21
-3.05031798617277
31
0.000000000000000
  0
LINE
  5
F103B3
330
F103B4
100
AcDbEntity
8
Geo
100
AcDbLine
10
-84.5241299303943
20
-3.05031798617277
30
0.000000000000000
11
-84.4241299303943
21
-3.13161730368715
31
0.000000000000000
  0
LINE
  5
F103B5
330
F103B6
100
AcDbEntity
8
Geo
100
AcDbLine
10
-84.4241299303943
20
-3.13161730368715
30
0.000000000000000
11
-84.3241299303943
21
-3.21087604798894
31
0.000000000000000
  0
LINE
  5
F103B7
330
F103B8
100
AcDbEntity
8
Geo
100
AcDbLine
10
-84.3241299303943
20
-3.21087604798894
30
0.000000000000000
11
-84.2241299303943
21
-3.28797681321185
31
0.000000000000000
  0
LINE
  5
F103B9
330
F103BA
100
AcDbEntity
8
Geo
100
AcDbLine
10
-84.2241299303943
20
-3.28797681321185
30
0.000000000000000
11
-84.1241299303943
21
-3.36280539010093
31
0.000000000000000
  0
LINE
  5
F103BB
330
F103BC
100
AcDbEntity
8
Geo
100
AcDbLine
10
-84.1241299303943
20
-3.36280539010093
30
0.000000000000000
11
-84.0241299303943
21
-3.43525093519063
31
0.000000000000000
  0
LINE
  5
F103BD
330
F103BE
100
AcDbEntity
8
Geo
100
AcDbLine
10
-84.0241299303943
20
-3.43525093519063
30
0.000000000000000
11
-83.9241299303943
21
-3.50520613499704
31
0.000000000000000
  0
LINE
  5
F103BF
330
F103C0
100
AcDbEntity
8
Geo
100
AcDbLine
10
-83.9241299303943
20
-3.50520613499704
30
0.000000000000000
11
-83.8241299303943
21
-3.57256736498122
31
0.000000000000000
  0
LINE
  5
F103C1
330
F103C2
100
AcDbEntity
8
Geo
100
AcDbLine
10
-83.8241299303943
20
-3.57256736498122
30
0.000000000000000
11
-83.7241299303943
21
-3.63723484304807
31
0.000000000000000
  0
LINE
  5
F103C3
330
F103C4
100
AcDbEntity
8
Geo
100
AcDbLine
10
-83.7241299303943
20
-3.63723484304807
30
0.000000000000000
11
-83.6241299303943
21
-3.69911277735341
31
0.000000000000000
  0
LINE
  5
F103C5
330
F103C6
100
AcDbEntity
8
Geo
100
AcDbLine
10
-83.6241299303943
20
-3.69911277735341
30
0.000000000000000
11
-83.5241299303943
21
-3.75810950820030
31
0.000000000000000
  0
LINE
  5
F103C7
330
F103C8
100
AcDbEntity
8
Geo
100
AcDbLine
10
-83.5241299303943
20
-3.75810950820030
30
0.000000000000000
11
-83.4241299303943
21
-3.81413764381443
31
0.000000000000000
  0
LINE
  5
F103C9
330
F103CA
100
AcDbEntity
8
Geo
100
AcDbLine
10
-83.4241299303943
20
-3.81413764381443
30
0.000000000000000
11
-83.3241299303943
21
-3.86711418979742
31
0.000000000000000
  0
LINE
  5
F103CB
330
F103CC
100
AcDbEntity
8
Geo
100
AcDbLine
10
-83.3241299303943
20
-3.86711418979742
30
0.000000000000000
11
-83.2241299303943
21
-3.91696067206634
31
0.000000000000000
  0
LINE
  5
F103CD
330
F103CE
100
AcDbEntity
8
Geo
100
AcDbLine
10
-83.2241299303943
20
-3.91696067206634
30
0.000000000000000
11
-83.1241299303943
21
-3.96360325309719
31
0.000000000000000
  0
LINE
  5
F103CF
330
F103D0
100
AcDbEntity
8
Geo
100
AcDbLine
10
-83.1241299303943
20
-3.96360325309719
30
0.000000000000000
11
-83.0241299303943
21
-4.00697284130039
31
0.000000000000000
  0
LINE
  5
F103D1
330
F103D2
100
AcDbEntity
8
Geo
100
AcDbLine
10
-83.0241299303943
20
-4.00697284130039
30
0.000000000000000
11
-82.9241299303943
21
-4.04700519336601
31
0.000000000000000
  0
LINE
  5
F103D3
330
F103D4
100
AcDbEntity
8
Geo
100
AcDbLine
10
-82.9241299303943
20
-4.04700519336601
30
0.000000000000000
11
-82.8241299303943
21
-4.08364100942733
31
0.000000000000000
  0
LINE
  5
F103D5
330
F103D6
100
AcDbEntity
8
Geo
100
AcDbLine
10
-82.8241299303943
20
-4.08364100942733
30
0.000000000000000
11
-82.7241299303943
21
-4.11682602090162
31
0.000000000000000
  0
LINE
  5
F103D7
330
F103D8
100
AcDbEntity
8
Geo
100
AcDbLine
10
-82.7241299303943
20
-4.11682602090162
30
0.000000000000000
11
-82.6241299303943
21
-4.14651107087811
31
0.000000000000000
  0
LINE
  5
F103D9
330
F103DA
100
AcDbEntity
8
Geo
100
AcDbLine
10
-82.6241299303943
20
-4.14651107087811
30
0.000000000000000
11
-82.5241299303943
21
-4.17265218693408
31
0.000000000000000
  0
LINE
  5
F103DB
330
F103DC
100
AcDbEntity
8
Geo
100
AcDbLine
10
-82.5241299303943
20
-4.17265218693408
30
0.000000000000000
11
-82.4241299303943
21
-4.19521064627115
31
0.000000000000000
  0
LINE
  5
F103DD
330
F103DE
100
AcDbEntity
8
Geo
100
AcDbLine
10
-82.4241299303943
20
-4.19521064627115
30
0.000000000000000
11
-82.3241299303943
21
-4.21415303307526
31
0.000000000000000
  0
LINE
  5
F103DF
330
F103E0
100
AcDbEntity
8
Geo
100
AcDbLine
10
-82.3241299303943
20
-4.21415303307526
30
0.000000000000000
11
-82.2241299303943
21
-4.22945128801552
31
0.000000000000000
  0
LINE
  5
F103E1
330
F103E2
100
AcDbEntity
8
Geo
100
AcDbLine
10
-82.2241299303943
20
-4.22945128801552
30
0.000000000000000
11
-82.1241299303943
21
-4.24108274980843
31
0.000000000000000
  0
LINE
  5
F103E3
330
F103E4
100
AcDbEntity
8
Geo
100
AcDbLine
10
-82.1241299303943
20
-4.24108274980843
30
0.000000000000000
11
-82.0241299303943
21
-4.24903018878603
31
0.000000000000000
  0
LINE
  5
F103E5
330
F103E6
100
AcDbEntity
8
Geo
100
AcDbLine
10
-82.0241299303943
20
-4.24903018878603
30
0.000000000000000
11
-81.9241299303943
21
-4.25328183241814
31
0.000000000000000
  0
LINE
  5
F103E7
330
F103E8
100
AcDbEntity
8
Geo
100
AcDbLine
10
-73.7241299303943
20
0.745805315672186
30
0.000000000000000
11
-73.6241299303943
21
0.744951157200637
31
0.000000000000000
  0
LINE
  5
F103E9
330
F103EA
100
AcDbEntity
8
Geo
100
AcDbLine
10
-73.6241299303943
20
0.744951157200637
30
0.000000000000000
11
-73.5241299303943
21
0.740395216540457
31
0.000000000000000
  0
LINE
  5
F103EB
330
F103EC
100
AcDbEntity
8
Geo
100
AcDbLine
10
-73.5241299303943
20
0.740395216540457
30
0.000000000000000
11
-73.4241299303943
21
0.732144242400130
31
0.000000000000000
  0
LINE
  5
F103ED
330
F103EE
100
AcDbEntity
8
Geo
100
AcDbLine
10
-73.4241299303943
20
0.732144242400130
30
0.000000000000000
11
-73.3241299303943
21
0.720210456936029
31
0.000000000000000
  0
LINE
  5
F103EF
330
F103F0
100
AcDbEntity
8
Geo
100
AcDbLine
10
-73.3241299303943
20
0.720210456936029
30
0.000000000000000
11
-73.2241299303943
21
0.704611537647753
31
0.000000000000000
  0
LINE
  5
F103F1
330
F103F2
100
AcDbEntity
8
Geo
100
AcDbLine
10
-73.2241299303943
20
0.704611537647753
30
0.000000000000000
11
-73.1241299303943
21
0.685370591192475
31
0.000000000000000
  0
LINE
  5
F103F3
330
F103F4
100
AcDbEntity
8
Geo
100
AcDbLine
10
-73.1241299303943
20
0.685370591192475
30
0.000000000000000
11
-73.0241299303943
21
0.662516119157078
31
0.000000000000000
  0
LINE
  5
F103F5
330
F103F6
100
AcDbEntity
8
Geo
100
AcDbLine
10
-73.0241299303943
20
0.662516119157078
30
0.000000000000000
11
-72.9241299303943
21
0.636081975838801
31
0.000000000000000
  0
LINE
  5
F103F7
330
F103F8
100
AcDbEntity
8
Geo
100
AcDbLine
10
-72.9241299303943
20
0.636081975838801
30
0.000000000000000
11
-72.8241299303943
21
0.606107318096909
31
0.000000000000000
  0
LINE
  5
F103F9
330
F103FA
100
AcDbEntity
8
Geo
100
AcDbLine
10
-72.8241299303943
20
0.606107318096909
30
0.000000000000000
11
-72.7241299303943
21
0.572636547349699
31
0.000000000000000
  0
LINE
  5
F103FB
330
F103FC
100
AcDbEntity
8
Geo
100
AcDbLine
10
-72.7241299303943
20
0.572636547349699
30
0.000000000000000
11
-72.6241299303943
21
0.535719243802736
31
0.000000000000000
  0
LINE
  5
F103FD
330
F103FE
100
AcDbEntity
8
Geo
100
AcDbLine
10
-72.6241299303943
20
0.535719243802736
30
0.000000000000000
11
-72.5241299303943
21
0.495410093005769
31
0.000000000000000
  0
LINE
  5
F103FF
330
F10400
100
AcDbEntity
8
Geo
100
AcDbLine
10
-72.5241299303943
20
0.495410093005769
30
0.000000000000000
11
-72.4241299303943
21
0.451768804847101
31
0.000000000000000
  0
LINE
  5
F10401
330
F10402
100
AcDbEntity
8
Geo
100
AcDbLine
10
-72.4241299303943
20
0.451768804847101
30
0.000000000000000
11
-72.3241299303943
21
0.404860025105416
31
0.000000000000000
  0
LINE
  5
F10403
330
F10404
100
AcDbEntity
8
Geo
100
AcDbLine
10
-72.3241299303943
20
0.404860025105416
30
0.000000000000000
11
-72.2241299303943
21
0.354753239690076
31
0.000000000000000
  0
LINE
  5
F10405
330
F10406
100
AcDbEntity
8
Geo
100
AcDbLine
10
-72.2241299303943
20
0.354753239690076
30
0.000000000000000
11
-72.1241299303943
21
0.301522671711746
31
0.000000000000000
  0
LINE
  5
F10407
330
F10408
100
AcDbEntity
8
Geo
100
AcDbLine
10
-72.1241299303943
20
0.301522671711746
30
0.000000000000000
11
-72.0241299303943
21
0.245247171535800
31
0.000000000000000
  0
LINE
  5
F10409
330
F1040A
100
AcDbEntity
8
Geo
100
AcDbLine
10
-72.0241299303943
20
0.245247171535800
30
0.000000000000000
11
-71.9241299303943
21
0.186010099981387
31
0.000000000000000
  0
LINE
  5
F1040B
330
F1040C
100
AcDbEntity
8
Geo
100
AcDbLine
10
-71.9241299303943
20
0.186010099981387
30
0.000000000000000
11
-71.8241299303943
21
0.123899204839169
31
0.000000000000000
  0
LINE
  5
F1040D
330
F1040E
100
AcDbEntity
8
Geo
100
AcDbLine
10
-71.8241299303943
20
0.123899204839169
30
0.000000000000000
11
-71.7241299303943
21
0.0590064908906434
31
0.000000000000000
  0
LINE
  5
F1040F
330
F10410
100
AcDbEntity
8
Geo
100
AcDbLine
10
-71.7241299303943
20
0.0590064908906434
30
0.000000000000000
11
-71.6241299303943
21
-0.00857191637841570
31
0.000000000000000
  0
LINE
  5
F10411
330
F10412
100
AcDbEntity
8
Geo
100
AcDbLine
10
-71.6241299303943
20
-0.00857191637841570
30
0.000000000000000
11
-71.5241299303943
21
-0.0787359131685013
31
0.000000000000000
  0
LINE
  5
F10413
330
F10414
100
AcDbEntity
8
Geo
100
AcDbLine
10
-71.5241299303943
20
-0.0787359131685013
30
0.000000000000000
11
-71.4241299303943
21
-0.151381565649989
31
0.000000000000000
  0
LINE
  5
F10415
330
F10416
100
AcDbEntity
8
Geo
100
AcDbLine
10
-71.4241299303943
20
-0.151381565649989
30
0.000000000000000
11
-71.3241299303943
21
-0.226401263920175
31
0.000000000000000
  0
LINE
  5
F10417
330
F10418
100
AcDbEntity
8
Geo
100
AcDbLine
10
-71.3241299303943
20
-0.226401263920175
30
0.000000000000000
11
-71.2241299303943
21
-0.303683881405673
31
0.000000000000000
  0
LINE
  5
F10419
330
F1041A
100
AcDbEntity
8
Geo
100
AcDbLine
10
-71.2241299303943
20
-0.303683881405673
30
0.000000000000000
11
-71.1241299303943
21
-0.383114939474047
31
0.000000000000000
  0
LINE
  5
F1041B
330
F1041C
100
AcDbEntity
8
Geo
100
AcDbLine
10
-71.1241299303943
20
-0.383114939474047
30
0.000000000000000
11
-71.0241299303943
21
-0.464576777010856
31
0.000000000000000
  0
LINE
  5
F1041D
330
F1041E
100
AcDbEntity
8
Geo
100
AcDbLine
10
-71.0241299303943
20
-0.464576777010856
30
0.000000000000000
11
-70.9241299303943
21
-0.547948724710890
31
0.000000000000000
  0
LINE
  5
F1041F
330
F10420
100
AcDbEntity
8
Geo
100
AcDbLine
10
-70.9241299303943
20
-0.547948724710890
30
0.000000000000000
11
-70.8241299303943
21
-0.633107283825444
31
0.000000000000000
  0
LINE
  5
F10421
330
F10422
100
AcDbEntity
8
Geo
100
AcDbLine
10
-70.8241299303943
20
-0.633107283825444
30
0.000000000000000
11
-70.7241299303943
21
-0.719926309100843
31
0.000000000000000
  0
LINE
  5
F10423
330
F10424
100
AcDbEntity
8
Geo
100
AcDbLine
10
-70.7241299303943
20
-0.719926309100843
30
0.000000000000000
11
-70.6241299303943
21
-0.808277195637224
31
0.000000000000000
  0
LINE
  5
F10425
330
F10426
100
AcDbEntity
8
Geo
100
AcDbLine
10
-70.6241299303943
20
-0.808277195637224
30
0.000000000000000
11
-70.5241299303943
21
-0.898029069390799
31
0.000000000000000
  0
LINE
  5
F10427
330
F10428
100
AcDbEntity
8
Geo
100
AcDbLine
10
-70.5241299303943
20
-0.898029069390799
30
0.000000000000000
11
-70.4241299303943
21
-0.989048981037385
31
0.000000000000000
  0
LINE
  5
F10429
330
F1042A
100
AcDbEntity
8
Geo
100
AcDbLine
10
-70.4241299303943
20
-0.989048981037385
30
0.000000000000000
11
-70.3241299303943
21
-1.08120210291006
31
0.000000000000000
  0
LINE
  5
F1042B
330
F1042C
100
AcDbEntity
8
Geo
100
AcDbLine
10
-70.3241299303943
20
-1.08120210291006
30
0.000000000000000
11
-70.2241299303943
21
-1.17435192871918
31
0.000000000000000
  0
LINE
  5
F1042D
330
F1042E
100
AcDbEntity
8
Geo
100
AcDbLine
10
-70.2241299303943
20
-1.17435192871918
30
0.000000000000000
11
-70.1241299303943
21
-1.26836047575900
31
0.000000000000000
  0
LINE
  5
F1042F
330
F10430
100
AcDbEntity
8
Geo
100
AcDbLine
10
-70.1241299303943
20
-1.26836047575900
30
0.000000000000000
11
-70.0241299303943
21
-1.37450775134306
31
0.000000000000000
  0
LINE
  5
F10431
330
F10432
100
AcDbEntity
8
Geo
100
AcDbLine
10
-70.0241299303943
20
-1.37450775134306
30
0.000000000000000
11
-69.9241299303943
21
-1.47928180403096
31
0.000000000000000
  0
LINE
  5
F10433
330
F10434
100
AcDbEntity
8
Geo
100
AcDbLine
10
-69.9241299303943
20
-1.47928180403096
30
0.000000000000000
11
-69.8241299303943
21
-1.58246059594762
31
0.000000000000000
  0
LINE
  5
F10435
330
F10436
100
AcDbEntity
8
Geo
100
AcDbLine
10
-69.8241299303943
20
-1.58246059594762
30
0.000000000000000
11
-69.7241299303943
21
-1.68384365846442
31
0.000000000000000
  0
LINE
  5
F10437
330
F10438
100
AcDbEntity
8
Geo
100
AcDbLine
10
-69.7241299303943
20
-1.68384365846442
30
0.000000000000000
11
-69.6241299303943
21
-1.78325144888281
31
0.000000000000000
  0
LINE
  5
F10439
330
F1043A
100
AcDbEntity
8
Geo
100
AcDbLine
10
-69.6241299303943
20
-1.78325144888281
30
0.000000000000000
11
-69.5241299303943
21
-1.88052463195022
31
0.000000000000000
  0
LINE
  5
F1043B
330
F1043C
100
AcDbEntity
8
Geo
100
AcDbLine
10
-69.5241299303943
20
-1.88052463195022
30
0.000000000000000
11
-69.4241299303943
21
-1.97552329809261
31
0.000000000000000
  0
LINE
  5
F1043D
330
F1043E
100
AcDbEntity
8
Geo
100
AcDbLine
10
-69.4241299303943
20
-1.97552329809261
30
0.000000000000000
11
-69.3241299303943
21
-2.06812612952883
31
0.000000000000000
  0
LINE
  5
F1043F
330
F10440
100
AcDbEntity
8
Geo
100
AcDbLine
10
-69.3241299303943
20
-2.06812612952883
30
0.000000000000000
11
-69.2241299303943
21
-2.15822952469229
31
0.000000000000000
  0
LINE
  5
F10441
330
F10442
100
AcDbEntity
8
Geo
100
AcDbLine
10
-69.2241299303943
20
-2.15822952469229
30
0.000000000000000
11
-69.1241299303943
21
-2.24574669063528
31
0.000000000000000
  0
LINE
  5
F10443
330
F10444
100
AcDbEntity
8
Geo
100
AcDbLine
10
-69.1241299303943
20
-2.24574669063528
30
0.000000000000000
11
-69.0241299303943
21
-2.33060671233811
31
0.000000000000000
  0
LINE
  5
F10445
330
F10446
100
AcDbEntity
8
Geo
100
AcDbLine
10
-69.0241299303943
20
-2.33060671233811
30
0.000000000000000
11
-68.9241299303943
21
-2.41275360709765
31
0.000000000000000
  0
LINE
  5
F10447
330
F10448
100
AcDbEntity
8
Geo
100
AcDbLine
10
-68.9241299303943
20
-2.41275360709765
30
0.000000000000000
11
-68.8241299303943
21
-2.49214537143358
31
0.000000000000000
  0
LINE
  5
F10449
330
F1044A
100
AcDbEntity
8
Geo
100
AcDbLine
10
-68.8241299303943
20
-2.49214537143358
30
0.000000000000000
11
-68.7241299303943
21
-2.56875302723148
31
0.000000000000000
  0
LINE
  5
F1044B
330
F1044C
100
AcDbEntity
8
Geo
100
AcDbLine
10
-68.7241299303943
20
-2.56875302723148
30
0.000000000000000
11
-68.6241299303943
21
-2.64255967314517
31
0.000000000000000
  0
LINE
  5
F1044D
330
F1044E
100
AcDbEntity
8
Geo
100
AcDbLine
10
-68.6241299303943
20
-2.64255967314517
30
0.000000000000000
11
-68.5241299303943
21
-2.71355954660923
31
0.000000000000000
  0
LINE
  5
F1044F
330
F10450
100
AcDbEntity
8
Geo
100
AcDbLine
10
-68.5241299303943
20
-2.71355954660923
30
0.000000000000000
11
-68.4241299303943
21
-2.78175710117100
31
0.000000000000000
  0
LINE
  5
F10451
330
F10452
100
AcDbEntity
8
Geo
100
AcDbLine
10
-68.4241299303943
20
-2.78175710117100
30
0.000000000000000
11
-68.3241299303943
21
-2.84716610324098
31
0.000000000000000
  0
LINE
  5
F10453
330
F10454
100
AcDbEntity
8
Geo
100
AcDbLine
10
-68.3241299303943
20
-2.84716610324098
30
0.000000000000000
11
-68.2241299303943
21
-2.90980875178439
31
0.000000000000000
  0
LINE
  5
F10455
330
F10456
100
AcDbEntity
8
Geo
100
AcDbLine
10
-68.2241299303943
20
-2.90980875178439
30
0.000000000000000
11
-68.1241299303943
21
-2.96971482393496
31
0.000000000000000
  0
LINE
  5
F10457
330
F10458
100
AcDbEntity
8
Geo
100
AcDbLine
10
-68.1241299303943
20
-2.96971482393496
30
0.000000000000000
11
-68.0241299303943
21
-3.02692084900692
31
0.000000000000000
  0
LINE
  5
F10459
330
F1045A
100
AcDbEntity
8
Geo
100
AcDbLine
10
-68.0241299303943
20
-3.02692084900692
30
0.000000000000000
11
-67.9241299303943
21
-3.08146931291201
31
0.000000000000000
  0
LINE
  5
F1045B
330
F1045C
100
AcDbEntity
8
Geo
100
AcDbLine
10
-67.9241299303943
20
-3.08146931291201
30
0.000000000000000
11
-67.8241299303943
21
-3.13340789455596
31
0.000000000000000
  0
LINE
  5
F1045D
330
F1045E
100
AcDbEntity
8
Geo
100
AcDbLine
10
-67.8241299303943
20
-3.13340789455596
30
0.000000000000000
11
-67.7241299303943
21
-3.18278873539258
31
0.000000000000000
  0
LINE
  5
F1045F
330
F10460
100
AcDbEntity
8
Geo
100
AcDbLine
10
-67.7241299303943
20
-3.18278873539258
30
0.000000000000000
11
-67.6241299303943
21
-3.22966774295263
31
0.000000000000000
  0
LINE
  5
F10461
330
F10462
100
AcDbEntity
8
Geo
100
AcDbLine
10
-67.6241299303943
20
-3.22966774295263
30
0.000000000000000
11
-67.5241299303943
21
-3.27410392883900
31
0.000000000000000
  0
LINE
  5
F10463
330
F10464
100
AcDbEntity
8
Geo
100
AcDbLine
10
-67.5241299303943
20
-3.27410392883900
30
0.000000000000000
11
-67.4241299303943
21
-3.31615878138700
31
0.000000000000000
  0
LINE
  5
F10465
330
F10466
100
AcDbEntity
8
Geo
100
AcDbLine
10
-67.4241299303943
20
-3.31615878138700
30
0.000000000000000
11
-67.3241299303943
21
-3.35589567292897
31
0.000000000000000
  0
LINE
  5
F10467
330
F10468
100
AcDbEntity
8
Geo
100
AcDbLine
10
-67.3241299303943
20
-3.35589567292897
30
0.000000000000000
11
-67.2241299303943
21
-3.39337930137355
31
0.000000000000000
  0
LINE
  5
F10469
330
F1046A
100
AcDbEntity
8
Geo
100
AcDbLine
10
-67.2241299303943
20
-3.39337930137355
30
0.000000000000000
11
-67.1241299303942
21
-3.42867516561078
31
0.000000000000000
  0
LINE
  5
F1046B
330
F1046C
100
AcDbEntity
8
Geo
100
AcDbLine
10
-67.1241299303942
20
-3.42867516561078
30
0.000000000000000
11
-67.0241299303943
21
-3.46184907408329
31
0.000000000000000
  0
LINE
  5
F1046D
330
F1046E
100
AcDbEntity
8
Geo
100
AcDbLine
10
-67.0241299303943
20
-3.46184907408329
30
0.000000000000000
11
-66.9241299303942
21
-3.49296668571931
31
0.000000000000000
  0
LINE
  5
F1046F
330
F10470
100
AcDbEntity
8
Geo
100
AcDbLine
10
-66.9241299303942
20
-3.49296668571931
30
0.000000000000000
11
-66.8241299303943
21
-3.52209308230362
31
0.000000000000000
  0
LINE
  5
F10471
330
F10472
100
AcDbEntity
8
Geo
100
AcDbLine
10
-66.8241299303943
20
-3.52209308230362
30
0.000000000000000
11
-66.7241299303942
21
-3.54929237126635
31
0.000000000000000
  0
LINE
  5
F10473
330
F10474
100
AcDbEntity
8
Geo
100
AcDbLine
10
-66.7241299303942
20
-3.54929237126635
30
0.000000000000000
11
-66.6241299303942
21
-3.57462731779506
31
0.000000000000000
  0
LINE
  5
F10475
330
F10476
100
AcDbEntity
8
Geo
100
AcDbLine
10
-66.6241299303942
20
-3.57462731779506
30
0.000000000000000
11
-66.5241299303942
21
-3.59815900512083
31
0.000000000000000
  0
LINE
  5
F10477
330
F10478
100
AcDbEntity
8
Geo
100
AcDbLine
10
-66.5241299303942
20
-3.59815900512083
30
0.000000000000000
11
-66.4241299303942
21
-3.61994652179351
31
0.000000000000000
  0
LINE
  5
F10479
330
F1047A
100
AcDbEntity
8
Geo
100
AcDbLine
10
-66.4241299303942
20
-3.61994652179351
30
0.000000000000000
11
-66.3241299303942
21
-3.64004667474230
31
0.000000000000000
  0
LINE
  5
F1047B
330
F1047C
100
AcDbEntity
8
Geo
100
AcDbLine
10
-66.3241299303942
20
-3.64004667474230
30
0.000000000000000
11
-66.2241299303942
21
-3.65851372691471
31
0.000000000000000
  0
LINE
  5
F1047D
330
F1047E
100
AcDbEntity
8
Geo
100
AcDbLine
10
-66.2241299303942
20
-3.65851372691471
30
0.000000000000000
11
-66.1241299303942
21
-3.67539915829802
31
0.000000000000000
  0
LINE
  5
F1047F
330
F10480
100
AcDbEntity
8
Geo
100
AcDbLine
10
-66.1241299303942
20
-3.67539915829802
30
0.000000000000000
11
-66.0241299303942
21
-3.69075144915153
31
0.000000000000000
  0
LINE
  5
F10481
330
F10482
100
AcDbEntity
8
Geo
100
AcDbLine
10
-66.0241299303942
20
-3.69075144915153
30
0.000000000000000
11
-65.9241299303942
21
-3.70461588431345
31
0.000000000000000
  0
LINE
  5
F10483
330
F10484
100
AcDbEntity
8
Geo
100
AcDbLine
10
-65.9241299303942
20
-3.70461588431345
30
0.000000000000000
11
-65.8241299303942
21
-3.71703437749251
31
0.000000000000000
  0
LINE
  5
F10485
330
F10486
100
AcDbEntity
8
Geo
100
AcDbLine
10
-65.8241299303942
20
-3.71703437749251
30
0.000000000000000
11
-65.7241299303942
21
-3.72804531451035
31
0.000000000000000
  0
LINE
  5
F10487
330
F10488
100
AcDbEntity
8
Geo
100
AcDbLine
10
-65.7241299303942
20
-3.72804531451035
30
0.000000000000000
11
-65.6241299303942
21
-3.73768341452434
31
0.000000000000000
  0
LINE
  5
F10489
330
F1048A
100
AcDbEntity
8
Geo
100
AcDbLine
10
-65.6241299303942
20
-3.73768341452434
30
0.000000000000000
11
-65.5241299303942
21
-3.74597960833220
31
0.000000000000000
  0
LINE
  5
F1048B
330
F1048C
100
AcDbEntity
8
Geo
100
AcDbLine
10
-65.5241299303942
20
-3.74597960833220
30
0.000000000000000
11
-65.4241299303942
21
-3.75296093293768
31
0.000000000000000
  0
LINE
  5
F1048D
330
F1048E
100
AcDbEntity
8
Geo
100
AcDbLine
10
-65.4241299303942
20
-3.75296093293768
30
0.000000000000000
11
-65.3241299303942
21
-3.75865044163994
31
0.000000000000000
  0
LINE
  5
F1048F
330
F10490
100
AcDbEntity
8
Geo
100
AcDbLine
10
-65.3241299303942
20
-3.75865044163994
30
0.000000000000000
11
-65.2241299303942
21
-3.76306712899788
31
0.000000000000000
  0
LINE
  5
F10491
330
F10492
100
AcDbEntity
8
Geo
100
AcDbLine
10
-65.2241299303942
20
-3.76306712899788
30
0.000000000000000
11
-65.1241299303943
21
-3.76622587011298
31
0.000000000000000
  0
LINE
  5
F10493
330
F10494
100
AcDbEntity
8
Geo
100
AcDbLine
10
-77.0241299303943
20
0.745225624968082
30
0.000000000000000
11
-76.9241299303943
21
0.745673637880022
31
0.000000000000000
  0
LINE
  5
F10495
330
F10496
100
AcDbEntity
8
Geo
100
AcDbLine
10
-76.9241299303943
20
0.745673637880022
30
0.000000000000000
11
-76.8241299303943
21
0.742418798393718
31
0.000000000000000
  0
LINE
  5
F10497
330
F10498
100
AcDbEntity
8
Geo
100
AcDbLine
10
-76.8241299303943
20
0.742418798393718
30
0.000000000000000
11
-76.7241299303943
21
0.735465927898318
31
0.000000000000000
  0
LINE
  5
F10499
330
F1049A
100
AcDbEntity
8
Geo
100
AcDbLine
10
-76.7241299303943
20
0.735465927898318
30
0.000000000000000
11
-76.6241299303943
21
0.724825325671093
31
0.000000000000000
  0
LINE
  5
F1049B
330
F1049C
100
AcDbEntity
8
Geo
100
AcDbLine
10
-76.6241299303943
20
0.724825325671093
30
0.000000000000000
11
-76.5241299303943
21
0.710512753621136
31
0.000000000000000
  0
LINE
  5
F1049D
330
F1049E
100
AcDbEntity
8
Geo
100
AcDbLine
10
-76.5241299303943
20
0.710512753621136
30
0.000000000000000
11
-76.4241299303943
21
0.692549412941267
31
0.000000000000000
  0
LINE
  5
F1049F
330
F104A0
100
AcDbEntity
8
Geo
100
AcDbLine
10
-76.4241299303943
20
0.692549412941267
30
0.000000000000000
11
-76.3241299303943
21
0.670961912702734
31
0.000000000000000
  0
LINE
  5
F104A1
330
F104A2
100
AcDbEntity
8
Geo
100
AcDbLine
10
-76.3241299303943
20
0.670961912702734
30
0.000000000000000
11
-76.2241299303943
21
0.645782230439237
31
0.000000000000000
  0
LINE
  5
F104A3
330
F104A4
100
AcDbEntity
8
Geo
100
AcDbLine
10
-76.2241299303943
20
0.645782230439237
30
0.000000000000000
11
-76.1241299303943
21
0.617047664778647
31
0.000000000000000
  0
LINE
  5
F104A5
330
F104A6
100
AcDbEntity
8
Geo
100
AcDbLine
10
-76.1241299303943
20
0.617047664778647
30
0.000000000000000
11
-76.0241299303943
21
0.584800780192608
31
0.000000000000000
  0
LINE
  5
F104A7
330
F104A8
100
AcDbEntity
8
Geo
100
AcDbLine
10
-76.0241299303943
20
0.584800780192608
30
0.000000000000000
11
-75.9241299303943
21
0.549089343945839
31
0.000000000000000
  0
LINE
  5
F104A9
330
F104AA
100
AcDbEntity
8
Geo
100
AcDbLine
10
-75.9241299303943
20
0.549089343945839
30
0.000000000000000
11
-75.8241299303943
21
0.509966255338555
31
0.000000000000000
  0
LINE
  5
F104AB
330
F104AC
100
AcDbEntity
8
Geo
100
AcDbLine
10
-75.8241299303943
20
0.509966255338555
30
0.000000000000000
11
-75.7241299303943
21
0.467489467346808
31
0.000000000000000
  0
LINE
  5
F104AD
330
F104AE
100
AcDbEntity
8
Geo
100
AcDbLine
10
-75.7241299303943
20
0.467489467346808
30
0.000000000000000
11
-75.6241299303943
21
0.421721900776824
31
0.000000000000000
  0
LINE
  5
F104AF
330
F104B0
100
AcDbEntity
8
Geo
100
AcDbLine
10
-75.6241299303943
20
0.421721900776824
30
0.000000000000000
11
-75.5241299303943
21
0.372731351060502
31
0.000000000000000
  0
LINE
  5
F104B1
330
F104B2
100
AcDbEntity
8
Geo
100
AcDbLine
10
-75.5241299303943
20
0.372731351060502
30
0.000000000000000
11
-75.4241299303943
21
0.320590387830137
31
0.000000000000000
  0
LINE
  5
F104B3
330
F104B4
100
AcDbEntity
8
Geo
100
AcDbLine
10
-75.4241299303943
20
0.320590387830137
30
0.000000000000000
11
-75.3241299303943
21
0.265376247421126
31
0.000000000000000
  0
LINE
  5
F104B5
330
F104B6
100
AcDbEntity
8
Geo
100
AcDbLine
10
-75.3241299303943
20
0.265376247421126
30
0.000000000000000
11
-75.2241299303943
21
0.207170718461891
31
0.000000000000000
  0
LINE
  5
F104B7
330
F104B8
100
AcDbEntity
8
Geo
100
AcDbLine
10
-75.2241299303943
20
0.207170718461891
30
0.000000000000000
11
-75.1241299303943
21
0.146060020720500
31
0.000000000000000
  0
LINE
  5
F104B9
330
F104BA
100
AcDbEntity
8
Geo
100
AcDbLine
10
-75.1241299303943
20
0.146060020720500
30
0.000000000000000
11
-75.0241299303943
21
0.0821346773874456
31
0.000000000000000
  0
LINE
  5
F104BB
330
F104BC
100
AcDbEntity
8
Geo
100
AcDbLine
10
-75.0241299303943
20
0.0821346773874456
30
0.000000000000000
11
-74.9241299303943
21
0.0154893809837757
31
0.000000000000000
  0
LINE
  5
F104BD
330
F104BE
100
AcDbEntity
8
Geo
100
AcDbLine
10
-74.9241299303943
20
0.0154893809837757
30
0.000000000000000
11
-74.8241299303943
21
-0.0537771469068145
31
0.000000000000000
  0
LINE
  5
F104BF
330
F104C0
100
AcDbEntity
8
Geo
100
AcDbLine
10
-74.8241299303943
20
-0.0537771469068145
30
0.000000000000000
11
-74.7241299303943
21
-0.125562301874118
31
0.000000000000000
  0
LINE
  5
F104C1
330
F104C2
100
AcDbEntity
8
Geo
100
AcDbLine
10
-74.7241299303943
20
-0.125562301874118
30
0.000000000000000
11
-74.6241299303943
21
-0.199759748669186
31
0.000000000000000
  0
LINE
  5
F104C3
330
F104C4
100
AcDbEntity
8
Geo
100
AcDbLine
10
-74.6241299303943
20
-0.199759748669186
30
0.000000000000000
11
-74.5241299303943
21
-0.276259578718583
31
0.000000000000000
  0
LINE
  5
F104C5
330
F104C6
100
AcDbEntity
8
Geo
100
AcDbLine
10
-74.5241299303943
20
-0.276259578718583
30
0.000000000000000
11
-74.4241299303943
21
-0.354948472931803
31
0.000000000000000
  0
LINE
  5
F104C7
330
F104C8
100
AcDbEntity
8
Geo
100
AcDbLine
10
-74.4241299303943
20
-0.354948472931803
30
0.000000000000000
11
-74.3241299303943
21
-0.435709869560676
31
0.000000000000000
  0
LINE
  5
F104C9
330
F104CA
100
AcDbEntity
8
Geo
100
AcDbLine
10
-74.3241299303943
20
-0.435709869560676
30
0.000000000000000
11
-74.2241299303943
21
-0.518424136862122
31
0.000000000000000
  0
LINE
  5
F104CB
330
F104CC
100
AcDbEntity
8
Geo
100
AcDbLine
10
-74.2241299303943
20
-0.518424136862122
30
0.000000000000000
11
-74.1241299303943
21
-0.602968750308485
31
0.000000000000000
  0
LINE
  5
F104CD
330
F104CE
100
AcDbEntity
8
Geo
100
AcDbLine
10
-74.1241299303943
20
-0.602968750308485
30
0.000000000000000
11
-74.0241299303943
21
-0.689218474082943
31
0.000000000000000
  0
LINE
  5
F104CF
330
F104D0
100
AcDbEntity
8
Geo
100
AcDbLine
10
-74.0241299303943
20
-0.689218474082943
30
0.000000000000000
11
-73.9241299303943
21
-0.777045546591147
31
0.000000000000000
  0
LINE
  5
F104D1
330
F104D2
100
AcDbEntity
8
Geo
100
AcDbLine
10
-73.9241299303943
20
-0.777045546591147
30
0.000000000000000
11
-73.8241299303943
21
-0.866319869714288
31
0.000000000000000
  0
LINE
  5
F104D3
330
F104D4
100
AcDbEntity
8
Geo
100
AcDbLine
10
-73.8241299303943
20
-0.866319869714288
30
0.000000000000000
11
-73.7241299303943
21
-0.956909201523263
31
0.000000000000000
  0
LINE
  5
F104D5
330
F104D6
100
AcDbEntity
8
Geo
100
AcDbLine
10
-73.7241299303943
20
-0.956909201523263
30
0.000000000000000
11
-73.6241299303943
21
-1.04867935216845
31
0.000000000000000
  0
LINE
  5
F104D7
330
F104D8
100
AcDbEntity
8
Geo
100
AcDbLine
10
-73.6241299303943
20
-1.04867935216845
30
0.000000000000000
11
-73.5241299303943
21
-1.14149438265495
31
0.000000000000000
  0
LINE
  5
F104D9
330
F104DA
100
AcDbEntity
8
Geo
100
AcDbLine
10
-73.5241299303943
20
-1.14149438265495
30
0.000000000000000
11
-73.4241299303943
21
-1.23521680620883
31
0.000000000000000
  0
LINE
  5
F104DB
330
F104DC
100
AcDbEntity
8
Geo
100
AcDbLine
10
-73.4241299303943
20
-1.23521680620883
30
0.000000000000000
11
-73.3241299303943
21
-1.32970779193607
31
0.000000000000000
  0
LINE
  5
F104DD
330
F104DE
100
AcDbEntity
8
Geo
100
AcDbLine
10
-73.3241299303943
20
-1.32970779193607
30
0.000000000000000
11
-73.2241299303943
21
-1.42482737047262
31
0.000000000000000
  0
LINE
  5
F104DF
330
F104E0
100
AcDbEntity
8
Geo
100
AcDbLine
10
-73.2241299303943
20
-1.42482737047262
30
0.000000000000000
11
-73.1241299303943
21
-1.52043464132075
31
0.000000000000000
  0
LINE
  5
F104E1
330
F104E2
100
AcDbEntity
8
Geo
100
AcDbLine
10
-73.1241299303943
20
-1.52043464132075
30
0.000000000000000
11
-73.0241299303943
21
-1.61638798156480
31
0.000000000000000
  0
LINE
  5
F104E3
330
F104E4
100
AcDbEntity
8
Geo
100
AcDbLine
10
-73.0241299303943
20
-1.61638798156480
30
0.000000000000000
11
-72.9241299303943
21
-1.71254525565703
31
0.000000000000000
  0
LINE
  5
F104E5
330
F104E6
100
AcDbEntity
8
Geo
100
AcDbLine
10
-72.9241299303943
20
-1.71254525565703
30
0.000000000000000
11
-72.8241299303943
21
-1.80876402596274
31
0.000000000000000
  0
LINE
  5
F104E7
330
F104E8
100
AcDbEntity
8
Geo
100
AcDbLine
10
-72.8241299303943
20
-1.80876402596274
30
0.000000000000000
11
-72.7241299303943
21
-1.90490176375301
31
0.000000000000000
  0
LINE
  5
F104E9
330
F104EA
100
AcDbEntity
8
Geo
100
AcDbLine
10
-72.7241299303943
20
-1.90490176375301
30
0.000000000000000
11
-72.6241299303943
21
-2.00081606033224
31
0.000000000000000
  0
LINE
  5
F104EB
330
F104EC
100
AcDbEntity
8
Geo
100
AcDbLine
10
-72.6241299303943
20
-2.00081606033224
30
0.000000000000000
11
-72.5241299303943
21
-2.09636483798801
31
0.000000000000000
  0
LINE
  5
F104ED
330
F104EE
100
AcDbEntity
8
Geo
100
AcDbLine
10
-72.5241299303943
20
-2.09636483798801
30
0.000000000000000
11
-72.4241299303943
21
-2.19140656045054
31
0.000000000000000
  0
LINE
  5
F104EF
330
F104F0
100
AcDbEntity
8
Geo
100
AcDbLine
10
-72.4241299303943
20
-2.19140656045054
30
0.000000000000000
11
-72.3241299303943
21
-2.28580044255022
31
0.000000000000000
  0
LINE
  5
F104F1
330
F104F2
100
AcDbEntity
8
Geo
100
AcDbLine
10
-72.3241299303943
20
-2.28580044255022
30
0.000000000000000
11
-72.2241299303943
21
-2.37940665876244
31
0.000000000000000
  0
LINE
  5
F104F3
330
F104F4
100
AcDbEntity
8
Geo
100
AcDbLine
10
-72.2241299303943
20
-2.37940665876244
30
0.000000000000000
11
-72.1241299303943
21
-2.47208655033095
31
0.000000000000000
  0
LINE
  5
F104F5
330
F104F6
100
AcDbEntity
8
Geo
100
AcDbLine
10
-72.1241299303943
20
-2.47208655033095
30
0.000000000000000
11
-72.0241299303943
21
-2.56370283066292
31
0.000000000000000
  0
LINE
  5
F104F7
330
F104F8
100
AcDbEntity
8
Geo
100
AcDbLine
10
-72.0241299303943
20
-2.56370283066292
30
0.000000000000000
11
-71.9241299303943
21
-2.65411978869132
31
0.000000000000000
  0
LINE
  5
F104F9
330
F104FA
100
AcDbEntity
8
Geo
100
AcDbLine
10
-71.9241299303943
20
-2.65411978869132
30
0.000000000000000
11
-71.8241299303943
21
-2.74320348990357
31
0.000000000000000
  0
LINE
  5
F104FB
330
F104FC
100
AcDbEntity
8
Geo
100
AcDbLine
10
-71.8241299303943
20
-2.74320348990357
30
0.000000000000000
11
-71.7241299303943
21
-2.83082197473853
31
0.000000000000000
  0
LINE
  5
F104FD
330
F104FE
100
AcDbEntity
8
Geo
100
AcDbLine
10
-71.7241299303943
20
-2.83082197473853
30
0.000000000000000
11
-71.6241299303943
21
-2.91684545405803
31
0.000000000000000
  0
LINE
  5
F104FF
330
F10500
100
AcDbEntity
8
Geo
100
AcDbLine
10
-71.6241299303943
20
-2.91684545405803
30
0.000000000000000
11
-71.5241299303943
21
-3.00114650140330
31
0.000000000000000
  0
LINE
  5
F10501
330
F10502
100
AcDbEntity
8
Geo
100
AcDbLine
10
-71.5241299303943
20
-3.00114650140330
30
0.000000000000000
11
-71.4241299303943
21
-3.08360024175165
31
0.000000000000000
  0
LINE
  5
F10503
330
F10504
100
AcDbEntity
8
Geo
100
AcDbLine
10
-71.4241299303943
20
-3.08360024175165
30
0.000000000000000
11
-71.3241299303943
21
-3.16408453649363
31
0.000000000000000
  0
LINE
  5
F10505
330
F10506
100
AcDbEntity
8
Geo
100
AcDbLine
10
-71.3241299303943
20
-3.16408453649363
30
0.000000000000000
11
-71.2241299303943
21
-3.24248016435680
31
0.000000000000000
  0
LINE
  5
F10507
330
F10508
100
AcDbEntity
8
Geo
100
AcDbLine
10
-71.2241299303943
20
-3.24248016435680
30
0.000000000000000
11
-71.1241299303943
21
-3.31867099800800
31
0.000000000000000
  0
LINE
  5
F10509
330
F1050A
100
AcDbEntity
8
Geo
100
AcDbLine
10
-71.1241299303943
20
-3.31867099800800
30
0.000000000000000
11
-71.0241299303943
21
-3.39254417607268
31
0.000000000000000
  0
LINE
  5
F1050B
330
F1050C
100
AcDbEntity
8
Geo
100
AcDbLine
10
-71.0241299303943
20
-3.39254417607268
30
0.000000000000000
11
-70.9241299303943
21
-3.46399027031620
31
0.000000000000000
  0
LINE
  5
F1050D
330
F1050E
100
AcDbEntity
8
Geo
100
AcDbLine
10
-70.9241299303943
20
-3.46399027031620
30
0.000000000000000
11
-70.8241299303943
21
-3.53290344773980
31
0.000000000000000
  0
LINE
  5
F1050F
330
F10510
100
AcDbEntity
8
Geo
100
AcDbLine
10
-70.8241299303943
20
-3.53290344773980
30
0.000000000000000
11
-70.7241299303943
21
-3.59918162735080
31
0.000000000000000
  0
LINE
  5
F10511
330
F10512
100
AcDbEntity
8
Geo
100
AcDbLine
10
-70.7241299303943
20
-3.59918162735080
30
0.000000000000000
11
-70.6241299303943
21
-3.66272663137511
31
0.000000000000000
  0
LINE
  5
F10513
330
F10514
100
AcDbEntity
8
Geo
100
AcDbLine
10
-70.6241299303943
20
-3.66272663137511
30
0.000000000000000
11
-70.5241299303943
21
-3.72344433068776
31
0.000000000000000
  0
LINE
  5
F10515
330
F10516
100
AcDbEntity
8
Geo
100
AcDbLine
10
-70.5241299303943
20
-3.72344433068776
30
0.000000000000000
11
-70.4241299303943
21
-3.78124478424628
31
0.000000000000000
  0
LINE
  5
F10517
330
F10518
100
AcDbEntity
8
Geo
100
AcDbLine
10
-70.4241299303943
20
-3.78124478424628
30
0.000000000000000
11
-70.3241299303943
21
-3.83604237232022
31
0.000000000000000
  0
LINE
  5
F10519
330
F1051A
100
AcDbEntity
8
Geo
100
AcDbLine
10
-70.3241299303943
20
-3.83604237232022
30
0.000000000000000
11
-70.2241299303943
21
-3.88775592331953
31
0.000000000000000
  0
LINE
  5
F1051B
330
F1051C
100
AcDbEntity
8
Geo
100
AcDbLine
10
-70.2241299303943
20
-3.88775592331953
30
0.000000000000000
11
-70.1241299303943
21
-3.93630883403399
31
0.000000000000000
  0
LINE
  5
F1051D
330
F1051E
100
AcDbEntity
8
Geo
100
AcDbLine
10
-70.1241299303943
20
-3.93630883403399
30
0.000000000000000
11
-70.0241299303943
21
-3.93044081306527
31
0.000000000000000
  0
LINE
  5
F1051F
330
F10520
100
AcDbEntity
8
Geo
100
AcDbLine
10
-70.0241299303943
20
-3.93044081306527
30
0.000000000000000
11
-69.9241299303943
21
-3.92463814360715
31
0.000000000000000
  0
LINE
  5
F10521
330
F10522
100
AcDbEntity
8
Geo
100
AcDbLine
10
-69.9241299303943
20
-3.92463814360715
30
0.000000000000000
11
-69.8241299303943
21
-3.91890380044783
31
0.000000000000000
  0
LINE
  5
F10523
330
F10524
100
AcDbEntity
8
Geo
100
AcDbLine
10
-69.8241299303943
20
-3.91890380044783
30
0.000000000000000
11
-69.7241299303943
21
-3.91324068818104
31
0.000000000000000
  0
LINE
  5
F10525
330
F10526
100
AcDbEntity
8
Geo
100
AcDbLine
10
-69.7241299303943
20
-3.91324068818104
30
0.000000000000000
11
-69.6241299303943
21
-3.90765164174963
31
0.000000000000000
  0
LINE
  5
F10527
330
F10528
100
AcDbEntity
8
Geo
100
AcDbLine
10
-69.6241299303943
20
-3.90765164174963
30
0.000000000000000
11
-69.5241299303943
21
-3.90213942699226
31
0.000000000000000
  0
LINE
  5
F10529
330
F1052A
100
AcDbEntity
8
Geo
100
AcDbLine
10
-69.5241299303943
20
-3.90213942699226
30
0.000000000000000
11
-69.4241299303943
21
-3.89670674119246
31
0.000000000000000
  0
LINE
  5
F1052B
330
F1052C
100
AcDbEntity
8
Geo
100
AcDbLine
10
-69.4241299303943
20
-3.89670674119246
30
0.000000000000000
11
-69.3241299303943
21
-3.89135621362886
31
0.000000000000000
  0
LINE
  5
F1052D
330
F1052E
100
AcDbEntity
8
Geo
100
AcDbLine
10
-69.3241299303943
20
-3.89135621362886
30
0.000000000000000
11
-69.2241299303943
21
-3.88609040612608
31
0.000000000000000
  0
LINE
  5
F1052F
330
F10530
100
AcDbEntity
8
Geo
100
AcDbLine
10
-69.2241299303943
20
-3.88609040612608
30
0.000000000000000
11
-69.1241299303943
21
-3.88091181360513
31
0.000000000000000
  0
LINE
  5
F10531
330
F10532
100
AcDbEntity
8
Geo
100
AcDbLine
10
-69.1241299303943
20
-3.88091181360513
30
0.000000000000000
11
-69.0241299303943
21
-3.87582286463267
31
0.000000000000000
  0
LINE
  5
F10533
330
F10534
100
AcDbEntity
8
Geo
100
AcDbLine
10
-69.0241299303943
20
-3.87582286463267
30
0.000000000000000
11
-68.9241299303943
21
-3.87082592196824
31
0.000000000000000
  0
LINE
  5
F10535
330
F10536
100
AcDbEntity
8
Geo
100
AcDbLine
10
-68.9241299303943
20
-3.87082592196824
30
0.000000000000000
11
-68.8241299303943
21
-3.86592328310874
31
0.000000000000000
  0
LINE
  5
F10537
330
F10538
100
AcDbEntity
8
Geo
100
AcDbLine
10
-68.8241299303943
20
-3.86592328310874
30
0.000000000000000
11
-68.7241299303943
21
-3.86111718082937
31
0.000000000000000
  0
LINE
  5
F10539
330
F1053A
100
AcDbEntity
8
Geo
100
AcDbLine
10
-68.7241299303943
20
-3.86111718082937
30
0.000000000000000
11
-68.6241299303943
21
-3.85640978372031
31
0.000000000000000
  0
LINE
  5
F1053B
330
F1053C
100
AcDbEntity
8
Geo
100
AcDbLine
10
-68.6241299303943
20
-3.85640978372031
30
0.000000000000000
11
-68.5241299303943
21
-3.85180319671839
31
0.000000000000000
  0
LINE
  5
F1053D
330
F1053E
100
AcDbEntity
8
Geo
100
AcDbLine
10
-68.5241299303943
20
-3.85180319671839
30
0.000000000000000
11
-68.4241299303943
21
-3.84729946163312
31
0.000000000000000
  0
LINE
  5
F1053F
330
F10540
100
AcDbEntity
8
Geo
100
AcDbLine
10
-68.4241299303943
20
-3.84729946163312
30
0.000000000000000
11
-68.3241299303943
21
-3.84290055766638
31
0.000000000000000
  0
LINE
  5
F10541
330
F10542
100
AcDbEntity
8
Geo
100
AcDbLine
10
-68.3241299303943
20
-3.84290055766638
30
0.000000000000000
11
-68.2241299303943
21
-3.83860840192513
31
0.000000000000000
  0
LINE
  5
F10543
330
F10544
100
AcDbEntity
8
Geo
100
AcDbLine
10
-68.2241299303943
20
-3.83860840192513
30
0.000000000000000
11
-68.1241299303943
21
-3.83442484992646
31
0.000000000000000
  0
LINE
  5
F10545
330
F10546
100
AcDbEntity
8
Geo
100
AcDbLine
10
-68.1241299303943
20
-3.83442484992646
30
0.000000000000000
11
-68.0241299303943
21
-3.83035169609447
31
0.000000000000000
  0
LINE
  5
F10547
330
F10548
100
AcDbEntity
8
Geo
100
AcDbLine
10
-68.0241299303943
20
-3.83035169609447
30
0.000000000000000
11
-67.9241299303943
21
-3.82639067424834
31
0.000000000000000
  0
LINE
  5
F10549
330
F1054A
100
AcDbEntity
8
Geo
100
AcDbLine
10
-67.9241299303943
20
-3.82639067424834
30
0.000000000000000
11
-67.8241299303943
21
-3.82254345808102
31
0.000000000000000
  0
LINE
  5
F1054B
330
F1054C
100
AcDbEntity
8
Geo
100
AcDbLine
10
-67.8241299303943
20
-3.82254345808102
30
0.000000000000000
11
-67.7241299303943
21
-3.81881166162801
31
0.000000000000000
  0
LINE
  5
F1054D
330
F1054E
100
AcDbEntity
8
Geo
100
AcDbLine
10
-67.7241299303943
20
-3.81881166162801
30
0.000000000000000
11
-67.6241299303943
21
-3.81519683972567
31
0.000000000000000
  0
LINE
  5
F1054F
330
F10550
100
AcDbEntity
8
Geo
100
AcDbLine
10
-67.6241299303943
20
-3.81519683972567
30
0.000000000000000
11
-67.5241299303943
21
-3.81170048845869
31
0.000000000000000
  0
LINE
  5
F10551
330
F10552
100
AcDbEntity
8
Geo
100
AcDbLine
10
-67.5241299303943
20
-3.81170048845869
30
0.000000000000000
11
-67.4241299303943
21
-3.80832404559598
31
0.000000000000000
  0
LINE
  5
F10553
330
F10554
100
AcDbEntity
8
Geo
100
AcDbLine
10
-67.4241299303943
20
-3.80832404559598
30
0.000000000000000
11
-67.3241299303943
21
-3.80506889101482
31
0.000000000000000
  0
LINE
  5
F10555
330
F10556
100
AcDbEntity
8
Geo
100
AcDbLine
10
-67.3241299303943
20
-3.80506889101482
30
0.000000000000000
11
-67.2241299303943
21
-3.80193634711256
31
0.000000000000000
  0
LINE
  5
F10557
330
F10558
100
AcDbEntity
8
Geo
100
AcDbLine
10
-67.2241299303943
20
-3.80193634711256
30
0.000000000000000
11
-67.1241299303942
21
-3.79892767920557
31
0.000000000000000
  0
LINE
  5
F10559
330
F1055A
100
AcDbEntity
8
Geo
100
AcDbLine
10
-67.1241299303942
20
-3.79892767920557
30
0.000000000000000
11
-67.0241299303943
21
-3.79604409591508
31
0.000000000000000
  0
LINE
  5
F1055B
330
F1055C
100
AcDbEntity
8
Geo
100
AcDbLine
10
-67.0241299303943
20
-3.79604409591508
30
0.000000000000000
11
-66.9241299303942
21
-3.79328674953934
31
0.000000000000000
  0
LINE
  5
F1055D
330
F1055E
100
AcDbEntity
8
Geo
100
AcDbLine
10
-66.9241299303942
20
-3.79328674953934
30
0.000000000000000
11
-66.8241299303943
21
-3.79065673641193
31
0.000000000000000
  0
LINE
  5
F1055F
330
F10560
100
AcDbEntity
8
Geo
100
AcDbLine
10
-66.8241299303943
20
-3.79065673641193
30
0.000000000000000
11
-66.7241299303942
21
-3.78815509724570
31
0.000000000000000
  0
LINE
  5
F10561
330
F10562
100
AcDbEntity
8
Geo
100
AcDbLine
10
-66.7241299303942
20
-3.78815509724570
30
0.000000000000000
11
-66.6241299303942
21
-3.78578281746216
31
0.000000000000000
  0
LINE
  5
F10563
330
F10564
100
AcDbEntity
8
Geo
100
AcDbLine
10
-66.6241299303942
20
-3.78578281746216
30
0.000000000000000
11
-66.5241299303942
21
-3.78354082750578
31
0.000000000000000
  0
LINE
  5
F10565
330
F10566
100
AcDbEntity
8
Geo
100
AcDbLine
10
-66.5241299303942
20
-3.78354082750578
30
0.000000000000000
11
-66.4241299303942
21
-3.78143000314318
31
0.000000000000000
  0
LINE
  5
F10567
330
F10568
100
AcDbEntity
8
Geo
100
AcDbLine
10
-66.4241299303942
20
-3.78143000314318
30
0.000000000000000
11
-66.3241299303942
21
-3.77945116574666
31
0.000000000000000
  0
LINE
  5
F10569
330
F1056A
100
AcDbEntity
8
Geo
100
AcDbLine
10
-66.3241299303942
20
-3.77945116574666
30
0.000000000000000
11
-66.2241299303942
21
-3.77760508256196
31
0.000000000000000
  0
LINE
  5
F1056B
330
F1056C
100
AcDbEntity
8
Geo
100
AcDbLine
10
-66.2241299303942
20
-3.77760508256196
30
0.000000000000000
11
-66.1241299303942
21
-3.77589246696001
31
0.000000000000000
  0
LINE
  5
F1056D
330
F1056E
100
AcDbEntity
8
Geo
100
AcDbLine
10
-66.1241299303942
20
-3.77589246696001
30
0.000000000000000
11
-66.0241299303942
21
-3.77431397867227
31
0.000000000000000
  0
LINE
  5
F1056F
330
F10570
100
AcDbEntity
8
Geo
100
AcDbLine
10
-66.0241299303942
20
-3.77431397867227
30
0.000000000000000
11
-65.9241299303942
21
-3.77287022400963
31
0.000000000000000
  0
LINE
  5
F10571
330
F10572
100
AcDbEntity
8
Geo
100
AcDbLine
10
-65.9241299303942
20
-3.77287022400963
30
0.000000000000000
11
-65.8241299303942
21
-3.77156175606461
31
0.000000000000000
  0
LINE
  5
F10573
330
F10574
100
AcDbEntity
8
Geo
100
AcDbLine
10
-65.8241299303942
20
-3.77156175606461
30
0.000000000000000
11
-65.7241299303942
21
-3.77038907489660
31
0.000000000000000
  0
LINE
  5
F10575
330
F10576
100
AcDbEntity
8
Geo
100
AcDbLine
10
-65.7241299303942
20
-3.77038907489660
30
0.000000000000000
11
-65.6241299303942
21
-3.76935262770006
31
0.000000000000000
  0
LINE
  5
F10577
330
F10578
100
AcDbEntity
8
Geo
100
AcDbLine
10
-65.6241299303942
20
-3.76935262770006
30
0.000000000000000
11
-65.5241299303942
21
-3.76845280895554
31
0.000000000000000
  0
LINE
  5
F10579
330
F1057A
100
AcDbEntity
8
Geo
100
AcDbLine
10
-65.5241299303942
20
-3.76845280895554
30
0.000000000000000
11
-65.4241299303942
21
-3.76768996056323
31
0.000000000000000
  0
LINE
  5
F1057B
330
F1057C
100
AcDbEntity
8
Geo
100
AcDbLine
10
-65.4241299303942
20
-3.76768996056323
30
0.000000000000000
11
-65.3241299303942
21
-3.76706437195918
31
0.000000000000000
  0
LINE
  5
F1057D
330
F1057E
100
AcDbEntity
8
Geo
100
AcDbLine
10
-65.3241299303942
20
-3.76706437195918
30
0.000000000000000
11
-65.2241299303942
21
-3.76657628021385
31
0.000000000000000
  0
LINE
  5
F1057F
330
F10580
100
AcDbEntity
8
Geo
100
AcDbLine
10
-65.2241299303942
20
-3.76657628021385
30
0.000000000000000
11
-65.1241299303943
21
-3.76622587011298
31
0.000000000000000
  0
LINE
  5
F10581
330
F10582
100
AcDbEntity
8
Geo
100
AcDbLine
10
-77.8241299303943
20
0.745549749053843
30
0.000000000000000
11
-77.7241299303943
21
0.745397440932505
31
0.000000000000000
  0
LINE
  5
F10583
330
F10584
100
AcDbEntity
8
Geo
100
AcDbLine
10
-77.7241299303943
20
0.745397440932505
30
0.000000000000000
11
-77.6241299303943
21
0.741542689543074
31
0.000000000000000
  0
LINE
  5
F10585
330
F10586
100
AcDbEntity
8
Geo
100
AcDbLine
10
-77.6241299303943
20
0.741542689543074
30
0.000000000000000
11
-77.5241299303943
21
0.733991204923352
31
0.000000000000000
  0
LINE
  5
F10587
330
F10588
100
AcDbEntity
8
Geo
100
AcDbLine
10
-77.5241299303943
20
0.733991204923352
30
0.000000000000000
11
-77.4241299303943
21
0.722754173076872
31
0.000000000000000
  0
LINE
  5
F10589
330
F1058A
100
AcDbEntity
8
Geo
100
AcDbLine
10
-77.4241299303943
20
0.722754173076872
30
0.000000000000000
11
-77.3241299303943
21
0.707848239403080
31
0.000000000000000
  0
LINE
  5
F1058B
330
F1058C
100
AcDbEntity
8
Geo
100
AcDbLine
10
-77.3241299303943
20
0.707848239403080
30
0.000000000000000
11
-77.2241299303943
21
0.689295484040535
31
0.000000000000000
  0
LINE
  5
F1058D
330
F1058E
100
AcDbEntity
8
Geo
100
AcDbLine
10
-77.2241299303943
20
0.689295484040535
30
0.000000000000000
11
-77.1241299303943
21
0.667123389159624
31
0.000000000000000
  0
LINE
  5
F1058F
330
F10590
100
AcDbEntity
8
Geo
100
AcDbLine
10
-77.1241299303943
20
0.667123389159624
30
0.000000000000000
11
-77.0241299303943
21
0.641364798253266
31
0.000000000000000
  0
LINE
  5
F10591
330
F10592
100
AcDbEntity
8
Geo
100
AcDbLine
10
-77.0241299303943
20
0.641364798253266
30
0.000000000000000
11
-76.9241299303943
21
0.612057867485890
31
0.000000000000000
  0
LINE
  5
F10593
330
F10594
100
AcDbEntity
8
Geo
100
AcDbLine
10
-76.9241299303943
20
0.612057867485890
30
0.000000000000000
11
-76.8241299303943
21
0.579246009172768
31
0.000000000000000
  0
LINE
  5
F10595
330
F10596
100
AcDbEntity
8
Geo
100
AcDbLine
10
-76.8241299303943
20
0.579246009172768
30
0.000000000000000
11
-76.7241299303943
21
0.542977827473404
31
0.000000000000000
  0
LINE
  5
F10597
330
F10598
100
AcDbEntity
8
Geo
100
AcDbLine
10
-76.7241299303943
20
0.542977827473404
30
0.000000000000000
11
-76.6241299303943
21
0.503307046394267
31
0.000000000000000
  0
LINE
  5
F10599
330
F1059A
100
AcDbEntity
8
Geo
100
AcDbLine
10
-76.6241299303943
20
0.503307046394267
30
0.000000000000000
11
-76.5241299303943
21
0.460292430207498
31
0.000000000000000
  0
LINE
  5
F1059B
330
F1059C
100
AcDbEntity
8
Geo
100
AcDbLine
10
-76.5241299303943
20
0.460292430207498
30
0.000000000000000
11
-76.4241299303943
21
0.413997696403470
31
0.000000000000000
  0
LINE
  5
F1059D
330
F1059E
100
AcDbEntity
8
Geo
100
AcDbLine
10
-76.4241299303943
20
0.413997696403470
30
0.000000000000000
11
-76.3241299303943
21
0.364491421306163
31
0.000000000000000
  0
LINE
  5
F1059F
330
F105A0
100
AcDbEntity
8
Geo
100
AcDbLine
10
-76.3241299303943
20
0.364491421306163
30
0.000000000000000
11
-76.2241299303943
21
0.311846938491155
31
0.000000000000000
  0
LINE
  5
F105A1
330
F105A2
100
AcDbEntity
8
Geo
100
AcDbLine
10
-76.2241299303943
20
0.311846938491155
30
0.000000000000000
11
-76.1241299303943
21
0.256142230156690
31
0.000000000000000
  0
LINE
  5
F105A3
330
F105A4
100
AcDbEntity
8
Geo
100
AcDbLine
10
-76.1241299303943
20
0.256142230156690
30
0.000000000000000
11
-76.0241299303943
21
0.197459811608769
31
0.000000000000000
  0
LINE
  5
F105A5
330
F105A6
100
AcDbEntity
8
Geo
100
AcDbLine
10
-76.0241299303943
20
0.197459811608769
30
0.000000000000000
11
-75.9241299303943
21
0.135886609031337
31
0.000000000000000
  0
LINE
  5
F105A7
330
F105A8
100
AcDbEntity
8
Geo
100
AcDbLine
10
-75.9241299303943
20
0.135886609031337
30
0.000000000000000
11
-75.8241299303943
21
0.0715138307226497
31
0.000000000000000
  0
LINE
  5
F105A9
330
F105AA
100
AcDbEntity
8
Geo
100
AcDbLine
10
-75.8241299303943
20
0.0715138307226497
30
0.000000000000000
11
-75.7241299303943
21
0.00443683198855105
31
0.000000000000000
  0
LINE
  5
F105AB
330
F105AC
100
AcDbEntity
8
Geo
100
AcDbLine
10
-75.7241299303943
20
0.00443683198855105
30
0.000000000000000
11
-75.6241299303943
21
-0.0652450261072079
31
0.000000000000000
  0
LINE
  5
F105AD
330
F105AE
100
AcDbEntity
8
Geo
100
AcDbLine
10
-75.6241299303943
20
-0.0652450261072079
30
0.000000000000000
11
-75.5241299303943
21
-0.137428523926372
31
0.000000000000000
  0
LINE
  5
F105AF
330
F105B0
100
AcDbEntity
8
Geo
100
AcDbLine
10
-75.5241299303943
20
-0.137428523926372
30
0.000000000000000
11
-75.4241299303943
21
-0.212006736155290
31
0.000000000000000
  0
LINE
  5
F105B1
330
F105B2
100
AcDbEntity
8
Geo
100
AcDbLine
10
-75.4241299303943
20
-0.212006736155290
30
0.000000000000000
11
-75.3241299303943
21
-0.288869190193222
31
0.000000000000000
  0
LINE
  5
F105B3
330
F105B4
100
AcDbEntity
8
Geo
100
AcDbLine
10
-75.3241299303943
20
-0.288869190193222
30
0.000000000000000
11
-75.2241299303943
21
-0.367902029795258
31
0.000000000000000
  0
LINE
  5
F105B5
330
F105B6
100
AcDbEntity
8
Geo
100
AcDbLine
10
-75.2241299303943
20
-0.367902029795258
30
0.000000000000000
11
-75.1241299303943
21
-0.448988183727409
31
0.000000000000000
  0
LINE
  5
F105B7
330
F105B8
100
AcDbEntity
8
Geo
100
AcDbLine
10
-75.1241299303943
20
-0.448988183727409
30
0.000000000000000
11
-75.0241299303943
21
-0.532007539184062
31
0.000000000000000
  0
LINE
  5
F105B9
330
F105BA
100
AcDbEntity
8
Geo
100
AcDbLine
10
-75.0241299303943
20
-0.532007539184062
30
0.000000000000000
11
-74.9241299303943
21
-0.616837119710903
31
0.000000000000000
  0
LINE
  5
F105BB
330
F105BC
100
AcDbEntity
8
Geo
100
AcDbLine
10
-74.9241299303943
20
-0.616837119710903
30
0.000000000000000
11
-74.8241299303943
21
-0.703351267369775
31
0.000000000000000
  0
LINE
  5
F105BD
330
F105BE
100
AcDbEntity
8
Geo
100
AcDbLine
10
-74.8241299303943
20
-0.703351267369775
30
0.000000000000000
11
-74.7241299303943
21
-0.791421828875602
31
0.000000000000000
  0
LINE
  5
F105BF
330
F105C0
100
AcDbEntity
8
Geo
100
AcDbLine
10
-74.7241299303943
20
-0.791421828875602
30
0.000000000000000
11
-74.6241299303943
21
-0.880918345429667
31
0.000000000000000
  0
LINE
  5
F105C1
330
F105C2
100
AcDbEntity
8
Geo
100
AcDbLine
10
-74.6241299303943
20
-0.880918345429667
30
0.000000000000000
11
-74.5241299303943
21
-0.971708245968047
31
0.000000000000000
  0
LINE
  5
F105C3
330
F105C4
100
AcDbEntity
8
Geo
100
AcDbLine
10
-74.5241299303943
20
-0.971708245968047
30
0.000000000000000
11
-74.4241299303943
21
-1.06365704353895
31
0.000000000000000
  0
LINE
  5
F105C5
330
F105C6
100
AcDbEntity
8
Geo
100
AcDbLine
10
-74.4241299303943
20
-1.06365704353895
30
0.000000000000000
11
-74.3241299303943
21
-1.15662853451803
31
0.000000000000000
  0
LINE
  5
F105C7
330
F105C8
100
AcDbEntity
8
Geo
100
AcDbLine
10
-74.3241299303943
20
-1.15662853451803
30
0.000000000000000
11
-74.2241299303943
21
-1.25048500036665
31
0.000000000000000
  0
LINE
  5
F105C9
330
F105CA
100
AcDbEntity
8
Geo
100
AcDbLine
10
-74.2241299303943
20
-1.25048500036665
30
0.000000000000000
11
-74.1241299303943
21
-1.34508741163414
31
0.000000000000000
  0
LINE
  5
F105CB
330
F105CC
100
AcDbEntity
8
Geo
100
AcDbLine
10
-74.1241299303943
20
-1.34508741163414
30
0.000000000000000
11
-74.0241299303943
21
-1.44029563390193
31
0.000000000000000
  0
LINE
  5
F105CD
330
F105CE
100
AcDbEntity
8
Geo
100
AcDbLine
10
-74.0241299303943
20
-1.44029563390193
30
0.000000000000000
11
-73.9241299303943
21
-1.53596863536447
31
0.000000000000000
  0
LINE
  5
F105CF
330
F105D0
100
AcDbEntity
8
Geo
100
AcDbLine
10
-73.9241299303943
20
-1.53596863536447
30
0.000000000000000
11
-73.8241299303943
21
-1.63196469573944
31
0.000000000000000
  0
LINE
  5
F105D1
330
F105D2
100
AcDbEntity
8
Geo
100
AcDbLine
10
-73.8241299303943
20
-1.63196469573944
30
0.000000000000000
11
-73.7241299303943
21
-1.72814161619781
31
0.000000000000000
  0
LINE
  5
F105D3
330
F105D4
100
AcDbEntity
8
Geo
100
AcDbLine
10
-73.7241299303943
20
-1.72814161619781
30
0.000000000000000
11
-73.6241299303943
21
-1.82435693000277
31
0.000000000000000
  0
LINE
  5
F105D5
330
F105D6
100
AcDbEntity
8
Geo
100
AcDbLine
10
-73.6241299303943
20
-1.82435693000277
30
0.000000000000000
11
-73.5241299303943
21
-1.92046811354548
31
0.000000000000000
  0
LINE
  5
F105D7
330
F105D8
100
AcDbEntity
8
Geo
100
AcDbLine
10
-73.5241299303943
20
-1.92046811354548
30
0.000000000000000
11
-73.4241299303943
21
-2.01633279746515
31
0.000000000000000
  0
LINE
  5
F105D9
330
F105DA
100
AcDbEntity
8
Geo
100
AcDbLine
10
-73.4241299303943
20
-2.01633279746515
30
0.000000000000000
11
-73.3241299303943
21
-2.11180897754048
31
0.000000000000000
  0
LINE
  5
F105DB
330
F105DC
100
AcDbEntity
8
Geo
100
AcDbLine
10
-73.3241299303943
20
-2.11180897754048
30
0.000000000000000
11
-73.2241299303943
21
-2.20675522504041
31
0.000000000000000
  0
LINE
  5
F105DD
330
F105DE
100
AcDbEntity
8
Geo
100
AcDbLine
10
-73.2241299303943
20
-2.20675522504041
30
0.000000000000000
11
-73.1241299303943
21
-2.30103089622225
31
0.000000000000000
  0
LINE
  5
F105DF
330
F105E0
100
AcDbEntity
8
Geo
100
AcDbLine
10
-73.1241299303943
20
-2.30103089622225
30
0.000000000000000
11
-73.0241299303943
21
-2.39449634066705
31
0.000000000000000
  0
LINE
  5
F105E1
330
F105E2
100
AcDbEntity
8
Geo
100
AcDbLine
10
-73.0241299303943
20
-2.39449634066705
30
0.000000000000000
11
-72.9241299303943
21
-2.48701310814360
31
0.000000000000000
  0
LINE
  5
F105E3
330
F105E4
100
AcDbEntity
8
Geo
100
AcDbLine
10
-72.9241299303943
20
-2.48701310814360
30
0.000000000000000
11
-72.8241299303943
21
-2.57844415369454
31
0.000000000000000
  0
LINE
  5
F105E5
330
F105E6
100
AcDbEntity
8
Geo
100
AcDbLine
10
-72.8241299303943
20
-2.57844415369454
30
0.000000000000000
11
-72.7241299303943
21
-2.66865404064086
31
0.000000000000000
  0
LINE
  5
F105E7
330
F105E8
100
AcDbEntity
8
Geo
100
AcDbLine
10
-72.7241299303943
20
-2.66865404064086
30
0.000000000000000
11
-72.6241299303943
21
-2.75750914120410
31
0.000000000000000
  0
LINE
  5
F105E9
330
F105EA
100
AcDbEntity
8
Geo
100
AcDbLine
10
-72.6241299303943
20
-2.75750914120410
30
0.000000000000000
11
-72.5241299303943
21
-2.84487783444892
31
0.000000000000000
  0
LINE
  5
F105EB
330
F105EC
100
AcDbEntity
8
Geo
100
AcDbLine
10
-72.5241299303943
20
-2.84487783444892
30
0.000000000000000
11
-72.4241299303943
21
-2.93063070125309
31
0.000000000000000
  0
LINE
  5
F105ED
330
F105EE
100
AcDbEntity
8
Geo
100
AcDbLine
10
-72.4241299303943
20
-2.93063070125309
30
0.000000000000000
11
-72.3241299303943
21
-3.01464071601577
31
0.000000000000000
  0
LINE
  5
F105EF
330
F105F0
100
AcDbEntity
8
Geo
100
AcDbLine
10
-72.3241299303943
20
-3.01464071601577
30
0.000000000000000
11
-72.2241299303943
21
-3.09678343482044
31
0.000000000000000
  0
LINE
  5
F105F1
330
F105F2
100
AcDbEntity
8
Geo
100
AcDbLine
10
-72.2241299303943
20
-3.09678343482044
30
0.000000000000000
11
-72.1241299303943
21
-3.17693717977340
31
0.000000000000000
  0
LINE
  5
F105F3
330
F105F4
100
AcDbEntity
8
Geo
100
AcDbLine
10
-72.1241299303943
20
-3.17693717977340
30
0.000000000000000
11
-72.0241299303943
21
-3.25498321924517
31
0.000000000000000
  0
LINE
  5
F105F5
330
F105F6
100
AcDbEntity
8
Geo
100
AcDbLine
10
-72.0241299303943
20
-3.25498321924517
30
0.000000000000000
11
-71.9241299303943
21
-3.33080594374738
31
0.000000000000000
  0
LINE
  5
F105F7
330
F105F8
100
AcDbEntity
8
Geo
100
AcDbLine
10
-71.9241299303943
20
-3.33080594374738
30
0.000000000000000
11
-71.8241299303943
21
-3.40429303718503
31
0.000000000000000
  0
LINE
  5
F105F9
330
F105FA
100
AcDbEntity
8
Geo
100
AcDbLine
10
-71.8241299303943
20
-3.40429303718503
30
0.000000000000000
11
-71.7241299303943
21
-3.47533564323010
31
0.000000000000000
  0
LINE
  5
F105FB
330
F105FC
100
AcDbEntity
8
Geo
100
AcDbLine
10
-71.7241299303943
20
-3.47533564323010
30
0.000000000000000
11
-71.6241299303943
21
-3.54382852657033
31
0.000000000000000
  0
LINE
  5
F105FD
330
F105FE
100
AcDbEntity
8
Geo
100
AcDbLine
10
-71.6241299303943
20
-3.54382852657033
30
0.000000000000000
11
-71.5241299303943
21
-3.60967022879409
31
0.000000000000000
  0
LINE
  5
F105FF
330
F10600
100
AcDbEntity
8
Geo
100
AcDbLine
10
-71.5241299303943
20
-3.60967022879409
30
0.000000000000000
11
-71.4241299303943
21
-3.67276321868060
31
0.000000000000000
  0
LINE
  5
F10601
330
F10602
100
AcDbEntity
8
Geo
100
AcDbLine
10
-71.4241299303943
20
-3.67276321868060
30
0.000000000000000
11
-71.3241299303943
21
-3.73301403667282
31
0.000000000000000
  0
LINE
  5
F10603
330
F10604
100
AcDbEntity
8
Geo
100
AcDbLine
10
-71.3241299303943
20
-3.73301403667282
30
0.000000000000000
11
-71.2241299303943
21
-3.79033343331890
31
0.000000000000000
  0
LINE
  5
F10605
330
F10606
100
AcDbEntity
8
Geo
100
AcDbLine
10
-71.2241299303943
20
-3.79033343331890
30
0.000000000000000
11
-71.1241299303943
21
-3.84463650147733
31
0.000000000000000
  0
LINE
  5
F10607
330
F10608
100
AcDbEntity
8
Geo
100
AcDbLine
10
-71.1241299303943
20
-3.84463650147733
30
0.000000000000000
11
-71.0241299303943
21
-3.89584280208973
31
0.000000000000000
  0
LINE
  5
F10609
330
F1060A
100
AcDbEntity
8
Geo
100
AcDbLine
10
-71.0241299303943
20
-3.89584280208973
30
0.000000000000000
11
-70.9241299303943
21
-3.94387648333512
31
0.000000000000000
  0
LINE
  5
F1060B
330
F1060C
100
AcDbEntity
8
Geo
100
AcDbLine
10
-70.9241299303943
20
-3.94387648333512
30
0.000000000000000
11
-70.8241299303943
21
-3.98866639298913
31
0.000000000000000
  0
LINE
  5
F1060D
330
F1060E
100
AcDbEntity
8
Geo
100
AcDbLine
10
-70.8241299303943
20
-3.98866639298913
30
0.000000000000000
11
-70.7241299303943
21
-4.03014618382166
31
0.000000000000000
  0
LINE
  5
F1060F
330
F10610
100
AcDbEntity
8
Geo
100
AcDbLine
10
-70.7241299303943
20
-4.03014618382166
30
0.000000000000000
11
-70.6241299303943
21
-4.06825441187698
31
0.000000000000000
  0
LINE
  5
F10611
330
F10612
100
AcDbEntity
8
Geo
100
AcDbLine
10
-70.6241299303943
20
-4.06825441187698
30
0.000000000000000
11
-70.5241299303943
21
-4.10293462749054
31
0.000000000000000
  0
LINE
  5
F10613
330
F10614
100
AcDbEntity
8
Geo
100
AcDbLine
10
-70.5241299303943
20
-4.10293462749054
30
0.000000000000000
11
-70.4241299303943
21
-4.13413545890780
31
0.000000000000000
  0
LINE
  5
F10615
330
F10616
100
AcDbEntity
8
Geo
100
AcDbLine
10
-70.4241299303943
20
-4.13413545890780
30
0.000000000000000
11
-70.3241299303943
21
-4.16181068838113
31
0.000000000000000
  0
LINE
  5
F10617
330
F10618
100
AcDbEntity
8
Geo
100
AcDbLine
10
-70.3241299303943
20
-4.16181068838113
30
0.000000000000000
11
-70.2241299303943
21
-4.18591932063209
31
0.000000000000000
  0
LINE
  5
F10619
330
F1061A
100
AcDbEntity
8
Geo
100
AcDbLine
10
-70.2241299303943
20
-4.18591932063209
30
0.000000000000000
11
-70.1241299303943
21
-4.20642564357768
31
0.000000000000000
  0
LINE
  5
F1061B
330
F1061C
100
AcDbEntity
8
Geo
100
AcDbLine
10
-70.1241299303943
20
-4.20642564357768
30
0.000000000000000
11
-70.0241299303943
21
-4.22508032554679
31
0.000000000000000
  0
LINE
  5
F1061D
330
F1061E
100
AcDbEntity
8
Geo
100
AcDbLine
10
-70.0241299303943
20
-4.22508032554679
30
0.000000000000000
11
-69.9241299303943
21
-4.23891379425018
31
0.000000000000000
  0
LINE
  5
F1061F
330
F10620
100
AcDbEntity
8
Geo
100
AcDbLine
10
-69.9241299303943
20
-4.23891379425018
30
0.000000000000000
11
-69.8241299303943
21
-4.24816407829107
31
0.000000000000000
  0
LINE
  5
F10621
330
F10622
100
AcDbEntity
8
Geo
100
AcDbLine
10
-69.8241299303943
20
-4.24816407829107
30
0.000000000000000
11
-69.7241299303943
21
-4.25307405423301
31
0.000000000000000
  0
LINE
  5
F10623
330
F10624
100
AcDbEntity
8
Geo
100
AcDbLine
10
-69.7241299303943
20
-4.25307405423301
30
0.000000000000000
11
-69.6241299303943
21
-4.25406032482593
31
0.000000000000000
  0
LINE
  5
F10625
330
F10626
100
AcDbEntity
8
Geo
100
AcDbLine
10
-81.1241299303943
20
0.744723316299470
30
0.000000000000000
11
-81.0241299303943
21
0.745873164965837
31
0.000000000000000
  0
LINE
  5
F10627
330
F10628
100
AcDbEntity
8
Geo
100
AcDbLine
10
-81.0241299303943
20
0.745873164965837
30
0.000000000000000
11
-80.9241299303943
21
0.743319865674770
31
0.000000000000000
  0
LINE
  5
F10629
330
F1062A
100
AcDbEntity
8
Geo
100
AcDbLine
10
-80.9241299303943
20
0.743319865674770
30
0.000000000000000
11
-80.8241299303943
21
0.737067200624911
31
0.000000000000000
  0
LINE
  5
F1062B
330
F1062C
100
AcDbEntity
8
Geo
100
AcDbLine
10
-80.8241299303943
20
0.737067200624911
30
0.000000000000000
11
-80.7241299303943
21
0.727124431880194
31
0.000000000000000
  0
LINE
  5
F1062D
330
F1062E
100
AcDbEntity
8
Geo
100
AcDbLine
10
-80.7241299303943
20
0.727124431880194
30
0.000000000000000
11
-80.6241299303943
21
0.713506287649955
31
0.000000000000000
  0
LINE
  5
F1062F
330
F10630
100
AcDbEntity
8
Geo
100
AcDbLine
10
-80.6241299303943
20
0.713506287649955
30
0.000000000000000
11
-80.5241299303943
21
0.696232940472064
31
0.000000000000000
  0
LINE
  5
F10631
330
F10632
100
AcDbEntity
8
Geo
100
AcDbLine
10
-80.5241299303943
20
0.696232940472064
30
0.000000000000000
11
-80.4241299303943
21
0.675329977331365
31
0.000000000000000
  0
LINE
  5
F10633
330
F10634
100
AcDbEntity
8
Geo
100
AcDbLine
10
-80.4241299303943
20
0.675329977331365
30
0.000000000000000
11
-80.3241299303943
21
0.650828361757719
31
0.000000000000000
  0
LINE
  5
F10635
330
F10636
100
AcDbEntity
8
Geo
100
AcDbLine
10
-80.3241299303943
20
0.650828361757719
30
0.000000000000000
11
-80.2241299303943
21
0.622764387959766
31
0.000000000000000
  0
LINE
  5
F10637
330
F10638
100
AcDbEntity
8
Geo
100
AcDbLine
10
-80.2241299303943
20
0.622764387959766
30
0.000000000000000
11
-80.1241299303943
21
0.591179627062367
31
0.000000000000000
  0
LINE
  5
F10639
330
F1063A
100
AcDbEntity
8
Geo
100
AcDbLine
10
-80.1241299303943
20
0.591179627062367
30
0.000000000000000
11
-80.0241299303943
21
0.556120865527354
31
0.000000000000000
  0
LINE
  5
F1063B
330
F1063C
100
AcDbEntity
8
Geo
100
AcDbLine
10
-80.0241299303943
20
0.556120865527354
30
0.000000000000000
11
-79.9241299303943
21
0.517640035848811
31
0.000000000000000
  0
LINE
  5
F1063D
330
F1063E
100
AcDbEntity
8
Geo
100
AcDbLine
10
-79.9241299303943
20
0.517640035848811
30
0.000000000000000
11
-79.8241299303943
21
0.475794139625543
31
0.000000000000000
  0
LINE
  5
F1063F
330
F10640
100
AcDbEntity
8
Geo
100
AcDbLine
10
-79.8241299303943
20
0.475794139625543
30
0.000000000000000
11
-79.7241299303943
21
0.430645163124688
31
0.000000000000000
  0
LINE
  5
F10641
330
F10642
100
AcDbEntity
8
Geo
100
AcDbLine
10
-79.7241299303943
20
0.430645163124688
30
0.000000000000000
11
-79.6241299303943
21
0.382259985461548
31
0.000000000000000
  0
LINE
  5
F10643
330
F10644
100
AcDbEntity
8
Geo
100
AcDbLine
10
-79.6241299303943
20
0.382259985461548
30
0.000000000000000
11
-79.5241299303943
21
0.330710279531647
31
0.000000000000000
  0
LINE
  5
F10645
330
F10646
100
AcDbEntity
8
Geo
100
AcDbLine
10
-79.5241299303943
20
0.330710279531647
30
0.000000000000000
11
-79.4241299303943
21
0.276072405841775
31
0.000000000000000
  0
LINE
  5
F10647
330
F10648
100
AcDbEntity
8
Geo
100
AcDbLine
10
-79.4241299303943
20
0.276072405841775
30
0.000000000000000
11
-79.3241299303943
21
0.218427299397275
31
0.000000000000000
  0
LINE
  5
F10649
330
F1064A
100
AcDbEntity
8
Geo
100
AcDbLine
10
-79.3241299303943
20
0.218427299397275
30
0.000000000000000
11
-79.2241299303943
21
0.157860349813134
31
0.000000000000000
  0
LINE
  5
F1064B
330
F1064C
100
AcDbEntity
8
Geo
100
AcDbLine
10
-79.2241299303943
20
0.157860349813134
30
0.000000000000000
11
-79.1241299303943
21
0.0944612748264664
31
0.000000000000000
  0
LINE
  5
F1064D
330
F1064E
100
AcDbEntity
8
Geo
100
AcDbLine
10
-79.1241299303943
20
0.0944612748264664
30
0.000000000000000
11
-79.0241299303943
21
0.0283239873977563
31
0.000000000000000
  0
LINE
  5
F1064F
330
F10650
100
AcDbEntity
8
Geo
100
AcDbLine
10
-79.0241299303943
20
0.0283239873977563
30
0.000000000000000
11
-78.9241299303943
21
-0.0404535434022795
31
0.000000000000000
  0
LINE
  5
F10651
330
F10652
100
AcDbEntity
8
Geo
100
AcDbLine
10
-78.9241299303943
20
-0.0404535434022795
30
0.000000000000000
11
-78.8241299303943
21
-0.111769437514133
31
0.000000000000000
  0
LINE
  5
F10653
330
F10654
100
AcDbEntity
8
Geo
100
AcDbLine
10
-78.8241299303943
20
-0.111769437514133
30
0.000000000000000
11
-78.7241299303943
21
-0.185518054804301
31
0.000000000000000
  0
LINE
  5
F10655
330
F10656
100
AcDbEntity
8
Geo
100
AcDbLine
10
-78.7241299303943
20
-0.185518054804301
30
0.000000000000000
11
-78.6241299303943
21
-0.261590151549863
31
0.000000000000000
  0
LINE
  5
F10657
330
F10658
100
AcDbEntity
8
Geo
100
AcDbLine
10
-78.6241299303943
20
-0.261590151549863
30
0.000000000000000
11
-78.5241299303943
21
-0.339873042261051
31
0.000000000000000
  0
LINE
  5
F10659
330
F1065A
100
AcDbEntity
8
Geo
100
AcDbLine
10
-78.5241299303943
20
-0.339873042261051
30
0.000000000000000
11
-78.4241299303943
21
-0.420250766602111
31
0.000000000000000
  0
LINE
  5
F1065B
330
F1065C
100
AcDbEntity
8
Geo
100
AcDbLine
10
-78.4241299303943
20
-0.420250766602111
30
0.000000000000000
11
-78.3241299303943
21
-0.502604261163184
31
0.000000000000000
  0
LINE
  5
F1065D
330
F1065E
100
AcDbEntity
8
Geo
100
AcDbLine
10
-78.3241299303943
20
-0.502604261163184
30
0.000000000000000
11
-78.2241299303943
21
-0.586811535828766
31
0.000000000000000
  0
LINE
  5
F1065F
330
F10660
100
AcDbEntity
8
Geo
100
AcDbLine
10
-78.2241299303943
20
-0.586811535828766
30
0.000000000000000
11
-78.1241299303943
21
-0.672747854481496
31
0.000000000000000
  0
LINE
  5
F10661
330
F10662
100
AcDbEntity
8
Geo
100
AcDbLine
10
-78.1241299303943
20
-0.672747854481496
30
0.000000000000000
11
-78.0241299303943
21
-0.760285919773588
31
0.000000000000000
  0
LINE
  5
F10663
330
F10664
100
AcDbEntity
8
Geo
100
AcDbLine
10
-78.0241299303943
20
-0.760285919773588
30
0.000000000000000
11
-77.9241299303943
21
-0.849296061692218
31
0.000000000000000
  0
LINE
  5
F10665
330
F10666
100
AcDbEntity
8
Geo
100
AcDbLine
10
-77.9241299303943
20
-0.849296061692218
30
0.000000000000000
11
-77.8241299303943
21
-0.939646429639525
31
0.000000000000000
  0
LINE
  5
F10667
330
F10668
100
AcDbEntity
8
Geo
100
AcDbLine
10
-77.8241299303943
20
-0.939646429639525
30
0.000000000000000
11
-77.7241299303943
21
-1.03120318774272
31
0.000000000000000
  0
LINE
  5
F10669
330
F1066A
100
AcDbEntity
8
Geo
100
AcDbLine
10
-77.7241299303943
20
-1.03120318774272
30
0.000000000000000
11
-77.6241299303943
21
-1.12383071310499
31
0.000000000000000
  0
LINE
  5
F1066B
330
F1066C
100
AcDbEntity
8
Geo
100
AcDbLine
10
-77.6241299303943
20
-1.12383071310499
30
0.000000000000000
11
-77.5241299303943
21
-1.21739179670345
31
0.000000000000000
  0
LINE
  5
F1066D
330
F1066E
100
AcDbEntity
8
Geo
100
AcDbLine
10
-77.5241299303943
20
-1.21739179670345
30
0.000000000000000
11
-77.4241299303943
21
-1.31174784663677
31
0.000000000000000
  0
LINE
  5
F1066F
330
F10670
100
AcDbEntity
8
Geo
100
AcDbLine
10
-77.4241299303943
20
-1.31174784663677
30
0.000000000000000
11
-77.3241299303943
21
-1.40675909342105
31
0.000000000000000
  0
LINE
  5
F10671
330
F10672
100
AcDbEntity
8
Geo
100
AcDbLine
10
-77.3241299303943
20
-1.40675909342105
30
0.000000000000000
11
-77.2241299303943
21
-1.50228479703027
31
0.000000000000000
  0
LINE
  5
F10673
330
F10674
100
AcDbEntity
8
Geo
100
AcDbLine
10
-77.2241299303943
20
-1.50228479703027
30
0.000000000000000
11
-77.1241299303943
21
-1.59818345537420
31
0.000000000000000
  0
LINE
  5
F10675
330
F10676
100
AcDbEntity
8
Geo
100
AcDbLine
10
-77.1241299303943
20
-1.59818345537420
30
0.000000000000000
11
-77.0241299303943
21
-1.69431301390530
31
0.000000000000000
  0
LINE
  5
F10677
330
F10678
100
AcDbEntity
8
Geo
100
AcDbLine
10
-77.0241299303943
20
-1.69431301390530
30
0.000000000000000
11
-76.9241299303943
21
-1.79053107604393
31
0.000000000000000
  0
LINE
  5
F10679
330
F1067A
100
AcDbEntity
8
Geo
100
AcDbLine
10
-76.9241299303943
20
-1.79053107604393
30
0.000000000000000
11
-76.8241299303943
21
-1.88669511411013
31
0.000000000000000
  0
LINE
  5
F1067B
330
F1067C
100
AcDbEntity
8
Geo
100
AcDbLine
10
-76.8241299303943
20
-1.88669511411013
30
0.000000000000000
11
-76.7241299303943
21
-1.98266268044978
31
0.000000000000000
  0
LINE
  5
F1067D
330
F1067E
100
AcDbEntity
8
Geo
100
AcDbLine
10
-76.7241299303943
20
-1.98266268044978
30
0.000000000000000
11
-76.6241299303943
21
-2.07829161844202
31
0.000000000000000
  0
LINE
  5
F1067F
330
F10680
100
AcDbEntity
8
Geo
100
AcDbLine
10
-76.6241299303943
20
-2.07829161844202
30
0.000000000000000
11
-76.5241299303943
21
-2.17344027307568
31
0.000000000000000
  0
LINE
  5
F10681
330
F10682
100
AcDbEntity
8
Geo
100
AcDbLine
10
-76.5241299303943
20
-2.17344027307568
30
0.000000000000000
11
-76.4241299303943
21
-2.26796770078267
31
0.000000000000000
  0
LINE
  5
F10683
330
F10684
100
AcDbEntity
8
Geo
100
AcDbLine
10
-76.4241299303943
20
-2.26796770078267
30
0.000000000000000
11
-76.3241299303943
21
-2.36173387821746
31
0.000000000000000
  0
LINE
  5
F10685
330
F10686
100
AcDbEntity
8
Geo
100
AcDbLine
10
-76.3241299303943
20
-2.36173387821746
30
0.000000000000000
11
-76.2241299303943
21
-2.45459990967348
31
0.000000000000000
  0
LINE
  5
F10687
330
F10688
100
AcDbEntity
8
Geo
100
AcDbLine
10
-76.2241299303943
20
-2.45459990967348
30
0.000000000000000
11
-76.1241299303943
21
-2.54642823282912
31
0.000000000000000
  0
LINE
  5
F10689
330
F1068A
100
AcDbEntity
8
Geo
100
AcDbLine
10
-76.1241299303943
20
-2.54642823282912
30
0.000000000000000
11
-76.0241299303943
21
-2.63708282251865
31
0.000000000000000
  0
LINE
  5
F1068B
330
F1068C
100
AcDbEntity
8
Geo
100
AcDbLine
10
-76.0241299303943
20
-2.63708282251865
30
0.000000000000000
11
-75.9241299303943
21
-2.72642939222601
31
0.000000000000000
  0
LINE
  5
F1068D
330
F1068E
100
AcDbEntity
8
Geo
100
AcDbLine
10
-75.9241299303943
20
-2.72642939222601
30
0.000000000000000
11
-75.8241299303943
21
-2.81433559300336
31
0.000000000000000
  0
LINE
  5
F1068F
330
F10690
100
AcDbEntity
8
Geo
100
AcDbLine
10
-75.8241299303943
20
-2.81433559300336
30
0.000000000000000
11
-75.7241299303943
21
-2.90067120951929
31
0.000000000000000
  0
LINE
  5
F10691
330
F10692
100
AcDbEntity
8
Geo
100
AcDbLine
10
-75.7241299303943
20
-2.90067120951929
30
0.000000000000000
11
-75.6241299303943
21
-2.98530835294665
31
0.000000000000000
  0
LINE
  5
F10693
330
F10694
100
AcDbEntity
8
Geo
100
AcDbLine
10
-75.6241299303943
20
-2.98530835294665
30
0.000000000000000
11
-75.5241299303943
21
-3.06812165040408
31
0.000000000000000
  0
LINE
  5
F10695
330
F10696
100
AcDbEntity
8
Geo
100
AcDbLine
10
-75.5241299303943
20
-3.06812165040408
30
0.000000000000000
11
-75.4241299303943
21
-3.14898843067071
31
0.000000000000000
  0
LINE
  5
F10697
330
F10698
100
AcDbEntity
8
Geo
100
AcDbLine
10
-75.4241299303943
20
-3.14898843067071
30
0.000000000000000
11
-75.3241299303943
21
-3.22778890589881
31
0.000000000000000
  0
LINE
  5
F10699
330
F1069A
100
AcDbEntity
8
Geo
100
AcDbLine
10
-75.3241299303943
20
-3.22778890589881
30
0.000000000000000
11
-75.2241299303943
21
-3.30440634905542
31
0.000000000000000
  0
LINE
  5
F1069B
330
F1069C
100
AcDbEntity
8
Geo
100
AcDbLine
10
-75.2241299303943
20
-3.30440634905542
30
0.000000000000000
11
-75.1241299303943
21
-3.37872726682990
31
0.000000000000000
  0
LINE
  5
F1069D
330
F1069E
100
AcDbEntity
8
Geo
100
AcDbLine
10
-75.1241299303943
20
-3.37872726682990
30
0.000000000000000
11
-75.0241299303943
21
-3.45064156775143
31
0.000000000000000
  0
LINE
  5
F1069F
330
F106A0
100
AcDbEntity
8
Geo
100
AcDbLine
10
-75.0241299303943
20
-3.45064156775143
30
0.000000000000000
11
-74.9241299303943
21
-3.52004272526734
31
0.000000000000000
  0
LINE
  5
F106A1
330
F106A2
100
AcDbEntity
8
Geo
100
AcDbLine
10
-74.9241299303943
20
-3.52004272526734
30
0.000000000000000
11
-74.8241299303943
21
-3.58682793554075
31
0.000000000000000
  0
LINE
  5
F106A3
330
F106A4
100
AcDbEntity
8
Geo
100
AcDbLine
10
-74.8241299303943
20
-3.58682793554075
30
0.000000000000000
11
-74.7241299303943
21
-3.65089826973373
31
0.000000000000000
  0
LINE
  5
F106A5
330
F106A6
100
AcDbEntity
8
Geo
100
AcDbLine
10
-74.7241299303943
20
-3.65089826973373
30
0.000000000000000
11
-74.6241299303943
21
-3.71215882055050
31
0.000000000000000
  0
LINE
  5
F106A7
330
F106A8
100
AcDbEntity
8
Geo
100
AcDbLine
10
-74.6241299303943
20
-3.71215882055050
30
0.000000000000000
11
-74.5241299303943
21
-3.77051884282341
31
0.000000000000000
  0
LINE
  5
F106A9
330
F106AA
100
AcDbEntity
8
Geo
100
AcDbLine
10
-74.5241299303943
20
-3.77051884282341
30
0.000000000000000
11
-74.4241299303943
21
-3.82589188793366
31
0.000000000000000
  0
LINE
  5
F106AB
330
F106AC
100
AcDbEntity
8
Geo
100
AcDbLine
10
-74.4241299303943
20
-3.82589188793366
30
0.000000000000000
11
-74.3241299303943
21
-3.87819593186751
31
0.000000000000000
  0
LINE
  5
F106AD
330
F106AE
100
AcDbEntity
8
Geo
100
AcDbLine
10
-74.3241299303943
20
-3.87819593186751
30
0.000000000000000
11
-74.2241299303943
21
-3.92735349671837
31
0.000000000000000
  0
LINE
  5
F106AF
330
F106B0
100
AcDbEntity
8
Geo
100
AcDbLine
10
-74.2241299303943
20
-3.92735349671837
30
0.000000000000000
11
-74.1241299303943
21
-3.97329176545464
31
0.000000000000000
  0
LINE
  5
F106B1
330
F106B2
100
AcDbEntity
8
Geo
100
AcDbLine
10
-74.1241299303943
20
-3.97329176545464
30
0.000000000000000
11
-74.0241299303943
21
-4.01594268978355
31
0.000000000000000
  0
LINE
  5
F106B3
330
F106B4
100
AcDbEntity
8
Geo
100
AcDbLine
10
-74.0241299303943
20
-4.01594268978355
30
0.000000000000000
11
-73.9241299303943
21
-4.05524309095096
31
0.000000000000000
  0
LINE
  5
F106B5
330
F106B6
100
AcDbEntity
8
Geo
100
AcDbLine
10
-73.9241299303943
20
-4.05524309095096
30
0.000000000000000
11
-73.8241299303943
21
-4.09113475332798
31
0.000000000000000
  0
LINE
  5
F106B7
330
F106B8
100
AcDbEntity
8
Geo
100
AcDbLine
10
-73.8241299303943
20
-4.09113475332798
30
0.000000000000000
11
-73.7241299303943
21
-4.12356451064568
31
0.000000000000000
  0
LINE
  5
F106B9
330
F106BA
100
AcDbEntity
8
Geo
100
AcDbLine
10
-73.7241299303943
20
-4.12356451064568
30
0.000000000000000
11
-73.6241299303943
21
-4.15248432475021
31
0.000000000000000
  0
LINE
  5
F106BB
330
F106BC
100
AcDbEntity
8
Geo
100
AcDbLine
10
-73.6241299303943
20
-4.15248432475021
30
0.000000000000000
11
-73.5241299303943
21
-4.17785135676168
31
0.000000000000000
  0
LINE
  5
F106BD
330
F106BE
100
AcDbEntity
8
Geo
100
AcDbLine
10
-73.5241299303943
20
-4.17785135676168
30
0.000000000000000
11
-73.4241299303943
21
-4.19962803053130
31
0.000000000000000
  0
LINE
  5
F106BF
330
F106C0
100
AcDbEntity
8
Geo
100
AcDbLine
10
-73.4241299303943
20
-4.19962803053130
30
0.000000000000000
11
-73.3241299303943
21
-4.21778208830288
31
0.000000000000000
  0
LINE
  5
F106C1
330
F106C2
100
AcDbEntity
8
Geo
100
AcDbLine
10
-73.3241299303943
20
-4.21778208830288
30
0.000000000000000
11
-73.2241299303943
21
-4.23228663849621
31
0.000000000000000
  0
LINE
  5
F106C3
330
F106C4
100
AcDbEntity
8
Geo
100
AcDbLine
10
-73.2241299303943
20
-4.23228663849621
30
0.000000000000000
11
-73.1241299303943
21
-4.24312019554152
31
0.000000000000000
  0
LINE
  5
F106C5
330
F106C6
100
AcDbEntity
8
Geo
100
AcDbLine
10
-73.1241299303943
20
-4.24312019554152
30
0.000000000000000
11
-73.0241299303943
21
-4.25026671170603
31
0.000000000000000
  0
LINE
  5
F106C7
330
F106C8
100
AcDbEntity
8
Geo
100
AcDbLine
10
-73.0241299303943
20
-4.25026671170603
30
0.000000000000000
11
-72.9241299303943
21
-4.25371560086539
31
0.000000000000000
  0
LINE
  5
F106C9
330
F106CA
100
AcDbEntity
8
Geo
100
AcDbLine
10
-85.1241299303943
20
0.402527630757339
30
0.000000000000000
11
-85.0241299303943
21
0.614897561575791
31
0.000000000000000
  0
LINE
  5
F106CB
330
F106CC
100
AcDbEntity
8
Geo
100
AcDbLine
10
-85.1241299303943
20
-2.00026226307898
30
0.000000000000000
11
-85.0241299303943
21
-2.09167103355682
31
0.000000000000000
  0
LINE
  5
F106CD
330
F106CE
100
AcDbEntity
8
Geo
100
AcDbLine
10
-85.0241299303943
20
0.614897561575791
30
0.000000000000000
11
-84.9241299303943
21
0.659212048223268
31
0.000000000000000
  0
LINE
  5
F106CF
330
F106D0
100
AcDbEntity
8
Geo
100
AcDbLine
10
-85.0241299303943
20
-2.09167103355682
30
0.000000000000000
11
-84.9241299303943
21
-2.18713518225639
31
0.000000000000000
  0
LINE
  5
F106D1
330
F106D2
100
AcDbEntity
8
Geo
100
AcDbLine
10
-84.9241299303943
20
0.659212048223268
30
0.000000000000000
11
-84.8241299303943
21
0.657802748860463
31
0.000000000000000
  0
LINE
  5
F106D3
330
F106D4
100
AcDbEntity
8
Geo
100
AcDbLine
10
-84.9241299303943
20
-2.18713518225639
30
0.000000000000000
11
-84.8241299303943
21
-2.28165514256430
31
0.000000000000000
  0
LINE
  5
F106D5
330
F106D6
100
AcDbEntity
8
Geo
100
AcDbLine
10
-84.8241299303943
20
0.657802748860463
30
0.000000000000000
11
-84.7241299303943
21
0.635714283906219
31
0.000000000000000
  0
LINE
  5
F106D7
330
F106D8
100
AcDbEntity
8
Geo
100
AcDbLine
10
-84.8241299303943
20
-2.28165514256430
30
0.000000000000000
11
-84.7241299303943
21
-2.37407411287863
31
0.000000000000000
  0
LINE
  5
F106D9
330
F106DA
100
AcDbEntity
8
Geo
100
AcDbLine
10
-84.7241299303943
20
0.635714283906219
30
0.000000000000000
11
-84.6241299303943
21
0.610085849189903
31
0.000000000000000
  0
LINE
  5
F106DB
330
F106DC
100
AcDbEntity
8
Geo
100
AcDbLine
10
-84.7241299303943
20
-2.37407411287863
30
0.000000000000000
11
-84.6241299303943
21
-2.46557465764197
31
0.000000000000000
  0
LINE
  5
F106DD
330
F106DE
100
AcDbEntity
8
Geo
100
AcDbLine
10
-84.6241299303943
20
0.610085849189903
30
0.000000000000000
11
-84.5241299303943
21
0.580955408075763
31
0.000000000000000
  0
LINE
  5
F106DF
330
F106E0
100
AcDbEntity
8
Geo
100
AcDbLine
10
-84.6241299303943
20
-2.46557465764197
30
0.000000000000000
11
-84.5241299303943
21
-2.55602123722623
31
0.000000000000000
  0
LINE
  5
F106E1
330
F106E2
100
AcDbEntity
8
Geo
100
AcDbLine
10
-84.5241299303943
20
0.580955408075763
30
0.000000000000000
11
-84.4241299303943
21
0.548366111445195
31
0.000000000000000
  0
LINE
  5
F106E3
330
F106E4
100
AcDbEntity
8
Geo
100
AcDbLine
10
-84.5241299303943
20
-2.55602123722623
30
0.000000000000000
11
-84.4241299303943
21
-2.64527987324046
31
0.000000000000000
  0
LINE
  5
F106E5
330
F106E6
100
AcDbEntity
8
Geo
100
AcDbLine
10
-84.4241299303943
20
0.548366111445195
30
0.000000000000000
11
-84.3241299303943
21
0.512366233777395
31
0.000000000000000
  0
LINE
  5
F106E7
330
F106E8
100
AcDbEntity
8
Geo
100
AcDbLine
10
-84.4241299303943
20
-2.64527987324046
30
0.000000000000000
11
-84.3241299303943
21
-2.73321834699285
31
0.000000000000000
  0
LINE
  5
F106E9
330
F106EA
100
AcDbEntity
8
Geo
100
AcDbLine
10
-84.3241299303943
20
0.512366233777395
30
0.000000000000000
11
-84.2241299303943
21
0.473009101640452
31
0.000000000000000
  0
LINE
  5
F106EB
330
F106EC
100
AcDbEntity
8
Geo
100
AcDbLine
10
-84.3241299303943
20
-2.73321834699285
30
0.000000000000000
11
-84.2241299303943
21
-2.81970639534609
31
0.000000000000000
  0
LINE
  5
F106ED
330
F106EE
100
AcDbEntity
8
Geo
100
AcDbLine
10
-84.2241299303943
20
0.473009101640452
30
0.000000000000000
11
-84.1241299303943
21
0.430353014698767
31
0.000000000000000
  0
LINE
  5
F106EF
330
F106F0
100
AcDbEntity
8
Geo
100
AcDbLine
10
-84.2241299303943
20
-2.81970639534609
30
0.000000000000000
11
-84.1241299303943
21
-2.90461590367596
31
0.000000000000000
  0
LINE
  5
F106F1
330
F106F2
100
AcDbEntity
8
Geo
100
AcDbLine
10
-84.1241299303943
20
0.430353014698767
30
0.000000000000000
11
-84.0241299303943
21
0.384461159353847
31
0.000000000000000
  0
LINE
  5
F106F3
330
F106F4
100
AcDbEntity
8
Geo
100
AcDbLine
10
-84.1241299303943
20
-2.90461590367596
30
0.000000000000000
11
-84.0241299303943
21
-2.98782109564736
31
0.000000000000000
  0
LINE
  5
F106F5
330
F106F6
100
AcDbEntity
8
Geo
100
AcDbLine
10
-84.0241299303943
20
0.384461159353847
30
0.000000000000000
11
-83.9241299303943
21
0.335401515146381
31
0.000000000000000
  0
LINE
  5
F106F7
330
F106F8
100
AcDbEntity
8
Geo
100
AcDbLine
10
-84.0241299303943
20
-2.98782109564736
30
0.000000000000000
11
-83.9241299303943
21
-3.06919871952661
31
0.000000000000000
  0
LINE
  5
F106F9
330
F106FA
100
AcDbEntity
8
Geo
100
AcDbLine
10
-83.9241299303943
20
0.335401515146381
30
0.000000000000000
11
-83.8241299303943
21
0.283246754058235
31
0.000000000000000
  0
LINE
  5
F106FB
330
F106FC
100
AcDbEntity
8
Geo
100
AcDbLine
10
-83.9241299303943
20
-3.06919871952661
30
0.000000000000000
11
-83.8241299303943
21
-3.14862823075408
31
0.000000000000000
  0
LINE
  5
F106FD
330
F106FE
100
AcDbEntity
8
Geo
100
AcDbLine
10
-83.8241299303943
20
0.283246754058235
30
0.000000000000000
11
-83.7241299303943
21
0.228074132863552
31
0.000000000000000
  0
LINE
  5
F106FF
330
F10700
100
AcDbEntity
8
Geo
100
AcDbLine
10
-83.8241299303943
20
-3.14862823075408
30
0.000000000000000
11
-83.7241299303943
21
-3.22599197050666
31
0.000000000000000
  0
LINE
  5
F10701
330
F10702
100
AcDbEntity
8
Geo
100
AcDbLine
10
-83.7241299303943
20
0.228074132863552
30
0.000000000000000
11
-83.6241299303943
21
0.169965378688402
31
0.000000000000000
  0
LINE
  5
F10703
330
F10704
100
AcDbEntity
8
Geo
100
AcDbLine
10
-83.7241299303943
20
-3.22599197050666
30
0.000000000000000
11
-83.6241299303943
21
-3.30117533998561
31
0.000000000000000
  0
LINE
  5
F10705
330
F10706
100
AcDbEntity
8
Geo
100
AcDbLine
10
-83.6241299303943
20
0.169965378688402
30
0.000000000000000
11
-83.5241299303943
21
0.109006567948502
31
0.000000000000000
  0
LINE
  5
F10707
330
F10708
100
AcDbEntity
8
Geo
100
AcDbLine
10
-83.6241299303943
20
-3.30117533998561
30
0.000000000000000
11
-83.5241299303943
21
-3.37406697017162
31
0.000000000000000
  0
LINE
  5
F10709
330
F1070A
100
AcDbEntity
8
Geo
100
AcDbLine
10
-83.5241299303943
20
0.109006567948502
30
0.000000000000000
11
-83.4241299303943
21
0.0452879988443426
31
0.000000000000000
  0
LINE
  5
F1070B
330
F1070C
100
AcDbEntity
8
Geo
100
AcDbLine
10
-83.5241299303943
20
-3.37406697017162
30
0.000000000000000
11
-83.4241299303943
21
-3.44455888679555
31
0.000000000000000
  0
LINE
  5
F1070D
330
F1070E
100
AcDbEntity
8
Geo
100
AcDbLine
10
-83.4241299303943
20
0.0452879988443426
30
0.000000000000000
11
-83.3241299303943
21
-0.0210959423974040
31
0.000000000000000
  0
LINE
  5
F1070F
330
F10710
100
AcDbEntity
8
Geo
100
AcDbLine
10
-83.4241299303943
20
-3.44455888679555
30
0.000000000000000
11
-83.3241299303943
21
-3.51254667028059
31
0.000000000000000
  0
LINE
  5
F10711
330
F10712
100
AcDbEntity
8
Geo
100
AcDbLine
10
-83.3241299303943
20
-0.0210959423974040
30
0.000000000000000
11
-83.2241299303943
21
-0.0900469213380739
31
0.000000000000000
  0
LINE
  5
F10713
330
F10714
100
AcDbEntity
8
Geo
100
AcDbLine
10
-83.3241299303943
20
-3.51254667028059
30
0.000000000000000
11
-83.2241299303943
21
-3.57792961041882
31
0.000000000000000
  0
LINE
  5
F10715
330
F10716
100
AcDbEntity
8
Geo
100
AcDbLine
10
-83.2241299303943
20
-0.0900469213380739
30
0.000000000000000
11
-83.1241299303943
21
-0.161462800989676
31
0.000000000000000
  0
LINE
  5
F10717
330
F10718
100
AcDbEntity
8
Geo
100
AcDbLine
10
-83.2241299303943
20
-3.57792961041882
30
0.000000000000000
11
-83.1241299303943
21
-3.64061085555311
31
0.000000000000000
  0
LINE
  5
F10719
330
F1071A
100
AcDbEntity
8
Geo
100
AcDbLine
10
-83.1241299303943
20
-0.161462800989676
30
0.000000000000000
11
-83.0241299303943
21
-0.235237793110266
31
0.000000000000000
  0
LINE
  5
F1071B
330
F1071C
100
AcDbEntity
8
Geo
100
AcDbLine
10
-83.1241299303943
20
-3.64061085555311
30
0.000000000000000
11
-83.0241299303943
21
-3.70049755604331
31
0.000000000000000
  0
LINE
  5
F1071D
330
F1071E
100
AcDbEntity
8
Geo
100
AcDbLine
10
-83.0241299303943
20
-0.235237793110266
30
0.000000000000000
11
-82.9241299303943
21
-0.311262614907923
31
0.000000000000000
  0
LINE
  5
F1071F
330
F10720
100
AcDbEntity
8
Geo
100
AcDbLine
10
-83.0241299303943
20
-3.70049755604331
30
0.000000000000000
11
-82.9241299303943
21
-3.75750100180434
31
0.000000000000000
  0
LINE
  5
F10721
330
F10722
100
AcDbEntity
8
Geo
100
AcDbLine
10
-82.9241299303943
20
-0.311262614907923
30
0.000000000000000
11
-82.8241299303943
21
-0.389424650921196
31
0.000000000000000
  0
LINE
  5
F10723
330
F10724
100
AcDbEntity
8
Geo
100
AcDbLine
10
-82.9241299303943
20
-3.75750100180434
30
0.000000000000000
11
-82.8241299303943
21
-3.81153675371228
31
0.000000000000000
  0
LINE
  5
F10725
330
F10726
100
AcDbEntity
8
Geo
100
AcDbLine
10
-82.8241299303943
20
-0.389424650921196
30
0.000000000000000
11
-82.7241299303943
21
-0.469608119836223
31
0.000000000000000
  0
LINE
  5
F10727
330
F10728
100
AcDbEntity
8
Geo
100
AcDbLine
10
-82.8241299303943
20
-3.81153675371228
30
0.000000000000000
11
-82.7241299303943
21
-3.86252476868393
31
0.000000000000000
  0
LINE
  5
F10729
330
F1072A
100
AcDbEntity
8
Geo
100
AcDbLine
10
-82.7241299303943
20
-0.469608119836223
30
0.000000000000000
11
-82.6241299303943
21
-0.551694245993433
31
0.000000000000000
  0
LINE
  5
F1072B
330
F1072C
100
AcDbEntity
8
Geo
100
AcDbLine
10
-82.7241299303943
20
-3.86252476868393
30
0.000000000000000
11
-82.6241299303943
21
-3.91038951824453
31
0.000000000000000
  0
LINE
  5
F1072D
330
F1072E
100
AcDbEntity
8
Geo
100
AcDbLine
10
-82.6241299303943
20
-0.551694245993433
30
0.000000000000000
11
-82.5241299303943
21
-0.635561435329764
31
0.000000000000000
  0
LINE
  5
F1072F
330
F10730
100
AcDbEntity
8
Geo
100
AcDbLine
10
-82.6241299303943
20
-3.91038951824453
30
0.000000000000000
11
-82.5241299303943
21
-3.95506010040797
31
0.000000000000000
  0
LINE
  5
F10731
330
F10732
100
AcDbEntity
8
Geo
100
AcDbLine
10
-82.5241299303943
20
-0.635561435329764
30
0.000000000000000
11
-82.4241299303943
21
-0.721085455495773
31
0.000000000000000
  0
LINE
  5
F10733
330
F10734
100
AcDbEntity
8
Geo
100
AcDbLine
10
-82.5241299303943
20
-3.95506010040797
30
0.000000000000000
11
-82.4241299303943
21
-3.99647034470381
31
0.000000000000000
  0
LINE
  5
F10735
330
F10736
100
AcDbEntity
8
Geo
100
AcDbLine
10
-82.4241299303943
20
-0.721085455495773
30
0.000000000000000
11
-82.3241299303943
21
-0.808139619880842
31
0.000000000000000
  0
LINE
  5
F10737
330
F10738
100
AcDbEntity
8
Geo
100
AcDbLine
10
-82.4241299303943
20
-3.99647034470381
30
0.000000000000000
11
-82.3241299303943
21
-4.03455891019548
31
0.000000000000000
  0
LINE
  5
F10739
330
F1073A
100
AcDbEntity
8
Geo
100
AcDbLine
10
-82.3241299303943
20
-0.808139619880842
30
0.000000000000000
11
-82.2241299303943
21
-0.896594975273878
31
0.000000000000000
  0
LINE
  5
F1073B
330
F1073C
100
AcDbEntity
8
Geo
100
AcDbLine
10
-82.3241299303943
20
-4.03455891019548
30
0.000000000000000
11
-82.2241299303943
21
-4.06926937634459
31
0.000000000000000
  0
LINE
  5
F1073D
330
F1073E
100
AcDbEntity
8
Geo
100
AcDbLine
10
-82.2241299303943
20
-0.896594975273878
30
0.000000000000000
11
-82.1241299303943
21
-0.986320492881522
31
0.000000000000000
  0
LINE
  5
F1073F
330
F10740
100
AcDbEntity
8
Geo
100
AcDbLine
10
-82.2241299303943
20
-4.06926937634459
30
0.000000000000000
11
-82.1241299303943
21
-4.10055032658650
31
0.000000000000000
  0
LINE
  5
F10741
330
F10742
100
AcDbEntity
8
Geo
100
AcDbLine
10
-82.1241299303943
20
-0.986320492881522
30
0.000000000000000
11
-82.0241299303943
21
-1.07718326242091
31
0.000000000000000
  0
LINE
  5
F10743
330
F10744
100
AcDbEntity
8
Geo
100
AcDbLine
10
-82.1241299303943
20
-4.10055032658650
30
0.000000000000000
11
-82.0241299303943
21
-4.12835542449368
31
0.000000000000000
  0
LINE
  5
F10745
330
F10746
100
AcDbEntity
8
Geo
100
AcDbLine
10
-82.0241299303943
20
-1.07718326242091
30
0.000000000000000
11
-81.9241299303943
21
-1.16904868899951
31
0.000000000000000
  0
LINE
  5
F10747
330
F10748
100
AcDbEntity
8
Geo
100
AcDbLine
10
-82.0241299303943
20
-4.12835542449368
30
0.000000000000000
11
-81.9241299303943
21
-4.15264348241377
31
0.000000000000000
  0
LINE
  5
F10749
330
F1074A
100
AcDbEntity
8
Geo
100
AcDbLine
10
-81.9241299303943
20
-1.16904868899951
30
0.000000000000000
11
-81.8241299303943
21
-1.26178069249030
31
0.000000000000000
  0
LINE
  5
F1074B
330
F1074C
100
AcDbEntity
8
Geo
100
AcDbLine
10
-81.9241299303943
20
-4.15264348241377
30
0.000000000000000
11
-81.8241299303943
21
-4.17337852248076
31
0.000000000000000
  0
LINE
  5
F1074D
330
F1074E
100
AcDbEntity
8
Geo
100
AcDbLine
10
-81.8241299303943
20
-1.26178069249030
30
0.000000000000000
11
-81.7241299303943
21
-1.35524190910713
31
0.000000000000000
  0
LINE
  5
F1074F
330
F10750
100
AcDbEntity
8
Geo
100
AcDbLine
10
-81.8241299303943
20
-4.17337852248076
30
0.000000000000000
11
-81.7241299303943
21
-4.19052982990903
31
0.000000000000000
  0
LINE
  5
F10751
330
F10752
100
AcDbEntity
8
Geo
100
AcDbLine
10
-81.7241299303943
20
-1.35524190910713
30
0.000000000000000
11
-81.6241299303943
21
-1.44929389488145
31
0.000000000000000
  0
LINE
  5
F10753
330
F10754
100
AcDbEntity
8
Geo
100
AcDbLine
10
-81.7241299303943
20
-4.19052982990903
30
0.000000000000000
11
-81.6241299303943
21
-4.20407199849102
31
0.000000000000000
  0
LINE
  5
F10755
330
F10756
100
AcDbEntity
8
Geo
100
AcDbLine
10
-81.6241299303943
20
-1.44929389488145
30
0.000000000000000
11
-81.5241299303943
21
-1.54379733073921
31
0.000000000000000
  0
LINE
  5
F10757
330
F10758
100
AcDbEntity
8
Geo
100
AcDbLine
10
-81.6241299303943
20
-4.20407199849102
30
0.000000000000000
11
-81.5241299303943
21
-4.21398496823150
31
0.000000000000000
  0
LINE
  5
F10759
330
F1075A
100
AcDbEntity
8
Geo
100
AcDbLine
10
-81.5241299303943
20
-1.54379733073921
30
0.000000000000000
11
-81.4241299303943
21
-1.63861222887396
31
0.000000000000000
  0
LINE
  5
F1075B
330
F1075C
100
AcDbEntity
8
Geo
100
AcDbLine
10
-81.5241299303943
20
-4.21398496823150
30
0.000000000000000
11
-81.4241299303943
21
-4.22025405506234
31
0.000000000000000
  0
LINE
  5
F1075D
330
F1075E
100
AcDbEntity
8
Geo
100
AcDbLine
10
-81.4241299303943
20
-1.63861222887396
30
0.000000000000000
11
-81.3241299303943
21
-1.73359814011065
31
0.000000000000000
  0
LINE
  5
F1075F
330
F10760
100
AcDbEntity
8
Geo
100
AcDbLine
10
-81.4241299303943
20
-4.22025405506234
30
0.000000000000000
11
-81.3241299303943
21
-4.22286997259406
31
0.000000000000000
  0
LINE
  5
F10761
330
F10762
100
AcDbEntity
8
Geo
100
AcDbLine
10
-81.3241299303943
20
-1.73359814011065
30
0.000000000000000
11
-81.2241299303943
21
-1.82861436195273
31
0.000000000000000
  0
LINE
  5
F10763
330
F10764
100
AcDbEntity
8
Geo
100
AcDbLine
10
-81.2241299303943
20
-1.82861436195273
30
0.000000000000000
11
-81.1241299303943
21
-1.92352014700463
31
0.000000000000000
  0
LINE
  5
F10765
330
F10766
100
AcDbEntity
8
Geo
100
AcDbLine
10
-81.2241299303943
20
0.713708196219843
30
0.000000000000000
11
-81.1241299303943
21
0.709011567462947
31
0.000000000000000
  0
LINE
  5
F10767
330
F10768
100
AcDbEntity
8
Geo
100
AcDbLine
10
-81.1241299303943
20
-1.92352014700463
30
0.000000000000000
11
-81.0241299303943
21
-2.01817491146060
31
0.000000000000000
  0
LINE
  5
F10769
330
F1076A
100
AcDbEntity
8
Geo
100
AcDbLine
10
-81.1241299303943
20
0.709011567462947
30
0.000000000000000
11
-81.0241299303943
21
0.700666393781084
31
0.000000000000000
  0
LINE
  5
F1076B
330
F1076C
100
AcDbEntity
8
Geo
100
AcDbLine
10
-81.0241299303943
20
-2.01817491146060
30
0.000000000000000
11
-80.9241299303943
21
-2.11243844335138
31
0.000000000000000
  0
LINE
  5
F1076D
330
F1076E
100
AcDbEntity
8
Geo
100
AcDbLine
10
-81.0241299303943
20
0.700666393781084
30
0.000000000000000
11
-80.9241299303943
21
0.688685036868264
31
0.000000000000000
  0
LINE
  5
F1076F
330
F10770
100
AcDbEntity
8
Geo
100
AcDbLine
10
-80.9241299303943
20
-2.11243844335138
30
0.000000000000000
11
-80.8241299303943
21
-2.20617111023994
31
0.000000000000000
  0
LINE
  5
F10771
330
F10772
100
AcDbEntity
8
Geo
100
AcDbLine
10
-80.9241299303943
20
0.688685036868264
30
0.000000000000000
11
-80.8241299303943
21
0.673085244691619
31
0.000000000000000
  0
LINE
  5
F10773
330
F10774
100
AcDbEntity
8
Geo
100
AcDbLine
10
-80.8241299303943
20
-2.20617111023994
30
0.000000000000000
11
-80.7241299303943
21
-2.29923406605884
31
0.000000000000000
  0
LINE
  5
F10775
330
F10776
100
AcDbEntity
8
Geo
100
AcDbLine
10
-80.8241299303943
20
0.673085244691619
30
0.000000000000000
11
-80.7241299303943
21
0.653890125201323
31
0.000000000000000
  0
LINE
  5
F10777
330
F10778
100
AcDbEntity
8
Geo
100
AcDbLine
10
-80.7241299303943
20
-2.29923406605884
30
0.000000000000000
11
-80.6241299303943
21
-2.39148945678269
31
0.000000000000000
  0
LINE
  5
F10779
330
F1077A
100
AcDbEntity
8
Geo
100
AcDbLine
10
-80.7241299303943
20
0.653890125201323
30
0.000000000000000
11
-80.6241299303943
21
0.631128112100845
31
0.000000000000000
  0
LINE
  5
F1077B
330
F1077C
100
AcDbEntity
8
Geo
100
AcDbLine
10
-80.6241299303943
20
-2.39148945678269
30
0.000000000000000
11
-80.5241299303943
21
-2.48280062463115
31
0.000000000000000
  0
LINE
  5
F1077D
330
F1077E
100
AcDbEntity
8
Geo
100
AcDbLine
10
-80.6241299303943
20
0.631128112100845
30
0.000000000000000
11
-80.5241299303943
21
0.604832922728130
31
0.000000000000000
  0
LINE
  5
F1077F
330
F10780
100
AcDbEntity
8
Geo
100
AcDbLine
10
-80.5241299303943
20
-2.48280062463115
30
0.000000000000000
11
-80.4241299303943
21
-2.57303231049989
31
0.000000000000000
  0
LINE
  5
F10781
330
F10782
100
AcDbEntity
8
Geo
100
AcDbLine
10
-80.5241299303943
20
0.604832922728130
30
0.000000000000000
11
-80.4241299303943
21
0.575043508110162
31
0.000000000000000
  0
LINE
  5
F10783
330
F10784
100
AcDbEntity
8
Geo
100
AcDbLine
10
-80.4241299303943
20
-2.57303231049989
30
0.000000000000000
11
-80.3241299303943
21
-2.66205085431972
31
0.000000000000000
  0
LINE
  5
F10785
330
F10786
100
AcDbEntity
8
Geo
100
AcDbLine
10
-80.4241299303943
20
0.575043508110162
30
0.000000000000000
11
-80.3241299303943
21
0.541803995264856
31
0.000000000000000
  0
LINE
  5
F10787
330
F10788
100
AcDbEntity
8
Geo
100
AcDbLine
10
-80.3241299303943
20
-2.66205085431972
30
0.000000000000000
11
-80.2241299303943
21
-2.74972439304706
31
0.000000000000000
  0
LINE
  5
F10789
330
F1078A
100
AcDbEntity
8
Geo
100
AcDbLine
10
-80.3241299303943
20
0.541803995264856
30
0.000000000000000
11
-80.2241299303943
21
0.505163621835776
31
0.000000000000000
  0
LINE
  5
F1078B
330
F1078C
100
AcDbEntity
8
Geo
100
AcDbLine
10
-80.2241299303943
20
-2.74972439304706
30
0.000000000000000
11
-80.1241299303943
21
-2.83592305599247
31
0.000000000000000
  0
LINE
  5
F1078D
330
F1078E
100
AcDbEntity
8
Geo
100
AcDbLine
10
-80.2241299303943
20
0.505163621835776
30
0.000000000000000
11
-80.1241299303943
21
0.465176663156476
31
0.000000000000000
  0
LINE
  5
F1078F
330
F10790
100
AcDbEntity
8
Geo
100
AcDbLine
10
-80.1241299303943
20
-2.83592305599247
30
0.000000000000000
11
-80.0241299303943
21
-2.92051915719793
31
0.000000000000000
  0
LINE
  5
F10791
330
F10792
100
AcDbEntity
8
Geo
100
AcDbLine
10
-80.1241299303943
20
0.465176663156476
30
0.000000000000000
11
-80.0241299303943
21
0.421902351852529
31
0.000000000000000
  0
LINE
  5
F10793
330
F10794
100
AcDbEntity
8
Geo
100
AcDbLine
10
-80.0241299303943
20
-2.92051915719793
30
0.000000000000000
11
-79.9241299303943
21
-3.00338738457789
31
0.000000000000000
  0
LINE
  5
F10795
330
F10796
100
AcDbEntity
8
Geo
100
AcDbLine
10
-80.0241299303943
20
0.421902351852529
30
0.000000000000000
11
-79.9241299303943
21
0.375404790100320
31
0.000000000000000
  0
LINE
  5
F10797
330
F10798
100
AcDbEntity
8
Geo
100
AcDbLine
10
-79.9241299303943
20
-3.00338738457789
30
0.000000000000000
11
-79.8241299303943
21
-3.08440498554383
31
0.000000000000000
  0
LINE
  5
F10799
330
F1079A
100
AcDbEntity
8
Geo
100
AcDbLine
10
-79.9241299303943
20
0.375404790100320
30
0.000000000000000
11
-79.8241299303943
21
0.325752854672584
31
0.000000000000000
  0
LINE
  5
F1079B
330
F1079C
100
AcDbEntity
8
Geo
100
AcDbLine
10
-79.8241299303943
20
-3.08440498554383
30
0.000000000000000
11
-79.7241299303943
21
-3.16345194883755
31
0.000000000000000
  0
LINE
  5
F1079D
330
F1079E
100
AcDbEntity
8
Geo
100
AcDbLine
10
-79.8241299303943
20
0.325752854672584
30
0.000000000000000
11
-79.7241299303943
21
0.273020094911339
31
0.000000000000000
  0
LINE
  5
F1079F
330
F107A0
100
AcDbEntity
8
Geo
100
AcDbLine
10
-79.7241299303943
20
-3.16345194883755
30
0.000000000000000
11
-79.6241299303943
21
-3.24041118230366
31
0.000000000000000
  0
LINE
  5
F107A1
330
F107A2
100
AcDbEntity
8
Geo
100
AcDbLine
10
-79.7241299303943
20
0.273020094911339
30
0.000000000000000
11
-79.6241299303943
21
0.217284623779348
31
0.000000000000000
  0
LINE
  5
F107A3
330
F107A4
100
AcDbEntity
8
Geo
100
AcDbLine
10
-79.6241299303943
20
-3.24041118230366
30
0.000000000000000
11
-79.5241299303943
21
-3.31516868633802
31
0.000000000000000
  0
LINE
  5
F107A5
330
F107A6
100
AcDbEntity
8
Geo
100
AcDbLine
10
-79.6241299303943
20
0.217284623779348
30
0.000000000000000
11
-79.5241299303943
21
0.158629002151500
31
0.000000000000000
  0
LINE
  5
F107A7
330
F107A8
100
AcDbEntity
8
Geo
100
AcDbLine
10
-79.5241299303943
20
-3.31516868633802
30
0.000000000000000
11
-79.4241299303943
21
-3.38761372275519
31
0.000000000000000
  0
LINE
  5
F107A9
330
F107AA
100
AcDbEntity
8
Geo
100
AcDbLine
10
-79.5241299303943
20
0.158629002151500
30
0.000000000000000
11
-79.4241299303943
21
0.0971401165174974
31
0.000000000000000
  0
LINE
  5
F107AB
330
F107AC
100
AcDbEntity
8
Geo
100
AcDbLine
10
-79.4241299303943
20
-3.38761372275519
30
0.000000000000000
11
-79.3241299303943
21
-3.45763897882476
31
0.000000000000000
  0
LINE
  5
F107AD
330
F107AE
100
AcDbEntity
8
Geo
100
AcDbLine
10
-79.4241299303943
20
0.0971401165174974
30
0.000000000000000
11
-79.3241299303943
21
0.0329090502770291
31
0.000000000000000
  0
LINE
  5
F107AF
330
F107B0
100
AcDbEntity
8
Geo
100
AcDbLine
10
-79.3241299303943
20
-3.45763897882476
30
0.000000000000000
11
-79.2241299303943
21
-3.52514072623355
31
0.000000000000000
  0
LINE
  5
F107B1
330
F107B2
100
AcDbEntity
8
Geo
100
AcDbLine
10
-79.3241299303943
20
0.0329090502770291
30
0.000000000000000
11
-79.2241299303943
21
-0.0339690511819486
31
0.000000000000000
  0
LINE
  5
F107B3
330
F107B4
100
AcDbEntity
8
Geo
100
AcDbLine
10
-79.2241299303943
20
-3.52514072623355
30
0.000000000000000
11
-79.1241299303943
21
-3.59001897473818
31
0.000000000000000
  0
LINE
  5
F107B5
330
F107B6
100
AcDbEntity
8
Geo
100
AcDbLine
10
-79.2241299303943
20
-0.0339690511819486
30
0.000000000000000
11
-79.1241299303943
21
-0.103395121421938
31
0.000000000000000
  0
LINE
  5
F107B7
330
F107B8
100
AcDbEntity
8
Geo
100
AcDbLine
10
-79.1241299303943
20
-3.59001897473818
30
0.000000000000000
11
-79.0241299303943
21
-3.65217762028052
31
0.000000000000000
  0
LINE
  5
F107B9
330
F107BA
100
AcDbEntity
8
Geo
100
AcDbLine
10
-79.1241299303943
20
-0.103395121421938
30
0.000000000000000
11
-79.0241299303943
21
-0.175266319702875
31
0.000000000000000
  0
LINE
  5
F107BB
330
F107BC
100
AcDbEntity
8
Geo
100
AcDbLine
10
-79.0241299303943
20
-3.65217762028052
30
0.000000000000000
11
-78.9241299303943
21
-3.71152458734648
31
0.000000000000000
  0
LINE
  5
F107BD
330
F107BE
100
AcDbEntity
8
Geo
100
AcDbLine
10
-79.0241299303943
20
-0.175266319702875
30
0.000000000000000
11
-78.9241299303943
21
-0.249476183319974
31
0.000000000000000
  0
LINE
  5
F107BF
330
F107C0
100
AcDbEntity
8
Geo
100
AcDbLine
10
-78.9241299303943
20
-3.71152458734648
30
0.000000000000000
11
-78.8241299303943
21
-3.76797196535733
31
0.000000000000000
  0
LINE
  5
F107C1
330
F107C2
100
AcDbEntity
8
Geo
100
AcDbLine
10
-78.9241299303943
20
-0.249476183319974
30
0.000000000000000
11
-78.8241299303943
21
-0.325914785306775
31
0.000000000000000
  0
LINE
  5
F107C3
330
F107C4
100
AcDbEntity
8
Geo
100
AcDbLine
10
-78.8241299303943
20
-3.76797196535733
30
0.000000000000000
11
-78.7241299303943
21
-3.82143613889153
31
0.000000000000000
  0
LINE
  5
F107C5
330
F107C6
100
AcDbEntity
8
Geo
100
AcDbLine
10
-78.8241299303943
20
-0.325914785306775
30
0.000000000000000
11
-78.7241299303943
21
-0.404468897269816
31
0.000000000000000
  0
LINE
  5
F107C7
330
F107C8
100
AcDbEntity
8
Geo
100
AcDbLine
10
-78.7241299303943
20
-3.82143613889153
30
0.000000000000000
11
-78.6241299303943
21
-3.87183791154411
31
0.000000000000000
  0
LINE
  5
F107C9
330
F107CA
100
AcDbEntity
8
Geo
100
AcDbLine
10
-78.7241299303943
20
-0.404468897269816
30
0.000000000000000
11
-78.6241299303943
21
-0.485022157113683
31
0.000000000000000
  0
LINE
  5
F107CB
330
F107CC
100
AcDbEntity
8
Geo
100
AcDbLine
10
-78.6241299303943
20
-3.87183791154411
30
0.000000000000000
11
-78.5241299303943
21
-3.91910262324024
31
0.000000000000000
  0
LINE
  5
F107CD
330
F107CE
100
AcDbEntity
8
Geo
100
AcDbLine
10
-78.6241299303943
20
-0.485022157113683
30
0.000000000000000
11
-78.5241299303943
21
-0.567455241408025
31
0.000000000000000
  0
LINE
  5
F107CF
330
F107D0
100
AcDbEntity
8
Geo
100
AcDbLine
10
-78.5241299303943
20
-3.91910262324024
30
0.000000000000000
11
-78.4241299303943
21
-3.96316026082905
31
0.000000000000000
  0
LINE
  5
F107D1
330
F107D2
100
AcDbEntity
8
Geo
100
AcDbLine
10
-78.5241299303943
20
-0.567455241408025
30
0.000000000000000
11
-78.4241299303943
21
-0.651646042141177
31
0.000000000000000
  0
LINE
  5
F107D3
330
F107D4
100
AcDbEntity
8
Geo
100
AcDbLine
10
-78.4241299303943
20
-3.96316026082905
30
0.000000000000000
11
-78.3241299303943
21
-4.00394556179404
31
0.000000000000000
  0
LINE
  5
F107D5
330
F107D6
100
AcDbEntity
8
Geo
100
AcDbLine
10
-78.4241299303943
20
-0.651646042141177
30
0.000000000000000
11
-78.3241299303943
21
-0.737469847598591
31
0.000000000000000
  0
LINE
  5
F107D7
330
F107D8
100
AcDbEntity
8
Geo
100
AcDbLine
10
-78.3241299303943
20
-4.00394556179404
30
0.000000000000000
11
-78.2241299303943
21
-4.04139811092631
31
0.000000000000000
  0
LINE
  5
F107D9
330
F107DA
100
AcDbEntity
8
Geo
100
AcDbLine
10
-78.3241299303943
20
-0.737469847598591
30
0.000000000000000
11
-78.2241299303943
21
-0.824799527098121
31
0.000000000000000
  0
LINE
  5
F107DB
330
F107DC
100
AcDbEntity
8
Geo
100
AcDbLine
10
-78.2241299303943
20
-4.04139811092631
30
0.000000000000000
11
-78.1241299303943
21
-4.07546242981761
31
0.000000000000000
  0
LINE
  5
F107DD
330
F107DE
100
AcDbEntity
8
Geo
100
AcDbLine
10
-78.2241299303943
20
-0.824799527098121
30
0.000000000000000
11
-78.1241299303943
21
-0.913505719308521
31
0.000000000000000
  0
LINE
  5
F107DF
330
F107E0
100
AcDbEntity
8
Geo
100
AcDbLine
10
-78.1241299303943
20
-4.07546242981761
30
0.000000000000000
11
-78.0241299303943
21
-4.10608805904033
31
0.000000000000000
  0
LINE
  5
F107E1
330
F107E2
100
AcDbEntity
8
Geo
100
AcDbLine
10
-78.1241299303943
20
-0.913505719308521
30
0.000000000000000
11
-78.0241299303943
21
-1.00345702387221
31
0.000000000000000
  0
LINE
  5
F107E3
330
F107E4
100
AcDbEntity
8
Geo
100
AcDbLine
10
-78.0241299303943
20
-4.10608805904033
30
0.000000000000000
11
-77.9241299303943
21
-4.13322963289303
31
0.000000000000000
  0
LINE
  5
F107E5
330
F107E6
100
AcDbEntity
8
Geo
100
AcDbLine
10
-78.0241299303943
20
-1.00345702387221
30
0.000000000000000
11
-77.9241299303943
21
-1.09452019604842
31
0.000000000000000
  0
LINE
  5
F107E7
330
F107E8
100
AcDbEntity
8
Geo
100
AcDbLine
10
-77.9241299303943
20
-4.13322963289303
30
0.000000000000000
11
-77.8241299303943
21
-4.15684694660060
31
0.000000000000000
  0
LINE
  5
F107E9
330
F107EA
100
AcDbEntity
8
Geo
100
AcDbLine
10
-77.9241299303943
20
-1.09452019604842
30
0.000000000000000
11
-77.8241299303943
21
-1.18656034408847
31
0.000000000000000
  0
LINE
  5
F107EB
330
F107EC
100
AcDbEntity
8
Geo
100
AcDbLine
10
-77.8241299303943
20
-4.15684694660060
30
0.000000000000000
11
-77.7241299303943
21
-4.17690501586950
31
0.000000000000000
  0
LINE
  5
F107ED
330
F107EE
100
AcDbEntity
8
Geo
100
AcDbLine
10
-77.8241299303943
20
-1.18656034408847
30
0.000000000000000
11
-77.7241299303943
21
-1.27944112905071
31
0.000000000000000
  0
LINE
  5
F107EF
330
F107F0
100
AcDbEntity
8
Geo
100
AcDbLine
10
-77.7241299303943
20
-4.17690501586950
30
0.000000000000000
11
-77.6241299303943
21
-4.19337412870998
31
0.000000000000000
  0
LINE
  5
F107F1
330
F107F2
100
AcDbEntity
8
Geo
100
AcDbLine
10
-77.7241299303943
20
-1.27944112905071
30
0.000000000000000
11
-77.6241299303943
21
-1.37302496675917
31
0.000000000000000
  0
LINE
  5
F107F3
330
F107F4
100
AcDbEntity
8
Geo
100
AcDbLine
10
-77.6241299303943
20
-4.19337412870998
30
0.000000000000000
11
-77.5241299303943
21
-4.20622988944838
31
0.000000000000000
  0
LINE
  5
F107F5
330
F107F6
100
AcDbEntity
8
Geo
100
AcDbLine
10
-77.6241299303943
20
-1.37302496675917
30
0.000000000000000
11
-77.5241299303943
21
-1.46717323160687
31
0.000000000000000
  0
LINE
  5
F107F7
330
F107F8
100
AcDbEntity
8
Geo
100
AcDbLine
10
-77.5241299303943
20
-4.20622988944838
30
0.000000000000000
11
-77.4241299303943
21
-4.21545325486443
31
0.000000000000000
  0
LINE
  5
F107F9
330
F107FA
100
AcDbEntity
8
Geo
100
AcDbLine
10
-77.5241299303943
20
-1.46717323160687
30
0.000000000000000
11
-77.4241299303943
21
-1.56174646190170
31
0.000000000000000
  0
LINE
  5
F107FB
330
F107FC
100
AcDbEntity
8
Geo
100
AcDbLine
10
-77.4241299303943
20
-4.21545325486443
30
0.000000000000000
11
-77.3241299303943
21
-4.22103056239992
31
0.000000000000000
  0
LINE
  5
F107FD
330
F107FE
100
AcDbEntity
8
Geo
100
AcDbLine
10
-77.4241299303943
20
-1.56174646190170
30
0.000000000000000
11
-77.3241299303943
21
-1.65660456645082
31
0.000000000000000
  0
LINE
  5
F107FF
330
F10800
100
AcDbEntity
8
Geo
100
AcDbLine
10
-77.3241299303943
20
-4.22103056239992
30
0.000000000000000
11
-77.2241299303943
21
-4.22295355039706
31
0.000000000000000
  0
LINE
  5
F10801
330
F10802
100
AcDbEntity
8
Geo
100
AcDbLine
10
-77.3241299303943
20
-1.65660456645082
30
0.000000000000000
11
-77.2241299303943
21
-1.75160703207755
31
0.000000000000000
  0
LINE
  5
F10803
330
F10804
100
AcDbEntity
8
Geo
100
AcDbLine
10
-77.2241299303943
20
-1.75160703207755
30
0.000000000000000
11
-77.1241299303943
21
-1.84661313176338
31
0.000000000000000
  0
LINE
  5
F10805
330
F10806
100
AcDbEntity
8
Geo
100
AcDbLine
10
-77.1241299303943
20
0.713098720684583
30
0.000000000000000
11
-77.0241299303943
21
0.707709941404680
31
0.000000000000000
  0
LINE
  5
F10807
330
F10808
100
AcDbEntity
8
Geo
100
AcDbLine
10
-77.1241299303943
20
-1.84661313176338
30
0.000000000000000
11
-77.0241299303943
21
-1.94148213310665
31
0.000000000000000
  0
LINE
  5
F10809
330
F1080A
100
AcDbEntity
8
Geo
100
AcDbLine
10
-77.0241299303943
20
0.707709941404680
30
0.000000000000000
11
-76.9241299303943
21
0.698674545296655
31
0.000000000000000
  0
LINE
  5
F1080B
330
F1080C
100
AcDbEntity
8
Geo
100
AcDbLine
10
-77.0241299303943
20
-1.94148213310665
30
0.000000000000000
11
-76.9241299303943
21
-2.03607350678929
31
0.000000000000000
  0
LINE
  5
F1080D
330
F1080E
100
AcDbEntity
8
Geo
100
AcDbLine
10
-76.9241299303943
20
0.698674545296655
30
0.000000000000000
11
-76.8241299303943
21
0.686005916480033
31
0.000000000000000
  0
LINE
  5
F1080F
330
F10810
100
AcDbEntity
8
Geo
100
AcDbLine
10
-76.9241299303943
20
-2.03607350678929
30
0.000000000000000
11
-76.8241299303943
21
-2.13024713474267
31
0.000000000000000
  0
LINE
  5
F10811
330
F10812
100
AcDbEntity
8
Geo
100
AcDbLine
10
-76.8241299303943
20
0.686005916480033
30
0.000000000000000
11
-76.7241299303943
21
0.669722820976841
31
0.000000000000000
  0
LINE
  5
F10813
330
F10814
100
AcDbEntity
8
Geo
100
AcDbLine
10
-76.8241299303943
20
-2.13024713474267
30
0.000000000000000
11
-76.7241299303943
21
-2.22386351770437
31
0.000000000000000
  0
LINE
  5
F10815
330
F10816
100
AcDbEntity
8
Geo
100
AcDbLine
10
-76.7241299303943
20
0.669722820976841
30
0.000000000000000
11
-76.6241299303943
21
0.649849378913512
31
0.000000000000000
  0
LINE
  5
F10817
330
F10818
100
AcDbEntity
8
Geo
100
AcDbLine
10
-76.7241299303943
20
-2.22386351770437
30
0.000000000000000
11
-76.6241299303943
21
-2.31678398185813
31
0.000000000000000
  0
LINE
  5
F10819
330
F1081A
100
AcDbEntity
8
Geo
100
AcDbLine
10
-76.6241299303943
20
0.649849378913512
30
0.000000000000000
11
-76.5241299303943
21
0.626415028791785
31
0.000000000000000
  0
LINE
  5
F1081B
330
F1081C
100
AcDbEntity
8
Geo
100
AcDbLine
10
-76.6241299303943
20
-2.31678398185813
30
0.000000000000000
11
-76.5241299303943
21
-2.40887088425130
31
0.000000000000000
  0
LINE
  5
F1081D
330
F1081E
100
AcDbEntity
8
Geo
100
AcDbLine
10
-76.5241299303943
20
0.626415028791785
30
0.000000000000000
11
-76.4241299303943
21
0.599454483881488
31
0.000000000000000
  0
LINE
  5
F1081F
330
F10820
100
AcDbEntity
8
Geo
100
AcDbLine
10
-76.5241299303943
20
-2.40887088425130
30
0.000000000000000
11
-76.4241299303943
21
-2.49998781668505
31
0.000000000000000
  0
LINE
  5
F10821
330
F10822
100
AcDbEntity
8
Geo
100
AcDbLine
10
-76.4241299303943
20
0.599454483881488
30
0.000000000000000
11
-76.3241299303943
21
0.569007680799826
31
0.000000000000000
  0
LINE
  5
F10823
330
F10824
100
AcDbEntity
8
Geo
100
AcDbLine
10
-76.4241299303943
20
-2.49998781668505
30
0.000000000000000
11
-76.3241299303943
21
-2.58999980777570
31
0.000000000000000
  0
LINE
  5
F10825
330
F10826
100
AcDbEntity
8
Geo
100
AcDbLine
10
-76.3241299303943
20
0.569007680799826
30
0.000000000000000
11
-76.2241299303943
21
0.535119720353321
31
0.000000000000000
  0
LINE
  5
F10827
330
F10828
100
AcDbEntity
8
Geo
100
AcDbLine
10
-76.3241299303943
20
-2.58999980777570
30
0.000000000000000
11
-76.2241299303943
21
-2.67877352288762
31
0.000000000000000
  0
LINE
  5
F10829
330
F1082A
100
AcDbEntity
8
Geo
100
AcDbLine
10
-76.2241299303943
20
0.535119720353321
30
0.000000000000000
11
-76.1241299303943
21
0.497840800730054
31
0.000000000000000
  0
LINE
  5
F1082B
330
F1082C
100
AcDbEntity
8
Geo
100
AcDbLine
10
-76.2241299303943
20
-2.67877352288762
30
0.000000000000000
11
-76.1241299303943
21
-2.76617746164165
31
0.000000000000000
  0
LINE
  5
F1082D
330
F1082E
100
AcDbEntity
8
Geo
100
AcDbLine
10
-76.1241299303943
20
0.497840800730054
30
0.000000000000000
11
-76.0241299303943
21
0.457226143141156
31
0.000000000000000
  0
LINE
  5
F1082F
330
F10830
100
AcDbEntity
8
Geo
100
AcDbLine
10
-76.1241299303943
20
-2.76617746164165
30
0.000000000000000
11
-76.0241299303943
21
-2.85208215270642
31
0.000000000000000
  0
LINE
  5
F10831
330
F10832
100
AcDbEntity
8
Geo
100
AcDbLine
10
-76.0241299303943
20
0.457226143141156
30
0.000000000000000
11
-75.9241299303943
21
0.413335910021712
31
0.000000000000000
  0
LINE
  5
F10833
330
F10834
100
AcDbEntity
8
Geo
100
AcDbLine
10
-76.0241299303943
20
-2.85208215270642
30
0.000000000000000
11
-75.9241299303943
21
-2.93636034558404
31
0.000000000000000
  0
LINE
  5
F10835
330
F10836
100
AcDbEntity
8
Geo
100
AcDbLine
10
-75.9241299303943
20
0.413335910021712
30
0.000000000000000
11
-75.8241299303943
21
0.366235115912226
31
0.000000000000000
  0
LINE
  5
F10837
330
F10838
100
AcDbEntity
8
Geo
100
AcDbLine
10
-75.9241299303943
20
-2.93636034558404
30
0.000000000000000
11
-75.8241299303943
21
-3.01888719910610
31
0.000000000000000
  0
LINE
  5
F10839
330
F1083A
100
AcDbEntity
8
Geo
100
AcDbLine
10
-75.8241299303943
20
0.366235115912226
30
0.000000000000000
11
-75.7241299303943
21
0.315993531152672
31
0.000000000000000
  0
LINE
  5
F1083B
330
F1083C
100
AcDbEntity
8
Geo
100
AcDbLine
10
-75.8241299303943
20
-3.01888719910610
30
0.000000000000000
11
-75.7241299303943
21
-3.09954046636072
31
0.000000000000000
  0
LINE
  5
F1083D
330
F1083E
100
AcDbEntity
8
Geo
100
AcDbLine
10
-75.7241299303943
20
0.315993531152672
30
0.000000000000000
11
-75.6241299303943
21
0.262685578531793
31
0.000000000000000
  0
LINE
  5
F1083F
330
F10840
100
AcDbEntity
8
Geo
100
AcDbLine
10
-75.7241299303943
20
-3.09954046636072
30
0.000000000000000
11
-75.6241299303943
21
-3.17820067577670
31
0.000000000000000
  0
LINE
  5
F10841
330
F10842
100
AcDbEntity
8
Geo
100
AcDbLine
10
-75.6241299303943
20
0.262685578531793
30
0.000000000000000
11
-75.5241299303943
21
0.206390223044728
31
0.000000000000000
  0
LINE
  5
F10843
330
F10844
100
AcDbEntity
8
Geo
100
AcDbLine
10
-75.6241299303943
20
-3.17820067577670
30
0.000000000000000
11
-75.5241299303943
21
-3.25475130809663
31
0.000000000000000
  0
LINE
  5
F10845
330
F10846
100
AcDbEntity
8
Geo
100
AcDbLine
10
-75.5241299303943
20
0.206390223044728
30
0.000000000000000
11
-75.4241299303943
21
0.147190854922266
31
0.000000000000000
  0
LINE
  5
F10847
330
F10848
100
AcDbEntity
8
Geo
100
AcDbLine
10
-75.5241299303943
20
-3.25475130809663
30
0.000000000000000
11
-75.4241299303943
21
-3.32907896897668
31
0.000000000000000
  0
LINE
  5
F10849
330
F1084A
100
AcDbEntity
8
Geo
100
AcDbLine
10
-75.4241299303943
20
0.147190854922266
30
0.000000000000000
11
-75.3241299303943
21
0.0851751661050342
31
0.000000000000000
  0
LINE
  5
F1084B
330
F1084C
100
AcDbEntity
8
Geo
100
AcDbLine
10
-75.4241299303943
20
-3.32907896897668
30
0.000000000000000
11
-75.3241299303943
21
-3.40107355695744
31
0.000000000000000
  0
LINE
  5
F1084D
330
F1084E
100
AcDbEntity
8
Geo
100
AcDbLine
10
-75.3241299303943
20
0.0851751661050342
30
0.000000000000000
11
-75.2241299303943
21
0.0204350203455299
31
0.000000000000000
  0
LINE
  5
F1084F
330
F10850
100
AcDbEntity
8
Geo
100
AcDbLine
10
-75.3241299303943
20
-3.40107355695744
30
0.000000000000000
11
-75.2241299303943
21
-3.47062842655717
31
0.000000000000000
  0
LINE
  5
F10851
330
F10852
100
AcDbEntity
8
Geo
100
AcDbLine
10
-75.2241299303943
20
0.0204350203455299
30
0.000000000000000
11
-75.1241299303943
21
-0.0469336828695155
31
0.000000000000000
  0
LINE
  5
F10853
330
F10854
100
AcDbEntity
8
Geo
100
AcDbLine
10
-75.2241299303943
20
-3.47062842655717
30
0.000000000000000
11
-75.1241299303943
21
-3.53764054624547
31
0.000000000000000
  0
LINE
  5
F10855
330
F10856
100
AcDbEntity
8
Geo
100
AcDbLine
10
-75.1241299303943
20
-0.0469336828695155
30
0.000000000000000
11
-75.0241299303943
21
-0.116831150374914
31
0.000000000000000
  0
LINE
  5
F10857
330
F10858
100
AcDbEntity
8
Geo
100
AcDbLine
10
-75.1241299303943
20
-3.53764054624547
30
0.000000000000000
11
-75.0241299303943
21
-3.60201065106384
31
0.000000000000000
  0
LINE
  5
F10859
330
F1085A
100
AcDbEntity
8
Geo
100
AcDbLine
10
-75.0241299303943
20
-0.116831150374914
30
0.000000000000000
11
-74.9241299303943
21
-0.189153843150496
31
0.000000000000000
  0
LINE
  5
F1085B
330
F1085C
100
AcDbEntity
8
Geo
100
AcDbLine
10
-75.0241299303943
20
-3.60201065106384
30
0.000000000000000
11
-74.9241299303943
21
-3.66364338966667
31
0.000000000000000
  0
LINE
  5
F1085D
330
F1085E
100
AcDbEntity
8
Geo
100
AcDbLine
10
-74.9241299303943
20
-0.189153843150496
30
0.000000000000000
11
-74.8241299303943
21
-0.263794629693314
31
0.000000000000000
  0
LINE
  5
F1085F
330
F10860
100
AcDbEntity
8
Geo
100
AcDbLine
10
-74.9241299303943
20
-3.66364338966667
30
0.000000000000000
11
-74.8241299303943
21
-3.72244746556508
31
0.000000000000000
  0
LINE
  5
F10861
330
F10862
100
AcDbEntity
8
Geo
100
AcDbLine
10
-74.8241299303943
20
-0.263794629693314
30
0.000000000000000
11
-74.7241299303943
21
-0.340642944711390
31
0.000000000000000
  0
LINE
  5
F10863
330
F10864
100
AcDbEntity
8
Geo
100
AcDbLine
10
-74.8241299303943
20
-3.72244746556508
30
0.000000000000000
11
-74.7241299303943
21
-3.77833577236426
31
0.000000000000000
  0
LINE
  5
F10865
330
F10866
100
AcDbEntity
8
Geo
100
AcDbLine
10
-74.7241299303943
20
-0.340642944711390
30
0.000000000000000
11
-74.6241299303943
21
-0.419584952903923
31
0.000000000000000
  0
LINE
  5
F10867
330
F10868
100
AcDbEntity
8
Geo
100
AcDbLine
10
-74.7241299303943
20
-3.77833577236426
30
0.000000000000000
11
-74.6241299303943
21
-3.83122552279406
31
0.000000000000000
  0
LINE
  5
F10869
330
F1086A
100
AcDbEntity
8
Geo
100
AcDbLine
10
-74.6241299303943
20
-0.419584952903923
30
0.000000000000000
11
-74.5241299303943
21
-0.500503717585362
31
0.000000000000000
  0
LINE
  5
F1086B
330
F1086C
100
AcDbEntity
8
Geo
100
AcDbLine
10
-74.6241299303943
20
-3.83122552279406
30
0.000000000000000
11
-74.5241299303943
21
-3.88103837134166
31
0.000000000000000
  0
LINE
  5
F1086D
330
F1086E
100
AcDbEntity
8
Geo
100
AcDbLine
10
-74.5241299303943
20
-0.500503717585362
30
0.000000000000000
11
-74.4241299303943
21
-0.583279373903554
31
0.000000000000000
  0
LINE
  5
F1086F
330
F10870
100
AcDbEntity
8
Geo
100
AcDbLine
10
-74.5241299303943
20
-3.88103837134166
30
0.000000000000000
11
-74.4241299303943
21
-3.92770053030467
31
0.000000000000000
  0
LINE
  5
F10871
330
F10872
100
AcDbEntity
8
Geo
100
AcDbLine
10
-74.4241299303943
20
-0.583279373903554
30
0.000000000000000
11
-74.3241299303943
21
-0.667789306395377
31
0.000000000000000
  0
LINE
  5
F10873
330
F10874
100
AcDbEntity
8
Geo
100
AcDbLine
10
-74.4241299303943
20
-3.92770053030467
30
0.000000000000000
11
-74.3241299303943
21
-3.97114287909273
31
0.000000000000000
  0
LINE
  5
F10875
330
F10876
100
AcDbEntity
8
Geo
100
AcDbLine
10
-74.3241299303943
20
-0.667789306395377
30
0.000000000000000
11
-74.2241299303943
21
-0.753908330616861
31
0.000000000000000
  0
LINE
  5
F10877
330
F10878
100
AcDbEntity
8
Geo
100
AcDbLine
10
-74.3241299303943
20
-3.97114287909273
30
0.000000000000000
11
-74.2241299303943
21
-4.01130106661578
31
0.000000000000000
  0
LINE
  5
F10879
330
F1087A
100
AcDbEntity
8
Geo
100
AcDbLine
10
-74.2241299303943
20
-0.753908330616861
30
0.000000000000000
11
-74.1241299303943
21
-0.841508878578716
31
0.000000000000000
  0
LINE
  5
F1087B
330
F1087C
100
AcDbEntity
8
Geo
100
AcDbLine
10
-74.2241299303943
20
-4.01130106661578
30
0.000000000000000
11
-74.1241299303943
21
-4.04811560660718
31
0.000000000000000
  0
LINE
  5
F1087D
330
F1087E
100
AcDbEntity
8
Geo
100
AcDbLine
10
-74.1241299303943
20
-0.841508878578716
30
0.000000000000000
11
-74.0241299303943
21
-0.930461187712628
31
0.000000000000000
  0
LINE
  5
F1087F
330
F10880
100
AcDbEntity
8
Geo
100
AcDbLine
10
-74.1241299303943
20
-4.04811560660718
30
0.000000000000000
11
-74.0241299303943
21
-4.08153196574072
31
0.000000000000000
  0
LINE
  5
F10881
330
F10882
100
AcDbEntity
8
Geo
100
AcDbLine
10
-74.0241299303943
20
-0.930461187712628
30
0.000000000000000
11
-73.9241299303943
21
-1.02063349308836
31
0.000000000000000
  0
LINE
  5
F10883
330
F10884
100
AcDbEntity
8
Geo
100
AcDbLine
10
-74.0241299303943
20
-4.08153196574072
30
0.000000000000000
11
-73.9241299303943
21
-4.11150064441066
31
0.000000000000000
  0
LINE
  5
F10885
330
F10886
100
AcDbEntity
8
Geo
100
AcDbLine
10
-73.9241299303943
20
-1.02063349308836
30
0.000000000000000
11
-73.8241299303943
21
-1.11189222259696
31
0.000000000000000
  0
LINE
  5
F10887
330
F10888
100
AcDbEntity
8
Geo
100
AcDbLine
10
-73.9241299303943
20
-4.11150064441066
30
0.000000000000000
11
-73.8241299303943
21
-4.13797725005550
31
0.000000000000000
  0
LINE
  5
F10889
330
F1088A
100
AcDbEntity
8
Geo
100
AcDbLine
10
-73.8241299303943
20
-1.11189222259696
30
0.000000000000000
11
-73.7241299303943
21
-1.20410219481095
31
0.000000000000000
  0
LINE
  5
F1088B
330
F1088C
100
AcDbEntity
8
Geo
100
AcDbLine
10
-73.8241299303943
20
-4.13797725005550
30
0.000000000000000
11
-73.7241299303943
21
-4.16092256291659
31
0.000000000000000
  0
LINE
  5
F1088D
330
F1088E
100
AcDbEntity
8
Geo
100
AcDbLine
10
-73.7241299303943
20
-1.20410219481095
30
0.000000000000000
11
-73.6241299303943
21
-1.29712681922834
31
0.000000000000000
  0
LINE
  5
F1088F
330
F10890
100
AcDbEntity
8
Geo
100
AcDbLine
10
-73.7241299303943
20
-4.16092256291659
30
0.000000000000000
11
-73.6241299303943
21
-4.18030259413430
31
0.000000000000000
  0
LINE
  5
F10891
330
F10892
100
AcDbEntity
8
Geo
100
AcDbLine
10
-73.6241299303943
20
-1.29712681922834
30
0.000000000000000
11
-73.5241299303943
21
-1.39082829860401
31
0.000000000000000
  0
LINE
  5
F10893
330
F10894
100
AcDbEntity
8
Geo
100
AcDbLine
10
-73.6241299303943
20
-4.18030259413430
30
0.000000000000000
11
-73.5241299303943
21
-4.19608863609569
31
0.000000000000000
  0
LINE
  5
F10895
330
F10896
100
AcDbEntity
8
Geo
100
AcDbLine
10
-73.5241299303943
20
-1.39082829860401
30
0.000000000000000
11
-73.4241299303943
21
-1.48506783306854
31
0.000000000000000
  0
LINE
  5
F10897
330
F10898
100
AcDbEntity
8
Geo
100
AcDbLine
10
-73.5241299303943
20
-4.19608863609569
30
0.000000000000000
11
-73.4241299303943
21
-4.20825730495904
31
0.000000000000000
  0
LINE
  5
F10899
330
F1089A
100
AcDbEntity
8
Geo
100
AcDbLine
10
-73.4241299303943
20
-1.48506783306854
30
0.000000000000000
11
-73.3241299303943
21
-1.57970582573224
31
0.000000000000000
  0
LINE
  5
F1089B
330
F1089C
100
AcDbEntity
8
Geo
100
AcDbLine
10
-73.4241299303943
20
-4.20825730495904
30
0.000000000000000
11
-73.3241299303943
21
-4.21679057529230
31
0.000000000000000
  0
LINE
  5
F1089D
330
F1089E
100
AcDbEntity
8
Geo
100
AcDbLine
10
-73.3241299303943
20
-1.57970582573224
30
0.000000000000000
11
-73.2241299303943
21
-1.67460208946989
31
0.000000000000000
  0
LINE
  5
F1089F
330
F108A0
100
AcDbEntity
8
Geo
100
AcDbLine
10
-73.3241299303943
20
-4.21679057529230
30
0.000000000000000
11
-73.2241299303943
21
-4.22167580677413
31
0.000000000000000
  0
LINE
  5
F108A1
330
F108A2
100
AcDbEntity
8
Geo
100
AcDbLine
10
-73.2241299303943
20
-1.67460208946989
30
0.000000000000000
11
-73.1241299303943
21
-1.76961605457966
31
0.000000000000000
  0
LINE
  5
F108A3
330
F108A4
100
AcDbEntity
8
Geo
100
AcDbLine
10
-73.1241299303943
20
0.714785113266170
30
0.000000000000000
11
-73.0241299303943
21
0.712357972139832
31
0.000000000000000
  0
LINE
  5
F108A5
330
F108A6
100
AcDbEntity
8
Geo
100
AcDbLine
10
-73.1241299303943
20
-1.76961605457966
30
0.000000000000000
11
-73.0241299303943
21
-1.86460697700886
31
0.000000000000000
  0
LINE
  5
F108A7
330
F108A8
100
AcDbEntity
8
Geo
100
AcDbLine
10
-73.0241299303943
20
0.712357972139832
30
0.000000000000000
11
-72.9241299303943
21
0.706277329063988
31
0.000000000000000
  0
LINE
  5
F108A9
330
F108AA
100
AcDbEntity
8
Geo
100
AcDbLine
10
-73.0241299303943
20
-1.86460697700886
30
0.000000000000000
11
-72.9241299303943
21
-1.95943414683787
31
0.000000000000000
  0
LINE
  5
F108AB
330
F108AC
100
AcDbEntity
8
Geo
100
AcDbLine
10
-72.9241299303943
20
0.706277329063988
30
0.000000000000000
11
-72.8241299303943
21
0.696552191286663
31
0.000000000000000
  0
LINE
  5
F108AD
330
F108AE
100
AcDbEntity
8
Geo
100
AcDbLine
10
-72.9241299303943
20
-1.95943414683787
30
0.000000000000000
11
-72.8241299303943
21
-2.05395709671359
31
0.000000000000000
  0
LINE
  5
F108AF
330
F108B0
100
AcDbEntity
8
Geo
100
AcDbLine
10
-72.8241299303943
20
0.696552191286663
30
0.000000000000000
11
-72.7241299303943
21
0.683196964640749
31
0.000000000000000
  0
LINE
  5
F108B1
330
F108B2
100
AcDbEntity
8
Geo
100
AcDbLine
10
-72.8241299303943
20
-2.05395709671359
30
0.000000000000000
11
-72.7241299303943
21
-2.14803580992350
31
0.000000000000000
  0
LINE
  5
F108B3
330
F108B4
100
AcDbEntity
8
Geo
100
AcDbLine
10
-72.7241299303943
20
0.683196964640749
30
0.000000000000000
11
-72.6241299303943
21
0.666231432204666
31
0.000000000000000
  0
LINE
  5
F108B5
330
F108B6
100
AcDbEntity
8
Geo
100
AcDbLine
10
-72.7241299303943
20
-2.14803580992350
30
0.000000000000000
11
-72.6241299303943
21
-2.24153092780223
31
0.000000000000000
  0
LINE
  5
F108B7
330
F108B8
100
AcDbEntity
8
Geo
100
AcDbLine
10
-72.6241299303943
20
0.666231432204666
30
0.000000000000000
11
-72.5241299303943
21
0.645680724997717
31
0.000000000000000
  0
LINE
  5
F108B9
330
F108BA
100
AcDbEntity
8
Geo
100
AcDbLine
10
-72.6241299303943
20
-2.24153092780223
30
0.000000000000000
11
-72.5241299303943
21
-2.33430395616334
31
0.000000000000000
  0
LINE
  5
F108BB
330
F108BC
100
AcDbEntity
8
Geo
100
AcDbLine
10
-72.5241299303943
20
0.645680724997717
30
0.000000000000000
11
-72.4241299303943
21
0.621575284753545
31
0.000000000000000
  0
LINE
  5
F108BD
330
F108BE
100
AcDbEntity
8
Geo
100
AcDbLine
10
-72.5241299303943
20
-2.33430395616334
30
0.000000000000000
11
-72.4241299303943
21
-2.42621747045058
31
0.000000000000000
  0
LINE
  5
F108BF
330
F108C0
100
AcDbEntity
8
Geo
100
AcDbLine
10
-72.4241299303943
20
0.621575284753545
30
0.000000000000000
11
-72.3241299303943
21
0.593950818826832
31
0.000000000000000
  0
LINE
  5
F108C1
330
F108C2
100
AcDbEntity
8
Geo
100
AcDbLine
10
-72.4241299303943
20
-2.42621747045058
30
0.000000000000000
11
-72.3241299303943
21
-2.51713531930470
31
0.000000000000000
  0
LINE
  5
F108C3
330
F108C4
100
AcDbEntity
8
Geo
100
AcDbLine
10
-72.3241299303943
20
0.593950818826832
30
0.000000000000000
11
-72.2241299303943
21
0.562848247300045
31
0.000000000000000
  0
LINE
  5
F108C5
330
F108C6
100
AcDbEntity
8
Geo
100
AcDbLine
10
-72.3241299303943
20
-2.51713531930470
30
0.000000000000000
11
-72.2241299303943
21
-2.60692282624423
31
0.000000000000000
  0
LINE
  5
F108C7
330
F108C8
100
AcDbEntity
8
Geo
100
AcDbLine
10
-72.2241299303943
20
0.562848247300045
30
0.000000000000000
11
-72.1241299303943
21
0.528313642368585
31
0.000000000000000
  0
LINE
  5
F108C9
330
F108CA
100
AcDbEntity
8
Geo
100
AcDbLine
10
-72.2241299303943
20
-2.60692282624423
30
0.000000000000000
11
-72.1241299303943
21
-2.69544698916162
31
0.000000000000000
  0
LINE
  5
F108CB
330
F108CC
100
AcDbEntity
8
Geo
100
AcDbLine
10
-72.1241299303943
20
0.528313642368585
30
0.000000000000000
11
-72.0241299303943
21
0.490398160094094
31
0.000000000000000
  0
LINE
  5
F108CD
330
F108CE
100
AcDbEntity
8
Geo
100
AcDbLine
10
-72.1241299303943
20
-2.69544698916162
30
0.000000000000000
11
-72.0241299303943
21
-2.78257667733901
31
0.000000000000000
  0
LINE
  5
F108CF
330
F108D0
100
AcDbEntity
8
Geo
100
AcDbLine
10
-72.0241299303943
20
0.490398160094094
30
0.000000000000000
11
-71.9241299303943
21
0.449157964627066
31
0.000000000000000
  0
LINE
  5
F108D1
330
F108D2
100
AcDbEntity
8
Geo
100
AcDbLine
10
-72.0241299303943
20
-2.78257667733901
30
0.000000000000000
11
-71.9241299303943
21
-2.86818282569202
31
0.000000000000000
  0
LINE
  5
F108D3
330
F108D4
100
AcDbEntity
8
Geo
100
AcDbLine
10
-71.9241299303943
20
0.449157964627066
30
0.000000000000000
11
-71.8241299303943
21
0.404654145010960
31
0.000000000000000
  0
LINE
  5
F108D5
330
F108D6
100
AcDbEntity
8
Geo
100
AcDbLine
10
-71.9241299303943
20
-2.86818282569202
30
0.000000000000000
11
-71.8241299303943
21
-2.95213862595367
31
0.000000000000000
  0
LINE
  5
F108D7
330
F108D8
100
AcDbEntity
8
Geo
100
AcDbLine
10
-71.8241299303943
20
0.404654145010960
30
0.000000000000000
11
-71.7241299303943
21
0.356952624691094
31
0.000000000000000
  0
LINE
  5
F108D9
330
F108DA
100
AcDbEntity
8
Geo
100
AcDbLine
10
-71.8241299303943
20
-2.95213862595367
30
0.000000000000000
11
-71.7241299303943
21
-3.03431971451528
31
0.000000000000000
  0
LINE
  5
F108DB
330
F108DC
100
AcDbEntity
8
Geo
100
AcDbLine
10
-71.7241299303943
20
0.356952624691094
30
0.000000000000000
11
-71.6241299303943
21
0.306124063862334
31
0.000000000000000
  0
LINE
  5
F108DD
330
F108DE
100
AcDbEntity
8
Geo
100
AcDbLine
10
-71.7241299303943
20
-3.03431971451528
30
0.000000000000000
11
-71.6241299303943
21
-3.11460435664609
31
0.000000000000000
  0
LINE
  5
F108DF
330
F108E0
100
AcDbEntity
8
Geo
100
AcDbLine
10
-71.6241299303943
20
0.306124063862334
30
0.000000000000000
11
-71.5241299303943
21
0.252243754800245
31
0.000000000000000
  0
LINE
  5
F108E1
330
F108E2
100
AcDbEntity
8
Geo
100
AcDbLine
10
-71.6241299303943
20
-3.11460435664609
30
0.000000000000000
11
-71.5241299303943
21
-3.19287362681882
31
0.000000000000000
  0
LINE
  5
F108E3
330
F108E4
100
AcDbEntity
8
Geo
100
AcDbLine
10
-71.5241299303943
20
0.252243754800245
30
0.000000000000000
11
-71.4241299303943
21
0.195391510330756
31
0.000000000000000
  0
LINE
  5
F108E5
330
F108E6
100
AcDbEntity
8
Geo
100
AcDbLine
10
-71.5241299303943
20
-3.19287362681882
30
0.000000000000000
11
-71.4241299303943
21
-3.26901158487377
31
0.000000000000000
  0
LINE
  5
F108E7
330
F108E8
100
AcDbEntity
8
Geo
100
AcDbLine
10
-71.4241299303943
20
0.195391510330756
30
0.000000000000000
11
-71.3241299303943
21
0.135651545603524
31
0.000000000000000
  0
LINE
  5
F108E9
330
F108EA
100
AcDbEntity
8
Geo
100
AcDbLine
10
-71.4241299303943
20
-3.26901158487377
30
0.000000000000000
11
-71.3241299303943
21
-3.34290544776092
31
0.000000000000000
  0
LINE
  5
F108EB
330
F108EC
100
AcDbEntity
8
Geo
100
AcDbLine
10
-71.3241299303943
20
0.135651545603524
30
0.000000000000000
11
-71.2241299303943
21
0.0731123533441627
31
0.000000000000000
  0
LINE
  5
F108ED
330
F108EE
100
AcDbEntity
8
Geo
100
AcDbLine
10
-71.3241299303943
20
-3.34290544776092
30
0.000000000000000
11
-71.2241299303943
21
-3.41444575660526
31
0.000000000000000
  0
LINE
  5
F108EF
330
F108F0
100
AcDbEntity
8
Geo
100
AcDbLine
10
-71.2241299303943
20
0.0731123533441627
30
0.000000000000000
11
-71.1241299303943
21
0.00786657277008174
31
0.000000000000000
  0
LINE
  5
F108F1
330
F108F2
100
AcDbEntity
8
Geo
100
AcDbLine
10
-71.2241299303943
20
-3.41444575660526
30
0.000000000000000
11
-71.1241299303943
21
-3.48352653884805
31
0.000000000000000
  0
LINE
  5
F108F3
330
F108F4
100
AcDbEntity
8
Geo
100
AcDbLine
10
-71.1241299303943
20
0.00786657277008174
30
0.000000000000000
11
-71.0241299303943
21
-0.0599891476358485
31
0.000000000000000
  0
LINE
  5
F108F5
330
F108F6
100
AcDbEntity
8
Geo
100
AcDbLine
10
-71.1241299303943
20
-3.48352653884805
30
0.000000000000000
11
-71.0241299303943
21
-3.55004546522384
31
0.000000000000000
  0
LINE
  5
F108F7
330
F108F8
100
AcDbEntity
8
Geo
100
AcDbLine
10
-71.0241299303943
20
-0.0599891476358485
30
0.000000000000000
11
-70.9241299303943
21
-0.130354293290561
31
0.000000000000000
  0
LINE
  5
F108F9
330
F108FA
100
AcDbEntity
8
Geo
100
AcDbLine
10
-71.0241299303943
20
-3.55004546522384
30
0.000000000000000
11
-70.9241299303943
21
-3.61390400134070
31
0.000000000000000
  0
LINE
  5
F108FB
330
F108FC
100
AcDbEntity
8
Geo
100
AcDbLine
10
-70.9241299303943
20
-0.130354293290561
30
0.000000000000000
11
-70.8241299303943
21
-0.203124632402905
31
0.000000000000000
  0
LINE
  5
F108FD
330
F108FE
100
AcDbEntity
8
Geo
100
AcDbLine
10
-70.9241299303943
20
-3.61390400134070
30
0.000000000000000
11
-70.8241299303943
21
-3.67500755363900
31
0.000000000000000
  0
LINE
  5
F108FF
330
F10900
100
AcDbEntity
8
Geo
100
AcDbLine
10
-70.8241299303943
20
-0.203124632402905
30
0.000000000000000
11
-70.7241299303943
21
-0.278192370372041
31
0.000000000000000
  0
LINE
  5
F10901
330
F10902
100
AcDbEntity
8
Geo
100
AcDbLine
10
-70.8241299303943
20
-3.67500755363900
30
0.000000000000000
11
-70.7241299303943
21
-3.73326560951279
31
0.000000000000000
  0
LINE
  5
F10903
330
F10904
100
AcDbEntity
8
Geo
100
AcDbLine
10
-70.7241299303943
20
-0.278192370372041
30
0.000000000000000
11
-70.6241299303943
21
-0.355446309463445
31
0.000000000000000
  0
LINE
  5
F10905
330
F10906
100
AcDbEntity
8
Geo
100
AcDbLine
10
-70.7241299303943
20
-3.73326560951279
30
0.000000000000000
11
-70.6241299303943
21
-3.78859187138595
31
0.000000000000000
  0
LINE
  5
F10907
330
F10908
100
AcDbEntity
8
Geo
100
AcDbLine
10
-70.6241299303943
20
-0.355446309463445
30
0.000000000000000
11
-70.5241299303943
21
-0.434772013525948
31
0.000000000000000
  0
LINE
  5
F10909
330
F1090A
100
AcDbEntity
8
Geo
100
AcDbLine
10
-70.6241299303943
20
-3.78859187138595
30
0.000000000000000
11
-70.5241299303943
21
-3.84090438454470
31
0.000000000000000
  0
LINE
  5
F1090B
330
F1090C
100
AcDbEntity
8
Geo
100
AcDbLine
10
-70.5241299303943
20
-0.434772013525948
30
0.000000000000000
11
-70.4241299303943
21
-0.516051977505848
31
0.000000000000000
  0
LINE
  5
F1090D
330
F1090E
100
AcDbEntity
8
Geo
100
AcDbLine
10
-70.5241299303943
20
-3.84090438454470
30
0.000000000000000
11
-70.4241299303943
21
-3.89012565853698
31
0.000000000000000
  0
LINE
  5
F1090F
330
F10910
100
AcDbEntity
8
Geo
100
AcDbLine
10
-70.4241299303943
20
-0.516051977505848
30
0.000000000000000
11
-70.3241299303943
21
-0.599165801506980
31
0.000000000000000
  0
LINE
  5
F10911
330
F10912
100
AcDbEntity
8
Geo
100
AcDbLine
10
-70.4241299303943
20
-3.89012565853698
30
0.000000000000000
11
-70.3241299303943
21
-3.93618278195894
31
0.000000000000000
  0
LINE
  5
F10913
330
F10914
100
AcDbEntity
8
Geo
100
AcDbLine
10
-70.3241299303943
20
-0.599165801506980
30
0.000000000000000
11
-70.2241299303943
21
-0.683990369138910
31
0.000000000000000
  0
LINE
  5
F10915
330
F10916
100
AcDbEntity
8
Geo
100
AcDbLine
10
-70.3241299303943
20
-3.93618278195894
30
0.000000000000000
11
-70.2241299303943
21
-3.97900753045852
31
0.000000000000000
  0
LINE
  5
F10917
330
F10918
100
AcDbEntity
8
Geo
100
AcDbLine
10
-70.2241299303943
20
-0.683990369138910
30
0.000000000000000
11
-70.1241299303943
21
-0.770400029889074
31
0.000000000000000
  0
LINE
  5
F10919
330
F1091A
100
AcDbEntity
8
Geo
100
AcDbLine
10
-70.2241299303943
20
-3.97900753045852
30
0.000000000000000
11
-70.1241299303943
21
-4.01853646779610
31
0.000000000000000
  0
LINE
  5
F1091B
330
F1091C
100
AcDbEntity
8
Geo
100
AcDbLine
10
-85.1241299303943
20
-1.75406032482593
30
0.000000000000000
11
-85.1241299303943
21
-1.75406032482593
31
0.000000000000000
  0
LINE
  5
F1091D
330
F1091E
100
AcDbEntity
8
Geo
100
AcDbLine
10
-85.1241299303943
20
-1.75406032482593
30
0.000000000000000
11
-85.1241299303943
21
-1.75406032482593
31
0.000000000000000
  0
LINE
  5
F1091F
330
F10920
100
AcDbEntity
8
Geo
100
AcDbLine
10
-86.1241299303943
20
-1.75406032482593
30
0.000000000000000
11
-85.8241299303943
21
-1.75406032482593
31
0.000000000000000
  0
LINE
  5
F10921
330
F10922
100
AcDbEntity
8
Geo
100
AcDbLine
10
-85.6966299303943
20
-1.75406032482593
30
0.000000000000000
11
-85.6116299303943
21
-1.75406032482593
31
0.000000000000000
  0
LINE
  5
F10923
330
F10924
100
AcDbEntity
8
Geo
100
AcDbLine
10
-85.3991299303943
20
-1.75406032482593
30
0.000000000000000
11
-84.9741299303943
21
-1.75406032482593
31
0.000000000000000
  0
LINE
  5
F10925
330
F10926
100
AcDbEntity
8
Geo
100
AcDbLine
10
-84.8466299303943
20
-1.75406032482593
30
0.000000000000000
11
-84.7616299303943
21
-1.75406032482593
31
0.000000000000000
  0
LINE
  5
F10927
330
F10928
100
AcDbEntity
8
Geo
100
AcDbLine
10
-84.5491299303943
20
-1.75406032482593
30
0.000000000000000
11
-84.1241299303943
21
-1.75406032482593
31
0.000000000000000
  0
LINE
  5
F10929
330
F1092A
100
AcDbEntity
8
Geo
100
AcDbLine
10
-25.1241299303942
20
0.945939675174071
30
0.000000000000000
11
-25.1241299303942
21
-1.75406032482593
31
0.000000000000000
  0
LINE
  5
F1092B
330
F1092C
100
AcDbEntity
8
Geo
100
AcDbLine
10
-85.0474871008021
20
-1.75406032482593
30
0.000000000000000
11
-85.1239471785000
21
-3.94359047581518
31
0.000000000000000
  0
ARC
  5
F1092D
330
F1092E
100
AcDbEntity
8
Geo
100
AcDbCircle
10
-84.8241299303943
20
-3.95406032482593
30
0.000000000000000
 40
0.300000000000000
100
AcDbArc
 50
178.000000000000
 51
270.000000000000
  0
LINE
  5
F1092F
330
F10930
100
AcDbEntity
8
Geo
100
AcDbLine
10
-84.8241299303943
20
-4.25406032482593
30
0.000000000000000
11
-65.1241299303943
21
-4.25406032482593
31
0.000000000000000
  0
LINE
  5
F10931
330
F10932
100
AcDbEntity
8
Geo
100
AcDbLine
10
-65.1241299303943
20
-4.25406032482593
30
0.000000000000000
11
-63.1241299303943
21
-4.25406032482593
31
0.000000000000000
  0
LINE
  5
F10933
330
F10934
100
AcDbEntity
8
Geo
100
AcDbLine
10
-63.1241299303943
20
-4.25406032482593
30
0.000000000000000
11
-61.2581045266098
21
-4.75406032482593
31
0.000000000000000
  0
LINE
  5
F10935
330
F10936
100
AcDbEntity
8
Geo
100
AcDbLine
10
-61.2581045266098
20
-4.75406032482593
30
0.000000000000000
11
-25.4241299303942
21
-4.75406032482593
31
0.000000000000000
  0
LINE
  5
F10937
330
F10938
100
AcDbEntity
8
Geo
100
AcDbLine
10
-25.4241299303942
20
-4.75406032482593
30
0.000000000000000
11
-25.1241299303942
21
-4.45406032482593
31
0.000000000000000
  0
LINE
  5
F10939
330
F1093A
100
AcDbEntity
8
Geo
100
AcDbLine
10
-84.8241299303943
20
0.745939675174071
30
0.000000000000000
11
-84.8241299303943
21
-4.25406032482593
31
0.000000000000000
  0
LINE
  5
F1093B
330
F1093C
100
AcDbEntity
8
Geo
100
AcDbLine
10
-84.8241299303943
20
0.745939675174071
30
0.000000000000000
11
-84.8241299303943
21
-4.25406032482593
31
0.000000000000000
  0
LINE
  5
F1093D
330
F1093E
100
AcDbEntity
8
Geo
100
AcDbLine
10
-65.1241299303943
20
0.745939675174071
30
0.000000000000000
11
-65.1241299303943
21
-4.25406032482593
31
0.000000000000000
  0
LINE
  5
F1093F
330
F10940
100
AcDbEntity
8
Geo
100
AcDbLine
10
-65.1241299303943
20
0.745939675174071
30
0.000000000000000
11
-65.1241299303943
21
-4.25406032482593
31
0.000000000000000
  0
LINE
  5
F10941
330
F10942
100
AcDbEntity
8
Geo
100
AcDbLine
10
-63.1241299303943
20
0.745939675174071
30
0.000000000000000
11
-63.1241299303943
21
-4.25406032482593
31
0.000000000000000
  0
LINE
  5
F10943
330
F10944
100
AcDbEntity
8
Geo
100
AcDbLine
10
-61.2581045266098
20
1.24593967517407
30
0.000000000000000
11
-61.2581045266098
21
-4.75406032482593
31
0.000000000000000
  0
LINE
  5
F10945
330
F10946
100
AcDbEntity
8
Geo
100
AcDbLine
10
-61.2581045266098
20
1.24593967517407
30
0.000000000000000
11
-61.2581045266098
21
-4.75406032482593
31
0.000000000000000
  0
LINE
  5
F10947
330
F10948
100
AcDbEntity
8
Geo
100
AcDbLine
10
-25.4241299303942
20
1.24593967517407
30
0.000000000000000
11
-25.4241299303942
21
-4.75406032482593
31
0.000000000000000
  0
LINE
  5
F10949
330
F1094A
100
AcDbEntity
8
Geo
100
AcDbLine
10
-25.1241299303942
20
0.945939675174071
30
0.000000000000000
11
-25.1241299303942
21
-4.45406032482593
31
0.000000000000000
  0
LWPOLYLINE
  5
F1094B
330
F1094C
100
AcDbEntity
8
Rahmen
100
AcDbPolyline
90
   4
70
   1
43
   0.0
 10
-125.540603248260
 20
102.988399071926
 10
134.310904872390
 20
102.988399071926
 10
134.310904872390
 20
-103.238979118329
 10
-125.540603248260
 20
-103.238979118329
  0
TEXT
  5
F1094D
330
F1094E
 100
AcDbEntity
8
Text
100
AcDbText
10
-124.538283062645
20
-102.738979118329
30
0.000000000000000
40
1.00000000000000
1
ISBESketcher
100
AcDbText
  0
LWPOLYLINE
  5
F1094F
330
F10950
100
AcDbEntity
8
Rahmen
100
AcDbPolyline
90
   4
70
   1
43
   0.0
 10
94.4686774941996
 20
-100.232018561485
 10
134.310904872390
 20
-100.232018561485
 10
134.310904872390
 20
-103.238979118329
 10
94.4686774941996
 20
-103.238979118329
  0
TEXT
  5
F10951
330
F10952
 100
AcDbEntity
8
Text
100
AcDbText
10
95.5000000000000
20
-102.001740139211
30
0.000000000000000
40
0.750000000000000
1
Created by:
100
AcDbText
  0
TEXT
  5
F10953
330
F10954
 100
AcDbEntity
8
Text
100
AcDbText
10
120.119489559165
20
-102.001740139211
30
0.000000000000000
40
0.750000000000000
1
nsarkol
100
AcDbText
  0
LWPOLYLINE
  5
F10955
330
F10956
100
AcDbEntity
8
Rahmen
100
AcDbPolyline
90
   4
70
   1
43
   0.0
 10
54.3758700696056
 20
-100.232018561485
 10
94.4686774941996
 20
-100.232018561485
 10
94.4686774941996
 20
-103.238979118329
 10
54.3758700696056
 20
-103.238979118329
  0
TEXT
  5
F10957
330
F10958
 100
AcDbEntity
8
Text
100
AcDbText
10
55.5000000000000
20
-102.001740139211
30
0.000000000000000
40
0.750000000000000
1
Created for:
100
AcDbText
  0
TEXT
  5
F10959
330
F1095A
 100
AcDbEntity
8
Text
100
AcDbText
10
0.000000000000000
20
0.250000000000000
30
0.000000000000000
40
0.750000000000000
1

100
AcDbText
  0
LWPOLYLINE
  5
F1095B
330
F1095C
100
AcDbEntity
8
Rahmen
100
AcDbPolyline
90
   4
70
   1
43
   0.0
 10
121.030162412993
 20
-97.2250580046404
 10
134.310904872390
 20
-97.2250580046404
 10
134.310904872390
 20
-100.232018561485
 10
121.030162412993
 20
-100.232018561485
  0
TEXT
  5
F1095D
330
F1095E
 100
AcDbEntity
8
Text
100
AcDbText
10
122.166666666667
20
-99.0017401392111
30
0.000000000000000
40
0.750000000000000
1
Pages
100
AcDbText
  0
TEXT
  5
F1095F
330
F10960
 100
AcDbEntity
8
Text
100
AcDbText
10
0.000000000000000
20
0.250000000000000
30
0.000000000000000
40
0.750000000000000
1

100
AcDbText
  0
LWPOLYLINE
  5
F10961
330
F10962
100
AcDbEntity
8
Rahmen
100
AcDbPolyline
90
   4
70
   1
43
   0.0
 10
121.030162412993
 20
-94.2180974477958
 10
134.310904872390
 20
-94.2180974477958
 10
134.310904872390
 20
-97.2250580046404
 10
121.030162412993
 20
-97.2250580046404
  0
TEXT
  5
F10963
330
F10964
 100
AcDbEntity
8
Text
100
AcDbText
10
122.166666666667
20
-96.0017401392111
30
0.000000000000000
40
0.750000000000000
1
Page
100
AcDbText
  0
TEXT
  5
F10965
330
F10966
 100
AcDbEntity
8
Text
100
AcDbText
10
0.000000000000000
20
0.250000000000000
30
0.000000000000000
40
0.750000000000000
1

100
AcDbText
  0
LWPOLYLINE
  5
F10967
330
F10968
100
AcDbEntity
8
Rahmen
100
AcDbPolyline
90
   4
70
   1
43
   0.0
 10
54.3758700696056
 20
-94.2180974477958
 10
121.030162412993
 20
-94.2180974477958
 10
121.030162412993
 20
-100.232018561485
 10
54.3758700696056
 20
-100.232018561485
  0
TEXT
  5
F10969
330
F1096A
 100
AcDbEntity
8
Text
100
AcDbText
10
55.5000000000000
20
-96.0017401392111
30
0.000000000000000
40
0.750000000000000
1
Date:
100
AcDbText
  0
TEXT
  5
F1096B
330
F1096C
 100
AcDbEntity
8
Text
100
AcDbText
10
84.4505027068832
20
-99.0017401392111
30
0.000000000000000
40
0.750000000000000
1
30.09.2016
100
AcDbText
  0
LWPOLYLINE
  5
F1096D
330
F1096E
100
AcDbEntity
8
Rahmen
100
AcDbPolyline
90
   4
70
   1
43
   0.0
 10
54.3758700696056
 20
-88.2041763341067
 10
134.310904872390
 20
-88.2041763341067
 10
134.310904872390
 20
-94.2180974477958
 10
54.3758700696056
 20
-94.2180974477958
  0
TEXT
  5
F1096F
330
F10970
 100
AcDbEntity
8
Text
100
AcDbText
10
0.000000000000000
20
0.500000000000000
30
0.000000000000000
40
1.50000000000000
1

100
AcDbText
  0
TEXT
  5
F10971
330
F10972
 100
AcDbEntity
8
Text
100
AcDbText
10
76.5835266821346
20
-92.5471771075019
30
0.000000000000000
40
2.50000000000000
1
STR2 5.0x60 R=0.3
100
AcDbText
  0
LWPOLYLINE
  5
F10973
330
F10974
100
AcDbEntity
8
Rahmen
100
AcDbPolyline
90
   4
70
   1
43
   0.0
 10
94.4686774941996
 20
-82.1902552204176
 10
134.310904872390
 20
-82.1902552204176
 10
134.310904872390
 20
-88.2041763341067
 10
94.4686774941996
 20
-88.2041763341067
  0
TEXT
  5
F10975
330
F10976
 100
AcDbEntity
8
Text
100
AcDbText
10
95.5000000000000
20
-84.0017401392111
30
0.000000000000000
40
0.750000000000000
1
Work piece material:
100
AcDbText
  0
TEXT
  5
F10977
330
F10978
 100
AcDbEntity
8
Text
100
AcDbText
10
0.000000000000000
20
0.250000000000000
30
0.000000000000000
40
0.750000000000000
1

100
AcDbText
  0
LWPOLYLINE
  5
F10979
330
F1097A
100
AcDbEntity
8
Rahmen
100
AcDbPolyline
90
   4
70
   1
43
   0.0
 10
54.3758700696056
 20
-82.1902552204176
 10
94.4686774941996
 20
-82.1902552204176
 10
94.4686774941996
 20
-88.2041763341067
 10
54.3758700696056
 20
-88.2041763341067
  0
TEXT
  5
F1097B
330
F1097C
 100
AcDbEntity
8
Text
100
AcDbText
10
55.5000000000000
20
-84.0017401392111
30
0.000000000000000
40
0.750000000000000
1
Tool material:
100
AcDbText
  0
TEXT
  5
F1097D
330
F1097E
 100
AcDbEntity
8
Text
100
AcDbText
10
0.000000000000000
20
0.250000000000000
30
0.000000000000000
40
0.750000000000000
1

100
AcDbText
  0
LWPOLYLINE
  5
F1097F
330
F10980
100
AcDbEntity
8
Rahmen
100
AcDbPolyline
90
   4
70
   1
43
   0.0
 10
94.4686774941996
 20
-79.1832946635731
 10
134.310904872390
 20
-79.1832946635731
 10
134.310904872390
 20
-82.1902552204176
 10
94.4686774941996
 20
-82.1902552204176
  0
TEXT
  5
F10981
330
F10982
 100
AcDbEntity
8
Text
100
AcDbText
10
0.000000000000000
20
0.500000000000000
30
0.000000000000000
40
1.50000000000000
1

100
AcDbText
  0
TEXT
  5
F10983
330
F10984
 100
AcDbEntity
8
Text
100
AcDbText
10
0.000000000000000
20
0.250000000000000
30
0.000000000000000
40
0.750000000000000
1

100
AcDbText
  0
LWPOLYLINE
  5
F10985
330
F10986
100
AcDbEntity
8
Rahmen
100
AcDbPolyline
90
   4
70
   1
43
   0.0
 10
54.3758700696056
 20
-79.1832946635731
 10
94.4686774941996
 20
-79.1832946635731
 10
94.4686774941996
 20
-82.1902552204176
 10
54.3758700696056
 20
-82.1902552204176
  0
TEXT
  5
F10987
330
F10988
 100
AcDbEntity
8
Text
100
AcDbText
10
55.5000000000000
20
-81.0017401392111
30
0.000000000000000
40
0.750000000000000
1
Scale:
100
AcDbText
  0
TEXT
  5
F10989
330
F1098A
 100
AcDbEntity
8
Text
100
AcDbText
10
81.2470997679814
20
-81.0017401392111
30
0.000000000000000
40
0.750000000000000
1
3 : 1
100
AcDbText
0
VIEWPORT
5
294
102
{ACAD_XDICTIONARY
360
58A
102
}
330
25D
100
AcDbEntity
67
1
8
0
60
1
100
AcDbViewport
10
0.0
20
0.0
30
0.0
40
10.0
41
10.0
68
-1
69
1
12
0.0
22
0.0
13
0.0
23
0.0
14
1.0
24
1.0
15
0.0
25
0.0
16
0.0
26
0.0
36
1.0
17
0.0
27
0.0
37
0.0
42
0.0
43
0.0
44
0.0
45
10.0
50
0.0
51
0.0000000000007958
72
100
90
32800
1

281
0
71
0
74
0
110
0.0
120
0.0
130
0.0
111
1.0
121
0.0
131
0.0
112
0.0
122
1.0
132
0.0
79
0
146
0.0
1001
VD_INVISIBLE_NOT_FOR_READ
1000
VD_INVISIBLE_NOT_FOR_READ
0
VIEWPORT
5
295
102
{ACAD_XDICTIONARY
360
58C
102
}
330
25D
100
AcDbEntity
67
1
8
0
60
1
100
AcDbViewport
10
0.0
20
0.0
30
0.0
40
10.0
41
10.0
68
0
69
2
12
0.0
22
0.0
13
0.0
23
0.0
14
1.0
24
1.0
15
0.0
25
0.0
16
0.0
26
0.0
36
1.0
17
0.0
27
0.0
37
0.0
42
0.0
43
0.0
44
0.0
45
10.0
50
0.0
51
0.0000000000007958
72
100
90
163872
1

281
0
71
0
74
0
110
0.0
120
0.0
130
0.0
111
1.0
121
0.0
131
0.0
112
0.0
122
1.0
132
0.0
79
0
146
0.0
1001
VD_INVISIBLE_NOT_FOR_READ
1000
VD_INVISIBLE_NOT_FOR_READ
0
ENDSEC
0
SECTION
2
OBJECTS
0
DICTIONARY
5
13
330
0
100
AcDbDictionary
281
1
3
ACAD_COLOR
350
FA7
3
ACAD_GROUP
350
14
3
ACAD_LAYOUT
350
FCF
3
ACAD_MATERIAL
350
F7A
3
ACAD_MLEADERSTYLE
350
FCD
3
ACAD_MLINESTYLE
350
16
3
ACAD_PLOTSETTINGS
350
17
3
ACAD_PLOTSTYLENAME
350
18
3
ACAD_SCALELIST
350
FAB
3
ACAD_TABLESTYLE
350
FA8
3
ACAD_VISUALSTYLE
350
F93
3
ACDB_RECOMPOSE_DATA
350
107E
3
AcDbVariableDictionary
350
FF0
3
DWGPROPS
350
107F
0
DICTIONARY
5
F1000F
330
F1000E
100
AcDbDictionary
280
1
281
1
3
ACAD_MTEXT_2008_RT
360
F10010
0
DICTIONARY
5
F10019
330
F10018
100
AcDbDictionary
280
1
281
1
3
ACAD_MTEXT_2008_RT
360
F1001A
0
DICTIONARY
5
F10023
330
F10022
100
AcDbDictionary
280
1
281
1
3
ACAD_MTEXT_2008_RT
360
F10024
0
DICTIONARY
5
F10028
330
F10027
100
AcDbDictionary
280
1
281
1
3
ACAD_MTEXT_2008_RT
360
F10029
0
DICTIONARY
5
F10014
330
F10013
100
AcDbDictionary
280
1
281
1
3
ACAD_MTEXT_2008_RT
360
F10015
0
DICTIONARY
5
F1000A
330
F10009
100
AcDbDictionary
280
1
281
1
3
ACAD_MTEXT_2008_RT
360
F1000B
0
DICTIONARY
5
F10005
330
F10004
100
AcDbDictionary
280
1
281
1
3
ACAD_MTEXT_2008_RT
360
F10006
0
DICTIONARY
5
F1001E
330
F1001D
100
AcDbDictionary
280
1
281
1
3
ACAD_MTEXT_2008_RT
360
F1001F
0
DICTIONARY
5
FA7
102
{ACAD_REACTORS
330
13
102
}
330
13
100
AcDbDictionary
281
1
0
DICTIONARY
5
14
330
13
100
AcDbDictionary
281
1
0
DICTIONARY
5
FCF
102
{ACAD_REACTORS
330
13
102
}
330
13
100
AcDbDictionary
281
1
3
Layout1
350
FD1
3
Model
350
FD0
0
DICTIONARY
5
F7A
102
{ACAD_REACTORS
330
13
102
}
330
13
100
AcDbDictionary
281
1
3
ByBlock
350
F83
3
ByLayer
350
F7B
3
Global
350
F8B
0
DICTIONARY
5
FCD
102
{ACAD_REACTORS
330
13
102
}
330
13
100
AcDbDictionary
281
1
3
Standard
350
FCE
0
DICTIONARY
5
16
330
13
100
AcDbDictionary
281
1
3
Standard
350
FAA
0
DICTIONARY
5
17
102
{ACAD_REACTORS
330
13
102
}
330
13
100
AcDbDictionary
281
1
0
ACDBDICTIONARYWDFLT
5
18
102
{ACAD_REACTORS
330
13
102
}
330
13
100
AcDbDictionary
281
1
3
Normal
350
19
100
AcDbDictionaryWithDefault
340
19
0
DICTIONARY
5
FAB
102
{ACAD_REACTORS
330
13
102
}
330
13
100
AcDbDictionary
281
1
3
A0
350
FAC
3
A1
350
FAD
3
A2
350
FAE
3
A3
350
FAF
3
A4
350
FB0
3
A5
350
FB1
3
A6
350
FB2
3
A7
350
FB3
3
A8
350
FB4
3
A9
350
FB5
3
B0
350
FB6
3
B1
350
FB7
3
B2
350
FB8
3
B3
350
FB9
3
B4
350
FBA
3
B5
350
FBB
3
B6
350
FBC
3
B7
350
FBD
3
B8
350
FBE
3
B9
350
FBF
3
C0
350
FC0
3
C1
350
FC1
3
C2
350
FC2
3
C3
350
FC3
3
C4
350
FC4
3
C5
350
FC5
3
C6
350
FC6
3
C7
350
FC7
3
C8
350
FC8
3
C9
350
FC9
3
D0
350
FCA
3
D1
350
FCB
3
D2
350
FCC
0
DICTIONARY
5
FA8
102
{ACAD_REACTORS
330
13
102
}
330
13
100
AcDbDictionary
281
1
3
Standard
350
FA9
0
DICTIONARY
5
F93
102
{ACAD_REACTORS
330
13
102
}
330
13
100
AcDbDictionary
281
1
3
2dWireframe
350
F99
3
3D Hidden
350
F9B
3
3dWireframe
350
F9A
3
Basic
350
F98
3
Brighten
350
F9F
3
ColorChange
350
FA3
3
Conceptual
350
F9C
3
Dim
350
F9E
3
EdgeColorOff
350
FA6
3
Facepattern
350
FA2
3
Flat
350
F94
3
FlatWithEdges
350
F95
3
Gouraud
350
F96
3
GouraudWithEdges
350
F97
3
JitterOff
350
FA4
3
Linepattern
350
FA1
3
OverhangOff
350
FA5
3
Realistic
350
F9D
3
Thicken
350
FA0
0
XRECORD
5
107E
102
{ACAD_REACTORS
330
13
102
}
330
13
100
AcDbXrecord
280
1
90
1
330
FA9
330
F1000E
330
F10018
330
F10022
330
F10027
330
F10013
330
F10009
330
F10004
330
F1001D
0
XRECORD
5
F10010
102
{ACAD_REACTORS
330
F1000F
102
}
330
F1000F
100
AcDbXrecord
280
1
40
48458.0
1
22
0
XRECORD
5
F1001A
102
{ACAD_REACTORS
330
F10019
102
}
330
F10019
100
AcDbXrecord
280
1
40
48458.0
1
36.134
0
XRECORD
5
F10024
102
{ACAD_REACTORS
330
F10023
102
}
330
F10023
100
AcDbXrecord
280
1
40
48458.0
1
20
0
XRECORD
5
F10029
102
{ACAD_REACTORS
330
F10028
102
}
330
F10028
100
AcDbXrecord
280
1
40
48458.0
1
60
0
XRECORD
5
F10015
102
{ACAD_REACTORS
330
F10014
102
}
330
F10014
100
AcDbXrecord
280
1
40
48458.0
1
15°
0
XRECORD
5
F1000B
102
{ACAD_REACTORS
330
F1000A
102
}
330
F1000A
100
AcDbXrecord
280
1
40
48458.0
1
R0.3
0
XRECORD
5
F10006
102
{ACAD_REACTORS
330
F10005
102
}
330
F10005
100
AcDbXrecord
280
1
40
48458.0
1
5
0
LAYOUT
5
FD1
102
{ACAD_XDICTIONARY
360
10A9
102
}
102
{ACAD_REACTORS
330
FCF
102
}
330
FCF
100
AcDbPlotSettings
1

2
Microsoft XPS Document Writer
4

6

40
0.0
41
0.0
42
0.0
43
0.0
44
0.0
45
0.0
46
0.0
47
0.0
48
0.0
49
0.0
140
0.0
141
0.0
142
1.0
143
1.0
70
688
72
0
73
0
74
5
7

75
16
147
1.0
148
0.0
149
0.0
100
AcDbLayout
1
Layout1
70
1
71
1
10
0.0
20
0.0
11
12.0
21
9.0
12
0.0
22
0.0
32
0.0
14
1.000000000000000E+20
24
1.000000000000000E+20
34
1.000000000000000E+20
15
-1.000000000000000E+20
25
-1.000000000000000E+20
35
-1.000000000000000E+20
146
0.0
13
0.0
23
0.0
33
0.0
16
1.0
26
0.0
36
0.0
17
0.0
27
1.0
37
0.0
76
0
330
25D
0
LAYOUT
5
FD0
102
{ACAD_XDICTIONARY
360
10A7
102
}
102
{ACAD_REACTORS
330
FCF
102
}
330
FCF
100
AcDbPlotSettings
1

2
Microsoft XPS Document Writer
4

6

40
0.0
41
0.0
42
0.0
43
0.0
44
0.0
45
0.0
46
0.0
47
0.0
48
0.0
49
0.0
140
0.0
141
0.0
142
1.0
143
1.0
70
1712
72
0
73
0
74
0
7

75
0
147
1.0
148
0.0
149
0.0
100
AcDbLayout
1
Model
70
1
71
0
10
0.0
20
0.0
11
12.0
21
9.0
12
0.0
22
0.0
32
0.0
14
0.0
24
0.0
34
0.0
15
0.0
25
0.0
35
0.0
146
0.0
13
0.0
23
0.0
33
0.0
16
1.0
26
0.0
36
0.0
17
0.0
27
1.0
37
0.0
76
0
330
261
331
26B
0
MATERIAL
5
F83
102
{ACAD_XDICTIONARY
360
F84
102
}
102
{ACAD_REACTORS
330
F7A
102
}
330
F7A
100
AcDbMaterial
1
ByBlock
72
0
43
0.0208333333333333
43
0.0
43
0.0
43
0.0
43
0.0
43
0.0208333333333333
43
0.0
43
0.0
43
0.0
43
0.0
43
1.0
43
0.0
43
0.0
43
0.0
43
0.0
43
1.0
77
0
47
0.0208333333333333
47
0.0
47
0.0
47
0.0
47
0.0
47
0.0208333333333333
47
0.0
47
0.0
47
0.0
47
0.0
47
1.0
47
0.0
47
0.0
47
0.0
47
0.0
47
1.0
171
0
49
0.0208333333333333
49
0.0
49
0.0
49
0.0
49
0.0
49
0.0208333333333333
49
0.0
49
0.0
49
0.0
49
0.0
49
1.0
49
0.0
49
0.0
49
0.0
49
0.0
49
1.0
175
0
142
0.0208333333333333
142
0.0
142
0.0
142
0.0
142
0.0
142
0.0208333333333333
142
0.0
142
0.0
142
0.0
142
0.0
142
1.0
142
0.0
142
0.0
142
0.0
142
0.0
142
1.0
179
0
144
0.0208333333333333
144
0.0
144
0.0
144
0.0
144
0.0
144
0.0208333333333333
144
0.0
144
0.0
144
0.0
144
0.0
144
1.0
144
0.0
144
0.0
144
0.0
144
0.0
144
1.0
147
0.0208333333333333
147
0.0
147
0.0
147
0.0
147
0.0
147
0.0208333333333333
147
0.0
147
0.0
147
0.0
147
0.0
147
1.0
147
0.0
147
0.0
147
0.0
147
0.0
147
1.0
0
MATERIAL
5
F7B
102
{ACAD_XDICTIONARY
360
F7C
102
}
102
{ACAD_REACTORS
330
F7A
102
}
330
F7A
100
AcDbMaterial
1
ByLayer
72
0
43
0.0208333333333333
43
0.0
43
0.0
43
0.0
43
0.0
43
0.0208333333333333
43
0.0
43
0.0
43
0.0
43
0.0
43
1.0
43
0.0
43
0.0
43
0.0
43
0.0
43
1.0
77
0
47
0.0208333333333333
47
0.0
47
0.0
47
0.0
47
0.0
47
0.0208333333333333
47
0.0
47
0.0
47
0.0
47
0.0
47
1.0
47
0.0
47
0.0
47
0.0
47
0.0
47
1.0
171
0
49
0.0208333333333333
49
0.0
49
0.0
49
0.0
49
0.0
49
0.0208333333333333
49
0.0
49
0.0
49
0.0
49
0.0
49
1.0
49
0.0
49
0.0
49
0.0
49
0.0
49
1.0
175
0
142
0.0208333333333333
142
0.0
142
0.0
142
0.0
142
0.0
142
0.0208333333333333
142
0.0
142
0.0
142
0.0
142
0.0
142
1.0
142
0.0
142
0.0
142
0.0
142
0.0
142
1.0
179
0
144
0.0208333333333333
144
0.0
144
0.0
144
0.0
144
0.0
144
0.0208333333333333
144
0.0
144
0.0
144
0.0
144
0.0
144
1.0
144
0.0
144
0.0
144
0.0
144
0.0
144
1.0
147
0.0208333333333333
147
0.0
147
0.0
147
0.0
147
0.0
147
0.0208333333333333
147
0.0
147
0.0
147
0.0
147
0.0
147
1.0
147
0.0
147
0.0
147
0.0
147
0.0
147
1.0
0
MATERIAL
5
F8B
102
{ACAD_XDICTIONARY
360
F8C
102
}
102
{ACAD_REACTORS
330
F7A
102
}
330
F7A
100
AcDbMaterial
1
Global
72
0
43
0.0208333333333333
43
0.0
43
0.0
43
0.0
43
0.0
43
0.0208333333333333
43
0.0
43
0.0
43
0.0
43
0.0
43
1.0
43
0.0
43
0.0
43
0.0
43
0.0
43
1.0
77
0
47
0.0208333333333333
47
0.0
47
0.0
47
0.0
47
0.0
47
0.0208333333333333
47
0.0
47
0.0
47
0.0
47
0.0
47
1.0
47
0.0
47
0.0
47
0.0
47
0.0
47
1.0
171
0
49
0.0208333333333333
49
0.0
49
0.0
49
0.0
49
0.0
49
0.0208333333333333
49
0.0
49
0.0
49
0.0
49
0.0
49
1.0
49
0.0
49
0.0
49
0.0
49
0.0
49
1.0
175
0
142
0.0208333333333333
142
0.0
142
0.0
142
0.0
142
0.0
142
0.0208333333333333
142
0.0
142
0.0
142
0.0
142
0.0
142
1.0
142
0.0
142
0.0
142
0.0
142
0.0
142
1.0
179
0
144
0.0208333333333333
144
0.0
144
0.0
144
0.0
144
0.0
144
0.0208333333333333
144
0.0
144
0.0
144
0.0
144
0.0
144
1.0
144
0.0
144
0.0
144
0.0
144
0.0
144
1.0
147
0.0208333333333333
147
0.0
147
0.0
147
0.0
147
0.0
147
0.0208333333333333
147
0.0
147
0.0
147
0.0
147
0.0
147
1.0
147
0.0
147
0.0
147
0.0
147
0.0
147
1.0
0
MLEADERSTYLE
5
FCE
102
{ACAD_REACTORS
330
FCD
102
}
330
FCD
100
AcDbMLeaderStyle
170
2
171
1
172
0
90
2
40
0.0
41
0.0
173
1
91
-1056964608
340
256
92
-2
290
1
42
0.09
291
1
43
0.36
3
Standard
44
0.18
300

342
253
174
1
178
6
175
1
176
0
93
-1056964608
45
0.18
292
0
297
0
46
0.18
94
-1056964608
47
1.0
49
1.0
140
1.0
293
1
141
0.0
294
1
177
0
142
1.0
295
0
296
0
143
0.125
1001
ACAD_MLEADERVER
1070
2
0
MLINESTYLE
5
FAA
102
{ACAD_REACTORS
330
16
102
}
330
16
100
AcDbMlineStyle
2
STANDARD
70
0
3

62
256
51
90.0
52
90.0
71
2
49
0.5
62
256
6
BYLAYER
49
-0.5
62
256
6
BYLAYER
0
ACDBPLACEHOLDER
5
19
102
{ACAD_REACTORS
330
18
102
}
330
18
0
SCALE
5
FAC
102
{ACAD_REACTORS
330
FAB
102
}
330
FAB
100
AcDbScale
70
0
300
1:1
140
1.0
141
1.0
290
1
0
SCALE
5
FAD
102
{ACAD_REACTORS
330
FAB
102
}
330
FAB
100
AcDbScale
70
0
300
1:2
140
1.0
141
2.0
290
0
0
SCALE
5
FAE
102
{ACAD_REACTORS
330
FAB
102
}
330
FAB
100
AcDbScale
70
0
300
1:4
140
1.0
141
4.0
290
0
0
SCALE
5
FAF
102
{ACAD_REACTORS
330
FAB
102
}
330
FAB
100
AcDbScale
70
0
300
1:5
140
1.0
141
5.0
290
0
0
SCALE
5
FB0
102
{ACAD_REACTORS
330
FAB
102
}
330
FAB
100
AcDbScale
70
0
300
1:8
140
1.0
141
8.0
290
0
0
SCALE
5
FB1
102
{ACAD_REACTORS
330
FAB
102
}
330
FAB
100
AcDbScale
70
0
300
1:10
140
1.0
141
10.0
290
0
0
SCALE
5
FB2
102
{ACAD_REACTORS
330
FAB
102
}
330
FAB
100
AcDbScale
70
0
300
1:16
140
1.0
141
16.0
290
0
0
SCALE
5
FB3
102
{ACAD_REACTORS
330
FAB
102
}
330
FAB
100
AcDbScale
70
0
300
1:20
140
1.0
141
20.0
290
0
0
SCALE
5
FB4
102
{ACAD_REACTORS
330
FAB
102
}
330
FAB
100
AcDbScale
70
0
300
1:30
140
1.0
141
30.0
290
0
0
SCALE
5
FB5
102
{ACAD_REACTORS
330
FAB
102
}
330
FAB
100
AcDbScale
70
0
300
1:40
140
1.0
141
40.0
290
0
0
SCALE
5
FB6
102
{ACAD_REACTORS
330
FAB
102
}
330
FAB
100
AcDbScale
70
0
300
1:50
140
1.0
141
50.0
290
0
0
SCALE
5
FB7
102
{ACAD_REACTORS
330
FAB
102
}
330
FAB
100
AcDbScale
70
0
300
1:100
140
1.0
141
100.0
290
0
0
SCALE
5
FB8
102
{ACAD_REACTORS
330
FAB
102
}
330
FAB
100
AcDbScale
70
0
300
2:1
140
2.0
141
1.0
290
0
0
SCALE
5
FB9
102
{ACAD_REACTORS
330
FAB
102
}
330
FAB
100
AcDbScale
70
0
300
4:1
140
4.0
141
1.0
290
0
0
SCALE
5
FBA
102
{ACAD_REACTORS
330
FAB
102
}
330
FAB
100
AcDbScale
70
0
300
8:1
140
8.0
141
1.0
290
0
0
SCALE
5
FBB
102
{ACAD_REACTORS
330
FAB
102
}
330
FAB
100
AcDbScale
70
0
300
10:1
140
10.0
141
1.0
290
0
0
SCALE
5
FBC
102
{ACAD_REACTORS
330
FAB
102
}
330
FAB
100
AcDbScale
70
0
300
100:1
140
100.0
141
1.0
290
0
0
SCALE
5
FBD
102
{ACAD_REACTORS
330
FAB
102
}
330
FAB
100
AcDbScale
70
0
300
1/128" = 1'-0"
140
0.0078125
141
12.0
290
0
0
SCALE
5
FBE
102
{ACAD_REACTORS
330
FAB
102
}
330
FAB
100
AcDbScale
70
0
300
1/64" = 1'-0"
140
0.015625
141
12.0
290
0
0
SCALE
5
FBF
102
{ACAD_REACTORS
330
FAB
102
}
330
FAB
100
AcDbScale
70
0
300
1/32" = 1'-0"
140
0.03125
141
12.0
290
0
0
SCALE
5
FC0
102
{ACAD_REACTORS
330
FAB
102
}
330
FAB
100
AcDbScale
70
0
300
1/16" = 1'-0"
140
0.0625
141
12.0
290
0
0
SCALE
5
FC1
102
{ACAD_REACTORS
330
FAB
102
}
330
FAB
100
AcDbScale
70
0
300
3/32" = 1'-0"
140
0.09375
141
12.0
290
0
0
SCALE
5
FC2
102
{ACAD_REACTORS
330
FAB
102
}
330
FAB
100
AcDbScale
70
0
300
1/8" = 1'-0"
140
0.125
141
12.0
290
0
0
SCALE
5
FC3
102
{ACAD_REACTORS
330
FAB
102
}
330
FAB
100
AcDbScale
70
0
300
3/16" = 1'-0"
140
0.1875
141
12.0
290
0
0
SCALE
5
FC4
102
{ACAD_REACTORS
330
FAB
102
}
330
FAB
100
AcDbScale
70
0
300
1/4" = 1'-0"
140
0.25
141
12.0
290
0
0
SCALE
5
FC5
102
{ACAD_REACTORS
330
FAB
102
}
330
FAB
100
AcDbScale
70
0
300
3/8" = 1'-0"
140
0.375
141
12.0
290
0
0
SCALE
5
FC6
102
{ACAD_REACTORS
330
FAB
102
}
330
FAB
100
AcDbScale
70
0
300
1/2" = 1'-0"
140
0.5
141
12.0
290
0
0
SCALE
5
FC7
102
{ACAD_REACTORS
330
FAB
102
}
330
FAB
100
AcDbScale
70
0
300
3/4" = 1'-0"
140
0.75
141
12.0
290
0
0
SCALE
5
FC8
102
{ACAD_REACTORS
330
FAB
102
}
330
FAB
100
AcDbScale
70
0
300
1" = 1'-0"
140
1.0
141
12.0
290
0
0
SCALE
5
FC9
102
{ACAD_REACTORS
330
FAB
102
}
330
FAB
100
AcDbScale
70
0
300
1-1/2" = 1'-0"
140
1.5
141
12.0
290
0
0
SCALE
5
FCA
102
{ACAD_REACTORS
330
FAB
102
}
330
FAB
100
AcDbScale
70
0
300
3" = 1'-0"
140
3.0
141
12.0
290
0
0
SCALE
5
FCB
102
{ACAD_REACTORS
330
FAB
102
}
330
FAB
100
AcDbScale
70
0
300
6" = 1'-0"
140
6.0
141
12.0
290
0
0
SCALE
5
FCC
102
{ACAD_REACTORS
330
FAB
102
}
330
FAB
100
AcDbScale
70
0
300
1'-0" = 1'-0"
140
12.0
141
12.0
290
0
0
TABLESTYLE
5
FA9
102
{ACAD_XDICTIONARY
360
FF8
102
}
102
{ACAD_REACTORS
330
FA8
102
}
330
FA8
100
AcDbTableStyle
3
Standard
70
0
71
0
40
0.06
41
0.06
280
0
281
0
7
Standard
140
0.18
170
2
62
0
63
7
283
0
274
-2
284
1
64
0
275
-2
285
1
65
0
276
-2
286
1
66
0
277
-2
287
1
67
0
278
-2
288
1
68
0
279
-2
289
1
69
0
7
Standard
140
0.25
170
5
62
0
63
7
283
0
274
-2
284
1
64
0
275
-2
285
1
65
0
276
-2
286
1
66
0
277
-2
287
1
67
0
278
-2
288
1
68
0
279
-2
289
1
69
0
7
Standard
140
0.18
170
5
62
0
63
7
283
0
274
-2
284
1
64
0
275
-2
285
1
65
0
276
-2
286
1
66
0
277
-2
287
1
67
0
278
-2
288
1
68
0
279
-2
289
1
69
0
0
VISUALSTYLE
5
F99
102
{ACAD_XDICTIONARY
360
108A
102
}
102
{ACAD_REACTORS
330
F93
102
}
330
F93
100
AcDbVisualStyle
2

70
4
71
0
72
2
73
0
90
0
40
-0.6
41
-30.0
62
5
63
7
74
1
91
4
64
7
65
257
75
1
175
1
42
1.0
92
0
66
257
43
1.0
76
1
77
6
78
2
67
7
79
5
170
0
171
0
290
0
174
0
93
1
44
0.0
173
0
291
0
45
0.0
1001
ACAD
1000
AcDbSavedByObjectVersion
1070
0
0
VISUALSTYLE
5
F9B
102
{ACAD_XDICTIONARY
360
108E
102
}
102
{ACAD_REACTORS
330
F93
102
}
330
F93
100
AcDbVisualStyle
2

70
6
71
1
72
2
73
2
90
0
40
-0.6
41
-30.0
62
5
63
7
74
2
91
2
64
7
65
257
75
2
175
1
42
179.0
92
0
66
257
43
1.0
76
1
77
6
78
2
67
7
79
3
170
0
171
0
290
0
174
0
93
1
44
0.0
173
0
291
0
45
0.0
1001
ACAD
1000
AcDbSavedByObjectVersion
1070
0
0
VISUALSTYLE
5
F9A
102
{ACAD_XDICTIONARY
360
108C
102
}
102
{ACAD_REACTORS
330
F93
102
}
330
F93
100
AcDbVisualStyle
2

70
5
71
0
72
2
73
0
90
0
40
-0.6
41
-30.0
62
5
63
7
74
1
91
4
64
7
65
257
75
1
175
1
42
1.0
92
0
66
257
43
1.0
76
1
77
6
78
2
67
7
79
5
170
0
171
0
290
0
174
0
93
1
44
0.0
173
0
291
0
45
0.0
1001
ACAD
1000
AcDbSavedByObjectVersion
1070
0
0
VISUALSTYLE
5
F98
102
{ACAD_XDICTIONARY
360
1088
102
}
102
{ACAD_REACTORS
330
F93
102
}
330
F93
100
AcDbVisualStyle
2

70
7
71
1
72
0
73
1
90
0
40
-0.6
41
-30.0
62
5
63
7
74
0
91
4
64
7
65
257
75
1
175
1
42
1.0
92
8
66
7
43
1.0
76
1
77
6
78
2
67
7
79
5
170
0
171
0
290
0
174
0
93
1
44
0.0
173
0
291
1
45
0.0
1001
ACAD
1000
AcDbSavedByObjectVersion
1070
0
0
VISUALSTYLE
5
F9F
102
{ACAD_XDICTIONARY
360
1096
102
}
102
{ACAD_REACTORS
330
F93
102
}
330
F93
100
AcDbVisualStyle
2

70
12
71
2
72
2
73
0
90
0
40
-0.6
41
-30.0
62
5
63
7
74
1
91
4
64
7
65
257
75
1
175
1
42
1.0
92
8
66
7
43
1.0
76
1
77
6
78
2
67
7
79
5
170
0
171
0
290
0
174
0
93
1
44
50.0
173
0
291
1
45
0.0
1001
ACAD
1000
AcDbSavedByObjectVersion
1070
0
0
VISUALSTYLE
5
FA3
102
{ACAD_XDICTIONARY
360
109E
102
}
102
{ACAD_REACTORS
330
F93
102
}
330
F93
100
AcDbVisualStyle
2

70
16
71
2
72
2
73
3
90
0
40
-0.6
41
-30.0
62
5
63
8
74
1
91
4
64
7
65
257
75
1
175
1
42
1.0
92
8
66
8
43
1.0
76
1
77
6
78
2
67
7
79
5
170
0
171
0
290
0
174
0
93
1
44
0.0
173
0
291
1
45
0.0
1001
ACAD
1000
AcDbSavedByObjectVersion
1070
0
0
VISUALSTYLE
5
F9C
102
{ACAD_XDICTIONARY
360
1090
102
}
102
{ACAD_REACTORS
330
F93
102
}
330
F93
100
AcDbVisualStyle
2

70
9
71
3
72
2
73
0
90
0
40
-0.6
41
-30.0
62
5
63
7
74
2
91
2
64
7
65
257
75
1
175
1
42
179.0
92
8
66
7
43
1.0
76
1
77
6
78
2
67
7
79
3
170
0
171
0
290
0
174
0
93
1
44
0.0
173
0
291
0
45
0.0
1001
ACAD
1000
AcDbSavedByObjectVersion
1070
0
0
VISUALSTYLE
5
F9E
102
{ACAD_XDICTIONARY
360
1094
102
}
102
{ACAD_REACTORS
330
F93
102
}
330
F93
100
AcDbVisualStyle
2

70
11
71
2
72
2
73
0
90
0
40
-0.6
41
-30.0
62
5
63
7
74
1
91
4
64
7
65
257
75
1
175
1
42
1.0
92
8
66
7
43
1.0
76
1
77
6
78
2
67
7
79
5
170
0
171
0
290
0
174
0
93
1
44
-50.0
173
0
291
1
45
0.0
1001
ACAD
1000
AcDbSavedByObjectVersion
1070
0
0
VISUALSTYLE
5
FA6
102
{ACAD_XDICTIONARY
360
10A4
102
}
102
{ACAD_REACTORS
330
F93
102
}
330
F93
100
AcDbVisualStyle
2

70
22
71
2
72
2
73
0
90
0
40
-0.6
41
-30.0
62
5
63
7
74
1
91
4
64
7
65
257
75
1
175
1
42
1.0
92
8
66
7
43
1.0
76
1
77
6
78
2
67
7
79
5
170
0
171
0
290
0
174
0
93
1
44
0.0
173
0
291
1
45
0.0
1001
ACAD
1000
AcDbSavedByObjectVersion
1070
0
0
VISUALSTYLE
5
FA2
102
{ACAD_XDICTIONARY
360
109C
102
}
102
{ACAD_REACTORS
330
F93
102
}
330
F93
100
AcDbVisualStyle
2

70
15
71
2
72
2
73
0
90
0
40
-0.6
41
-30.0
62
5
63
7
74
1
91
4
64
7
65
257
75
1
175
1
42
1.0
92
8
66
7
43
1.0
76
1
77
6
78
2
67
7
79
5
170
0
171
0
290
0
174
0
93
1
44
0.0
173
0
291
1
45
0.0
1001
ACAD
1000
AcDbSavedByObjectVersion
1070
0
0
VISUALSTYLE
5
F94
102
{ACAD_XDICTIONARY
360
1080
102
}
102
{ACAD_REACTORS
330
F93
102
}
330
F93
100
AcDbVisualStyle
2

70
0
71
2
72
1
73
1
90
2
40
-0.6
41
30.0
62
5
63
7
74
0
91
4
64
7
65
257
75
1
175
1
42
1.0
92
8
66
7
43
1.0
76
1
77
6
78
2
67
7
79
5
170
0
171
0
290
0
174
0
93
13
44
0.0
173
0
291
1
45
0.0
1001
ACAD
1000
AcDbSavedByObjectVersion
1070
0
0
VISUALSTYLE
5
F95
102
{ACAD_XDICTIONARY
360
1082
102
}
102
{ACAD_REACTORS
330
F93
102
}
330
F93
100
AcDbVisualStyle
2

70
1
71
2
72
1
73
1
90
2
40
-0.6
41
30.0
62
5
63
7
74
1
91
4
64
7
65
257
75
1
175
1
42
1.0
92
0
66
257
43
1.0
76
1
77
6
78
2
67
7
79
5
170
0
171
0
290
0
174
0
93
13
44
0.0
173
0
291
1
45
0.0
1001
ACAD
1000
AcDbSavedByObjectVersion
1070
0
0
VISUALSTYLE
5
F96
102
{ACAD_XDICTIONARY
360
1084
102
}
102
{ACAD_REACTORS
330
F93
102
}
330
F93
100
AcDbVisualStyle
2

70
2
71
2
72
2
73
1
90
2
40
-0.6
41
30.0
62
5
63
7
74
0
91
4
64
7
65
257
75
1
175
1
42
1.0
92
0
66
7
43
1.0
76
1
77
6
78
2
67
7
79
5
170
0
171
0
290
0
174
0
93
13
44
0.0
173
0
291
1
45
0.0
1001
ACAD
1000
AcDbSavedByObjectVersion
1070
0
0
VISUALSTYLE
5
F97
102
{ACAD_XDICTIONARY
360
1086
102
}
102
{ACAD_REACTORS
330
F93
102
}
330
F93
100
AcDbVisualStyle
2

70
3
71
2
72
2
73
1
90
2
40
-0.6
41
30.0
62
5
63
7
74
1
91
4
64
7
65
257
75
1
175
1
42
1.0
92
0
66
257
43
1.0
76
1
77
6
78
2
67
7
79
5
170
0
171
0
290
0
174
0
93
13
44
0.0
173
0
291
1
45
0.0
1001
ACAD
1000
AcDbSavedByObjectVersion
1070
0
0
VISUALSTYLE
5
FA4
102
{ACAD_XDICTIONARY
360
10A0
102
}
102
{ACAD_REACTORS
330
F93
102
}
330
F93
100
AcDbVisualStyle
2

70
20
71
2
72
2
73
0
90
0
40
-0.6
41
-30.0
62
5
63
7
74
1
91
4
64
7
65
257
75
1
175
1
42
1.0
92
10
66
7
43
1.0
76
1
77
6
78
2
67
7
79
5
170
0
171
0
290
0
174
0
93
1
44
0.0
173
0
291
1
45
0.0
1001
ACAD
1000
AcDbSavedByObjectVersion
1070
0
0
VISUALSTYLE
5
FA1
102
{ACAD_XDICTIONARY
360
109A
102
}
102
{ACAD_REACTORS
330
F93
102
}
330
F93
100
AcDbVisualStyle
2

70
14
71
2
72
2
73
0
90
0
40
-0.6
41
-30.0
62
5
63
7
74
1
91
4
64
7
65
257
75
7
175
7
42
1.0
92
8
66
7
43
1.0
76
1
77
6
78
2
67
7
79
5
170
0
171
0
290
0
174
0
93
1
44
0.0
173
0
291
1
45
0.0
1001
ACAD
1000
AcDbSavedByObjectVersion
1070
0
0
VISUALSTYLE
5
FA5
102
{ACAD_XDICTIONARY
360
10A2
102
}
102
{ACAD_REACTORS
330
F93
102
}
330
F93
100
AcDbVisualStyle
2

70
21
71
2
72
2
73
0
90
0
40
-0.6
41
-30.0
62
5
63
7
74
1
91
4
64
7
65
257
75
1
175
1
42
1.0
92
9
66
7
43
1.0
76
1
77
6
78
2
67
7
79
5
170
0
171
0
290
0
174
0
93
1
44
0.0
173
0
291
1
45
0.0
1001
ACAD
1000
AcDbSavedByObjectVersion
1070
0
0
VISUALSTYLE
5
F9D
102
{ACAD_XDICTIONARY
360
1092
102
}
102
{ACAD_REACTORS
330
F93
102
}
330
F93
100
AcDbVisualStyle
2

70
8
71
2
72
2
73
0
90
0
40
-0.6
41
-30.0
62
5
63
7
74
1
91
0
64
7
65
257
75
1
175
1
42
1.0
92
8
66
8
43
1.0
76
1
77
6
78
2
67
7
79
5
170
0
171
0
290
0
174
0
93
13
44
0.0
173
0
291
0
45
0.0
1001
ACAD
1000
AcDbSavedByObjectVersion
1070
0
0
VISUALSTYLE
5
FA0
102
{ACAD_XDICTIONARY
360
1098
102
}
102
{ACAD_REACTORS
330
F93
102
}
330
F93
100
AcDbVisualStyle
2

70
13
71
2
72
2
73
0
90
0
40
-0.6
41
-30.0
62
5
63
7
74
1
91
4
64
7
65
257
75
1
175
1
42
1.0
92
12
66
7
43
1.0
76
1
77
6
78
2
67
7
79
5
170
0
171
0
290
0
174
0
93
1
44
0.0
173
0
291
1
45
0.0
1001
ACAD
1000
AcDbSavedByObjectVersion
1070
0
0
DICTIONARYVAR
5
FF3
102
{ACAD_REACTORS
330
FF0
102
}
330
FF0
100
DictionaryVariables
280
0
1
1:1
0
DICTIONARYVAR
5
FF2
102
{ACAD_REACTORS
330
FF0
102
}
330
FF0
100
DictionaryVariables
280
0
1
STANDARD
0
DICTIONARYVAR
5
FF1
102
{ACAD_REACTORS
330
FF0
102
}
330
FF0
100
DictionaryVariables
280
0
1
STANDARD
0
DICTIONARYVAR
5
FF6
102
{ACAD_REACTORS
330
FF0
102
}
330
FF0
100
DictionaryVariables
280
0
1
1
0
DICTIONARYVAR
5
FF5
102
{ACAD_REACTORS
330
FF0
102
}
330
FF0
100
DictionaryVariables
280
0
1
0
0
DICTIONARYVAR
5
FF4
102
{ACAD_REACTORS
330
FF0
102
}
330
FF0
100
DictionaryVariables
280
0
1
127
0
DICTIONARYVAR
5
1078
102
{ACAD_REACTORS
330
FF0
102
}
330
FF0
100
DictionaryVariables
280
0
1
2
0
DICTIONARY
5
10A9
330
FD1
100
AcDbDictionary
280
1
281
1
3
ACAD_XREC_ROUNDTRIP
360
10AA
0
DICTIONARY
5
10A7
330
FD0
100
AcDbDictionary
280
1
281
1
3
ACAD_XREC_ROUNDTRIP
360
10A8
0
DICTIONARY
5
F84
330
F83
100
AcDbDictionary
280
1
281
1
3
ACAD_XREC_ROUNDTRIP
360
FFF
3
BUMPTILE
360
F86
3
DIFFUSETILE
360
F85
3
OPACITYTILE
360
F89
3
REFLECTIONTILE
360
F88
3
REFRACTIONTILE
360
F8A
3
SPECULARTILE
360
F87
0
DICTIONARY
5
F7C
330
F7B
100
AcDbDictionary
280
1
281
1
3
ACAD_XREC_ROUNDTRIP
360
FFE
3
BUMPTILE
360
F7E
3
DIFFUSETILE
360
F7D
3
OPACITYTILE
360
F81
3
REFLECTIONTILE
360
F80
3
REFRACTIONTILE
360
F82
3
SPECULARTILE
360
F7F
0
DICTIONARY
5
F8C
330
F8B
100
AcDbDictionary
280
1
281
1
3
ACAD_XREC_ROUNDTRIP
360
1000
3
BUMPTILE
360
F8E
3
DIFFUSETILE
360
F8D
3
OPACITYTILE
360
F91
3
REFLECTIONTILE
360
F90
3
REFRACTIONTILE
360
F92
3
SPECULARTILE
360
F8F
0
DICTIONARY
5
FF8
330
FA9
100
AcDbDictionary
280
1
281
1
3
ACAD_ROUNDTRIP_2008_TABLESTYLE_CELLSTYLEMAP
360
1079
3
ACAD_XREC_ROUNDTRIP
360
10A6
0
DICTIONARY
5
108A
330
F99
100
AcDbDictionary
280
1
281
1
3
ACAD_XREC_ROUNDTRIP
360
108B
0
DICTIONARY
5
108E
330
F9B
100
AcDbDictionary
280
1
281
1
3
ACAD_XREC_ROUNDTRIP
360
108F
0
DICTIONARY
5
108C
330
F9A
100
AcDbDictionary
280
1
281
1
3
ACAD_XREC_ROUNDTRIP
360
108D
0
DICTIONARY
5
1088
330
F98
100
AcDbDictionary
280
1
281
1
3
ACAD_XREC_ROUNDTRIP
360
1089
0
DICTIONARY
5
1096
330
F9F
100
AcDbDictionary
280
1
281
1
3
ACAD_XREC_ROUNDTRIP
360
1097
0
DICTIONARY
5
109E
330
FA3
100
AcDbDictionary
280
1
281
1
3
ACAD_XREC_ROUNDTRIP
360
109F
0
DICTIONARY
5
1090
330
F9C
100
AcDbDictionary
280
1
281
1
3
ACAD_XREC_ROUNDTRIP
360
1091
0
DICTIONARY
5
1094
330
F9E
100
AcDbDictionary
280
1
281
1
3
ACAD_XREC_ROUNDTRIP
360
1095
0
DICTIONARY
5
10A4
330
FA6
100
AcDbDictionary
280
1
281
1
3
ACAD_XREC_ROUNDTRIP
360
10A5
0
DICTIONARY
5
109C
330
FA2
100
AcDbDictionary
280
1
281
1
3
ACAD_XREC_ROUNDTRIP
360
109D
0
DICTIONARY
5
1080
330
F94
100
AcDbDictionary
280
1
281
1
3
ACAD_XREC_ROUNDTRIP
360
1081
0
DICTIONARY
5
1082
330
F95
100
AcDbDictionary
280
1
281
1
3
ACAD_XREC_ROUNDTRIP
360
1083
0
DICTIONARY
5
1084
330
F96
100
AcDbDictionary
280
1
281
1
3
ACAD_XREC_ROUNDTRIP
360
1085
0
DICTIONARY
5
1086
330
F97
100
AcDbDictionary
280
1
281
1
3
ACAD_XREC_ROUNDTRIP
360
1087
0
DICTIONARY
5
10A0
330
FA4
100
AcDbDictionary
280
1
281
1
3
ACAD_XREC_ROUNDTRIP
360
10A1
0
DICTIONARY
5
109A
330
FA1
100
AcDbDictionary
280
1
281
1
3
ACAD_XREC_ROUNDTRIP
360
109B
0
DICTIONARY
5
10A2
330
FA5
100
AcDbDictionary
280
1
281
1
3
ACAD_XREC_ROUNDTRIP
360
10A3
0
DICTIONARY
5
1092
330
F9D
100
AcDbDictionary
280
1
281
1
3
ACAD_XREC_ROUNDTRIP
360
1093
0
DICTIONARY
5
1098
330
FA0
100
AcDbDictionary
280
1
281
1
3
ACAD_XREC_ROUNDTRIP
360
1099
0
XRECORD
5
10AA
102
{ACAD_REACTORS
330
10A9
102
}
330
10A9
100
AcDbXrecord
280
1
102
SHADEPLOT
70
0
102
SHADEPLOTRESLEVEL
70
2
102
SHADEPLOTCUSTOMDPI
70
300
0
XRECORD
5
10A8
102
{ACAD_REACTORS
330
10A7
102
}
330
10A7
100
AcDbXrecord
280
1
102
SHADEPLOT
70
0
102
SHADEPLOTRESLEVEL
70
2
102
SHADEPLOTCUSTOMDPI
70
300
0
XRECORD
5
FFF
102
{ACAD_REACTORS
330
F84
102
}
330
F84
100
AcDbXrecord
280
1
102
MATERIAL
148
0.0
149
0.0
149
0.0
93
0
94
127
282
0
72
0
77
0
171
0
175
0
179
0
273
0
0
XRECORD
5
F86
102
{ACAD_REACTORS
330
F84
102
}
330
F84
100
AcDbXrecord
280
1
270
1
271
1
0
XRECORD
5
F85
102
{ACAD_REACTORS
330
F84
102
}
330
F84
100
AcDbXrecord
280
1
270
1
271
1
0
XRECORD
5
F89
102
{ACAD_REACTORS
330
F84
102
}
330
F84
100
AcDbXrecord
280
1
270
1
271
1
0
XRECORD
5
F88
102
{ACAD_REACTORS
330
F84
102
}
330
F84
100
AcDbXrecord
280
1
270
1
271
1
0
XRECORD
5
F8A
102
{ACAD_REACTORS
330
F84
102
}
330
F84
100
AcDbXrecord
280
1
270
1
271
1
0
XRECORD
5
F87
102
{ACAD_REACTORS
330
F84
102
}
330
F84
100
AcDbXrecord
280
1
270
1
271
1
0
XRECORD
5
FFE
102
{ACAD_REACTORS
330
F7C
102
}
330
F7C
100
AcDbXrecord
280
1
102
MATERIAL
148
0.0
149
0.0
149
0.0
93
0
94
127
282
0
72
0
77
0
171
0
175
0
179
0
273
0
0
XRECORD
5
F7E
102
{ACAD_REACTORS
330
F7C
102
}
330
F7C
100
AcDbXrecord
280
1
270
1
271
1
0
XRECORD
5
F7D
102
{ACAD_REACTORS
330
F7C
102
}
330
F7C
100
AcDbXrecord
280
1
270
1
271
1
0
XRECORD
5
F81
102
{ACAD_REACTORS
330
F7C
102
}
330
F7C
100
AcDbXrecord
280
1
270
1
271
1
0
XRECORD
5
F80
102
{ACAD_REACTORS
330
F7C
102
}
330
F7C
100
AcDbXrecord
280
1
270
1
271
1
0
XRECORD
5
F82
102
{ACAD_REACTORS
330
F7C
102
}
330
F7C
100
AcDbXrecord
280
1
270
1
271
1
0
XRECORD
5
F7F
102
{ACAD_REACTORS
330
F7C
102
}
330
F7C
100
AcDbXrecord
280
1
270
1
271
1
0
XRECORD
5
1000
102
{ACAD_REACTORS
330
F8C
102
}
330
F8C
100
AcDbXrecord
280
1
102
MATERIAL
148
0.0
149
0.0
149
0.0
93
0
94
127
282
0
72
0
77
0
171
0
175
0
179
0
273
0
0
XRECORD
5
F8E
102
{ACAD_REACTORS
330
F8C
102
}
330
F8C
100
AcDbXrecord
280
1
270
1
271
1
0
XRECORD
5
F8D
102
{ACAD_REACTORS
330
F8C
102
}
330
F8C
100
AcDbXrecord
280
1
270
1
271
1
0
XRECORD
5
F91
102
{ACAD_REACTORS
330
F8C
102
}
330
F8C
100
AcDbXrecord
280
1
270
1
271
1
0
XRECORD
5
F90
102
{ACAD_REACTORS
330
F8C
102
}
330
F8C
100
AcDbXrecord
280
1
270
1
271
1
0
XRECORD
5
F92
102
{ACAD_REACTORS
330
F8C
102
}
330
F8C
100
AcDbXrecord
280
1
270
1
271
1
0
XRECORD
5
F8F
102
{ACAD_REACTORS
330
F8C
102
}
330
F8C
100
AcDbXrecord
280
1
270
1
271
1
0
CELLSTYLEMAP
5
1079
102
{ACAD_REACTORS
330
FF8
102
}
330
FF8
100
AcDbCellStyleMap
90
3
300
CELLSTYLE
1
TABLEFORMAT_BEGIN
90
5
170
1
91
0
92
32768
62
257
93
1
300
CONTENTFORMAT
1
CONTENTFORMAT_BEGIN
90
0
91
0
92
512
93
0
300

40
0.0
140
1.0
94
5
62
0
340
253
144
0.25
309
CONTENTFORMAT_END
171
1
301
MARGIN
1
CELLMARGIN_BEGIN
40
0.06
40
0.06
40
0.06
40
0.06
40
0.18
40
0.18
309
CELLMARGIN_END
94
6
95
1
302
GRIDFORMAT
1
GRIDFORMAT_BEGIN
90
0
91
1
62
0
92
-2
340
0
93
0
40
0.045
309
GRIDFORMAT_END
95
2
302
GRIDFORMAT
1
GRIDFORMAT_BEGIN
90
0
91
1
62
0
92
-2
340
0
93
0
40
0.045
309
GRIDFORMAT_END
95
4
302
GRIDFORMAT
1
GRIDFORMAT_BEGIN
90
0
91
1
62
0
92
-2
340
0
93
0
40
0.045
309
GRIDFORMAT_END
95
8
302
GRIDFORMAT
1
GRIDFORMAT_BEGIN
90
0
91
1
62
0
92
-2
340
0
93
0
40
0.045
309
GRIDFORMAT_END
95
16
302
GRIDFORMAT
1
GRIDFORMAT_BEGIN
90
0
91
1
62
0
92
-2
340
0
93
0
40
0.045
309
GRIDFORMAT_END
95
32
302
GRIDFORMAT
1
GRIDFORMAT_BEGIN
90
0
91
1
62
0
92
-2
340
0
93
0
40
0.045
309
GRIDFORMAT_END
309
TABLEFORMAT_END
1
CELLSTYLE_BEGIN
90
1
91
1
300
_TITLE
309
CELLSTYLE_END
300
CELLSTYLE
1
TABLEFORMAT_BEGIN
90
5
170
1
91
0
92
0
62
257
93
1
300
CONTENTFORMAT
1
CONTENTFORMAT_BEGIN
90
0
91
0
92
512
93
0
300

40
0.0
140
1.0
94
5
62
0
340
253
144
0.18
309
CONTENTFORMAT_END
171
1
301
MARGIN
1
CELLMARGIN_BEGIN
40
0.06
40
0.06
40
0.06
40
0.06
40
0.18
40
0.18
309
CELLMARGIN_END
94
6
95
1
302
GRIDFORMAT
1
GRIDFORMAT_BEGIN
90
0
91
1
62
0
92
-2
340
0
93
0
40
0.045
309
GRIDFORMAT_END
95
2
302
GRIDFORMAT
1
GRIDFORMAT_BEGIN
90
0
91
1
62
0
92
-2
340
0
93
0
40
0.045
309
GRIDFORMAT_END
95
4
302
GRIDFORMAT
1
GRIDFORMAT_BEGIN
90
0
91
1
62
0
92
-2
340
0
93
0
40
0.045
309
GRIDFORMAT_END
95
8
302
GRIDFORMAT
1
GRIDFORMAT_BEGIN
90
0
91
1
62
0
92
-2
340
0
93
0
40
0.045
309
GRIDFORMAT_END
95
16
302
GRIDFORMAT
1
GRIDFORMAT_BEGIN
90
0
91
1
62
0
92
-2
340
0
93
0
40
0.045
309
GRIDFORMAT_END
95
32
302
GRIDFORMAT
1
GRIDFORMAT_BEGIN
90
0
91
1
62
0
92
-2
340
0
93
0
40
0.045
309
GRIDFORMAT_END
309
TABLEFORMAT_END
1
CELLSTYLE_BEGIN
90
2
91
1
300
_HEADER
309
CELLSTYLE_END
300
CELLSTYLE
1
TABLEFORMAT_BEGIN
90
5
170
1
91
0
92
0
62
257
93
1
300
CONTENTFORMAT
1
CONTENTFORMAT_BEGIN
90
0
91
0
92
512
93
0
300

40
0.0
140
1.0
94
2
62
0
340
253
144
0.18
309
CONTENTFORMAT_END
171
1
301
MARGIN
1
CELLMARGIN_BEGIN
40
0.06
40
0.06
40
0.06
40
0.06
40
0.18
40
0.18
309
CELLMARGIN_END
94
6
95
1
302
GRIDFORMAT
1
GRIDFORMAT_BEGIN
90
0
91
1
62
0
92
-2
340
0
93
0
40
0.045
309
GRIDFORMAT_END
95
2
302
GRIDFORMAT
1
GRIDFORMAT_BEGIN
90
0
91
1
62
0
92
-2
340
0
93
0
40
0.045
309
GRIDFORMAT_END
95
4
302
GRIDFORMAT
1
GRIDFORMAT_BEGIN
90
0
91
1
62
0
92
-2
340
0
93
0
40
0.045
309
GRIDFORMAT_END
95
8
302
GRIDFORMAT
1
GRIDFORMAT_BEGIN
90
0
91
1
62
0
92
-2
340
0
93
0
40
0.045
309
GRIDFORMAT_END
95
16
302
GRIDFORMAT
1
GRIDFORMAT_BEGIN
90
0
91
1
62
0
92
-2
340
0
93
0
40
0.045
309
GRIDFORMAT_END
95
32
302
GRIDFORMAT
1
GRIDFORMAT_BEGIN
90
0
91
1
62
0
92
-2
340
0
93
0
40
0.045
309
GRIDFORMAT_END
309
TABLEFORMAT_END
1
CELLSTYLE_BEGIN
90
3
91
2
300
_DATA
309
CELLSTYLE_END
0
XRECORD
5
10A6
102
{ACAD_REACTORS
330
FF8
102
}
330
FF8
100
AcDbXrecord
280
1
102
ACAD_ROUNDTRIP_PRE2007_TABLESTYLE
90
512
91
0
1

92
512
93
0
2

94
512
95
0
3

0
XRECORD
5
108B
102
{ACAD_REACTORS
330
108A
102
}
330
108A
100
AcDbXrecord
280
1
102
RTVSPropertyOp0
70
1
102
RTVSPropertyOp1
70
1
102
RTVSPropertyOp2
70
1
102
RTVSPropertyOp3
70
1
102
RTVSPropertyOp4
70
1
102
RTVSPropertyOp5
70
1
102
RTVSPropertyOp6
70
1
102
RTVSPropertyOp7
70
1
102
RTVSPropertyOp8
70
1
102
RTVSPropertyOp9
70
1
102
RTVSPropertyOp10
70
1
102
RTVSPropertyOp11
70
1
102
RTVSPropertyOp12
70
1
102
RTVSPropertyOp13
70
1
102
RTVSPropertyOp14
70
1
102
RTVSPropertyOp15
70
1
102
RTVSPropertyOp16
70
1
102
RTVSPropertyOp17
70
1
102
RTVSPropertyOp18
70
1
102
RTVSPropertyOp19
70
1
102
RTVSPropertyOp20
70
1
102
RTVSPropertyOp21
70
1
102
RTVSPropertyOp22
70
1
102
RTVSPropertyOp23
70
1
102
RTVSPropertyOp24
70
1
102
RTVSPropertyOp25
70
1
102
RTVSPropertyOp26
70
1
102
RTVSPropertyOp27
70
1
0
XRECORD
5
108F
102
{ACAD_REACTORS
330
108E
102
}
330
108E
100
AcDbXrecord
280
1
102
RTVSPropertyOp0
70
1
102
RTVSPropertyOp1
70
1
102
RTVSPropertyOp2
70
1
102
RTVSPropertyOp3
70
1
102
RTVSPropertyOp4
70
1
102
RTVSPropertyOp5
70
1
102
RTVSPropertyOp6
70
1
102
RTVSPropertyOp7
70
1
102
RTVSPropertyOp8
70
1
102
RTVSPropertyOp9
70
1
102
RTVSPropertyOp10
70
1
102
RTVSPropertyOp11
70
1
102
RTVSPropertyOp12
70
1
102
RTVSPropertyOp13
70
1
102
RTVSPropertyOp14
70
1
102
RTVSPropertyOp15
70
1
102
RTVSPropertyOp16
70
1
102
RTVSPropertyOp17
70
1
102
RTVSPropertyOp18
70
1
102
RTVSPropertyOp19
70
1
102
RTVSPropertyOp20
70
1
102
RTVSPropertyOp21
70
1
102
RTVSPropertyOp22
70
1
102
RTVSPropertyOp23
70
1
102
RTVSPropertyOp24
70
1
102
RTVSPropertyOp25
70
1
102
RTVSPropertyOp26
70
1
102
RTVSPropertyOp27
70
1
0
XRECORD
5
108D
102
{ACAD_REACTORS
330
108C
102
}
330
108C
100
AcDbXrecord
280
1
102
RTVSPropertyOp0
70
1
102
RTVSPropertyOp1
70
1
102
RTVSPropertyOp2
70
1
102
RTVSPropertyOp3
70
1
102
RTVSPropertyOp4
70
1
102
RTVSPropertyOp5
70
1
102
RTVSPropertyOp6
70
1
102
RTVSPropertyOp7
70
1
102
RTVSPropertyOp8
70
1
102
RTVSPropertyOp9
70
1
102
RTVSPropertyOp10
70
1
102
RTVSPropertyOp11
70
1
102
RTVSPropertyOp12
70
1
102
RTVSPropertyOp13
70
1
102
RTVSPropertyOp14
70
1
102
RTVSPropertyOp15
70
1
102
RTVSPropertyOp16
70
1
102
RTVSPropertyOp17
70
1
102
RTVSPropertyOp18
70
1
102
RTVSPropertyOp19
70
1
102
RTVSPropertyOp20
70
1
102
RTVSPropertyOp21
70
1
102
RTVSPropertyOp22
70
1
102
RTVSPropertyOp23
70
1
102
RTVSPropertyOp24
70
1
102
RTVSPropertyOp25
70
1
102
RTVSPropertyOp26
70
1
102
RTVSPropertyOp27
70
1
0
XRECORD
5
1089
102
{ACAD_REACTORS
330
1088
102
}
330
1088
100
AcDbXrecord
280
1
102
RTVSPropertyOp0
70
1
102
RTVSPropertyOp1
70
1
102
RTVSPropertyOp2
70
1
102
RTVSPropertyOp3
70
1
102
RTVSPropertyOp4
70
1
102
RTVSPropertyOp5
70
1
102
RTVSPropertyOp6
70
1
102
RTVSPropertyOp7
70
1
102
RTVSPropertyOp8
70
1
102
RTVSPropertyOp9
70
1
102
RTVSPropertyOp10
70
1
102
RTVSPropertyOp11
70
1
102
RTVSPropertyOp12
70
1
102
RTVSPropertyOp13
70
1
102
RTVSPropertyOp14
70
1
102
RTVSPropertyOp15
70
1
102
RTVSPropertyOp16
70
1
102
RTVSPropertyOp17
70
1
102
RTVSPropertyOp18
70
1
102
RTVSPropertyOp19
70
1
102
RTVSPropertyOp20
70
1
102
RTVSPropertyOp21
70
1
102
RTVSPropertyOp22
70
1
102
RTVSPropertyOp23
70
1
102
RTVSPropertyOp24
70
1
102
RTVSPropertyOp25
70
1
102
RTVSPropertyOp26
70
1
102
RTVSPropertyOp27
70
1
0
XRECORD
5
1097
102
{ACAD_REACTORS
330
1096
102
}
330
1096
100
AcDbXrecord
280
1
102
RTVSPropertyOp0
70
1
102
RTVSPropertyOp1
70
1
102
RTVSPropertyOp2
70
1
102
RTVSPropertyOp3
70
1
102
RTVSPropertyOp4
70
1
102
RTVSPropertyOp5
70
1
102
RTVSPropertyOp6
70
1
102
RTVSPropertyOp7
70
1
102
RTVSPropertyOp8
70
1
102
RTVSPropertyOp9
70
1
102
RTVSPropertyOp10
70
1
102
RTVSPropertyOp11
70
1
102
RTVSPropertyOp12
70
1
102
RTVSPropertyOp13
70
1
102
RTVSPropertyOp14
70
1
102
RTVSPropertyOp15
70
1
102
RTVSPropertyOp16
70
1
102
RTVSPropertyOp17
70
1
102
RTVSPropertyOp18
70
1
102
RTVSPropertyOp19
70
1
102
RTVSPropertyOp20
70
1
102
RTVSPropertyOp21
70
1
102
RTVSPropertyOp22
70
1
102
RTVSPropertyOp23
70
1
102
RTVSPropertyOp24
70
1
102
RTVSPropertyOp25
70
1
102
RTVSPropertyOp26
70
1
102
RTVSPropertyOp27
70
1
0
XRECORD
5
109F
102
{ACAD_REACTORS
330
109E
102
}
330
109E
100
AcDbXrecord
280
1
102
RTVSPropertyOp0
70
1
102
RTVSPropertyOp1
70
1
102
RTVSPropertyOp2
70
1
102
RTVSPropertyOp3
70
1
102
RTVSPropertyOp4
70
1
102
RTVSPropertyOp5
70
1
102
RTVSPropertyOp6
70
1
102
RTVSPropertyOp7
70
1
102
RTVSPropertyOp8
70
1
102
RTVSPropertyOp9
70
1
102
RTVSPropertyOp10
70
1
102
RTVSPropertyOp11
70
1
102
RTVSPropertyOp12
70
1
102
RTVSPropertyOp13
70
1
102
RTVSPropertyOp14
70
1
102
RTVSPropertyOp15
70
1
102
RTVSPropertyOp16
70
1
102
RTVSPropertyOp17
70
1
102
RTVSPropertyOp18
70
1
102
RTVSPropertyOp19
70
1
102
RTVSPropertyOp20
70
1
102
RTVSPropertyOp21
70
1
102
RTVSPropertyOp22
70
1
102
RTVSPropertyOp23
70
1
102
RTVSPropertyOp24
70
1
102
RTVSPropertyOp25
70
1
102
RTVSPropertyOp26
70
1
102
RTVSPropertyOp27
70
1
0
XRECORD
5
1091
102
{ACAD_REACTORS
330
1090
102
}
330
1090
100
AcDbXrecord
280
1
102
RTVSPropertyOp0
70
1
102
RTVSPropertyOp1
70
1
102
RTVSPropertyOp2
70
1
102
RTVSPropertyOp3
70
1
102
RTVSPropertyOp4
70
1
102
RTVSPropertyOp5
70
1
102
RTVSPropertyOp6
70
1
102
RTVSPropertyOp7
70
1
102
RTVSPropertyOp8
70
1
102
RTVSPropertyOp9
70
1
102
RTVSPropertyOp10
70
1
102
RTVSPropertyOp11
70
1
102
RTVSPropertyOp12
70
1
102
RTVSPropertyOp13
70
1
102
RTVSPropertyOp14
70
1
102
RTVSPropertyOp15
70
1
102
RTVSPropertyOp16
70
1
102
RTVSPropertyOp17
70
1
102
RTVSPropertyOp18
70
1
102
RTVSPropertyOp19
70
1
102
RTVSPropertyOp20
70
1
102
RTVSPropertyOp21
70
1
102
RTVSPropertyOp22
70
1
102
RTVSPropertyOp23
70
1
102
RTVSPropertyOp24
70
1
102
RTVSPropertyOp25
70
1
102
RTVSPropertyOp26
70
1
102
RTVSPropertyOp27
70
1
0
XRECORD
5
1095
102
{ACAD_REACTORS
330
1094
102
}
330
1094
100
AcDbXrecord
280
1
102
RTVSPropertyOp0
70
1
102
RTVSPropertyOp1
70
1
102
RTVSPropertyOp2
70
1
102
RTVSPropertyOp3
70
1
102
RTVSPropertyOp4
70
1
102
RTVSPropertyOp5
70
1
102
RTVSPropertyOp6
70
1
102
RTVSPropertyOp7
70
1
102
RTVSPropertyOp8
70
1
102
RTVSPropertyOp9
70
1
102
RTVSPropertyOp10
70
1
102
RTVSPropertyOp11
70
1
102
RTVSPropertyOp12
70
1
102
RTVSPropertyOp13
70
1
102
RTVSPropertyOp14
70
1
102
RTVSPropertyOp15
70
1
102
RTVSPropertyOp16
70
1
102
RTVSPropertyOp17
70
1
102
RTVSPropertyOp18
70
1
102
RTVSPropertyOp19
70
1
102
RTVSPropertyOp20
70
1
102
RTVSPropertyOp21
70
1
102
RTVSPropertyOp22
70
1
102
RTVSPropertyOp23
70
1
102
RTVSPropertyOp24
70
1
102
RTVSPropertyOp25
70
1
102
RTVSPropertyOp26
70
1
102
RTVSPropertyOp27
70
1
0
XRECORD
5
10A5
102
{ACAD_REACTORS
330
10A4
102
}
330
10A4
100
AcDbXrecord
280
1
102
RTVSPropertyOp0
70
0
102
RTVSPropertyOp1
70
0
102
RTVSPropertyOp2
70
0
102
RTVSPropertyOp3
70
0
102
RTVSPropertyOp4
70
0
102
RTVSPropertyOp5
70
0
102
RTVSPropertyOp6
70
0
102
RTVSPropertyOp7
70
0
102
RTVSPropertyOp8
70
0
102
RTVSPropertyOp9
70
0
102
RTVSPropertyOp10
70
0
102
RTVSPropertyOp11
70
0
102
RTVSPropertyOp12
70
0
102
RTVSPropertyOp13
70
0
102
RTVSPropertyOp14
70
2
102
RTVSPropertyOp15
70
0
102
RTVSPropertyOp16
70
0
102
RTVSPropertyOp17
70
0
102
RTVSPropertyOp18
70
0
102
RTVSPropertyOp19
70
0
102
RTVSPropertyOp20
70
0
102
RTVSPropertyOp21
70
0
102
RTVSPropertyOp22
70
0
102
RTVSPropertyOp23
70
0
102
RTVSPropertyOp24
70
0
102
RTVSPropertyOp25
70
0
102
RTVSPropertyOp26
70
0
102
RTVSPropertyOp27
70
0
0
XRECORD
5
109D
102
{ACAD_REACTORS
330
109C
102
}
330
109C
100
AcDbXrecord
280
1
102
RTVSPropertyOp0
70
1
102
RTVSPropertyOp1
70
1
102
RTVSPropertyOp2
70
1
102
RTVSPropertyOp3
70
1
102
RTVSPropertyOp4
70
1
102
RTVSPropertyOp5
70
1
102
RTVSPropertyOp6
70
1
102
RTVSPropertyOp7
70
1
102
RTVSPropertyOp8
70
1
102
RTVSPropertyOp9
70
1
102
RTVSPropertyOp10
70
1
102
RTVSPropertyOp11
70
1
102
RTVSPropertyOp12
70
1
102
RTVSPropertyOp13
70
1
102
RTVSPropertyOp14
70
1
102
RTVSPropertyOp15
70
1
102
RTVSPropertyOp16
70
1
102
RTVSPropertyOp17
70
1
102
RTVSPropertyOp18
70
1
102
RTVSPropertyOp19
70
1
102
RTVSPropertyOp20
70
1
102
RTVSPropertyOp21
70
1
102
RTVSPropertyOp22
70
1
102
RTVSPropertyOp23
70
1
102
RTVSPropertyOp24
70
1
102
RTVSPropertyOp25
70
1
102
RTVSPropertyOp26
70
1
102
RTVSPropertyOp27
70
1
0
XRECORD
5
1081
102
{ACAD_REACTORS
330
1080
102
}
330
1080
100
AcDbXrecord
280
1
102
RTVSPropertyOp0
70
1
102
RTVSPropertyOp1
70
1
102
RTVSPropertyOp2
70
1
102
RTVSPropertyOp3
70
1
102
RTVSPropertyOp4
70
1
102
RTVSPropertyOp5
70
1
102
RTVSPropertyOp6
70
1
102
RTVSPropertyOp7
70
1
102
RTVSPropertyOp8
70
1
102
RTVSPropertyOp9
70
1
102
RTVSPropertyOp10
70
1
102
RTVSPropertyOp11
70
1
102
RTVSPropertyOp12
70
1
102
RTVSPropertyOp13
70
1
102
RTVSPropertyOp14
70
1
102
RTVSPropertyOp15
70
1
102
RTVSPropertyOp16
70
1
102
RTVSPropertyOp17
70
1
102
RTVSPropertyOp18
70
1
102
RTVSPropertyOp19
70
1
102
RTVSPropertyOp20
70
1
102
RTVSPropertyOp21
70
1
102
RTVSPropertyOp22
70
1
102
RTVSPropertyOp23
70
1
102
RTVSPropertyOp24
70
1
102
RTVSPropertyOp25
70
1
102
RTVSPropertyOp26
70
1
102
RTVSPropertyOp27
70
1
0
XRECORD
5
1083
102
{ACAD_REACTORS
330
1082
102
}
330
1082
100
AcDbXrecord
280
1
102
RTVSPropertyOp0
70
1
102
RTVSPropertyOp1
70
1
102
RTVSPropertyOp2
70
1
102
RTVSPropertyOp3
70
1
102
RTVSPropertyOp4
70
1
102
RTVSPropertyOp5
70
1
102
RTVSPropertyOp6
70
1
102
RTVSPropertyOp7
70
1
102
RTVSPropertyOp8
70
1
102
RTVSPropertyOp9
70
1
102
RTVSPropertyOp10
70
1
102
RTVSPropertyOp11
70
1
102
RTVSPropertyOp12
70
1
102
RTVSPropertyOp13
70
1
102
RTVSPropertyOp14
70
1
102
RTVSPropertyOp15
70
1
102
RTVSPropertyOp16
70
1
102
RTVSPropertyOp17
70
1
102
RTVSPropertyOp18
70
1
102
RTVSPropertyOp19
70
1
102
RTVSPropertyOp20
70
1
102
RTVSPropertyOp21
70
1
102
RTVSPropertyOp22
70
1
102
RTVSPropertyOp23
70
1
102
RTVSPropertyOp24
70
1
102
RTVSPropertyOp25
70
1
102
RTVSPropertyOp26
70
1
102
RTVSPropertyOp27
70
1
0
XRECORD
5
1085
102
{ACAD_REACTORS
330
1084
102
}
330
1084
100
AcDbXrecord
280
1
102
RTVSPropertyOp0
70
1
102
RTVSPropertyOp1
70
1
102
RTVSPropertyOp2
70
1
102
RTVSPropertyOp3
70
1
102
RTVSPropertyOp4
70
1
102
RTVSPropertyOp5
70
1
102
RTVSPropertyOp6
70
1
102
RTVSPropertyOp7
70
1
102
RTVSPropertyOp8
70
1
102
RTVSPropertyOp9
70
1
102
RTVSPropertyOp10
70
1
102
RTVSPropertyOp11
70
1
102
RTVSPropertyOp12
70
1
102
RTVSPropertyOp13
70
1
102
RTVSPropertyOp14
70
1
102
RTVSPropertyOp15
70
1
102
RTVSPropertyOp16
70
1
102
RTVSPropertyOp17
70
1
102
RTVSPropertyOp18
70
1
102
RTVSPropertyOp19
70
1
102
RTVSPropertyOp20
70
1
102
RTVSPropertyOp21
70
1
102
RTVSPropertyOp22
70
1
102
RTVSPropertyOp23
70
1
102
RTVSPropertyOp24
70
1
102
RTVSPropertyOp25
70
1
102
RTVSPropertyOp26
70
1
102
RTVSPropertyOp27
70
1
0
XRECORD
5
1087
102
{ACAD_REACTORS
330
1086
102
}
330
1086
100
AcDbXrecord
280
1
102
RTVSPropertyOp0
70
1
102
RTVSPropertyOp1
70
1
102
RTVSPropertyOp2
70
1
102
RTVSPropertyOp3
70
1
102
RTVSPropertyOp4
70
1
102
RTVSPropertyOp5
70
1
102
RTVSPropertyOp6
70
1
102
RTVSPropertyOp7
70
1
102
RTVSPropertyOp8
70
1
102
RTVSPropertyOp9
70
1
102
RTVSPropertyOp10
70
1
102
RTVSPropertyOp11
70
1
102
RTVSPropertyOp12
70
1
102
RTVSPropertyOp13
70
1
102
RTVSPropertyOp14
70
1
102
RTVSPropertyOp15
70
1
102
RTVSPropertyOp16
70
1
102
RTVSPropertyOp17
70
1
102
RTVSPropertyOp18
70
1
102
RTVSPropertyOp19
70
1
102
RTVSPropertyOp20
70
1
102
RTVSPropertyOp21
70
1
102
RTVSPropertyOp22
70
1
102
RTVSPropertyOp23
70
1
102
RTVSPropertyOp24
70
1
102
RTVSPropertyOp25
70
1
102
RTVSPropertyOp26
70
1
102
RTVSPropertyOp27
70
1
0
XRECORD
5
10A1
102
{ACAD_REACTORS
330
10A0
102
}
330
10A0
100
AcDbXrecord
280
1
102
RTVSPropertyOp0
70
0
102
RTVSPropertyOp1
70
0
102
RTVSPropertyOp2
70
0
102
RTVSPropertyOp3
70
0
102
RTVSPropertyOp4
70
0
102
RTVSPropertyOp5
70
0
102
RTVSPropertyOp6
70
0
102
RTVSPropertyOp7
70
0
102
RTVSPropertyOp8
70
0
102
RTVSPropertyOp9
70
0
102
RTVSPropertyOp10
70
0
102
RTVSPropertyOp11
70
0
102
RTVSPropertyOp12
70
0
102
RTVSPropertyOp13
70
0
102
RTVSPropertyOp14
70
2
102
RTVSPropertyOp15
70
0
102
RTVSPropertyOp16
70
0
102
RTVSPropertyOp17
70
0
102
RTVSPropertyOp18
70
0
102
RTVSPropertyOp19
70
0
102
RTVSPropertyOp20
70
0
102
RTVSPropertyOp21
70
0
102
RTVSPropertyOp22
70
0
102
RTVSPropertyOp23
70
0
102
RTVSPropertyOp24
70
0
102
RTVSPropertyOp25
70
0
102
RTVSPropertyOp26
70
0
102
RTVSPropertyOp27
70
0
0
XRECORD
5
109B
102
{ACAD_REACTORS
330
109A
102
}
330
109A
100
AcDbXrecord
280
1
102
RTVSPropertyOp0
70
1
102
RTVSPropertyOp1
70
1
102
RTVSPropertyOp2
70
1
102
RTVSPropertyOp3
70
1
102
RTVSPropertyOp4
70
1
102
RTVSPropertyOp5
70
1
102
RTVSPropertyOp6
70
1
102
RTVSPropertyOp7
70
1
102
RTVSPropertyOp8
70
1
102
RTVSPropertyOp9
70
1
102
RTVSPropertyOp10
70
1
102
RTVSPropertyOp11
70
1
102
RTVSPropertyOp12
70
1
102
RTVSPropertyOp13
70
1
102
RTVSPropertyOp14
70
1
102
RTVSPropertyOp15
70
1
102
RTVSPropertyOp16
70
1
102
RTVSPropertyOp17
70
1
102
RTVSPropertyOp18
70
1
102
RTVSPropertyOp19
70
1
102
RTVSPropertyOp20
70
1
102
RTVSPropertyOp21
70
1
102
RTVSPropertyOp22
70
1
102
RTVSPropertyOp23
70
1
102
RTVSPropertyOp24
70
1
102
RTVSPropertyOp25
70
1
102
RTVSPropertyOp26
70
1
102
RTVSPropertyOp27
70
1
0
XRECORD
5
10A3
102
{ACAD_REACTORS
330
10A2
102
}
330
10A2
100
AcDbXrecord
280
1
102
RTVSPropertyOp0
70
0
102
RTVSPropertyOp1
70
0
102
RTVSPropertyOp2
70
0
102
RTVSPropertyOp3
70
0
102
RTVSPropertyOp4
70
0
102
RTVSPropertyOp5
70
0
102
RTVSPropertyOp6
70
0
102
RTVSPropertyOp7
70
0
102
RTVSPropertyOp8
70
0
102
RTVSPropertyOp9
70
0
102
RTVSPropertyOp10
70
0
102
RTVSPropertyOp11
70
0
102
RTVSPropertyOp12
70
0
102
RTVSPropertyOp13
70
0
102
RTVSPropertyOp14
70
2
102
RTVSPropertyOp15
70
0
102
RTVSPropertyOp16
70
0
102
RTVSPropertyOp17
70
0
102
RTVSPropertyOp18
70
0
102
RTVSPropertyOp19
70
0
102
RTVSPropertyOp20
70
0
102
RTVSPropertyOp21
70
0
102
RTVSPropertyOp22
70
0
102
RTVSPropertyOp23
70
0
102
RTVSPropertyOp24
70
0
102
RTVSPropertyOp25
70
0
102
RTVSPropertyOp26
70
0
102
RTVSPropertyOp27
70
0
0
XRECORD
5
1093
102
{ACAD_REACTORS
330
1092
102
}
330
1092
100
AcDbXrecord
280
1
102
RTVSPropertyOp0
70
1
102
RTVSPropertyOp1
70
1
102
RTVSPropertyOp2
70
1
102
RTVSPropertyOp3
70
1
102
RTVSPropertyOp4
70
1
102
RTVSPropertyOp5
70
1
102
RTVSPropertyOp6
70
1
102
RTVSPropertyOp7
70
1
102
RTVSPropertyOp8
70
1
102
RTVSPropertyOp9
70
1
102
RTVSPropertyOp10
70
1
102
RTVSPropertyOp11
70
1
102
RTVSPropertyOp12
70
1
102
RTVSPropertyOp13
70
1
102
RTVSPropertyOp14
70
1
102
RTVSPropertyOp15
70
1
102
RTVSPropertyOp16
70
1
102
RTVSPropertyOp17
70
1
102
RTVSPropertyOp18
70
1
102
RTVSPropertyOp19
70
1
102
RTVSPropertyOp20
70
1
102
RTVSPropertyOp21
70
1
102
RTVSPropertyOp22
70
1
102
RTVSPropertyOp23
70
1
102
RTVSPropertyOp24
70
1
102
RTVSPropertyOp25
70
1
102
RTVSPropertyOp26
70
1
102
RTVSPropertyOp27
70
1
0
XRECORD
5
1099
102
{ACAD_REACTORS
330
1098
102
}
330
1098
100
AcDbXrecord
280
1
102
RTVSPropertyOp0
70
1
102
RTVSPropertyOp1
70
1
102
RTVSPropertyOp2
70
1
102
RTVSPropertyOp3
70
1
102
RTVSPropertyOp4
70
1
102
RTVSPropertyOp5
70
1
102
RTVSPropertyOp6
70
1
102
RTVSPropertyOp7
70
1
102
RTVSPropertyOp8
70
1
102
RTVSPropertyOp9
70
1
102
RTVSPropertyOp10
70
1
102
RTVSPropertyOp11
70
1
102
RTVSPropertyOp12
70
1
102
RTVSPropertyOp13
70
1
102
RTVSPropertyOp14
70
1
102
RTVSPropertyOp15
70
1
102
RTVSPropertyOp16
70
1
102
RTVSPropertyOp17
70
1
102
RTVSPropertyOp18
70
1
102
RTVSPropertyOp19
70
1
102
RTVSPropertyOp20
70
1
102
RTVSPropertyOp21
70
1
102
RTVSPropertyOp22
70
1
102
RTVSPropertyOp23
70
1
102
RTVSPropertyOp24
70
1
102
RTVSPropertyOp25
70
1
102
RTVSPropertyOp26
70
1
102
RTVSPropertyOp27
70
1
0
ENDSEC
0
EOF
