0
SECTION
2
HEADER
9
$ACADVER
1
AC1015
9
$ACADMAINTVER
70
20
9
$DWGCODEPAGE
3
ANSI_1252
9
$INSBASE
10
0.0
20
0.0
30
0.0
9
$EXTMIN
10
-150.000000000000
20
-105.000000000000
30
0.0
9
$EXTMAX
10
150.000000000000
20
105.000000000000
30
0.0
9
$LIMMIN
10
0.0
20
0.0
9
$LIMMAX
10
12.0
20
9.0
9
$ORTHOMODE
70
0
9
$REGENMODE
70
1
9
$FILLMODE
70
1
9
$QTEXTMODE
70
0
9
$MIRRTEXT
70
1
9
$LTSCALE
40
1.0
9
$ATTMODE
70
1
9
$TEXTSIZE
40
0.2
9
$TRACEWID
40
0.05
9
$TEXTSTYLE
7
Standard
9
$CLAYER
8
0
9
$CELTYPE
6
ByLayer
9
$CECOLOR
62
256
9
$CELTSCALE
40
1.0
9
$DISPSILH
70
0
9
$DIMSCALE
40
1.0
9
$DIMASZ
40
2.5
9
$DIMEXO
40
0.625
9
$DIMDLI
40
0.38
9
$DIMRND
40
0.0
9
$DIMDLE
40
0.0
9
$DIMEXE
40
1.25
9
$DIMTP
40
0.0
9
$DIMTM
40
0.000000001
9
$DIMTXT
40
2.5
9
$DIMCEN
40
0.09
9
$DIMTSZ
40
0.0
9
$DIMTOL
70
1
9
$DIMLIM
70
0
9
$DIMTIH
70
0
9
$DIMTOH
70
0
9
$DIMSE1
70
0
9
$DIMSE2
70
0
9
$DIMTAD
70
1
9
$DIMZIN
70
0
9
$DIMBLK
1
VDDIM_DEFAULT
9
$DIMASO
70
1
9
$DIMSHO
70
1
9
$DIMPOST
1

9
$DIMAPOST
1

9
$DIMALT
70
0
9
$DIMALTD
70
2
9
$DIMALTF
40
25.4
9
$DIMLFAC
40
1.00000000000000
9
$DIMTOFL
70
0
9
$DIMTVP
40
0.0
9
$DIMTIX
70
0
9
$DIMSOXD
70
0
9
$DIMSAH
70
0
9
$DIMBLK1
1

9
$DIMBLK2
1

9
$DIMSTYLE
2
BEM-ISBE
9
$DIMCLRD
70
0
9
$DIMCLRE
70
0
9
$DIMCLRT
70
0
9
$DIMTFAC
40
0.5
9
$DIMGAP
40
0.625
9
$DIMJUST
70
0
9
$DIMSD1
70
0
9
$DIMSD2
70
0
9
$DIMTOLJ
70
1
9
$DIMTZIN
70
0
9
$DIMALTZ
70
0
9
$DIMALTTZ
70
0
9
$DIMUPT
70
0
9
$DIMDEC
70
3
9
$DIMTDEC
70
3
9
$DIMALTU
70
2
9
$DIMALTTD
70
2
9
$DIMTXSTY
7
Standard
9
$DIMAUNIT
70
0
9
$DIMADEC
70
3
9
$DIMALTRND
40
0.0
9
$DIMAZIN
70
0
9
$DIMDSEP
70
46
9
$DIMATFIT
70
3
9
$DIMFRAC
70
0
9
$DIMLDRBLK
1

9
$DIMLUNIT
70
2
9
$DIMLWD
70
-2
9
$DIMLWE
70
-2
9
$DIMTMOVE
70
0
9
$LUNITS
70
2
9
$LUPREC
70
4
9
$SKETCHINC
40
0.1
9
$FILLETRAD
40
0.5
9
$AUNITS
70
0
9
$AUPREC
70
0
9
$MENU
1
.
9
$ELEVATION
40
0.0
9
$PELEVATION
40
0.0
9
$THICKNESS
40
0.0
9
$LIMCHECK
70
0
9
$CHAMFERA
40
0.5
9
$CHAMFERB
40
0.5
9
$CHAMFERC
40
1.0
9
$CHAMFERD
40
0.0
9
$SKPOLY
70
0
9
$TDCREATE
40
0.0
9
$TDUCREATE
40
0.0
9
$TDUPDATE
40
0.0
9
$TDUUPDATE
40
0.0
9
$TDINDWG
40
0.0
9
$TDUSRTIMER
40
0.0
9
$USRTIMER
70
1
9
$ANGBASE
50
0.0
9
$ANGDIR
70
0
9
$PDMODE
70
0
9
$PDSIZE
40
0.0
9
$PLINEWID
40
0.0
9
$SPLFRAME
70
0
9
$SPLINETYPE
70
6
9
$SPLINESEGS
70
8
9
$HANDSEED
5
10AB
9
$SURFTAB1
70
6
9
$SURFTAB2
70
6
9
$SURFTYPE
70
6
9
$SURFU
70
6
9
$SURFV
70
6
9
$UCSBASE
2

9
$UCSNAME
2

9
$UCSORG
10
0.0
20
0.0
30
0.0
9
$UCSXDIR
10
1.0
20
0.0
30
0.0
9
$UCSYDIR
10
0.0
20
1.0
30
0.0
9
$UCSORTHOREF
2

9
$UCSORTHOVIEW
70
0
9
$UCSORGTOP
10
0.0
20
0.0
30
0.0
9
$UCSORGBOTTOM
10
0.0
20
0.0
30
0.0
9
$UCSORGLEFT
10
0.0
20
0.0
30
0.0
9
$UCSORGRIGHT
10
0.0
20
0.0
30
0.0
9
$UCSORGFRONT
10
0.0
20
0.0
30
0.0
9
$UCSORGBACK
10
0.0
20
0.0
30
0.0
9
$PUCSBASE
2

9
$PUCSNAME
2

9
$PUCSORG
10
0.0
20
0.0
30
0.0
9
$PUCSXDIR
10
1.0
20
0.0
30
0.0
9
$PUCSYDIR
10
0.0
20
1.0
30
0.0
9
$PUCSORTHOREF
2

9
$PUCSORTHOVIEW
70
0
9
$PUCSORGTOP
10
0.0
20
0.0
30
0.0
9
$PUCSORGBOTTOM
10
0.0
20
0.0
30
0.0
9
$PUCSORGLEFT
10
0.0
20
0.0
30
0.0
9
$PUCSORGRIGHT
10
0.0
20
0.0
30
0.0
9
$PUCSORGFRONT
10
0.0
20
0.0
30
0.0
9
$PUCSORGBACK
10
0.0
20
0.0
30
0.0
9
$USERI1
70
0
9
$USERI2
70
0
9
$USERI3
70
0
9
$USERI4
70
0
9
$USERI5
70
0
9
$USERR1
40
0.0
9
$USERR2
40
0.0
9
$USERR3
40
0.0
9
$USERR4
40
0.0
9
$USERR5
40
0.0
9
$WORLDVIEW
70
1
9
$SHADEDGE
70
3
9
$SHADEDIF
70
70
9
$TILEMODE
70
1
9
$MAXACTVP
70
64
9
$PINSBASE
10
0.0
20
0.0
30
0.0
9
$PLIMCHECK
70
0
9
$PEXTMIN
10
1.000000000000000E+20
20
1.000000000000000E+20
30
1.000000000000000E+20
9
$PEXTMAX
10
-1.000000000000000E+20
20
-1.000000000000000E+20
30
-1.000000000000000E+20
9
$PLIMMIN
10
0.0
20
0.0
9
$PLIMMAX
10
12.0
20
9.0
9
$UNITMODE
70
0
9
$VISRETAIN
70
1
9
$PLINEGEN
70
0
9
$PSLTSCALE
70
1
9
$TREEDEPTH
70
3020
9
$CMLSTYLE
2
Standard
9
$CMLJUST
70
0
9
$CMLSCALE
40
1.0
9
$PROXYGRAPHICS
70
1
9
$MEASUREMENT
70
0
9
$CELWEIGHT
370
-1
9
$ENDCAPS
280
0
9
$JOINSTYLE
280
0
9
$LWDISPLAY
290
0
9
$INSUNITS
70
4
9
$HYPERLINKBASE
1

9
$STYLESHEET
1

9
$XEDIT
290
1
9
$CEPSNTYPE
380
0
9
$PSTYLEMODE
290
0
9
$FINGERPRINTGUID
2
{FAEB1C30-E019-11D5-929B-00C0DF256EC4}
9
$VERSIONGUID
2
{04C5C4E4-4947-4D90-8812-D401569E61F7}
9
$EXTNAMES
290
1
9
$PSVPSCALE
40
0.0
9
$OLESTARTUP
290
0
0
ENDSEC
0
SECTION
2
TABLES
0
TABLE
2
VPORT
5
24A
330
0
100
AcDbSymbolTable
70
1
0
VPORT
5
26B
330
24A
100
AcDbSymbolTableRecord
100
AcDbViewportTableRecord
2
*Active
70
0
10
0.0
20
0.0
11
1.0
21
1.0
12
0.000000000000000
22
0.000000000000000
13
0.0
23
0.0
14
10.0
24
10.0
15
10.0
25
10.0
16
0.0
26
0.0
36
1.0
17
0.0
27
0.0
37
0.0
40
210.000000000000
41
1.42857142857143
42
1.0
43
0.0
44
0.0
50
0.0
51
0.0000000000007958
71
0
72
100
73
1
74
3
75
0
76
0
77
0
78
1
281
0
65
1
110
0.0
120
0.0
130
0.0
111
1.0
121
0.0
131
0.0
112
0.0
122
1.0
132
0.0
79
0
146
0.0
0
ENDTAB
0
TABLE
2
LTYPE
5
247
330
0
100
AcDbSymbolTable
70
25
0
LTYPE
5
256
330
247
100
AcDbSymbolTableRecord
100
AcDbLinetypeTableRecord
2
ByBlock
70
0
3

72
65
73
0
40
0.0
0
LTYPE
5
257
330
247
100
AcDbSymbolTableRecord
100
AcDbLinetypeTableRecord
2
ByLayer
70
0
3

72
65
73
0
40
0.0
0
LTYPE
5
258
330
247
100
AcDbSymbolTableRecord
100
AcDbLinetypeTableRecord
2
Continuous
70
0
3
Solid line
72
65
73
0
40
0.0
0
LTYPE
5
273
330
247
100
AcDbSymbolTableRecord
100
AcDbLinetypeTableRecord
2
CENTER
70
0
3
Center ____ _ ____ _ ____ _ ____ _ ____ _ ____
72
65
73
4
40
2.0
49
1.25
74
0
49
-0.25
74
0
49
0.25
74
0
49
-0.25
74
0
0
LTYPE
5
274
330
247
100
AcDbSymbolTableRecord
100
AcDbLinetypeTableRecord
2
DASHDOT
70
0
3
Dashdot __ . __ . __ . __ . __ . __ . __ . __
72
65
73
4
40
1.0
49
0.5
74
0
49
-0.25
74
0
49
0.0
74
0
49
-0.25
74
0
0
LTYPE
5
275
330
247
100
AcDbSymbolTableRecord
100
AcDbLinetypeTableRecord
2
DASHED
70
0
3
Dashed __ __ __ __ __ __ __ __ __ __ __ __ __ _
72
65
73
2
40
0.75
49
0.5
74
0
49
-0.25
74
0
0
LTYPE
5
276
330
247
100
AcDbSymbolTableRecord
100
AcDbLinetypeTableRecord
2
HIDDEN
70
0
3
Hidden __ __ __ __ __ __ __ __ __ __ __ __ __ __
72
65
73
2
40
0.375
49
0.25
74
0
49
-0.125
74
0
0
LTYPE
5
277
330
247
100
AcDbSymbolTableRecord
100
AcDbLinetypeTableRecord
2
HIDDEN2
70
0
3
Hidden2 _ _ _ _ _ _ _ _ _ _ _ _ _ _ _ _ _
72
65
73
2
40
0.1875
49
0.125
74
0
49
-0.0625
74
0
0
LTYPE
5
278
330
247
100
AcDbSymbolTableRecord
100
AcDbLinetypeTableRecord
2
BORDER
70
0
3
Border __ __ . __ __ . __ __ . __ __ . __ __ .
72
65
73
6
40
1.75
49
0.5
74
0
49
-0.25
74
0
49
0.5
74
0
49
-0.25
74
0
49
0.0
74
0
49
-0.25
74
0
0
LTYPE
5
279
330
247
100
AcDbSymbolTableRecord
100
AcDbLinetypeTableRecord
2
BORDER2
70
0
3
Border2 __.__.__.__.__.__.__.__.__.__.__.
72
65
73
6
40
0.875
49
0.25
74
0
49
-0.125
74
0
49
0.25
74
0
49
-0.125
74
0
49
0.0
74
0
49
-0.125
74
0
0
LTYPE
5
27A
330
247
100
AcDbSymbolTableRecord
100
AcDbLinetypeTableRecord
2
BORDERX2
70
0
3
Borderx2  ____  ____  .  ____  ____  .  ___
72
65
73
6
40
3.5
49
1.0
74
0
49
-0.5
74
0
49
1.0
74
0
49
-0.5
74
0
49
0.0
74
0
49
-0.5
74
0
0
LTYPE
5
27B
330
247
100
AcDbSymbolTableRecord
100
AcDbLinetypeTableRecord
2
CENTER2
70
0
3
Center2  ___ _ ___ _ ___ _ ___ _ ___ _ ___
72
65
73
4
40
1.125
49
0.75
74
0
49
-0.125
74
0
49
0.125
74
0
49
-0.125
74
0
0
LTYPE
5
27C
330
247
100
AcDbSymbolTableRecord
100
AcDbLinetypeTableRecord
2
CENTERX2
70
0
3
Centerx2  ________  __  ________  __  _____
72
65
73
4
40
4.0
49
2.5
74
0
49
-0.5
74
0
49
0.5
74
0
49
-0.5
74
0
0
LTYPE
5
27D
330
247
100
AcDbSymbolTableRecord
100
AcDbLinetypeTableRecord
2
DASHDOT2
70
0
3
Dashdot2  _._._._._._._._._._._._._._._.
72
65
73
4
40
0.5
49
0.25
74
0
49
-0.125
74
0
49
0.0
74
0
49
-0.125
74
0
0
LTYPE
5
27E
330
247
100
AcDbSymbolTableRecord
100
AcDbLinetypeTableRecord
2
DASHDOTX2
70
0
3
Dashdotx2 ____  .  ____  .  ____  .  ___
72
65
73
4
40
2.0
49
1.0
74
0
49
-0.5
74
0
49
0.0
74
0
49
-0.5
74
0
0
LTYPE
5
27F
330
247
100
AcDbSymbolTableRecord
100
AcDbLinetypeTableRecord
2
DASHED2
70
0
3
Dashed2 _ _ _ _ _ _ _ _ _ _ _ _ _ _ _ _ _
72
65
73
2
40
0.375
49
0.25
74
0
49
-0.125
74
0
0
LTYPE
5
280
330
247
100
AcDbSymbolTableRecord
100
AcDbLinetypeTableRecord
2
DASHEDX2
70
0
3
Dashedx2 ____  ____  ____  ____  ____  ___
72
65
73
2
40
1.5
49
1.0
74
0
49
-0.5
74
0
0
LTYPE
5
281
330
247
100
AcDbSymbolTableRecord
100
AcDbLinetypeTableRecord
2
DIVIDE
70
0
3
Divide ____ . . ____ . . ____ . . ____ . . ____
72
65
73
6
40
1.25
49
0.5
74
0
49
-0.25
74
0
49
0.0
74
0
49
-0.25
74
0
49
0.0
74
0
49
-0.25
74
0
0
LTYPE
5
282
330
247
100
AcDbSymbolTableRecord
100
AcDbLinetypeTableRecord
2
DIVIDE2
70
0
3
Divide2 __..__..__..__..__..__..__..__.._
72
65
73
6
40
0.625
49
0.25
74
0
49
-0.125
74
0
49
0.0
74
0
49
-0.125
74
0
49
0.0
74
0
49
-0.125
74
0
0
LTYPE
5
283
330
247
100
AcDbSymbolTableRecord
100
AcDbLinetypeTableRecord
2
DIVIDEX2
70
0
3
Dividex2 ________  .  .  ________  .  .  _
72
65
73
6
40
2.5
49
1.0
74
0
49
-0.5
74
0
49
0.0
74
0
49
-0.5
74
0
49
0.0
74
0
49
-0.5
74
0
0
LTYPE
5
284
330
247
100
AcDbSymbolTableRecord
100
AcDbLinetypeTableRecord
2
DOT
70
0
3
Dot . . . . . . . . . . . . . . . . . . . . . . . .
72
65
73
2
40
0.25
49
0.0
74
0
49
-0.25
74
0
0
LTYPE
5
285
330
247
100
AcDbSymbolTableRecord
100
AcDbLinetypeTableRecord
2
DOT2
70
0
3
Dot2 ........................................
72
65
73
2
40
0.125
49
0.0
74
0
49
-0.125
74
0
0
LTYPE
5
286
330
247
100
AcDbSymbolTableRecord
100
AcDbLinetypeTableRecord
2
DOTX2
70
0
3
Dotx2 .  .  .  .  .  .  .  .  .  .  .  .  .  .
72
65
73
2
40
0.5
49
0.0
74
0
49
-0.5
74
0
0
LTYPE
5
287
330
247
100
AcDbSymbolTableRecord
100
AcDbLinetypeTableRecord
2
HIDDENX2
70
0
3
Hiddenx2 ____ ____ ____ ____ ____ ____ ____
72
65
73
2
40
0.75
49
0.5
74
0
49
-0.25
74
0
0
LTYPE
5
288
330
247
100
AcDbSymbolTableRecord
100
AcDbLinetypeTableRecord
2
PHANTOM
70
0
3
Phantom ______  __  __  ______  __  __  ______
72
65
73
6
40
2.5
49
1.25
74
0
49
-0.25
74
0
49
0.25
74
0
49
-0.25
74
0
49
0.25
74
0
49
-0.25
74
0
0
LTYPE
5
289
330
247
100
AcDbSymbolTableRecord
100
AcDbLinetypeTableRecord
2
PHANTOM2
70
0
3
Phantom2 ___ _ _ ___ _ _ ___ _ _ ___ _ _
72
65
73
6
40
1.25
49
0.625
74
0
49
-0.125
74
0
49
0.125
74
0
49
-0.125
74
0
49
0.125
74
0
49
-0.125
74
0
0
LTYPE
5
28A
330
247
100
AcDbSymbolTableRecord
100
AcDbLinetypeTableRecord
2
PHANTOMX2
70
0
3
Phantomx2 ____________    ____    ____   _
72
65
73
6
40
5.0
49
2.5
74
0
49
-0.5
74
0
49
0.5
74
0
49
-0.5
74
0
49
0.5
74
0
49
-0.5
74
0
0
ENDTAB
0
TABLE
2
LAYER
5
244
330
0
100
AcDbSymbolTable
70
6
0
LAYER
5
252
330
244
100
AcDbSymbolTableRecord
100
AcDbLayerTableRecord
2
0
70
0
62
7
6
Continuous
370
0
390
251
0
LAYER
5
23F
330
244
100
AcDbSymbolTableRecord
100
AcDbLayerTableRecord
2
Bemassung
70
0
 62
   7
6
Continuous
370
0
390
251
0
LAYER
5
240
330
244
100
AcDbSymbolTableRecord
100
AcDbLayerTableRecord
2
Rahmen
70
0
 62
   7
6
Continuous
370
0
390
251
0
LAYER
5
241
330
244
100
AcDbSymbolTableRecord
100
AcDbLayerTableRecord
2
Geo
70
0
 62
   7
6
Continuous
370
0
390
251
0
LAYER
5
33A
330
244
100
AcDbSymbolTableRecord
100
AcDbLayerTableRecord
2
Defpoints
70
0
62
7
6
Continuous
290
0
370
-3
390
251
0
LAYER
5
57E
330
244
100
AcDbSymbolTableRecord
100
AcDbLayerTableRecord
2
Text
70
0
 62
   7
6
Continuous
370
0
390
251
1001
AcAecLayerStandard
1000

1000

0
ENDTAB
0
TABLE
2
STYLE
5
245
330
0
100
AcDbSymbolTable
70
2
0
STYLE
5
253
330
245
100
AcDbSymbolTableRecord
100
AcDbTextStyleTableRecord
2
Standard
70
0
40
0.0
41
1.0
50
0.0
71
0
42
0.2
3
Arial
4

1001
ACAD
1000
Arial
1071
0
0
STYLE
5
132
330
245
100
AcDbSymbolTableRecord
100
AcDbTextStyleTableRecord
2
Beschriftung
70
0
40
0.0
41
1.0
50
0.0
71
0
42
0.2
3
Arial
4

1001
ACAD
1000
Arial
1071
0
1001
AcadAnnotative
1000
AnnotativeData
1070
1
1070
1
0
ENDTAB
0
TABLE
2
VIEW
5
248
330
0
100
AcDbSymbolTable
70
0
0
ENDTAB
0
TABLE
2
UCS
5
249
330
0
100
AcDbSymbolTable
70
0
0
ENDTAB
0
TABLE
2
APPID
5
24B
330
0
100
AcDbSymbolTable
70
13
0
APPID
5
254
330
24B
100
AcDbSymbolTableRecord
100
AcDbRegAppTableRecord
2
ACAD
70
0
0
APPID
5
26C
330
24B
100
AcDbSymbolTableRecord
100
AcDbRegAppTableRecord
2
VD_INVISIBLE_NOT_FOR_READ
70
0
0
APPID
5
26D
330
24B
100
AcDbSymbolTableRecord
100
AcDbRegAppTableRecord
2
VD_TEMPHATCH
70
0
0
APPID
5
26E
330
24B
100
AcDbSymbolTableRecord
100
AcDbRegAppTableRecord
2
VDEXTRAPARAM
70
0
0
APPID
5
26F
330
24B
100
AcDbSymbolTableRecord
100
AcDbRegAppTableRecord
2
PE_URL
70
0
0
APPID
5
270
330
24B
100
AcDbSymbolTableRecord
100
AcDbRegAppTableRecord
2
VD_UNKNOWN
70
0
0
APPID
5
28F
330
24B
100
AcDbSymbolTableRecord
100
AcDbRegAppTableRecord
2
AcadAnnotative
70
0
0
APPID
5
290
330
24B
100
AcDbSymbolTableRecord
100
AcDbRegAppTableRecord
2
ACAD_DSTYLE_DIMJAG
70
0
0
APPID
5
291
330
24B
100
AcDbSymbolTableRecord
100
AcDbRegAppTableRecord
2
ACAD_DSTYLE_DIMTALN
70
0
0
APPID
5
293
330
24B
100
AcDbSymbolTableRecord
100
AcDbRegAppTableRecord
2
ACAD_PSEXT
70
0
0
APPID
5
42A
330
24B
100
AcDbSymbolTableRecord
100
AcDbRegAppTableRecord
2
ACAD_MLEADERVER
70
0
0
APPID
5
532
330
24B
100
AcDbSymbolTableRecord
100
AcDbRegAppTableRecord
2
ACAD_EXEMPT_FROM_CAD_STANDARDS
70
0
0
APPID
5
57F
330
24B
100
AcDbSymbolTableRecord
100
AcDbRegAppTableRecord
2
AcAecLayerStandard
70
0
0
ENDTAB
0
TABLE
2
DIMSTYLE
5
24C
330
0
100
AcDbSymbolTable
70
3
100
AcDbDimStyleTable
71
2
340
27
340
269
0
DIMSTYLE
105
269
330
24C
100
AcDbSymbolTableRecord
100
AcDbDimStyleTableRecord
2
Standard
70
0
172
1
174
1
288
1
340
253
342
23C
0
DIMSTYLE
105
137
330
24C
100
AcDbSymbolTableRecord
100
AcDbDimStyleTableRecord
2
Beschriftung
70
0
41
2.5
42
0.625
44
1.25
73
0
74
0
77
1
140
2.5
147
0.625
172
1
174
1
271
2
288
1
340
253
342
23C
1001
AcadAnnotative
1000
AnnotativeData
1070
1
1070
1
1001
ACAD_DSTYLE_DIMJAG
1070
388
1040
1.5
1001
ACAD_DSTYLE_DIMTALN
1070
392
1070
0
0
DIMSTYLE
105
27
102
{ACAD_REACTORS
330
F10017
330
F1001C
330
F10026
330
F1002B
330
F10003
330
F1000D
330
F10008
330
F10012
330
F10021
102
}
330
24C
100
AcDbSymbolTableRecord
100
AcDbDimStyleTableRecord
2
BEM-ISBE
70
0
41
2.5
42
0.625
44
1.25
48
0.000000001
71
1
73
0
74
0
77
1
140
2.5
144
1.00000000000000
146
0.5
147
0.625
171
 3
172
 1
179
 3
271
 3
272
 3
274
 3
340
253
342
23C
1001
ACAD_DSTYLE_DIMJAG
1070
388
1040
1.5
1001
ACAD_DSTYLE_DIMTALN
1070
392
1070
1
0
ENDTAB
0
TABLE
2
BLOCK_RECORD
5
243
330
0
100
AcDbSymbolTable
70
5
0
BLOCK_RECORD
5
261
330
243
100
AcDbSymbolTableRecord
100
AcDbBlockTableRecord
2
*Model_Space
340
FD0
0
BLOCK_RECORD
5
25D
330
243
100
AcDbSymbolTableRecord
100
AcDbBlockTableRecord
2
*Paper_Space
340
FD1
0
BLOCK_RECORD
5
265
330
243
100
AcDbSymbolTableRecord
100
AcDbBlockTableRecord
2
*Paper_Space0
340
0
0
BLOCK_RECORD
5
23C
330
243
100
AcDbSymbolTableRecord
100
AcDbBlockTableRecord
2
VDDIM_DEFAULT
340
0
102
{BLKREFS
102
}
0
BLOCK_RECORD
5
23E
330
243
100
AcDbSymbolTableRecord
100
AcDbBlockTableRecord
2
VDDIM_NONE
340
0
0
BLOCK_RECORD
5
F10016
330
243
100
AcDbSymbolTableRecord
100
AcDbBlockTableRecord
2
*D7
340
0
0
BLOCK_RECORD
5
F1001B
330
243
100
AcDbSymbolTableRecord
100
AcDbBlockTableRecord
2
*D8
340
0
0
BLOCK_RECORD
5
F10025
330
243
100
AcDbSymbolTableRecord
100
AcDbBlockTableRecord
2
*D10
340
0
0
BLOCK_RECORD
5
F1002A
330
243
100
AcDbSymbolTableRecord
100
AcDbBlockTableRecord
2
*D11
340
0
0
BLOCK_RECORD
5
F10002
330
243
100
AcDbSymbolTableRecord
100
AcDbBlockTableRecord
2
*D3
340
0
0
BLOCK_RECORD
5
F1000C
330
243
100
AcDbSymbolTableRecord
100
AcDbBlockTableRecord
2
*D5
340
0
0
BLOCK_RECORD
5
F10007
330
243
100
AcDbSymbolTableRecord
100
AcDbBlockTableRecord
2
*D4
340
0
0
BLOCK_RECORD
5
F10011
330
243
100
AcDbSymbolTableRecord
100
AcDbBlockTableRecord
2
*D6
340
0
0
BLOCK_RECORD
5
F10020
330
243
100
AcDbSymbolTableRecord
100
AcDbBlockTableRecord
2
*D9
340
0
0
ENDTAB
0
ENDSEC
0
SECTION
2
BLOCKS
0
BLOCK
5
262
330
261
100
AcDbEntity
8
0
100
AcDbBlockBegin
2
*Model_Space
70
0
10
0.0
20
0.0
30
0.0
3
*Model_Space
1

0
ENDBLK
5
263
330
261
100
AcDbEntity
8
0
100
AcDbBlockEnd
0
BLOCK
5
25E
330
25D
100
AcDbEntity
67
1
8
0
100
AcDbBlockBegin
2
*Paper_Space
70
0
10
0.0
20
0.0
30
0.0
3
*Paper_Space
1

0
ENDBLK
5
25F
330
25D
100
AcDbEntity
67
1
8
0
100
AcDbBlockEnd
0
BLOCK
5
266
330
265
100
AcDbEntity
8
0
100
AcDbBlockBegin
2
*Paper_Space0
70
0
10
0.0
20
0.0
30
0.0
3
*Paper_Space0
1

0
VIEWPORT
5
296
102
{ACAD_XDICTIONARY
360
58E
102
}
330
265
100
AcDbEntity
8
0
60
1
100
AcDbViewport
10
0.0
20
0.0
30
0.0
40
10.0
41
10.0
69
0
12
0.0
22
0.0
13
0.0
23
0.0
14
1.0
24
1.0
15
0.0
25
0.0
16
0.0
26
0.0
36
1.0
17
0.0
27
0.0
37
0.0
42
0.0
43
0.0
44
0.0
45
10.0
50
0.0
51
0.0000000000007958
72
100
90
163872
1

281
0
71
0
74
0
110
0.0
120
0.0
130
0.0
111
1.0
121
0.0
131
0.0
112
0.0
122
1.0
132
0.0
79
0
146
0.0
1001
VD_INVISIBLE_NOT_FOR_READ
1000
VD_INVISIBLE_NOT_FOR_READ
0
VIEWPORT
5
297
102
{ACAD_XDICTIONARY
360
590
102
}
330
265
100
AcDbEntity
8
0
60
1
100
AcDbViewport
10
0.0
20
0.0
30
0.0
40
10.0
41
10.0
69
0
12
0.0
22
0.0
13
0.0
23
0.0
14
1.0
24
1.0
15
0.0
25
0.0
16
0.0
26
0.0
36
1.0
17
0.0
27
0.0
37
0.0
42
0.0
43
0.0
44
0.0
45
10.0
50
0.0
51
0.0000000000007958
72
100
90
163872
1

281
0
71
0
74
0
110
0.0
120
0.0
130
0.0
111
1.0
121
0.0
131
0.0
112
0.0
122
1.0
132
0.0
79
0
146
0.0
1001
VD_INVISIBLE_NOT_FOR_READ
1000
VD_INVISIBLE_NOT_FOR_READ
0
ENDBLK
5
267
330
265
100
AcDbEntity
8
0
100
AcDbBlockEnd
0
BLOCK
5
28B
330
23C
100
AcDbEntity
8
0
100
AcDbBlockBegin
2
VDDIM_DEFAULT
70
0
10
0.0
20
0.0
30
0.0
3
VDDIM_DEFAULT
1

0
LWPOLYLINE
5
23D
330
23C
100
AcDbEntity
8
0
6
Continuous
62
0
100
AcDbPolyline
90
4
70
0
43
0.0
10
0.0
20
0.0
10
-1.0
20
-0.1665
10
-1.0
20
0.1665
10
0.0
20
0.0
1001
VDEXTRAPARAM
1071
1
1071
0
1071
0
1040
1.0
1000

1000

1040
0.0
1040
0.0
0
HATCH
5
292
330
23C
100
AcDbEntity
8
0
6
Continuous
62
0
100
AcDbHatch
10
0.0
20
0.0
30
0.0
210
0.0
220
0.0
230
1.0
2
SOLID
70
1
71
0
91
1
92
2
72
0
73
1
93
3
10
0.0
20
0.0
10
-1.0
20
-0.1665
10
-1.0
20
0.1665
97
0
75
0
76
1
98
1
10
0.0
20
0.0
1001
VDEXTRAPARAM
1071
1
1071
0
1071
0
1040
1.0
1000

1000

1040
0.0
1040
0.0
1001
VD_TEMPHATCH
1000
VD_TEMPHATCH
0
ENDBLK
5
28C
330
23C
100
AcDbEntity
8
0
100
AcDbBlockEnd
0
BLOCK
5
28D
330
23E
100
AcDbEntity
8
0
100
AcDbBlockBegin
2
VDDIM_NONE
70
0
10
0.0
20
0.0
30
0.0
3
VDDIM_NONE
1

0
ENDBLK
5
28E
330
23E
100
AcDbEntity
8
0
100
AcDbBlockEnd
  0
BLOCK
  5
F1002F
330
F10016
100
AcDbEntity
  8
0
100
AcDbBlockBegin
  2
*D7
 70
     1
 10
0.0
 20
0.0
 30
0.0
  3
*D7
  1

  0
LINE
  5
F10030
330
F10016
100
AcDbEntity
  8
Bemassung
 62
     0
370
    -2
100
AcDbLine
10
-84.4707762082714
20
-10.6452679074538
30
0.000000000000000
11
-84.4707762082714
21
34.3547320925462
31
0.000000000000000
  0
LINE
  5
F10031
330
F10016
100
AcDbEntity
  8
Bemassung
 62
     0
370
    -2
100
AcDbLine
10
-49.4707762082714
20
12.0547320925462
30
0.000000000000000
11
-49.4707762082714
21
24.3547320925462
31
0.000000000000000
  0
LINE
  5
F10032
330
F10016
100
AcDbEntity
  8
Bemassung
 62
     0
370
    -2
100
AcDbLine
10
-84.4707762082714
20
22.3547320925462
30
0.000000000000000
11
-48.6125290023202
21
22.3547320925462
31
0.000000000000000
  0
INSERT
  5
F10033
330
F10016
100
AcDbEntity
  8
Bemassung
 62
     0
370
    -2
100
AcDbBlockReference
  2
VDDIM_DEFAULT
10
-84.4707762082714
20
22.3547320925462
30
0.000000000000000
 41
2.50000000000000
 42
2.50000000000000
 43
2.50000000000000
 50
180.000000000000
  0
INSERT
  5
F10034
330
F10016
100
AcDbEntity
  8
Bemassung
 62
     0
370
    -2
100
AcDbBlockReference
  2
VDDIM_DEFAULT
10
-49.4707762082714
20
22.3547320925462
30
0.000000000000000
 41
2.50000000000000
 42
2.50000000000000
 43
2.50000000000000
  0
MTEXT
  5
F10035
330
F10016
100
AcDbEntity
  8
Bemassung
 62
     0
100
AcDbMText
10
-66.9707762082714
20
23.0213987592129
30
0.000000000000000
 40
2.50000000000000
 41
0.0
 71
     8
 72
     1
  1
35
 11
1.00000000000000
 21
0.000000000000000
 31
0.0
 73
     1
 44
1.0
1001
ACAD
1000
MTEXTBEGIN
1070
73
1070
1
1070
44
1040
1.0
1070
74
1070
0
1000
MTEXTEND
  0
POINT
  5
F10036
330
F10016
100
AcDbEntity
  8
Bemassung
 62
     0
100
AcDbPoint
10
-84.4707762082714
20
-10.6452679074538
30
0.000000000000000
  0
POINT
  5
F10037
330
F10016
100
AcDbEntity
  8
Bemassung
 62
     0
100
AcDbPoint
10
-49.4707762082714
20
12.0547320925462
30
0.000000000000000
  0
ENDBLK
  5
F10038
330
F10016
100
AcDbEntity
  8
0
100
AcDbBlockEnd
  0
BLOCK
  5
F10039
330
F1001B
100
AcDbEntity
  8
0
100
AcDbBlockBegin
  2
*D8
 70
     1
 10
0.0
 20
0.0
 30
0.0
  3
*D8
  1

  0
LINE
  5
F1003A
330
F1001B
100
AcDbEntity
  8
Bemassung
 62
     0
370
    -2
100
AcDbLine
10
-49.4707762082714
20
12.0547320925462
30
0.000000000000000
11
-49.4707762082714
21
29.3547320925462
31
0.000000000000000
  0
LINE
  5
F1003B
330
F1001B
100
AcDbEntity
  8
Bemassung
 62
     0
370
    -2
100
AcDbLine
10
4.52922379172860
20
11.8547320925462
30
0.000000000000000
11
4.52922379172860
21
34.3547320925462
31
0.000000000000000
  0
LINE
  5
F1003C
330
F1001B
100
AcDbEntity
  8
Bemassung
 62
     0
370
    -2
100
AcDbLine
10
-49.4707762082714
20
27.3547320925462
30
0.000000000000000
11
40.3433874709977
21
27.3547320925462
31
0.000000000000000
  0
INSERT
  5
F1003D
330
F1001B
100
AcDbEntity
  8
Bemassung
 62
     0
370
    -2
100
AcDbBlockReference
  2
VDDIM_DEFAULT
10
-49.4707762082714
20
27.3547320925462
30
0.000000000000000
 41
2.50000000000000
 42
2.50000000000000
 43
2.50000000000000
 50
180.000000000000
  0
INSERT
  5
F1003E
330
F1001B
100
AcDbEntity
  8
Bemassung
 62
     0
370
    -2
100
AcDbBlockReference
  2
VDDIM_DEFAULT
10
4.52922379172860
20
27.3547320925462
30
0.000000000000000
 41
2.50000000000000
 42
2.50000000000000
 43
2.50000000000000
  0
MTEXT
  5
F1003F
330
F1001B
100
AcDbEntity
  8
Bemassung
 62
     0
100
AcDbMText
10
-22.4707762082714
20
28.0213987592129
30
0.000000000000000
 40
2.50000000000000
 41
0.0
 71
     8
 72
     1
  1
54
 11
1.00000000000000
 21
0.000000000000000
 31
0.0
 73
     1
 44
1.0
1001
ACAD
1000
MTEXTBEGIN
1070
73
1070
1
1070
44
1040
1.0
1070
74
1070
0
1000
MTEXTEND
  0
POINT
  5
F10040
330
F1001B
100
AcDbEntity
  8
Bemassung
 62
     0
100
AcDbPoint
10
-49.4707762082714
20
12.0547320925462
30
0.000000000000000
  0
POINT
  5
F10041
330
F1001B
100
AcDbEntity
  8
Bemassung
 62
     0
100
AcDbPoint
10
4.52922379172860
20
11.8547320925462
30
0.000000000000000
  0
ENDBLK
  5
F10042
330
F1001B
100
AcDbEntity
  8
0
100
AcDbBlockEnd
  0
BLOCK
  5
F10043
330
F10025
100
AcDbEntity
  8
0
100
AcDbBlockBegin
  2
*D10
 70
     1
 10
0.0
 20
0.0
 30
0.0
  3
*D10
  1

  0
LINE
  5
F10044
330
F10025
100
AcDbEntity
  8
Bemassung
 62
     0
370
    -2
100
AcDbLine
10
-65.4707762082714
20
-3.34526790745380
30
0.000000000000000
11
-65.4707762082714
21
-10.6452679074538
31
0.000000000000000
  0
LINE
  5
F10045
330
F10025
100
AcDbEntity
  8
Bemassung
 62
     0
370
    -2
100
AcDbLine
10
-84.4707762082714
20
-10.6452679074538
30
0.000000000000000
11
-84.4707762082714
21
34.3547320925462
31
0.000000000000000
  0
LINE
  5
F10046
330
F10025
100
AcDbEntity
  8
Bemassung
 62
     0
370
    -2
100
AcDbLine
10
-64.6496519721578
20
-8.64526790745380
30
0.000000000000000
11
-84.4707762082714
21
-8.64526790745380
31
0.000000000000000
  0
INSERT
  5
F10047
330
F10025
100
AcDbEntity
  8
Bemassung
 62
     0
370
    -2
100
AcDbBlockReference
  2
VDDIM_DEFAULT
10
-65.4707762082714
20
-8.64526790745380
30
0.000000000000000
 41
2.50000000000000
 42
2.50000000000000
 43
2.50000000000000
  0
INSERT
  5
F10048
330
F10025
100
AcDbEntity
  8
Bemassung
 62
     0
370
    -2
100
AcDbBlockReference
  2
VDDIM_DEFAULT
10
-84.4707762082714
20
-8.64526790745380
30
0.000000000000000
 41
2.50000000000000
 42
2.50000000000000
 43
2.50000000000000
 50
180.000000000000
  0
MTEXT
  5
F10049
330
F10025
100
AcDbEntity
  8
Bemassung
 62
     0
100
AcDbMText
10
-74.9707762082714
20
-7.97860124078713
30
0.000000000000000
 40
2.50000000000000
 41
0.0
 71
     8
 72
     1
  1
19
 11
1.00000000000000
 21
0.000000000000000
 31
0.0
 73
     1
 44
1.0
1001
ACAD
1000
MTEXTBEGIN
1070
73
1070
1
1070
44
1040
1.0
1070
74
1070
0
1000
MTEXTEND
  0
POINT
  5
F1004A
330
F10025
100
AcDbEntity
  8
Bemassung
 62
     0
100
AcDbPoint
10
-65.4707762082714
20
-3.34526790745380
30
0.000000000000000
  0
POINT
  5
F1004B
330
F10025
100
AcDbEntity
  8
Bemassung
 62
     0
100
AcDbPoint
10
-84.4707762082714
20
-10.6452679074538
30
0.000000000000000
  0
ENDBLK
  5
F1004C
330
F10025
100
AcDbEntity
  8
0
100
AcDbBlockEnd
  0
BLOCK
  5
F1004D
330
F1002A
100
AcDbEntity
  8
0
100
AcDbBlockBegin
  2
*D11
 70
     1
 10
0.0
 20
0.0
 30
0.0
  3
*D11
  1

  0
LINE
  5
F1004E
330
F1002A
100
AcDbEntity
  8
Bemassung
 62
     0
370
    -2
100
AcDbLine
10
4.52922379172860
20
11.8547320925462
30
0.000000000000000
11
4.52922379172860
21
34.3547320925462
31
0.000000000000000
  0
LINE
  5
F1004F
330
F1002A
100
AcDbEntity
  8
Bemassung
 62
     0
370
    -2
100
AcDbLine
10
-84.4707762082714
20
-10.6452679074538
30
0.000000000000000
11
-84.4707762082714
21
34.3547320925462
31
0.000000000000000
  0
LINE
  5
F10050
330
F1002A
100
AcDbEntity
  8
Bemassung
 62
     0
370
    -2
100
AcDbLine
10
5.51276102088170
20
32.3547320925462
30
0.000000000000000
11
-84.4707762082714
21
32.3547320925462
31
0.000000000000000
  0
INSERT
  5
F10051
330
F1002A
100
AcDbEntity
  8
Bemassung
 62
     0
370
    -2
100
AcDbBlockReference
  2
VDDIM_DEFAULT
10
4.52922379172860
20
32.3547320925462
30
0.000000000000000
 41
2.50000000000000
 42
2.50000000000000
 43
2.50000000000000
  0
INSERT
  5
F10052
330
F1002A
100
AcDbEntity
  8
Bemassung
 62
     0
370
    -2
100
AcDbBlockReference
  2
VDDIM_DEFAULT
10
-84.4707762082714
20
32.3547320925462
30
0.000000000000000
 41
2.50000000000000
 42
2.50000000000000
 43
2.50000000000000
 50
180.000000000000
  0
MTEXT
  5
F10053
330
F1002A
100
AcDbEntity
  8
Bemassung
 62
     0
100
AcDbMText
10
-39.9707762082714
20
33.0213987592129
30
0.000000000000000
 40
2.50000000000000
 41
0.0
 71
     8
 72
     1
  1
89
 11
1.00000000000000
 21
0.000000000000000
 31
0.0
 73
     1
 44
1.0
1001
ACAD
1000
MTEXTBEGIN
1070
73
1070
1
1070
44
1040
1.0
1070
74
1070
0
1000
MTEXTEND
  0
POINT
  5
F10054
330
F1002A
100
AcDbEntity
  8
Bemassung
 62
     0
100
AcDbPoint
10
4.52922379172860
20
11.8547320925462
30
0.000000000000000
  0
POINT
  5
F10055
330
F1002A
100
AcDbEntity
  8
Bemassung
 62
     0
100
AcDbPoint
10
-84.4707762082714
20
-10.6452679074538
30
0.000000000000000
  0
ENDBLK
  5
F10056
330
F1002A
100
AcDbEntity
  8
0
100
AcDbBlockEnd
  0
BLOCK
  5
F10057
330
F10002
100
AcDbEntity
  8
0
100
AcDbBlockBegin
  2
*D3
 70
     1
 10
0.0
 20
0.0
 30
0.0
  3
*D3
  1

 0
ARC
  5
F10058
330
F10002
100
AcDbEntity
  8
Bemassung
 62
     0
370
   -2
100
AcDbCircle
10
-84.4701670352905
20
11.3198325958437
30
0.000000000000000
 40
17.6658686564390
100
AcDbArc
 50
90.0000000000000
 51
116.068883901377
  0
LINE
  5
F10059
330
F10002
100
AcDbEntity
  8
Bemassung
 62
     0
370
    -2
100
AcDbLine
10
-84.4701670352905
20
11.3198325958437
30
0.000000000000000
11
-84.4701670352905
21
30.9857012522827
31
0.000000000000000
  0
LINE
  5
F1005A
330
F10002
100
AcDbEntity
  8
Bemassung
 62
     0
370
    -2
100
AcDbLine
10
-84.4701670352905
20
11.3198325958437
30
0.000000000000000
11
-85.1564959536177
21
30.9737213364512
31
0.000000000000000
  0
INSERT
  5
F1005B
330
F10002
100
AcDbEntity
  8
Bemassung
 62
     0
370
    -2
100
AcDbBlockReference
  2
VDDIM_DEFAULT
10
-84.4701670352905
20
28.9857012522827
30
0.000000000000000
 41
2.50000000000000
 42
2.50000000000000
 43
2.50000000000000
 50
179.837834591881
  0
INSERT
  5
F1005C
330
F10002
100
AcDbEntity
  8
Bemassung
 62
     0
370
    -2
100
AcDbBlockReference
  2
VDDIM_DEFAULT
10
-85.0866969602127
20
28.9749396824130
30
0.000000000000000
 41
2.50000000000000
 42
2.50000000000000
 43
2.50000000000000
 50
2.16216540812099
  0
MTEXT
  5
F1005D
330
F10002
100
AcDbEntity
  8
Bemassung
 62
     0
100
AcDbMText
10
-93.8152628547786
20
26.3115669688620
30
0.000000000000000
 40
2.50000000000000
 41
0.0
 71
     8
 72
     1
  1
2°
 11
0.851170869723990
 21
0.524888702996460
 31
0.0
 73
     1
 44
1.0
1001
ACAD
1000
MTEXTBEGIN
1070
73
1070
1
1070
44
1040
1.0
1070
74
1070
0
1000
MTEXTEND
  0
POINT
  5
F1005E
330
F10002
100
AcDbEntity
  8
Bemassung
 62
     0
100
AcDbPoint
10
-84.4701670352905
20
11.3198325958437
30
0.000000000000000
  0
POINT
  5
F1005F
330
F10002
100
AcDbEntity
  8
Bemassung
 62
     0
100
AcDbPoint
10
-84.4701670352905
20
28.9857012522827
30
0.000000000000000
  0
POINT
  5
F10060
330
F10002
100
AcDbEntity
  8
Bemassung
 62
     0
100
AcDbPoint
10
-85.0866969602127
20
28.9749396824130
30
0.000000000000000
  0
POINT
  5
F10061
330
F10002
100
AcDbEntity
  8
Bemassung
 62
     0
100
AcDbPoint
10
-84.7784789551503
20
28.9830106549198
30
0.000000000000000
  0
ENDBLK
  5
F10062
330
F10002
100
AcDbEntity
  8
0
100
AcDbBlockEnd
  0
BLOCK
  5
F10063
330
F1000C
100
AcDbEntity
  8
0
100
AcDbBlockBegin
  2
*D5
 70
     1
 10
0.0
 20
0.0
 30
0.0
  3
*D5
  1

  0
LINE
  5
F10064
330
F1000C
100
AcDbEntity
  8
Bemassung
 62
     0
370
    -2
100
AcDbLine
10
-84.1901160086100
20
12.0493904630052
30
0.000000000000000
11
-95.9379177905103
21
23.3941107724448
31
0.000000000000000
  0
INSERT
  5
F10065
330
F1000C
100
AcDbEntity
  8
Bemassung
 62
     0
370
    -2
100
AcDbBlockReference
  2
VDDIM_DEFAULT
10
-84.1901160086100
20
12.0493904630052
30
0.000000000000000
 41
2.50000000000000
 42
2.50000000000000
 43
2.50000000000000
 50
316.000000000000
  0
MTEXT
  5
F10066
330
F1000C
100
AcDbEntity
  8
Bemassung
 62
     0
100
AcDbMText
10
-91.3835140119966
20
18.9959741675952
30
0.000000000000000
 40
2.50000000000000
 41
0.0
 71
     8
 72
     1
  1
R1
 11
0.719339800338652
 21
-0.694658370458996
 31
0.0
 73
     1
 44
1.0
1001
ACAD
1000
MTEXTBEGIN
1070
73
1070
1
1070
44
1040
1.0
1070
74
1070
0
1000
MTEXTEND
  0
POINT
  5
F10067
330
F1000C
100
AcDbEntity
  8
Bemassung
 62
     0
100
AcDbPoint
10
-84.1901160086100
20
12.0493904630052
30
0.000000000000000
  0
POINT
  5
F10068
330
F1000C
100
AcDbEntity
  8
Bemassung
 62
     0
100
AcDbPoint
10
-83.4707762082714
20
11.3547320925462
30
0.000000000000000
  0
ENDBLK
  5
F10069
330
F1000C
100
AcDbEntity
  8
0
100
AcDbBlockEnd
  0
BLOCK
  5
F1006A
330
F10007
100
AcDbEntity
  8
0
100
AcDbBlockBegin
  2
*D4
 70
     1
 10
0.0
 20
0.0
 30
0.0
  3
*D4
  1

  0
LINE
  5
F1006B
330
F10007
100
AcDbEntity
  8
Bemassung
 62
     0
370
    -2
100
AcDbLine
10
-83.4707762082714
20
-3.64526790745380
30
0.000000000000000
11
-96.4707762082714
21
-3.64526790745380
31
0.000000000000000
  0
LINE
  5
F1006C
330
F10007
100
AcDbEntity
  8
Bemassung
 62
     0
370
    -2
100
AcDbLine
10
-83.4707762082714
20
12.3547320925462
30
0.000000000000000
11
-96.4707762082714
21
12.3547320925462
31
0.000000000000000
  0
LINE
  5
F1006D
330
F10007
100
AcDbEntity
  8
Bemassung
 62
     0
370
    -2
100
AcDbLine
10
-94.4707762082714
20
-3.64526790745380
30
0.000000000000000
11
-94.4707762082714
21
12.3547320925462
31
0.000000000000000
  0
INSERT
  5
F1006E
330
F10007
100
AcDbEntity
  8
Bemassung
 62
     0
370
    -2
100
AcDbBlockReference
  2
VDDIM_DEFAULT
10
-94.4707762082714
20
-3.64526790745380
30
0.000000000000000
 41
2.50000000000000
 42
2.50000000000000
 43
2.50000000000000
 50
270.000000000000
  0
INSERT
  5
F1006F
330
F10007
100
AcDbEntity
  8
Bemassung
 62
     0
370
    -2
100
AcDbBlockReference
  2
VDDIM_DEFAULT
10
-94.4707762082714
20
12.3547320925462
30
0.000000000000000
 41
2.50000000000000
 42
2.50000000000000
 43
2.50000000000000
 50
90.0000000000000
  0
MTEXT
  5
F10070
330
F10007
100
AcDbEntity
  8
Bemassung
 62
     0
100
AcDbMText
10
-93.8041095416047
20
4.35473209254620
30
0.000000000000000
 40
2.50000000000000
 41
0.0
 71
     8
 72
     1
  1
16
 11
6.12323399573677e-017
 21
1.00000000000000
 31
0.0
 73
     1
 44
1.0
1001
ACAD
1000
MTEXTBEGIN
1070
73
1070
1
1070
44
1040
1.0
1070
74
1070
0
1000
MTEXTEND
  0
POINT
  5
F10071
330
F10007
100
AcDbEntity
  8
Bemassung
 62
     0
100
AcDbPoint
10
-83.4707762082714
20
-3.64526790745380
30
0.000000000000000
  0
POINT
  5
F10072
330
F10007
100
AcDbEntity
  8
Bemassung
 62
     0
100
AcDbPoint
10
-83.4707762082714
20
12.3547320925462
30
0.000000000000000
  0
ENDBLK
  5
F10073
330
F10007
100
AcDbEntity
  8
0
100
AcDbBlockEnd
  0
BLOCK
  5
F10074
330
F10011
100
AcDbEntity
  8
0
100
AcDbBlockBegin
  2
*D6
 70
     1
 10
0.0
 20
0.0
 30
0.0
  3
*D6
  1

  0
LINE
  5
F10075
330
F10011
100
AcDbEntity
  8
Bemassung
 62
     0
370
    -2
100
AcDbLine
10
-65.4707762082714
20
-3.34526790745380
30
0.000000000000000
11
-61.4707762082714
21
-3.34526790745380
31
0.000000000000000
  0
LINE
  5
F10076
330
F10011
100
AcDbEntity
  8
Bemassung
 62
     0
370
    -2
100
AcDbLine
10
-65.4707762082714
20
12.0547320925462
30
0.000000000000000
11
-61.4707762082714
21
12.0547320925462
31
0.000000000000000
  0
LINE
  5
F10077
330
F10011
100
AcDbEntity
  8
Bemassung
 62
     0
370
    -2
100
AcDbLine
10
-63.4707762082714
20
-32.3248259860789
30
0.000000000000000
11
-63.4707762082714
21
12.0547320925462
31
0.000000000000000
  0
INSERT
  5
F10078
330
F10011
100
AcDbEntity
  8
Bemassung
 62
     0
370
    -2
100
AcDbBlockReference
  2
VDDIM_DEFAULT
10
-63.4707762082714
20
-3.34526790745380
30
0.000000000000000
 41
2.50000000000000
 42
2.50000000000000
 43
2.50000000000000
 50
270.000000000000
  0
INSERT
  5
F10079
330
F10011
100
AcDbEntity
  8
Bemassung
 62
     0
370
    -2
100
AcDbBlockReference
  2
VDDIM_DEFAULT
10
-63.4707762082714
20
12.0547320925462
30
0.000000000000000
 41
2.50000000000000
 42
2.50000000000000
 43
2.50000000000000
 50
90.0000000000000
  0
MTEXT
  5
F1007A
330
F10011
100
AcDbEntity
  8
Bemassung
 62
     0
100
AcDbMText
10
-62.8041095416047
20
-11.5430577027084
30
0.000000000000000
 40
2.50000000000000
 41
0.0
 71
     8
 72
     1
  1
15.4
 11
6.12323399573677e-017
 21
1.00000000000000
 31
0.0
 73
     1
 44
1.0
1001
ACAD
1000
MTEXTBEGIN
1070
73
1070
1
1070
44
1040
1.0
1070
74
1070
0
1000
MTEXTEND
  0
POINT
  5
F1007B
330
F10011
100
AcDbEntity
  8
Bemassung
 62
     0
100
AcDbPoint
10
-65.4707762082714
20
-3.34526790745380
30
0.000000000000000
  0
POINT
  5
F1007C
330
F10011
100
AcDbEntity
  8
Bemassung
 62
     0
100
AcDbPoint
10
-65.4707762082714
20
12.0547320925462
30
0.000000000000000
  0
ENDBLK
  5
F1007D
330
F10011
100
AcDbEntity
  8
0
100
AcDbBlockEnd
  0
BLOCK
  5
F1007E
330
F10020
100
AcDbEntity
  8
0
100
AcDbBlockBegin
  2
*D9
 70
     1
 10
0.0
 20
0.0
 30
0.0
  3
*D9
  1

  0
LINE
  5
F1007F
330
F10020
100
AcDbEntity
  8
Bemassung
 62
     0
370
    -2
100
AcDbLine
10
4.02922379172860
20
-3.64526790745380
30
0.000000000000000
11
16.5292237917286
21
-3.64526790745380
31
0.000000000000000
  0
LINE
  5
F10080
330
F10020
100
AcDbEntity
  8
Bemassung
 62
     0
370
    -2
100
AcDbLine
10
4.02922379172860
20
12.3547320925462
30
0.000000000000000
11
16.5292237917286
21
12.3547320925462
31
0.000000000000000
  0
LINE
  5
F10081
330
F10020
100
AcDbEntity
  8
Bemassung
 62
     0
370
    -2
100
AcDbLine
10
14.5292237917286
20
-3.64526790745380
30
0.000000000000000
11
14.5292237917286
21
12.3547320925462
31
0.000000000000000
  0
INSERT
  5
F10082
330
F10020
100
AcDbEntity
  8
Bemassung
 62
     0
370
    -2
100
AcDbBlockReference
  2
VDDIM_DEFAULT
10
14.5292237917286
20
-3.64526790745380
30
0.000000000000000
 41
2.50000000000000
 42
2.50000000000000
 43
2.50000000000000
 50
270.000000000000
  0
INSERT
  5
F10083
330
F10020
100
AcDbEntity
  8
Bemassung
 62
     0
370
    -2
100
AcDbBlockReference
  2
VDDIM_DEFAULT
10
14.5292237917286
20
12.3547320925462
30
0.000000000000000
 41
2.50000000000000
 42
2.50000000000000
 43
2.50000000000000
 50
90.0000000000000
  0
MTEXT
  5
F10084
330
F10020
100
AcDbEntity
  8
Bemassung
 62
     0
100
AcDbMText
10
15.1958904583953
20
4.35473209254620
30
0.000000000000000
 40
2.50000000000000
 41
0.0
 71
     8
 72
     1
  1
16h6
 11
6.12323399573677e-017
 21
1.00000000000000
 31
0.0
 73
     1
 44
1.0
  0
POINT
  5
F10085
330
F10020
100
AcDbEntity
  8
Bemassung
 62
     0
100
AcDbPoint
10
4.02922379172860
20
-3.64526790745380
30
0.000000000000000
  0
POINT
  5
F10086
330
F10020
100
AcDbEntity
  8
Bemassung
 62
     0
100
AcDbPoint
10
4.02922379172860
20
12.3547320925462
30
0.000000000000000
  0
ENDBLK
  5
F10087
330
F10020
100
AcDbEntity
  8
0
100
AcDbBlockEnd
0
ENDSEC
0
SECTION
2
ENTITIES
  0
DIMENSION
  5
F10017
330
261
100
AcDbEntity
  8
Bemassung
100
AcDbDimension
  2
*D7
10
-49.4707762082714
20
22.3547320925462
30
0.000000000000000
11
-66.9707762082714
21
23.0213987592129
31
0.000000000000000
 70
32
 1
35
 71
     8
  3
BEM-ISBE
100
AcDbAlignedDimension
13
-84.4707762082714
23
-10.6452679074538
33
0.000000000000000
14
-49.4707762082714
24
12.0547320925462
34
0.000000000000000
100
AcDbRotatedDimension
1001
ACAD
1000
DSTYLE
1002
{
1070
284
1070
8
1070
78
1070
8
1070
144
1040
1.00000000000000
1070
147
1040
0.625
1070
 72
1070
 0
1070
 71
1070
 0
1002
}
  0
DIMENSION
  5
F1001C
330
261
100
AcDbEntity
  8
Bemassung
100
AcDbDimension
  2
*D8
10
4.52922379172860
20
27.3547320925462
30
0.000000000000000
11
-22.4707762082714
21
28.0213987592129
31
0.000000000000000
 70
32
 1
54
 71
     8
  3
BEM-ISBE
100
AcDbAlignedDimension
13
-49.4707762082714
23
12.0547320925462
33
0.000000000000000
14
4.52922379172860
24
11.8547320925462
34
0.000000000000000
100
AcDbRotatedDimension
1001
ACAD
1000
DSTYLE
1002
{
1070
284
1070
8
1070
78
1070
8
1070
144
1040
1.00000000000000
1070
147
1040
0.625
1070
 72
1070
 0
1070
 71
1070
 0
1002
}
  0
DIMENSION
  5
F10026
330
261
100
AcDbEntity
  8
Bemassung
100
AcDbDimension
  2
*D10
10
-84.4707762082714
20
-8.64526790745380
30
0.000000000000000
11
-74.9707762082714
21
-7.97860124078713
31
0.000000000000000
 70
32
 1
19
 71
     8
  3
BEM-ISBE
100
AcDbAlignedDimension
13
-65.4707762082714
23
-3.34526790745380
33
0.000000000000000
14
-84.4707762082714
24
-10.6452679074538
34
0.000000000000000
100
AcDbRotatedDimension
1001
ACAD
1000
DSTYLE
1002
{
1070
284
1070
8
1070
78
1070
8
1070
144
1040
1.00000000000000
1070
147
1040
0.625
1070
 72
1070
 0
1070
 71
1070
 0
1002
}
  0
DIMENSION
  5
F1002B
330
261
100
AcDbEntity
  8
Bemassung
100
AcDbDimension
  2
*D11
10
-84.4707762082714
20
32.3547320925462
30
0.000000000000000
11
-39.9707762082714
21
33.0213987592129
31
0.000000000000000
 70
32
 1
89
 71
     8
  3
BEM-ISBE
100
AcDbAlignedDimension
13
4.52922379172860
23
11.8547320925462
33
0.000000000000000
14
-84.4707762082714
24
-10.6452679074538
34
0.000000000000000
100
AcDbRotatedDimension
1001
ACAD
1000
DSTYLE
1002
{
1070
284
1070
8
1070
78
1070
8
1070
144
1040
1.00000000000000
1070
147
1040
0.625
1070
 72
1070
 0
1070
 71
1070
 0
1002
}
  0
DIMENSION
  5
F10003
330
261
100
AcDbEntity
  8
Bemassung
100
AcDbDimension
  2
*D3
10
-84.4701670352905
20
11.3198325958437
30
0.000000000000000
11
-93.8152628547786
21
26.3115669688620
31
0.000000000000000
 70
34
 1
2°
 71
     8
  3
BEM-ISBE
100
AcDb2LineAngularDimension
13
-84.4701670352905
23
11.3198325958437
33
0.000000000000000
14
-92.2334578483923
24
27.1884882143189
34
0.000000000000000
15
-84.4701670352905
25
28.9857012522827
35
0.000000000000000
16
-84.7784789551503
26
28.9830106549198
36
0.000000000000000
1001
ACAD
1000
DSTYLE
1002
{
1070
284
1070
8
1070
79
1070
2
1070
147
1040
0.625
1070
 72
1070
 0
1070
 71
1070
 0
1002
}
  0
DIMENSION
  5
F1000D
330
261
100
AcDbEntity
  8
Bemassung
100
AcDbDimension
  2
*D5
10
-83.4707762082714
20
11.3547320925462
30
0.000000000000000
11
-91.3835140119966
21
18.9959741675952
31
0.000000000000000
 70
164
 1
R1
 71
     8
  3
BEM-ISBE
100
AcDbRadialDimension
15
-84.1901160086100
25
12.0493904630052
35
0.000000000000000
40
0.0
1001
ACAD
1000
DSTYLE
1002
{
1070
284
1070
8
1070
78
1070
8
1070
144
1040
1.00000000000000
1070
147
1040
0.625
1070
 72
1070
 0
1070
 71
1070
 0
1002
}
  0
DIMENSION
  5
F10008
330
261
100
AcDbEntity
  8
Bemassung
100
AcDbDimension
  2
*D4
10
-94.4707762082714
20
12.3547320925462
30
0.000000000000000
11
-93.8041095416047
21
4.35473209254620
31
0.000000000000000
 70
32
 1
16
 71
     8
  3
BEM-ISBE
100
AcDbAlignedDimension
13
-83.4707762082714
23
-3.64526790745380
33
0.000000000000000
14
-83.4707762082714
24
12.3547320925462
34
0.000000000000000
50
90.0000000000000
100
AcDbRotatedDimension
1001
ACAD
1000
DSTYLE
1002
{
1070
284
1070
8
1070
78
1070
8
1070
144
1040
1.00000000000000
1070
147
1040
0.625
1070
 72
1070
 0
1070
 71
1070
 0
1002
}
  0
DIMENSION
  5
F10012
330
261
100
AcDbEntity
  8
Bemassung
100
AcDbDimension
  2
*D6
10
-63.4707762082714
20
12.0547320925462
30
0.000000000000000
11
-62.8041095416047
21
-11.5430577027084
31
0.000000000000000
 70
32
 1
15.4
 71
     8
  3
BEM-ISBE
100
AcDbAlignedDimension
13
-65.4707762082714
23
-3.34526790745380
33
0.000000000000000
14
-65.4707762082714
24
12.0547320925462
34
0.000000000000000
50
90.0000000000000
100
AcDbRotatedDimension
1001
ACAD
1000
DSTYLE
1002
{
1070
284
1070
8
1070
78
1070
8
1070
144
1040
1.00000000000000
1070
147
1040
0.625
1070
 72
1070
 0
1070
 71
1070
 0
1002
}
  0
DIMENSION
  5
F10021
330
261
100
AcDbEntity
  8
Bemassung
100
AcDbDimension
  2
*D9
10
14.5292237917286
20
12.3547320925462
30
0.000000000000000
11
15.1958904583953
21
4.35473209254620
31
0.000000000000000
 70
32
 1
16h6
 71
     8
  3
BEM-ISBE
100
AcDbAlignedDimension
13
4.02922379172860
23
-3.64526790745380
33
0.000000000000000
14
4.02922379172860
24
12.3547320925462
34
0.000000000000000
50
90.0000000000000
100
AcDbRotatedDimension
1001
ACAD
1000
DSTYLE
1002
{
1070
284
1070
8
1070
78
1070
8
1070
144
1040
1.00000000000000
1070
147
1040
0.625
1070
 72
1070
 0
1070
 71
1070
 0
1002
}
  0
LINE
  5
F10088
330
F10089
100
AcDbEntity
8
Geo
100
AcDbLine
10
-84.2269403661280
20
4.35473209254620
30
0.000000000000000
11
-84.4701670352905
21
11.3198325958437
31
0.000000000000000
  0
ARC
  5
F1008A
330
F1008B
100
AcDbEntity
8
Geo
100
AcDbCircle
10
-83.4707762082714
20
11.3547320925462
30
0.000000000000000
 40
1.00000000000000
100
AcDbArc
 50
90.0000000000000
 51
182.000000000000
  0
LINE
  5
F1008C
330
F1008D
100
AcDbEntity
8
Geo
100
AcDbLine
10
-83.4707762082714
20
12.3547320925462
30
0.000000000000000
11
-65.4707762082714
21
12.3547320925462
31
0.000000000000000
  0
LINE
  5
F1008E
330
F1008F
100
AcDbEntity
8
Geo
100
AcDbLine
10
-65.4707762082714
20
12.3547320925462
30
0.000000000000000
11
-65.4707762082714
21
12.0547320925462
31
0.000000000000000
  0
LINE
  5
F10090
330
F10091
100
AcDbEntity
8
Geo
100
AcDbLine
10
-65.4707762082714
20
12.0547320925462
30
0.000000000000000
11
-49.4707762082714
21
12.0547320925462
31
0.000000000000000
  0
LINE
  5
F10092
330
F10093
100
AcDbEntity
8
Geo
100
AcDbLine
10
-49.4707762082714
20
12.0547320925462
30
0.000000000000000
11
-49.4707762082714
21
12.3547320925462
31
0.000000000000000
  0
LINE
  5
F10094
330
F10095
100
AcDbEntity
8
Geo
100
AcDbLine
10
-49.4707762082714
20
12.3547320925462
30
0.000000000000000
11
4.02922379172860
21
12.3547320925462
31
0.000000000000000
  0
LINE
  5
F10096
330
F10097
100
AcDbEntity
8
Geo
100
AcDbLine
10
4.02922379172860
20
12.3547320925462
30
0.000000000000000
11
4.52922379172860
21
11.8547320925462
31
0.000000000000000
  0
LINE
  5
F10098
330
F10099
100
AcDbEntity
8
Geo
100
AcDbLine
10
-81.2707762082714
20
12.3522409168413
30
0.000000000000000
11
-81.1707762082714
21
12.3539994779066
31
0.000000000000000
  0
LINE
  5
F1009A
330
F1009B
100
AcDbEntity
8
Geo
100
AcDbLine
10
-81.1707762082714
20
12.3539994779066
30
0.000000000000000
11
-81.0707762082714
21
12.3439087354604
31
0.000000000000000
  0
LINE
  5
F1009C
330
F1009D
100
AcDbEntity
8
Geo
100
AcDbLine
10
-81.0707762082714
20
12.3439087354604
30
0.000000000000000
11
-80.9707762082714
21
12.3219836369053
31
0.000000000000000
  0
LINE
  5
F1009E
330
F1009F
100
AcDbEntity
8
Geo
100
AcDbLine
10
-80.9707762082714
20
12.3219836369053
30
0.000000000000000
11
-80.8707762082714
21
12.2882566598590
31
0.000000000000000
  0
LINE
  5
F100A0
330
F100A1
100
AcDbEntity
8
Geo
100
AcDbLine
10
-80.8707762082714
20
12.2882566598590
30
0.000000000000000
11
-80.7707762082714
21
12.2427777640449
31
0.000000000000000
  0
LINE
  5
F100A2
330
F100A3
100
AcDbEntity
8
Geo
100
AcDbLine
10
-80.7707762082714
20
12.2427777640449
30
0.000000000000000
11
-80.6707762082714
21
12.1856143172874
31
0.000000000000000
  0
LINE
  5
F100A4
330
F100A5
100
AcDbEntity
8
Geo
100
AcDbLine
10
-80.6707762082714
20
12.1856143172874
30
0.000000000000000
11
-80.5707762082714
21
12.1168509957197
31
0.000000000000000
  0
LINE
  5
F100A6
330
F100A7
100
AcDbEntity
8
Geo
100
AcDbLine
10
-80.5707762082714
20
12.1168509957197
30
0.000000000000000
11
-80.4707762082714
21
12.0365896583531
31
0.000000000000000
  0
LINE
  5
F100A8
330
F100A9
100
AcDbEntity
8
Geo
100
AcDbLine
10
-80.4707762082714
20
12.0365896583531
30
0.000000000000000
11
-80.3707762082714
21
11.9449491961938
31
0.000000000000000
  0
LINE
  5
F100AA
330
F100AB
100
AcDbEntity
8
Geo
100
AcDbLine
10
-80.3707762082714
20
11.9449491961938
30
0.000000000000000
11
-80.2707762082714
21
11.8420653561291
31
0.000000000000000
  0
LINE
  5
F100AC
330
F100AD
100
AcDbEntity
8
Geo
100
AcDbLine
10
-80.2707762082714
20
11.8420653561291
30
0.000000000000000
11
-80.1707762082714
21
11.7280905398465
31
0.000000000000000
  0
LINE
  5
F100AE
330
F100AF
100
AcDbEntity
8
Geo
100
AcDbLine
10
-80.1707762082714
20
11.7280905398465
30
0.000000000000000
11
-80.0707762082714
21
11.6031935780808
31
0.000000000000000
  0
LINE
  5
F100B0
330
F100B1
100
AcDbEntity
8
Geo
100
AcDbLine
10
-80.0707762082714
20
11.6031935780808
30
0.000000000000000
11
-79.9707762082714
21
11.4675594805256
31
0.000000000000000
  0
LINE
  5
F100B2
330
F100B3
100
AcDbEntity
8
Geo
100
AcDbLine
10
-79.9707762082714
20
11.4675594805256
30
0.000000000000000
11
-79.8707762082714
21
11.3213891617785
31
0.000000000000000
  0
LINE
  5
F100B4
330
F100B5
100
AcDbEntity
8
Geo
100
AcDbLine
10
-79.8707762082714
20
11.3213891617785
30
0.000000000000000
11
-79.7707762082714
21
11.1648991437269
31
0.000000000000000
  0
LINE
  5
F100B6
330
F100B7
100
AcDbEntity
8
Geo
100
AcDbLine
10
-79.7707762082714
20
11.1648991437269
30
0.000000000000000
11
-79.6707762082714
21
10.9983212348140
31
0.000000000000000
  0
LINE
  5
F100B8
330
F100B9
100
AcDbEntity
8
Geo
100
AcDbLine
10
-79.6707762082714
20
10.9983212348140
30
0.000000000000000
11
-79.5707762082714
21
10.8219021866617
31
0.000000000000000
  0
LINE
  5
F100BA
330
F100BB
100
AcDbEntity
8
Geo
100
AcDbLine
10
-79.5707762082714
20
10.8219021866617
30
0.000000000000000
11
-79.4707762082714
21
10.6359033285576
31
0.000000000000000
  0
LINE
  5
F100BC
330
F100BD
100
AcDbEntity
8
Geo
100
AcDbLine
10
-79.4707762082714
20
10.6359033285576
30
0.000000000000000
11
-79.3707762082714
21
10.4406001803482
31
0.000000000000000
  0
LINE
  5
F100BE
330
F100BF
100
AcDbEntity
8
Geo
100
AcDbLine
10
-79.3707762082714
20
10.4406001803482
30
0.000000000000000
11
-79.2707762082714
21
10.2362820443120
31
0.000000000000000
  0
LINE
  5
F100C0
330
F100C1
100
AcDbEntity
8
Geo
100
AcDbLine
10
-79.2707762082714
20
10.2362820443120
30
0.000000000000000
11
-79.1707762082714
21
10.0232515766159
31
0.000000000000000
  0
LINE
  5
F100C2
330
F100C3
100
AcDbEntity
8
Geo
100
AcDbLine
10
-79.1707762082714
20
10.0232515766159
30
0.000000000000000
11
-79.0707762082714
21
9.80182433899185
31
0.000000000000000
  0
LINE
  5
F100C4
330
F100C5
100
AcDbEntity
8
Geo
100
AcDbLine
10
-79.0707762082714
20
9.80182433899185
30
0.000000000000000
11
-78.9707762082714
21
9.57232833129501
31
0.000000000000000
  0
LINE
  5
F100C6
330
F100C7
100
AcDbEntity
8
Geo
100
AcDbLine
10
-78.9707762082714
20
9.57232833129501
30
0.000000000000000
11
-78.8707762082714
21
9.33510350563835
31
0.000000000000000
  0
LINE
  5
F100C8
330
F100C9
100
AcDbEntity
8
Geo
100
AcDbLine
10
-78.8707762082714
20
9.33510350563835
30
0.000000000000000
11
-78.7707762082714
21
9.09050126282201
31
0.000000000000000
  0
LINE
  5
F100CA
330
F100CB
100
AcDbEntity
8
Geo
100
AcDbLine
10
-78.7707762082714
20
9.09050126282201
30
0.000000000000000
11
-78.6707762082714
21
8.83888393180376
31
0.000000000000000
  0
LINE
  5
F100CC
330
F100CD
100
AcDbEntity
8
Geo
100
AcDbLine
10
-78.6707762082714
20
8.83888393180376
30
0.000000000000000
11
-78.5707762082714
21
8.58062423298166
31
0.000000000000000
  0
LINE
  5
F100CE
330
F100CF
100
AcDbEntity
8
Geo
100
AcDbLine
10
-78.5707762082714
20
8.58062423298166
30
0.000000000000000
11
-78.4707762082714
21
8.31610472608382
31
0.000000000000000
  0
LINE
  5
F100D0
330
F100D1
100
AcDbEntity
8
Geo
100
AcDbLine
10
-78.4707762082714
20
8.31610472608382
30
0.000000000000000
11
-78.3707762082714
21
8.04571724348326
31
0.000000000000000
  0
LINE
  5
F100D2
330
F100D3
100
AcDbEntity
8
Geo
100
AcDbLine
10
-78.3707762082714
20
8.04571724348326
30
0.000000000000000
11
-78.2707762082714
21
7.76986230977713
31
0.000000000000000
  0
LINE
  5
F100D4
330
F100D5
100
AcDbEntity
8
Geo
100
AcDbLine
10
-78.2707762082714
20
7.76986230977713
30
0.000000000000000
11
-78.1707762082714
21
7.48894854849021
31
0.000000000000000
  0
LINE
  5
F100D6
330
F100D7
100
AcDbEntity
8
Geo
100
AcDbLine
10
-78.1707762082714
20
7.48894854849021
30
0.000000000000000
11
-78.0707762082714
21
7.20339207678143
31
0.000000000000000
  0
LINE
  5
F100D8
330
F100D9
100
AcDbEntity
8
Geo
100
AcDbLine
10
-78.0707762082714
20
7.20339207678143
30
0.000000000000000
11
-77.9707762082714
21
6.91361588905016
31
0.000000000000000
  0
LINE
  5
F100DA
330
F100DB
100
AcDbEntity
8
Geo
100
AcDbLine
10
-77.9707762082714
20
6.91361588905016
30
0.000000000000000
11
-77.8707762082714
21
6.62004923035515
31
0.000000000000000
  0
LINE
  5
F100DC
330
F100DD
100
AcDbEntity
8
Geo
100
AcDbLine
10
-77.8707762082714
20
6.62004923035515
30
0.000000000000000
11
-77.7707762082714
21
6.32312696057446
31
0.000000000000000
  0
LINE
  5
F100DE
330
F100DF
100
AcDbEntity
8
Geo
100
AcDbLine
10
-77.7707762082714
20
6.32312696057446
30
0.000000000000000
11
-77.6707762082714
21
6.02328891024811
31
0.000000000000000
  0
LINE
  5
F100E0
330
F100E1
100
AcDbEntity
8
Geo
100
AcDbLine
10
-77.6707762082714
20
6.02328891024811
30
0.000000000000000
11
-77.5707762082714
21
5.72097922905776
31
0.000000000000000
  0
LINE
  5
F100E2
330
F100E3
100
AcDbEntity
8
Geo
100
AcDbLine
10
-77.5707762082714
20
5.72097922905776
30
0.000000000000000
11
-77.4707762082714
21
5.41664572790836
31
0.000000000000000
  0
LINE
  5
F100E4
330
F100E5
100
AcDbEntity
8
Geo
100
AcDbLine
10
-77.4707762082714
20
5.41664572790836
30
0.000000000000000
11
-77.3707762082714
21
5.11073921558653
31
0.000000000000000
  0
LINE
  5
F100E6
330
F100E7
100
AcDbEntity
8
Geo
100
AcDbLine
10
-77.3707762082714
20
5.11073921558653
30
0.000000000000000
11
-77.2707762082714
21
4.80371283097813
31
0.000000000000000
  0
LINE
  5
F100E8
330
F100E9
100
AcDbEntity
8
Geo
100
AcDbLine
10
-77.2707762082714
20
4.80371283097813
30
0.000000000000000
11
-77.1707762082714
21
4.49602137183425
31
0.000000000000000
  0
LINE
  5
F100EA
330
F100EB
100
AcDbEntity
8
Geo
100
AcDbLine
10
-77.1707762082714
20
4.49602137183425
30
0.000000000000000
11
-77.0707762082714
21
4.18812062107997
31
0.000000000000000
  0
LINE
  5
F100EC
330
F100ED
100
AcDbEntity
8
Geo
100
AcDbLine
10
-77.0707762082714
20
4.18812062107997
30
0.000000000000000
11
-76.9707762082714
21
3.88046667166370
31
0.000000000000000
  0
LINE
  5
F100EE
330
F100EF
100
AcDbEntity
8
Geo
100
AcDbLine
10
-76.9707762082714
20
3.88046667166370
30
0.000000000000000
11
-76.8707762082714
21
3.57351525094741
31
0.000000000000000
  0
LINE
  5
F100F0
330
F100F1
100
AcDbEntity
8
Geo
100
AcDbLine
10
-76.8707762082714
20
3.57351525094741
30
0.000000000000000
11
-76.7707762082714
21
3.26772104563829
31
0.000000000000000
  0
LINE
  5
F100F2
330
F100F3
100
AcDbEntity
8
Geo
100
AcDbLine
10
-76.7707762082714
20
3.26772104563829
30
0.000000000000000
11
-76.6707762082714
21
2.96353702826197
31
0.000000000000000
  0
LINE
  5
F100F4
330
F100F5
100
AcDbEntity
8
Geo
100
AcDbLine
10
-76.6707762082714
20
2.96353702826197
30
0.000000000000000
11
-76.5707762082714
21
2.66141378617497
31
0.000000000000000
  0
LINE
  5
F100F6
330
F100F7
100
AcDbEntity
8
Geo
100
AcDbLine
10
-76.5707762082714
20
2.66141378617497
30
0.000000000000000
11
-76.4707762082714
21
2.36179885411026
31
0.000000000000000
  0
LINE
  5
F100F8
330
F100F9
100
AcDbEntity
8
Geo
100
AcDbLine
10
-76.4707762082714
20
2.36179885411026
30
0.000000000000000
11
-76.3707762082714
21
2.06513605124474
31
0.000000000000000
  0
LINE
  5
F100FA
330
F100FB
100
AcDbEntity
8
Geo
100
AcDbLine
10
-76.3707762082714
20
2.06513605124474
30
0.000000000000000
11
-76.2707762082714
21
1.77186482377044
31
0.000000000000000
  0
LINE
  5
F100FC
330
F100FD
100
AcDbEntity
8
Geo
100
AcDbLine
10
-76.2707762082714
20
1.77186482377044
30
0.000000000000000
11
-76.1707762082714
21
1.48241959394359
31
0.000000000000000
  0
LINE
  5
F100FE
330
F100FF
100
AcDbEntity
8
Geo
100
AcDbLine
10
-76.1707762082714
20
1.48241959394359
30
0.000000000000000
11
-76.0707762082714
21
1.19722911657544
31
0.000000000000000
  0
LINE
  5
F10100
330
F10101
100
AcDbEntity
8
Geo
100
AcDbLine
10
-76.0707762082714
20
1.19722911657544
30
0.000000000000000
11
-75.9707762082714
21
0.916715843918470
31
0.000000000000000
  0
LINE
  5
F10102
330
F10103
100
AcDbEntity
8
Geo
100
AcDbLine
10
-75.9707762082714
20
0.916715843918470
30
0.000000000000000
11
-75.8707762082714
21
0.641295299888366
31
0.000000000000000
  0
LINE
  5
F10104
330
F10105
100
AcDbEntity
8
Geo
100
AcDbLine
10
-75.8707762082714
20
0.641295299888366
30
0.000000000000000
11
-75.7707762082714
21
0.371375464549087
31
0.000000000000000
  0
LINE
  5
F10106
330
F10107
100
AcDbEntity
8
Geo
100
AcDbLine
10
-75.7707762082714
20
0.371375464549087
30
0.000000000000000
11
-75.6707762082714
21
0.107356169772565
31
0.000000000000000
  0
LINE
  5
F10108
330
F10109
100
AcDbEntity
8
Geo
100
AcDbLine
10
-75.6707762082714
20
0.107356169772565
30
0.000000000000000
11
-75.5707762082714
21
-0.150371493031705
31
0.000000000000000
  0
LINE
  5
F1010A
330
F1010B
100
AcDbEntity
8
Geo
100
AcDbLine
10
-75.5707762082714
20
-0.150371493031705
30
0.000000000000000
11
-75.4707762082714
21
-0.401425752239805
31
0.000000000000000
  0
LINE
  5
F1010C
330
F1010D
100
AcDbEntity
8
Geo
100
AcDbLine
10
-75.4707762082714
20
-0.401425752239805
30
0.000000000000000
11
-75.3707762082714
21
-0.645434721531164
31
0.000000000000000
  0
LINE
  5
F1010E
330
F1010F
100
AcDbEntity
8
Geo
100
AcDbLine
10
-75.3707762082714
20
-0.645434721531164
30
0.000000000000000
11
-75.2707762082714
21
-0.882036950763241
31
0.000000000000000
  0
LINE
  5
F10110
330
F10111
100
AcDbEntity
8
Geo
100
AcDbLine
10
-75.2707762082714
20
-0.882036950763241
30
0.000000000000000
11
-75.1707762082714
21
-1.11088196138711
31
0.000000000000000
  0
LINE
  5
F10112
330
F10113
100
AcDbEntity
8
Geo
100
AcDbLine
10
-75.1707762082714
20
-1.11088196138711
30
0.000000000000000
11
-75.0707762082714
21
-1.33163076561085
31
0.000000000000000
  0
LINE
  5
F10114
330
F10115
100
AcDbEntity
8
Geo
100
AcDbLine
10
-75.0707762082714
20
-1.33163076561085
30
0.000000000000000
11
-74.9707762082714
21
-1.54395636854168
31
0.000000000000000
  0
LINE
  5
F10116
330
F10117
100
AcDbEntity
8
Geo
100
AcDbLine
10
-74.9707762082714
20
-1.54395636854168
30
0.000000000000000
11
-74.8707762082714
21
-1.74754425256301
31
0.000000000000000
  0
LINE
  5
F10118
330
F10119
100
AcDbEntity
8
Geo
100
AcDbLine
10
-74.8707762082714
20
-1.74754425256301
30
0.000000000000000
11
-74.7707762082714
21
-1.94209284322900
31
0.000000000000000
  0
LINE
  5
F1011A
330
F1011B
100
AcDbEntity
8
Geo
100
AcDbLine
10
-74.7707762082714
20
-1.94209284322900
30
0.000000000000000
11
-74.6707762082714
21
-2.12731395598629
31
0.000000000000000
  0
LINE
  5
F1011C
330
F1011D
100
AcDbEntity
8
Geo
100
AcDbLine
10
-74.6707762082714
20
-2.12731395598629
30
0.000000000000000
11
-74.5707762082714
21
-2.30293322306143
31
0.000000000000000
  0
LINE
  5
F1011E
330
F1011F
100
AcDbEntity
8
Geo
100
AcDbLine
10
-74.5707762082714
20
-2.30293322306143
30
0.000000000000000
11
-74.4707762082714
21
-2.46869049988145
31
0.000000000000000
  0
LINE
  5
F10120
330
F10121
100
AcDbEntity
8
Geo
100
AcDbLine
10
-74.4707762082714
20
-2.46869049988145
30
0.000000000000000
11
-74.3707762082714
21
-2.62434025042566
31
0.000000000000000
  0
LINE
  5
F10122
330
F10123
100
AcDbEntity
8
Geo
100
AcDbLine
10
-74.3707762082714
20
-2.62434025042566
30
0.000000000000000
11
-74.2707762082714
21
-2.76965191093779
31
0.000000000000000
  0
LINE
  5
F10124
330
F10125
100
AcDbEntity
8
Geo
100
AcDbLine
10
-74.2707762082714
20
-2.76965191093779
30
0.000000000000000
11
-74.1707762082714
21
-2.90441023145979
31
0.000000000000000
  0
LINE
  5
F10126
330
F10127
100
AcDbEntity
8
Geo
100
AcDbLine
10
-74.1707762082714
20
-2.90441023145979
30
0.000000000000000
11
-74.0707762082714
21
-3.02841559468128
31
0.000000000000000
  0
LINE
  5
F10128
330
F10129
100
AcDbEntity
8
Geo
100
AcDbLine
10
-74.0707762082714
20
-3.02841559468128
30
0.000000000000000
11
-73.9707762082714
21
-3.14148431163235
31
0.000000000000000
  0
LINE
  5
F1012A
330
F1012B
100
AcDbEntity
8
Geo
100
AcDbLine
10
-73.9707762082714
20
-3.14148431163235
30
0.000000000000000
11
-73.8707762082714
21
-3.24344889378185
31
0.000000000000000
  0
LINE
  5
F1012C
330
F1012D
100
AcDbEntity
8
Geo
100
AcDbLine
10
-73.8707762082714
20
-3.24344889378185
30
0.000000000000000
11
-73.7707762082714
21
-3.33415830113785
31
0.000000000000000
  0
LINE
  5
F1012E
330
F1012F
100
AcDbEntity
8
Geo
100
AcDbLine
10
-73.7707762082714
20
-3.33415830113785
30
0.000000000000000
11
-73.6707762082714
21
-3.41347816598298
31
0.000000000000000
  0
LINE
  5
F10130
330
F10131
100
AcDbEntity
8
Geo
100
AcDbLine
10
-73.6707762082714
20
-3.41347816598298
30
0.000000000000000
11
-73.5707762082714
21
-3.48129099191318
31
0.000000000000000
  0
LINE
  5
F10132
330
F10133
100
AcDbEntity
8
Geo
100
AcDbLine
10
-73.5707762082714
20
-3.48129099191318
30
0.000000000000000
11
-73.4707762082714
21
-3.53749632788490
31
0.000000000000000
  0
LINE
  5
F10134
330
F10135
100
AcDbEntity
8
Geo
100
AcDbLine
10
-73.4707762082714
20
-3.53749632788490
30
0.000000000000000
11
-73.3707762082714
21
-3.58201091701312
31
0.000000000000000
  0
LINE
  5
F10136
330
F10137
100
AcDbEntity
8
Geo
100
AcDbLine
10
-73.3707762082714
20
-3.58201091701312
30
0.000000000000000
11
-73.2707762082714
21
-3.61476881989967
31
0.000000000000000
  0
LINE
  5
F10138
330
F10139
100
AcDbEntity
8
Geo
100
AcDbLine
10
-73.2707762082714
20
-3.61476881989967
30
0.000000000000000
11
-73.1707762082714
21
-3.63572151230914
31
0.000000000000000
  0
LINE
  5
F1013A
330
F1013B
100
AcDbEntity
8
Geo
100
AcDbLine
10
-73.1707762082714
20
-3.63572151230914
30
0.000000000000000
11
-73.0707762082714
21
-3.64483795704777
31
0.000000000000000
  0
LINE
  5
F1013C
330
F1013D
100
AcDbEntity
8
Geo
100
AcDbLine
10
-84.4707762082714
20
11.3547320925462
30
0.000000000000000
11
-84.3707762082714
21
11.7851146002865
31
0.000000000000000
  0
LINE
  5
F1013E
330
F1013F
100
AcDbEntity
8
Geo
100
AcDbLine
10
-84.3707762082714
20
11.7851146002865
30
0.000000000000000
11
-84.2707762082714
21
11.9322246920874
31
0.000000000000000
  0
LINE
  5
F10140
330
F10141
100
AcDbEntity
8
Geo
100
AcDbLine
10
-84.2707762082714
20
11.9322246920874
30
0.000000000000000
11
-84.1707762082714
21
12.0175044328567
31
0.000000000000000
  0
LINE
  5
F10142
330
F10143
100
AcDbEntity
8
Geo
100
AcDbLine
10
-84.1707762082714
20
12.0175044328567
30
0.000000000000000
11
-84.0707762082714
21
12.0624701101913
31
0.000000000000000
  0
LINE
  5
F10144
330
F10145
100
AcDbEntity
8
Geo
100
AcDbLine
10
-84.0707762082714
20
12.0624701101913
30
0.000000000000000
11
-83.9707762082714
21
12.0755393944705
31
0.000000000000000
  0
LINE
  5
F10146
330
F10147
100
AcDbEntity
8
Geo
100
AcDbLine
10
-83.9707762082714
20
12.0755393944705
30
0.000000000000000
11
-83.8707762082714
21
12.0610767483915
31
0.000000000000000
  0
LINE
  5
F10148
330
F10149
100
AcDbEntity
8
Geo
100
AcDbLine
10
-83.8707762082714
20
12.0610767483915
30
0.000000000000000
11
-83.7707762082714
21
12.0217149874083
31
0.000000000000000
  0
LINE
  5
F1014A
330
F1014B
100
AcDbEntity
8
Geo
100
AcDbLine
10
-83.7707762082714
20
12.0217149874083
30
0.000000000000000
11
-83.6707762082714
21
11.9592061720223
31
0.000000000000000
  0
LINE
  5
F1014C
330
F1014D
100
AcDbEntity
8
Geo
100
AcDbLine
10
-83.6707762082714
20
11.9592061720223
30
0.000000000000000
11
-83.5707762082714
21
11.8747981289811
31
0.000000000000000
  0
LINE
  5
F1014E
330
F1014F
100
AcDbEntity
8
Geo
100
AcDbLine
10
-83.5707762082714
20
11.8747981289811
30
0.000000000000000
11
-83.4707762082714
21
11.7694194251196
31
0.000000000000000
  0
LINE
  5
F10150
330
F10151
100
AcDbEntity
8
Geo
100
AcDbLine
10
-83.4707762082714
20
11.7694194251196
30
0.000000000000000
11
-83.3707762082714
21
11.6483425507023
31
0.000000000000000
  0
LINE
  5
F10152
330
F10153
100
AcDbEntity
8
Geo
100
AcDbLine
10
-83.3707762082714
20
11.6483425507023
30
0.000000000000000
11
-83.2707762082714
21
11.5164616613859
31
0.000000000000000
  0
LINE
  5
F10154
330
F10155
100
AcDbEntity
8
Geo
100
AcDbLine
10
-83.2707762082714
20
11.5164616613859
30
0.000000000000000
11
-83.1707762082714
21
11.3739721121460
31
0.000000000000000
  0
LINE
  5
F10156
330
F10157
100
AcDbEntity
8
Geo
100
AcDbLine
10
-83.1707762082714
20
11.3739721121460
30
0.000000000000000
11
-83.0707762082714
21
11.2210849725513
31
0.000000000000000
  0
LINE
  5
F10158
330
F10159
100
AcDbEntity
8
Geo
100
AcDbLine
10
-83.0707762082714
20
11.2210849725513
30
0.000000000000000
11
-82.9707762082714
21
11.0580267141061
31
0.000000000000000
  0
LINE
  5
F1015A
330
F1015B
100
AcDbEntity
8
Geo
100
AcDbLine
10
-82.9707762082714
20
11.0580267141061
30
0.000000000000000
11
-82.8707762082714
21
10.8850388747793
31
0.000000000000000
  0
LINE
  5
F1015C
330
F1015D
100
AcDbEntity
8
Geo
100
AcDbLine
10
-82.8707762082714
20
10.8850388747793
30
0.000000000000000
11
-82.7707762082714
21
10.7023777012134
31
0.000000000000000
  0
LINE
  5
F1015E
330
F1015F
100
AcDbEntity
8
Geo
100
AcDbLine
10
-82.7707762082714
20
10.7023777012134
30
0.000000000000000
11
-82.6707762082714
21
10.5103137691476
31
0.000000000000000
  0
LINE
  5
F10160
330
F10161
100
AcDbEntity
8
Geo
100
AcDbLine
10
-82.6707762082714
20
10.5103137691476
30
0.000000000000000
11
-82.5707762082714
21
10.3091315826141
31
0.000000000000000
  0
LINE
  5
F10162
330
F10163
100
AcDbEntity
8
Geo
100
AcDbLine
10
-82.5707762082714
20
10.3091315826141
30
0.000000000000000
11
-82.4707762082714
21
10.0991291525023
31
0.000000000000000
  0
LINE
  5
F10164
330
F10165
100
AcDbEntity
8
Geo
100
AcDbLine
10
-82.4707762082714
20
10.0991291525023
30
0.000000000000000
11
-82.3707762082714
21
9.88061755511614
31
0.000000000000000
  0
LINE
  5
F10166
330
F10167
100
AcDbEntity
8
Geo
100
AcDbLine
10
-82.3707762082714
20
9.88061755511614
30
0.000000000000000
11
-82.2707762082714
21
9.65392047137717
31
0.000000000000000
  0
LINE
  5
F10168
330
F10169
100
AcDbEntity
8
Geo
100
AcDbLine
10
-82.2707762082714
20
9.65392047137717
30
0.000000000000000
11
-82.1707762082714
21
9.41937370735619
31
0.000000000000000
  0
LINE
  5
F1016A
330
F1016B
100
AcDbEntity
8
Geo
100
AcDbLine
10
-82.1707762082714
20
9.41937370735619
30
0.000000000000000
11
-82.0707762082714
21
9.17732469684442
31
0.000000000000000
  0
LINE
  5
F1016C
330
F1016D
100
AcDbEntity
8
Geo
100
AcDbLine
10
-82.0707762082714
20
9.17732469684442
30
0.000000000000000
11
-81.9707762082714
21
8.92813198670021
31
0.000000000000000
  0
LINE
  5
F1016E
330
F1016F
100
AcDbEntity
8
Geo
100
AcDbLine
10
-81.9707762082714
20
8.92813198670021
30
0.000000000000000
11
-81.8707762082714
21
8.67216470573412
31
0.000000000000000
  0
LINE
  5
F10170
330
F10171
100
AcDbEntity
8
Geo
100
AcDbLine
10
-81.8707762082714
20
8.67216470573412
30
0.000000000000000
11
-81.7707762082714
21
8.40980201791895
31
0.000000000000000
  0
LINE
  5
F10172
330
F10173
100
AcDbEntity
8
Geo
100
AcDbLine
10
-81.7707762082714
20
8.40980201791895
30
0.000000000000000
11
-81.6707762082714
21
8.14143256073462
31
0.000000000000000
  0
LINE
  5
F10174
330
F10175
100
AcDbEntity
8
Geo
100
AcDbLine
10
-81.6707762082714
20
8.14143256073462
30
0.000000000000000
11
-81.5707762082714
21
7.86745386948008
31
0.000000000000000
  0
LINE
  5
F10176
330
F10177
100
AcDbEntity
8
Geo
100
AcDbLine
10
-81.5707762082714
20
7.86745386948008
30
0.000000000000000
11
-81.4707762082714
21
7.58827178840481
31
0.000000000000000
  0
LINE
  5
F10178
330
F10179
100
AcDbEntity
8
Geo
100
AcDbLine
10
-81.4707762082714
20
7.58827178840481
30
0.000000000000000
11
-81.3707762082714
21
7.30429986953230
31
0.000000000000000
  0
LINE
  5
F1017A
330
F1017B
100
AcDbEntity
8
Geo
100
AcDbLine
10
-81.3707762082714
20
7.30429986953230
30
0.000000000000000
11
-81.2707762082714
21
7.01595876006602
31
0.000000000000000
  0
LINE
  5
F1017C
330
F1017D
100
AcDbEntity
8
Geo
100
AcDbLine
10
-81.2707762082714
20
7.01595876006602
30
0.000000000000000
11
-81.1707762082714
21
6.72367557928530
31
0.000000000000000
  0
LINE
  5
F1017E
330
F1017F
100
AcDbEntity
8
Geo
100
AcDbLine
10
-81.1707762082714
20
6.72367557928530
30
0.000000000000000
11
-81.0707762082714
21
6.42788328585417
31
0.000000000000000
  0
LINE
  5
F10180
330
F10181
100
AcDbEntity
8
Geo
100
AcDbLine
10
-81.0707762082714
20
6.42788328585417
30
0.000000000000000
11
-80.9707762082714
21
6.12902003648030
31
0.000000000000000
  0
LINE
  5
F10182
330
F10183
100
AcDbEntity
8
Geo
100
AcDbLine
10
-80.9707762082714
20
6.12902003648030
30
0.000000000000000
11
-80.8707762082714
21
5.82752853687405
31
0.000000000000000
  0
LINE
  5
F10184
330
F10185
100
AcDbEntity
8
Geo
100
AcDbLine
10
-80.8707762082714
20
5.82752853687405
30
0.000000000000000
11
-80.7707762082714
21
5.52385538596916
31
0.000000000000000
  0
LINE
  5
F10186
330
F10187
100
AcDbEntity
8
Geo
100
AcDbLine
10
-80.7707762082714
20
5.52385538596916
30
0.000000000000000
11
-80.6707762082714
21
5.21845041437635
31
0.000000000000000
  0
LINE
  5
F10188
330
F10189
100
AcDbEntity
8
Geo
100
AcDbLine
10
-80.6707762082714
20
5.21845041437635
30
0.000000000000000
11
-80.5707762082714
21
4.91176601804990
31
0.000000000000000
  0
LINE
  5
F1018A
330
F1018B
100
AcDbEntity
8
Geo
100
AcDbLine
10
-80.5707762082714
20
4.91176601804990
30
0.000000000000000
11
-80.4707762082714
21
4.60425648815416
31
0.000000000000000
  0
LINE
  5
F1018C
330
F1018D
100
AcDbEntity
8
Geo
100
AcDbLine
10
-80.4707762082714
20
4.60425648815416
30
0.000000000000000
11
-80.3707762082714
21
4.29637733812264
31
0.000000000000000
  0
LINE
  5
F1018E
330
F1018F
100
AcDbEntity
8
Geo
100
AcDbLine
10
-80.3707762082714
20
4.29637733812264
30
0.000000000000000
11
-80.2707762082714
21
3.98858462890665
31
0.000000000000000
  0
LINE
  5
F10190
330
F10191
100
AcDbEntity
8
Geo
100
AcDbLine
10
-80.2707762082714
20
3.98858462890665
30
0.000000000000000
11
-80.1707762082714
21
3.68133429341287
31
0.000000000000000
  0
LINE
  5
F10192
330
F10193
100
AcDbEntity
8
Geo
100
AcDbLine
10
-80.1707762082714
20
3.68133429341287
30
0.000000000000000
11
-80.0707762082714
21
3.37508146113050
31
0.000000000000000
  0
LINE
  5
F10194
330
F10195
100
AcDbEntity
8
Geo
100
AcDbLine
10
-80.0707762082714
20
3.37508146113050
30
0.000000000000000
11
-79.9707762082714
21
3.07027978394867
31
0.000000000000000
  0
LINE
  5
F10196
330
F10197
100
AcDbEntity
8
Geo
100
AcDbLine
10
-79.9707762082714
20
3.07027978394867
30
0.000000000000000
11
-79.8707762082714
21
2.76738076416250
31
0.000000000000000
  0
LINE
  5
F10198
330
F10199
100
AcDbEntity
8
Geo
100
AcDbLine
10
-79.8707762082714
20
2.76738076416250
30
0.000000000000000
11
-79.7707762082714
21
2.46683308566338
31
0.000000000000000
  0
LINE
  5
F1019A
330
F1019B
100
AcDbEntity
8
Geo
100
AcDbLine
10
-79.7707762082714
20
2.46683308566338
30
0.000000000000000
11
-79.6707762082714
21
2.16908194930418
31
0.000000000000000
  0
LINE
  5
F1019C
330
F1019D
100
AcDbEntity
8
Geo
100
AcDbLine
10
-79.6707762082714
20
2.16908194930418
30
0.000000000000000
11
-79.5707762082714
21
1.87456841342381
31
0.000000000000000
  0
LINE
  5
F1019E
330
F1019F
100
AcDbEntity
8
Geo
100
AcDbLine
10
-79.5707762082714
20
1.87456841342381
30
0.000000000000000
11
-79.4707762082714
21
1.58372874050818
31
0.000000000000000
  0
LINE
  5
F101A0
330
F101A1
100
AcDbEntity
8
Geo
100
AcDbLine
10
-79.4707762082714
20
1.58372874050818
30
0.000000000000000
11
-79.3707762082714
21
1.29699375095515
31
0.000000000000000
  0
LINE
  5
F101A2
330
F101A3
100
AcDbEntity
8
Geo
100
AcDbLine
10
-79.3707762082714
20
1.29699375095515
30
0.000000000000000
11
-79.2707762082714
21
1.01478818490089
31
0.000000000000000
  0
LINE
  5
F101A4
330
F101A5
100
AcDbEntity
8
Geo
100
AcDbLine
10
-79.2707762082714
20
1.01478818490089
30
0.000000000000000
11
-79.1707762082714
21
0.737530073052925
31
0.000000000000000
  0
LINE
  5
F101A6
330
F101A7
100
AcDbEntity
8
Geo
100
AcDbLine
10
-79.1707762082714
20
0.737530073052925
30
0.000000000000000
11
-79.0707762082714
21
0.465630117461846
31
0.000000000000000
  0
LINE
  5
F101A8
330
F101A9
100
AcDbEntity
8
Geo
100
AcDbLine
10
-79.0707762082714
20
0.465630117461846
30
0.000000000000000
11
-78.9707762082714
21
0.199491083148911
31
0.000000000000000
  0
LINE
  5
F101AA
330
F101AB
100
AcDbEntity
8
Geo
100
AcDbLine
10
-78.9707762082714
20
0.199491083148911
30
0.000000000000000
11
-78.8707762082714
21
-0.0604927985091903
31
0.000000000000000
  0
LINE
  5
F101AC
330
F101AD
100
AcDbEntity
8
Geo
100
AcDbLine
10
-78.8707762082714
20
-0.0604927985091903
30
0.000000000000000
11
-78.7707762082714
21
-0.313936413754731
31
0.000000000000000
  0
LINE
  5
F101AE
330
F101AF
100
AcDbEntity
8
Geo
100
AcDbLine
10
-78.7707762082714
20
-0.313936413754731
30
0.000000000000000
11
-78.6707762082714
21
-0.560464336917402
31
0.000000000000000
  0
LINE
  5
F101B0
330
F101B1
100
AcDbEntity
8
Geo
100
AcDbLine
10
-78.6707762082714
20
-0.560464336917402
30
0.000000000000000
11
-78.5707762082714
21
-0.799711386531844
31
0.000000000000000
  0
LINE
  5
F101B2
330
F101B3
100
AcDbEntity
8
Geo
100
AcDbLine
10
-78.5707762082714
20
-0.799711386531844
30
0.000000000000000
11
-78.4707762082714
21
-1.03132316628043
31
0.000000000000000
  0
LINE
  5
F101B4
330
F101B5
100
AcDbEntity
8
Geo
100
AcDbLine
10
-78.4707762082714
20
-1.03132316628043
30
0.000000000000000
11
-78.3707762082714
21
-1.25495658996002
31
0.000000000000000
  0
LINE
  5
F101B6
330
F101B7
100
AcDbEntity
8
Geo
100
AcDbLine
10
-78.3707762082714
20
-1.25495658996002
30
0.000000000000000
11
-78.2707762082714
21
-1.47028038969510
31
0.000000000000000
  0
LINE
  5
F101B8
330
F101B9
100
AcDbEntity
8
Geo
100
AcDbLine
10
-78.2707762082714
20
-1.47028038969510
30
0.000000000000000
11
-78.1707762082714
21
-1.67697560664438
31
0.000000000000000
  0
LINE
  5
F101BA
330
F101BB
100
AcDbEntity
8
Geo
100
AcDbLine
10
-78.1707762082714
20
-1.67697560664438
30
0.000000000000000
11
-78.0707762082714
21
-1.87473606347413
31
0.000000000000000
  0
LINE
  5
F101BC
330
F101BD
100
AcDbEntity
8
Geo
100
AcDbLine
10
-78.0707762082714
20
-1.87473606347413
30
0.000000000000000
11
-77.9707762082714
21
-2.06326881789816
31
0.000000000000000
  0
LINE
  5
F101BE
330
F101BF
100
AcDbEntity
8
Geo
100
AcDbLine
10
-77.9707762082714
20
-2.06326881789816
30
0.000000000000000
11
-77.8707762082714
21
-2.24229459661288
31
0.000000000000000
  0
LINE
  5
F101C0
330
F101C1
100
AcDbEntity
8
Geo
100
AcDbLine
10
-77.8707762082714
20
-2.24229459661288
30
0.000000000000000
11
-77.7707762082714
21
-2.41154820898444
31
0.000000000000000
  0
LINE
  5
F101C2
330
F101C3
100
AcDbEntity
8
Geo
100
AcDbLine
10
-77.7707762082714
20
-2.41154820898444
30
0.000000000000000
11
-77.6707762082714
21
-2.57077893987521
31
0.000000000000000
  0
LINE
  5
F101C4
330
F101C5
100
AcDbEntity
8
Geo
100
AcDbLine
10
-77.6707762082714
20
-2.57077893987521
30
0.000000000000000
11
-77.5707762082714
21
-2.71975092102779
31
0.000000000000000
  0
LINE
  5
F101C6
330
F101C7
100
AcDbEntity
8
Geo
100
AcDbLine
10
-77.5707762082714
20
-2.71975092102779
30
0.000000000000000
11
-77.4707762082714
21
-2.85824348045631
31
0.000000000000000
  0
LINE
  5
F101C8
330
F101C9
100
AcDbEntity
8
Geo
100
AcDbLine
10
-77.4707762082714
20
-2.85824348045631
30
0.000000000000000
11
-77.3707762082714
21
-2.98605146932754
31
0.000000000000000
  0
LINE
  5
F101CA
330
F101CB
100
AcDbEntity
8
Geo
100
AcDbLine
10
-77.3707762082714
20
-2.98605146932754
30
0.000000000000000
11
-77.2707762082714
21
-3.10298556584759
31
0.000000000000000
  0
LINE
  5
F101CC
330
F101CD
100
AcDbEntity
8
Geo
100
AcDbLine
10
-77.2707762082714
20
-3.10298556584759
30
0.000000000000000
11
-77.1707762082714
21
-3.20887255570398
31
0.000000000000000
  0
LINE
  5
F101CE
330
F101CF
100
AcDbEntity
8
Geo
100
AcDbLine
10
-77.1707762082714
20
-3.20887255570398
30
0.000000000000000
11
-77.0707762082714
21
-3.30355558864775
31
0.000000000000000
  0
LINE
  5
F101D0
330
F101D1
100
AcDbEntity
8
Geo
100
AcDbLine
10
-77.0707762082714
20
-3.30355558864775
30
0.000000000000000
11
-76.9707762082714
21
-3.38689441083558
31
0.000000000000000
  0
LINE
  5
F101D2
330
F101D3
100
AcDbEntity
8
Geo
100
AcDbLine
10
-76.9707762082714
20
-3.38689441083558
30
0.000000000000000
11
-76.8707762082714
21
-3.45876557258752
31
0.000000000000000
  0
LINE
  5
F101D4
330
F101D5
100
AcDbEntity
8
Geo
100
AcDbLine
10
-76.8707762082714
20
-3.45876557258752
30
0.000000000000000
11
-76.7707762082714
21
-3.51906261125290
31
0.000000000000000
  0
LINE
  5
F101D6
330
F101D7
100
AcDbEntity
8
Geo
100
AcDbLine
10
-76.7707762082714
20
-3.51906261125290
30
0.000000000000000
11
-76.6707762082714
21
-3.56769620891328
31
0.000000000000000
  0
LINE
  5
F101D8
330
F101D9
100
AcDbEntity
8
Geo
100
AcDbLine
10
-76.6707762082714
20
-3.56769620891328
30
0.000000000000000
11
-76.5707762082714
21
-3.60459432468893
31
0.000000000000000
  0
LINE
  5
F101DA
330
F101DB
100
AcDbEntity
8
Geo
100
AcDbLine
10
-76.5707762082714
20
-3.60459432468893
30
0.000000000000000
11
-76.4707762082714
21
-3.62970230145292
31
0.000000000000000
  0
LINE
  5
F101DC
330
F101DD
100
AcDbEntity
8
Geo
100
AcDbLine
10
-76.4707762082714
20
-3.62970230145292
30
0.000000000000000
11
-76.3707762082714
21
-3.64298294679464
31
0.000000000000000
  0
LINE
  5
F101DE
330
F101DF
100
AcDbEntity
8
Geo
100
AcDbLine
10
-84.4707762082714
20
11.0121277066123
30
0.000000000000000
11
-84.3707762082714
21
11.3330246388756
31
0.000000000000000
  0
LINE
  5
F101E0
330
F101E1
100
AcDbEntity
8
Geo
100
AcDbLine
10
-84.3707762082714
20
11.3330246388756
30
0.000000000000000
11
-84.2707762082714
21
11.3807444526864
31
0.000000000000000
  0
LINE
  5
F101E2
330
F101E3
100
AcDbEntity
8
Geo
100
AcDbLine
10
-84.2707762082714
20
11.3807444526864
30
0.000000000000000
11
-84.1707762082714
21
11.3678152787077
31
0.000000000000000
  0
LINE
  5
F101E4
330
F101E5
100
AcDbEntity
8
Geo
100
AcDbLine
10
-84.1707762082714
20
11.3678152787077
30
0.000000000000000
11
-84.0707762082714
21
11.3155959044098
31
0.000000000000000
  0
LINE
  5
F101E6
330
F101E7
100
AcDbEntity
8
Geo
100
AcDbLine
10
-84.0707762082714
20
11.3155959044098
30
0.000000000000000
11
-83.9707762082714
21
11.2327432000216
31
0.000000000000000
  0
LINE
  5
F101E8
330
F101E9
100
AcDbEntity
8
Geo
100
AcDbLine
10
-83.9707762082714
20
11.2327432000216
30
0.000000000000000
11
-83.8707762082714
21
11.1239523689898
31
0.000000000000000
  0
LINE
  5
F101EA
330
F101EB
100
AcDbEntity
8
Geo
100
AcDbLine
10
-83.8707762082714
20
11.1239523689898
30
0.000000000000000
11
-83.7707762082714
21
10.9922163565428
31
0.000000000000000
  0
LINE
  5
F101EC
330
F101ED
100
AcDbEntity
8
Geo
100
AcDbLine
10
-83.7707762082714
20
10.9922163565428
30
0.000000000000000
11
-83.6707762082714
21
10.8396607608197
31
0.000000000000000
  0
LINE
  5
F101EE
330
F101EF
100
AcDbEntity
8
Geo
100
AcDbLine
10
-83.6707762082714
20
10.8396607608197
30
0.000000000000000
11
-83.5707762082714
21
10.6679177832808
31
0.000000000000000
  0
LINE
  5
F101F0
330
F101F1
100
AcDbEntity
8
Geo
100
AcDbLine
10
-83.5707762082714
20
10.6679177832808
30
0.000000000000000
11
-83.4707762082714
21
10.4783142619240
31
0.000000000000000
  0
LINE
  5
F101F2
330
F101F3
100
AcDbEntity
8
Geo
100
AcDbLine
10
-83.4707762082714
20
10.4783142619240
30
0.000000000000000
11
-83.3707762082714
21
10.2756817518327
31
0.000000000000000
  0
LINE
  5
F101F4
330
F101F5
100
AcDbEntity
8
Geo
100
AcDbLine
10
-83.3707762082714
20
10.2756817518327
30
0.000000000000000
11
-83.2707762082714
21
10.0642785473503
31
0.000000000000000
  0
LINE
  5
F101F6
330
F101F7
100
AcDbEntity
8
Geo
100
AcDbLine
10
-83.2707762082714
20
10.0642785473503
30
0.000000000000000
11
-83.1707762082714
21
9.84441779974595
31
0.000000000000000
  0
LINE
  5
F101F8
330
F101F9
100
AcDbEntity
8
Geo
100
AcDbLine
10
-83.1707762082714
20
9.84441779974595
30
0.000000000000000
11
-83.0707762082714
21
9.61642518843539
31
0.000000000000000
  0
LINE
  5
F101FA
330
F101FB
100
AcDbEntity
8
Geo
100
AcDbLine
10
-83.0707762082714
20
9.61642518843539
30
0.000000000000000
11
-82.9707762082714
21
9.38063843855265
31
0.000000000000000
  0
LINE
  5
F101FC
330
F101FD
100
AcDbEntity
8
Geo
100
AcDbLine
10
-82.9707762082714
20
9.38063843855265
30
0.000000000000000
11
-82.8707762082714
21
9.13740682067823
31
0.000000000000000
  0
LINE
  5
F101FE
330
F101FF
100
AcDbEntity
8
Geo
100
AcDbLine
10
-82.8707762082714
20
9.13740682067823
30
0.000000000000000
11
-82.7707762082714
21
8.88709063346511
31
0.000000000000000
  0
LINE
  5
F10200
330
F10201
100
AcDbEntity
8
Geo
100
AcDbLine
10
-82.7707762082714
20
8.88709063346511
30
0.000000000000000
11
-82.6707762082714
21
8.63006066992886
31
0.000000000000000
  0
LINE
  5
F10202
330
F10203
100
AcDbEntity
8
Geo
100
AcDbLine
10
-82.6707762082714
20
8.63006066992886
30
0.000000000000000
11
-82.5707762082714
21
8.36669766819247
31
0.000000000000000
  0
LINE
  5
F10204
330
F10205
100
AcDbEntity
8
Geo
100
AcDbLine
10
-82.5707762082714
20
8.36669766819247
30
0.000000000000000
11
-82.4707762082714
21
8.09739174749945
31
0.000000000000000
  0
LINE
  5
F10206
330
F10207
100
AcDbEntity
8
Geo
100
AcDbLine
10
-82.4707762082714
20
8.09739174749945
30
0.000000000000000
11
-82.3707762082714
21
7.82254183033085
31
0.000000000000000
  0
LINE
  5
F10208
330
F10209
100
AcDbEntity
8
Geo
100
AcDbLine
10
-82.3707762082714
20
7.82254183033085
30
0.000000000000000
11
-82.2707762082714
21
7.54255505148185
31
0.000000000000000
  0
LINE
  5
F1020A
330
F1020B
100
AcDbEntity
8
Geo
100
AcDbLine
10
-82.2707762082714
20
7.54255505148185
30
0.000000000000000
11
-82.1707762082714
21
7.25784615497362
31
0.000000000000000
  0
LINE
  5
F1020C
330
F1020D
100
AcDbEntity
8
Geo
100
AcDbLine
10
-82.1707762082714
20
7.25784615497362
30
0.000000000000000
11
-82.0707762082714
21
6.96883687969357
31
0.000000000000000
  0
LINE
  5
F1020E
330
F1020F
100
AcDbEntity
8
Geo
100
AcDbLine
10
-82.0707762082714
20
6.96883687969357
30
0.000000000000000
11
-81.9707762082714
21
6.67595533467411
31
0.000000000000000
  0
LINE
  5
F10210
330
F10211
100
AcDbEntity
8
Geo
100
AcDbLine
10
-81.9707762082714
20
6.67595533467411
30
0.000000000000000
11
-81.8707762082714
21
6.37963536493538
31
0.000000000000000
  0
LINE
  5
F10212
330
F10213
100
AcDbEntity
8
Geo
100
AcDbLine
10
-81.8707762082714
20
6.37963536493538
30
0.000000000000000
11
-81.7707762082714
21
6.08031590883121
31
0.000000000000000
  0
LINE
  5
F10214
330
F10215
100
AcDbEntity
8
Geo
100
AcDbLine
10
-81.7707762082714
20
6.08031590883121
30
0.000000000000000
11
-81.6707762082714
21
5.77844034785034
31
0.000000000000000
  0
LINE
  5
F10216
330
F10217
100
AcDbEntity
8
Geo
100
AcDbLine
10
-81.6707762082714
20
5.77844034785034
30
0.000000000000000
11
-81.5707762082714
21
5.47445584983609
31
0.000000000000000
  0
LINE
  5
F10218
330
F10219
100
AcDbEntity
8
Geo
100
AcDbLine
10
-81.5707762082714
20
5.47445584983609
30
0.000000000000000
11
-81.4707762082714
21
5.16881270659723
31
0.000000000000000
  0
LINE
  5
F1021A
330
F1021B
100
AcDbEntity
8
Geo
100
AcDbLine
10
-81.4707762082714
20
5.16881270659723
30
0.000000000000000
11
-81.3707762082714
21
4.86196366689135
31
0.000000000000000
  0
LINE
  5
F1021C
330
F1021D
100
AcDbEntity
8
Geo
100
AcDbLine
10
-81.3707762082714
20
4.86196366689135
30
0.000000000000000
11
-81.2707762082714
21
4.55436326576880
31
0.000000000000000
  0
LINE
  5
F1021E
330
F1021F
100
AcDbEntity
8
Geo
100
AcDbLine
10
-81.2707762082714
20
4.55436326576880
30
0.000000000000000
11
-81.1707762082714
21
4.24646715127052
31
0.000000000000000
  0
LINE
  5
F10220
330
F10221
100
AcDbEntity
8
Geo
100
AcDbLine
10
-81.1707762082714
20
4.24646715127052
30
0.000000000000000
11
-81.0707762082714
21
3.93873140947727
31
0.000000000000000
  0
LINE
  5
F10222
330
F10223
100
AcDbEntity
8
Geo
100
AcDbLine
10
-81.0707762082714
20
3.93873140947727
30
0.000000000000000
11
-80.9707762082714
21
3.63161188890994
31
0.000000000000000
  0
LINE
  5
F10224
330
F10225
100
AcDbEntity
8
Geo
100
AcDbLine
10
-80.9707762082714
20
3.63161188890994
30
0.000000000000000
11
-80.8707762082714
21
3.32556352528179
31
0.000000000000000
  0
LINE
  5
F10226
330
F10227
100
AcDbEntity
8
Geo
100
AcDbLine
10
-80.8707762082714
20
3.32556352528179
30
0.000000000000000
11
-80.7707762082714
21
3.02103966760281
31
0.000000000000000
  0
LINE
  5
F10228
330
F10229
100
AcDbEntity
8
Geo
100
AcDbLine
10
-80.7707762082714
20
3.02103966760281
30
0.000000000000000
11
-80.6707762082714
21
2.71849140663448
31
0.000000000000000
  0
LINE
  5
F1022A
330
F1022B
100
AcDbEntity
8
Geo
100
AcDbLine
10
-80.6707762082714
20
2.71849140663448
30
0.000000000000000
11
-80.5707762082714
21
2.41836690668965
31
0.000000000000000
  0
LINE
  5
F1022C
330
F1022D
100
AcDbEntity
8
Geo
100
AcDbLine
10
-80.5707762082714
20
2.41836690668965
30
0.000000000000000
11
-80.4707762082714
21
2.12111074176738
31
0.000000000000000
  0
LINE
  5
F1022E
330
F1022F
100
AcDbEntity
8
Geo
100
AcDbLine
10
-80.4707762082714
20
2.12111074176738
30
0.000000000000000
11
-80.3707762082714
21
1.82716323700612
31
0.000000000000000
  0
LINE
  5
F10230
330
F10231
100
AcDbEntity
8
Geo
100
AcDbLine
10
-80.3707762082714
20
1.82716323700612
30
0.000000000000000
11
-80.2707762082714
21
1.53695981643065
31
0.000000000000000
  0
LINE
  5
F10232
330
F10233
100
AcDbEntity
8
Geo
100
AcDbLine
10
-80.2707762082714
20
1.53695981643065
30
0.000000000000000
11
-80.1707762082714
21
1.25093035795914
31
0.000000000000000
  0
LINE
  5
F10234
330
F10235
100
AcDbEntity
8
Geo
100
AcDbLine
10
-80.1707762082714
20
1.25093035795914
30
0.000000000000000
11
-80.0707762082714
21
0.969498556625571
31
0.000000000000000
  0
LINE
  5
F10236
330
F10237
100
AcDbEntity
8
Geo
100
AcDbLine
10
-80.0707762082714
20
0.969498556625571
30
0.000000000000000
11
-79.9707762082714
21
0.693081296960881
31
0.000000000000000
  0
LINE
  5
F10238
330
F10239
100
AcDbEntity
8
Geo
100
AcDbLine
10
-79.9707762082714
20
0.693081296960881
30
0.000000000000000
11
-79.8707762082714
21
0.422088035462491
31
0.000000000000000
  0
LINE
  5
F1023A
330
F1023B
100
AcDbEntity
8
Geo
100
AcDbLine
10
-79.8707762082714
20
0.422088035462491
30
0.000000000000000
11
-79.7707762082714
21
0.156920194066988
31
0.000000000000000
  0
LINE
  5
F1023C
330
F1023D
100
AcDbEntity
8
Geo
100
AcDbLine
10
-79.7707762082714
20
0.156920194066988
30
0.000000000000000
11
-79.6707762082714
21
-0.102029434475643
31
0.000000000000000
  0
LINE
  5
F1023E
330
F1023F
100
AcDbEntity
8
Geo
100
AcDbLine
10
-79.6707762082714
20
-0.102029434475643
30
0.000000000000000
11
-79.5707762082714
21
-0.354377268445355
31
0.000000000000000
  0
LINE
  5
F10240
330
F10241
100
AcDbEntity
8
Geo
100
AcDbLine
10
-79.5707762082714
20
-0.354377268445355
30
0.000000000000000
11
-79.4707762082714
21
-0.599749505351106
31
0.000000000000000
  0
LINE
  5
F10242
330
F10243
100
AcDbEntity
8
Geo
100
AcDbLine
10
-79.4707762082714
20
-0.599749505351106
30
0.000000000000000
11
-79.3707762082714
21
-0.837782675643957
31
0.000000000000000
  0
LINE
  5
F10244
330
F10245
100
AcDbEntity
8
Geo
100
AcDbLine
10
-79.3707762082714
20
-0.837782675643957
30
0.000000000000000
11
-79.2707762082714
21
-1.06812418112401
31
0.000000000000000
  0
LINE
  5
F10246
330
F10247
100
AcDbEntity
8
Geo
100
AcDbLine
10
-79.2707762082714
20
-1.06812418112401
30
0.000000000000000
11
-79.1707762082714
21
-1.29043281724361
31
0.000000000000000
  0
LINE
  5
F10248
330
F10249
100
AcDbEntity
8
Geo
100
AcDbLine
10
-79.1707762082714
20
-1.29043281724361
30
0.000000000000000
11
-79.0707762082714
21
-1.50437927853319
31
0.000000000000000
  0
LINE
  5
F1024A
330
F1024B
100
AcDbEntity
8
Geo
100
AcDbLine
10
-79.0707762082714
20
-1.50437927853319
30
0.000000000000000
11
-78.9707762082714
21
-1.70964664640097
31
0.000000000000000
  0
LINE
  5
F1024C
330
F1024D
100
AcDbEntity
8
Geo
100
AcDbLine
10
-78.9707762082714
20
-1.70964664640097
30
0.000000000000000
11
-78.8707762082714
21
-1.90593085858403
31
0.000000000000000
  0
LINE
  5
F1024E
330
F1024F
100
AcDbEntity
8
Geo
100
AcDbLine
10
-78.8707762082714
20
-1.90593085858403
30
0.000000000000000
11
-78.7707762082714
21
-2.09294115955532
31
0.000000000000000
  0
LINE
  5
F10250
330
F10251
100
AcDbEntity
8
Geo
100
AcDbLine
10
-78.7707762082714
20
-2.09294115955532
30
0.000000000000000
11
-78.6707762082714
21
-2.27040053121940
31
0.000000000000000
  0
LINE
  5
F10252
330
F10253
100
AcDbEntity
8
Geo
100
AcDbLine
10
-78.6707762082714
20
-2.27040053121940
30
0.000000000000000
11
-78.5707762082714
21
-2.43804610325896
31
0.000000000000000
  0
LINE
  5
F10254
330
F10255
100
AcDbEntity
8
Geo
100
AcDbLine
10
-78.5707762082714
20
-2.43804610325896
30
0.000000000000000
11
-78.4707762082714
21
-2.59562954252427
31
0.000000000000000
  0
LINE
  5
F10256
330
F10257
100
AcDbEntity
8
Geo
100
AcDbLine
10
-78.4707762082714
20
-2.59562954252427
30
0.000000000000000
11
-78.3707762082714
21
-2.74291742088867
31
0.000000000000000
  0
LINE
  5
F10258
330
F10259
100
AcDbEntity
8
Geo
100
AcDbLine
10
-78.3707762082714
20
-2.74291742088867
30
0.000000000000000
11
-78.2707762082714
21
-2.87969156102541
31
0.000000000000000
  0
LINE
  5
F1025A
330
F1025B
100
AcDbEntity
8
Geo
100
AcDbLine
10
-78.2707762082714
20
-2.87969156102541
30
0.000000000000000
11
-78.1707762082714
21
-3.00574935959332
31
0.000000000000000
  0
LINE
  5
F1025C
330
F1025D
100
AcDbEntity
8
Geo
100
AcDbLine
10
-78.1707762082714
20
-3.00574935959332
30
0.000000000000000
11
-78.0707762082714
21
-3.12090408735294
31
0.000000000000000
  0
LINE
  5
F1025E
330
F1025F
100
AcDbEntity
8
Geo
100
AcDbLine
10
-78.0707762082714
20
-3.12090408735294
30
0.000000000000000
11
-77.9707762082714
21
-3.22498516576823
31
0.000000000000000
  0
LINE
  5
F10260
330
F10261
100
AcDbEntity
8
Geo
100
AcDbLine
10
-77.9707762082714
20
-3.22498516576823
30
0.000000000000000
11
-77.8707762082714
21
-3.31783841968431
31
0.000000000000000
  0
LINE
  5
F10262
330
F10263
100
AcDbEntity
8
Geo
100
AcDbLine
10
-77.8707762082714
20
-3.31783841968431
30
0.000000000000000
11
-77.7707762082714
21
-3.39932630570694
31
0.000000000000000
  0
LINE
  5
F10264
330
F10265
100
AcDbEntity
8
Geo
100
AcDbLine
10
-77.7707762082714
20
-3.39932630570694
30
0.000000000000000
11
-77.6707762082714
21
-3.46932811594533
31
0.000000000000000
  0
LINE
  5
F10266
330
F10267
100
AcDbEntity
8
Geo
100
AcDbLine
10
-77.6707762082714
20
-3.46932811594533
30
0.000000000000000
11
-77.5707762082714
21
-3.52774015681656
31
0.000000000000000
  0
LINE
  5
F10268
330
F10269
100
AcDbEntity
8
Geo
100
AcDbLine
10
-77.5707762082714
20
-3.52774015681656
30
0.000000000000000
11
-77.4707762082714
21
-3.57447590264676
31
0.000000000000000
  0
LINE
  5
F1026A
330
F1026B
100
AcDbEntity
8
Geo
100
AcDbLine
10
-77.4707762082714
20
-3.57447590264676
30
0.000000000000000
11
-77.3707762082714
21
-3.60946612384146
31
0.000000000000000
  0
LINE
  5
F1026C
330
F1026D
100
AcDbEntity
8
Geo
100
AcDbLine
10
-77.3707762082714
20
-3.60946612384146
30
0.000000000000000
11
-77.2707762082714
21
-3.63265898943527
31
0.000000000000000
  0
LINE
  5
F1026E
330
F1026F
100
AcDbEntity
8
Geo
100
AcDbLine
10
-77.2707762082714
20
-3.63265898943527
30
0.000000000000000
11
-77.1707762082714
21
-3.64402014386907
31
0.000000000000000
  0
LINE
  5
F10270
330
F10271
100
AcDbEntity
8
Geo
100
AcDbLine
10
-68.9707762082714
20
12.3547320925462
30
0.000000000000000
11
-68.8707762082714
21
12.3544075594020
31
0.000000000000000
  0
LINE
  5
F10272
330
F10273
100
AcDbEntity
8
Geo
100
AcDbLine
10
-68.8707762082714
20
12.3544075594020
30
0.000000000000000
11
-68.7707762082714
21
12.3487306585472
31
0.000000000000000
  0
LINE
  5
F10274
330
F10275
100
AcDbEntity
8
Geo
100
AcDbLine
10
-68.7707762082714
20
12.3487306585472
30
0.000000000000000
11
-68.6707762082714
21
12.3364438697643
31
0.000000000000000
  0
LINE
  5
F10276
330
F10277
100
AcDbEntity
8
Geo
100
AcDbLine
10
-68.6707762082714
20
12.3364438697643
30
0.000000000000000
11
-68.5707762082714
21
12.3181364946258
31
0.000000000000000
  0
LINE
  5
F10278
330
F10279
100
AcDbEntity
8
Geo
100
AcDbLine
10
-68.5707762082714
20
12.3181364946258
30
0.000000000000000
11
-68.4707762082714
21
12.2943841612941
31
0.000000000000000
  0
LINE
  5
F1027A
330
F1027B
100
AcDbEntity
8
Geo
100
AcDbLine
10
-68.4707762082714
20
12.2943841612941
30
0.000000000000000
11
-68.3707762082714
21
12.2657475300334
31
0.000000000000000
  0
LINE
  5
F1027C
330
F1027D
100
AcDbEntity
8
Geo
100
AcDbLine
10
-68.3707762082714
20
12.2657475300334
30
0.000000000000000
11
-68.2707762082714
21
12.2327711855501
31
0.000000000000000
  0
LINE
  5
F1027E
330
F1027F
100
AcDbEntity
8
Geo
100
AcDbLine
10
-68.2707762082714
20
12.2327711855501
30
0.000000000000000
11
-68.1707762082714
21
12.1959827036981
31
0.000000000000000
  0
LINE
  5
F10280
330
F10281
100
AcDbEntity
8
Geo
100
AcDbLine
10
-68.1707762082714
20
12.1959827036981
30
0.000000000000000
11
-68.0707762082714
21
12.1558918800463
31
0.000000000000000
  0
LINE
  5
F10282
330
F10283
100
AcDbEntity
8
Geo
100
AcDbLine
10
-68.0707762082714
20
12.1558918800463
30
0.000000000000000
11
-67.9707762082714
21
12.1129901078778
31
0.000000000000000
  0
LINE
  5
F10284
330
F10285
100
AcDbEntity
8
Geo
100
AcDbLine
10
-67.9707762082714
20
12.1129901078778
30
0.000000000000000
11
-67.8707762082714
21
12.0677498933334
31
0.000000000000000
  0
LINE
  5
F10286
330
F10287
100
AcDbEntity
8
Geo
100
AcDbLine
10
-67.8707762082714
20
12.0677498933334
30
0.000000000000000
11
-67.7707762082714
21
12.0206244956359
31
0.000000000000000
  0
LINE
  5
F10288
330
F10289
100
AcDbEntity
8
Geo
100
AcDbLine
10
-67.7707762082714
20
12.0206244956359
30
0.000000000000000
11
-67.6707762082714
21
11.9720476806170
31
0.000000000000000
  0
LINE
  5
F1028A
330
F1028B
100
AcDbEntity
8
Geo
100
AcDbLine
10
-67.6707762082714
20
11.9720476806170
30
0.000000000000000
11
-67.5707762082714
21
11.9224335761039
31
0.000000000000000
  0
LINE
  5
F1028C
330
F1028D
100
AcDbEntity
8
Geo
100
AcDbLine
10
-67.5707762082714
20
11.9224335761039
30
0.000000000000000
11
-67.4707762082714
21
11.8721766181052
31
0.000000000000000
  0
LINE
  5
F1028E
330
F1028F
100
AcDbEntity
8
Geo
100
AcDbLine
10
-67.4707762082714
20
11.8721766181052
30
0.000000000000000
11
-67.3707762082714
21
11.8216515771533
31
0.000000000000000
  0
LINE
  5
F10290
330
F10291
100
AcDbEntity
8
Geo
100
AcDbLine
10
-67.3707762082714
20
11.8216515771533
30
0.000000000000000
11
-67.2707762082714
21
11.7712136546043
31
0.000000000000000
  0
LINE
  5
F10292
330
F10293
100
AcDbEntity
8
Geo
100
AcDbLine
10
-67.2707762082714
20
11.7712136546043
30
0.000000000000000
11
-67.1707762082714
21
11.7211986391671
31
0.000000000000000
  0
LINE
  5
F10294
330
F10295
100
AcDbEntity
8
Geo
100
AcDbLine
10
-67.1707762082714
20
11.7211986391671
30
0.000000000000000
11
-67.0707762082714
21
11.6719231144132
31
0.000000000000000
  0
LINE
  5
F10296
330
F10297
100
AcDbEntity
8
Geo
100
AcDbLine
10
-67.0707762082714
20
11.6719231144132
30
0.000000000000000
11
-66.9707762082714
21
11.6236847085140
31
0.000000000000000
  0
LINE
  5
F10298
330
F10299
100
AcDbEntity
8
Geo
100
AcDbLine
10
-66.9707762082714
20
11.6236847085140
30
0.000000000000000
11
-66.8707762082714
21
11.5767623779539
31
0.000000000000000
  0
LINE
  5
F1029A
330
F1029B
100
AcDbEntity
8
Geo
100
AcDbLine
10
-66.8707762082714
20
11.5767623779539
30
0.000000000000000
11
-66.7707762082714
21
11.5314167174633
31
0.000000000000000
  0
LINE
  5
F1029C
330
F1029D
100
AcDbEntity
8
Geo
100
AcDbLine
10
-66.7707762082714
20
11.5314167174633
30
0.000000000000000
11
-66.6707762082714
21
11.4878902889219
31
0.000000000000000
  0
LINE
  5
F1029E
330
F1029F
100
AcDbEntity
8
Geo
100
AcDbLine
10
-66.6707762082714
20
11.4878902889219
30
0.000000000000000
11
-66.5707762082714
21
11.4464079624729
31
0.000000000000000
  0
LINE
  5
F102A0
330
F102A1
100
AcDbEntity
8
Geo
100
AcDbLine
10
-66.5707762082714
20
11.4464079624729
30
0.000000000000000
11
-66.4707762082714
21
11.4071772635773
31
0.000000000000000
  0
LINE
  5
F102A2
330
F102A3
100
AcDbEntity
8
Geo
100
AcDbLine
10
-66.4707762082714
20
11.4071772635773
30
0.000000000000000
11
-66.3707762082714
21
11.3703887202198
31
0.000000000000000
  0
LINE
  5
F102A4
330
F102A5
100
AcDbEntity
8
Geo
100
AcDbLine
10
-66.3707762082714
20
11.3703887202198
30
0.000000000000000
11
-66.2707762082714
21
11.3362162049436
31
0.000000000000000
  0
LINE
  5
F102A6
330
F102A7
100
AcDbEntity
8
Geo
100
AcDbLine
10
-66.2707762082714
20
11.3362162049436
30
0.000000000000000
11
-66.1707762082714
21
11.3048172668490
31
0.000000000000000
  0
LINE
  5
F102A8
330
F102A9
100
AcDbEntity
8
Geo
100
AcDbLine
10
-66.1707762082714
20
11.3048172668490
30
0.000000000000000
11
-66.0707762082714
21
11.2763334491404
31
0.000000000000000
  0
LINE
  5
F102AA
330
F102AB
100
AcDbEntity
8
Geo
100
AcDbLine
10
-66.0707762082714
20
11.2763334491404
30
0.000000000000000
11
-65.9707762082714
21
11.2508905882348
31
0.000000000000000
  0
LINE
  5
F102AC
330
F102AD
100
AcDbEntity
8
Geo
100
AcDbLine
10
-65.9707762082714
20
11.2508905882348
30
0.000000000000000
11
-65.8707762082714
21
11.2285990908707
31
0.000000000000000
  0
LINE
  5
F102AE
330
F102AF
100
AcDbEntity
8
Geo
100
AcDbLine
10
-65.8707762082714
20
11.2285990908707
30
0.000000000000000
11
-65.7707762082714
21
11.2095541860635
31
0.000000000000000
  0
LINE
  5
F102B0
330
F102B1
100
AcDbEntity
8
Geo
100
AcDbLine
10
-65.7707762082714
20
11.2095541860635
30
0.000000000000000
11
-65.6707762082714
21
11.1938361491534
31
0.000000000000000
  0
LINE
  5
F102B2
330
F102B3
100
AcDbEntity
8
Geo
100
AcDbLine
10
-65.6707762082714
20
11.1938361491534
30
0.000000000000000
11
-65.5707762082714
21
11.1815104955796
31
0.000000000000000
  0
LINE
  5
F102B4
330
F102B5
100
AcDbEntity
8
Geo
100
AcDbLine
10
-65.5707762082714
20
11.1815104955796
30
0.000000000000000
11
-65.4707762082714
21
11.1726281423934
31
0.000000000000000
  0
LINE
  5
F102B6
330
F102B7
100
AcDbEntity
8
Geo
100
AcDbLine
10
-84.4707762082714
20
4.35473209254618
30
0.000000000000000
11
-84.3707762082714
21
4.06859522036095
31
0.000000000000000
  0
LINE
  5
F102B8
330
F102B9
100
AcDbEntity
8
Geo
100
AcDbLine
10
-84.3707762082714
20
4.06859522036095
30
0.000000000000000
11
-84.2707762082714
21
3.77026147403856
31
0.000000000000000
  0
LINE
  5
F102BA
330
F102BB
100
AcDbEntity
8
Geo
100
AcDbLine
10
-84.2707762082714
20
3.77026147403856
30
0.000000000000000
11
-84.1707762082714
21
3.46595773393028
31
0.000000000000000
  0
LINE
  5
F102BC
330
F102BD
100
AcDbEntity
8
Geo
100
AcDbLine
10
-84.1707762082714
20
3.46595773393028
30
0.000000000000000
11
-84.0707762082714
21
3.15858216408885
31
0.000000000000000
  0
LINE
  5
F102BE
330
F102BF
100
AcDbEntity
8
Geo
100
AcDbLine
10
-84.0707762082714
20
3.15858216408885
30
0.000000000000000
11
-83.9707762082714
21
2.85024205950030
31
0.000000000000000
  0
LINE
  5
F102C0
330
F102C1
100
AcDbEntity
8
Geo
100
AcDbLine
10
-83.9707762082714
20
2.85024205950030
30
0.000000000000000
11
-83.8707762082714
21
2.54269898269401
31
0.000000000000000
  0
LINE
  5
F102C2
330
F102C3
100
AcDbEntity
8
Geo
100
AcDbLine
10
-83.8707762082714
20
2.54269898269401
30
0.000000000000000
11
-83.7707762082714
21
2.23753533510279
31
0.000000000000000
  0
LINE
  5
F102C4
330
F102C5
100
AcDbEntity
8
Geo
100
AcDbLine
10
-83.7707762082714
20
2.23753533510279
30
0.000000000000000
11
-83.6707762082714
21
1.93623740903691
31
0.000000000000000
  0
LINE
  5
F102C6
330
F102C7
100
AcDbEntity
8
Geo
100
AcDbLine
10
-83.6707762082714
20
1.93623740903691
30
0.000000000000000
11
-83.5707762082714
21
1.64024670353589
31
0.000000000000000
  0
LINE
  5
F102C8
330
F102C9
100
AcDbEntity
8
Geo
100
AcDbLine
10
-83.5707762082714
20
1.64024670353589
30
0.000000000000000
11
-83.4707762082714
21
1.35099912169544
31
0.000000000000000
  0
LINE
  5
F102CA
330
F102CB
100
AcDbEntity
8
Geo
100
AcDbLine
10
-83.4707762082714
20
1.35099912169544
30
0.000000000000000
11
-83.3707762082714
21
1.06790284771520
31
0.000000000000000
  0
LINE
  5
F102CC
330
F102CD
100
AcDbEntity
8
Geo
100
AcDbLine
10
-83.3707762082714
20
1.06790284771520
30
0.000000000000000
11
-83.2707762082714
21
0.789675349266048
31
0.000000000000000
  0
LINE
  5
F102CE
330
F102CF
100
AcDbEntity
8
Geo
100
AcDbLine
10
-83.2707762082714
20
0.789675349266048
30
0.000000000000000
11
-83.1707762082714
21
0.516728764349559
31
0.000000000000000
  0
LINE
  5
F102D0
330
F102D1
100
AcDbEntity
8
Geo
100
AcDbLine
10
-83.1707762082714
20
0.516728764349559
30
0.000000000000000
11
-83.0707762082714
21
0.249467408357553
31
0.000000000000000
  0
LINE
  5
F102D2
330
F102D3
100
AcDbEntity
8
Geo
100
AcDbLine
10
-83.0707762082714
20
0.249467408357553
30
0.000000000000000
11
-82.9707762082714
21
-0.0117128248397664
31
0.000000000000000
  0
LINE
  5
F102D4
330
F102D5
100
AcDbEntity
8
Geo
100
AcDbLine
10
-82.9707762082714
20
-0.0117128248397664
30
0.000000000000000
11
-82.8707762082714
21
-0.266425049330813
31
0.000000000000000
  0
LINE
  5
F102D6
330
F102D7
100
AcDbEntity
8
Geo
100
AcDbLine
10
-82.8707762082714
20
-0.266425049330813
30
0.000000000000000
11
-82.7707762082714
21
-0.514291960256199
31
0.000000000000000
  0
LINE
  5
F102D8
330
F102D9
100
AcDbEntity
8
Geo
100
AcDbLine
10
-82.7707762082714
20
-0.514291960256199
30
0.000000000000000
11
-82.6707762082714
21
-0.754946392709874
31
0.000000000000000
  0
LINE
  5
F102DA
330
F102DB
100
AcDbEntity
8
Geo
100
AcDbLine
10
-82.6707762082714
20
-0.754946392709874
30
0.000000000000000
11
-82.5707762082714
21
-0.988031865619986
31
0.000000000000000
  0
LINE
  5
F102DC
330
F102DD
100
AcDbEntity
8
Geo
100
AcDbLine
10
-82.5707762082714
20
-0.988031865619986
30
0.000000000000000
11
-82.4707762082714
21
-1.21320310980381
31
0.000000000000000
  0
LINE
  5
F102DE
330
F102DF
100
AcDbEntity
8
Geo
100
AcDbLine
10
-82.4707762082714
20
-1.21320310980381
30
0.000000000000000
11
-82.3707762082714
21
-1.43012657941446
31
0.000000000000000
  0
LINE
  5
F102E0
330
F102E1
100
AcDbEntity
8
Geo
100
AcDbLine
10
-82.3707762082714
20
-1.43012657941446
30
0.000000000000000
11
-82.2707762082714
21
-1.63848094602193
31
0.000000000000000
  0
LINE
  5
F102E2
330
F102E3
100
AcDbEntity
8
Geo
100
AcDbLine
10
-82.2707762082714
20
-1.63848094602193
30
0.000000000000000
11
-82.1707762082714
21
-1.83795757459642
31
0.000000000000000
  0
LINE
  5
F102E4
330
F102E5
100
AcDbEntity
8
Geo
100
AcDbLine
10
-82.1707762082714
20
-1.83795757459642
30
0.000000000000000
11
-82.0707762082714
21
-2.02826098068898
31
0.000000000000000
  0
LINE
  5
F102E6
330
F102E7
100
AcDbEntity
8
Geo
100
AcDbLine
10
-82.0707762082714
20
-2.02826098068898
30
0.000000000000000
11
-81.9707762082714
21
-2.20910926813219
31
0.000000000000000
  0
LINE
  5
F102E8
330
F102E9
100
AcDbEntity
8
Geo
100
AcDbLine
10
-81.9707762082714
20
-2.20910926813219
30
0.000000000000000
11
-81.8707762082714
21
-2.38023454661256
31
0.000000000000000
  0
LINE
  5
F102EA
330
F102EB
100
AcDbEntity
8
Geo
100
AcDbLine
10
-81.8707762082714
20
-2.38023454661256
30
0.000000000000000
11
-81.7707762082714
21
-2.54138332849612
31
0.000000000000000
  0
LINE
  5
F102EC
330
F102ED
100
AcDbEntity
8
Geo
100
AcDbLine
10
-81.7707762082714
20
-2.54138332849612
30
0.000000000000000
11
-81.6707762082714
21
-2.69231690431921
31
0.000000000000000
  0
LINE
  5
F102EE
330
F102EF
100
AcDbEntity
8
Geo
100
AcDbLine
10
-81.6707762082714
20
-2.69231690431921
30
0.000000000000000
11
-81.5707762082714
21
-2.83281169638856
31
0.000000000000000
  0
LINE
  5
F102F0
330
F102F1
100
AcDbEntity
8
Geo
100
AcDbLine
10
-81.5707762082714
20
-2.83281169638856
30
0.000000000000000
11
-81.4707762082714
21
-2.96265958996655
31
0.000000000000000
  0
LINE
  5
F102F2
330
F102F3
100
AcDbEntity
8
Geo
100
AcDbLine
10
-81.4707762082714
20
-2.96265958996655
30
0.000000000000000
11
-81.3707762082714
21
-3.08166824155130
31
0.000000000000000
  0
LINE
  5
F102F4
330
F102F5
100
AcDbEntity
8
Geo
100
AcDbLine
10
-81.3707762082714
20
-3.08166824155130
30
0.000000000000000
11
-81.2707762082714
21
-3.18966136379484
31
0.000000000000000
  0
LINE
  5
F102F6
330
F102F7
100
AcDbEntity
8
Geo
100
AcDbLine
10
-81.2707762082714
20
-3.18966136379484
30
0.000000000000000
11
-81.1707762082714
21
-3.28647898663729
31
0.000000000000000
  0
LINE
  5
F102F8
330
F102F9
100
AcDbEntity
8
Geo
100
AcDbLine
10
-81.1707762082714
20
-3.28647898663729
30
0.000000000000000
11
-81.0707762082714
21
-3.37197769427030
31
0.000000000000000
  0
LINE
  5
F102FA
330
F102FB
100
AcDbEntity
8
Geo
100
AcDbLine
10
-81.0707762082714
20
-3.37197769427030
30
0.000000000000000
11
-80.9707762082714
21
-3.44603083757866
31
0.000000000000000
  0
LINE
  5
F102FC
330
F102FD
100
AcDbEntity
8
Geo
100
AcDbLine
10
-80.9707762082714
20
-3.44603083757866
30
0.000000000000000
11
-80.8707762082714
21
-3.50852872174550
31
0.000000000000000
  0
LINE
  5
F102FE
330
F102FF
100
AcDbEntity
8
Geo
100
AcDbLine
10
-80.8707762082714
20
-3.50852872174550
30
0.000000000000000
11
-80.7707762082714
21
-3.55937876874301
31
0.000000000000000
  0
LINE
  5
F10300
330
F10301
100
AcDbEntity
8
Geo
100
AcDbLine
10
-80.7707762082714
20
-3.55937876874301
30
0.000000000000000
11
-80.6707762082714
21
-3.59850565446822
31
0.000000000000000
  0
LINE
  5
F10302
330
F10303
100
AcDbEntity
8
Geo
100
AcDbLine
10
-80.6707762082714
20
-3.59850565446822
30
0.000000000000000
11
-80.5707762082714
21
-3.62585142032038
31
0.000000000000000
  0
LINE
  5
F10304
330
F10305
100
AcDbEntity
8
Geo
100
AcDbLine
10
-80.5707762082714
20
-3.62585142032038
30
0.000000000000000
11
-80.4707762082714
21
-3.64137555905508
31
0.000000000000000
  0
LINE
  5
F10306
330
F10307
100
AcDbEntity
8
Geo
100
AcDbLine
10
-72.2707762082714
20
12.3536289758725
30
0.000000000000000
11
-72.1707762082714
21
12.3528166664951
31
0.000000000000000
  0
LINE
  5
F10308
330
F10309
100
AcDbEntity
8
Geo
100
AcDbLine
10
-72.1707762082714
20
12.3528166664951
30
0.000000000000000
11
-72.0707762082714
21
12.3401568057031
31
0.000000000000000
  0
LINE
  5
F1030A
330
F1030B
100
AcDbEntity
8
Geo
100
AcDbLine
10
-72.0707762082714
20
12.3401568057031
30
0.000000000000000
11
-71.9707762082714
21
12.3156681465304
31
0.000000000000000
  0
LINE
  5
F1030C
330
F1030D
100
AcDbEntity
8
Geo
100
AcDbLine
10
-71.9707762082714
20
12.3156681465304
30
0.000000000000000
11
-71.8707762082714
21
12.2793869639935
31
0.000000000000000
  0
LINE
  5
F1030E
330
F1030F
100
AcDbEntity
8
Geo
100
AcDbLine
10
-71.8707762082714
20
12.2793869639935
30
0.000000000000000
11
-71.7707762082714
21
12.2313670013568
31
0.000000000000000
  0
LINE
  5
F10310
330
F10311
100
AcDbEntity
8
Geo
100
AcDbLine
10
-71.7707762082714
20
12.2313670013568
30
0.000000000000000
11
-71.6707762082714
21
12.1716793905235
31
0.000000000000000
  0
LINE
  5
F10312
330
F10313
100
AcDbEntity
8
Geo
100
AcDbLine
10
-71.6707762082714
20
12.1716793905235
30
0.000000000000000
11
-71.5707762082714
21
12.1004125466673
31
0.000000000000000
  0
LINE
  5
F10314
330
F10315
100
AcDbEntity
8
Geo
100
AcDbLine
10
-71.5707762082714
20
12.1004125466673
30
0.000000000000000
11
-71.4707762082714
21
12.0176720372637
31
0.000000000000000
  0
LINE
  5
F10316
330
F10317
100
AcDbEntity
8
Geo
100
AcDbLine
10
-71.4707762082714
20
12.0176720372637
30
0.000000000000000
11
-71.3707762082714
21
11.9235804257127
31
0.000000000000000
  0
LINE
  5
F10318
330
F10319
100
AcDbEntity
8
Geo
100
AcDbLine
10
-71.3707762082714
20
11.9235804257127
30
0.000000000000000
11
-71.2707762082714
21
11.8182770897861
31
0.000000000000000
  0
LINE
  5
F1031A
330
F1031B
100
AcDbEntity
8
Geo
100
AcDbLine
10
-71.2707762082714
20
11.8182770897861
30
0.000000000000000
11
-71.1707762082714
21
11.7019180151670
31
0.000000000000000
  0
LINE
  5
F1031C
330
F1031D
100
AcDbEntity
8
Geo
100
AcDbLine
10
-71.1707762082714
20
11.7019180151670
30
0.000000000000000
11
-71.0707762082714
21
11.5746755643887
31
0.000000000000000
  0
LINE
  5
F1031E
330
F1031F
100
AcDbEntity
8
Geo
100
AcDbLine
10
-71.0707762082714
20
11.5746755643887
30
0.000000000000000
11
-70.9707762082714
21
11.4367382215144
31
0.000000000000000
  0
LINE
  5
F10320
330
F10321
100
AcDbEntity
8
Geo
100
AcDbLine
10
-70.9707762082714
20
11.4367382215144
30
0.000000000000000
11
-70.8707762082714
21
11.2883103129358
31
0.000000000000000
  0
LINE
  5
F10322
330
F10323
100
AcDbEntity
8
Geo
100
AcDbLine
10
-70.8707762082714
20
11.2883103129358
30
0.000000000000000
11
-70.7707762082714
21
11.1296117047049
31
0.000000000000000
  0
LINE
  5
F10324
330
F10325
100
AcDbEntity
8
Geo
100
AcDbLine
10
-70.7707762082714
20
11.1296117047049
30
0.000000000000000
11
-70.6707762082714
21
10.9608774768464
31
0.000000000000000
  0
LINE
  5
F10326
330
F10327
100
AcDbEntity
8
Geo
100
AcDbLine
10
-70.6707762082714
20
10.9608774768464
30
0.000000000000000
11
-70.5707762082714
21
10.7823575751345
31
0.000000000000000
  0
LINE
  5
F10328
330
F10329
100
AcDbEntity
8
Geo
100
AcDbLine
10
-70.5707762082714
20
10.7823575751345
30
0.000000000000000
11
-70.4707762082714
21
10.5943164408481
31
0.000000000000000
  0
LINE
  5
F1032A
330
F1032B
100
AcDbEntity
8
Geo
100
AcDbLine
10
-70.4707762082714
20
10.5943164408481
30
0.000000000000000
11
-70.3707762082714
21
10.6182287523532
31
0.000000000000000
  0
LINE
  5
F1032C
330
F1032D
100
AcDbEntity
8
Geo
100
AcDbLine
10
-70.3707762082714
20
10.6182287523532
30
0.000000000000000
11
-70.2707762082714
21
10.6415375516579
31
0.000000000000000
  0
LINE
  5
F1032E
330
F1032F
100
AcDbEntity
8
Geo
100
AcDbLine
10
-70.2707762082714
20
10.6415375516579
30
0.000000000000000
11
-70.1707762082714
21
10.6642505429071
31
0.000000000000000
  0
LINE
  5
F10330
330
F10331
100
AcDbEntity
8
Geo
100
AcDbLine
10
-70.1707762082714
20
10.6642505429071
30
0.000000000000000
11
-70.0707762082714
21
10.6863753299655
31
0.000000000000000
  0
LINE
  5
F10332
330
F10333
100
AcDbEntity
8
Geo
100
AcDbLine
10
-70.0707762082714
20
10.6863753299655
30
0.000000000000000
11
-69.9707762082714
21
10.7079194129136
31
0.000000000000000
  0
LINE
  5
F10334
330
F10335
100
AcDbEntity
8
Geo
100
AcDbLine
10
-69.9707762082714
20
10.7079194129136
30
0.000000000000000
11
-69.8707762082714
21
10.7288901846499
31
0.000000000000000
  0
LINE
  5
F10336
330
F10337
100
AcDbEntity
8
Geo
100
AcDbLine
10
-69.8707762082714
20
10.7288901846499
30
0.000000000000000
11
-69.7707762082714
21
10.7492949275988
31
0.000000000000000
  0
LINE
  5
F10338
330
F10339
100
AcDbEntity
8
Geo
100
AcDbLine
10
-69.7707762082714
20
10.7492949275988
30
0.000000000000000
11
-69.6707762082714
21
10.7691408105219
31
0.000000000000000
  0
LINE
  5
F1033A
330
F1033B
100
AcDbEntity
8
Geo
100
AcDbLine
10
-69.6707762082714
20
10.7691408105219
30
0.000000000000000
11
-69.5707762082714
21
10.7884348854300
31
0.000000000000000
  0
LINE
  5
F1033C
330
F1033D
100
AcDbEntity
8
Geo
100
AcDbLine
10
-69.5707762082714
20
10.7884348854300
30
0.000000000000000
11
-69.4707762082714
21
10.8071840845955
31
0.000000000000000
  0
LINE
  5
F1033E
330
F1033F
100
AcDbEntity
8
Geo
100
AcDbLine
10
-69.4707762082714
20
10.8071840845955
30
0.000000000000000
11
-69.3707762082714
21
10.8253952176606
31
0.000000000000000
  0
LINE
  5
F10340
330
F10341
100
AcDbEntity
8
Geo
100
AcDbLine
10
-69.3707762082714
20
10.8253952176606
30
0.000000000000000
11
-69.2707762082714
21
10.8430749688432
31
0.000000000000000
  0
LINE
  5
F10342
330
F10343
100
AcDbEntity
8
Geo
100
AcDbLine
10
-69.2707762082714
20
10.8430749688432
30
0.000000000000000
11
-69.1707762082714
21
10.8602298942341
31
0.000000000000000
  0
LINE
  5
F10344
330
F10345
100
AcDbEntity
8
Geo
100
AcDbLine
10
-69.1707762082714
20
10.8602298942341
30
0.000000000000000
11
-69.0707762082714
21
10.8768664191886
31
0.000000000000000
  0
LINE
  5
F10346
330
F10347
100
AcDbEntity
8
Geo
100
AcDbLine
10
-69.0707762082714
20
10.8768664191886
30
0.000000000000000
11
-68.9707762082714
21
10.8929908358055
31
0.000000000000000
  0
LINE
  5
F10348
330
F10349
100
AcDbEntity
8
Geo
100
AcDbLine
10
-68.9707762082714
20
10.8929908358055
30
0.000000000000000
11
-68.8707762082714
21
10.9086093004968
31
0.000000000000000
  0
LINE
  5
F1034A
330
F1034B
100
AcDbEntity
8
Geo
100
AcDbLine
10
-68.8707762082714
20
10.9086093004968
30
0.000000000000000
11
-68.7707762082714
21
10.9237278316418
31
0.000000000000000
  0
LINE
  5
F1034C
330
F1034D
100
AcDbEntity
8
Geo
100
AcDbLine
10
-68.7707762082714
20
10.9237278316418
30
0.000000000000000
11
-68.6707762082714
21
10.9383523073274
31
0.000000000000000
  0
LINE
  5
F1034E
330
F1034F
100
AcDbEntity
8
Geo
100
AcDbLine
10
-68.6707762082714
20
10.9383523073274
30
0.000000000000000
11
-68.5707762082714
21
10.9524884631706
31
0.000000000000000
  0
LINE
  5
F10350
330
F10351
100
AcDbEntity
8
Geo
100
AcDbLine
10
-68.5707762082714
20
10.9524884631706
30
0.000000000000000
11
-68.4707762082714
21
10.9661418902228
31
0.000000000000000
  0
LINE
  5
F10352
330
F10353
100
AcDbEntity
8
Geo
100
AcDbLine
10
-68.4707762082714
20
10.9661418902228
30
0.000000000000000
11
-68.3707762082714
21
10.9793180329535
31
0.000000000000000
  0
LINE
  5
F10354
330
F10355
100
AcDbEntity
8
Geo
100
AcDbLine
10
-68.3707762082714
20
10.9793180329535
30
0.000000000000000
11
-68.2707762082714
21
10.9920221873121
31
0.000000000000000
  0
LINE
  5
F10356
330
F10357
100
AcDbEntity
8
Geo
100
AcDbLine
10
-68.2707762082714
20
10.9920221873121
30
0.000000000000000
11
-68.1707762082714
21
11.0042594988667
31
0.000000000000000
  0
LINE
  5
F10358
330
F10359
100
AcDbEntity
8
Geo
100
AcDbLine
10
-68.1707762082714
20
11.0042594988667
30
0.000000000000000
11
-68.0707762082714
21
11.0160349610176
31
0.000000000000000
  0
LINE
  5
F1035A
330
F1035B
100
AcDbEntity
8
Geo
100
AcDbLine
10
-68.0707762082714
20
11.0160349610176
30
0.000000000000000
11
-67.9707762082714
21
11.0273534132838
31
0.000000000000000
  0
LINE
  5
F1035C
330
F1035D
100
AcDbEntity
8
Geo
100
AcDbLine
10
-67.9707762082714
20
11.0273534132838
30
0.000000000000000
11
-67.8707762082714
21
11.0382195396629
31
0.000000000000000
  0
LINE
  5
F1035E
330
F1035F
100
AcDbEntity
8
Geo
100
AcDbLine
10
-67.8707762082714
20
11.0382195396629
30
0.000000000000000
11
-67.7707762082714
21
11.0486378670602
31
0.000000000000000
  0
LINE
  5
F10360
330
F10361
100
AcDbEntity
8
Geo
100
AcDbLine
10
-67.7707762082714
20
11.0486378670602
30
0.000000000000000
11
-67.6707762082714
21
11.0586127637882
31
0.000000000000000
  0
LINE
  5
F10362
330
F10363
100
AcDbEntity
8
Geo
100
AcDbLine
10
-67.6707762082714
20
11.0586127637882
30
0.000000000000000
11
-67.5707762082714
21
11.0681484381331
31
0.000000000000000
  0
LINE
  5
F10364
330
F10365
100
AcDbEntity
8
Geo
100
AcDbLine
10
-67.5707762082714
20
11.0681484381331
30
0.000000000000000
11
-67.4707762082714
21
11.0772489369891
31
0.000000000000000
  0
LINE
  5
F10366
330
F10367
100
AcDbEntity
8
Geo
100
AcDbLine
10
-67.4707762082714
20
11.0772489369891
30
0.000000000000000
11
-67.3707762082714
21
11.0859181445574
31
0.000000000000000
  0
LINE
  5
F10368
330
F10369
100
AcDbEntity
8
Geo
100
AcDbLine
10
-67.3707762082714
20
11.0859181445574
30
0.000000000000000
11
-67.2707762082714
21
11.0941597811090
31
0.000000000000000
  0
LINE
  5
F1036A
330
F1036B
100
AcDbEntity
8
Geo
100
AcDbLine
10
-67.2707762082714
20
11.0941597811090
30
0.000000000000000
11
-67.1707762082714
21
11.1019774018121
31
0.000000000000000
  0
LINE
  5
F1036C
330
F1036D
100
AcDbEntity
8
Geo
100
AcDbLine
10
-67.1707762082714
20
11.1019774018121
30
0.000000000000000
11
-67.0707762082714
21
11.1093743956198
31
0.000000000000000
  0
LINE
  5
F1036E
330
F1036F
100
AcDbEntity
8
Geo
100
AcDbLine
10
-67.0707762082714
20
11.1093743956198
30
0.000000000000000
11
-66.9707762082714
21
11.1163539842200
31
0.000000000000000
  0
LINE
  5
F10370
330
F10371
100
AcDbEntity
8
Geo
100
AcDbLine
10
-66.9707762082714
20
11.1163539842200
30
0.000000000000000
11
-66.8707762082714
21
11.1229192210445
31
0.000000000000000
  0
LINE
  5
F10372
330
F10373
100
AcDbEntity
8
Geo
100
AcDbLine
10
-66.8707762082714
20
11.1229192210445
30
0.000000000000000
11
-66.7707762082714
21
11.1290729903374
31
0.000000000000000
  0
LINE
  5
F10374
330
F10375
100
AcDbEntity
8
Geo
100
AcDbLine
10
-66.7707762082714
20
11.1290729903374
30
0.000000000000000
11
-66.6707762082714
21
11.1348180062815
31
0.000000000000000
  0
LINE
  5
F10376
330
F10377
100
AcDbEntity
8
Geo
100
AcDbLine
10
-66.6707762082714
20
11.1348180062815
30
0.000000000000000
11
-66.5707762082714
21
11.1401568121817
31
0.000000000000000
  0
LINE
  5
F10378
330
F10379
100
AcDbEntity
8
Geo
100
AcDbLine
10
-66.5707762082714
20
11.1401568121817
30
0.000000000000000
11
-66.4707762082714
21
11.1450917797051
31
0.000000000000000
  0
LINE
  5
F1037A
330
F1037B
100
AcDbEntity
8
Geo
100
AcDbLine
10
-66.4707762082714
20
11.1450917797051
30
0.000000000000000
11
-66.3707762082714
21
11.1496251081765
31
0.000000000000000
  0
LINE
  5
F1037C
330
F1037D
100
AcDbEntity
8
Geo
100
AcDbLine
10
-66.3707762082714
20
11.1496251081765
30
0.000000000000000
11
-66.2707762082714
21
11.1537588239289
31
0.000000000000000
  0
LINE
  5
F1037E
330
F1037F
100
AcDbEntity
8
Geo
100
AcDbLine
10
-66.2707762082714
20
11.1537588239289
30
0.000000000000000
11
-66.1707762082714
21
11.1574947797081
31
0.000000000000000
  0
LINE
  5
F10380
330
F10381
100
AcDbEntity
8
Geo
100
AcDbLine
10
-66.1707762082714
20
11.1574947797081
30
0.000000000000000
11
-66.0707762082714
21
11.1608346541313
31
0.000000000000000
  0
LINE
  5
F10382
330
F10383
100
AcDbEntity
8
Geo
100
AcDbLine
10
-66.0707762082714
20
11.1608346541313
30
0.000000000000000
11
-65.9707762082714
21
11.1637799511981
31
0.000000000000000
  0
LINE
  5
F10384
330
F10385
100
AcDbEntity
8
Geo
100
AcDbLine
10
-65.9707762082714
20
11.1637799511981
30
0.000000000000000
11
-65.8707762082714
21
11.1663319998550
31
0.000000000000000
  0
LINE
  5
F10386
330
F10387
100
AcDbEntity
8
Geo
100
AcDbLine
10
-65.8707762082714
20
11.1663319998550
30
0.000000000000000
11
-65.7707762082714
21
11.1684919536112
31
0.000000000000000
  0
LINE
  5
F10388
330
F10389
100
AcDbEntity
8
Geo
100
AcDbLine
10
-65.7707762082714
20
11.1684919536112
30
0.000000000000000
11
-65.6707762082714
21
11.1702607902066
31
0.000000000000000
  0
LINE
  5
F1038A
330
F1038B
100
AcDbEntity
8
Geo
100
AcDbLine
10
-65.6707762082714
20
11.1702607902066
30
0.000000000000000
11
-65.5707762082714
21
11.1716393113307
31
0.000000000000000
  0
LINE
  5
F1038C
330
F1038D
100
AcDbEntity
8
Geo
100
AcDbLine
10
-65.5707762082714
20
11.1716393113307
30
0.000000000000000
11
-65.4707762082714
21
11.1726281423934
31
0.000000000000000
  0
LINE
  5
F1038E
330
F1038F
100
AcDbEntity
8
Geo
100
AcDbLine
10
-84.4707762082714
20
2.19161313192159
30
0.000000000000000
11
-84.3707762082714
21
1.78648528610406
31
0.000000000000000
  0
LINE
  5
F10390
330
F10391
100
AcDbEntity
8
Geo
100
AcDbLine
10
-84.3707762082714
20
1.78648528610406
30
0.000000000000000
11
-84.2707762082714
21
1.45729351422288
31
0.000000000000000
  0
LINE
  5
F10392
330
F10393
100
AcDbEntity
8
Geo
100
AcDbLine
10
-84.2707762082714
20
1.45729351422288
30
0.000000000000000
11
-84.1707762082714
21
1.14153057008631
31
0.000000000000000
  0
LINE
  5
F10394
330
F10395
100
AcDbEntity
8
Geo
100
AcDbLine
10
-84.1707762082714
20
1.14153057008631
30
0.000000000000000
11
-84.0707762082714
21
0.835303872978704
31
0.000000000000000
  0
LINE
  5
F10396
330
F10397
100
AcDbEntity
8
Geo
100
AcDbLine
10
-84.0707762082714
20
0.835303872978704
30
0.000000000000000
11
-83.9707762082714
21
0.538016376328035
31
0.000000000000000
  0
LINE
  5
F10398
330
F10399
100
AcDbEntity
8
Geo
100
AcDbLine
10
-83.9707762082714
20
0.538016376328035
30
0.000000000000000
11
-83.8707762082714
21
0.249994732511984
31
0.000000000000000
  0
LINE
  5
F1039A
330
F1039B
100
AcDbEntity
8
Geo
100
AcDbLine
10
-83.8707762082714
20
0.249994732511984
30
0.000000000000000
11
-83.7707762082714
21
-0.0280696899937016
31
0.000000000000000
  0
LINE
  5
F1039C
330
F1039D
100
AcDbEntity
8
Geo
100
AcDbLine
10
-83.7707762082714
20
-0.0280696899937016
30
0.000000000000000
11
-83.6707762082714
21
-0.295304759672334
31
0.000000000000000
  0
LINE
  5
F1039E
330
F1039F
100
AcDbEntity
8
Geo
100
AcDbLine
10
-83.6707762082714
20
-0.295304759672334
30
0.000000000000000
11
-83.5707762082714
21
-0.550725129140251
31
0.000000000000000
  0
LINE
  5
F103A0
330
F103A1
100
AcDbEntity
8
Geo
100
AcDbLine
10
-83.5707762082714
20
-0.550725129140251
30
0.000000000000000
11
-83.4707762082714
21
-0.793252116333791
31
0.000000000000000
  0
LINE
  5
F103A2
330
F103A3
100
AcDbEntity
8
Geo
100
AcDbLine
10
-83.4707762082714
20
-0.793252116333791
30
0.000000000000000
11
-83.3707762082714
21
-1.02507786062083
31
0.000000000000000
  0
LINE
  5
F103A4
330
F103A5
100
AcDbEntity
8
Geo
100
AcDbLine
10
-83.3707762082714
20
-1.02507786062083
30
0.000000000000000
11
-83.2707762082714
21
-1.24893450000136
31
0.000000000000000
  0
LINE
  5
F103A6
330
F103A7
100
AcDbEntity
8
Geo
100
AcDbLine
10
-83.2707762082714
20
-1.24893450000136
30
0.000000000000000
11
-83.1707762082714
21
-1.46449043595075
31
0.000000000000000
  0
LINE
  5
F103A8
330
F103A9
100
AcDbEntity
8
Geo
100
AcDbLine
10
-83.1707762082714
20
-1.46449043595075
30
0.000000000000000
11
-83.0707762082714
21
-1.67142636576466
31
0.000000000000000
  0
LINE
  5
F103AA
330
F103AB
100
AcDbEntity
8
Geo
100
AcDbLine
10
-83.0707762082714
20
-1.67142636576466
30
0.000000000000000
11
-82.9707762082714
21
-1.86943575554174
31
0.000000000000000
  0
LINE
  5
F103AC
330
F103AD
100
AcDbEntity
8
Geo
100
AcDbLine
10
-82.9707762082714
20
-1.86943575554174
30
0.000000000000000
11
-82.8707762082714
21
-2.05822529425178
31
0.000000000000000
  0
LINE
  5
F103AE
330
F103AF
100
AcDbEntity
8
Geo
100
AcDbLine
10
-82.8707762082714
20
-2.05822529425178
30
0.000000000000000
11
-82.7707762082714
21
-2.23751532821699
31
0.000000000000000
  0
LINE
  5
F103B0
330
F103B1
100
AcDbEntity
8
Geo
100
AcDbLine
10
-82.7707762082714
20
-2.23751532821699
30
0.000000000000000
11
-82.6707762082714
21
-2.40704027536258
31
0.000000000000000
  0
LINE
  5
F103B2
330
F103B3
100
AcDbEntity
8
Geo
100
AcDbLine
10
-82.6707762082714
20
-2.40704027536258
30
0.000000000000000
11
-82.5707762082714
21
-2.56654901862310
31
0.000000000000000
  0
LINE
  5
F103B4
330
F103B5
100
AcDbEntity
8
Geo
100
AcDbLine
10
-82.5707762082714
20
-2.56654901862310
30
0.000000000000000
11
-82.4707762082714
21
-2.71580527792182
31
0.000000000000000
  0
LINE
  5
F103B6
330
F103B7
100
AcDbEntity
8
Geo
100
AcDbLine
10
-82.4707762082714
20
-2.71580527792182
30
0.000000000000000
11
-82.3707762082714
21
-2.85458796017206
31
0.000000000000000
  0
LINE
  5
F103B8
330
F103B9
100
AcDbEntity
8
Geo
100
AcDbLine
10
-82.3707762082714
20
-2.85458796017206
30
0.000000000000000
11
-82.2707762082714
21
-2.98269148678207
31
0.000000000000000
  0
LINE
  5
F103BA
330
F103BB
100
AcDbEntity
8
Geo
100
AcDbLine
10
-82.2707762082714
20
-2.98269148678207
30
0.000000000000000
11
-82.1707762082714
21
-3.09992609817830
31
0.000000000000000
  0
LINE
  5
F103BC
330
F103BD
100
AcDbEntity
8
Geo
100
AcDbLine
10
-82.1707762082714
20
-3.09992609817830
30
0.000000000000000
11
-82.0707762082714
21
-3.20611813489601
31
0.000000000000000
  0
LINE
  5
F103BE
330
F103BF
100
AcDbEntity
8
Geo
100
AcDbLine
10
-82.0707762082714
20
-3.20611813489601
30
0.000000000000000
11
-81.9707762082714
21
-3.30111029482078
31
0.000000000000000
  0
LINE
  5
F103C0
330
F103C1
100
AcDbEntity
8
Geo
100
AcDbLine
10
-81.9707762082714
20
-3.30111029482078
30
0.000000000000000
11
-81.8707762082714
21
-3.38476186619990
31
0.000000000000000
  0
LINE
  5
F103C2
330
F103C3
100
AcDbEntity
8
Geo
100
AcDbLine
10
-81.8707762082714
20
-3.38476186619990
30
0.000000000000000
11
-81.7707762082714
21
-3.45694893607850
31
0.000000000000000
  0
LINE
  5
F103C4
330
F103C5
100
AcDbEntity
8
Geo
100
AcDbLine
10
-81.7707762082714
20
-3.45694893607850
30
0.000000000000000
11
-81.6707762082714
21
-3.51756457385165
31
0.000000000000000
  0
LINE
  5
F103C6
330
F103C7
100
AcDbEntity
8
Geo
100
AcDbLine
10
-81.6707762082714
20
-3.51756457385165
30
0.000000000000000
11
-81.5707762082714
21
-3.56651898966048
31
0.000000000000000
  0
LINE
  5
F103C8
330
F103C9
100
AcDbEntity
8
Geo
100
AcDbLine
10
-81.5707762082714
20
-3.56651898966048
30
0.000000000000000
11
-81.4707762082714
21
-3.60373966739780
31
0.000000000000000
  0
LINE
  5
F103CA
330
F103CB
100
AcDbEntity
8
Geo
100
AcDbLine
10
-81.4707762082714
20
-3.60373966739780
30
0.000000000000000
11
-81.3707762082714
21
-3.62917147212611
31
0.000000000000000
  0
LINE
  5
F103CC
330
F103CD
100
AcDbEntity
8
Geo
100
AcDbLine
10
-81.3707762082714
20
-3.62917147212611
30
0.000000000000000
11
-81.2707762082714
21
-3.64277673174888
31
0.000000000000000
  0
LINE
  5
F103CE
330
F103CF
100
AcDbEntity
8
Geo
100
AcDbLine
10
-73.0707762082714
20
12.3543021421402
30
0.000000000000000
11
-72.9707762082714
21
12.3515688350312
31
0.000000000000000
  0
LINE
  5
F103D0
330
F103D1
100
AcDbEntity
8
Geo
100
AcDbLine
10
-72.9707762082714
20
12.3515688350312
30
0.000000000000000
11
-72.8707762082714
21
12.3369898249186
31
0.000000000000000
  0
LINE
  5
F103D2
330
F103D3
100
AcDbEntity
8
Geo
100
AcDbLine
10
-72.8707762082714
20
12.3369898249186
30
0.000000000000000
11
-72.7707762082714
21
12.3105867076696
31
0.000000000000000
  0
LINE
  5
F103D4
330
F103D5
100
AcDbEntity
8
Geo
100
AcDbLine
10
-72.7707762082714
20
12.3105867076696
30
0.000000000000000
11
-72.6707762082714
21
12.2723985941845
31
0.000000000000000
  0
LINE
  5
F103D6
330
F103D7
100
AcDbEntity
8
Geo
100
AcDbLine
10
-72.6707762082714
20
12.2723985941845
30
0.000000000000000
11
-72.5707762082714
21
12.2224820524620
31
0.000000000000000
  0
LINE
  5
F103D8
330
F103D9
100
AcDbEntity
8
Geo
100
AcDbLine
10
-72.5707762082714
20
12.2224820524620
30
0.000000000000000
11
-72.4707762082714
21
12.1609110238051
31
0.000000000000000
  0
LINE
  5
F103DA
330
F103DB
100
AcDbEntity
8
Geo
100
AcDbLine
10
-72.4707762082714
20
12.1609110238051
30
0.000000000000000
11
-72.3707762082714
21
12.0877767132918
31
0.000000000000000
  0
LINE
  5
F103DC
330
F103DD
100
AcDbEntity
8
Geo
100
AcDbLine
10
-72.3707762082714
20
12.0877767132918
30
0.000000000000000
11
-72.2707762082714
21
12.0031874546733
31
0.000000000000000
  0
LINE
  5
F103DE
330
F103DF
100
AcDbEntity
8
Geo
100
AcDbLine
10
-72.2707762082714
20
12.0031874546733
30
0.000000000000000
11
-72.1707762082714
21
11.9072685498993
31
0.000000000000000
  0
LINE
  5
F103E0
330
F103E1
100
AcDbEntity
8
Geo
100
AcDbLine
10
-72.1707762082714
20
11.9072685498993
30
0.000000000000000
11
-72.0707762082714
21
11.8001620835082
31
0.000000000000000
  0
LINE
  5
F103E2
330
F103E3
100
AcDbEntity
8
Geo
100
AcDbLine
10
-72.0707762082714
20
11.8001620835082
30
0.000000000000000
11
-71.9707762082714
21
11.6820267121579
31
0.000000000000000
  0
LINE
  5
F103E4
330
F103E5
100
AcDbEntity
8
Geo
100
AcDbLine
10
-71.9707762082714
20
11.6820267121579
30
0.000000000000000
11
-71.8707762082714
21
11.5530374296076
31
0.000000000000000
  0
LINE
  5
F103E6
330
F103E7
100
AcDbEntity
8
Geo
100
AcDbLine
10
-71.8707762082714
20
11.5530374296076
30
0.000000000000000
11
-71.7707762082714
21
11.4133853074999
31
0.000000000000000
  0
LINE
  5
F103E8
330
F103E9
100
AcDbEntity
8
Geo
100
AcDbLine
10
-71.7707762082714
20
11.4133853074999
30
0.000000000000000
11
-71.6707762082714
21
11.2632772123265
31
0.000000000000000
  0
LINE
  5
F103EA
330
F103EB
100
AcDbEntity
8
Geo
100
AcDbLine
10
-71.6707762082714
20
11.2632772123265
30
0.000000000000000
11
-71.5707762082714
21
11.1029354989974
31
0.000000000000000
  0
LINE
  5
F103EC
330
F103ED
100
AcDbEntity
8
Geo
100
AcDbLine
10
-71.5707762082714
20
11.1029354989974
30
0.000000000000000
11
-71.4707762082714
21
10.9325976814668
31
0.000000000000000
  0
LINE
  5
F103EE
330
F103EF
100
AcDbEntity
8
Geo
100
AcDbLine
10
-71.4707762082714
20
10.9325976814668
30
0.000000000000000
11
-71.3707762082714
21
10.7525160809037
31
0.000000000000000
  0
LINE
  5
F103F0
330
F103F1
100
AcDbEntity
8
Geo
100
AcDbLine
10
-71.3707762082714
20
10.7525160809037
30
0.000000000000000
11
-71.2707762082714
21
10.5629574519296
31
0.000000000000000
  0
LINE
  5
F103F2
330
F103F3
100
AcDbEntity
8
Geo
100
AcDbLine
10
-71.2707762082714
20
10.5629574519296
30
0.000000000000000
11
-71.1707762082714
21
10.3642025874745
31
0.000000000000000
  0
LINE
  5
F103F4
330
F103F5
100
AcDbEntity
8
Geo
100
AcDbLine
10
-71.1707762082714
20
10.3642025874745
30
0.000000000000000
11
-71.0707762082714
21
10.1565459028392
31
0.000000000000000
  0
LINE
  5
F103F6
330
F103F7
100
AcDbEntity
8
Geo
100
AcDbLine
10
-71.0707762082714
20
10.1565459028392
30
0.000000000000000
11
-70.9707762082714
21
9.94029499957824
31
0.000000000000000
  0
LINE
  5
F103F8
330
F103F9
100
AcDbEntity
8
Geo
100
AcDbLine
10
-70.9707762082714
20
9.94029499957824
30
0.000000000000000
11
-70.8707762082714
21
9.71577020984997
31
0.000000000000000
  0
LINE
  5
F103FA
330
F103FB
100
AcDbEntity
8
Geo
100
AcDbLine
10
-70.8707762082714
20
9.71577020984997
30
0.000000000000000
11
-70.7707762082714
21
9.48330412190921
31
0.000000000000000
  0
LINE
  5
F103FC
330
F103FD
100
AcDbEntity
8
Geo
100
AcDbLine
10
-70.7707762082714
20
9.48330412190921
30
0.000000000000000
11
-70.6707762082714
21
9.24324108744461
31
0.000000000000000
  0
LINE
  5
F103FE
330
F103FF
100
AcDbEntity
8
Geo
100
AcDbLine
10
-70.6707762082714
20
9.24324108744461
30
0.000000000000000
11
-70.5707762082714
21
8.99593671149102
31
0.000000000000000
  0
LINE
  5
F10400
330
F10401
100
AcDbEntity
8
Geo
100
AcDbLine
10
-70.5707762082714
20
8.99593671149102
30
0.000000000000000
11
-70.4707762082714
21
8.74175732567214
31
0.000000000000000
  0
LINE
  5
F10402
330
F10403
100
AcDbEntity
8
Geo
100
AcDbLine
10
-70.4707762082714
20
8.74175732567214
30
0.000000000000000
11
-70.3707762082714
21
8.44935125512455
31
0.000000000000000
  0
LINE
  5
F10404
330
F10405
100
AcDbEntity
8
Geo
100
AcDbLine
10
-70.3707762082714
20
8.44935125512455
30
0.000000000000000
11
-70.2707762082714
21
8.15522533704385
31
0.000000000000000
  0
LINE
  5
F10406
330
F10407
100
AcDbEntity
8
Geo
100
AcDbLine
10
-70.2707762082714
20
8.15522533704385
30
0.000000000000000
11
-70.1707762082714
21
7.86032409774333
31
0.000000000000000
  0
LINE
  5
F10408
330
F10409
100
AcDbEntity
8
Geo
100
AcDbLine
10
-70.1707762082714
20
7.86032409774333
30
0.000000000000000
11
-70.0707762082714
21
7.56553391664016
31
0.000000000000000
  0
LINE
  5
F1040A
330
F1040B
100
AcDbEntity
8
Geo
100
AcDbLine
10
-70.0707762082714
20
7.56553391664016
30
0.000000000000000
11
-69.9707762082714
21
7.27168306962053
31
0.000000000000000
  0
LINE
  5
F1040C
330
F1040D
100
AcDbEntity
8
Geo
100
AcDbLine
10
-69.9707762082714
20
7.27168306962053
30
0.000000000000000
11
-69.8707762082714
21
6.97954213403745
31
0.000000000000000
  0
LINE
  5
F1040E
330
F1040F
100
AcDbEntity
8
Geo
100
AcDbLine
10
-69.8707762082714
20
6.97954213403745
30
0.000000000000000
11
-69.7707762082714
21
6.68982471914874
31
0.000000000000000
  0
LINE
  5
F10410
330
F10411
100
AcDbEntity
8
Geo
100
AcDbLine
10
-69.7707762082714
20
6.68982471914874
30
0.000000000000000
11
-69.6707762082714
21
6.40318848693270
31
0.000000000000000
  0
LINE
  5
F10412
330
F10413
100
AcDbEntity
8
Geo
100
AcDbLine
10
-69.6707762082714
20
6.40318848693270
30
0.000000000000000
11
-69.5707762082714
21
6.12023642953448
31
0.000000000000000
  0
LINE
  5
F10414
330
F10415
100
AcDbEntity
8
Geo
100
AcDbLine
10
-69.5707762082714
20
6.12023642953448
30
0.000000000000000
11
-69.4707762082714
21
5.84151837106263
31
0.000000000000000
  0
LINE
  5
F10416
330
F10417
100
AcDbEntity
8
Geo
100
AcDbLine
10
-69.4707762082714
20
5.84151837106263
30
0.000000000000000
11
-69.3707762082714
21
5.56753266304076
31
0.000000000000000
  0
LINE
  5
F10418
330
F10419
100
AcDbEntity
8
Geo
100
AcDbLine
10
-69.3707762082714
20
5.56753266304076
30
0.000000000000000
11
-69.2707762082714
21
5.29872804449576
31
0.000000000000000
  0
LINE
  5
F1041A
330
F1041B
100
AcDbEntity
8
Geo
100
AcDbLine
10
-69.2707762082714
20
5.29872804449576
30
0.000000000000000
11
-69.1707762082714
21
5.03550563940376
31
0.000000000000000
  0
LINE
  5
F1041C
330
F1041D
100
AcDbEntity
8
Geo
100
AcDbLine
10
-69.1707762082714
20
5.03550563940376
30
0.000000000000000
11
-69.0707762082714
21
4.77822106599510
31
0.000000000000000
  0
LINE
  5
F1041E
330
F1041F
100
AcDbEntity
8
Geo
100
AcDbLine
10
-69.0707762082714
20
4.77822106599510
30
0.000000000000000
11
-68.9707762082714
21
4.52718663421808
31
0.000000000000000
  0
LINE
  5
F10420
330
F10421
100
AcDbEntity
8
Geo
100
AcDbLine
10
-68.9707762082714
20
4.52718663421808
30
0.000000000000000
11
-68.8707762082714
21
4.28267360945890
31
0.000000000000000
  0
LINE
  5
F10422
330
F10423
100
AcDbEntity
8
Geo
100
AcDbLine
10
-68.8707762082714
20
4.28267360945890
30
0.000000000000000
11
-68.7707762082714
21
4.04491452239578
31
0.000000000000000
  0
LINE
  5
F10424
330
F10425
100
AcDbEntity
8
Geo
100
AcDbLine
10
-68.7707762082714
20
4.04491452239578
30
0.000000000000000
11
-68.6707762082714
21
3.81410550661353
31
0.000000000000000
  0
LINE
  5
F10426
330
F10427
100
AcDbEntity
8
Geo
100
AcDbLine
10
-68.6707762082714
20
3.81410550661353
30
0.000000000000000
11
-68.5707762082714
21
3.59040864730860
31
0.000000000000000
  0
LINE
  5
F10428
330
F10429
100
AcDbEntity
8
Geo
100
AcDbLine
10
-68.5707762082714
20
3.59040864730860
30
0.000000000000000
11
-68.4707762082714
21
3.37395432606340
31
0.000000000000000
  0
LINE
  5
F1042A
330
F1042B
100
AcDbEntity
8
Geo
100
AcDbLine
10
-68.4707762082714
20
3.37395432606340
30
0.000000000000000
11
-68.3707762082714
21
3.16484354825314
31
0.000000000000000
  0
LINE
  5
F1042C
330
F1042D
100
AcDbEntity
8
Geo
100
AcDbLine
10
-68.3707762082714
20
3.16484354825314
30
0.000000000000000
11
-68.2707762082714
21
2.96315024116214
31
0.000000000000000
  0
LINE
  5
F1042E
330
F1042F
100
AcDbEntity
8
Geo
100
AcDbLine
10
-68.2707762082714
20
2.96315024116214
30
0.000000000000000
11
-68.1707762082714
21
2.76892351232286
31
0.000000000000000
  0
LINE
  5
F10430
330
F10431
100
AcDbEntity
8
Geo
100
AcDbLine
10
-68.1707762082714
20
2.76892351232286
30
0.000000000000000
11
-68.0707762082714
21
2.58218985894730
31
0.000000000000000
  0
LINE
  5
F10432
330
F10433
100
AcDbEntity
8
Geo
100
AcDbLine
10
-68.0707762082714
20
2.58218985894730
30
0.000000000000000
11
-67.9707762082714
21
2.40295532059133
31
0.000000000000000
  0
LINE
  5
F10434
330
F10435
100
AcDbEntity
8
Geo
100
AcDbLine
10
-67.9707762082714
20
2.40295532059133
30
0.000000000000000
11
-67.8707762082714
21
2.23120756837902
31
0.000000000000000
  0
LINE
  5
F10436
330
F10437
100
AcDbEntity
8
Geo
100
AcDbLine
10
-67.8707762082714
20
2.23120756837902
30
0.000000000000000
11
-67.7707762082714
21
2.06691792521285
31
0.000000000000000
  0
LINE
  5
F10438
330
F10439
100
AcDbEntity
8
Geo
100
AcDbLine
10
-67.7707762082714
20
2.06691792521285
30
0.000000000000000
11
-67.6707762082714
21
1.91004331240811
31
0.000000000000000
  0
LINE
  5
F1043A
330
F1043B
100
AcDbEntity
8
Geo
100
AcDbLine
10
-67.6707762082714
20
1.91004331240811
30
0.000000000000000
11
-67.5707762082714
21
1.76052811911651
31
0.000000000000000
  0
LINE
  5
F1043C
330
F1043D
100
AcDbEntity
8
Geo
100
AcDbLine
10
-67.5707762082714
20
1.76052811911651
30
0.000000000000000
11
-67.4707762082714
21
1.61830599174566
31
0.000000000000000
  0
LINE
  5
F1043E
330
F1043F
100
AcDbEntity
8
Geo
100
AcDbLine
10
-67.4707762082714
20
1.61830599174566
30
0.000000000000000
11
-67.3707762082714
21
1.48330154134089
31
0.000000000000000
  0
LINE
  5
F10440
330
F10441
100
AcDbEntity
8
Geo
100
AcDbLine
10
-67.3707762082714
20
1.48330154134089
30
0.000000000000000
11
-67.2707762082714
21
1.35543196757495
31
0.000000000000000
  0
LINE
  5
F10442
330
F10443
100
AcDbEntity
8
Geo
100
AcDbLine
10
-67.2707762082714
20
1.35543196757495
30
0.000000000000000
11
-67.1707762082714
21
1.23460859859366
31
0.000000000000000
  0
LINE
  5
F10444
330
F10445
100
AcDbEntity
8
Geo
100
AcDbLine
10
-67.1707762082714
20
1.23460859859366
30
0.000000000000000
11
-67.0707762082714
21
1.12073834649330
31
0.000000000000000
  0
LINE
  5
F10446
330
F10447
100
AcDbEntity
8
Geo
100
AcDbLine
10
-67.0707762082714
20
1.12073834649330
30
0.000000000000000
11
-66.9707762082714
21
1.01372507866343
31
0.000000000000000
  0
LINE
  5
F10448
330
F10449
100
AcDbEntity
8
Geo
100
AcDbLine
10
-66.9707762082714
20
1.01372507866343
30
0.000000000000000
11
-66.8707762082714
21
0.913470905618702
31
0.000000000000000
  0
LINE
  5
F1044A
330
F1044B
100
AcDbEntity
8
Geo
100
AcDbLine
10
-66.8707762082714
20
0.913470905618702
30
0.000000000000000
11
-66.7707762082714
21
0.819877386270599
31
0.000000000000000
  0
LINE
  5
F1044C
330
F1044D
100
AcDbEntity
8
Geo
100
AcDbLine
10
-66.7707762082714
20
0.819877386270599
30
0.000000000000000
11
-66.6707762082714
21
0.732846651856868
31
0.000000000000000
  0
LINE
  5
F1044E
330
F1044F
100
AcDbEntity
8
Geo
100
AcDbLine
10
-66.6707762082714
20
0.732846651856868
30
0.000000000000000
11
-66.5707762082714
21
0.652282449958315
31
0.000000000000000
  0
LINE
  5
F10450
330
F10451
100
AcDbEntity
8
Geo
100
AcDbLine
10
-66.5707762082714
20
0.652282449958315
30
0.000000000000000
11
-66.4707762082714
21
0.578091110191582
31
0.000000000000000
  0
LINE
  5
F10452
330
F10453
100
AcDbEntity
8
Geo
100
AcDbLine
10
-66.4707762082714
20
0.578091110191582
30
0.000000000000000
11
-66.3707762082714
21
0.510182433278086
31
0.000000000000000
  0
LINE
  5
F10454
330
F10455
100
AcDbEntity
8
Geo
100
AcDbLine
10
-66.3707762082714
20
0.510182433278086
30
0.000000000000000
11
-66.2707762082714
21
0.448470505255572
31
0.000000000000000
  0
LINE
  5
F10456
330
F10457
100
AcDbEntity
8
Geo
100
AcDbLine
10
-66.2707762082714
20
0.448470505255572
30
0.000000000000000
11
-66.1707762082714
21
0.392874438624764
31
0.000000000000000
  0
LINE
  5
F10458
330
F10459
100
AcDbEntity
8
Geo
100
AcDbLine
10
-66.1707762082714
20
0.392874438624764
30
0.000000000000000
11
-66.0707762082714
21
0.343319042211808
31
0.000000000000000
  0
LINE
  5
F1045A
330
F1045B
100
AcDbEntity
8
Geo
100
AcDbLine
10
-66.0707762082714
20
0.343319042211808
30
0.000000000000000
11
-65.9707762082714
21
0.299735421482010
31
0.000000000000000
  0
LINE
  5
F1045C
330
F1045D
100
AcDbEntity
8
Geo
100
AcDbLine
10
-65.9707762082714
20
0.299735421482010
30
0.000000000000000
11
-65.8707762082714
21
0.262061510964395
31
0.000000000000000
  0
LINE
  5
F1045E
330
F1045F
100
AcDbEntity
8
Geo
100
AcDbLine
10
-65.8707762082714
20
0.262061510964395
30
0.000000000000000
11
-65.7707762082714
21
0.230242540343741
31
0.000000000000000
  0
LINE
  5
F10460
330
F10461
100
AcDbEntity
8
Geo
100
AcDbLine
10
-65.7707762082714
20
0.230242540343741
30
0.000000000000000
11
-65.6707762082714
21
0.204231435649607
31
0.000000000000000
  0
LINE
  5
F10462
330
F10463
100
AcDbEntity
8
Geo
100
AcDbLine
10
-65.6707762082714
20
0.204231435649607
30
0.000000000000000
11
-65.5707762082714
21
0.183989156824095
31
0.000000000000000
  0
LINE
  5
F10464
330
F10465
100
AcDbEntity
8
Geo
100
AcDbLine
10
-65.5707762082714
20
0.183989156824095
30
0.000000000000000
11
-65.4707762082714
21
0.169484972784078
31
0.000000000000000
  0
LINE
  5
F10466
330
F10467
100
AcDbEntity
8
Geo
100
AcDbLine
10
-76.3707762082714
20
12.3524471318870
30
0.000000000000000
11
-76.2707762082714
21
12.3538807732052
31
0.000000000000000
  0
LINE
  5
F10468
330
F10469
100
AcDbEntity
8
Geo
100
AcDbLine
10
-76.2707762082714
20
12.3538807732052
30
0.000000000000000
11
-76.1707762082714
21
12.3434652868491
31
0.000000000000000
  0
LINE
  5
F1046A
330
F1046B
100
AcDbEntity
8
Geo
100
AcDbLine
10
-76.1707762082714
20
12.3434652868491
30
0.000000000000000
11
-76.0707762082714
21
12.3212161012638
31
0.000000000000000
  0
LINE
  5
F1046C
330
F1046D
100
AcDbEntity
8
Geo
100
AcDbLine
10
-76.0707762082714
20
12.3212161012638
30
0.000000000000000
11
-75.9707762082714
21
12.2871661741367
31
0.000000000000000
  0
LINE
  5
F1046E
330
F1046F
100
AcDbEntity
8
Geo
100
AcDbLine
10
-75.9707762082714
20
12.2871661741367
30
0.000000000000000
11
-75.8707762082714
21
12.2413659435768
31
0.000000000000000
  0
LINE
  5
F10470
330
F10471
100
AcDbEntity
8
Geo
100
AcDbLine
10
-75.8707762082714
20
12.2413659435768
30
0.000000000000000
11
-75.7707762082714
21
12.1838832534012
31
0.000000000000000
  0
LINE
  5
F10472
330
F10473
100
AcDbEntity
8
Geo
100
AcDbLine
10
-75.7707762082714
20
12.1838832534012
30
0.000000000000000
11
-75.6707762082714
21
12.1148032526379
31
0.000000000000000
  0
LINE
  5
F10474
330
F10475
100
AcDbEntity
8
Geo
100
AcDbLine
10
-75.6707762082714
20
12.1148032526379
30
0.000000000000000
11
-75.5707762082714
21
12.0342282693947
31
0.000000000000000
  0
LINE
  5
F10476
330
F10477
100
AcDbEntity
8
Geo
100
AcDbLine
10
-75.5707762082714
20
12.0342282693947
30
0.000000000000000
11
-75.4707762082714
21
11.9422776592808
31
0.000000000000000
  0
LINE
  5
F10478
330
F10479
100
AcDbEntity
8
Geo
100
AcDbLine
10
-75.4707762082714
20
11.9422776592808
30
0.000000000000000
11
-75.3707762082714
21
11.8390876286055
31
0.000000000000000
  0
LINE
  5
F1047A
330
F1047B
100
AcDbEntity
8
Geo
100
AcDbLine
10
-75.3707762082714
20
11.8390876286055
30
0.000000000000000
11
-75.2707762082714
21
11.7248110326159
31
0.000000000000000
  0
LINE
  5
F1047C
330
F1047D
100
AcDbEntity
8
Geo
100
AcDbLine
10
-75.2707762082714
20
11.7248110326159
30
0.000000000000000
11
-75.1707762082714
21
11.5996171490725
31
0.000000000000000
  0
LINE
  5
F1047E
330
F1047F
100
AcDbEntity
8
Geo
100
AcDbLine
10
-75.1707762082714
20
11.5996171490725
30
0.000000000000000
11
-75.0707762082714
21
11.4636914274990
31
0.000000000000000
  0
LINE
  5
F10480
330
F10481
100
AcDbEntity
8
Geo
100
AcDbLine
10
-75.0707762082714
20
11.4636914274990
30
0.000000000000000
11
-74.9707762082714
21
11.3172352144750
31
0.000000000000000
  0
LINE
  5
F10482
330
F10483
100
AcDbEntity
8
Geo
100
AcDbLine
10
-74.9707762082714
20
11.3172352144750
30
0.000000000000000
11
-74.8707762082714
21
11.1604654553828
31
0.000000000000000
  0
LINE
  5
F10484
330
F10485
100
AcDbEntity
8
Geo
100
AcDbLine
10
-74.8707762082714
20
11.1604654553828
30
0.000000000000000
11
-74.7707762082714
21
10.9936143730456
31
0.000000000000000
  0
LINE
  5
F10486
330
F10487
100
AcDbEntity
8
Geo
100
AcDbLine
10
-74.7707762082714
20
10.9936143730456
30
0.000000000000000
11
-74.6707762082714
21
10.8169291237368
31
0.000000000000000
  0
LINE
  5
F10488
330
F10489
100
AcDbEntity
8
Geo
100
AcDbLine
10
-74.6707762082714
20
10.8169291237368
30
0.000000000000000
11
-74.5707762082714
21
10.6306714310672
31
0.000000000000000
  0
LINE
  5
F1048A
330
F1048B
100
AcDbEntity
8
Geo
100
AcDbLine
10
-74.5707762082714
20
10.6306714310672
30
0.000000000000000
11
-74.4707762082714
21
10.4351171982948
31
0.000000000000000
  0
LINE
  5
F1048C
330
F1048D
100
AcDbEntity
8
Geo
100
AcDbLine
10
-74.4707762082714
20
10.4351171982948
30
0.000000000000000
11
-74.3707762082714
21
10.2305560996290
31
0.000000000000000
  0
LINE
  5
F1048E
330
F1048F
100
AcDbEntity
8
Geo
100
AcDbLine
10
-74.3707762082714
20
10.2305560996290
30
0.000000000000000
11
-74.2707762082714
21
10.0172911511373
31
0.000000000000000
  0
LINE
  5
F10490
330
F10491
100
AcDbEntity
8
Geo
100
AcDbLine
10
-74.2707762082714
20
10.0172911511373
30
0.000000000000000
11
-74.1707762082714
21
9.79563826188737
31
0.000000000000000
  0
LINE
  5
F10492
330
F10493
100
AcDbEntity
8
Geo
100
AcDbLine
10
-74.1707762082714
20
9.79563826188737
30
0.000000000000000
11
-74.0707762082714
21
9.56592576599200
31
0.000000000000000
  0
LINE
  5
F10494
330
F10495
100
AcDbEntity
8
Geo
100
AcDbLine
10
-74.0707762082714
20
9.56592576599200
30
0.000000000000000
11
-73.9707762082714
21
9.32849393624778
31
0.000000000000000
  0
LINE
  5
F10496
330
F10497
100
AcDbEntity
8
Geo
100
AcDbLine
10
-73.9707762082714
20
9.32849393624778
30
0.000000000000000
11
-73.8707762082714
21
9.08369448008971
31
0.000000000000000
  0
LINE
  5
F10498
330
F10499
100
AcDbEntity
8
Geo
100
AcDbLine
10
-73.8707762082714
20
9.08369448008971
30
0.000000000000000
11
-73.7707762082714
21
8.83189001860740
31
0.000000000000000
  0
LINE
  5
F1049A
330
F1049B
100
AcDbEntity
8
Geo
100
AcDbLine
10
-73.7707762082714
20
8.83189001860740
30
0.000000000000000
11
-73.6707762082714
21
8.57345354939501
31
0.000000000000000
  0
LINE
  5
F1049C
330
F1049D
100
AcDbEntity
8
Geo
100
AcDbLine
10
-73.6707762082714
20
8.57345354939501
30
0.000000000000000
11
-73.5707762082714
21
8.30876789403038
31
0.000000000000000
  0
LINE
  5
F1049E
330
F1049F
100
AcDbEntity
8
Geo
100
AcDbLine
10
-73.5707762082714
20
8.30876789403038
30
0.000000000000000
11
-73.4707762082714
21
8.03822513100202
31
0.000000000000000
  0
LINE
  5
F104A0
330
F104A1
100
AcDbEntity
8
Geo
100
AcDbLine
10
-73.4707762082714
20
8.03822513100202
30
0.000000000000000
11
-73.3707762082714
21
7.76222601492375
31
0.000000000000000
  0
LINE
  5
F104A2
330
F104A3
100
AcDbEntity
8
Geo
100
AcDbLine
10
-73.3707762082714
20
7.76222601492375
30
0.000000000000000
11
-73.2707762082714
21
7.48117938289750
31
0.000000000000000
  0
LINE
  5
F104A4
330
F104A5
100
AcDbEntity
8
Geo
100
AcDbLine
10
-73.2707762082714
20
7.48117938289750
30
0.000000000000000
11
-73.1707762082714
21
7.19550154890345
31
0.000000000000000
  0
LINE
  5
F104A6
330
F104A7
100
AcDbEntity
8
Geo
100
AcDbLine
10
-73.1707762082714
20
7.19550154890345
30
0.000000000000000
11
-73.0707762082714
21
6.90561568711473
31
0.000000000000000
  0
LINE
  5
F104A8
330
F104A9
100
AcDbEntity
8
Geo
100
AcDbLine
10
-73.0707762082714
20
6.90561568711473
30
0.000000000000000
11
-72.9707762082714
21
6.61195120505014
31
0.000000000000000
  0
LINE
  5
F104AA
330
F104AB
100
AcDbEntity
8
Geo
100
AcDbLine
10
-72.9707762082714
20
6.61195120505014
30
0.000000000000000
11
-72.8707762082714
21
6.31494310749334
31
0.000000000000000
  0
LINE
  5
F104AC
330
F104AD
100
AcDbEntity
8
Geo
100
AcDbLine
10
-72.8707762082714
20
6.31494310749334
30
0.000000000000000
11
-72.7707762082714
21
6.01503135212093
31
0.000000000000000
  0
LINE
  5
F104AE
330
F104AF
100
AcDbEntity
8
Geo
100
AcDbLine
10
-72.7707762082714
20
6.01503135212093
30
0.000000000000000
11
-72.6707762082714
21
5.71266019779373
31
0.000000000000000
  0
LINE
  5
F104B0
330
F104B1
100
AcDbEntity
8
Geo
100
AcDbLine
10
-72.6707762082714
20
5.71266019779373
30
0.000000000000000
11
-72.5707762082714
21
5.40827754647679
31
0.000000000000000
  0
LINE
  5
F104B2
330
F104B3
100
AcDbEntity
8
Geo
100
AcDbLine
10
-72.5707762082714
20
5.40827754647679
30
0.000000000000000
11
-72.4707762082714
21
5.10233427976279
31
0.000000000000000
  0
LINE
  5
F104B4
330
F104B5
100
AcDbEntity
8
Geo
100
AcDbLine
10
-72.4707762082714
20
5.10233427976279
30
0.000000000000000
11
-72.3707762082714
21
4.79528359098181
31
0.000000000000000
  0
LINE
  5
F104B6
330
F104B7
100
AcDbEntity
8
Geo
100
AcDbLine
10
-72.3707762082714
20
4.79528359098181
30
0.000000000000000
11
-72.2707762082714
21
4.48758031388669
31
0.000000000000000
  0
LINE
  5
F104B8
330
F104B9
100
AcDbEntity
8
Geo
100
AcDbLine
10
-72.2707762082714
20
4.48758031388669
30
0.000000000000000
11
-72.1707762082714
21
4.17968024890840
31
0.000000000000000
  0
LINE
  5
F104BA
330
F104BB
100
AcDbEntity
8
Geo
100
AcDbLine
10
-72.1707762082714
20
4.17968024890840
30
0.000000000000000
11
-72.0707762082714
21
3.87203948797955
31
0.000000000000000
  0
LINE
  5
F104BC
330
F104BD
100
AcDbEntity
8
Geo
100
AcDbLine
10
-72.0707762082714
20
3.87203948797955
30
0.000000000000000
11
-71.9707762082714
21
3.56511373892600
31
0.000000000000000
  0
LINE
  5
F104BE
330
F104BF
100
AcDbEntity
8
Geo
100
AcDbLine
10
-71.9707762082714
20
3.56511373892600
30
0.000000000000000
11
-71.8707762082714
21
3.25935765042754
31
0.000000000000000
  0
LINE
  5
F104C0
330
F104C1
100
AcDbEntity
8
Geo
100
AcDbLine
10
-71.8707762082714
20
3.25935765042754
30
0.000000000000000
11
-71.7707762082714
21
2.95522413854743
31
0.000000000000000
  0
LINE
  5
F104C2
330
F104C3
100
AcDbEntity
8
Geo
100
AcDbLine
10
-71.7707762082714
20
2.95522413854743
30
0.000000000000000
11
-71.6707762082714
21
2.65316371582846
31
0.000000000000000
  0
LINE
  5
F104C4
330
F104C5
100
AcDbEntity
8
Geo
100
AcDbLine
10
-71.6707762082714
20
2.65316371582846
30
0.000000000000000
11
-71.5707762082714
21
2.35362382394937
31
0.000000000000000
  0
LINE
  5
F104C6
330
F104C7
100
AcDbEntity
8
Geo
100
AcDbLine
10
-71.5707762082714
20
2.35362382394937
30
0.000000000000000
11
-71.4707762082714
21
2.05704817093013
31
0.000000000000000
  0
LINE
  5
F104C8
330
F104C9
100
AcDbEntity
8
Geo
100
AcDbLine
10
-71.4707762082714
20
2.05704817093013
30
0.000000000000000
11
-71.3707762082714
21
1.76387607386784
31
0.000000000000000
  0
LINE
  5
F104CA
330
F104CB
100
AcDbEntity
8
Geo
100
AcDbLine
10
-71.3707762082714
20
1.76387607386784
30
0.000000000000000
11
-71.2707762082714
21
1.47454180817696
31
0.000000000000000
  0
LINE
  5
F104CC
330
F104CD
100
AcDbEntity
8
Geo
100
AcDbLine
10
-71.2707762082714
20
1.47454180817696
30
0.000000000000000
11
-71.1707762082714
21
1.18947396429776
31
0.000000000000000
  0
LINE
  5
F104CE
330
F104CF
100
AcDbEntity
8
Geo
100
AcDbLine
10
-71.1707762082714
20
1.18947396429776
30
0.000000000000000
11
-71.0707762082714
21
0.909094812825870
31
0.000000000000000
  0
LINE
  5
F104D0
330
F104D1
100
AcDbEntity
8
Geo
100
AcDbLine
10
-71.0707762082714
20
0.909094812825870
30
0.000000000000000
11
-70.9707762082714
21
0.633819679003476
31
0.000000000000000
  0
LINE
  5
F104D2
330
F104D3
100
AcDbEntity
8
Geo
100
AcDbLine
10
-70.9707762082714
20
0.633819679003476
30
0.000000000000000
11
-70.8707762082714
21
0.364056327498598
31
0.000000000000000
  0
LINE
  5
F104D4
330
F104D5
100
AcDbEntity
8
Geo
100
AcDbLine
10
-70.8707762082714
20
0.364056327498598
30
0.000000000000000
11
-70.7707762082714
21
0.100204358383878
31
0.000000000000000
  0
LINE
  5
F104D6
330
F104D7
100
AcDbEntity
8
Geo
100
AcDbLine
10
-70.7707762082714
20
0.100204358383878
30
0.000000000000000
11
-70.6707762082714
21
-0.157345384790453
31
0.000000000000000
  0
LINE
  5
F104D8
330
F104D9
100
AcDbEntity
8
Geo
100
AcDbLine
10
-70.6707762082714
20
-0.157345384790453
30
0.000000000000000
11
-70.5707762082714
21
-0.408211393952573
31
0.000000000000000
  0
LINE
  5
F104DA
330
F104DB
100
AcDbEntity
8
Geo
100
AcDbLine
10
-70.5707762082714
20
-0.408211393952573
30
0.000000000000000
11
-70.4707762082714
21
-0.652022061636528
31
0.000000000000000
  0
LINE
  5
F104DC
330
F104DD
100
AcDbEntity
8
Geo
100
AcDbLine
10
-70.4707762082714
20
-0.652022061636528
30
0.000000000000000
11
-70.3707762082714
21
-0.622075075969168
31
0.000000000000000
  0
LINE
  5
F104DE
330
F104DF
100
AcDbEntity
8
Geo
100
AcDbLine
10
-70.3707762082714
20
-0.622075075969168
30
0.000000000000000
11
-70.2707762082714
21
-0.592598209675664
31
0.000000000000000
  0
LINE
  5
F104E0
330
F104E1
100
AcDbEntity
8
Geo
100
AcDbLine
10
-70.2707762082714
20
-0.592598209675664
30
0.000000000000000
11
-70.1707762082714
21
-0.563598612536119
31
0.000000000000000
  0
LINE
  5
F104E2
330
F104E3
100
AcDbEntity
8
Geo
100
AcDbLine
10
-70.1707762082714
20
-0.563598612536119
30
0.000000000000000
11
-70.0707762082714
21
-0.535083232600754
31
0.000000000000000
  0
LINE
  5
F104E4
330
F104E5
100
AcDbEntity
8
Geo
100
AcDbLine
10
-70.0707762082714
20
-0.535083232600754
30
0.000000000000000
11
-69.9707762082714
21
-0.507058819486347
31
0.000000000000000
  0
LINE
  5
F104E6
330
F104E7
100
AcDbEntity
8
Geo
100
AcDbLine
10
-69.9707762082714
20
-0.507058819486347
30
0.000000000000000
11
-69.8707762082714
21
-0.479531927640182
31
0.000000000000000
  0
LINE
  5
F104E8
330
F104E9
100
AcDbEntity
8
Geo
100
AcDbLine
10
-69.8707762082714
20
-0.479531927640182
30
0.000000000000000
11
-69.7707762082714
21
-0.452508919569138
31
0.000000000000000
  0
LINE
  5
F104EA
330
F104EB
100
AcDbEntity
8
Geo
100
AcDbLine
10
-69.7707762082714
20
-0.452508919569138
30
0.000000000000000
11
-69.6707762082714
21
-0.425995969031608
31
0.000000000000000
  0
LINE
  5
F104EC
330
F104ED
100
AcDbEntity
8
Geo
100
AcDbLine
10
-69.6707762082714
20
-0.425995969031608
30
0.000000000000000
11
-69.5707762082714
21
-0.399999064190039
31
0.000000000000000
  0
LINE
  5
F104EE
330
F104EF
100
AcDbEntity
8
Geo
100
AcDbLine
10
-69.5707762082714
20
-0.399999064190039
30
0.000000000000000
11
-69.4707762082714
21
-0.374524010721949
31
0.000000000000000
  0
LINE
  5
F104F0
330
F104F1
100
AcDbEntity
8
Geo
100
AcDbLine
10
-69.4707762082714
20
-0.374524010721949
30
0.000000000000000
11
-69.3707762082714
21
-0.349576434887322
31
0.000000000000000
  0
LINE
  5
F104F2
330
F104F3
100
AcDbEntity
8
Geo
100
AcDbLine
10
-69.3707762082714
20
-0.349576434887322
30
0.000000000000000
11
-69.2707762082714
21
-0.325161786550426
31
0.000000000000000
  0
LINE
  5
F104F4
330
F104F5
100
AcDbEntity
8
Geo
100
AcDbLine
10
-69.2707762082714
20
-0.325161786550426
30
0.000000000000000
11
-69.1707762082714
21
-0.301285342154064
31
0.000000000000000
  0
LINE
  5
F104F6
330
F104F7
100
AcDbEntity
8
Geo
100
AcDbLine
10
-69.1707762082714
20
-0.301285342154064
30
0.000000000000000
11
-69.0707762082714
21
-0.277952207644435
31
0.000000000000000
  0
LINE
  5
F104F8
330
F104F9
100
AcDbEntity
8
Geo
100
AcDbLine
10
-69.0707762082714
20
-0.277952207644435
30
0.000000000000000
11
-68.9707762082714
21
-0.255167321344795
31
0.000000000000000
  0
LINE
  5
F104FA
330
F104FB
100
AcDbEntity
8
Geo
100
AcDbLine
10
-68.9707762082714
20
-0.255167321344795
30
0.000000000000000
11
-68.8707762082714
21
-0.232935456776174
31
0.000000000000000
  0
LINE
  5
F104FC
330
F104FD
100
AcDbEntity
8
Geo
100
AcDbLine
10
-68.8707762082714
20
-0.232935456776174
30
0.000000000000000
11
-68.7707762082714
21
-0.211261225423494
31
0.000000000000000
  0
LINE
  5
F104FE
330
F104FF
100
AcDbEntity
8
Geo
100
AcDbLine
10
-68.7707762082714
20
-0.211261225423494
30
0.000000000000000
11
-68.6707762082714
21
-0.190149079445479
31
0.000000000000000
  0
LINE
  5
F10500
330
F10501
100
AcDbEntity
8
Geo
100
AcDbLine
10
-68.6707762082714
20
-0.190149079445479
30
0.000000000000000
11
-68.5707762082714
21
-0.169603314326809
31
0.000000000000000
  0
LINE
  5
F10502
330
F10503
100
AcDbEntity
8
Geo
100
AcDbLine
10
-68.5707762082714
20
-0.169603314326809
30
0.000000000000000
11
-68.4707762082714
21
-0.149628071471023
31
0.000000000000000
  0
LINE
  5
F10504
330
F10505
100
AcDbEntity
8
Geo
100
AcDbLine
10
-68.4707762082714
20
-0.149628071471023
30
0.000000000000000
11
-68.3707762082714
21
-0.130227340732766
31
0.000000000000000
  0
LINE
  5
F10506
330
F10507
100
AcDbEntity
8
Geo
100
AcDbLine
10
-68.3707762082714
20
-0.130227340732766
30
0.000000000000000
11
-68.2707762082714
21
-0.111404962887989
31
0.000000000000000
  0
LINE
  5
F10508
330
F10509
100
AcDbEntity
8
Geo
100
AcDbLine
10
-68.2707762082714
20
-0.111404962887989
30
0.000000000000000
11
-68.1707762082714
21
-0.0931646320407964
31
0.000000000000000
  0
LINE
  5
F1050A
330
F1050B
100
AcDbEntity
8
Geo
100
AcDbLine
10
-68.1707762082714
20
-0.0931646320407964
30
0.000000000000000
11
-68.0707762082714
21
-0.0755098979656781
31
0.000000000000000
  0
LINE
  5
F1050C
330
F1050D
100
AcDbEntity
8
Geo
100
AcDbLine
10
-68.0707762082714
20
-0.0755098979656781
30
0.000000000000000
11
-67.9707762082714
21
-0.0584441683839234
31
0.000000000000000
  0
LINE
  5
F1050E
330
F1050F
100
AcDbEntity
8
Geo
100
AcDbLine
10
-67.9707762082714
20
-0.0584441683839234
30
0.000000000000000
11
-67.8707762082714
21
-0.0419707111730485
31
0.000000000000000
  0
LINE
  5
F10510
330
F10511
100
AcDbEntity
8
Geo
100
AcDbLine
10
-67.8707762082714
20
-0.0419707111730485
30
0.000000000000000
11
-67.7707762082714
21
-0.0260926565081565
31
0.000000000000000
  0
LINE
  5
F10512
330
F10513
100
AcDbEntity
8
Geo
100
AcDbLine
10
-67.7707762082714
20
-0.0260926565081565
30
0.000000000000000
11
-67.6707762082714
21
-0.0108129989341483
31
0.000000000000000
  0
LINE
  5
F10514
330
F10515
100
AcDbEntity
8
Geo
100
AcDbLine
10
-67.6707762082714
20
-0.0108129989341483
30
0.000000000000000
11
-67.5707762082714
21
0.00386540063220409
31
0.000000000000000
  0
LINE
  5
F10516
330
F10517
100
AcDbEntity
8
Geo
100
AcDbLine
10
-67.5707762082714
20
0.00386540063220409
30
0.000000000000000
11
-67.4707762082714
21
0.0179398129712833
31
0.000000000000000
  0
LINE
  5
F10518
330
F10519
100
AcDbEntity
8
Geo
100
AcDbLine
10
-67.4707762082714
20
0.0179398129712833
30
0.000000000000000
11
-67.3707762082714
21
0.0314076387016753
31
0.000000000000000
  0
LINE
  5
F1051A
330
F1051B
100
AcDbEntity
8
Geo
100
AcDbLine
10
-67.3707762082714
20
0.0314076387016753
30
0.000000000000000
11
-67.2707762082714
21
0.0442664064940894
31
0.000000000000000
  0
LINE
  5
F1051C
330
F1051D
100
AcDbEntity
8
Geo
100
AcDbLine
10
-67.2707762082714
20
0.0442664064940894
30
0.000000000000000
11
-67.1707762082714
21
0.0565137713589916
31
0.000000000000000
  0
LINE
  5
F1051E
330
F1051F
100
AcDbEntity
8
Geo
100
AcDbLine
10
-67.1707762082714
20
0.0565137713589916
30
0.000000000000000
11
-67.0707762082714
21
0.0681475130087232
31
0.000000000000000
  0
LINE
  5
F10520
330
F10521
100
AcDbEntity
8
Geo
100
AcDbLine
10
-67.0707762082714
20
0.0681475130087232
30
0.000000000000000
11
-66.9707762082714
21
0.0791655342948303
31
0.000000000000000
  0
LINE
  5
F10522
330
F10523
100
AcDbEntity
8
Geo
100
AcDbLine
10
-66.9707762082714
20
0.0791655342948303
30
0.000000000000000
11
-66.8707762082714
21
0.0895658597213265
31
0.000000000000000
  0
LINE
  5
F10524
330
F10525
100
AcDbEntity
8
Geo
100
AcDbLine
10
-66.8707762082714
20
0.0895658597213265
30
0.000000000000000
11
-66.7707762082714
21
0.0993466340345197
31
0.000000000000000
  0
LINE
  5
F10526
330
F10527
100
AcDbEntity
8
Geo
100
AcDbLine
10
-66.7707762082714
20
0.0993466340345197
30
0.000000000000000
11
-66.6707762082714
21
0.108506120890025
31
0.000000000000000
  0
LINE
  5
F10528
330
F10529
100
AcDbEntity
8
Geo
100
AcDbLine
10
-66.6707762082714
20
0.108506120890025
30
0.000000000000000
11
-66.5707762082714
21
0.117042701597547
31
0.000000000000000
  0
LINE
  5
F1052A
330
F1052B
100
AcDbEntity
8
Geo
100
AcDbLine
10
-66.5707762082714
20
0.117042701597547
30
0.000000000000000
11
-66.4707762082714
21
0.124954873943960
31
0.000000000000000
  0
LINE
  5
F1052C
330
F1052D
100
AcDbEntity
8
Geo
100
AcDbLine
10
-66.4707762082714
20
0.124954873943960
30
0.000000000000000
11
-66.3707762082714
21
0.132241251095190
31
0.000000000000000
  0
LINE
  5
F1052E
330
F1052F
100
AcDbEntity
8
Geo
100
AcDbLine
10
-66.3707762082714
20
0.132241251095190
30
0.000000000000000
11
-66.2707762082714
21
0.138900560577357
31
0.000000000000000
  0
LINE
  5
F10530
330
F10531
100
AcDbEntity
8
Geo
100
AcDbLine
10
-66.2707762082714
20
0.138900560577357
30
0.000000000000000
11
-66.1707762082714
21
0.144931643337613
31
0.000000000000000
  0
LINE
  5
F10532
330
F10533
100
AcDbEntity
8
Geo
100
AcDbLine
10
-66.1707762082714
20
0.144931643337613
30
0.000000000000000
11
-66.0707762082714
21
0.150333452885051
31
0.000000000000000
  0
LINE
  5
F10534
330
F10535
100
AcDbEntity
8
Geo
100
AcDbLine
10
-66.0707762082714
20
0.150333452885051
30
0.000000000000000
11
-65.9707762082714
21
0.155105054512049
31
0.000000000000000
  0
LINE
  5
F10536
330
F10537
100
AcDbEntity
8
Geo
100
AcDbLine
10
-65.9707762082714
20
0.155105054512049
30
0.000000000000000
11
-65.8707762082714
21
0.159245624596373
31
0.000000000000000
  0
LINE
  5
F10538
330
F10539
100
AcDbEntity
8
Geo
100
AcDbLine
10
-65.8707762082714
20
0.159245624596373
30
0.000000000000000
11
-65.7707762082714
21
0.162754449984309
31
0.000000000000000
  0
LINE
  5
F1053A
330
F1053B
100
AcDbEntity
8
Geo
100
AcDbLine
10
-65.7707762082714
20
0.162754449984309
30
0.000000000000000
11
-65.6707762082714
21
0.165630927455087
31
0.000000000000000
  0
LINE
  5
F1053C
330
F1053D
100
AcDbEntity
8
Geo
100
AcDbLine
10
-65.6707762082714
20
0.165630927455087
30
0.000000000000000
11
-65.5707762082714
21
0.167874563266814
31
0.000000000000000
  0
LINE
  5
F1053E
330
F1053F
100
AcDbEntity
8
Geo
100
AcDbLine
10
-65.5707762082714
20
0.167874563266814
30
0.000000000000000
11
-65.4707762082714
21
0.169484972784080
31
0.000000000000000
  0
LINE
  5
F10540
330
F10541
100
AcDbEntity
8
Geo
100
AcDbLine
10
-77.1707762082714
20
12.3534843289615
30
0.000000000000000
11
-77.0707762082714
21
12.3529969429732
31
0.000000000000000
  0
LINE
  5
F10542
330
F10543
100
AcDbEntity
8
Geo
100
AcDbLine
10
-77.0707762082714
20
12.3529969429732
30
0.000000000000000
11
-76.9707762082714
21
12.3406617385270
31
0.000000000000000
  0
LINE
  5
F10544
330
F10545
100
AcDbEntity
8
Geo
100
AcDbLine
10
-76.9707762082714
20
12.3406617385270
30
0.000000000000000
11
-76.8707762082714
21
12.3164969877439
31
0.000000000000000
  0
LINE
  5
F10546
330
F10547
100
AcDbEntity
8
Geo
100
AcDbLine
10
-76.8707762082714
20
12.3164969877439
30
0.000000000000000
11
-76.7707762082714
21
12.2805384858352
31
0.000000000000000
  0
LINE
  5
F10548
330
F10549
100
AcDbEntity
8
Geo
100
AcDbLine
10
-76.7707762082714
20
12.2805384858352
30
0.000000000000000
11
-76.6707762082714
21
12.2328394980790
31
0.000000000000000
  0
LINE
  5
F1054A
330
F1054B
100
AcDbEntity
8
Geo
100
AcDbLine
10
-76.6707762082714
20
12.2328394980790
30
0.000000000000000
11
-76.5707762082714
21
12.1734706809189
31
0.000000000000000
  0
LINE
  5
F1054C
330
F1054D
100
AcDbEntity
8
Geo
100
AcDbLine
10
-76.5707762082714
20
12.1734706809189
30
0.000000000000000
11
-76.4707762082714
21
12.1025199773000
31
0.000000000000000
  0
LINE
  5
F1054E
330
F1054F
100
AcDbEntity
8
Geo
100
AcDbLine
10
-76.4707762082714
20
12.1025199773000
30
0.000000000000000
11
-76.3707762082714
21
12.0200924863996
31
0.000000000000000
  0
LINE
  5
F10550
330
F10551
100
AcDbEntity
8
Geo
100
AcDbLine
10
-76.3707762082714
20
12.0200924863996
30
0.000000000000000
11
-76.2707762082714
21
11.9263103079440
31
0.000000000000000
  0
LINE
  5
F10552
330
F10553
100
AcDbEntity
8
Geo
100
AcDbLine
10
-76.2707762082714
20
11.9263103079440
30
0.000000000000000
11
-76.1707762082714
21
11.8213123613420
31
0.000000000000000
  0
LINE
  5
F10554
330
F10555
100
AcDbEntity
8
Geo
100
AcDbLine
10
-76.1707762082714
20
11.8213123613420
30
0.000000000000000
11
-76.0707762082714
21
11.7052541799041
31
0.000000000000000
  0
LINE
  5
F10556
330
F10557
100
AcDbEntity
8
Geo
100
AcDbLine
10
-76.0707762082714
20
11.7052541799041
30
0.000000000000000
11
-75.9707762082714
21
11.5783076804508
31
0.000000000000000
  0
LINE
  5
F10558
330
F10559
100
AcDbEntity
8
Geo
100
AcDbLine
10
-75.9707762082714
20
11.5783076804508
30
0.000000000000000
11
-75.8707762082714
21
11.4406609086532
31
0.000000000000000
  0
LINE
  5
F1055A
330
F1055B
100
AcDbEntity
8
Geo
100
AcDbLine
10
-75.8707762082714
20
11.4406609086532
30
0.000000000000000
11
-75.7707762082714
21
11.2925177604803
31
0.000000000000000
  0
LINE
  5
F1055C
330
F1055D
100
AcDbEntity
8
Geo
100
AcDbLine
10
-75.7707762082714
20
11.2925177604803
30
0.000000000000000
11
-75.6707762082714
21
11.1340976801689
31
0.000000000000000
  0
LINE
  5
F1055E
330
F1055F
100
AcDbEntity
8
Geo
100
AcDbLine
10
-75.6707762082714
20
11.1340976801689
30
0.000000000000000
11
-75.5707762082714
21
10.9656353351609
31
0.000000000000000
  0
LINE
  5
F10560
330
F10561
100
AcDbEntity
8
Geo
100
AcDbLine
10
-75.5707762082714
20
10.9656353351609
30
0.000000000000000
11
-75.4707762082714
21
10.7873802684906
31
0.000000000000000
  0
LINE
  5
F10562
330
F10563
100
AcDbEntity
8
Geo
100
AcDbLine
10
-75.4707762082714
20
10.7873802684906
30
0.000000000000000
11
-75.3707762082714
21
10.5995965291372
31
0.000000000000000
  0
LINE
  5
F10564
330
F10565
100
AcDbEntity
8
Geo
100
AcDbLine
10
-75.3707762082714
20
10.5995965291372
30
0.000000000000000
11
-75.2707762082714
21
10.4025622808895
31
0.000000000000000
  0
LINE
  5
F10566
330
F10567
100
AcDbEntity
8
Geo
100
AcDbLine
10
-75.2707762082714
20
10.4025622808895
30
0.000000000000000
11
-75.1707762082714
21
10.1965693903017
31
0.000000000000000
  0
LINE
  5
F10568
330
F10569
100
AcDbEntity
8
Geo
100
AcDbLine
10
-75.1707762082714
20
10.1965693903017
30
0.000000000000000
11
-75.0707762082714
21
9.98192299435254
31
0.000000000000000
  0
LINE
  5
F1056A
330
F1056B
100
AcDbEntity
8
Geo
100
AcDbLine
10
-75.0707762082714
20
9.98192299435254
30
0.000000000000000
11
-74.9707762082714
21
9.75894104844611
31
0.000000000000000
  0
LINE
  5
F1056C
330
F1056D
100
AcDbEntity
8
Geo
100
AcDbLine
10
-74.9707762082714
20
9.75894104844611
30
0.000000000000000
11
-74.8707762082714
21
9.52795385542478
31
0.000000000000000
  0
LINE
  5
F1056E
330
F1056F
100
AcDbEntity
8
Geo
100
AcDbLine
10
-74.8707762082714
20
9.52795385542478
30
0.000000000000000
11
-74.7707762082714
21
9.28930357629224
31
0.000000000000000
  0
LINE
  5
F10570
330
F10571
100
AcDbEntity
8
Geo
100
AcDbLine
10
-74.7707762082714
20
9.28930357629224
30
0.000000000000000
11
-74.6707762082714
21
9.04334372337086
31
0.000000000000000
  0
LINE
  5
F10572
330
F10573
100
AcDbEntity
8
Geo
100
AcDbLine
10
-74.6707762082714
20
9.04334372337086
30
0.000000000000000
11
-74.5707762082714
21
8.79043863664435
31
0.000000000000000
  0
LINE
  5
F10574
330
F10575
100
AcDbEntity
8
Geo
100
AcDbLine
10
-74.5707762082714
20
8.79043863664435
30
0.000000000000000
11
-74.4707762082714
21
8.53096294406146
31
0.000000000000000
  0
LINE
  5
F10576
330
F10577
100
AcDbEntity
8
Geo
100
AcDbLine
10
-74.4707762082714
20
8.53096294406146
30
0.000000000000000
11
-74.3707762082714
21
8.26530100660017
31
0.000000000000000
  0
LINE
  5
F10578
330
F10579
100
AcDbEntity
8
Geo
100
AcDbLine
10
-74.3707762082714
20
8.26530100660017
30
0.000000000000000
11
-74.2707762082714
21
7.99384634891428
31
0.000000000000000
  0
LINE
  5
F1057A
330
F1057B
100
AcDbEntity
8
Geo
100
AcDbLine
10
-74.2707762082714
20
7.99384634891428
30
0.000000000000000
11
-74.1707762082714
21
7.71700107640589
31
0.000000000000000
  0
LINE
  5
F1057C
330
F1057D
100
AcDbEntity
8
Geo
100
AcDbLine
10
-74.1707762082714
20
7.71700107640589
30
0.000000000000000
11
-74.0707762082714
21
7.43517527958725
31
0.000000000000000
  0
LINE
  5
F1057E
330
F1057F
100
AcDbEntity
8
Geo
100
AcDbLine
10
-74.0707762082714
20
7.43517527958725
30
0.000000000000000
11
-73.9707762082714
21
7.14878642661424
31
0.000000000000000
  0
LINE
  5
F10580
330
F10581
100
AcDbEntity
8
Geo
100
AcDbLine
10
-73.9707762082714
20
7.14878642661424
30
0.000000000000000
11
-73.8707762082714
21
6.85825874489142
31
0.000000000000000
  0
LINE
  5
F10582
330
F10583
100
AcDbEntity
8
Geo
100
AcDbLine
10
-73.8707762082714
20
6.85825874489142
30
0.000000000000000
11
-73.7707762082714
21
6.56402259266454
31
0.000000000000000
  0
LINE
  5
F10584
330
F10585
100
AcDbEntity
8
Geo
100
AcDbLine
10
-73.7707762082714
20
6.56402259266454
30
0.000000000000000
11
-73.6707762082714
21
6.26651382153148
31
0.000000000000000
  0
LINE
  5
F10586
330
F10587
100
AcDbEntity
8
Geo
100
AcDbLine
10
-73.6707762082714
20
6.26651382153148
30
0.000000000000000
11
-73.5707762082714
21
5.96617313081589
31
0.000000000000000
  0
LINE
  5
F10588
330
F10589
100
AcDbEntity
8
Geo
100
AcDbLine
10
-73.5707762082714
20
5.96617313081589
30
0.000000000000000
11
-73.4707762082714
21
5.66344541475992
31
0.000000000000000
  0
LINE
  5
F1058A
330
F1058B
100
AcDbEntity
8
Geo
100
AcDbLine
10
-73.4707762082714
20
5.66344541475992
30
0.000000000000000
11
-73.3707762082714
21
5.35877910350300
31
0.000000000000000
  0
LINE
  5
F1058C
330
F1058D
100
AcDbEntity
8
Geo
100
AcDbLine
10
-73.3707762082714
20
5.35877910350300
30
0.000000000000000
11
-73.2707762082714
21
5.05262549882288
31
0.000000000000000
  0
LINE
  5
F1058E
330
F1058F
100
AcDbEntity
8
Geo
100
AcDbLine
10
-73.2707762082714
20
5.05262549882288
30
0.000000000000000
11
-73.1707762082714
21
4.74543810562297
31
0.000000000000000
  0
LINE
  5
F10590
330
F10591
100
AcDbEntity
8
Geo
100
AcDbLine
10
-73.1707762082714
20
4.74543810562297
30
0.000000000000000
11
-73.0707762082714
21
4.43767196015618
31
0.000000000000000
  0
LINE
  5
F10592
330
F10593
100
AcDbEntity
8
Geo
100
AcDbLine
10
-73.0707762082714
20
4.43767196015618
30
0.000000000000000
11
-72.9707762082714
21
4.12978295598032
31
0.000000000000000
  0
LINE
  5
F10594
330
F10595
100
AcDbEntity
8
Geo
100
AcDbLine
10
-72.9707762082714
20
4.12978295598032
30
0.000000000000000
11
-72.8707762082714
21
3.82222716864362
31
0.000000000000000
  0
LINE
  5
F10596
330
F10597
100
AcDbEntity
8
Geo
100
AcDbLine
10
-72.8707762082714
20
3.82222716864362
30
0.000000000000000
11
-72.7707762082714
21
3.51546018010071
31
0.000000000000000
  0
LINE
  5
F10598
330
F10599
100
AcDbEntity
8
Geo
100
AcDbLine
10
-72.7707762082714
20
3.51546018010071
30
0.000000000000000
11
-72.6707762082714
21
3.20993640385964
31
0.000000000000000
  0
LINE
  5
F1059A
330
F1059B
100
AcDbEntity
8
Geo
100
AcDbLine
10
-72.6707762082714
20
3.20993640385964
30
0.000000000000000
11
-72.5707762082714
21
2.90610841185986
31
0.000000000000000
  0
LINE
  5
F1059C
330
F1059D
100
AcDbEntity
8
Geo
100
AcDbLine
10
-72.5707762082714
20
2.90610841185986
30
0.000000000000000
11
-72.4707762082714
21
2.60442626407797
31
0.000000000000000
  0
LINE
  5
F1059E
330
F1059F
100
AcDbEntity
8
Geo
100
AcDbLine
10
-72.4707762082714
20
2.60442626407797
30
0.000000000000000
11
-72.3707762082714
21
2.30533684185461
31
0.000000000000000
  0
LINE
  5
F105A0
330
F105A1
100
AcDbEntity
8
Geo
100
AcDbLine
10
-72.3707762082714
20
2.30533684185461
30
0.000000000000000
11
-72.2707762082714
21
2.00928318592966
31
0.000000000000000
  0
LINE
  5
F105A2
330
F105A3
100
AcDbEntity
8
Geo
100
AcDbLine
10
-72.2707762082714
20
2.00928318592966
30
0.000000000000000
11
-72.1707762082714
21
1.71670384016665
31
0.000000000000000
  0
LINE
  5
F105A4
330
F105A5
100
AcDbEntity
8
Geo
100
AcDbLine
10
-72.1707762082714
20
1.71670384016665
30
0.000000000000000
11
-72.0707762082714
21
1.42803220193841
31
0.000000000000000
  0
LINE
  5
F105A6
330
F105A7
100
AcDbEntity
8
Geo
100
AcDbLine
10
-72.0707762082714
20
1.42803220193841
30
0.000000000000000
11
-71.9707762082714
21
1.14369588013607
31
0.000000000000000
  0
LINE
  5
F105A8
330
F105A9
100
AcDbEntity
8
Geo
100
AcDbLine
10
-71.9707762082714
20
1.14369588013607
30
0.000000000000000
11
-71.8707762082714
21
0.864116061752628
31
0.000000000000000
  0
LINE
  5
F105AA
330
F105AB
100
AcDbEntity
8
Geo
100
AcDbLine
10
-71.8707762082714
20
0.864116061752628
30
0.000000000000000
11
-71.7707762082714
21
0.589706887979298
31
0.000000000000000
  0
LINE
  5
F105AC
330
F105AD
100
AcDbEntity
8
Geo
100
AcDbLine
10
-71.7707762082714
20
0.589706887979298
30
0.000000000000000
11
-71.6707762082714
21
0.320874840738699
31
0.000000000000000
  0
LINE
  5
F105AE
330
F105AF
100
AcDbEntity
8
Geo
100
AcDbLine
10
-71.6707762082714
20
0.320874840738699
30
0.000000000000000
11
-71.5707762082714
21
0.0580181405637772
31
0.000000000000000
  0
LINE
  5
F105B0
330
F105B1
100
AcDbEntity
8
Geo
100
AcDbLine
10
-71.5707762082714
20
0.0580181405637772
30
0.000000000000000
11
-71.4707762082714
21
-0.198473843285717
31
0.000000000000000
  0
LINE
  5
F105B2
330
F105B3
100
AcDbEntity
8
Geo
100
AcDbLine
10
-71.4707762082714
20
-0.198473843285717
30
0.000000000000000
11
-71.3707762082714
21
-0.448221169595357
31
0.000000000000000
  0
LINE
  5
F105B4
330
F105B5
100
AcDbEntity
8
Geo
100
AcDbLine
10
-71.3707762082714
20
-0.448221169595357
30
0.000000000000000
11
-71.2707762082714
21
-0.690853888002435
31
0.000000000000000
  0
LINE
  5
F105B6
330
F105B7
100
AcDbEntity
8
Geo
100
AcDbLine
10
-71.2707762082714
20
-0.690853888002435
30
0.000000000000000
11
-71.1707762082714
21
-0.926012587002917
31
0.000000000000000
  0
LINE
  5
F105B8
330
F105B9
100
AcDbEntity
8
Geo
100
AcDbLine
10
-71.1707762082714
20
-0.926012587002917
30
0.000000000000000
11
-71.0707762082714
21
-1.15334892634716
31
0.000000000000000
  0
LINE
  5
F105BA
330
F105BB
100
AcDbEntity
8
Geo
100
AcDbLine
10
-71.0707762082714
20
-1.15334892634716
30
0.000000000000000
11
-70.9707762082714
21
-1.37252615303589
31
0.000000000000000
  0
LINE
  5
F105BC
330
F105BD
100
AcDbEntity
8
Geo
100
AcDbLine
10
-70.9707762082714
20
-1.37252615303589
30
0.000000000000000
11
-70.8707762082714
21
-1.58321960015190
31
0.000000000000000
  0
LINE
  5
F105BE
330
F105BF
100
AcDbEntity
8
Geo
100
AcDbLine
10
-70.8707762082714
20
-1.58321960015190
30
0.000000000000000
11
-70.7707762082714
21
-1.78511716778875
31
0.000000000000000
  0
LINE
  5
F105C0
330
F105C1
100
AcDbEntity
8
Geo
100
AcDbLine
10
-70.7707762082714
20
-1.78511716778875
30
0.000000000000000
11
-70.6707762082714
21
-1.97791978536384
31
0.000000000000000
  0
LINE
  5
F105C2
330
F105C3
100
AcDbEntity
8
Geo
100
AcDbLine
10
-70.6707762082714
20
-1.97791978536384
30
0.000000000000000
11
-70.5707762082714
21
-2.16134185463131
31
0.000000000000000
  0
LINE
  5
F105C4
330
F105C5
100
AcDbEntity
8
Geo
100
AcDbLine
10
-70.5707762082714
20
-2.16134185463131
30
0.000000000000000
11
-70.4707762082714
21
-2.33511167273835
31
0.000000000000000
  0
LINE
  5
F105C6
330
F105C7
100
AcDbEntity
8
Geo
100
AcDbLine
10
-70.4707762082714
20
-2.33511167273835
30
0.000000000000000
11
-70.3707762082714
21
-2.51797435494931
31
0.000000000000000
  0
LINE
  5
F105C8
330
F105C9
100
AcDbEntity
8
Geo
100
AcDbLine
10
-70.3707762082714
20
-2.51797435494931
30
0.000000000000000
11
-70.2707762082714
21
-2.68488800363285
31
0.000000000000000
  0
LINE
  5
F105CA
330
F105CB
100
AcDbEntity
8
Geo
100
AcDbLine
10
-70.2707762082714
20
-2.68488800363285
30
0.000000000000000
11
-70.1707762082714
21
-2.83629180486216
31
0.000000000000000
  0
LINE
  5
F105CC
330
F105CD
100
AcDbEntity
8
Geo
100
AcDbLine
10
-70.1707762082714
20
-2.83629180486216
30
0.000000000000000
11
-70.0707762082714
21
-2.97266523845715
31
0.000000000000000
  0
LINE
  5
F105CE
330
F105CF
100
AcDbEntity
8
Geo
100
AcDbLine
10
-70.0707762082714
20
-2.97266523845715
30
0.000000000000000
11
-69.9707762082714
21
-3.09452270221987
31
0.000000000000000
  0
LINE
  5
F105D0
330
F105D1
100
AcDbEntity
8
Geo
100
AcDbLine
10
-69.9707762082714
20
-3.09452270221987
30
0.000000000000000
11
-69.8707762082714
21
-3.20240838822341
31
0.000000000000000
  0
LINE
  5
F105D2
330
F105D3
100
AcDbEntity
8
Geo
100
AcDbLine
10
-69.8707762082714
20
-3.20240838822341
30
0.000000000000000
11
-69.7707762082714
21
-3.29689142309978
31
0.000000000000000
  0
LINE
  5
F105D4
330
F105D5
100
AcDbEntity
8
Geo
100
AcDbLine
10
-69.7707762082714
20
-3.29689142309978
30
0.000000000000000
11
-69.6707762082714
21
-3.37856128093299
31
0.000000000000000
  0
LINE
  5
F105D6
330
F105D7
100
AcDbEntity
8
Geo
100
AcDbLine
10
-69.6707762082714
20
-3.37856128093299
30
0.000000000000000
11
-69.5707762082714
21
-3.44802347430809
31
0.000000000000000
  0
LINE
  5
F105D8
330
F105D9
100
AcDbEntity
8
Geo
100
AcDbLine
10
-69.5707762082714
20
-3.44802347430809
30
0.000000000000000
11
-69.4707762082714
21
-3.50589552629031
31
0.000000000000000
  0
LINE
  5
F105DA
330
F105DB
100
AcDbEntity
8
Geo
100
AcDbLine
10
-69.4707762082714
20
-3.50589552629031
30
0.000000000000000
11
-69.3707762082714
21
-3.55280322360688
31
0.000000000000000
  0
LINE
  5
F105DC
330
F105DD
100
AcDbEntity
8
Geo
100
AcDbLine
10
-69.3707762082714
20
-3.55280322360688
30
0.000000000000000
11
-69.2707762082714
21
-3.58937714906817
31
0.000000000000000
  0
LINE
  5
F105DE
330
F105DF
100
AcDbEntity
8
Geo
100
AcDbLine
10
-69.2707762082714
20
-3.58937714906817
30
0.000000000000000
11
-69.1707762082714
21
-3.61624948928543
31
0.000000000000000
  0
LINE
  5
F105E0
330
F105E1
100
AcDbEntity
8
Geo
100
AcDbLine
10
-69.1707762082714
20
-3.61624948928543
30
0.000000000000000
11
-69.0707762082714
21
-3.63405111200800
31
0.000000000000000
  0
LINE
  5
F105E2
330
F105E3
100
AcDbEntity
8
Geo
100
AcDbLine
10
-69.0707762082714
20
-3.63405111200800
30
0.000000000000000
11
-68.9707762082714
21
-3.64340890590192
31
0.000000000000000
  0
LINE
  5
F105E4
330
F105E5
100
AcDbEntity
8
Geo
100
AcDbLine
10
-68.9707762082714
20
-3.64340890590192
30
0.000000000000000
11
-68.8707762082714
21
-3.64526790745380
31
0.000000000000000
  0
LINE
  5
F105E6
330
F105E7
100
AcDbEntity
8
Geo
100
AcDbLine
10
-80.4707762082714
20
12.3508397441475
30
0.000000000000000
11
-80.3707762082714
21
12.3545192598799
31
0.000000000000000
  0
LINE
  5
F105E8
330
F105E9
100
AcDbEntity
8
Geo
100
AcDbLine
10
-80.3707762082714
20
12.3545192598799
30
0.000000000000000
11
-80.2707762082714
21
12.3463487021484
31
0.000000000000000
  0
LINE
  5
F105EA
330
F105EB
100
AcDbEntity
8
Geo
100
AcDbLine
10
-80.2707762082714
20
12.3463487021484
30
0.000000000000000
11
-80.1707762082714
21
12.3263401739889
31
0.000000000000000
  0
LINE
  5
F105EC
330
F105ED
100
AcDbEntity
8
Geo
100
AcDbLine
10
-80.1707762082714
20
12.3263401739889
30
0.000000000000000
11
-80.0707762082714
21
12.2945233140058
31
0.000000000000000
  0
LINE
  5
F105EE
330
F105EF
100
AcDbEntity
8
Geo
100
AcDbLine
10
-80.0707762082714
20
12.2945233140058
30
0.000000000000000
11
-79.9707762082714
21
12.2509452524690
31
0.000000000000000
  0
LINE
  5
F105F0
330
F105F1
100
AcDbEntity
8
Geo
100
AcDbLine
10
-79.9707762082714
20
12.2509452524690
30
0.000000000000000
11
-79.8707762082714
21
12.1956705414998
31
0.000000000000000
  0
LINE
  5
F105F2
330
F105F3
100
AcDbEntity
8
Geo
100
AcDbLine
10
-79.8707762082714
20
12.1956705414998
30
0.000000000000000
11
-79.7707762082714
21
12.1287810594495
31
0.000000000000000
  0
LINE
  5
F105F4
330
F105F5
100
AcDbEntity
8
Geo
100
AcDbLine
10
-79.7707762082714
20
12.1287810594495
30
0.000000000000000
11
-79.6707762082714
21
12.0503758896139
31
0.000000000000000
  0
LINE
  5
F105F6
330
F105F7
100
AcDbEntity
8
Geo
100
AcDbLine
10
-79.6707762082714
20
12.0503758896139
30
0.000000000000000
11
-79.5707762082714
21
11.9605711734604
31
0.000000000000000
  0
LINE
  5
F105F8
330
F105F9
100
AcDbEntity
8
Geo
100
AcDbLine
10
-79.5707762082714
20
11.9605711734604
30
0.000000000000000
11
-79.4707762082714
21
11.8594999385887
31
0.000000000000000
  0
LINE
  5
F105FA
330
F105FB
100
AcDbEntity
8
Geo
100
AcDbLine
10
-79.4707762082714
20
11.8594999385887
30
0.000000000000000
11
-79.3707762082714
21
11.7473119016767
31
0.000000000000000
  0
LINE
  5
F105FC
330
F105FD
100
AcDbEntity
8
Geo
100
AcDbLine
10
-79.3707762082714
20
11.7473119016767
30
0.000000000000000
11
-79.2707762082714
21
11.6241732467054
31
0.000000000000000
  0
LINE
  5
F105FE
330
F105FF
100
AcDbEntity
8
Geo
100
AcDbLine
10
-79.2707762082714
20
11.6241732467054
30
0.000000000000000
11
-79.1707762082714
21
11.4902663787909
31
0.000000000000000
  0
LINE
  5
F10600
330
F10601
100
AcDbEntity
8
Geo
100
AcDbLine
10
-79.1707762082714
20
11.4902663787909
30
0.000000000000000
11
-79.0707762082714
21
11.3457896539882
31
0.000000000000000
  0
LINE
  5
F10602
330
F10603
100
AcDbEntity
8
Geo
100
AcDbLine
10
-79.0707762082714
20
11.3457896539882
30
0.000000000000000
11
-78.9707762082714
21
11.1909570854661
31
0.000000000000000
  0
LINE
  5
F10604
330
F10605
100
AcDbEntity
8
Geo
100
AcDbLine
10
-78.9707762082714
20
11.1909570854661
30
0.000000000000000
11
-78.8707762082714
21
11.0259980264904
31
0.000000000000000
  0
LINE
  5
F10606
330
F10607
100
AcDbEntity
8
Geo
100
AcDbLine
10
-78.8707762082714
20
11.0259980264904
30
0.000000000000000
11
-78.7707762082714
21
10.8511568306829
31
0.000000000000000
  0
LINE
  5
F10608
330
F10609
100
AcDbEntity
8
Geo
100
AcDbLine
10
-78.7707762082714
20
10.8511568306829
30
0.000000000000000
11
-78.6707762082714
21
10.6666924900605
31
0.000000000000000
  0
LINE
  5
F1060A
330
F1060B
100
AcDbEntity
8
Geo
100
AcDbLine
10
-78.6707762082714
20
10.6666924900605
30
0.000000000000000
11
-78.5707762082714
21
10.4728782513912
31
0.000000000000000
  0
LINE
  5
F1060C
330
F1060D
100
AcDbEntity
8
Geo
100
AcDbLine
10
-78.5707762082714
20
10.4728782513912
30
0.000000000000000
11
-78.4707762082714
21
10.2700012114339
31
0.000000000000000
  0
LINE
  5
F1060E
330
F1060F
100
AcDbEntity
8
Geo
100
AcDbLine
10
-78.4707762082714
20
10.2700012114339
30
0.000000000000000
11
-78.3707762082714
21
10.0583618916620
31
0.000000000000000
  0
LINE
  5
F10610
330
F10611
100
AcDbEntity
8
Geo
100
AcDbLine
10
-78.3707762082714
20
10.0583618916620
30
0.000000000000000
11
-78.2707762082714
21
9.83827379310188
31
0.000000000000000
  0
LINE
  5
F10612
330
F10613
100
AcDbEntity
8
Geo
100
AcDbLine
10
-78.2707762082714
20
9.83827379310188
30
0.000000000000000
11
-78.1707762082714
21
9.61006293194395
31
0.000000000000000
  0
LINE
  5
F10614
330
F10615
100
AcDbEntity
8
Geo
100
AcDbLine
10
-78.1707762082714
20
9.61006293194395
30
0.000000000000000
11
-78.0707762082714
21
9.37406735661541
31
0.000000000000000
  0
LINE
  5
F10616
330
F10617
100
AcDbEntity
8
Geo
100
AcDbLine
10
-78.0707762082714
20
9.37406735661541
30
0.000000000000000
11
-77.9707762082714
21
9.13063664702961
31
0.000000000000000
  0
LINE
  5
F10618
330
F10619
100
AcDbEntity
8
Geo
100
AcDbLine
10
-77.9707762082714
20
9.13063664702961
30
0.000000000000000
11
-77.8707762082714
21
8.88013139675381
31
0.000000000000000
  0
LINE
  5
F1061A
330
F1061B
100
AcDbEntity
8
Geo
100
AcDbLine
10
-77.8707762082714
20
8.88013139675381
30
0.000000000000000
11
-77.7707762082714
21
8.62292267886242
31
0.000000000000000
  0
LINE
  5
F1061C
330
F1061D
100
AcDbEntity
8
Geo
100
AcDbLine
10
-77.7707762082714
20
8.62292267886242
30
0.000000000000000
11
-77.6707762082714
21
8.35939149626698
31
0.000000000000000
  0
LINE
  5
F1061E
330
F1061F
100
AcDbEntity
8
Geo
100
AcDbLine
10
-77.6707762082714
20
8.35939149626698
30
0.000000000000000
11
-77.5707762082714
21
8.08992821733712
31
0.000000000000000
  0
LINE
  5
F10620
330
F10621
100
AcDbEntity
8
Geo
100
AcDbLine
10
-77.5707762082714
20
8.08992821733712
30
0.000000000000000
11
-77.4707762082714
21
7.81493199764839
31
0.000000000000000
  0
LINE
  5
F10622
330
F10623
100
AcDbEntity
8
Geo
100
AcDbLine
10
-77.4707762082714
20
7.81493199764839
30
0.000000000000000
11
-77.3707762082714
21
7.53481018871369
31
0.000000000000000
  0
LINE
  5
F10624
330
F10625
100
AcDbEntity
8
Geo
100
AcDbLine
10
-77.3707762082714
20
7.53481018871369
30
0.000000000000000
11
-77.2707762082714
21
7.24997773457408
31
0.000000000000000
  0
LINE
  5
F10626
330
F10627
100
AcDbEntity
8
Geo
100
AcDbLine
10
-77.2707762082714
20
7.24997773457408
30
0.000000000000000
11
-77.1707762082714
21
6.96085655714269
31
0.000000000000000
  0
LINE
  5
F10628
330
F10629
100
AcDbEntity
8
Geo
100
AcDbLine
10
-77.1707762082714
20
6.96085655714269
30
0.000000000000000
11
-77.0707762082714
21
6.66787493121246
31
0.000000000000000
  0
LINE
  5
F1062A
330
F1062B
100
AcDbEntity
8
Geo
100
AcDbLine
10
-77.0707762082714
20
6.66787493121246
30
0.000000000000000
11
-76.9707762082714
21
6.37146685005322
31
0.000000000000000
  0
LINE
  5
F1062C
330
F1062D
100
AcDbEntity
8
Geo
100
AcDbLine
10
-76.9707762082714
20
6.37146685005322
30
0.000000000000000
11
-76.8707762082714
21
6.07207138253812
31
0.000000000000000
  0
LINE
  5
F1062E
330
F1062F
100
AcDbEntity
8
Geo
100
AcDbLine
10
-76.8707762082714
20
6.07207138253812
30
0.000000000000000
11
-76.7707762082714
21
5.77013202275151
31
0.000000000000000
  0
LINE
  5
F10630
330
F10631
100
AcDbEntity
8
Geo
100
AcDbLine
10
-76.7707762082714
20
5.77013202275151
30
0.000000000000000
11
-76.6707762082714
21
5.46609603304180
31
0.000000000000000
  0
LINE
  5
F10632
330
F10633
100
AcDbEntity
8
Geo
100
AcDbLine
10
-76.6707762082714
20
5.46609603304180
30
0.000000000000000
11
-76.5707762082714
21
5.16041378149231
31
0.000000000000000
  0
LINE
  5
F10634
330
F10635
100
AcDbEntity
8
Geo
100
AcDbLine
10
-76.5707762082714
20
5.16041378149231
30
0.000000000000000
11
-76.4707762082714
21
4.85353807479174
31
0.000000000000000
  0
LINE
  5
F10636
330
F10637
100
AcDbEntity
8
Geo
100
AcDbLine
10
-76.4707762082714
20
4.85353807479174
30
0.000000000000000
11
-76.3707762082714
21
4.54592348749221
31
0.000000000000000
  0
LINE
  5
F10638
330
F10639
100
AcDbEntity
8
Geo
100
AcDbLine
10
-76.3707762082714
20
4.54592348749221
30
0.000000000000000
11
-76.2707762082714
21
4.23802568864861
31
0.000000000000000
  0
LINE
  5
F1063A
330
F1063B
100
AcDbEntity
8
Geo
100
AcDbLine
10
-76.2707762082714
20
4.23802568864861
30
0.000000000000000
11
-76.1707762082714
21
3.93030076683674
31
0.000000000000000
  0
LINE
  5
F1063C
330
F1063D
100
AcDbEntity
8
Geo
100
AcDbLine
10
-76.1707762082714
20
3.93030076683674
30
0.000000000000000
11
-76.0707762082714
21
3.62320455454986
31
0.000000000000000
  0
LINE
  5
F1063E
330
F1063F
100
AcDbEntity
8
Geo
100
AcDbLine
10
-76.0707762082714
20
3.62320455454986
30
0.000000000000000
11
-75.9707762082714
21
3.31719195297471
31
0.000000000000000
  0
LINE
  5
F10640
330
F10641
100
AcDbEntity
8
Geo
100
AcDbLine
10
-75.9707762082714
20
3.31719195297471
30
0.000000000000000
11
-75.8707762082714
21
3.01271625814699
31
0.000000000000000
  0
LINE
  5
F10642
330
F10643
100
AcDbEntity
8
Geo
100
AcDbLine
10
-75.8707762082714
20
3.01271625814699
30
0.000000000000000
11
-75.7707762082714
21
2.71022848948463
31
0.000000000000000
  0
LINE
  5
F10644
330
F10645
100
AcDbEntity
8
Geo
100
AcDbLine
10
-75.7707762082714
20
2.71022848948463
30
0.000000000000000
11
-75.6707762082714
21
2.41017672169331
31
0.000000000000000
  0
LINE
  5
F10646
330
F10647
100
AcDbEntity
8
Geo
100
AcDbLine
10
-75.6707762082714
20
2.41017672169331
30
0.000000000000000
11
-75.5707762082714
21
2.11300542103405
31
0.000000000000000
  0
LINE
  5
F10648
330
F10649
100
AcDbEntity
8
Geo
100
AcDbLine
10
-75.5707762082714
20
2.11300542103405
30
0.000000000000000
11
-75.4707762082714
21
1.81915478693598
31
0.000000000000000
  0
LINE
  5
F1064A
330
F1064B
100
AcDbEntity
8
Geo
100
AcDbLine
10
-75.4707762082714
20
1.81915478693598
30
0.000000000000000
11
-75.3707762082714
21
1.52906009992951
31
0.000000000000000
  0
LINE
  5
F1064C
330
F1064D
100
AcDbEntity
8
Geo
100
AcDbLine
10
-75.3707762082714
20
1.52906009992951
30
0.000000000000000
11
-75.2707762082714
21
1.24315107686593
31
0.000000000000000
  0
LINE
  5
F1064E
330
F1064F
100
AcDbEntity
8
Geo
100
AcDbLine
10
-75.2707762082714
20
1.24315107686593
30
0.000000000000000
11
-75.1707762082714
21
0.961851234378412
31
0.000000000000000
  0
LINE
  5
F10650
330
F10651
100
AcDbEntity
8
Geo
100
AcDbLine
10
-75.1707762082714
20
0.961851234378412
30
0.000000000000000
11
-75.0707762082714
21
0.685577261527449
31
0.000000000000000
  0
LINE
  5
F10652
330
F10653
100
AcDbEntity
8
Geo
100
AcDbLine
10
-75.0707762082714
20
0.685577261527449
30
0.000000000000000
11
-74.9707762082714
21
0.414738402559907
31
0.000000000000000
  0
LINE
  5
F10654
330
F10655
100
AcDbEntity
8
Geo
100
AcDbLine
10
-74.9707762082714
20
0.414738402559907
30
0.000000000000000
11
-74.8707762082714
21
0.149735850696118
31
0.000000000000000
  0
LINE
  5
F10656
330
F10657
100
AcDbEntity
8
Geo
100
AcDbLine
10
-74.8707762082714
20
0.149735850696118
30
0.000000000000000
11
-74.7707762082714
21
-0.109037846157095
31
0.000000000000000
  0
LINE
  5
F10658
330
F10659
100
AcDbEntity
8
Geo
100
AcDbLine
10
-74.7707762082714
20
-0.109037846157095
30
0.000000000000000
11
-74.6707762082714
21
-0.361199366887025
31
0.000000000000000
  0
LINE
  5
F1065A
330
F1065B
100
AcDbEntity
8
Geo
100
AcDbLine
10
-74.6707762082714
20
-0.361199366887025
30
0.000000000000000
11
-74.5707762082714
21
-0.606375184988179
31
0.000000000000000
  0
LINE
  5
F1065C
330
F1065D
100
AcDbEntity
8
Geo
100
AcDbLine
10
-74.5707762082714
20
-0.606375184988179
30
0.000000000000000
11
-74.4707762082714
21
-0.844202121866520
31
0.000000000000000
  0
LINE
  5
F1065E
330
F1065F
100
AcDbEntity
8
Geo
100
AcDbLine
10
-74.4707762082714
20
-0.844202121866520
30
0.000000000000000
11
-74.3707762082714
21
-1.07432788481541
31
0.000000000000000
  0
LINE
  5
F10660
330
F10661
100
AcDbEntity
8
Geo
100
AcDbLine
10
-74.3707762082714
20
-1.07432788481541
30
0.000000000000000
11
-74.2707762082714
21
-1.29641158886632
31
0.000000000000000
  0
LINE
  5
F10662
330
F10663
100
AcDbEntity
8
Geo
100
AcDbLine
10
-74.2707762082714
20
-1.29641158886632
30
0.000000000000000
11
-74.1707762082714
21
-1.51012426174121
31
0.000000000000000
  0
LINE
  5
F10664
330
F10665
100
AcDbEntity
8
Geo
100
AcDbLine
10
-74.1707762082714
20
-1.51012426174121
30
0.000000000000000
11
-74.0707762082714
21
-1.71514933115877
31
0.000000000000000
  0
LINE
  5
F10666
330
F10667
100
AcDbEntity
8
Geo
100
AcDbLine
10
-74.0707762082714
20
-1.71514933115877
30
0.000000000000000
11
-73.9707762082714
21
-1.91118309377243
31
0.000000000000000
  0
LINE
  5
F10668
330
F10669
100
AcDbEntity
8
Geo
100
AcDbLine
10
-73.9707762082714
20
-1.91118309377243
30
0.000000000000000
11
-73.8707762082714
21
-2.09793516504574
31
0.000000000000000
  0
LINE
  5
F1066A
330
F1066B
100
AcDbEntity
8
Geo
100
AcDbLine
10
-73.8707762082714
20
-2.09793516504574
30
0.000000000000000
11
-73.7707762082714
21
-2.27512890939853
31
0.000000000000000
  0
LINE
  5
F1066C
330
F1066D
100
AcDbEntity
8
Geo
100
AcDbLine
10
-73.7707762082714
20
-2.27512890939853
30
0.000000000000000
11
-73.6707762082714
21
-2.44250184998687
31
0.000000000000000
  0
LINE
  5
F1066E
330
F1066F
100
AcDbEntity
8
Geo
100
AcDbLine
10
-73.6707762082714
20
-2.44250184998687
30
0.000000000000000
11
-73.5707762082714
21
-2.59980605750960
31
0.000000000000000
  0
LINE
  5
F10670
330
F10671
100
AcDbEntity
8
Geo
100
AcDbLine
10
-73.5707762082714
20
-2.59980605750960
30
0.000000000000000
11
-73.4707762082714
21
-2.74680851746566
31
0.000000000000000
  0
LINE
  5
F10672
330
F10673
100
AcDbEntity
8
Geo
100
AcDbLine
10
-73.4707762082714
20
-2.74680851746566
30
0.000000000000000
11
-73.3707762082714
21
-2.88329147531818
31
0.000000000000000
  0
LINE
  5
F10674
330
F10675
100
AcDbEntity
8
Geo
100
AcDbLine
10
-73.3707762082714
20
-2.88329147531818
30
0.000000000000000
11
-73.2707762082714
21
-3.00905275905390
31
0.000000000000000
  0
LINE
  5
F10676
330
F10677
100
AcDbEntity
8
Geo
100
AcDbLine
10
-73.2707762082714
20
-3.00905275905390
30
0.000000000000000
11
-73.1707762082714
21
-3.12390607866036
31
0.000000000000000
  0
LINE
  5
F10678
330
F10679
100
AcDbEntity
8
Geo
100
AcDbLine
10
-73.1707762082714
20
-3.12390607866036
30
0.000000000000000
11
-73.0707762082714
21
-3.22768130207699
31
0.000000000000000
  0
LINE
  5
F1067A
330
F1067B
100
AcDbEntity
8
Geo
100
AcDbLine
10
-73.0707762082714
20
-3.22768130207699
30
0.000000000000000
11
-72.9707762082714
21
-3.32022470721150
31
0.000000000000000
  0
LINE
  5
F1067C
330
F1067D
100
AcDbEntity
8
Geo
100
AcDbLine
10
-72.9707762082714
20
-3.32022470721150
30
0.000000000000000
11
-72.8707762082714
21
-3.40139920964821
31
0.000000000000000
  0
LINE
  5
F1067E
330
F1067F
100
AcDbEntity
8
Geo
100
AcDbLine
10
-72.8707762082714
20
-3.40139920964821
30
0.000000000000000
11
-72.7707762082714
21
-3.47108456571099
31
0.000000000000000
  0
LINE
  5
F10680
330
F10681
100
AcDbEntity
8
Geo
100
AcDbLine
10
-72.7707762082714
20
-3.47108456571099
30
0.000000000000000
11
-72.6707762082714
21
-3.52917755058004
31
0.000000000000000
  0
LINE
  5
F10682
330
F10683
100
AcDbEntity
8
Geo
100
AcDbLine
10
-72.6707762082714
20
-3.52917755058004
30
0.000000000000000
11
-72.5707762082714
21
-3.57559211119870
31
0.000000000000000
  0
LINE
  5
F10684
330
F10685
100
AcDbEntity
8
Geo
100
AcDbLine
10
-72.5707762082714
20
-3.57559211119870
30
0.000000000000000
11
-72.4707762082714
21
-3.61025949374371
31
0.000000000000000
  0
LINE
  5
F10686
330
F10687
100
AcDbEntity
8
Geo
100
AcDbLine
10
-72.4707762082714
20
-3.61025949374371
30
0.000000000000000
11
-72.3707762082714
21
-3.63312834547011
31
0.000000000000000
  0
LINE
  5
F10688
330
F10689
100
AcDbEntity
8
Geo
100
AcDbLine
10
-72.3707762082714
20
-3.63312834547011
30
0.000000000000000
11
-72.2707762082714
21
-3.64416479078007
31
0.000000000000000
  0
LINE
  5
F1068A
330
F1068B
100
AcDbEntity
8
Geo
100
AcDbLine
10
-84.4707762082714
20
11.3460496836629
30
0.000000000000000
11
-84.3707762082714
21
11.7745438265504
31
0.000000000000000
  0
LINE
  5
F1068C
330
F1068D
100
AcDbEntity
8
Geo
100
AcDbLine
10
-84.4707762082714
20
4.30549170489559
30
0.000000000000000
11
-84.3707762082714
21
4.01972540613354
31
0.000000000000000
  0
LINE
  5
F1068E
330
F1068F
100
AcDbEntity
8
Geo
100
AcDbLine
10
-84.3707762082714
20
11.7745438265504
30
0.000000000000000
11
-84.2707762082714
21
11.9197812119709
31
0.000000000000000
  0
LINE
  5
F10690
330
F10691
100
AcDbEntity
8
Geo
100
AcDbLine
10
-84.3707762082714
20
4.01972540613354
30
0.000000000000000
11
-84.2707762082714
21
3.72183462402134
31
0.000000000000000
  0
LINE
  5
F10692
330
F10693
100
AcDbEntity
8
Geo
100
AcDbLine
10
-84.2707762082714
20
11.9197812119709
30
0.000000000000000
11
-84.1707762082714
21
12.0032066788693
31
0.000000000000000
  0
LINE
  5
F10694
330
F10695
100
AcDbEntity
8
Geo
100
AcDbLine
10
-84.2707762082714
20
3.72183462402134
30
0.000000000000000
11
-84.1707762082714
21
3.41804558274797
31
0.000000000000000
  0
LINE
  5
F10696
330
F10697
100
AcDbEntity
8
Geo
100
AcDbLine
10
-84.1707762082714
20
12.0032066788693
30
0.000000000000000
11
-84.0707762082714
21
12.0463392615759
31
0.000000000000000
  0
LINE
  5
F10698
330
F10699
100
AcDbEntity
8
Geo
100
AcDbLine
10
-84.1707762082714
20
3.41804558274797
30
0.000000000000000
11
-84.0707762082714
21
3.11125568394353
31
0.000000000000000
  0
LINE
  5
F1069A
330
F1069B
100
AcDbEntity
8
Geo
100
AcDbLine
10
-84.0707762082714
20
12.0463392615759
30
0.000000000000000
11
-83.9707762082714
21
12.0575993458304
31
0.000000000000000
  0
LINE
  5
F1069C
330
F1069D
100
AcDbEntity
8
Geo
100
AcDbLine
10
-84.0707762082714
20
3.11125568394353
30
0.000000000000000
11
-83.9707762082714
21
2.80357135504034
31
0.000000000000000
  0
LINE
  5
F1069E
330
F1069F
100
AcDbEntity
8
Geo
100
AcDbLine
10
-83.9707762082714
20
12.0575993458304
30
0.000000000000000
11
-83.8707762082714
21
12.0413540742955
31
0.000000000000000
  0
LINE
  5
F106A0
330
F106A1
100
AcDbEntity
8
Geo
100
AcDbLine
10
-83.9707762082714
20
2.80357135504034
30
0.000000000000000
11
-83.8707762082714
21
2.49675318716819
31
0.000000000000000
  0
LINE
  5
F106A2
330
F106A3
100
AcDbEntity
8
Geo
100
AcDbLine
10
-83.8707762082714
20
12.0413540742955
30
0.000000000000000
11
-83.7707762082714
21
12.0002389030257
31
0.000000000000000
  0
LINE
  5
F106A4
330
F106A5
100
AcDbEntity
8
Geo
100
AcDbLine
10
-83.8707762082714
20
2.49675318716819
30
0.000000000000000
11
-83.7707762082714
21
2.19238250795332
31
0.000000000000000
  0
LINE
  5
F106A6
330
F106A7
100
AcDbEntity
8
Geo
100
AcDbLine
10
-83.7707762082714
20
12.0002389030257
30
0.000000000000000
11
-83.6707762082714
21
11.9360084898466
31
0.000000000000000
  0
LINE
  5
F106A8
330
F106A9
100
AcDbEntity
8
Geo
100
AcDbLine
10
-83.7707762082714
20
2.19238250795332
30
0.000000000000000
11
-83.6707762082714
21
1.89194443508305
31
0.000000000000000
  0
LINE
  5
F106AA
330
F106AB
100
AcDbEntity
8
Geo
100
AcDbLine
10
-83.6707762082714
20
11.9360084898466
30
0.000000000000000
11
-83.5707762082714
21
11.8499132117064
31
0.000000000000000
  0
LINE
  5
F106AC
330
F106AD
100
AcDbEntity
8
Geo
100
AcDbLine
10
-83.6707762082714
20
1.89194443508305
30
0.000000000000000
11
-83.5707762082714
21
1.59687919389756
31
0.000000000000000
  0
LINE
  5
F106AE
330
F106AF
100
AcDbEntity
8
Geo
100
AcDbLine
10
-83.5707762082714
20
11.8499132117064
30
0.000000000000000
11
-83.4707762082714
21
11.7428841347387
31
0.000000000000000
  0
LINE
  5
F106B0
330
F106B1
100
AcDbEntity
8
Geo
100
AcDbLine
10
-83.5707762082714
20
1.59687919389756
30
0.000000000000000
11
-83.4707762082714
21
1.30862131660361
31
0.000000000000000
  0
LINE
  5
F106B2
330
F106B3
100
AcDbEntity
8
Geo
100
AcDbLine
10
-83.4707762082714
20
11.7428841347387
30
0.000000000000000
11
-83.3707762082714
21
11.6201961939035
31
0.000000000000000
  0
LINE
  5
F106B4
330
F106B5
100
AcDbEntity
8
Geo
100
AcDbLine
10
-83.4707762082714
20
1.30862131660361
30
0.000000000000000
11
-83.3707762082714
21
1.02657752135286
31
0.000000000000000
  0
LINE
  5
F106B6
330
F106B7
100
AcDbEntity
8
Geo
100
AcDbLine
10
-83.3707762082714
20
11.6201961939035
30
0.000000000000000
11
-83.2707762082714
21
11.4867459313279
31
0.000000000000000
  0
LINE
  5
F106B8
330
F106B9
100
AcDbEntity
8
Geo
100
AcDbLine
10
-83.3707762082714
20
1.02657752135286
30
0.000000000000000
11
-83.2707762082714
21
0.749463716780921
31
0.000000000000000
  0
LINE
  5
F106BA
330
F106BB
100
AcDbEntity
8
Geo
100
AcDbLine
10
-83.2707762082714
20
11.4867459313279
30
0.000000000000000
11
-83.1707762082714
21
11.3427310266979
31
0.000000000000000
  0
LINE
  5
F106BC
330
F106BD
100
AcDbEntity
8
Geo
100
AcDbLine
10
-83.2707762082714
20
0.749463716780921
30
0.000000000000000
11
-83.1707762082714
21
0.477690391176218
31
0.000000000000000
  0
LINE
  5
F106BE
330
F106BF
100
AcDbEntity
8
Geo
100
AcDbLine
10
-83.1707762082714
20
11.3427310266979
30
0.000000000000000
11
-83.0707762082714
21
11.1883648090888
31
0.000000000000000
  0
LINE
  5
F106C0
330
F106C1
100
AcDbEntity
8
Geo
100
AcDbLine
10
-83.1707762082714
20
0.477690391176218
30
0.000000000000000
11
-83.0707762082714
21
0.211660121983197
31
0.000000000000000
  0
LINE
  5
F106C2
330
F106C3
100
AcDbEntity
8
Geo
100
AcDbLine
10
-83.0707762082714
20
11.1883648090888
30
0.000000000000000
11
-82.9707762082714
21
11.0238759409615
31
0.000000000000000
  0
LINE
  5
F106C4
330
F106C5
100
AcDbEntity
8
Geo
100
AcDbLine
10
-83.0707762082714
20
0.211660121983197
30
0.000000000000000
11
-82.9707762082714
21
-0.0482330205350801
31
0.000000000000000
  0
LINE
  5
F106C6
330
F106C7
100
AcDbEntity
8
Geo
100
AcDbLine
10
-82.9707762082714
20
11.0238759409615
30
0.000000000000000
11
-82.8707762082714
21
10.8495080794446
31
0.000000000000000
  0
LINE
  5
F106C8
330
F106C9
100
AcDbEntity
8
Geo
100
AcDbLine
10
-82.9707762082714
20
-0.0482330205350801
30
0.000000000000000
11
-82.8707762082714
21
-0.301604057032637
31
0.000000000000000
  0
LINE
  5
F106CA
330
F106CB
100
AcDbEntity
8
Geo
100
AcDbLine
10
-82.8707762082714
20
10.8495080794446
30
0.000000000000000
11
-82.7707762082714
21
10.6655195154058
31
0.000000000000000
  0
LINE
  5
F106CC
330
F106CD
100
AcDbEntity
8
Geo
100
AcDbLine
10
-82.8707762082714
20
-0.301604057032637
30
0.000000000000000
11
-82.7707762082714
21
-0.548077669349973
31
0.000000000000000
  0
LINE
  5
F106CE
330
F106CF
100
AcDbEntity
8
Geo
100
AcDbLine
10
-82.7707762082714
20
10.6655195154058
30
0.000000000000000
11
-82.6707762082714
21
10.4721827908458
31
0.000000000000000
  0
LINE
  5
F106D0
330
F106D1
100
AcDbEntity
8
Geo
100
AcDbLine
10
-82.7707762082714
20
-0.548077669349973
30
0.000000000000000
11
-82.6707762082714
21
-0.787288756472302
31
0.000000000000000
  0
LINE
  5
F106D2
330
F106D3
100
AcDbEntity
8
Geo
100
AcDbLine
10
-82.6707762082714
20
10.4721827908458
30
0.000000000000000
11
-82.5707762082714
21
10.2697842951824
31
0.000000000000000
  0
LINE
  5
F106D4
330
F106D5
100
AcDbEntity
8
Geo
100
AcDbLine
10
-82.6707762082714
20
-0.787288756472302
30
0.000000000000000
11
-82.5707762082714
21
-1.01888297535318
31
0.000000000000000
  0
LINE
  5
F106D6
330
F106D7
100
AcDbEntity
8
Geo
100
AcDbLine
10
-82.5707762082714
20
10.2697842951824
30
0.000000000000000
11
-82.4707762082714
21
10.0586238410223
31
0.000000000000000
  0
LINE
  5
F106D8
330
F106D9
100
AcDbEntity
8
Geo
100
AcDbLine
10
-82.5707762082714
20
-1.01888297535318
30
0.000000000000000
11
-82.4707762082714
21
-1.24251726580237
31
0.000000000000000
  0
LINE
  5
F106DA
330
F106DB
100
AcDbEntity
8
Geo
100
AcDbLine
10
-82.4707762082714
20
10.0586238410223
30
0.000000000000000
11
-82.3707762082714
21
9.83901422004865
31
0.000000000000000
  0
LINE
  5
F106DC
330
F106DD
100
AcDbEntity
8
Geo
100
AcDbLine
10
-82.4707762082714
20
-1.24251726580237
30
0.000000000000000
11
-82.3707762082714
21
-1.45786035866039
31
0.000000000000000
  0
LINE
  5
F106DE
330
F106DF
100
AcDbEntity
8
Geo
100
AcDbLine
10
-82.3707762082714
20
9.83901422004865
30
0.000000000000000
11
-82.2707762082714
21
9.61128073968383
31
0.000000000000000
  0
LINE
  5
F106E0
330
F106E1
100
AcDbEntity
8
Geo
100
AcDbLine
10
-82.3707762082714
20
-1.45786035866039
30
0.000000000000000
11
-82.2707762082714
21
-1.66459326650711
31
0.000000000000000
  0
LINE
  5
F106E2
330
F106E3
100
AcDbEntity
8
Geo
100
AcDbLine
10
-82.2707762082714
20
9.61128073968383
30
0.000000000000000
11
-82.1707762082714
21
9.37576074121151
31
0.000000000000000
  0
LINE
  5
F106E4
330
F106E5
100
AcDbEntity
8
Geo
100
AcDbLine
10
-82.2707762082714
20
-1.66459326650711
30
0.000000000000000
11
-82.1707762082714
21
-1.86240975617728
31
0.000000000000000
  0
LINE
  5
F106E6
330
F106E7
100
AcDbEntity
8
Geo
100
AcDbLine
10
-82.1707762082714
20
9.37576074121151
30
0.000000000000000
11
-82.0707762082714
21
9.13280310007372
31
0.000000000000000
  0
LINE
  5
F106E8
330
F106E9
100
AcDbEntity
8
Geo
100
AcDbLine
10
-82.1707762082714
20
-1.86240975617728
30
0.000000000000000
11
-82.0707762082714
21
-2.05101680238339
31
0.000000000000000
  0
LINE
  5
F106EA
330
F106EB
100
AcDbEntity
8
Geo
100
AcDbLine
10
-82.0707762082714
20
9.13280310007372
30
0.000000000000000
11
-81.9707762082714
21
8.88276770908208
31
0.000000000000000
  0
LINE
  5
F106EC
330
F106ED
100
AcDbEntity
8
Geo
100
AcDbLine
10
-82.0707762082714
20
-2.05101680238339
30
0.000000000000000
11
-81.9707762082714
21
-2.23013502177351
31
0.000000000000000
  0
LINE
  5
F106EE
330
F106EF
100
AcDbEntity
8
Geo
100
AcDbLine
10
-81.9707762082714
20
8.88276770908208
30
0.000000000000000
11
-81.8707762082714
21
8.62602494530911
31
0.000000000000000
  0
LINE
  5
F106F0
330
F106F1
100
AcDbEntity
8
Geo
100
AcDbLine
10
-81.9707762082714
20
-2.23013502177351
30
0.000000000000000
11
-81.8707762082714
21
-2.39949908678155
31
0.000000000000000
  0
LINE
  5
F106F2
330
F106F3
100
AcDbEntity
8
Geo
100
AcDbLine
10
-81.8707762082714
20
8.62602494530911
30
0.000000000000000
11
-81.7707762082714
21
8.36295512144918
31
0.000000000000000
  0
LINE
  5
F106F4
330
F106F5
100
AcDbEntity
8
Geo
100
AcDbLine
10
-81.8707762082714
20
-2.39949908678155
30
0.000000000000000
11
-81.7707762082714
21
-2.55885811865655
31
0.000000000000000
  0
LINE
  5
F106F6
330
F106F7
100
AcDbEntity
8
Geo
100
AcDbLine
10
-81.7707762082714
20
8.36295512144918
30
0.000000000000000
11
-81.6707762082714
21
8.09394792246186
31
0.000000000000000
  0
LINE
  5
F106F8
330
F106F9
100
AcDbEntity
8
Geo
100
AcDbLine
10
-81.7707762082714
20
-2.55885811865655
30
0.000000000000000
11
-81.6707762082714
21
-2.70797605908904
31
0.000000000000000
  0
LINE
  5
F106FA
330
F106FB
100
AcDbEntity
8
Geo
100
AcDbLine
10
-81.6707762082714
20
8.09394792246186
30
0.000000000000000
11
-81.5707762082714
21
7.81940182833212
31
0.000000000000000
  0
LINE
  5
F106FC
330
F106FD
100
AcDbEntity
8
Geo
100
AcDbLine
10
-81.6707762082714
20
-2.70797605908904
30
0.000000000000000
11
-81.5707762082714
21
-2.84663201988387
31
0.000000000000000
  0
LINE
  5
F106FE
330
F106FF
100
AcDbEntity
8
Geo
100
AcDbLine
10
-81.5707762082714
20
7.81940182833212
30
0.000000000000000
11
-81.4707762082714
21
7.53972352380253
31
0.000000000000000
  0
LINE
  5
F10700
330
F10701
100
AcDbEntity
8
Geo
100
AcDbLine
10
-81.5707762082714
20
-2.84663201988387
30
0.000000000000000
11
-81.4707762082714
21
-2.97462061016162
31
0.000000000000000
  0
LINE
  5
F10702
330
F10703
100
AcDbEntity
8
Geo
100
AcDbLine
10
-81.4707762082714
20
7.53972352380253
30
0.000000000000000
11
-81.3707762082714
21
7.25532729595168
31
0.000000000000000
  0
LINE
  5
F10704
330
F10705
100
AcDbEntity
8
Geo
100
AcDbLine
10
-81.4707762082714
20
-2.97462061016162
30
0.000000000000000
11
-81.3707762082714
21
-3.09175224060376
31
0.000000000000000
  0
LINE
  5
F10706
330
F10707
100
AcDbEntity
8
Geo
100
AcDbLine
10
-81.3707762082714
20
7.25532729595168
30
0.000000000000000
11
-81.2707762082714
21
6.96663442051131
31
0.000000000000000
  0
LINE
  5
F10708
330
F10709
100
AcDbEntity
8
Geo
100
AcDbLine
10
-81.3707762082714
20
-3.09175224060376
30
0.000000000000000
11
-81.2707762082714
21
-3.19785340429109
31
0.000000000000000
  0
LINE
  5
F1070A
330
F1070B
100
AcDbEntity
8
Geo
100
AcDbLine
10
-81.2707762082714
20
6.96663442051131
30
0.000000000000000
11
-81.1707762082714
21
6.67407253783123
31
0.000000000000000
  0
LINE
  5
F1070C
330
F1070D
100
AcDbEntity
8
Geo
100
AcDbLine
10
-81.2707762082714
20
-3.19785340429109
30
0.000000000000000
11
-81.1707762082714
21
-3.29276693371929
31
0.000000000000000
  0
LINE
  5
F1070E
330
F1070F
100
AcDbEntity
8
Geo
100
AcDbLine
10
-81.1707762082714
20
6.67407253783123
30
0.000000000000000
11
-81.0707762082714
21
6.37807501941619
31
0.000000000000000
  0
LINE
  5
F10710
330
F10711
100
AcDbEntity
8
Geo
100
AcDbLine
10
-81.1707762082714
20
-3.29276693371929
30
0.000000000000000
11
-81.0707762082714
21
-3.37635223361089
31
0.000000000000000
  0
LINE
  5
F10712
330
F10713
100
AcDbEntity
8
Geo
100
AcDbLine
10
-81.0707762082714
20
6.37807501941619
30
0.000000000000000
11
-80.9707762082714
21
6.07908032597332
31
0.000000000000000
  0
LINE
  5
F10714
330
F10715
100
AcDbEntity
8
Geo
100
AcDbLine
10
-81.0707762082714
20
-3.37635223361089
30
0.000000000000000
11
-80.9707762082714
21
-3.44848548917888
31
0.000000000000000
  0
LINE
  5
F10716
330
F10717
100
AcDbEntity
8
Geo
100
AcDbLine
10
-80.9707762082714
20
6.07908032597332
30
0.000000000000000
11
-80.8707762082714
21
5.77753135792091
31
0.000000000000000
  0
LINE
  5
F10718
330
F10719
100
AcDbEntity
8
Geo
100
AcDbLine
10
-80.9707762082714
20
-3.44848548917888
30
0.000000000000000
11
-80.8707762082714
21
-3.50905984953338
31
0.000000000000000
  0
LINE
  5
F1071A
330
F1071B
100
AcDbEntity
8
Geo
100
AcDbLine
10
-80.8707762082714
20
5.77753135792091
30
0.000000000000000
11
-80.7707762082714
21
5.47387479932062
31
0.000000000000000
  0
LINE
  5
F1071C
330
F1071D
100
AcDbEntity
8
Geo
100
AcDbLine
10
-80.8707762082714
20
-3.50905984953338
30
0.000000000000000
11
-80.7707762082714
21
-3.55798558595972
31
0.000000000000000
  0
LINE
  5
F1071E
330
F1071F
100
AcDbEntity
8
Geo
100
AcDbLine
10
-80.7707762082714
20
5.47387479932062
30
0.000000000000000
11
-80.6707762082714
21
5.16856045620502
31
0.000000000000000
  0
LINE
  5
F10720
330
F10721
100
AcDbEntity
8
Geo
100
AcDbLine
10
-80.7707762082714
20
-3.55798558595972
30
0.000000000000000
11
-80.6707762082714
21
-3.59519022483344
31
0.000000000000000
  0
LINE
  5
F10722
330
F10723
100
AcDbEntity
8
Geo
100
AcDbLine
10
-80.6707762082714
20
5.16856045620502
30
0.000000000000000
11
-80.5707762082714
21
4.86204059028056
31
0.000000000000000
  0
LINE
  5
F10724
330
F10725
100
AcDbEntity
8
Geo
100
AcDbLine
10
-80.6707762082714
20
-3.59519022483344
30
0.000000000000000
11
-80.5707762082714
21
-3.62061865497538
31
0.000000000000000
  0
LINE
  5
F10726
330
F10727
100
AcDbEntity
8
Geo
100
AcDbLine
10
-80.5707762082714
20
4.86204059028056
30
0.000000000000000
11
-80.4707762082714
21
4.55476924899292
31
0.000000000000000
  0
LINE
  5
F10728
330
F10729
100
AcDbEntity
8
Geo
100
AcDbLine
10
-80.5707762082714
20
-3.62061865497538
30
0.000000000000000
11
-80.4707762082714
21
-3.63423320928777
31
0.000000000000000
  0
LINE
  5
F1072A
330
F1072B
100
AcDbEntity
8
Geo
100
AcDbLine
10
-80.4707762082714
20
4.55476924899292
30
0.000000000000000
11
-80.3707762082714
21
4.24720159294717
31
0.000000000000000
  0
LINE
  5
F1072C
330
F1072D
100
AcDbEntity
8
Geo
100
AcDbLine
10
-80.3707762082714
20
4.24720159294717
30
0.000000000000000
11
-80.2707762082714
21
3.93979322167903
31
0.000000000000000
  0
LINE
  5
F1072E
330
F1072F
100
AcDbEntity
8
Geo
100
AcDbLine
10
-80.3707762082714
20
12.3454779056429
30
0.000000000000000
11
-80.2707762082714
21
12.3354217363871
31
0.000000000000000
  0
LINE
  5
F10730
330
F10731
100
AcDbEntity
8
Geo
100
AcDbLine
10
-80.2707762082714
20
3.93979322167903
30
0.000000000000000
11
-80.1707762082714
21
3.63299949877590
31
0.000000000000000
  0
LINE
  5
F10732
330
F10733
100
AcDbEntity
8
Geo
100
AcDbLine
10
-80.2707762082714
20
12.3354217363871
30
0.000000000000000
11
-80.1707762082714
21
12.3135437828022
31
0.000000000000000
  0
LINE
  5
F10734
330
F10735
100
AcDbEntity
8
Geo
100
AcDbLine
10
-80.1707762082714
20
3.63299949877590
30
0.000000000000000
11
-80.0707762082714
21
3.32727487734739
31
0.000000000000000
  0
LINE
  5
F10736
330
F10737
100
AcDbEntity
8
Geo
100
AcDbLine
10
-80.1707762082714
20
12.3135437828022
30
0.000000000000000
11
-80.0707762082714
21
12.2798764526700
31
0.000000000000000
  0
LINE
  5
F10738
330
F10739
100
AcDbEntity
8
Geo
100
AcDbLine
10
-80.0707762082714
20
3.32727487734739
30
0.000000000000000
11
-79.9707762082714
21
3.02307222684466
31
0.000000000000000
  0
LINE
  5
F1073A
330
F1073B
100
AcDbEntity
8
Geo
100
AcDbLine
10
-80.0707762082714
20
12.2798764526700
30
0.000000000000000
11
-79.9707762082714
21
12.2344696173592
31
0.000000000000000
  0
LINE
  5
F1073C
330
F1073D
100
AcDbEntity
8
Geo
100
AcDbLine
10
-79.9707762082714
20
3.02307222684466
30
0.000000000000000
11
-79.8707762082714
21
2.72084216222544
31
0.000000000000000
  0
LINE
  5
F1073E
330
F1073F
100
AcDbEntity
8
Geo
100
AcDbLine
10
-79.9707762082714
20
12.2344696173592
30
0.000000000000000
11
-79.8707762082714
21
12.1773905379510
31
0.000000000000000
  0
LINE
  5
F10740
330
F10741
100
AcDbEntity
8
Geo
100
AcDbLine
10
-79.8707762082714
20
2.72084216222544
30
0.000000000000000
11
-79.7707762082714
21
2.42103237645877
31
0.000000000000000
  0
LINE
  5
F10742
330
F10743
100
AcDbEntity
8
Geo
100
AcDbLine
10
-79.8707762082714
20
12.1773905379510
30
0.000000000000000
11
-79.7707762082714
21
12.1087237656053
31
0.000000000000000
  0
LINE
  5
F10744
330
F10745
100
AcDbEntity
8
Geo
100
AcDbLine
10
-79.7707762082714
20
2.42103237645877
30
0.000000000000000
11
-79.6707762082714
21
2.12408697735805
31
0.000000000000000
  0
LINE
  5
F10746
330
F10747
100
AcDbEntity
8
Geo
100
AcDbLine
10
-79.7707762082714
20
12.1087237656053
30
0.000000000000000
11
-79.6707762082714
21
12.0285710163153
31
0.000000000000000
  0
LINE
  5
F10748
330
F10749
100
AcDbEntity
8
Geo
100
AcDbLine
10
-79.6707762082714
20
2.12408697735805
30
0.000000000000000
11
-79.5707762082714
21
1.83044582972474
31
0.000000000000000
  0
LINE
  5
F1074A
330
F1074B
100
AcDbEntity
8
Geo
100
AcDbLine
10
-79.6707762082714
20
12.0285710163153
30
0.000000000000000
11
-79.5707762082714
21
11.9370510202356
31
0.000000000000000
  0
LINE
  5
F1074C
330
F1074D
100
AcDbEntity
8
Geo
100
AcDbLine
10
-79.5707762082714
20
1.83044582972474
30
0.000000000000000
11
-79.4707762082714
21
1.54054390377725
31
0.000000000000000
  0
LINE
  5
F1074E
330
F1074F
100
AcDbEntity
8
Geo
100
AcDbLine
10
-79.5707762082714
20
11.9370510202356
30
0.000000000000000
11
-79.4707762082714
21
11.8342993458076
31
0.000000000000000
  0
LINE
  5
F10750
330
F10751
100
AcDbEntity
8
Geo
100
AcDbLine
10
-79.4707762082714
20
1.54054390377725
30
0.000000000000000
11
-79.3707762082714
21
1.25481063083019
31
0.000000000000000
  0
LINE
  5
F10752
330
F10753
100
AcDbEntity
8
Geo
100
AcDbLine
10
-79.4707762082714
20
11.8342993458076
30
0.000000000000000
11
-79.3707762082714
21
11.7204681989417
31
0.000000000000000
  0
LINE
  5
F10754
330
F10755
100
AcDbEntity
8
Geo
100
AcDbLine
10
-79.3707762082714
20
1.25481063083019
30
0.000000000000000
11
-79.2707762082714
21
0.973669267178328
31
0.000000000000000
  0
LINE
  5
F10756
330
F10757
100
AcDbEntity
8
Geo
100
AcDbLine
10
-79.3707762082714
20
11.7204681989417
30
0.000000000000000
11
-79.2707762082714
21
11.5957261975557
31
0.000000000000000
  0
LINE
  5
F10758
330
F10759
100
AcDbEntity
8
Geo
100
AcDbLine
10
-79.2707762082714
20
0.973669267178328
30
0.000000000000000
11
-79.1707762082714
21
0.697536267127675
31
0.000000000000000
  0
LINE
  5
F1075A
330
F1075B
100
AcDbEntity
8
Geo
100
AcDbLine
10
-79.2707762082714
20
11.5957261975557
30
0.000000000000000
11
-79.1707762082714
21
11.4602581218003
31
0.000000000000000
  0
LINE
  5
F1075C
330
F1075D
100
AcDbEntity
8
Geo
100
AcDbLine
10
-79.1707762082714
20
0.697536267127675
30
0.000000000000000
11
-79.0707762082714
21
0.426820666102293
31
0.000000000000000
  0
LINE
  5
F1075E
330
F1075F
100
AcDbEntity
8
Geo
100
AcDbLine
10
-79.1707762082714
20
11.4602581218003
30
0.000000000000000
11
-79.0707762082714
21
11.3142646403455
31
0.000000000000000
  0
LINE
  5
F10760
330
F10761
100
AcDbEntity
8
Geo
100
AcDbLine
10
-79.0707762082714
20
0.426820666102293
30
0.000000000000000
11
-78.9707762082714
21
0.161923474740694
31
0.000000000000000
  0
LINE
  5
F10762
330
F10763
100
AcDbEntity
8
Geo
100
AcDbLine
10
-79.0707762082714
20
11.3142646403455
30
0.000000000000000
11
-78.9707762082714
21
11.1579620131297
31
0.000000000000000
  0
LINE
  5
F10764
330
F10765
100
AcDbEntity
8
Geo
100
AcDbLine
10
-78.9707762082714
20
0.161923474740694
30
0.000000000000000
11
-78.8707762082714
21
-0.0967629151206477
31
0.000000000000000
  0
LINE
  5
F10766
330
F10767
100
AcDbEntity
8
Geo
100
AcDbLine
10
-78.9707762082714
20
11.1579620131297
30
0.000000000000000
11
-78.8707762082714
21
10.9915817710144
31
0.000000000000000
  0
LINE
  5
F10768
330
F10769
100
AcDbEntity
8
Geo
100
AcDbLine
10
-78.8707762082714
20
-0.0967629151206477
30
0.000000000000000
11
-78.7707762082714
21
-0.348855311696775
31
0.000000000000000
  0
LINE
  5
F1076A
330
F1076B
100
AcDbEntity
8
Geo
100
AcDbLine
10
-78.8707762082714
20
10.9915817710144
30
0.000000000000000
11
-78.7707762082714
21
10.8153703728180
31
0.000000000000000
  0
LINE
  5
F1076C
330
F1076D
100
AcDbEntity
8
Geo
100
AcDbLine
10
-78.7707762082714
20
-0.348855311696775
30
0.000000000000000
11
-78.6707762082714
21
-0.593980290875694
31
0.000000000000000
  0
LINE
  5
F1076E
330
F1076F
100
AcDbEntity
8
Geo
100
AcDbLine
10
-78.7707762082714
20
10.8153703728180
30
0.000000000000000
11
-78.6707762082714
21
10.6295888402364
31
0.000000000000000
  0
LINE
  5
F10770
330
F10771
100
AcDbEntity
8
Geo
100
AcDbLine
10
-78.6707762082714
20
-0.593980290875694
30
0.000000000000000
11
-78.5707762082714
21
-0.831774749370990
31
0.000000000000000
  0
LINE
  5
F10772
330
F10773
100
AcDbEntity
8
Geo
100
AcDbLine
10
-78.6707762082714
20
10.6295888402364
30
0.000000000000000
11
-78.5707762082714
21
10.4345123711922
31
0.000000000000000
  0
LINE
  5
F10774
330
F10775
100
AcDbEntity
8
Geo
100
AcDbLine
10
-78.5707762082714
20
-0.831774749370990
30
0.000000000000000
11
-78.4707762082714
21
-1.06188644258621
31
0.000000000000000
  0
LINE
  5
F10776
330
F10777
100
AcDbEntity
8
Geo
100
AcDbLine
10
-78.5707762082714
20
10.4345123711922
30
0.000000000000000
11
-78.4707762082714
21
10.2304299321842
31
0.000000000000000
  0
LINE
  5
F10778
330
F10779
100
AcDbEntity
8
Geo
100
AcDbLine
10
-78.4707762082714
20
-1.06188644258621
30
0.000000000000000
11
-78.3707762082714
21
-1.28397450639430
31
0.000000000000000
  0
LINE
  5
F1077A
330
F1077B
100
AcDbEntity
8
Geo
100
AcDbLine
10
-78.4707762082714
20
10.2304299321842
30
0.000000000000000
11
-78.3707762082714
21
10.0176438302419
31
0.000000000000000
  0
LINE
  5
F1077C
330
F1077D
100
AcDbEntity
8
Geo
100
AcDbLine
10
-78.3707762082714
20
-1.28397450639430
30
0.000000000000000
11
-78.2707762082714
21
-1.49770996205913
31
0.000000000000000
  0
LINE
  5
F1077E
330
F1077F
100
AcDbEntity
8
Geo
100
AcDbLine
10
-78.3707762082714
20
10.0176438302419
30
0.000000000000000
11
-78.2707762082714
21
9.79646926511834
31
0.000000000000000
  0
LINE
  5
F10780
330
F10781
100
AcDbEntity
8
Geo
100
AcDbLine
10
-78.2707762082714
20
-1.49770996205913
30
0.000000000000000
11
-78.1707762082714
21
-1.70277620355125
31
0.000000000000000
  0
LINE
  5
F10782
330
F10783
100
AcDbEntity
8
Geo
100
AcDbLine
10
-78.2707762082714
20
9.79646926511834
30
0.000000000000000
11
-78.1707762082714
21
9.56723386238542
31
0.000000000000000
  0
LINE
  5
F10784
330
F10785
100
AcDbEntity
8
Geo
100
AcDbLine
10
-78.1707762082714
20
-1.70277620355125
30
0.000000000000000
11
-78.0707762082714
21
-1.89886946653597
31
0.000000000000000
  0
LINE
  5
F10786
330
F10787
100
AcDbEntity
8
Geo
100
AcDbLine
10
-78.1707762082714
20
9.56723386238542
30
0.000000000000000
11
-78.0707762082714
21
9.33027718812231
31
0.000000000000000
  0
LINE
  5
F10788
330
F10789
100
AcDbEntity
8
Geo
100
AcDbLine
10
-78.0707762082714
20
-1.89886946653597
30
0.000000000000000
11
-77.9707762082714
21
-2.08569927833902
31
0.000000000000000
  0
LINE
  5
F1078A
330
F1078B
100
AcDbEntity
8
Geo
100
AcDbLine
10
-78.0707762082714
20
9.33027718812231
30
0.000000000000000
11
-77.9707762082714
21
9.08595024591685
31
0.000000000000000
  0
LINE
  5
F1078C
330
F1078D
100
AcDbEntity
8
Geo
100
AcDbLine
10
-77.9707762082714
20
-2.08569927833902
30
0.000000000000000
11
-77.8707762082714
21
-2.26298888822330
31
0.000000000000000
  0
LINE
  5
F1078E
330
F1078F
100
AcDbEntity
8
Geo
100
AcDbLine
10
-77.9707762082714
20
9.08595024591685
30
0.000000000000000
11
-77.8707762082714
21
8.83461495692442
31
0.000000000000000
  0
LINE
  5
F10790
330
F10791
100
AcDbEntity
8
Geo
100
AcDbLine
10
-77.8707762082714
20
-2.26298888822330
30
0.000000000000000
11
-77.7707762082714
21
-2.43047567733940
31
0.000000000000000
  0
LINE
  5
F10792
330
F10793
100
AcDbEntity
8
Geo
100
AcDbLine
10
-77.8707762082714
20
8.83461495692442
30
0.000000000000000
11
-77.7707762082714
21
8.57664362375460
31
0.000000000000000
  0
LINE
  5
F10794
330
F10795
100
AcDbEntity
8
Geo
100
AcDbLine
10
-77.7707762082714
20
-2.43047567733940
30
0.000000000000000
11
-77.6707762082714
21
-2.58791154774250
31
0.000000000000000
  0
LINE
  5
F10796
330
F10797
100
AcDbEntity
8
Geo
100
AcDbLine
10
-77.7707762082714
20
8.57664362375460
30
0.000000000000000
11
-77.6707762082714
21
8.31241837897990
31
0.000000000000000
  0
LINE
  5
F10798
330
F10799
100
AcDbEntity
8
Geo
100
AcDbLine
10
-77.6707762082714
20
-2.58791154774250
30
0.000000000000000
11
-77.5707762082714
21
-2.73506328989949
31
0.000000000000000
  0
LINE
  5
F1079A
330
F1079B
100
AcDbEntity
8
Geo
100
AcDbLine
10
-77.6707762082714
20
8.31241837897990
30
0.000000000000000
11
-77.5707762082714
21
8.04233061908325
31
0.000000000000000
  0
LINE
  5
F1079C
330
F1079D
100
AcDbEntity
8
Geo
100
AcDbLine
10
-77.5707762082714
20
-2.73506328989949
30
0.000000000000000
11
-77.4707762082714
21
-2.87171292814199
31
0.000000000000000
  0
LINE
  5
F1079E
330
F1079F
100
AcDbEntity
8
Geo
100
AcDbLine
10
-77.5707762082714
20
8.04233061908325
30
0.000000000000000
11
-77.4707762082714
21
7.76678042468298
31
0.000000000000000
  0
LINE
  5
F107A0
330
F107A1
100
AcDbEntity
8
Geo
100
AcDbLine
10
-77.4707762082714
20
-2.87171292814199
30
0.000000000000000
11
-77.3707762082714
21
-2.99765804355331
31
0.000000000000000
  0
LINE
  5
F107A2
330
F107A3
100
AcDbEntity
8
Geo
100
AcDbLine
10
-77.4707762082714
20
7.76678042468298
30
0.000000000000000
11
-77.3707762082714
21
7.48617596789397
31
0.000000000000000
  0
LINE
  5
F107A4
330
F107A5
100
AcDbEntity
8
Geo
100
AcDbLine
10
-77.3707762082714
20
-2.99765804355331
30
0.000000000000000
11
-77.2707762082714
21
-3.11271207381140
31
0.000000000000000
  0
LINE
  5
F107A6
330
F107A7
100
AcDbEntity
8
Geo
100
AcDbLine
10
-77.3707762082714
20
7.48617596789397
30
0.000000000000000
11
-77.2707762082714
21
7.20093290770284
31
0.000000000000000
  0
LINE
  5
F107A8
330
F107A9
100
AcDbEntity
8
Geo
100
AcDbLine
10
-77.2707762082714
20
-3.11271207381140
30
0.000000000000000
11
-77.1707762082714
21
-3.21670458954328
31
0.000000000000000
  0
LINE
  5
F107AA
330
F107AB
100
AcDbEntity
8
Geo
100
AcDbLine
10
-77.2707762082714
20
7.20093290770284
30
0.000000000000000
11
-77.1707762082714
21
6.91147377425290
31
0.000000000000000
  0
LINE
  5
F107AC
330
F107AD
100
AcDbEntity
8
Geo
100
AcDbLine
10
-77.1707762082714
20
-3.21670458954328
30
0.000000000000000
11
-77.0707762082714
21
-3.30948154678184
31
0.000000000000000
  0
LINE
  5
F107AE
330
F107AF
100
AcDbEntity
8
Geo
100
AcDbLine
10
-77.1707762082714
20
6.91147377425290
30
0.000000000000000
11
-77.0707762082714
21
6.61822734295086
31
0.000000000000000
  0
LINE
  5
F107B0
330
F107B1
100
AcDbEntity
8
Geo
100
AcDbLine
10
-77.0707762082714
20
-3.30948154678184
30
0.000000000000000
11
-76.9707762082714
21
-3.39090551515103
31
0.000000000000000
  0
LINE
  5
F107B2
330
F107B3
100
AcDbEntity
8
Geo
100
AcDbLine
10
-77.0707762082714
20
6.61822734295086
30
0.000000000000000
11
-76.9707762082714
21
6.32162799932238
31
0.000000000000000
  0
LINE
  5
F107B4
330
F107B5
100
AcDbEntity
8
Geo
100
AcDbLine
10
-76.9707762082714
20
-3.39090551515103
30
0.000000000000000
11
-76.8707762082714
21
-3.46085588144115
31
0.000000000000000
  0
LINE
  5
F107B6
330
F107B7
100
AcDbEntity
8
Geo
100
AcDbLine
10
-76.9707762082714
20
6.32162799932238
30
0.000000000000000
11
-76.8707762082714
21
6.02211509555744
31
0.000000000000000
  0
LINE
  5
F107B8
330
F107B9
100
AcDbEntity
8
Geo
100
AcDbLine
10
-76.8707762082714
20
-3.46085588144115
30
0.000000000000000
11
-76.7707762082714
21
-3.51922902827316
31
0.000000000000000
  0
LINE
  5
F107BA
330
F107BB
100
AcDbEntity
8
Geo
100
AcDbLine
10
-76.8707762082714
20
6.02211509555744
30
0.000000000000000
11
-76.7707762082714
21
5.72013229969853
31
0.000000000000000
  0
LINE
  5
F107BC
330
F107BD
100
AcDbEntity
8
Geo
100
AcDbLine
10
-76.7707762082714
20
-3.51922902827316
30
0.000000000000000
11
-76.6707762082714
21
-3.56593848758686
31
0.000000000000000
  0
LINE
  5
F107BE
330
F107BF
100
AcDbEntity
8
Geo
100
AcDbLine
10
-76.7707762082714
20
5.72013229969853
30
0.000000000000000
11
-76.6707762082714
21
5.41612693843585
31
0.000000000000000
  0
LINE
  5
F107C0
330
F107C1
100
AcDbEntity
8
Geo
100
AcDbLine
10
-76.6707762082714
20
-3.56593848758686
30
0.000000000000000
11
-76.5707762082714
21
-3.60091506872596
31
0.000000000000000
  0
LINE
  5
F107C2
330
F107C3
100
AcDbEntity
8
Geo
100
AcDbLine
10
-76.6707762082714
20
5.41612693843585
30
0.000000000000000
11
-76.5707762082714
21
5.11054933448286
31
0.000000000000000
  0
LINE
  5
F107C4
330
F107C5
100
AcDbEntity
8
Geo
100
AcDbLine
10
-76.5707762082714
20
-3.60091506872596
30
0.000000000000000
11
-76.4707762082714
21
-3.62410696093008
31
0.000000000000000
  0
LINE
  5
F107C6
330
F107C7
100
AcDbEntity
8
Geo
100
AcDbLine
10
-76.5707762082714
20
5.11054933448286
30
0.000000000000000
11
-76.4707762082714
21
4.80385213951391
31
0.000000000000000
  0
LINE
  5
F107C8
330
F107C9
100
AcDbEntity
8
Geo
100
AcDbLine
10
-76.4707762082714
20
-3.62410696093008
30
0.000000000000000
11
-76.3707762082714
21
-3.63547981008196
31
0.000000000000000
  0
LINE
  5
F107CA
330
F107CB
100
AcDbEntity
8
Geo
100
AcDbLine
10
-76.4707762082714
20
4.80385213951391
30
0.000000000000000
11
-76.3707762082714
21
4.49648966365194
31
0.000000000000000
  0
LINE
  5
F107CC
330
F107CD
100
AcDbEntity
8
Geo
100
AcDbLine
10
-76.3707762082714
20
4.49648966365194
30
0.000000000000000
11
-76.2707762082714
21
4.18891720249954
31
0.000000000000000
  0
LINE
  5
F107CE
330
F107CF
100
AcDbEntity
8
Geo
100
AcDbLine
10
-76.2707762082714
20
12.3444809546886
30
0.000000000000000
11
-76.1707762082714
21
12.3321827104663
31
0.000000000000000
  0
LINE
  5
F107D0
330
F107D1
100
AcDbEntity
8
Geo
100
AcDbLine
10
-76.2707762082714
20
4.18891720249954
30
0.000000000000000
11
-76.1707762082714
21
3.88159036271023
31
0.000000000000000
  0
LINE
  5
F107D2
330
F107D3
100
AcDbEntity
8
Geo
100
AcDbLine
10
-76.1707762082714
20
12.3321827104663
30
0.000000000000000
11
-76.0707762082714
21
12.3080674798795
31
0.000000000000000
  0
LINE
  5
F107D4
330
F107D5
100
AcDbEntity
8
Geo
100
AcDbLine
10
-76.1707762082714
20
3.88159036271023
30
0.000000000000000
11
-76.0707762082714
21
3.57496438709895
31
0.000000000000000
  0
LINE
  5
F107D6
330
F107D7
100
AcDbEntity
8
Geo
100
AcDbLine
10
-76.0707762082714
20
12.3080674798795
30
0.000000000000000
11
-75.9707762082714
21
12.2721709847852
31
0.000000000000000
  0
LINE
  5
F107D8
330
F107D9
100
AcDbEntity
8
Geo
100
AcDbLine
10
-76.0707762082714
20
3.57496438709895
30
0.000000000000000
11
-75.9707762082714
21
3.26949348029149
31
0.000000000000000
  0
LINE
  5
F107DA
330
F107DB
100
AcDbEntity
8
Geo
100
AcDbLine
10
-75.9707762082714
20
12.2721709847852
30
0.000000000000000
11
-75.8707762082714
21
12.2245463986109
31
0.000000000000000
  0
LINE
  5
F107DC
330
F107DD
100
AcDbEntity
8
Geo
100
AcDbLine
10
-75.9707762082714
20
3.26949348029149
30
0.000000000000000
11
-75.8707762082714
21
2.96563013591187
31
0.000000000000000
  0
LINE
  5
F107DE
330
F107DF
100
AcDbEntity
8
Geo
100
AcDbLine
10
-75.8707762082714
20
12.2245463986109
30
0.000000000000000
11
-75.7707762082714
21
12.1652642675893
31
0.000000000000000
  0
LINE
  5
F107E0
330
F107E1
100
AcDbEntity
8
Geo
100
AcDbLine
10
-75.8707762082714
20
2.96563013591187
30
0.000000000000000
11
-75.7707762082714
21
2.66382446630416
31
0.000000000000000
  0
LINE
  5
F107E2
330
F107E3
100
AcDbEntity
8
Geo
100
AcDbLine
10
-75.7707762082714
20
12.1652642675893
30
0.000000000000000
11
-75.6707762082714
21
12.0944124062573
31
0.000000000000000
  0
LINE
  5
F107E4
330
F107E5
100
AcDbEntity
8
Geo
100
AcDbLine
10
-75.7707762082714
20
2.66382446630416
30
0.000000000000000
11
-75.6707762082714
21
2.36452353578166
31
0.000000000000000
  0
LINE
  5
F107E6
330
F107E7
100
AcDbEntity
8
Geo
100
AcDbLine
10
-75.6707762082714
20
12.0944124062573
30
0.000000000000000
11
-75.5707762082714
21
12.0120957673775
31
0.000000000000000
  0
LINE
  5
F107E8
330
F107E9
100
AcDbEntity
8
Geo
100
AcDbLine
10
-75.6707762082714
20
2.36452353578166
30
0.000000000000000
11
-75.5707762082714
21
2.06817069839122
31
0.000000000000000
  0
LINE
  5
F107EA
330
F107EB
100
AcDbEntity
8
Geo
100
AcDbLine
10
-75.5707762082714
20
12.0120957673775
30
0.000000000000000
11
-75.4707762082714
21
11.9184362864711
31
0.000000000000000
  0
LINE
  5
F107EC
330
F107ED
100
AcDbEntity
8
Geo
100
AcDbLine
10
-75.5707762082714
20
2.06817069839122
30
0.000000000000000
11
-75.4707762082714
21
1.77520494117347
31
0.000000000000000
  0
LINE
  5
F107EE
330
F107EF
100
AcDbEntity
8
Geo
100
AcDbLine
10
-75.4707762082714
20
11.9184362864711
30
0.000000000000000
11
-75.3707762082714
21
11.8135727011952
31
0.000000000000000
  0
LINE
  5
F107F0
330
F107F1
100
AcDbEntity
8
Geo
100
AcDbLine
10
-75.4707762082714
20
1.77520494117347
30
0.000000000000000
11
-75.3707762082714
21
1.48606023389195
31
0.000000000000000
  0
LINE
  5
F107F2
330
F107F3
100
AcDbEntity
8
Geo
100
AcDbLine
10
-75.3707762082714
20
11.8135727011952
30
0.000000000000000
11
-75.2707762082714
21
11.6976603458310
31
0.000000000000000
  0
LINE
  5
F107F4
330
F107F5
100
AcDbEntity
8
Geo
100
AcDbLine
10
-75.3707762082714
20
1.48606023389195
30
0.000000000000000
11
-75.2707762082714
21
1.20116488619432
31
0.000000000000000
  0
LINE
  5
F107F6
330
F107F7
100
AcDbEntity
8
Geo
100
AcDbLine
10
-75.2707762082714
20
11.6976603458310
30
0.000000000000000
11
-75.1707762082714
21
11.5708709211873
31
0.000000000000000
  0
LINE
  5
F107F8
330
F107F9
100
AcDbEntity
8
Geo
100
AcDbLine
10
-75.2707762082714
20
1.20116488619432
30
0.000000000000000
11
-75.1707762082714
21
0.920940913157862
31
0.000000000000000
  0
LINE
  5
F107FA
330
F107FB
100
AcDbEntity
8
Geo
100
AcDbLine
10
-75.1707762082714
20
11.5708709211873
30
0.000000000000000
11
-75.0707762082714
21
11.4333922402601
31
0.000000000000000
  0
LINE
  5
F107FC
330
F107FD
100
AcDbEntity
8
Geo
100
AcDbLine
10
-75.1707762082714
20
0.920940913157862
30
0.000000000000000
11
-75.0707762082714
21
0.645803410159164
31
0.000000000000000
  0
LINE
  5
F107FE
330
F107FF
100
AcDbEntity
8
Geo
100
AcDbLine
10
-75.0707762082714
20
11.4333922402601
30
0.000000000000000
11
-74.9707762082714
21
11.2854279500260
31
0.000000000000000
  0
LINE
  5
F10800
330
F10801
100
AcDbEntity
8
Geo
100
AcDbLine
10
-75.0707762082714
20
0.645803410159164
30
0.000000000000000
11
-74.9707762082714
21
0.376159937993894
31
0.000000000000000
  0
LINE
  5
F10802
330
F10803
100
AcDbEntity
8
Geo
100
AcDbLine
10
-74.9707762082714
20
11.2854279500260
30
0.000000000000000
11
-74.8707762082714
21
11.1271972297796
31
0.000000000000000
  0
LINE
  5
F10804
330
F10805
100
AcDbEntity
8
Geo
100
AcDbLine
10
-74.9707762082714
20
0.376159937993894
30
0.000000000000000
11
-74.8707762082714
21
0.112409919157605
31
0.000000000000000
  0
LINE
  5
F10806
330
F10807
100
AcDbEntity
8
Geo
100
AcDbLine
10
-74.8707762082714
20
11.1271972297796
30
0.000000000000000
11
-74.7707762082714
21
10.9589344664640
31
0.000000000000000
  0
LINE
  5
F10808
330
F10809
100
AcDbEntity
8
Geo
100
AcDbLine
10
-74.8707762082714
20
0.112409919157605
30
0.000000000000000
11
-74.7707762082714
21
-0.145055953818290
31
0.000000000000000
  0
LINE
  5
F1080A
330
F1080B
100
AcDbEntity
8
Geo
100
AcDbLine
10
-74.7707762082714
20
10.9589344664640
30
0.000000000000000
11
-74.6707762082714
21
10.7808889074736
31
0.000000000000000
  0
LINE
  5
F1080C
330
F1080D
100
AcDbEntity
8
Geo
100
AcDbLine
10
-74.7707762082714
20
-0.145055953818290
30
0.000000000000000
11
-74.6707762082714
21
-0.395856297098753
31
0.000000000000000
  0
LINE
  5
F1080E
330
F1080F
100
AcDbEntity
8
Geo
100
AcDbLine
10
-74.6707762082714
20
10.7808889074736
30
0.000000000000000
11
-74.5707762082714
21
10.5933242914439
31
0.000000000000000
  0
LINE
  5
F10810
330
F10811
100
AcDbEntity
8
Geo
100
AcDbLine
10
-74.6707762082714
20
-0.395856297098753
30
0.000000000000000
11
-74.5707762082714
21
-0.639619600488531
31
0.000000000000000
  0
LINE
  5
F10812
330
F10813
100
AcDbEntity
8
Geo
100
AcDbLine
10
-74.5707762082714
20
10.5933242914439
30
0.000000000000000
11
-74.4707762082714
21
10.3965184575768
31
0.000000000000000
  0
LINE
  5
F10814
330
F10815
100
AcDbEntity
8
Geo
100
AcDbLine
10
-74.5707762082714
20
-0.639619600488531
30
0.000000000000000
11
-74.4707762082714
21
-0.875984777749632
31
0.000000000000000
  0
LINE
  5
F10816
330
F10817
100
AcDbEntity
8
Geo
100
AcDbLine
10
-74.4707762082714
20
10.3965184575768
30
0.000000000000000
11
-74.3707762082714
21
10.1907629340765
31
0.000000000000000
  0
LINE
  5
F10818
330
F10819
100
AcDbEntity
8
Geo
100
AcDbLine
10
-74.4707762082714
20
-0.875984777749632
30
0.000000000000000
11
-74.3707762082714
21
-1.10460170147790
31
0.000000000000000
  0
LINE
  5
F1081A
330
F1081B
100
AcDbEntity
8
Geo
100
AcDbLine
10
-74.3707762082714
20
10.1907629340765
30
0.000000000000000
11
-74.2707762082714
21
9.97636250631040
31
0.000000000000000
  0
LINE
  5
F1081C
330
F1081D
100
AcDbEntity
8
Geo
100
AcDbLine
10
-74.3707762082714
20
-1.10460170147790
30
0.000000000000000
11
-74.2707762082714
21
-1.32513172174619
31
0.000000000000000
  0
LINE
  5
F1081E
330
F1081F
100
AcDbEntity
8
Geo
100
AcDbLine
10
-74.2707762082714
20
9.97636250631040
30
0.000000000000000
11
-74.1707762082714
21
9.75363476533007
31
0.000000000000000
  0
LINE
  5
F10820
330
F10821
100
AcDbEntity
8
Geo
100
AcDbLine
10
-74.2707762082714
20
-1.32513172174619
30
0.000000000000000
11
-74.1707762082714
21
-1.53724816774608
31
0.000000000000000
  0
LINE
  5
F10822
330
F10823
100
AcDbEntity
8
Geo
100
AcDbLine
10
-74.1707762082714
20
9.75363476533007
30
0.000000000000000
11
-74.0707762082714
21
9.52290963742454
31
0.000000000000000
  0
LINE
  5
F10824
330
F10825
100
AcDbEntity
8
Geo
100
AcDbLine
10
-74.1707762082714
20
-1.53724816774608
30
0.000000000000000
11
-74.0707762082714
21
-1.74063683168488
31
0.000000000000000
  0
LINE
  5
F10826
330
F10827
100
AcDbEntity
8
Geo
100
AcDbLine
10
-74.0707762082714
20
9.52290963742454
30
0.000000000000000
11
-73.9707762082714
21
9.28452889540083
31
0.000000000000000
  0
LINE
  5
F10828
330
F10829
100
AcDbEntity
8
Geo
100
AcDbLine
10
-74.0707762082714
20
-1.74063683168488
30
0.000000000000000
11
-73.9707762082714
21
-1.93499643422115
31
0.000000000000000
  0
LINE
  5
F1082A
330
F1082B
100
AcDbEntity
8
Geo
100
AcDbLine
10
-73.9707762082714
20
9.28452889540083
30
0.000000000000000
11
-73.8707762082714
21
9.03884565231635
31
0.000000000000000
  0
LINE
  5
F1082C
330
F1082D
100
AcDbEntity
8
Geo
100
AcDbLine
10
-73.9707762082714
20
-1.93499643422115
30
0.000000000000000
11
-73.8707762082714
21
-2.12003907074939
31
0.000000000000000
  0
LINE
  5
F1082E
330
F1082F
100
AcDbEntity
8
Geo
100
AcDbLine
10
-73.8707762082714
20
9.03884565231635
30
0.000000000000000
11
-73.7707762082714
21
8.78622383841305
31
0.000000000000000
  0
LINE
  5
F10830
330
F10831
100
AcDbEntity
8
Geo
100
AcDbLine
10
-73.8707762082714
20
-2.12003907074939
30
0.000000000000000
11
-73.7707762082714
21
-2.29549063787273
31
0.000000000000000
  0
LINE
  5
F10832
330
F10833
100
AcDbEntity
8
Geo
100
AcDbLine
10
-73.7707762082714
20
8.78622383841305
30
0.000000000000000
11
-73.6707762082714
21
8.52703766202807
31
0.000000000000000
  0
LINE
  5
F10834
330
F10835
100
AcDbEntity
8
Geo
100
AcDbLine
10
-73.7707762082714
20
-2.29549063787273
30
0.000000000000000
11
-73.6707762082714
21
-2.46109123943191
31
0.000000000000000
  0
LINE
  5
F10836
330
F10837
100
AcDbEntity
8
Geo
100
AcDbLine
10
-73.6707762082714
20
8.52703766202807
30
0.000000000000000
11
-73.5707762082714
21
8.26167105527944
31
0.000000000000000
  0
LINE
  5
F10838
330
F10839
100
AcDbEntity
8
Geo
100
AcDbLine
10
-73.6707762082714
20
-2.46109123943191
30
0.000000000000000
11
-73.5707762082714
21
-2.61659557148908
31
0.000000000000000
  0
LINE
  5
F1083A
330
F1083B
100
AcDbEntity
8
Geo
100
AcDbLine
10
-73.5707762082714
20
8.26167105527944
30
0.000000000000000
11
-73.4707762082714
21
7.99051710534797
31
0.000000000000000
  0
LINE
  5
F1083C
330
F1083D
100
AcDbEntity
8
Geo
100
AcDbLine
10
-73.5707762082714
20
-2.61659557148908
30
0.000000000000000
11
-73.4707762082714
21
-2.76177328569617
31
0.000000000000000
  0
LINE
  5
F1083E
330
F1083F
100
AcDbEntity
8
Geo
100
AcDbLine
10
-73.4707762082714
20
7.99051710534797
30
0.000000000000000
11
-73.3707762082714
21
7.71397747219782
31
0.000000000000000
  0
LINE
  5
F10840
330
F10841
100
AcDbEntity
8
Geo
100
AcDbLine
10
-73.4707762082714
20
-2.76177328569617
30
0.000000000000000
11
-73.3707762082714
21
-2.89640933050961
31
0.000000000000000
  0
LINE
  5
F10842
330
F10843
100
AcDbEntity
8
Geo
100
AcDbLine
10
-73.3707762082714
20
7.71397747219782
30
0.000000000000000
11
-73.2707762082714
21
7.43246179359806
31
0.000000000000000
  0
LINE
  5
F10844
330
F10845
100
AcDbEntity
8
Geo
100
AcDbLine
10
-73.3707762082714
20
-2.89640933050961
30
0.000000000000000
11
-73.2707762082714
21
-3.02030426974584
31
0.000000000000000
  0
LINE
  5
F10846
330
F10847
100
AcDbEntity
8
Geo
100
AcDbLine
10
-73.2707762082714
20
7.43246179359806
30
0.000000000000000
11
-73.1707762082714
21
7.14638707832692
31
0.000000000000000
  0
LINE
  5
F10848
330
F10849
100
AcDbEntity
8
Geo
100
AcDbLine
10
-73.2707762082714
20
-3.02030426974584
30
0.000000000000000
11
-73.1707762082714
21
-3.13327457800587
31
0.000000000000000
  0
LINE
  5
F1084A
330
F1084B
100
AcDbEntity
8
Geo
100
AcDbLine
10
-73.1707762082714
20
7.14638707832692
30
0.000000000000000
11
-73.0707762082714
21
6.85617708845719
31
0.000000000000000
  0
LINE
  5
F1084C
330
F1084D
100
AcDbEntity
8
Geo
100
AcDbLine
10
-73.1707762082714
20
-3.13327457800587
30
0.000000000000000
11
-73.0707762082714
21
-3.23515291253118
31
0.000000000000000
  0
LINE
  5
F1084E
330
F1084F
100
AcDbEntity
8
Geo
100
AcDbLine
10
-73.0707762082714
20
6.85617708845719
30
0.000000000000000
11
-72.9707762082714
21
6.56226171163815
31
0.000000000000000
  0
LINE
  5
F10850
330
F10851
100
AcDbEntity
8
Geo
100
AcDbLine
10
-73.0707762082714
20
-3.23515291253118
30
0.000000000000000
11
-72.9707762082714
21
-3.32578836108832
31
0.000000000000000
  0
LINE
  5
F10852
330
F10853
100
AcDbEntity
8
Geo
100
AcDbLine
10
-72.9707762082714
20
6.56226171163815
30
0.000000000000000
11
-72.8707762082714
21
6.26507632430352
31
0.000000000000000
  0
LINE
  5
F10854
330
F10855
100
AcDbEntity
8
Geo
100
AcDbLine
10
-72.9707762082714
20
-3.32578836108832
30
0.000000000000000
11
-72.8707762082714
21
-3.40504666551502
31
0.000000000000000
  0
LINE
  5
F10856
330
F10857
100
AcDbEntity
8
Geo
100
AcDbLine
10
-72.8707762082714
20
6.26507632430352
30
0.000000000000000
11
-72.7707762082714
21
5.96506114674898
31
0.000000000000000
  0
LINE
  5
F10858
330
F10859
100
AcDbEntity
8
Geo
100
AcDbLine
10
-72.8707762082714
20
-3.40504666551502
30
0.000000000000000
11
-72.7707762082714
21
-3.47281042059654
31
0.000000000000000
  0
LINE
  5
F1085A
330
F1085B
100
AcDbEntity
8
Geo
100
AcDbLine
10
-72.7707762082714
20
5.96506114674898
30
0.000000000000000
11
-72.6707762082714
21
5.66266059103449
31
0.000000000000000
  0
LINE
  5
F1085C
330
F1085D
100
AcDbEntity
8
Geo
100
AcDbLine
10
-72.7707762082714
20
-3.47281042059654
30
0.000000000000000
11
-72.6707762082714
21
-3.52897924797792
31
0.000000000000000
  0
LINE
  5
F1085E
330
F1085F
100
AcDbEntity
8
Geo
100
AcDbLine
10
-72.6707762082714
20
5.66266059103449
30
0.000000000000000
11
-72.5707762082714
21
5.35832260267733
31
0.000000000000000
  0
LINE
  5
F10860
330
F10861
100
AcDbEntity
8
Geo
100
AcDbLine
10
-72.6707762082714
20
-3.52897924797792
30
0.000000000000000
11
-72.5707762082714
21
-3.57346994485429
31
0.000000000000000
  0
LINE
  5
F10862
330
F10863
100
AcDbEntity
8
Geo
100
AcDbLine
10
-72.5707762082714
20
5.35832260267733
30
0.000000000000000
11
-72.4707762082714
21
5.05249799711100
31
0.000000000000000
  0
LINE
  5
F10864
330
F10865
100
AcDbEntity
8
Geo
100
AcDbLine
10
-72.5707762082714
20
-3.57346994485429
30
0.000000000000000
11
-72.4707762082714
21
-3.60621660721901
31
0.000000000000000
  0
LINE
  5
F10866
330
F10867
100
AcDbEntity
8
Geo
100
AcDbLine
10
-72.4707762082714
20
5.05249799711100
30
0.000000000000000
11
-72.3707762082714
21
4.74563979189299
31
0.000000000000000
  0
LINE
  5
F10868
330
F10869
100
AcDbEntity
8
Geo
100
AcDbLine
10
-72.4707762082714
20
-3.60621660721901
30
0.000000000000000
11
-72.3707762082714
21
-3.62717072748725
31
0.000000000000000
  0
LINE
  5
F1086A
330
F1086B
100
AcDbEntity
8
Geo
100
AcDbLine
10
-72.3707762082714
20
4.74563979189299
30
0.000000000000000
11
-72.2707762082714
21
4.43820253565052
31
0.000000000000000
  0
LINE
  5
F1086C
330
F1086D
100
AcDbEntity
8
Geo
100
AcDbLine
10
-72.3707762082714
20
-3.62717072748725
30
0.000000000000000
11
-72.2707762082714
21
-3.63630126635016
31
0.000000000000000
  0
LINE
  5
F1086E
330
F1086F
100
AcDbEntity
8
Geo
100
AcDbLine
10
-72.2707762082714
20
4.43820253565052
30
0.000000000000000
11
-72.1707762082714
21
4.13064163475823
31
0.000000000000000
  0
LINE
  5
F10870
330
F10871
100
AcDbEntity
8
Geo
100
AcDbLine
10
-72.1707762082714
20
12.3430588838458
30
0.000000000000000
11
-72.0707762082714
21
12.3285192190241
31
0.000000000000000
  0
LINE
  5
F10872
330
F10873
100
AcDbEntity
8
Geo
100
AcDbLine
10
-72.1707762082714
20
4.13064163475823
30
0.000000000000000
11
-72.0707762082714
21
3.82341267874545
31
0.000000000000000
  0
LINE
  5
F10874
330
F10875
100
AcDbEntity
8
Geo
100
AcDbLine
10
-72.0707762082714
20
12.3285192190241
30
0.000000000000000
11
-71.9707762082714
21
12.3021679945625
31
0.000000000000000
  0
LINE
  5
F10876
330
F10877
100
AcDbEntity
8
Geo
100
AcDbLine
10
-72.0707762082714
20
3.82341267874545
30
0.000000000000000
11
-71.9707762082714
21
3.51697076543200
31
0.000000000000000
  0
LINE
  5
F10878
330
F10879
100
AcDbEntity
8
Geo
100
AcDbLine
10
-71.9707762082714
20
12.3021679945625
30
0.000000000000000
11
-71.8707762082714
21
12.2640442444928
31
0.000000000000000
  0
LINE
  5
F1087A
330
F1087B
100
AcDbEntity
8
Geo
100
AcDbLine
10
-71.9707762082714
20
3.51697076543200
30
0.000000000000000
11
-71.8707762082714
21
3.21176982679247
31
0.000000000000000
  0
LINE
  5
F1087C
330
F1087D
100
AcDbEntity
8
Geo
100
AcDbLine
10
-71.8707762082714
20
12.2640442444928
30
0.000000000000000
11
-71.7707762082714
21
12.2142044414720
31
0.000000000000000
  0
LINE
  5
F1087E
330
F1087F
100
AcDbEntity
8
Geo
100
AcDbLine
10
-71.8707762082714
20
3.21176982679247
30
0.000000000000000
11
-71.7707762082714
21
2.90826195654742
31
0.000000000000000
  0
LINE
  5
F10880
330
F10881
100
AcDbEntity
8
Geo
100
AcDbLine
10
-71.7707762082714
20
12.2142044414720
30
0.000000000000000
11
-71.6707762082714
21
12.1527224131304
31
0.000000000000000
  0
LINE
  5
F10882
330
F10883
100
AcDbEntity
8
Geo
100
AcDbLine
10
-71.7707762082714
20
2.90826195654742
30
0.000000000000000
11
-71.6707762082714
21
2.60689674047756
31
0.000000000000000
  0
LINE
  5
F10884
330
F10885
100
AcDbEntity
8
Geo
100
AcDbLine
10
-71.6707762082714
20
12.1527224131304
30
0.000000000000000
11
-71.5707762082714
21
12.0796892327099
31
0.000000000000000
  0
LINE
  5
F10886
330
F10887
100
AcDbEntity
8
Geo
100
AcDbLine
10
-71.6707762082714
20
2.60689674047756
30
0.000000000000000
11
-71.5707762082714
21
2.30812059045301
31
0.000000000000000
  0
LINE
  5
F10888
330
F10889
100
AcDbEntity
8
Geo
100
AcDbLine
10
-71.5707762082714
20
12.0796892327099
30
0.000000000000000
11
-71.4707762082714
21
11.9952130841577
31
0.000000000000000
  0
LINE
  5
F1088A
330
F1088B
100
AcDbEntity
8
Geo
100
AcDbLine
10
-71.5707762082714
20
2.30812059045301
30
0.000000000000000
11
-71.4707762082714
21
2.01237608316400
31
0.000000000000000
  0
LINE
  5
F1088C
330
F1088D
100
AcDbEntity
8
Geo
100
AcDbLine
10
-71.4707762082714
20
11.9952130841577
30
0.000000000000000
11
-71.3707762082714
21
11.8994191018738
31
0.000000000000000
  0
LINE
  5
F1088E
330
F1088F
100
AcDbEntity
8
Geo
100
AcDbLine
10
-71.4707762082714
20
2.01237608316400
30
0.000000000000000
11
-71.3707762082714
21
1.72010130453262
31
0.000000000000000
  0
LINE
  5
F10890
330
F10891
100
AcDbEntity
8
Geo
100
AcDbLine
10
-71.3707762082714
20
11.8994191018738
30
0.000000000000000
11
-71.2707762082714
21
11.7924491853492
31
0.000000000000000
  0
LINE
  5
F10892
330
F10893
100
AcDbEntity
8
Geo
100
AcDbLine
10
-71.3707762082714
20
1.72010130453262
30
0.000000000000000
11
-71.2707762082714
21
1.43172920077682
31
0.000000000000000
  0
LINE
  5
F10894
330
F10895
100
AcDbEntity
8
Geo
100
AcDbLine
10
-71.2707762082714
20
11.7924491853492
30
0.000000000000000
11
-71.1707762082714
21
11.6744617889706
31
0.000000000000000
  0
LINE
  5
F10896
330
F10897
100
AcDbEntity
8
Geo
100
AcDbLine
10
-71.2707762082714
20
1.43172920077682
30
0.000000000000000
11
-71.1707762082714
21
1.14768693708772
31
0.000000000000000
  0
LINE
  5
F10898
330
F10899
100
AcDbEntity
8
Geo
100
AcDbLine
10
-71.1707762082714
20
11.6744617889706
30
0.000000000000000
11
-71.0707762082714
21
11.5456316873019
31
0.000000000000000
  0
LINE
  5
F1089A
330
F1089B
100
AcDbEntity
8
Geo
100
AcDbLine
10
-71.1707762082714
20
1.14768693708772
30
0.000000000000000
11
-71.0707762082714
21
0.868395264870506
31
0.000000000000000
  0
LINE
  5
F1089C
330
F1089D
100
AcDbEntity
8
Geo
100
AcDbLine
10
-71.0707762082714
20
11.5456316873019
30
0.000000000000000
11
-70.9707762082714
21
11.4061497161915
31
0.000000000000000
  0
LINE
  5
F1089E
330
F1089F
100
AcDbEntity
8
Geo
100
AcDbLine
10
-71.0707762082714
20
0.868395264870506
30
0.000000000000000
11
-70.9707762082714
21
0.594267898485849
31
0.000000000000000
  0
LINE
  5
F108A0
330
F108A1
100
AcDbEntity
8
Geo
100
AcDbLine
10
-70.9707762082714
20
11.4061497161915
30
0.000000000000000
11
-70.8707762082714
21
11.2562224900867
31
0.000000000000000
  0
LINE
  5
F108A2
330
F108A3
100
AcDbEntity
8
Geo
100
AcDbLine
10
-70.9707762082714
20
0.594267898485849
30
0.000000000000000
11
-70.8707762082714
21
0.325710902415483
31
0.000000000000000
  0
LINE
  5
F108A4
330
F108A5
100
AcDbEntity
8
Geo
100
AcDbLine
10
-70.8707762082714
20
11.2562224900867
30
0.000000000000000
11
-70.7707762082714
21
11.0960720959763
31
0.000000000000000
  0
LINE
  5
F108A6
330
F108A7
100
AcDbEntity
8
Geo
100
AcDbLine
10
-70.8707762082714
20
0.325710902415483
30
0.000000000000000
11
-70.7707762082714
21
0.0631220897594424
31
0.000000000000000
  0
LINE
  5
F108A8
330
F108A9
100
AcDbEntity
8
Geo
100
AcDbLine
10
-70.7707762082714
20
11.0960720959763
30
0.000000000000000
11
-70.6707762082714
21
10.9259357644135
31
0.000000000000000
  0
LINE
  5
F108AA
330
F108AB
100
AcDbEntity
8
Geo
100
AcDbLine
10
-70.7707762082714
20
0.0631220897594424
30
0.000000000000000
11
-70.6707762082714
21
-0.193109567043922
31
0.000000000000000
  0
LINE
  5
F108AC
330
F108AD
100
AcDbEntity
8
Geo
100
AcDbLine
10
-70.6707762082714
20
10.9259357644135
30
0.000000000000000
11
-70.5707762082714
21
10.7460655181067
31
0.000000000000000
  0
LINE
  5
F108AE
330
F108AF
100
AcDbEntity
8
Geo
100
AcDbLine
10
-70.6707762082714
20
-0.193109567043922
30
0.000000000000000
11
-70.5707762082714
21
-0.442604512402279
31
0.000000000000000
  0
LINE
  5
F108B0
330
F108B1
100
AcDbEntity
8
Geo
100
AcDbLine
10
-70.5707762082714
20
10.7460655181067
30
0.000000000000000
11
-70.4707762082714
21
10.5567277985985
31
0.000000000000000
  0
LINE
  5
F108B2
330
F108B3
100
AcDbEntity
8
Geo
100
AcDbLine
10
-70.5707762082714
20
-0.442604512402279
30
0.000000000000000
11
-70.4707762082714
21
-0.684993169804462
31
0.000000000000000
  0
LINE
  5
F108B4
330
F108B5
100
AcDbEntity
8
Geo
100
AcDbLine
10
-84.4707762082714
20
4.35473209254620
30
0.000000000000000
11
-84.4707762082714
21
4.35473209254620
31
0.000000000000000
  0
LINE
  5
F108B6
330
F108B7
100
AcDbEntity
8
Geo
100
AcDbLine
10
-84.4707762082714
20
4.35473209254620
30
0.000000000000000
11
-84.4707762082714
21
4.35473209254620
31
0.000000000000000
  0
LINE
  5
F108B8
330
F108B9
100
AcDbEntity
8
Geo
100
AcDbLine
10
-85.4707762082714
20
4.35473209254620
30
0.000000000000000
11
-85.1707762082714
21
4.35473209254620
31
0.000000000000000
  0
LINE
  5
F108BA
330
F108BB
100
AcDbEntity
8
Geo
100
AcDbLine
10
-85.0432762082714
20
4.35473209254620
30
0.000000000000000
11
-84.9582762082714
21
4.35473209254620
31
0.000000000000000
  0
LINE
  5
F108BC
330
F108BD
100
AcDbEntity
8
Geo
100
AcDbLine
10
-84.7457762082714
20
4.35473209254620
30
0.000000000000000
11
-84.3207762082714
21
4.35473209254620
31
0.000000000000000
  0
LINE
  5
F108BE
330
F108BF
100
AcDbEntity
8
Geo
100
AcDbLine
10
-84.1932762082714
20
4.35473209254620
30
0.000000000000000
11
-84.1082762082714
21
4.35473209254620
31
0.000000000000000
  0
LINE
  5
F108C0
330
F108C1
100
AcDbEntity
8
Geo
100
AcDbLine
10
-83.8957762082714
20
4.35473209254620
30
0.000000000000000
11
-83.4707762082714
21
4.35473209254620
31
0.000000000000000
  0
LINE
  5
F108C2
330
F108C3
100
AcDbEntity
8
Geo
100
AcDbLine
10
4.52922379172860
20
11.8547320925462
30
0.000000000000000
11
4.52922379172860
21
4.35473209254620
31
0.000000000000000
  0
LINE
  5
F108C4
330
F108C5
100
AcDbEntity
8
Geo
100
AcDbLine
10
-84.2269403661280
20
4.35473209254620
30
0.000000000000000
11
-84.4701670352905
21
-2.61036841075130
31
0.000000000000000
  0
ARC
  5
F108C6
330
F108C7
100
AcDbEntity
8
Geo
100
AcDbCircle
10
-83.4707762082714
20
-2.64526790745380
30
0.000000000000000
 40
0.999999999999999
100
AcDbArc
 50
178.000000000000
 51
270.000000000000
  0
LINE
  5
F108C8
330
F108C9
100
AcDbEntity
8
Geo
100
AcDbLine
10
-83.4707762082714
20
-3.64526790745380
30
0.000000000000000
11
-65.4707762082714
21
-3.64526790745380
31
0.000000000000000
  0
LINE
  5
F108CA
330
F108CB
100
AcDbEntity
8
Geo
100
AcDbLine
10
-65.4707762082714
20
-3.64526790745380
30
0.000000000000000
11
-65.4707762082714
21
-3.34526790745380
31
0.000000000000000
  0
LINE
  5
F108CC
330
F108CD
100
AcDbEntity
8
Geo
100
AcDbLine
10
-65.4707762082714
20
-3.34526790745380
30
0.000000000000000
11
-49.4707762082714
21
-3.34526790745380
31
0.000000000000000
  0
LINE
  5
F108CE
330
F108CF
100
AcDbEntity
8
Geo
100
AcDbLine
10
-49.4707762082714
20
-3.34526790745380
30
0.000000000000000
11
-49.4707762082714
21
-3.64526790745380
31
0.000000000000000
  0
LINE
  5
F108D0
330
F108D1
100
AcDbEntity
8
Geo
100
AcDbLine
10
-49.4707762082714
20
-3.64526790745380
30
0.000000000000000
11
4.02922379172860
21
-3.64526790745380
31
0.000000000000000
  0
LINE
  5
F108D2
330
F108D3
100
AcDbEntity
8
Geo
100
AcDbLine
10
4.02922379172860
20
-3.64526790745380
30
0.000000000000000
11
4.52922379172860
21
-3.14526790745380
31
0.000000000000000
  0
LINE
  5
F108D4
330
F108D5
100
AcDbEntity
8
Geo
100
AcDbLine
10
-83.4707762082714
20
12.3547320925462
30
0.000000000000000
11
-83.4707762082714
21
-3.64526790745380
31
0.000000000000000
  0
LINE
  5
F108D6
330
F108D7
100
AcDbEntity
8
Geo
100
AcDbLine
10
-83.4707762082714
20
12.3547320925462
30
0.000000000000000
11
-83.4707762082714
21
-3.64526790745380
31
0.000000000000000
  0
LINE
  5
F108D8
330
F108D9
100
AcDbEntity
8
Geo
100
AcDbLine
10
-65.4707762082714
20
12.3547320925462
30
0.000000000000000
11
-65.4707762082714
21
-3.64526790745380
31
0.000000000000000
  0
LINE
  5
F108DA
330
F108DB
100
AcDbEntity
8
Geo
100
AcDbLine
10
-65.4707762082714
20
12.0547320925462
30
0.000000000000000
11
-65.4707762082714
21
-3.34526790745380
31
0.000000000000000
  0
LINE
  5
F108DC
330
F108DD
100
AcDbEntity
8
Geo
100
AcDbLine
10
-49.4707762082714
20
12.0547320925462
30
0.000000000000000
11
-49.4707762082714
21
-3.34526790745380
31
0.000000000000000
  0
LINE
  5
F108DE
330
F108DF
100
AcDbEntity
8
Geo
100
AcDbLine
10
-49.4707762082714
20
12.0547320925462
30
0.000000000000000
11
-49.4707762082714
21
-3.34526790745380
31
0.000000000000000
  0
LINE
  5
F108E0
330
F108E1
100
AcDbEntity
8
Geo
100
AcDbLine
10
4.02922379172860
20
12.3547320925462
30
0.000000000000000
11
4.02922379172860
21
-3.64526790745380
31
0.000000000000000
  0
LINE
  5
F108E2
330
F108E3
100
AcDbEntity
8
Geo
100
AcDbLine
10
4.52922379172860
20
11.8547320925462
30
0.000000000000000
11
4.52922379172860
21
-3.14526790745380
31
0.000000000000000
  0
LWPOLYLINE
  5
F108E4
330
F108E5
100
AcDbEntity
8
Rahmen
100
AcDbPolyline
90
   4
70
   1
43
   0.0
 10
-125.540603248260
 20
102.988399071926
 10
134.310904872390
 20
102.988399071926
 10
134.310904872390
 20
-103.238979118329
 10
-125.540603248260
 20
-103.238979118329
  0
TEXT
  5
F108E6
330
F108E7
 100
AcDbEntity
8
Text
100
AcDbText
10
-124.538283062645
20
-102.738979118329
30
0.000000000000000
40
1.00000000000000
1
ISBESketcher
100
AcDbText
  0
LWPOLYLINE
  5
F108E8
330
F108E9
100
AcDbEntity
8
Rahmen
100
AcDbPolyline
90
   4
70
   1
43
   0.0
 10
94.4686774941996
 20
-100.232018561485
 10
134.310904872390
 20
-100.232018561485
 10
134.310904872390
 20
-103.238979118329
 10
94.4686774941996
 20
-103.238979118329
  0
TEXT
  5
F108EA
330
F108EB
 100
AcDbEntity
8
Text
100
AcDbText
10
95.5000000000000
20
-102.001740139211
30
0.000000000000000
40
0.750000000000000
1
Created by:
100
AcDbText
  0
TEXT
  5
F108EC
330
F108ED
 100
AcDbEntity
8
Text
100
AcDbText
10
120.119489559165
20
-102.001740139211
30
0.000000000000000
40
0.750000000000000
1
nsarkol
100
AcDbText
  0
LWPOLYLINE
  5
F108EE
330
F108EF
100
AcDbEntity
8
Rahmen
100
AcDbPolyline
90
   4
70
   1
43
   0.0
 10
54.3758700696056
 20
-100.232018561485
 10
94.4686774941996
 20
-100.232018561485
 10
94.4686774941996
 20
-103.238979118329
 10
54.3758700696056
 20
-103.238979118329
  0
TEXT
  5
F108F0
330
F108F1
 100
AcDbEntity
8
Text
100
AcDbText
10
55.5000000000000
20
-102.001740139211
30
0.000000000000000
40
0.750000000000000
1
Created for:
100
AcDbText
  0
TEXT
  5
F108F2
330
F108F3
 100
AcDbEntity
8
Text
100
AcDbText
10
0.000000000000000
20
0.250000000000000
30
0.000000000000000
40
0.750000000000000
1

100
AcDbText
  0
LWPOLYLINE
  5
F108F4
330
F108F5
100
AcDbEntity
8
Rahmen
100
AcDbPolyline
90
   4
70
   1
43
   0.0
 10
121.030162412993
 20
-97.2250580046404
 10
134.310904872390
 20
-97.2250580046404
 10
134.310904872390
 20
-100.232018561485
 10
121.030162412993
 20
-100.232018561485
  0
TEXT
  5
F108F6
330
F108F7
 100
AcDbEntity
8
Text
100
AcDbText
10
122.166666666667
20
-99.0017401392111
30
0.000000000000000
40
0.750000000000000
1
Pages
100
AcDbText
  0
TEXT
  5
F108F8
330
F108F9
 100
AcDbEntity
8
Text
100
AcDbText
10
0.000000000000000
20
0.250000000000000
30
0.000000000000000
40
0.750000000000000
1

100
AcDbText
  0
LWPOLYLINE
  5
F108FA
330
F108FB
100
AcDbEntity
8
Rahmen
100
AcDbPolyline
90
   4
70
   1
43
   0.0
 10
121.030162412993
 20
-94.2180974477958
 10
134.310904872390
 20
-94.2180974477958
 10
134.310904872390
 20
-97.2250580046404
 10
121.030162412993
 20
-97.2250580046404
  0
TEXT
  5
F108FC
330
F108FD
 100
AcDbEntity
8
Text
100
AcDbText
10
122.166666666667
20
-96.0017401392111
30
0.000000000000000
40
0.750000000000000
1
Page
100
AcDbText
  0
TEXT
  5
F108FE
330
F108FF
 100
AcDbEntity
8
Text
100
AcDbText
10
0.000000000000000
20
0.250000000000000
30
0.000000000000000
40
0.750000000000000
1

100
AcDbText
  0
LWPOLYLINE
  5
F10900
330
F10901
100
AcDbEntity
8
Rahmen
100
AcDbPolyline
90
   4
70
   1
43
   0.0
 10
54.3758700696056
 20
-94.2180974477958
 10
121.030162412993
 20
-94.2180974477958
 10
121.030162412993
 20
-100.232018561485
 10
54.3758700696056
 20
-100.232018561485
  0
TEXT
  5
F10902
330
F10903
 100
AcDbEntity
8
Text
100
AcDbText
10
55.5000000000000
20
-96.0017401392111
30
0.000000000000000
40
0.750000000000000
1
Date:
100
AcDbText
  0
TEXT
  5
F10904
330
F10905
 100
AcDbEntity
8
Text
100
AcDbText
10
84.4505027068832
20
-99.0017401392111
30
0.000000000000000
40
0.750000000000000
1
05.07.2016
100
AcDbText
  0
LWPOLYLINE
  5
F10906
330
F10907
100
AcDbEntity
8
Rahmen
100
AcDbPolyline
90
   4
70
   1
43
   0.0
 10
54.3758700696056
 20
-88.2041763341067
 10
134.310904872390
 20
-88.2041763341067
 10
134.310904872390
 20
-94.2180974477958
 10
54.3758700696056
 20
-94.2180974477958
  0
TEXT
  5
F10908
330
F10909
 100
AcDbEntity
8
Text
100
AcDbText
10
0.000000000000000
20
0.500000000000000
30
0.000000000000000
40
1.50000000000000
1

100
AcDbText
  0
TEXT
  5
F1090A
330
F1090B
 100
AcDbEntity
8
Text
100
AcDbText
10
67.3120649651972
20
-92.5471771075019
30
0.000000000000000
40
2.50000000000000
1
VHRS 5 160 089 16 03 100 S
100
AcDbText
  0
LWPOLYLINE
  5
F1090C
330
F1090D
100
AcDbEntity
8
Rahmen
100
AcDbPolyline
90
   4
70
   1
43
   0.0
 10
94.4686774941996
 20
-82.1902552204176
 10
134.310904872390
 20
-82.1902552204176
 10
134.310904872390
 20
-88.2041763341067
 10
94.4686774941996
 20
-88.2041763341067
  0
TEXT
  5
F1090E
330
F1090F
 100
AcDbEntity
8
Text
100
AcDbText
10
95.5000000000000
20
-84.0017401392111
30
0.000000000000000
40
0.750000000000000
1
Work piece material:
100
AcDbText
  0
TEXT
  5
F10910
330
F10911
 100
AcDbEntity
8
Text
100
AcDbText
10
0.000000000000000
20
0.250000000000000
30
0.000000000000000
40
0.750000000000000
1

100
AcDbText
  0
LWPOLYLINE
  5
F10912
330
F10913
100
AcDbEntity
8
Rahmen
100
AcDbPolyline
90
   4
70
   1
43
   0.0
 10
54.3758700696056
 20
-82.1902552204176
 10
94.4686774941996
 20
-82.1902552204176
 10
94.4686774941996
 20
-88.2041763341067
 10
54.3758700696056
 20
-88.2041763341067
  0
TEXT
  5
F10914
330
F10915
 100
AcDbEntity
8
Text
100
AcDbText
10
55.5000000000000
20
-84.0017401392111
30
0.000000000000000
40
0.750000000000000
1
Tool material:
100
AcDbText
  0
TEXT
  5
F10916
330
F10917
 100
AcDbEntity
8
Text
100
AcDbText
10
0.000000000000000
20
0.250000000000000
30
0.000000000000000
40
0.750000000000000
1

100
AcDbText
  0
LWPOLYLINE
  5
F10918
330
F10919
100
AcDbEntity
8
Rahmen
100
AcDbPolyline
90
   4
70
   1
43
   0.0
 10
94.4686774941996
 20
-79.1832946635731
 10
134.310904872390
 20
-79.1832946635731
 10
134.310904872390
 20
-82.1902552204176
 10
94.4686774941996
 20
-82.1902552204176
  0
TEXT
  5
F1091A
330
F1091B
 100
AcDbEntity
8
Text
100
AcDbText
10
0.000000000000000
20
0.500000000000000
30
0.000000000000000
40
1.50000000000000
1

100
AcDbText
  0
TEXT
  5
F1091C
330
F1091D
 100
AcDbEntity
8
Text
100
AcDbText
10
0.000000000000000
20
0.250000000000000
30
0.000000000000000
40
0.750000000000000
1

100
AcDbText
  0
LWPOLYLINE
  5
F1091E
330
F1091F
100
AcDbEntity
8
Rahmen
100
AcDbPolyline
90
   4
70
   1
43
   0.0
 10
54.3758700696056
 20
-79.1832946635731
 10
94.4686774941996
 20
-79.1832946635731
 10
94.4686774941996
 20
-82.1902552204176
 10
54.3758700696056
 20
-82.1902552204176
  0
TEXT
  5
F10920
330
F10921
 100
AcDbEntity
8
Text
100
AcDbText
10
55.5000000000000
20
-81.0017401392111
30
0.000000000000000
40
0.750000000000000
1
Scale:
100
AcDbText
  0
TEXT
  5
F10922
330
F10923
 100
AcDbEntity
8
Text
100
AcDbText
10
81.2470997679814
20
-81.0017401392111
30
0.000000000000000
40
0.750000000000000
1
2 : 1
100
AcDbText
0
VIEWPORT
5
294
102
{ACAD_XDICTIONARY
360
58A
102
}
330
25D
100
AcDbEntity
67
1
8
0
60
1
100
AcDbViewport
10
0.0
20
0.0
30
0.0
40
10.0
41
10.0
68
-1
69
1
12
0.0
22
0.0
13
0.0
23
0.0
14
1.0
24
1.0
15
0.0
25
0.0
16
0.0
26
0.0
36
1.0
17
0.0
27
0.0
37
0.0
42
0.0
43
0.0
44
0.0
45
10.0
50
0.0
51
0.0000000000007958
72
100
90
32800
1

281
0
71
0
74
0
110
0.0
120
0.0
130
0.0
111
1.0
121
0.0
131
0.0
112
0.0
122
1.0
132
0.0
79
0
146
0.0
1001
VD_INVISIBLE_NOT_FOR_READ
1000
VD_INVISIBLE_NOT_FOR_READ
0
VIEWPORT
5
295
102
{ACAD_XDICTIONARY
360
58C
102
}
330
25D
100
AcDbEntity
67
1
8
0
60
1
100
AcDbViewport
10
0.0
20
0.0
30
0.0
40
10.0
41
10.0
68
0
69
2
12
0.0
22
0.0
13
0.0
23
0.0
14
1.0
24
1.0
15
0.0
25
0.0
16
0.0
26
0.0
36
1.0
17
0.0
27
0.0
37
0.0
42
0.0
43
0.0
44
0.0
45
10.0
50
0.0
51
0.0000000000007958
72
100
90
163872
1

281
0
71
0
74
0
110
0.0
120
0.0
130
0.0
111
1.0
121
0.0
131
0.0
112
0.0
122
1.0
132
0.0
79
0
146
0.0
1001
VD_INVISIBLE_NOT_FOR_READ
1000
VD_INVISIBLE_NOT_FOR_READ
0
ENDSEC
0
SECTION
2
OBJECTS
0
DICTIONARY
5
13
330
0
100
AcDbDictionary
281
1
3
ACAD_COLOR
350
FA7
3
ACAD_GROUP
350
14
3
ACAD_LAYOUT
350
FCF
3
ACAD_MATERIAL
350
F7A
3
ACAD_MLEADERSTYLE
350
FCD
3
ACAD_MLINESTYLE
350
16
3
ACAD_PLOTSETTINGS
350
17
3
ACAD_PLOTSTYLENAME
350
18
3
ACAD_SCALELIST
350
FAB
3
ACAD_TABLESTYLE
350
FA8
3
ACAD_VISUALSTYLE
350
F93
3
ACDB_RECOMPOSE_DATA
350
107E
3
AcDbVariableDictionary
350
FF0
3
DWGPROPS
350
107F
0
DICTIONARY
5
F10019
330
F10018
100
AcDbDictionary
280
1
281
1
3
ACAD_MTEXT_2008_RT
360
F1001A
0
DICTIONARY
5
F1001E
330
F1001D
100
AcDbDictionary
280
1
281
1
3
ACAD_MTEXT_2008_RT
360
F1001F
0
DICTIONARY
5
F10028
330
F10027
100
AcDbDictionary
280
1
281
1
3
ACAD_MTEXT_2008_RT
360
F10029
0
DICTIONARY
5
F1002D
330
F1002C
100
AcDbDictionary
280
1
281
1
3
ACAD_MTEXT_2008_RT
360
F1002E
0
DICTIONARY
5
F10005
330
F10004
100
AcDbDictionary
280
1
281
1
3
ACAD_MTEXT_2008_RT
360
F10006
0
DICTIONARY
5
F1000F
330
F1000E
100
AcDbDictionary
280
1
281
1
3
ACAD_MTEXT_2008_RT
360
F10010
0
DICTIONARY
5
F1000A
330
F10009
100
AcDbDictionary
280
1
281
1
3
ACAD_MTEXT_2008_RT
360
F1000B
0
DICTIONARY
5
F10014
330
F10013
100
AcDbDictionary
280
1
281
1
3
ACAD_MTEXT_2008_RT
360
F10015
0
DICTIONARY
5
F10023
330
F10022
100
AcDbDictionary
280
1
281
1
3
ACAD_MTEXT_2008_RT
360
F10024
0
DICTIONARY
5
FA7
102
{ACAD_REACTORS
330
13
102
}
330
13
100
AcDbDictionary
281
1
0
DICTIONARY
5
14
330
13
100
AcDbDictionary
281
1
0
DICTIONARY
5
FCF
102
{ACAD_REACTORS
330
13
102
}
330
13
100
AcDbDictionary
281
1
3
Layout1
350
FD1
3
Model
350
FD0
0
DICTIONARY
5
F7A
102
{ACAD_REACTORS
330
13
102
}
330
13
100
AcDbDictionary
281
1
3
ByBlock
350
F83
3
ByLayer
350
F7B
3
Global
350
F8B
0
DICTIONARY
5
FCD
102
{ACAD_REACTORS
330
13
102
}
330
13
100
AcDbDictionary
281
1
3
Standard
350
FCE
0
DICTIONARY
5
16
330
13
100
AcDbDictionary
281
1
3
Standard
350
FAA
0
DICTIONARY
5
17
102
{ACAD_REACTORS
330
13
102
}
330
13
100
AcDbDictionary
281
1
0
ACDBDICTIONARYWDFLT
5
18
102
{ACAD_REACTORS
330
13
102
}
330
13
100
AcDbDictionary
281
1
3
Normal
350
19
100
AcDbDictionaryWithDefault
340
19
0
DICTIONARY
5
FAB
102
{ACAD_REACTORS
330
13
102
}
330
13
100
AcDbDictionary
281
1
3
A0
350
FAC
3
A1
350
FAD
3
A2
350
FAE
3
A3
350
FAF
3
A4
350
FB0
3
A5
350
FB1
3
A6
350
FB2
3
A7
350
FB3
3
A8
350
FB4
3
A9
350
FB5
3
B0
350
FB6
3
B1
350
FB7
3
B2
350
FB8
3
B3
350
FB9
3
B4
350
FBA
3
B5
350
FBB
3
B6
350
FBC
3
B7
350
FBD
3
B8
350
FBE
3
B9
350
FBF
3
C0
350
FC0
3
C1
350
FC1
3
C2
350
FC2
3
C3
350
FC3
3
C4
350
FC4
3
C5
350
FC5
3
C6
350
FC6
3
C7
350
FC7
3
C8
350
FC8
3
C9
350
FC9
3
D0
350
FCA
3
D1
350
FCB
3
D2
350
FCC
0
DICTIONARY
5
FA8
102
{ACAD_REACTORS
330
13
102
}
330
13
100
AcDbDictionary
281
1
3
Standard
350
FA9
0
DICTIONARY
5
F93
102
{ACAD_REACTORS
330
13
102
}
330
13
100
AcDbDictionary
281
1
3
2dWireframe
350
F99
3
3D Hidden
350
F9B
3
3dWireframe
350
F9A
3
Basic
350
F98
3
Brighten
350
F9F
3
ColorChange
350
FA3
3
Conceptual
350
F9C
3
Dim
350
F9E
3
EdgeColorOff
350
FA6
3
Facepattern
350
FA2
3
Flat
350
F94
3
FlatWithEdges
350
F95
3
Gouraud
350
F96
3
GouraudWithEdges
350
F97
3
JitterOff
350
FA4
3
Linepattern
350
FA1
3
OverhangOff
350
FA5
3
Realistic
350
F9D
3
Thicken
350
FA0
0
XRECORD
5
107E
102
{ACAD_REACTORS
330
13
102
}
330
13
100
AcDbXrecord
280
1
90
1
330
FA9
330
F10018
330
F1001D
330
F10027
330
F1002C
330
F10004
330
F1000E
330
F10009
330
F10013
330
F10022
0
XRECORD
5
F1001A
102
{ACAD_REACTORS
330
F10019
102
}
330
F10019
100
AcDbXrecord
280
1
40
48458.0
1
35
0
XRECORD
5
F1001F
102
{ACAD_REACTORS
330
F1001E
102
}
330
F1001E
100
AcDbXrecord
280
1
40
48458.0
1
54
0
XRECORD
5
F10029
102
{ACAD_REACTORS
330
F10028
102
}
330
F10028
100
AcDbXrecord
280
1
40
48458.0
1
19
0
XRECORD
5
F1002E
102
{ACAD_REACTORS
330
F1002D
102
}
330
F1002D
100
AcDbXrecord
280
1
40
48458.0
1
89
0
XRECORD
5
F10006
102
{ACAD_REACTORS
330
F10005
102
}
330
F10005
100
AcDbXrecord
280
1
40
48458.0
1
2°
0
XRECORD
5
F10010
102
{ACAD_REACTORS
330
F1000F
102
}
330
F1000F
100
AcDbXrecord
280
1
40
48458.0
1
R1
0
XRECORD
5
F1000B
102
{ACAD_REACTORS
330
F1000A
102
}
330
F1000A
100
AcDbXrecord
280
1
40
48458.0
1
16
0
XRECORD
5
F10015
102
{ACAD_REACTORS
330
F10014
102
}
330
F10014
100
AcDbXrecord
280
1
40
48458.0
1
15.4
0
LAYOUT
5
FD1
102
{ACAD_XDICTIONARY
360
10A9
102
}
102
{ACAD_REACTORS
330
FCF
102
}
330
FCF
100
AcDbPlotSettings
1

2
Microsoft XPS Document Writer
4

6

40
0.0
41
0.0
42
0.0
43
0.0
44
0.0
45
0.0
46
0.0
47
0.0
48
0.0
49
0.0
140
0.0
141
0.0
142
1.0
143
1.0
70
688
72
0
73
0
74
5
7

75
16
147
1.0
148
0.0
149
0.0
100
AcDbLayout
1
Layout1
70
1
71
1
10
0.0
20
0.0
11
12.0
21
9.0
12
0.0
22
0.0
32
0.0
14
1.000000000000000E+20
24
1.000000000000000E+20
34
1.000000000000000E+20
15
-1.000000000000000E+20
25
-1.000000000000000E+20
35
-1.000000000000000E+20
146
0.0
13
0.0
23
0.0
33
0.0
16
1.0
26
0.0
36
0.0
17
0.0
27
1.0
37
0.0
76
0
330
25D
0
LAYOUT
5
FD0
102
{ACAD_XDICTIONARY
360
10A7
102
}
102
{ACAD_REACTORS
330
FCF
102
}
330
FCF
100
AcDbPlotSettings
1

2
Microsoft XPS Document Writer
4

6

40
0.0
41
0.0
42
0.0
43
0.0
44
0.0
45
0.0
46
0.0
47
0.0
48
0.0
49
0.0
140
0.0
141
0.0
142
1.0
143
1.0
70
1712
72
0
73
0
74
0
7

75
0
147
1.0
148
0.0
149
0.0
100
AcDbLayout
1
Model
70
1
71
0
10
0.0
20
0.0
11
12.0
21
9.0
12
0.0
22
0.0
32
0.0
14
0.0
24
0.0
34
0.0
15
0.0
25
0.0
35
0.0
146
0.0
13
0.0
23
0.0
33
0.0
16
1.0
26
0.0
36
0.0
17
0.0
27
1.0
37
0.0
76
0
330
261
331
26B
0
MATERIAL
5
F83
102
{ACAD_XDICTIONARY
360
F84
102
}
102
{ACAD_REACTORS
330
F7A
102
}
330
F7A
100
AcDbMaterial
1
ByBlock
72
0
43
0.0208333333333333
43
0.0
43
0.0
43
0.0
43
0.0
43
0.0208333333333333
43
0.0
43
0.0
43
0.0
43
0.0
43
1.0
43
0.0
43
0.0
43
0.0
43
0.0
43
1.0
77
0
47
0.0208333333333333
47
0.0
47
0.0
47
0.0
47
0.0
47
0.0208333333333333
47
0.0
47
0.0
47
0.0
47
0.0
47
1.0
47
0.0
47
0.0
47
0.0
47
0.0
47
1.0
171
0
49
0.0208333333333333
49
0.0
49
0.0
49
0.0
49
0.0
49
0.0208333333333333
49
0.0
49
0.0
49
0.0
49
0.0
49
1.0
49
0.0
49
0.0
49
0.0
49
0.0
49
1.0
175
0
142
0.0208333333333333
142
0.0
142
0.0
142
0.0
142
0.0
142
0.0208333333333333
142
0.0
142
0.0
142
0.0
142
0.0
142
1.0
142
0.0
142
0.0
142
0.0
142
0.0
142
1.0
179
0
144
0.0208333333333333
144
0.0
144
0.0
144
0.0
144
0.0
144
0.0208333333333333
144
0.0
144
0.0
144
0.0
144
0.0
144
1.0
144
0.0
144
0.0
144
0.0
144
0.0
144
1.0
147
0.0208333333333333
147
0.0
147
0.0
147
0.0
147
0.0
147
0.0208333333333333
147
0.0
147
0.0
147
0.0
147
0.0
147
1.0
147
0.0
147
0.0
147
0.0
147
0.0
147
1.0
0
MATERIAL
5
F7B
102
{ACAD_XDICTIONARY
360
F7C
102
}
102
{ACAD_REACTORS
330
F7A
102
}
330
F7A
100
AcDbMaterial
1
ByLayer
72
0
43
0.0208333333333333
43
0.0
43
0.0
43
0.0
43
0.0
43
0.0208333333333333
43
0.0
43
0.0
43
0.0
43
0.0
43
1.0
43
0.0
43
0.0
43
0.0
43
0.0
43
1.0
77
0
47
0.0208333333333333
47
0.0
47
0.0
47
0.0
47
0.0
47
0.0208333333333333
47
0.0
47
0.0
47
0.0
47
0.0
47
1.0
47
0.0
47
0.0
47
0.0
47
0.0
47
1.0
171
0
49
0.0208333333333333
49
0.0
49
0.0
49
0.0
49
0.0
49
0.0208333333333333
49
0.0
49
0.0
49
0.0
49
0.0
49
1.0
49
0.0
49
0.0
49
0.0
49
0.0
49
1.0
175
0
142
0.0208333333333333
142
0.0
142
0.0
142
0.0
142
0.0
142
0.0208333333333333
142
0.0
142
0.0
142
0.0
142
0.0
142
1.0
142
0.0
142
0.0
142
0.0
142
0.0
142
1.0
179
0
144
0.0208333333333333
144
0.0
144
0.0
144
0.0
144
0.0
144
0.0208333333333333
144
0.0
144
0.0
144
0.0
144
0.0
144
1.0
144
0.0
144
0.0
144
0.0
144
0.0
144
1.0
147
0.0208333333333333
147
0.0
147
0.0
147
0.0
147
0.0
147
0.0208333333333333
147
0.0
147
0.0
147
0.0
147
0.0
147
1.0
147
0.0
147
0.0
147
0.0
147
0.0
147
1.0
0
MATERIAL
5
F8B
102
{ACAD_XDICTIONARY
360
F8C
102
}
102
{ACAD_REACTORS
330
F7A
102
}
330
F7A
100
AcDbMaterial
1
Global
72
0
43
0.0208333333333333
43
0.0
43
0.0
43
0.0
43
0.0
43
0.0208333333333333
43
0.0
43
0.0
43
0.0
43
0.0
43
1.0
43
0.0
43
0.0
43
0.0
43
0.0
43
1.0
77
0
47
0.0208333333333333
47
0.0
47
0.0
47
0.0
47
0.0
47
0.0208333333333333
47
0.0
47
0.0
47
0.0
47
0.0
47
1.0
47
0.0
47
0.0
47
0.0
47
0.0
47
1.0
171
0
49
0.0208333333333333
49
0.0
49
0.0
49
0.0
49
0.0
49
0.0208333333333333
49
0.0
49
0.0
49
0.0
49
0.0
49
1.0
49
0.0
49
0.0
49
0.0
49
0.0
49
1.0
175
0
142
0.0208333333333333
142
0.0
142
0.0
142
0.0
142
0.0
142
0.0208333333333333
142
0.0
142
0.0
142
0.0
142
0.0
142
1.0
142
0.0
142
0.0
142
0.0
142
0.0
142
1.0
179
0
144
0.0208333333333333
144
0.0
144
0.0
144
0.0
144
0.0
144
0.0208333333333333
144
0.0
144
0.0
144
0.0
144
0.0
144
1.0
144
0.0
144
0.0
144
0.0
144
0.0
144
1.0
147
0.0208333333333333
147
0.0
147
0.0
147
0.0
147
0.0
147
0.0208333333333333
147
0.0
147
0.0
147
0.0
147
0.0
147
1.0
147
0.0
147
0.0
147
0.0
147
0.0
147
1.0
0
MLEADERSTYLE
5
FCE
102
{ACAD_REACTORS
330
FCD
102
}
330
FCD
100
AcDbMLeaderStyle
170
2
171
1
172
0
90
2
40
0.0
41
0.0
173
1
91
-1056964608
340
256
92
-2
290
1
42
0.09
291
1
43
0.36
3
Standard
44
0.18
300

342
253
174
1
178
6
175
1
176
0
93
-1056964608
45
0.18
292
0
297
0
46
0.18
94
-1056964608
47
1.0
49
1.0
140
1.0
293
1
141
0.0
294
1
177
0
142
1.0
295
0
296
0
143
0.125
1001
ACAD_MLEADERVER
1070
2
0
MLINESTYLE
5
FAA
102
{ACAD_REACTORS
330
16
102
}
330
16
100
AcDbMlineStyle
2
STANDARD
70
0
3

62
256
51
90.0
52
90.0
71
2
49
0.5
62
256
6
BYLAYER
49
-0.5
62
256
6
BYLAYER
0
ACDBPLACEHOLDER
5
19
102
{ACAD_REACTORS
330
18
102
}
330
18
0
SCALE
5
FAC
102
{ACAD_REACTORS
330
FAB
102
}
330
FAB
100
AcDbScale
70
0
300
1:1
140
1.0
141
1.0
290
1
0
SCALE
5
FAD
102
{ACAD_REACTORS
330
FAB
102
}
330
FAB
100
AcDbScale
70
0
300
1:2
140
1.0
141
2.0
290
0
0
SCALE
5
FAE
102
{ACAD_REACTORS
330
FAB
102
}
330
FAB
100
AcDbScale
70
0
300
1:4
140
1.0
141
4.0
290
0
0
SCALE
5
FAF
102
{ACAD_REACTORS
330
FAB
102
}
330
FAB
100
AcDbScale
70
0
300
1:5
140
1.0
141
5.0
290
0
0
SCALE
5
FB0
102
{ACAD_REACTORS
330
FAB
102
}
330
FAB
100
AcDbScale
70
0
300
1:8
140
1.0
141
8.0
290
0
0
SCALE
5
FB1
102
{ACAD_REACTORS
330
FAB
102
}
330
FAB
100
AcDbScale
70
0
300
1:10
140
1.0
141
10.0
290
0
0
SCALE
5
FB2
102
{ACAD_REACTORS
330
FAB
102
}
330
FAB
100
AcDbScale
70
0
300
1:16
140
1.0
141
16.0
290
0
0
SCALE
5
FB3
102
{ACAD_REACTORS
330
FAB
102
}
330
FAB
100
AcDbScale
70
0
300
1:20
140
1.0
141
20.0
290
0
0
SCALE
5
FB4
102
{ACAD_REACTORS
330
FAB
102
}
330
FAB
100
AcDbScale
70
0
300
1:30
140
1.0
141
30.0
290
0
0
SCALE
5
FB5
102
{ACAD_REACTORS
330
FAB
102
}
330
FAB
100
AcDbScale
70
0
300
1:40
140
1.0
141
40.0
290
0
0
SCALE
5
FB6
102
{ACAD_REACTORS
330
FAB
102
}
330
FAB
100
AcDbScale
70
0
300
1:50
140
1.0
141
50.0
290
0
0
SCALE
5
FB7
102
{ACAD_REACTORS
330
FAB
102
}
330
FAB
100
AcDbScale
70
0
300
1:100
140
1.0
141
100.0
290
0
0
SCALE
5
FB8
102
{ACAD_REACTORS
330
FAB
102
}
330
FAB
100
AcDbScale
70
0
300
2:1
140
2.0
141
1.0
290
0
0
SCALE
5
FB9
102
{ACAD_REACTORS
330
FAB
102
}
330
FAB
100
AcDbScale
70
0
300
4:1
140
4.0
141
1.0
290
0
0
SCALE
5
FBA
102
{ACAD_REACTORS
330
FAB
102
}
330
FAB
100
AcDbScale
70
0
300
8:1
140
8.0
141
1.0
290
0
0
SCALE
5
FBB
102
{ACAD_REACTORS
330
FAB
102
}
330
FAB
100
AcDbScale
70
0
300
10:1
140
10.0
141
1.0
290
0
0
SCALE
5
FBC
102
{ACAD_REACTORS
330
FAB
102
}
330
FAB
100
AcDbScale
70
0
300
100:1
140
100.0
141
1.0
290
0
0
SCALE
5
FBD
102
{ACAD_REACTORS
330
FAB
102
}
330
FAB
100
AcDbScale
70
0
300
1/128" = 1'-0"
140
0.0078125
141
12.0
290
0
0
SCALE
5
FBE
102
{ACAD_REACTORS
330
FAB
102
}
330
FAB
100
AcDbScale
70
0
300
1/64" = 1'-0"
140
0.015625
141
12.0
290
0
0
SCALE
5
FBF
102
{ACAD_REACTORS
330
FAB
102
}
330
FAB
100
AcDbScale
70
0
300
1/32" = 1'-0"
140
0.03125
141
12.0
290
0
0
SCALE
5
FC0
102
{ACAD_REACTORS
330
FAB
102
}
330
FAB
100
AcDbScale
70
0
300
1/16" = 1'-0"
140
0.0625
141
12.0
290
0
0
SCALE
5
FC1
102
{ACAD_REACTORS
330
FAB
102
}
330
FAB
100
AcDbScale
70
0
300
3/32" = 1'-0"
140
0.09375
141
12.0
290
0
0
SCALE
5
FC2
102
{ACAD_REACTORS
330
FAB
102
}
330
FAB
100
AcDbScale
70
0
300
1/8" = 1'-0"
140
0.125
141
12.0
290
0
0
SCALE
5
FC3
102
{ACAD_REACTORS
330
FAB
102
}
330
FAB
100
AcDbScale
70
0
300
3/16" = 1'-0"
140
0.1875
141
12.0
290
0
0
SCALE
5
FC4
102
{ACAD_REACTORS
330
FAB
102
}
330
FAB
100
AcDbScale
70
0
300
1/4" = 1'-0"
140
0.25
141
12.0
290
0
0
SCALE
5
FC5
102
{ACAD_REACTORS
330
FAB
102
}
330
FAB
100
AcDbScale
70
0
300
3/8" = 1'-0"
140
0.375
141
12.0
290
0
0
SCALE
5
FC6
102
{ACAD_REACTORS
330
FAB
102
}
330
FAB
100
AcDbScale
70
0
300
1/2" = 1'-0"
140
0.5
141
12.0
290
0
0
SCALE
5
FC7
102
{ACAD_REACTORS
330
FAB
102
}
330
FAB
100
AcDbScale
70
0
300
3/4" = 1'-0"
140
0.75
141
12.0
290
0
0
SCALE
5
FC8
102
{ACAD_REACTORS
330
FAB
102
}
330
FAB
100
AcDbScale
70
0
300
1" = 1'-0"
140
1.0
141
12.0
290
0
0
SCALE
5
FC9
102
{ACAD_REACTORS
330
FAB
102
}
330
FAB
100
AcDbScale
70
0
300
1-1/2" = 1'-0"
140
1.5
141
12.0
290
0
0
SCALE
5
FCA
102
{ACAD_REACTORS
330
FAB
102
}
330
FAB
100
AcDbScale
70
0
300
3" = 1'-0"
140
3.0
141
12.0
290
0
0
SCALE
5
FCB
102
{ACAD_REACTORS
330
FAB
102
}
330
FAB
100
AcDbScale
70
0
300
6" = 1'-0"
140
6.0
141
12.0
290
0
0
SCALE
5
FCC
102
{ACAD_REACTORS
330
FAB
102
}
330
FAB
100
AcDbScale
70
0
300
1'-0" = 1'-0"
140
12.0
141
12.0
290
0
0
TABLESTYLE
5
FA9
102
{ACAD_XDICTIONARY
360
FF8
102
}
102
{ACAD_REACTORS
330
FA8
102
}
330
FA8
100
AcDbTableStyle
3
Standard
70
0
71
0
40
0.06
41
0.06
280
0
281
0
7
Standard
140
0.18
170
2
62
0
63
7
283
0
274
-2
284
1
64
0
275
-2
285
1
65
0
276
-2
286
1
66
0
277
-2
287
1
67
0
278
-2
288
1
68
0
279
-2
289
1
69
0
7
Standard
140
0.25
170
5
62
0
63
7
283
0
274
-2
284
1
64
0
275
-2
285
1
65
0
276
-2
286
1
66
0
277
-2
287
1
67
0
278
-2
288
1
68
0
279
-2
289
1
69
0
7
Standard
140
0.18
170
5
62
0
63
7
283
0
274
-2
284
1
64
0
275
-2
285
1
65
0
276
-2
286
1
66
0
277
-2
287
1
67
0
278
-2
288
1
68
0
279
-2
289
1
69
0
0
VISUALSTYLE
5
F99
102
{ACAD_XDICTIONARY
360
108A
102
}
102
{ACAD_REACTORS
330
F93
102
}
330
F93
100
AcDbVisualStyle
2

70
4
71
0
72
2
73
0
90
0
40
-0.6
41
-30.0
62
5
63
7
74
1
91
4
64
7
65
257
75
1
175
1
42
1.0
92
0
66
257
43
1.0
76
1
77
6
78
2
67
7
79
5
170
0
171
0
290
0
174
0
93
1
44
0.0
173
0
291
0
45
0.0
1001
ACAD
1000
AcDbSavedByObjectVersion
1070
0
0
VISUALSTYLE
5
F9B
102
{ACAD_XDICTIONARY
360
108E
102
}
102
{ACAD_REACTORS
330
F93
102
}
330
F93
100
AcDbVisualStyle
2

70
6
71
1
72
2
73
2
90
0
40
-0.6
41
-30.0
62
5
63
7
74
2
91
2
64
7
65
257
75
2
175
1
42
179.0
92
0
66
257
43
1.0
76
1
77
6
78
2
67
7
79
3
170
0
171
0
290
0
174
0
93
1
44
0.0
173
0
291
0
45
0.0
1001
ACAD
1000
AcDbSavedByObjectVersion
1070
0
0
VISUALSTYLE
5
F9A
102
{ACAD_XDICTIONARY
360
108C
102
}
102
{ACAD_REACTORS
330
F93
102
}
330
F93
100
AcDbVisualStyle
2

70
5
71
0
72
2
73
0
90
0
40
-0.6
41
-30.0
62
5
63
7
74
1
91
4
64
7
65
257
75
1
175
1
42
1.0
92
0
66
257
43
1.0
76
1
77
6
78
2
67
7
79
5
170
0
171
0
290
0
174
0
93
1
44
0.0
173
0
291
0
45
0.0
1001
ACAD
1000
AcDbSavedByObjectVersion
1070
0
0
VISUALSTYLE
5
F98
102
{ACAD_XDICTIONARY
360
1088
102
}
102
{ACAD_REACTORS
330
F93
102
}
330
F93
100
AcDbVisualStyle
2

70
7
71
1
72
0
73
1
90
0
40
-0.6
41
-30.0
62
5
63
7
74
0
91
4
64
7
65
257
75
1
175
1
42
1.0
92
8
66
7
43
1.0
76
1
77
6
78
2
67
7
79
5
170
0
171
0
290
0
174
0
93
1
44
0.0
173
0
291
1
45
0.0
1001
ACAD
1000
AcDbSavedByObjectVersion
1070
0
0
VISUALSTYLE
5
F9F
102
{ACAD_XDICTIONARY
360
1096
102
}
102
{ACAD_REACTORS
330
F93
102
}
330
F93
100
AcDbVisualStyle
2

70
12
71
2
72
2
73
0
90
0
40
-0.6
41
-30.0
62
5
63
7
74
1
91
4
64
7
65
257
75
1
175
1
42
1.0
92
8
66
7
43
1.0
76
1
77
6
78
2
67
7
79
5
170
0
171
0
290
0
174
0
93
1
44
50.0
173
0
291
1
45
0.0
1001
ACAD
1000
AcDbSavedByObjectVersion
1070
0
0
VISUALSTYLE
5
FA3
102
{ACAD_XDICTIONARY
360
109E
102
}
102
{ACAD_REACTORS
330
F93
102
}
330
F93
100
AcDbVisualStyle
2

70
16
71
2
72
2
73
3
90
0
40
-0.6
41
-30.0
62
5
63
8
74
1
91
4
64
7
65
257
75
1
175
1
42
1.0
92
8
66
8
43
1.0
76
1
77
6
78
2
67
7
79
5
170
0
171
0
290
0
174
0
93
1
44
0.0
173
0
291
1
45
0.0
1001
ACAD
1000
AcDbSavedByObjectVersion
1070
0
0
VISUALSTYLE
5
F9C
102
{ACAD_XDICTIONARY
360
1090
102
}
102
{ACAD_REACTORS
330
F93
102
}
330
F93
100
AcDbVisualStyle
2

70
9
71
3
72
2
73
0
90
0
40
-0.6
41
-30.0
62
5
63
7
74
2
91
2
64
7
65
257
75
1
175
1
42
179.0
92
8
66
7
43
1.0
76
1
77
6
78
2
67
7
79
3
170
0
171
0
290
0
174
0
93
1
44
0.0
173
0
291
0
45
0.0
1001
ACAD
1000
AcDbSavedByObjectVersion
1070
0
0
VISUALSTYLE
5
F9E
102
{ACAD_XDICTIONARY
360
1094
102
}
102
{ACAD_REACTORS
330
F93
102
}
330
F93
100
AcDbVisualStyle
2

70
11
71
2
72
2
73
0
90
0
40
-0.6
41
-30.0
62
5
63
7
74
1
91
4
64
7
65
257
75
1
175
1
42
1.0
92
8
66
7
43
1.0
76
1
77
6
78
2
67
7
79
5
170
0
171
0
290
0
174
0
93
1
44
-50.0
173
0
291
1
45
0.0
1001
ACAD
1000
AcDbSavedByObjectVersion
1070
0
0
VISUALSTYLE
5
FA6
102
{ACAD_XDICTIONARY
360
10A4
102
}
102
{ACAD_REACTORS
330
F93
102
}
330
F93
100
AcDbVisualStyle
2

70
22
71
2
72
2
73
0
90
0
40
-0.6
41
-30.0
62
5
63
7
74
1
91
4
64
7
65
257
75
1
175
1
42
1.0
92
8
66
7
43
1.0
76
1
77
6
78
2
67
7
79
5
170
0
171
0
290
0
174
0
93
1
44
0.0
173
0
291
1
45
0.0
1001
ACAD
1000
AcDbSavedByObjectVersion
1070
0
0
VISUALSTYLE
5
FA2
102
{ACAD_XDICTIONARY
360
109C
102
}
102
{ACAD_REACTORS
330
F93
102
}
330
F93
100
AcDbVisualStyle
2

70
15
71
2
72
2
73
0
90
0
40
-0.6
41
-30.0
62
5
63
7
74
1
91
4
64
7
65
257
75
1
175
1
42
1.0
92
8
66
7
43
1.0
76
1
77
6
78
2
67
7
79
5
170
0
171
0
290
0
174
0
93
1
44
0.0
173
0
291
1
45
0.0
1001
ACAD
1000
AcDbSavedByObjectVersion
1070
0
0
VISUALSTYLE
5
F94
102
{ACAD_XDICTIONARY
360
1080
102
}
102
{ACAD_REACTORS
330
F93
102
}
330
F93
100
AcDbVisualStyle
2

70
0
71
2
72
1
73
1
90
2
40
-0.6
41
30.0
62
5
63
7
74
0
91
4
64
7
65
257
75
1
175
1
42
1.0
92
8
66
7
43
1.0
76
1
77
6
78
2
67
7
79
5
170
0
171
0
290
0
174
0
93
13
44
0.0
173
0
291
1
45
0.0
1001
ACAD
1000
AcDbSavedByObjectVersion
1070
0
0
VISUALSTYLE
5
F95
102
{ACAD_XDICTIONARY
360
1082
102
}
102
{ACAD_REACTORS
330
F93
102
}
330
F93
100
AcDbVisualStyle
2

70
1
71
2
72
1
73
1
90
2
40
-0.6
41
30.0
62
5
63
7
74
1
91
4
64
7
65
257
75
1
175
1
42
1.0
92
0
66
257
43
1.0
76
1
77
6
78
2
67
7
79
5
170
0
171
0
290
0
174
0
93
13
44
0.0
173
0
291
1
45
0.0
1001
ACAD
1000
AcDbSavedByObjectVersion
1070
0
0
VISUALSTYLE
5
F96
102
{ACAD_XDICTIONARY
360
1084
102
}
102
{ACAD_REACTORS
330
F93
102
}
330
F93
100
AcDbVisualStyle
2

70
2
71
2
72
2
73
1
90
2
40
-0.6
41
30.0
62
5
63
7
74
0
91
4
64
7
65
257
75
1
175
1
42
1.0
92
0
66
7
43
1.0
76
1
77
6
78
2
67
7
79
5
170
0
171
0
290
0
174
0
93
13
44
0.0
173
0
291
1
45
0.0
1001
ACAD
1000
AcDbSavedByObjectVersion
1070
0
0
VISUALSTYLE
5
F97
102
{ACAD_XDICTIONARY
360
1086
102
}
102
{ACAD_REACTORS
330
F93
102
}
330
F93
100
AcDbVisualStyle
2

70
3
71
2
72
2
73
1
90
2
40
-0.6
41
30.0
62
5
63
7
74
1
91
4
64
7
65
257
75
1
175
1
42
1.0
92
0
66
257
43
1.0
76
1
77
6
78
2
67
7
79
5
170
0
171
0
290
0
174
0
93
13
44
0.0
173
0
291
1
45
0.0
1001
ACAD
1000
AcDbSavedByObjectVersion
1070
0
0
VISUALSTYLE
5
FA4
102
{ACAD_XDICTIONARY
360
10A0
102
}
102
{ACAD_REACTORS
330
F93
102
}
330
F93
100
AcDbVisualStyle
2

70
20
71
2
72
2
73
0
90
0
40
-0.6
41
-30.0
62
5
63
7
74
1
91
4
64
7
65
257
75
1
175
1
42
1.0
92
10
66
7
43
1.0
76
1
77
6
78
2
67
7
79
5
170
0
171
0
290
0
174
0
93
1
44
0.0
173
0
291
1
45
0.0
1001
ACAD
1000
AcDbSavedByObjectVersion
1070
0
0
VISUALSTYLE
5
FA1
102
{ACAD_XDICTIONARY
360
109A
102
}
102
{ACAD_REACTORS
330
F93
102
}
330
F93
100
AcDbVisualStyle
2

70
14
71
2
72
2
73
0
90
0
40
-0.6
41
-30.0
62
5
63
7
74
1
91
4
64
7
65
257
75
7
175
7
42
1.0
92
8
66
7
43
1.0
76
1
77
6
78
2
67
7
79
5
170
0
171
0
290
0
174
0
93
1
44
0.0
173
0
291
1
45
0.0
1001
ACAD
1000
AcDbSavedByObjectVersion
1070
0
0
VISUALSTYLE
5
FA5
102
{ACAD_XDICTIONARY
360
10A2
102
}
102
{ACAD_REACTORS
330
F93
102
}
330
F93
100
AcDbVisualStyle
2

70
21
71
2
72
2
73
0
90
0
40
-0.6
41
-30.0
62
5
63
7
74
1
91
4
64
7
65
257
75
1
175
1
42
1.0
92
9
66
7
43
1.0
76
1
77
6
78
2
67
7
79
5
170
0
171
0
290
0
174
0
93
1
44
0.0
173
0
291
1
45
0.0
1001
ACAD
1000
AcDbSavedByObjectVersion
1070
0
0
VISUALSTYLE
5
F9D
102
{ACAD_XDICTIONARY
360
1092
102
}
102
{ACAD_REACTORS
330
F93
102
}
330
F93
100
AcDbVisualStyle
2

70
8
71
2
72
2
73
0
90
0
40
-0.6
41
-30.0
62
5
63
7
74
1
91
0
64
7
65
257
75
1
175
1
42
1.0
92
8
66
8
43
1.0
76
1
77
6
78
2
67
7
79
5
170
0
171
0
290
0
174
0
93
13
44
0.0
173
0
291
0
45
0.0
1001
ACAD
1000
AcDbSavedByObjectVersion
1070
0
0
VISUALSTYLE
5
FA0
102
{ACAD_XDICTIONARY
360
1098
102
}
102
{ACAD_REACTORS
330
F93
102
}
330
F93
100
AcDbVisualStyle
2

70
13
71
2
72
2
73
0
90
0
40
-0.6
41
-30.0
62
5
63
7
74
1
91
4
64
7
65
257
75
1
175
1
42
1.0
92
12
66
7
43
1.0
76
1
77
6
78
2
67
7
79
5
170
0
171
0
290
0
174
0
93
1
44
0.0
173
0
291
1
45
0.0
1001
ACAD
1000
AcDbSavedByObjectVersion
1070
0
0
DICTIONARYVAR
5
FF3
102
{ACAD_REACTORS
330
FF0
102
}
330
FF0
100
DictionaryVariables
280
0
1
1:1
0
DICTIONARYVAR
5
FF2
102
{ACAD_REACTORS
330
FF0
102
}
330
FF0
100
DictionaryVariables
280
0
1
STANDARD
0
DICTIONARYVAR
5
FF1
102
{ACAD_REACTORS
330
FF0
102
}
330
FF0
100
DictionaryVariables
280
0
1
STANDARD
0
DICTIONARYVAR
5
FF6
102
{ACAD_REACTORS
330
FF0
102
}
330
FF0
100
DictionaryVariables
280
0
1
1
0
DICTIONARYVAR
5
FF5
102
{ACAD_REACTORS
330
FF0
102
}
330
FF0
100
DictionaryVariables
280
0
1
0
0
DICTIONARYVAR
5
FF4
102
{ACAD_REACTORS
330
FF0
102
}
330
FF0
100
DictionaryVariables
280
0
1
127
0
DICTIONARYVAR
5
1078
102
{ACAD_REACTORS
330
FF0
102
}
330
FF0
100
DictionaryVariables
280
0
1
2
0
DICTIONARY
5
10A9
330
FD1
100
AcDbDictionary
280
1
281
1
3
ACAD_XREC_ROUNDTRIP
360
10AA
0
DICTIONARY
5
10A7
330
FD0
100
AcDbDictionary
280
1
281
1
3
ACAD_XREC_ROUNDTRIP
360
10A8
0
DICTIONARY
5
F84
330
F83
100
AcDbDictionary
280
1
281
1
3
ACAD_XREC_ROUNDTRIP
360
FFF
3
BUMPTILE
360
F86
3
DIFFUSETILE
360
F85
3
OPACITYTILE
360
F89
3
REFLECTIONTILE
360
F88
3
REFRACTIONTILE
360
F8A
3
SPECULARTILE
360
F87
0
DICTIONARY
5
F7C
330
F7B
100
AcDbDictionary
280
1
281
1
3
ACAD_XREC_ROUNDTRIP
360
FFE
3
BUMPTILE
360
F7E
3
DIFFUSETILE
360
F7D
3
OPACITYTILE
360
F81
3
REFLECTIONTILE
360
F80
3
REFRACTIONTILE
360
F82
3
SPECULARTILE
360
F7F
0
DICTIONARY
5
F8C
330
F8B
100
AcDbDictionary
280
1
281
1
3
ACAD_XREC_ROUNDTRIP
360
1000
3
BUMPTILE
360
F8E
3
DIFFUSETILE
360
F8D
3
OPACITYTILE
360
F91
3
REFLECTIONTILE
360
F90
3
REFRACTIONTILE
360
F92
3
SPECULARTILE
360
F8F
0
DICTIONARY
5
FF8
330
FA9
100
AcDbDictionary
280
1
281
1
3
ACAD_ROUNDTRIP_2008_TABLESTYLE_CELLSTYLEMAP
360
1079
3
ACAD_XREC_ROUNDTRIP
360
10A6
0
DICTIONARY
5
108A
330
F99
100
AcDbDictionary
280
1
281
1
3
ACAD_XREC_ROUNDTRIP
360
108B
0
DICTIONARY
5
108E
330
F9B
100
AcDbDictionary
280
1
281
1
3
ACAD_XREC_ROUNDTRIP
360
108F
0
DICTIONARY
5
108C
330
F9A
100
AcDbDictionary
280
1
281
1
3
ACAD_XREC_ROUNDTRIP
360
108D
0
DICTIONARY
5
1088
330
F98
100
AcDbDictionary
280
1
281
1
3
ACAD_XREC_ROUNDTRIP
360
1089
0
DICTIONARY
5
1096
330
F9F
100
AcDbDictionary
280
1
281
1
3
ACAD_XREC_ROUNDTRIP
360
1097
0
DICTIONARY
5
109E
330
FA3
100
AcDbDictionary
280
1
281
1
3
ACAD_XREC_ROUNDTRIP
360
109F
0
DICTIONARY
5
1090
330
F9C
100
AcDbDictionary
280
1
281
1
3
ACAD_XREC_ROUNDTRIP
360
1091
0
DICTIONARY
5
1094
330
F9E
100
AcDbDictionary
280
1
281
1
3
ACAD_XREC_ROUNDTRIP
360
1095
0
DICTIONARY
5
10A4
330
FA6
100
AcDbDictionary
280
1
281
1
3
ACAD_XREC_ROUNDTRIP
360
10A5
0
DICTIONARY
5
109C
330
FA2
100
AcDbDictionary
280
1
281
1
3
ACAD_XREC_ROUNDTRIP
360
109D
0
DICTIONARY
5
1080
330
F94
100
AcDbDictionary
280
1
281
1
3
ACAD_XREC_ROUNDTRIP
360
1081
0
DICTIONARY
5
1082
330
F95
100
AcDbDictionary
280
1
281
1
3
ACAD_XREC_ROUNDTRIP
360
1083
0
DICTIONARY
5
1084
330
F96
100
AcDbDictionary
280
1
281
1
3
ACAD_XREC_ROUNDTRIP
360
1085
0
DICTIONARY
5
1086
330
F97
100
AcDbDictionary
280
1
281
1
3
ACAD_XREC_ROUNDTRIP
360
1087
0
DICTIONARY
5
10A0
330
FA4
100
AcDbDictionary
280
1
281
1
3
ACAD_XREC_ROUNDTRIP
360
10A1
0
DICTIONARY
5
109A
330
FA1
100
AcDbDictionary
280
1
281
1
3
ACAD_XREC_ROUNDTRIP
360
109B
0
DICTIONARY
5
10A2
330
FA5
100
AcDbDictionary
280
1
281
1
3
ACAD_XREC_ROUNDTRIP
360
10A3
0
DICTIONARY
5
1092
330
F9D
100
AcDbDictionary
280
1
281
1
3
ACAD_XREC_ROUNDTRIP
360
1093
0
DICTIONARY
5
1098
330
FA0
100
AcDbDictionary
280
1
281
1
3
ACAD_XREC_ROUNDTRIP
360
1099
0
XRECORD
5
10AA
102
{ACAD_REACTORS
330
10A9
102
}
330
10A9
100
AcDbXrecord
280
1
102
SHADEPLOT
70
0
102
SHADEPLOTRESLEVEL
70
2
102
SHADEPLOTCUSTOMDPI
70
300
0
XRECORD
5
10A8
102
{ACAD_REACTORS
330
10A7
102
}
330
10A7
100
AcDbXrecord
280
1
102
SHADEPLOT
70
0
102
SHADEPLOTRESLEVEL
70
2
102
SHADEPLOTCUSTOMDPI
70
300
0
XRECORD
5
FFF
102
{ACAD_REACTORS
330
F84
102
}
330
F84
100
AcDbXrecord
280
1
102
MATERIAL
148
0.0
149
0.0
149
0.0
93
0
94
127
282
0
72
0
77
0
171
0
175
0
179
0
273
0
0
XRECORD
5
F86
102
{ACAD_REACTORS
330
F84
102
}
330
F84
100
AcDbXrecord
280
1
270
1
271
1
0
XRECORD
5
F85
102
{ACAD_REACTORS
330
F84
102
}
330
F84
100
AcDbXrecord
280
1
270
1
271
1
0
XRECORD
5
F89
102
{ACAD_REACTORS
330
F84
102
}
330
F84
100
AcDbXrecord
280
1
270
1
271
1
0
XRECORD
5
F88
102
{ACAD_REACTORS
330
F84
102
}
330
F84
100
AcDbXrecord
280
1
270
1
271
1
0
XRECORD
5
F8A
102
{ACAD_REACTORS
330
F84
102
}
330
F84
100
AcDbXrecord
280
1
270
1
271
1
0
XRECORD
5
F87
102
{ACAD_REACTORS
330
F84
102
}
330
F84
100
AcDbXrecord
280
1
270
1
271
1
0
XRECORD
5
FFE
102
{ACAD_REACTORS
330
F7C
102
}
330
F7C
100
AcDbXrecord
280
1
102
MATERIAL
148
0.0
149
0.0
149
0.0
93
0
94
127
282
0
72
0
77
0
171
0
175
0
179
0
273
0
0
XRECORD
5
F7E
102
{ACAD_REACTORS
330
F7C
102
}
330
F7C
100
AcDbXrecord
280
1
270
1
271
1
0
XRECORD
5
F7D
102
{ACAD_REACTORS
330
F7C
102
}
330
F7C
100
AcDbXrecord
280
1
270
1
271
1
0
XRECORD
5
F81
102
{ACAD_REACTORS
330
F7C
102
}
330
F7C
100
AcDbXrecord
280
1
270
1
271
1
0
XRECORD
5
F80
102
{ACAD_REACTORS
330
F7C
102
}
330
F7C
100
AcDbXrecord
280
1
270
1
271
1
0
XRECORD
5
F82
102
{ACAD_REACTORS
330
F7C
102
}
330
F7C
100
AcDbXrecord
280
1
270
1
271
1
0
XRECORD
5
F7F
102
{ACAD_REACTORS
330
F7C
102
}
330
F7C
100
AcDbXrecord
280
1
270
1
271
1
0
XRECORD
5
1000
102
{ACAD_REACTORS
330
F8C
102
}
330
F8C
100
AcDbXrecord
280
1
102
MATERIAL
148
0.0
149
0.0
149
0.0
93
0
94
127
282
0
72
0
77
0
171
0
175
0
179
0
273
0
0
XRECORD
5
F8E
102
{ACAD_REACTORS
330
F8C
102
}
330
F8C
100
AcDbXrecord
280
1
270
1
271
1
0
XRECORD
5
F8D
102
{ACAD_REACTORS
330
F8C
102
}
330
F8C
100
AcDbXrecord
280
1
270
1
271
1
0
XRECORD
5
F91
102
{ACAD_REACTORS
330
F8C
102
}
330
F8C
100
AcDbXrecord
280
1
270
1
271
1
0
XRECORD
5
F90
102
{ACAD_REACTORS
330
F8C
102
}
330
F8C
100
AcDbXrecord
280
1
270
1
271
1
0
XRECORD
5
F92
102
{ACAD_REACTORS
330
F8C
102
}
330
F8C
100
AcDbXrecord
280
1
270
1
271
1
0
XRECORD
5
F8F
102
{ACAD_REACTORS
330
F8C
102
}
330
F8C
100
AcDbXrecord
280
1
270
1
271
1
0
CELLSTYLEMAP
5
1079
102
{ACAD_REACTORS
330
FF8
102
}
330
FF8
100
AcDbCellStyleMap
90
3
300
CELLSTYLE
1
TABLEFORMAT_BEGIN
90
5
170
1
91
0
92
32768
62
257
93
1
300
CONTENTFORMAT
1
CONTENTFORMAT_BEGIN
90
0
91
0
92
512
93
0
300

40
0.0
140
1.0
94
5
62
0
340
253
144
0.25
309
CONTENTFORMAT_END
171
1
301
MARGIN
1
CELLMARGIN_BEGIN
40
0.06
40
0.06
40
0.06
40
0.06
40
0.18
40
0.18
309
CELLMARGIN_END
94
6
95
1
302
GRIDFORMAT
1
GRIDFORMAT_BEGIN
90
0
91
1
62
0
92
-2
340
0
93
0
40
0.045
309
GRIDFORMAT_END
95
2
302
GRIDFORMAT
1
GRIDFORMAT_BEGIN
90
0
91
1
62
0
92
-2
340
0
93
0
40
0.045
309
GRIDFORMAT_END
95
4
302
GRIDFORMAT
1
GRIDFORMAT_BEGIN
90
0
91
1
62
0
92
-2
340
0
93
0
40
0.045
309
GRIDFORMAT_END
95
8
302
GRIDFORMAT
1
GRIDFORMAT_BEGIN
90
0
91
1
62
0
92
-2
340
0
93
0
40
0.045
309
GRIDFORMAT_END
95
16
302
GRIDFORMAT
1
GRIDFORMAT_BEGIN
90
0
91
1
62
0
92
-2
340
0
93
0
40
0.045
309
GRIDFORMAT_END
95
32
302
GRIDFORMAT
1
GRIDFORMAT_BEGIN
90
0
91
1
62
0
92
-2
340
0
93
0
40
0.045
309
GRIDFORMAT_END
309
TABLEFORMAT_END
1
CELLSTYLE_BEGIN
90
1
91
1
300
_TITLE
309
CELLSTYLE_END
300
CELLSTYLE
1
TABLEFORMAT_BEGIN
90
5
170
1
91
0
92
0
62
257
93
1
300
CONTENTFORMAT
1
CONTENTFORMAT_BEGIN
90
0
91
0
92
512
93
0
300

40
0.0
140
1.0
94
5
62
0
340
253
144
0.18
309
CONTENTFORMAT_END
171
1
301
MARGIN
1
CELLMARGIN_BEGIN
40
0.06
40
0.06
40
0.06
40
0.06
40
0.18
40
0.18
309
CELLMARGIN_END
94
6
95
1
302
GRIDFORMAT
1
GRIDFORMAT_BEGIN
90
0
91
1
62
0
92
-2
340
0
93
0
40
0.045
309
GRIDFORMAT_END
95
2
302
GRIDFORMAT
1
GRIDFORMAT_BEGIN
90
0
91
1
62
0
92
-2
340
0
93
0
40
0.045
309
GRIDFORMAT_END
95
4
302
GRIDFORMAT
1
GRIDFORMAT_BEGIN
90
0
91
1
62
0
92
-2
340
0
93
0
40
0.045
309
GRIDFORMAT_END
95
8
302
GRIDFORMAT
1
GRIDFORMAT_BEGIN
90
0
91
1
62
0
92
-2
340
0
93
0
40
0.045
309
GRIDFORMAT_END
95
16
302
GRIDFORMAT
1
GRIDFORMAT_BEGIN
90
0
91
1
62
0
92
-2
340
0
93
0
40
0.045
309
GRIDFORMAT_END
95
32
302
GRIDFORMAT
1
GRIDFORMAT_BEGIN
90
0
91
1
62
0
92
-2
340
0
93
0
40
0.045
309
GRIDFORMAT_END
309
TABLEFORMAT_END
1
CELLSTYLE_BEGIN
90
2
91
1
300
_HEADER
309
CELLSTYLE_END
300
CELLSTYLE
1
TABLEFORMAT_BEGIN
90
5
170
1
91
0
92
0
62
257
93
1
300
CONTENTFORMAT
1
CONTENTFORMAT_BEGIN
90
0
91
0
92
512
93
0
300

40
0.0
140
1.0
94
2
62
0
340
253
144
0.18
309
CONTENTFORMAT_END
171
1
301
MARGIN
1
CELLMARGIN_BEGIN
40
0.06
40
0.06
40
0.06
40
0.06
40
0.18
40
0.18
309
CELLMARGIN_END
94
6
95
1
302
GRIDFORMAT
1
GRIDFORMAT_BEGIN
90
0
91
1
62
0
92
-2
340
0
93
0
40
0.045
309
GRIDFORMAT_END
95
2
302
GRIDFORMAT
1
GRIDFORMAT_BEGIN
90
0
91
1
62
0
92
-2
340
0
93
0
40
0.045
309
GRIDFORMAT_END
95
4
302
GRIDFORMAT
1
GRIDFORMAT_BEGIN
90
0
91
1
62
0
92
-2
340
0
93
0
40
0.045
309
GRIDFORMAT_END
95
8
302
GRIDFORMAT
1
GRIDFORMAT_BEGIN
90
0
91
1
62
0
92
-2
340
0
93
0
40
0.045
309
GRIDFORMAT_END
95
16
302
GRIDFORMAT
1
GRIDFORMAT_BEGIN
90
0
91
1
62
0
92
-2
340
0
93
0
40
0.045
309
GRIDFORMAT_END
95
32
302
GRIDFORMAT
1
GRIDFORMAT_BEGIN
90
0
91
1
62
0
92
-2
340
0
93
0
40
0.045
309
GRIDFORMAT_END
309
TABLEFORMAT_END
1
CELLSTYLE_BEGIN
90
3
91
2
300
_DATA
309
CELLSTYLE_END
0
XRECORD
5
10A6
102
{ACAD_REACTORS
330
FF8
102
}
330
FF8
100
AcDbXrecord
280
1
102
ACAD_ROUNDTRIP_PRE2007_TABLESTYLE
90
512
91
0
1

92
512
93
0
2

94
512
95
0
3

0
XRECORD
5
108B
102
{ACAD_REACTORS
330
108A
102
}
330
108A
100
AcDbXrecord
280
1
102
RTVSPropertyOp0
70
1
102
RTVSPropertyOp1
70
1
102
RTVSPropertyOp2
70
1
102
RTVSPropertyOp3
70
1
102
RTVSPropertyOp4
70
1
102
RTVSPropertyOp5
70
1
102
RTVSPropertyOp6
70
1
102
RTVSPropertyOp7
70
1
102
RTVSPropertyOp8
70
1
102
RTVSPropertyOp9
70
1
102
RTVSPropertyOp10
70
1
102
RTVSPropertyOp11
70
1
102
RTVSPropertyOp12
70
1
102
RTVSPropertyOp13
70
1
102
RTVSPropertyOp14
70
1
102
RTVSPropertyOp15
70
1
102
RTVSPropertyOp16
70
1
102
RTVSPropertyOp17
70
1
102
RTVSPropertyOp18
70
1
102
RTVSPropertyOp19
70
1
102
RTVSPropertyOp20
70
1
102
RTVSPropertyOp21
70
1
102
RTVSPropertyOp22
70
1
102
RTVSPropertyOp23
70
1
102
RTVSPropertyOp24
70
1
102
RTVSPropertyOp25
70
1
102
RTVSPropertyOp26
70
1
102
RTVSPropertyOp27
70
1
0
XRECORD
5
108F
102
{ACAD_REACTORS
330
108E
102
}
330
108E
100
AcDbXrecord
280
1
102
RTVSPropertyOp0
70
1
102
RTVSPropertyOp1
70
1
102
RTVSPropertyOp2
70
1
102
RTVSPropertyOp3
70
1
102
RTVSPropertyOp4
70
1
102
RTVSPropertyOp5
70
1
102
RTVSPropertyOp6
70
1
102
RTVSPropertyOp7
70
1
102
RTVSPropertyOp8
70
1
102
RTVSPropertyOp9
70
1
102
RTVSPropertyOp10
70
1
102
RTVSPropertyOp11
70
1
102
RTVSPropertyOp12
70
1
102
RTVSPropertyOp13
70
1
102
RTVSPropertyOp14
70
1
102
RTVSPropertyOp15
70
1
102
RTVSPropertyOp16
70
1
102
RTVSPropertyOp17
70
1
102
RTVSPropertyOp18
70
1
102
RTVSPropertyOp19
70
1
102
RTVSPropertyOp20
70
1
102
RTVSPropertyOp21
70
1
102
RTVSPropertyOp22
70
1
102
RTVSPropertyOp23
70
1
102
RTVSPropertyOp24
70
1
102
RTVSPropertyOp25
70
1
102
RTVSPropertyOp26
70
1
102
RTVSPropertyOp27
70
1
0
XRECORD
5
108D
102
{ACAD_REACTORS
330
108C
102
}
330
108C
100
AcDbXrecord
280
1
102
RTVSPropertyOp0
70
1
102
RTVSPropertyOp1
70
1
102
RTVSPropertyOp2
70
1
102
RTVSPropertyOp3
70
1
102
RTVSPropertyOp4
70
1
102
RTVSPropertyOp5
70
1
102
RTVSPropertyOp6
70
1
102
RTVSPropertyOp7
70
1
102
RTVSPropertyOp8
70
1
102
RTVSPropertyOp9
70
1
102
RTVSPropertyOp10
70
1
102
RTVSPropertyOp11
70
1
102
RTVSPropertyOp12
70
1
102
RTVSPropertyOp13
70
1
102
RTVSPropertyOp14
70
1
102
RTVSPropertyOp15
70
1
102
RTVSPropertyOp16
70
1
102
RTVSPropertyOp17
70
1
102
RTVSPropertyOp18
70
1
102
RTVSPropertyOp19
70
1
102
RTVSPropertyOp20
70
1
102
RTVSPropertyOp21
70
1
102
RTVSPropertyOp22
70
1
102
RTVSPropertyOp23
70
1
102
RTVSPropertyOp24
70
1
102
RTVSPropertyOp25
70
1
102
RTVSPropertyOp26
70
1
102
RTVSPropertyOp27
70
1
0
XRECORD
5
1089
102
{ACAD_REACTORS
330
1088
102
}
330
1088
100
AcDbXrecord
280
1
102
RTVSPropertyOp0
70
1
102
RTVSPropertyOp1
70
1
102
RTVSPropertyOp2
70
1
102
RTVSPropertyOp3
70
1
102
RTVSPropertyOp4
70
1
102
RTVSPropertyOp5
70
1
102
RTVSPropertyOp6
70
1
102
RTVSPropertyOp7
70
1
102
RTVSPropertyOp8
70
1
102
RTVSPropertyOp9
70
1
102
RTVSPropertyOp10
70
1
102
RTVSPropertyOp11
70
1
102
RTVSPropertyOp12
70
1
102
RTVSPropertyOp13
70
1
102
RTVSPropertyOp14
70
1
102
RTVSPropertyOp15
70
1
102
RTVSPropertyOp16
70
1
102
RTVSPropertyOp17
70
1
102
RTVSPropertyOp18
70
1
102
RTVSPropertyOp19
70
1
102
RTVSPropertyOp20
70
1
102
RTVSPropertyOp21
70
1
102
RTVSPropertyOp22
70
1
102
RTVSPropertyOp23
70
1
102
RTVSPropertyOp24
70
1
102
RTVSPropertyOp25
70
1
102
RTVSPropertyOp26
70
1
102
RTVSPropertyOp27
70
1
0
XRECORD
5
1097
102
{ACAD_REACTORS
330
1096
102
}
330
1096
100
AcDbXrecord
280
1
102
RTVSPropertyOp0
70
1
102
RTVSPropertyOp1
70
1
102
RTVSPropertyOp2
70
1
102
RTVSPropertyOp3
70
1
102
RTVSPropertyOp4
70
1
102
RTVSPropertyOp5
70
1
102
RTVSPropertyOp6
70
1
102
RTVSPropertyOp7
70
1
102
RTVSPropertyOp8
70
1
102
RTVSPropertyOp9
70
1
102
RTVSPropertyOp10
70
1
102
RTVSPropertyOp11
70
1
102
RTVSPropertyOp12
70
1
102
RTVSPropertyOp13
70
1
102
RTVSPropertyOp14
70
1
102
RTVSPropertyOp15
70
1
102
RTVSPropertyOp16
70
1
102
RTVSPropertyOp17
70
1
102
RTVSPropertyOp18
70
1
102
RTVSPropertyOp19
70
1
102
RTVSPropertyOp20
70
1
102
RTVSPropertyOp21
70
1
102
RTVSPropertyOp22
70
1
102
RTVSPropertyOp23
70
1
102
RTVSPropertyOp24
70
1
102
RTVSPropertyOp25
70
1
102
RTVSPropertyOp26
70
1
102
RTVSPropertyOp27
70
1
0
XRECORD
5
109F
102
{ACAD_REACTORS
330
109E
102
}
330
109E
100
AcDbXrecord
280
1
102
RTVSPropertyOp0
70
1
102
RTVSPropertyOp1
70
1
102
RTVSPropertyOp2
70
1
102
RTVSPropertyOp3
70
1
102
RTVSPropertyOp4
70
1
102
RTVSPropertyOp5
70
1
102
RTVSPropertyOp6
70
1
102
RTVSPropertyOp7
70
1
102
RTVSPropertyOp8
70
1
102
RTVSPropertyOp9
70
1
102
RTVSPropertyOp10
70
1
102
RTVSPropertyOp11
70
1
102
RTVSPropertyOp12
70
1
102
RTVSPropertyOp13
70
1
102
RTVSPropertyOp14
70
1
102
RTVSPropertyOp15
70
1
102
RTVSPropertyOp16
70
1
102
RTVSPropertyOp17
70
1
102
RTVSPropertyOp18
70
1
102
RTVSPropertyOp19
70
1
102
RTVSPropertyOp20
70
1
102
RTVSPropertyOp21
70
1
102
RTVSPropertyOp22
70
1
102
RTVSPropertyOp23
70
1
102
RTVSPropertyOp24
70
1
102
RTVSPropertyOp25
70
1
102
RTVSPropertyOp26
70
1
102
RTVSPropertyOp27
70
1
0
XRECORD
5
1091
102
{ACAD_REACTORS
330
1090
102
}
330
1090
100
AcDbXrecord
280
1
102
RTVSPropertyOp0
70
1
102
RTVSPropertyOp1
70
1
102
RTVSPropertyOp2
70
1
102
RTVSPropertyOp3
70
1
102
RTVSPropertyOp4
70
1
102
RTVSPropertyOp5
70
1
102
RTVSPropertyOp6
70
1
102
RTVSPropertyOp7
70
1
102
RTVSPropertyOp8
70
1
102
RTVSPropertyOp9
70
1
102
RTVSPropertyOp10
70
1
102
RTVSPropertyOp11
70
1
102
RTVSPropertyOp12
70
1
102
RTVSPropertyOp13
70
1
102
RTVSPropertyOp14
70
1
102
RTVSPropertyOp15
70
1
102
RTVSPropertyOp16
70
1
102
RTVSPropertyOp17
70
1
102
RTVSPropertyOp18
70
1
102
RTVSPropertyOp19
70
1
102
RTVSPropertyOp20
70
1
102
RTVSPropertyOp21
70
1
102
RTVSPropertyOp22
70
1
102
RTVSPropertyOp23
70
1
102
RTVSPropertyOp24
70
1
102
RTVSPropertyOp25
70
1
102
RTVSPropertyOp26
70
1
102
RTVSPropertyOp27
70
1
0
XRECORD
5
1095
102
{ACAD_REACTORS
330
1094
102
}
330
1094
100
AcDbXrecord
280
1
102
RTVSPropertyOp0
70
1
102
RTVSPropertyOp1
70
1
102
RTVSPropertyOp2
70
1
102
RTVSPropertyOp3
70
1
102
RTVSPropertyOp4
70
1
102
RTVSPropertyOp5
70
1
102
RTVSPropertyOp6
70
1
102
RTVSPropertyOp7
70
1
102
RTVSPropertyOp8
70
1
102
RTVSPropertyOp9
70
1
102
RTVSPropertyOp10
70
1
102
RTVSPropertyOp11
70
1
102
RTVSPropertyOp12
70
1
102
RTVSPropertyOp13
70
1
102
RTVSPropertyOp14
70
1
102
RTVSPropertyOp15
70
1
102
RTVSPropertyOp16
70
1
102
RTVSPropertyOp17
70
1
102
RTVSPropertyOp18
70
1
102
RTVSPropertyOp19
70
1
102
RTVSPropertyOp20
70
1
102
RTVSPropertyOp21
70
1
102
RTVSPropertyOp22
70
1
102
RTVSPropertyOp23
70
1
102
RTVSPropertyOp24
70
1
102
RTVSPropertyOp25
70
1
102
RTVSPropertyOp26
70
1
102
RTVSPropertyOp27
70
1
0
XRECORD
5
10A5
102
{ACAD_REACTORS
330
10A4
102
}
330
10A4
100
AcDbXrecord
280
1
102
RTVSPropertyOp0
70
0
102
RTVSPropertyOp1
70
0
102
RTVSPropertyOp2
70
0
102
RTVSPropertyOp3
70
0
102
RTVSPropertyOp4
70
0
102
RTVSPropertyOp5
70
0
102
RTVSPropertyOp6
70
0
102
RTVSPropertyOp7
70
0
102
RTVSPropertyOp8
70
0
102
RTVSPropertyOp9
70
0
102
RTVSPropertyOp10
70
0
102
RTVSPropertyOp11
70
0
102
RTVSPropertyOp12
70
0
102
RTVSPropertyOp13
70
0
102
RTVSPropertyOp14
70
2
102
RTVSPropertyOp15
70
0
102
RTVSPropertyOp16
70
0
102
RTVSPropertyOp17
70
0
102
RTVSPropertyOp18
70
0
102
RTVSPropertyOp19
70
0
102
RTVSPropertyOp20
70
0
102
RTVSPropertyOp21
70
0
102
RTVSPropertyOp22
70
0
102
RTVSPropertyOp23
70
0
102
RTVSPropertyOp24
70
0
102
RTVSPropertyOp25
70
0
102
RTVSPropertyOp26
70
0
102
RTVSPropertyOp27
70
0
0
XRECORD
5
109D
102
{ACAD_REACTORS
330
109C
102
}
330
109C
100
AcDbXrecord
280
1
102
RTVSPropertyOp0
70
1
102
RTVSPropertyOp1
70
1
102
RTVSPropertyOp2
70
1
102
RTVSPropertyOp3
70
1
102
RTVSPropertyOp4
70
1
102
RTVSPropertyOp5
70
1
102
RTVSPropertyOp6
70
1
102
RTVSPropertyOp7
70
1
102
RTVSPropertyOp8
70
1
102
RTVSPropertyOp9
70
1
102
RTVSPropertyOp10
70
1
102
RTVSPropertyOp11
70
1
102
RTVSPropertyOp12
70
1
102
RTVSPropertyOp13
70
1
102
RTVSPropertyOp14
70
1
102
RTVSPropertyOp15
70
1
102
RTVSPropertyOp16
70
1
102
RTVSPropertyOp17
70
1
102
RTVSPropertyOp18
70
1
102
RTVSPropertyOp19
70
1
102
RTVSPropertyOp20
70
1
102
RTVSPropertyOp21
70
1
102
RTVSPropertyOp22
70
1
102
RTVSPropertyOp23
70
1
102
RTVSPropertyOp24
70
1
102
RTVSPropertyOp25
70
1
102
RTVSPropertyOp26
70
1
102
RTVSPropertyOp27
70
1
0
XRECORD
5
1081
102
{ACAD_REACTORS
330
1080
102
}
330
1080
100
AcDbXrecord
280
1
102
RTVSPropertyOp0
70
1
102
RTVSPropertyOp1
70
1
102
RTVSPropertyOp2
70
1
102
RTVSPropertyOp3
70
1
102
RTVSPropertyOp4
70
1
102
RTVSPropertyOp5
70
1
102
RTVSPropertyOp6
70
1
102
RTVSPropertyOp7
70
1
102
RTVSPropertyOp8
70
1
102
RTVSPropertyOp9
70
1
102
RTVSPropertyOp10
70
1
102
RTVSPropertyOp11
70
1
102
RTVSPropertyOp12
70
1
102
RTVSPropertyOp13
70
1
102
RTVSPropertyOp14
70
1
102
RTVSPropertyOp15
70
1
102
RTVSPropertyOp16
70
1
102
RTVSPropertyOp17
70
1
102
RTVSPropertyOp18
70
1
102
RTVSPropertyOp19
70
1
102
RTVSPropertyOp20
70
1
102
RTVSPropertyOp21
70
1
102
RTVSPropertyOp22
70
1
102
RTVSPropertyOp23
70
1
102
RTVSPropertyOp24
70
1
102
RTVSPropertyOp25
70
1
102
RTVSPropertyOp26
70
1
102
RTVSPropertyOp27
70
1
0
XRECORD
5
1083
102
{ACAD_REACTORS
330
1082
102
}
330
1082
100
AcDbXrecord
280
1
102
RTVSPropertyOp0
70
1
102
RTVSPropertyOp1
70
1
102
RTVSPropertyOp2
70
1
102
RTVSPropertyOp3
70
1
102
RTVSPropertyOp4
70
1
102
RTVSPropertyOp5
70
1
102
RTVSPropertyOp6
70
1
102
RTVSPropertyOp7
70
1
102
RTVSPropertyOp8
70
1
102
RTVSPropertyOp9
70
1
102
RTVSPropertyOp10
70
1
102
RTVSPropertyOp11
70
1
102
RTVSPropertyOp12
70
1
102
RTVSPropertyOp13
70
1
102
RTVSPropertyOp14
70
1
102
RTVSPropertyOp15
70
1
102
RTVSPropertyOp16
70
1
102
RTVSPropertyOp17
70
1
102
RTVSPropertyOp18
70
1
102
RTVSPropertyOp19
70
1
102
RTVSPropertyOp20
70
1
102
RTVSPropertyOp21
70
1
102
RTVSPropertyOp22
70
1
102
RTVSPropertyOp23
70
1
102
RTVSPropertyOp24
70
1
102
RTVSPropertyOp25
70
1
102
RTVSPropertyOp26
70
1
102
RTVSPropertyOp27
70
1
0
XRECORD
5
1085
102
{ACAD_REACTORS
330
1084
102
}
330
1084
100
AcDbXrecord
280
1
102
RTVSPropertyOp0
70
1
102
RTVSPropertyOp1
70
1
102
RTVSPropertyOp2
70
1
102
RTVSPropertyOp3
70
1
102
RTVSPropertyOp4
70
1
102
RTVSPropertyOp5
70
1
102
RTVSPropertyOp6
70
1
102
RTVSPropertyOp7
70
1
102
RTVSPropertyOp8
70
1
102
RTVSPropertyOp9
70
1
102
RTVSPropertyOp10
70
1
102
RTVSPropertyOp11
70
1
102
RTVSPropertyOp12
70
1
102
RTVSPropertyOp13
70
1
102
RTVSPropertyOp14
70
1
102
RTVSPropertyOp15
70
1
102
RTVSPropertyOp16
70
1
102
RTVSPropertyOp17
70
1
102
RTVSPropertyOp18
70
1
102
RTVSPropertyOp19
70
1
102
RTVSPropertyOp20
70
1
102
RTVSPropertyOp21
70
1
102
RTVSPropertyOp22
70
1
102
RTVSPropertyOp23
70
1
102
RTVSPropertyOp24
70
1
102
RTVSPropertyOp25
70
1
102
RTVSPropertyOp26
70
1
102
RTVSPropertyOp27
70
1
0
XRECORD
5
1087
102
{ACAD_REACTORS
330
1086
102
}
330
1086
100
AcDbXrecord
280
1
102
RTVSPropertyOp0
70
1
102
RTVSPropertyOp1
70
1
102
RTVSPropertyOp2
70
1
102
RTVSPropertyOp3
70
1
102
RTVSPropertyOp4
70
1
102
RTVSPropertyOp5
70
1
102
RTVSPropertyOp6
70
1
102
RTVSPropertyOp7
70
1
102
RTVSPropertyOp8
70
1
102
RTVSPropertyOp9
70
1
102
RTVSPropertyOp10
70
1
102
RTVSPropertyOp11
70
1
102
RTVSPropertyOp12
70
1
102
RTVSPropertyOp13
70
1
102
RTVSPropertyOp14
70
1
102
RTVSPropertyOp15
70
1
102
RTVSPropertyOp16
70
1
102
RTVSPropertyOp17
70
1
102
RTVSPropertyOp18
70
1
102
RTVSPropertyOp19
70
1
102
RTVSPropertyOp20
70
1
102
RTVSPropertyOp21
70
1
102
RTVSPropertyOp22
70
1
102
RTVSPropertyOp23
70
1
102
RTVSPropertyOp24
70
1
102
RTVSPropertyOp25
70
1
102
RTVSPropertyOp26
70
1
102
RTVSPropertyOp27
70
1
0
XRECORD
5
10A1
102
{ACAD_REACTORS
330
10A0
102
}
330
10A0
100
AcDbXrecord
280
1
102
RTVSPropertyOp0
70
0
102
RTVSPropertyOp1
70
0
102
RTVSPropertyOp2
70
0
102
RTVSPropertyOp3
70
0
102
RTVSPropertyOp4
70
0
102
RTVSPropertyOp5
70
0
102
RTVSPropertyOp6
70
0
102
RTVSPropertyOp7
70
0
102
RTVSPropertyOp8
70
0
102
RTVSPropertyOp9
70
0
102
RTVSPropertyOp10
70
0
102
RTVSPropertyOp11
70
0
102
RTVSPropertyOp12
70
0
102
RTVSPropertyOp13
70
0
102
RTVSPropertyOp14
70
2
102
RTVSPropertyOp15
70
0
102
RTVSPropertyOp16
70
0
102
RTVSPropertyOp17
70
0
102
RTVSPropertyOp18
70
0
102
RTVSPropertyOp19
70
0
102
RTVSPropertyOp20
70
0
102
RTVSPropertyOp21
70
0
102
RTVSPropertyOp22
70
0
102
RTVSPropertyOp23
70
0
102
RTVSPropertyOp24
70
0
102
RTVSPropertyOp25
70
0
102
RTVSPropertyOp26
70
0
102
RTVSPropertyOp27
70
0
0
XRECORD
5
109B
102
{ACAD_REACTORS
330
109A
102
}
330
109A
100
AcDbXrecord
280
1
102
RTVSPropertyOp0
70
1
102
RTVSPropertyOp1
70
1
102
RTVSPropertyOp2
70
1
102
RTVSPropertyOp3
70
1
102
RTVSPropertyOp4
70
1
102
RTVSPropertyOp5
70
1
102
RTVSPropertyOp6
70
1
102
RTVSPropertyOp7
70
1
102
RTVSPropertyOp8
70
1
102
RTVSPropertyOp9
70
1
102
RTVSPropertyOp10
70
1
102
RTVSPropertyOp11
70
1
102
RTVSPropertyOp12
70
1
102
RTVSPropertyOp13
70
1
102
RTVSPropertyOp14
70
1
102
RTVSPropertyOp15
70
1
102
RTVSPropertyOp16
70
1
102
RTVSPropertyOp17
70
1
102
RTVSPropertyOp18
70
1
102
RTVSPropertyOp19
70
1
102
RTVSPropertyOp20
70
1
102
RTVSPropertyOp21
70
1
102
RTVSPropertyOp22
70
1
102
RTVSPropertyOp23
70
1
102
RTVSPropertyOp24
70
1
102
RTVSPropertyOp25
70
1
102
RTVSPropertyOp26
70
1
102
RTVSPropertyOp27
70
1
0
XRECORD
5
10A3
102
{ACAD_REACTORS
330
10A2
102
}
330
10A2
100
AcDbXrecord
280
1
102
RTVSPropertyOp0
70
0
102
RTVSPropertyOp1
70
0
102
RTVSPropertyOp2
70
0
102
RTVSPropertyOp3
70
0
102
RTVSPropertyOp4
70
0
102
RTVSPropertyOp5
70
0
102
RTVSPropertyOp6
70
0
102
RTVSPropertyOp7
70
0
102
RTVSPropertyOp8
70
0
102
RTVSPropertyOp9
70
0
102
RTVSPropertyOp10
70
0
102
RTVSPropertyOp11
70
0
102
RTVSPropertyOp12
70
0
102
RTVSPropertyOp13
70
0
102
RTVSPropertyOp14
70
2
102
RTVSPropertyOp15
70
0
102
RTVSPropertyOp16
70
0
102
RTVSPropertyOp17
70
0
102
RTVSPropertyOp18
70
0
102
RTVSPropertyOp19
70
0
102
RTVSPropertyOp20
70
0
102
RTVSPropertyOp21
70
0
102
RTVSPropertyOp22
70
0
102
RTVSPropertyOp23
70
0
102
RTVSPropertyOp24
70
0
102
RTVSPropertyOp25
70
0
102
RTVSPropertyOp26
70
0
102
RTVSPropertyOp27
70
0
0
XRECORD
5
1093
102
{ACAD_REACTORS
330
1092
102
}
330
1092
100
AcDbXrecord
280
1
102
RTVSPropertyOp0
70
1
102
RTVSPropertyOp1
70
1
102
RTVSPropertyOp2
70
1
102
RTVSPropertyOp3
70
1
102
RTVSPropertyOp4
70
1
102
RTVSPropertyOp5
70
1
102
RTVSPropertyOp6
70
1
102
RTVSPropertyOp7
70
1
102
RTVSPropertyOp8
70
1
102
RTVSPropertyOp9
70
1
102
RTVSPropertyOp10
70
1
102
RTVSPropertyOp11
70
1
102
RTVSPropertyOp12
70
1
102
RTVSPropertyOp13
70
1
102
RTVSPropertyOp14
70
1
102
RTVSPropertyOp15
70
1
102
RTVSPropertyOp16
70
1
102
RTVSPropertyOp17
70
1
102
RTVSPropertyOp18
70
1
102
RTVSPropertyOp19
70
1
102
RTVSPropertyOp20
70
1
102
RTVSPropertyOp21
70
1
102
RTVSPropertyOp22
70
1
102
RTVSPropertyOp23
70
1
102
RTVSPropertyOp24
70
1
102
RTVSPropertyOp25
70
1
102
RTVSPropertyOp26
70
1
102
RTVSPropertyOp27
70
1
0
XRECORD
5
1099
102
{ACAD_REACTORS
330
1098
102
}
330
1098
100
AcDbXrecord
280
1
102
RTVSPropertyOp0
70
1
102
RTVSPropertyOp1
70
1
102
RTVSPropertyOp2
70
1
102
RTVSPropertyOp3
70
1
102
RTVSPropertyOp4
70
1
102
RTVSPropertyOp5
70
1
102
RTVSPropertyOp6
70
1
102
RTVSPropertyOp7
70
1
102
RTVSPropertyOp8
70
1
102
RTVSPropertyOp9
70
1
102
RTVSPropertyOp10
70
1
102
RTVSPropertyOp11
70
1
102
RTVSPropertyOp12
70
1
102
RTVSPropertyOp13
70
1
102
RTVSPropertyOp14
70
1
102
RTVSPropertyOp15
70
1
102
RTVSPropertyOp16
70
1
102
RTVSPropertyOp17
70
1
102
RTVSPropertyOp18
70
1
102
RTVSPropertyOp19
70
1
102
RTVSPropertyOp20
70
1
102
RTVSPropertyOp21
70
1
102
RTVSPropertyOp22
70
1
102
RTVSPropertyOp23
70
1
102
RTVSPropertyOp24
70
1
102
RTVSPropertyOp25
70
1
102
RTVSPropertyOp26
70
1
102
RTVSPropertyOp27
70
1
0
ENDSEC
0
EOF
