0
SECTION
2
HEADER
9
$ACADVER
1
AC1015
9
$ACADMAINTVER
70
20
9
$DWGCODEPAGE
3
ANSI_1252
9
$INSBASE
10
0.0
20
0.0
30
0.0
9
$EXTMIN
10
-150.000000000000
20
-105.000000000000
30
0.0
9
$EXTMAX
10
150.000000000000
20
105.000000000000
30
0.0
9
$LIMMIN
10
0.0
20
0.0
9
$LIMMAX
10
12.0
20
9.0
9
$ORTHOMODE
70
0
9
$REGENMODE
70
1
9
$FILLMODE
70
1
9
$QTEXTMODE
70
0
9
$MIRRTEXT
70
1
9
$LTSCALE
40
1.0
9
$ATTMODE
70
1
9
$TEXTSIZE
40
0.2
9
$TRACEWID
40
0.05
9
$TEXTSTYLE
7
Standard
9
$CLAYER
8
0
9
$CELTYPE
6
ByLayer
9
$CECOLOR
62
256
9
$CELTSCALE
40
1.0
9
$DISPSILH
70
0
9
$DIMSCALE
40
1.0
9
$DIMASZ
40
2.5
9
$DIMEXO
40
0.625
9
$DIMDLI
40
0.38
9
$DIMRND
40
0.0
9
$DIMDLE
40
0.0
9
$DIMEXE
40
1.25
9
$DIMTP
40
0.0
9
$DIMTM
40
0.000000001
9
$DIMTXT
40
2.5
9
$DIMCEN
40
0.09
9
$DIMTSZ
40
0.0
9
$DIMTOL
70
1
9
$DIMLIM
70
0
9
$DIMTIH
70
0
9
$DIMTOH
70
0
9
$DIMSE1
70
0
9
$DIMSE2
70
0
9
$DIMTAD
70
1
9
$DIMZIN
70
0
9
$DIMBLK
1
VDDIM_DEFAULT
9
$DIMASO
70
1
9
$DIMSHO
70
1
9
$DIMPOST
1

9
$DIMAPOST
1

9
$DIMALT
70
0
9
$DIMALTD
70
2
9
$DIMALTF
40
25.4
9
$DIMLFAC
40
1.00000000000000
9
$DIMTOFL
70
0
9
$DIMTVP
40
0.0
9
$DIMTIX
70
0
9
$DIMSOXD
70
0
9
$DIMSAH
70
0
9
$DIMBLK1
1

9
$DIMBLK2
1

9
$DIMSTYLE
2
BEM-ISBE
9
$DIMCLRD
70
0
9
$DIMCLRE
70
0
9
$DIMCLRT
70
0
9
$DIMTFAC
40
0.5
9
$DIMGAP
40
0.625
9
$DIMJUST
70
0
9
$DIMSD1
70
0
9
$DIMSD2
70
0
9
$DIMTOLJ
70
1
9
$DIMTZIN
70
0
9
$DIMALTZ
70
0
9
$DIMALTTZ
70
0
9
$DIMUPT
70
0
9
$DIMDEC
70
3
9
$DIMTDEC
70
3
9
$DIMALTU
70
2
9
$DIMALTTD
70
2
9
$DIMTXSTY
7
Standard
9
$DIMAUNIT
70
0
9
$DIMADEC
70
3
9
$DIMALTRND
40
0.0
9
$DIMAZIN
70
0
9
$DIMDSEP
70
46
9
$DIMATFIT
70
3
9
$DIMFRAC
70
0
9
$DIMLDRBLK
1

9
$DIMLUNIT
70
2
9
$DIMLWD
70
-2
9
$DIMLWE
70
-2
9
$DIMTMOVE
70
0
9
$LUNITS
70
2
9
$LUPREC
70
4
9
$SKETCHINC
40
0.1
9
$FILLETRAD
40
0.5
9
$AUNITS
70
0
9
$AUPREC
70
0
9
$MENU
1
.
9
$ELEVATION
40
0.0
9
$PELEVATION
40
0.0
9
$THICKNESS
40
0.0
9
$LIMCHECK
70
0
9
$CHAMFERA
40
0.5
9
$CHAMFERB
40
0.5
9
$CHAMFERC
40
1.0
9
$CHAMFERD
40
0.0
9
$SKPOLY
70
0
9
$TDCREATE
40
0.0
9
$TDUCREATE
40
0.0
9
$TDUPDATE
40
0.0
9
$TDUUPDATE
40
0.0
9
$TDINDWG
40
0.0
9
$TDUSRTIMER
40
0.0
9
$USRTIMER
70
1
9
$ANGBASE
50
0.0
9
$ANGDIR
70
0
9
$PDMODE
70
0
9
$PDSIZE
40
0.0
9
$PLINEWID
40
0.0
9
$SPLFRAME
70
0
9
$SPLINETYPE
70
6
9
$SPLINESEGS
70
8
9
$HANDSEED
5
10AB
9
$SURFTAB1
70
6
9
$SURFTAB2
70
6
9
$SURFTYPE
70
6
9
$SURFU
70
6
9
$SURFV
70
6
9
$UCSBASE
2

9
$UCSNAME
2

9
$UCSORG
10
0.0
20
0.0
30
0.0
9
$UCSXDIR
10
1.0
20
0.0
30
0.0
9
$UCSYDIR
10
0.0
20
1.0
30
0.0
9
$UCSORTHOREF
2

9
$UCSORTHOVIEW
70
0
9
$UCSORGTOP
10
0.0
20
0.0
30
0.0
9
$UCSORGBOTTOM
10
0.0
20
0.0
30
0.0
9
$UCSORGLEFT
10
0.0
20
0.0
30
0.0
9
$UCSORGRIGHT
10
0.0
20
0.0
30
0.0
9
$UCSORGFRONT
10
0.0
20
0.0
30
0.0
9
$UCSORGBACK
10
0.0
20
0.0
30
0.0
9
$PUCSBASE
2

9
$PUCSNAME
2

9
$PUCSORG
10
0.0
20
0.0
30
0.0
9
$PUCSXDIR
10
1.0
20
0.0
30
0.0
9
$PUCSYDIR
10
0.0
20
1.0
30
0.0
9
$PUCSORTHOREF
2

9
$PUCSORTHOVIEW
70
0
9
$PUCSORGTOP
10
0.0
20
0.0
30
0.0
9
$PUCSORGBOTTOM
10
0.0
20
0.0
30
0.0
9
$PUCSORGLEFT
10
0.0
20
0.0
30
0.0
9
$PUCSORGRIGHT
10
0.0
20
0.0
30
0.0
9
$PUCSORGFRONT
10
0.0
20
0.0
30
0.0
9
$PUCSORGBACK
10
0.0
20
0.0
30
0.0
9
$USERI1
70
0
9
$USERI2
70
0
9
$USERI3
70
0
9
$USERI4
70
0
9
$USERI5
70
0
9
$USERR1
40
0.0
9
$USERR2
40
0.0
9
$USERR3
40
0.0
9
$USERR4
40
0.0
9
$USERR5
40
0.0
9
$WORLDVIEW
70
1
9
$SHADEDGE
70
3
9
$SHADEDIF
70
70
9
$TILEMODE
70
1
9
$MAXACTVP
70
64
9
$PINSBASE
10
0.0
20
0.0
30
0.0
9
$PLIMCHECK
70
0
9
$PEXTMIN
10
1.000000000000000E+20
20
1.000000000000000E+20
30
1.000000000000000E+20
9
$PEXTMAX
10
-1.000000000000000E+20
20
-1.000000000000000E+20
30
-1.000000000000000E+20
9
$PLIMMIN
10
0.0
20
0.0
9
$PLIMMAX
10
12.0
20
9.0
9
$UNITMODE
70
0
9
$VISRETAIN
70
1
9
$PLINEGEN
70
0
9
$PSLTSCALE
70
1
9
$TREEDEPTH
70
3020
9
$CMLSTYLE
2
Standard
9
$CMLJUST
70
0
9
$CMLSCALE
40
1.0
9
$PROXYGRAPHICS
70
1
9
$MEASUREMENT
70
0
9
$CELWEIGHT
370
-1
9
$ENDCAPS
280
0
9
$JOINSTYLE
280
0
9
$LWDISPLAY
290
0
9
$INSUNITS
70
4
9
$HYPERLINKBASE
1

9
$STYLESHEET
1

9
$XEDIT
290
1
9
$CEPSNTYPE
380
0
9
$PSTYLEMODE
290
0
9
$FINGERPRINTGUID
2
{FAEB1C30-E019-11D5-929B-00C0DF256EC4}
9
$VERSIONGUID
2
{04C5C4E4-4947-4D90-8812-D401569E61F7}
9
$EXTNAMES
290
1
9
$PSVPSCALE
40
0.0
9
$OLESTARTUP
290
0
0
ENDSEC
0
SECTION
2
TABLES
0
TABLE
2
VPORT
5
24A
330
0
100
AcDbSymbolTable
70
1
0
VPORT
5
26B
330
24A
100
AcDbSymbolTableRecord
100
AcDbViewportTableRecord
2
*Active
70
0
10
0.0
20
0.0
11
1.0
21
1.0
12
0.000000000000000
22
0.000000000000000
13
0.0
23
0.0
14
10.0
24
10.0
15
10.0
25
10.0
16
0.0
26
0.0
36
1.0
17
0.0
27
0.0
37
0.0
40
210.000000000000
41
1.42857142857143
42
1.0
43
0.0
44
0.0
50
0.0
51
0.0000000000007958
71
0
72
100
73
1
74
3
75
0
76
0
77
0
78
1
281
0
65
1
110
0.0
120
0.0
130
0.0
111
1.0
121
0.0
131
0.0
112
0.0
122
1.0
132
0.0
79
0
146
0.0
0
ENDTAB
0
TABLE
2
LTYPE
5
247
330
0
100
AcDbSymbolTable
70
25
0
LTYPE
5
256
330
247
100
AcDbSymbolTableRecord
100
AcDbLinetypeTableRecord
2
ByBlock
70
0
3

72
65
73
0
40
0.0
0
LTYPE
5
257
330
247
100
AcDbSymbolTableRecord
100
AcDbLinetypeTableRecord
2
ByLayer
70
0
3

72
65
73
0
40
0.0
0
LTYPE
5
258
330
247
100
AcDbSymbolTableRecord
100
AcDbLinetypeTableRecord
2
Continuous
70
0
3
Solid line
72
65
73
0
40
0.0
0
LTYPE
5
273
330
247
100
AcDbSymbolTableRecord
100
AcDbLinetypeTableRecord
2
CENTER
70
0
3
Center ____ _ ____ _ ____ _ ____ _ ____ _ ____
72
65
73
4
40
2.0
49
1.25
74
0
49
-0.25
74
0
49
0.25
74
0
49
-0.25
74
0
0
LTYPE
5
274
330
247
100
AcDbSymbolTableRecord
100
AcDbLinetypeTableRecord
2
DASHDOT
70
0
3
Dashdot __ . __ . __ . __ . __ . __ . __ . __
72
65
73
4
40
1.0
49
0.5
74
0
49
-0.25
74
0
49
0.0
74
0
49
-0.25
74
0
0
LTYPE
5
275
330
247
100
AcDbSymbolTableRecord
100
AcDbLinetypeTableRecord
2
DASHED
70
0
3
Dashed __ __ __ __ __ __ __ __ __ __ __ __ __ _
72
65
73
2
40
0.75
49
0.5
74
0
49
-0.25
74
0
0
LTYPE
5
276
330
247
100
AcDbSymbolTableRecord
100
AcDbLinetypeTableRecord
2
HIDDEN
70
0
3
Hidden __ __ __ __ __ __ __ __ __ __ __ __ __ __
72
65
73
2
40
0.375
49
0.25
74
0
49
-0.125
74
0
0
LTYPE
5
277
330
247
100
AcDbSymbolTableRecord
100
AcDbLinetypeTableRecord
2
HIDDEN2
70
0
3
Hidden2 _ _ _ _ _ _ _ _ _ _ _ _ _ _ _ _ _
72
65
73
2
40
0.1875
49
0.125
74
0
49
-0.0625
74
0
0
LTYPE
5
278
330
247
100
AcDbSymbolTableRecord
100
AcDbLinetypeTableRecord
2
BORDER
70
0
3
Border __ __ . __ __ . __ __ . __ __ . __ __ .
72
65
73
6
40
1.75
49
0.5
74
0
49
-0.25
74
0
49
0.5
74
0
49
-0.25
74
0
49
0.0
74
0
49
-0.25
74
0
0
LTYPE
5
279
330
247
100
AcDbSymbolTableRecord
100
AcDbLinetypeTableRecord
2
BORDER2
70
0
3
Border2 __.__.__.__.__.__.__.__.__.__.__.
72
65
73
6
40
0.875
49
0.25
74
0
49
-0.125
74
0
49
0.25
74
0
49
-0.125
74
0
49
0.0
74
0
49
-0.125
74
0
0
LTYPE
5
27A
330
247
100
AcDbSymbolTableRecord
100
AcDbLinetypeTableRecord
2
BORDERX2
70
0
3
Borderx2  ____  ____  .  ____  ____  .  ___
72
65
73
6
40
3.5
49
1.0
74
0
49
-0.5
74
0
49
1.0
74
0
49
-0.5
74
0
49
0.0
74
0
49
-0.5
74
0
0
LTYPE
5
27B
330
247
100
AcDbSymbolTableRecord
100
AcDbLinetypeTableRecord
2
CENTER2
70
0
3
Center2  ___ _ ___ _ ___ _ ___ _ ___ _ ___
72
65
73
4
40
1.125
49
0.75
74
0
49
-0.125
74
0
49
0.125
74
0
49
-0.125
74
0
0
LTYPE
5
27C
330
247
100
AcDbSymbolTableRecord
100
AcDbLinetypeTableRecord
2
CENTERX2
70
0
3
Centerx2  ________  __  ________  __  _____
72
65
73
4
40
4.0
49
2.5
74
0
49
-0.5
74
0
49
0.5
74
0
49
-0.5
74
0
0
LTYPE
5
27D
330
247
100
AcDbSymbolTableRecord
100
AcDbLinetypeTableRecord
2
DASHDOT2
70
0
3
Dashdot2  _._._._._._._._._._._._._._._.
72
65
73
4
40
0.5
49
0.25
74
0
49
-0.125
74
0
49
0.0
74
0
49
-0.125
74
0
0
LTYPE
5
27E
330
247
100
AcDbSymbolTableRecord
100
AcDbLinetypeTableRecord
2
DASHDOTX2
70
0
3
Dashdotx2 ____  .  ____  .  ____  .  ___
72
65
73
4
40
2.0
49
1.0
74
0
49
-0.5
74
0
49
0.0
74
0
49
-0.5
74
0
0
LTYPE
5
27F
330
247
100
AcDbSymbolTableRecord
100
AcDbLinetypeTableRecord
2
DASHED2
70
0
3
Dashed2 _ _ _ _ _ _ _ _ _ _ _ _ _ _ _ _ _
72
65
73
2
40
0.375
49
0.25
74
0
49
-0.125
74
0
0
LTYPE
5
280
330
247
100
AcDbSymbolTableRecord
100
AcDbLinetypeTableRecord
2
DASHEDX2
70
0
3
Dashedx2 ____  ____  ____  ____  ____  ___
72
65
73
2
40
1.5
49
1.0
74
0
49
-0.5
74
0
0
LTYPE
5
281
330
247
100
AcDbSymbolTableRecord
100
AcDbLinetypeTableRecord
2
DIVIDE
70
0
3
Divide ____ . . ____ . . ____ . . ____ . . ____
72
65
73
6
40
1.25
49
0.5
74
0
49
-0.25
74
0
49
0.0
74
0
49
-0.25
74
0
49
0.0
74
0
49
-0.25
74
0
0
LTYPE
5
282
330
247
100
AcDbSymbolTableRecord
100
AcDbLinetypeTableRecord
2
DIVIDE2
70
0
3
Divide2 __..__..__..__..__..__..__..__.._
72
65
73
6
40
0.625
49
0.25
74
0
49
-0.125
74
0
49
0.0
74
0
49
-0.125
74
0
49
0.0
74
0
49
-0.125
74
0
0
LTYPE
5
283
330
247
100
AcDbSymbolTableRecord
100
AcDbLinetypeTableRecord
2
DIVIDEX2
70
0
3
Dividex2 ________  .  .  ________  .  .  _
72
65
73
6
40
2.5
49
1.0
74
0
49
-0.5
74
0
49
0.0
74
0
49
-0.5
74
0
49
0.0
74
0
49
-0.5
74
0
0
LTYPE
5
284
330
247
100
AcDbSymbolTableRecord
100
AcDbLinetypeTableRecord
2
DOT
70
0
3
Dot . . . . . . . . . . . . . . . . . . . . . . . .
72
65
73
2
40
0.25
49
0.0
74
0
49
-0.25
74
0
0
LTYPE
5
285
330
247
100
AcDbSymbolTableRecord
100
AcDbLinetypeTableRecord
2
DOT2
70
0
3
Dot2 ........................................
72
65
73
2
40
0.125
49
0.0
74
0
49
-0.125
74
0
0
LTYPE
5
286
330
247
100
AcDbSymbolTableRecord
100
AcDbLinetypeTableRecord
2
DOTX2
70
0
3
Dotx2 .  .  .  .  .  .  .  .  .  .  .  .  .  .
72
65
73
2
40
0.5
49
0.0
74
0
49
-0.5
74
0
0
LTYPE
5
287
330
247
100
AcDbSymbolTableRecord
100
AcDbLinetypeTableRecord
2
HIDDENX2
70
0
3
Hiddenx2 ____ ____ ____ ____ ____ ____ ____
72
65
73
2
40
0.75
49
0.5
74
0
49
-0.25
74
0
0
LTYPE
5
288
330
247
100
AcDbSymbolTableRecord
100
AcDbLinetypeTableRecord
2
PHANTOM
70
0
3
Phantom ______  __  __  ______  __  __  ______
72
65
73
6
40
2.5
49
1.25
74
0
49
-0.25
74
0
49
0.25
74
0
49
-0.25
74
0
49
0.25
74
0
49
-0.25
74
0
0
LTYPE
5
289
330
247
100
AcDbSymbolTableRecord
100
AcDbLinetypeTableRecord
2
PHANTOM2
70
0
3
Phantom2 ___ _ _ ___ _ _ ___ _ _ ___ _ _
72
65
73
6
40
1.25
49
0.625
74
0
49
-0.125
74
0
49
0.125
74
0
49
-0.125
74
0
49
0.125
74
0
49
-0.125
74
0
0
LTYPE
5
28A
330
247
100
AcDbSymbolTableRecord
100
AcDbLinetypeTableRecord
2
PHANTOMX2
70
0
3
Phantomx2 ____________    ____    ____   _
72
65
73
6
40
5.0
49
2.5
74
0
49
-0.5
74
0
49
0.5
74
0
49
-0.5
74
0
49
0.5
74
0
49
-0.5
74
0
0
ENDTAB
0
TABLE
2
LAYER
5
244
330
0
100
AcDbSymbolTable
70
6
0
LAYER
5
252
330
244
100
AcDbSymbolTableRecord
100
AcDbLayerTableRecord
2
0
70
0
62
7
6
Continuous
370
0
390
251
0
LAYER
5
23F
330
244
100
AcDbSymbolTableRecord
100
AcDbLayerTableRecord
2
Bemassung
70
0
 62
   7
6
Continuous
370
0
390
251
0
LAYER
5
240
330
244
100
AcDbSymbolTableRecord
100
AcDbLayerTableRecord
2
Rahmen
70
0
 62
   7
6
Continuous
370
0
390
251
0
LAYER
5
241
330
244
100
AcDbSymbolTableRecord
100
AcDbLayerTableRecord
2
Geo
70
0
 62
   7
6
Continuous
370
0
390
251
0
LAYER
5
33A
330
244
100
AcDbSymbolTableRecord
100
AcDbLayerTableRecord
2
Defpoints
70
0
62
7
6
Continuous
290
0
370
-3
390
251
0
LAYER
5
57E
330
244
100
AcDbSymbolTableRecord
100
AcDbLayerTableRecord
2
Text
70
0
 62
   7
6
Continuous
370
0
390
251
1001
AcAecLayerStandard
1000

1000

0
ENDTAB
0
TABLE
2
STYLE
5
245
330
0
100
AcDbSymbolTable
70
2
0
STYLE
5
253
330
245
100
AcDbSymbolTableRecord
100
AcDbTextStyleTableRecord
2
Standard
70
0
40
0.0
41
1.0
50
0.0
71
0
42
0.2
3
Arial
4

1001
ACAD
1000
Arial
1071
0
0
STYLE
5
132
330
245
100
AcDbSymbolTableRecord
100
AcDbTextStyleTableRecord
2
Beschriftung
70
0
40
0.0
41
1.0
50
0.0
71
0
42
0.2
3
Arial
4

1001
ACAD
1000
Arial
1071
0
1001
AcadAnnotative
1000
AnnotativeData
1070
1
1070
1
0
ENDTAB
0
TABLE
2
VIEW
5
248
330
0
100
AcDbSymbolTable
70
0
0
ENDTAB
0
TABLE
2
UCS
5
249
330
0
100
AcDbSymbolTable
70
0
0
ENDTAB
0
TABLE
2
APPID
5
24B
330
0
100
AcDbSymbolTable
70
13
0
APPID
5
254
330
24B
100
AcDbSymbolTableRecord
100
AcDbRegAppTableRecord
2
ACAD
70
0
0
APPID
5
26C
330
24B
100
AcDbSymbolTableRecord
100
AcDbRegAppTableRecord
2
VD_INVISIBLE_NOT_FOR_READ
70
0
0
APPID
5
26D
330
24B
100
AcDbSymbolTableRecord
100
AcDbRegAppTableRecord
2
VD_TEMPHATCH
70
0
0
APPID
5
26E
330
24B
100
AcDbSymbolTableRecord
100
AcDbRegAppTableRecord
2
VDEXTRAPARAM
70
0
0
APPID
5
26F
330
24B
100
AcDbSymbolTableRecord
100
AcDbRegAppTableRecord
2
PE_URL
70
0
0
APPID
5
270
330
24B
100
AcDbSymbolTableRecord
100
AcDbRegAppTableRecord
2
VD_UNKNOWN
70
0
0
APPID
5
28F
330
24B
100
AcDbSymbolTableRecord
100
AcDbRegAppTableRecord
2
AcadAnnotative
70
0
0
APPID
5
290
330
24B
100
AcDbSymbolTableRecord
100
AcDbRegAppTableRecord
2
ACAD_DSTYLE_DIMJAG
70
0
0
APPID
5
291
330
24B
100
AcDbSymbolTableRecord
100
AcDbRegAppTableRecord
2
ACAD_DSTYLE_DIMTALN
70
0
0
APPID
5
293
330
24B
100
AcDbSymbolTableRecord
100
AcDbRegAppTableRecord
2
ACAD_PSEXT
70
0
0
APPID
5
42A
330
24B
100
AcDbSymbolTableRecord
100
AcDbRegAppTableRecord
2
ACAD_MLEADERVER
70
0
0
APPID
5
532
330
24B
100
AcDbSymbolTableRecord
100
AcDbRegAppTableRecord
2
ACAD_EXEMPT_FROM_CAD_STANDARDS
70
0
0
APPID
5
57F
330
24B
100
AcDbSymbolTableRecord
100
AcDbRegAppTableRecord
2
AcAecLayerStandard
70
0
0
ENDTAB
0
TABLE
2
DIMSTYLE
5
24C
330
0
100
AcDbSymbolTable
70
3
100
AcDbDimStyleTable
71
2
340
27
340
269
0
DIMSTYLE
105
269
330
24C
100
AcDbSymbolTableRecord
100
AcDbDimStyleTableRecord
2
Standard
70
0
172
1
174
1
288
1
340
253
342
23C
0
DIMSTYLE
105
137
330
24C
100
AcDbSymbolTableRecord
100
AcDbDimStyleTableRecord
2
Beschriftung
70
0
41
2.5
42
0.625
44
1.25
73
0
74
0
77
1
140
2.5
147
0.625
172
1
174
1
271
2
288
1
340
253
342
23C
1001
AcadAnnotative
1000
AnnotativeData
1070
1
1070
1
1001
ACAD_DSTYLE_DIMJAG
1070
388
1040
1.5
1001
ACAD_DSTYLE_DIMTALN
1070
392
1070
0
0
DIMSTYLE
105
27
102
{ACAD_REACTORS
330
F10017
330
F1001C
330
F10026
330
F1002B
330
F10003
330
F1000D
330
F10008
330
F10012
330
F10021
102
}
330
24C
100
AcDbSymbolTableRecord
100
AcDbDimStyleTableRecord
2
BEM-ISBE
70
0
41
2.5
42
0.625
44
1.25
48
0.000000001
71
1
73
0
74
0
77
1
140
2.5
144
1.00000000000000
146
0.5
147
0.625
171
 3
172
 1
179
 3
271
 3
272
 3
274
 3
340
253
342
23C
1001
ACAD_DSTYLE_DIMJAG
1070
388
1040
1.5
1001
ACAD_DSTYLE_DIMTALN
1070
392
1070
1
0
ENDTAB
0
TABLE
2
BLOCK_RECORD
5
243
330
0
100
AcDbSymbolTable
70
5
0
BLOCK_RECORD
5
261
330
243
100
AcDbSymbolTableRecord
100
AcDbBlockTableRecord
2
*Model_Space
340
FD0
0
BLOCK_RECORD
5
25D
330
243
100
AcDbSymbolTableRecord
100
AcDbBlockTableRecord
2
*Paper_Space
340
FD1
0
BLOCK_RECORD
5
265
330
243
100
AcDbSymbolTableRecord
100
AcDbBlockTableRecord
2
*Paper_Space0
340
0
0
BLOCK_RECORD
5
23C
330
243
100
AcDbSymbolTableRecord
100
AcDbBlockTableRecord
2
VDDIM_DEFAULT
340
0
102
{BLKREFS
102
}
0
BLOCK_RECORD
5
23E
330
243
100
AcDbSymbolTableRecord
100
AcDbBlockTableRecord
2
VDDIM_NONE
340
0
0
BLOCK_RECORD
5
F10016
330
243
100
AcDbSymbolTableRecord
100
AcDbBlockTableRecord
2
*D7
340
0
0
BLOCK_RECORD
5
F1001B
330
243
100
AcDbSymbolTableRecord
100
AcDbBlockTableRecord
2
*D8
340
0
0
BLOCK_RECORD
5
F10025
330
243
100
AcDbSymbolTableRecord
100
AcDbBlockTableRecord
2
*D10
340
0
0
BLOCK_RECORD
5
F1002A
330
243
100
AcDbSymbolTableRecord
100
AcDbBlockTableRecord
2
*D11
340
0
0
BLOCK_RECORD
5
F10002
330
243
100
AcDbSymbolTableRecord
100
AcDbBlockTableRecord
2
*D3
340
0
0
BLOCK_RECORD
5
F1000C
330
243
100
AcDbSymbolTableRecord
100
AcDbBlockTableRecord
2
*D5
340
0
0
BLOCK_RECORD
5
F10007
330
243
100
AcDbSymbolTableRecord
100
AcDbBlockTableRecord
2
*D4
340
0
0
BLOCK_RECORD
5
F10011
330
243
100
AcDbSymbolTableRecord
100
AcDbBlockTableRecord
2
*D6
340
0
0
BLOCK_RECORD
5
F10020
330
243
100
AcDbSymbolTableRecord
100
AcDbBlockTableRecord
2
*D9
340
0
0
ENDTAB
0
ENDSEC
0
SECTION
2
BLOCKS
0
BLOCK
5
262
330
261
100
AcDbEntity
8
0
100
AcDbBlockBegin
2
*Model_Space
70
0
10
0.0
20
0.0
30
0.0
3
*Model_Space
1

0
ENDBLK
5
263
330
261
100
AcDbEntity
8
0
100
AcDbBlockEnd
0
BLOCK
5
25E
330
25D
100
AcDbEntity
67
1
8
0
100
AcDbBlockBegin
2
*Paper_Space
70
0
10
0.0
20
0.0
30
0.0
3
*Paper_Space
1

0
ENDBLK
5
25F
330
25D
100
AcDbEntity
67
1
8
0
100
AcDbBlockEnd
0
BLOCK
5
266
330
265
100
AcDbEntity
8
0
100
AcDbBlockBegin
2
*Paper_Space0
70
0
10
0.0
20
0.0
30
0.0
3
*Paper_Space0
1

0
VIEWPORT
5
296
102
{ACAD_XDICTIONARY
360
58E
102
}
330
265
100
AcDbEntity
8
0
60
1
100
AcDbViewport
10
0.0
20
0.0
30
0.0
40
10.0
41
10.0
69
0
12
0.0
22
0.0
13
0.0
23
0.0
14
1.0
24
1.0
15
0.0
25
0.0
16
0.0
26
0.0
36
1.0
17
0.0
27
0.0
37
0.0
42
0.0
43
0.0
44
0.0
45
10.0
50
0.0
51
0.0000000000007958
72
100
90
163872
1

281
0
71
0
74
0
110
0.0
120
0.0
130
0.0
111
1.0
121
0.0
131
0.0
112
0.0
122
1.0
132
0.0
79
0
146
0.0
1001
VD_INVISIBLE_NOT_FOR_READ
1000
VD_INVISIBLE_NOT_FOR_READ
0
VIEWPORT
5
297
102
{ACAD_XDICTIONARY
360
590
102
}
330
265
100
AcDbEntity
8
0
60
1
100
AcDbViewport
10
0.0
20
0.0
30
0.0
40
10.0
41
10.0
69
0
12
0.0
22
0.0
13
0.0
23
0.0
14
1.0
24
1.0
15
0.0
25
0.0
16
0.0
26
0.0
36
1.0
17
0.0
27
0.0
37
0.0
42
0.0
43
0.0
44
0.0
45
10.0
50
0.0
51
0.0000000000007958
72
100
90
163872
1

281
0
71
0
74
0
110
0.0
120
0.0
130
0.0
111
1.0
121
0.0
131
0.0
112
0.0
122
1.0
132
0.0
79
0
146
0.0
1001
VD_INVISIBLE_NOT_FOR_READ
1000
VD_INVISIBLE_NOT_FOR_READ
0
ENDBLK
5
267
330
265
100
AcDbEntity
8
0
100
AcDbBlockEnd
0
BLOCK
5
28B
330
23C
100
AcDbEntity
8
0
100
AcDbBlockBegin
2
VDDIM_DEFAULT
70
0
10
0.0
20
0.0
30
0.0
3
VDDIM_DEFAULT
1

0
LWPOLYLINE
5
23D
330
23C
100
AcDbEntity
8
0
6
Continuous
62
0
100
AcDbPolyline
90
4
70
0
43
0.0
10
0.0
20
0.0
10
-1.0
20
-0.1665
10
-1.0
20
0.1665
10
0.0
20
0.0
1001
VDEXTRAPARAM
1071
1
1071
0
1071
0
1040
1.0
1000

1000

1040
0.0
1040
0.0
0
HATCH
5
292
330
23C
100
AcDbEntity
8
0
6
Continuous
62
0
100
AcDbHatch
10
0.0
20
0.0
30
0.0
210
0.0
220
0.0
230
1.0
2
SOLID
70
1
71
0
91
1
92
2
72
0
73
1
93
3
10
0.0
20
0.0
10
-1.0
20
-0.1665
10
-1.0
20
0.1665
97
0
75
0
76
1
98
1
10
0.0
20
0.0
1001
VDEXTRAPARAM
1071
1
1071
0
1071
0
1040
1.0
1000

1000

1040
0.0
1040
0.0
1001
VD_TEMPHATCH
1000
VD_TEMPHATCH
0
ENDBLK
5
28C
330
23C
100
AcDbEntity
8
0
100
AcDbBlockEnd
0
BLOCK
5
28D
330
23E
100
AcDbEntity
8
0
100
AcDbBlockBegin
2
VDDIM_NONE
70
0
10
0.0
20
0.0
30
0.0
3
VDDIM_NONE
1

0
ENDBLK
5
28E
330
23E
100
AcDbEntity
8
0
100
AcDbBlockEnd
  0
BLOCK
  5
F1002F
330
F10016
100
AcDbEntity
  8
0
100
AcDbBlockBegin
  2
*D7
 70
     1
 10
0.0
 20
0.0
 30
0.0
  3
*D7
  1

  0
LINE
  5
F10030
330
F10016
100
AcDbEntity
  8
Bemassung
 62
     0
370
    -2
100
AcDbLine
10
-84.6337598704073
20
-10.5320478824545
30
0.000000000000000
11
-84.6337598704073
21
34.4679521175455
31
0.000000000000000
  0
LINE
  5
F10031
330
F10016
100
AcDbEntity
  8
Bemassung
 62
     0
370
    -2
100
AcDbLine
10
-49.6337598704073
20
12.1679521175455
30
0.000000000000000
11
-49.6337598704073
21
24.4679521175455
31
0.000000000000000
  0
LINE
  5
F10032
330
F10016
100
AcDbEntity
  8
Bemassung
 62
     0
370
    -2
100
AcDbLine
10
-84.6337598704073
20
22.4679521175455
30
0.000000000000000
11
-48.7950377261065
21
22.4679521175455
31
0.000000000000000
  0
INSERT
  5
F10033
330
F10016
100
AcDbEntity
  8
Bemassung
 62
     0
370
    -2
100
AcDbBlockReference
  2
VDDIM_DEFAULT
10
-84.6337598704073
20
22.4679521175455
30
0.000000000000000
 41
2.50000000000000
 42
2.50000000000000
 43
2.50000000000000
 50
180.000000000000
  0
INSERT
  5
F10034
330
F10016
100
AcDbEntity
  8
Bemassung
 62
     0
370
    -2
100
AcDbBlockReference
  2
VDDIM_DEFAULT
10
-49.6337598704073
20
22.4679521175455
30
0.000000000000000
 41
2.50000000000000
 42
2.50000000000000
 43
2.50000000000000
  0
MTEXT
  5
F10035
330
F10016
100
AcDbEntity
  8
Bemassung
 62
     0
100
AcDbMText
10
-67.1337598704073
20
23.1346187842122
30
0.000000000000000
 40
2.50000000000000
 41
0.0
 71
     8
 72
     1
  1
35
 11
1.00000000000000
 21
0.000000000000000
 31
0.0
 73
     1
 44
1.0
1001
ACAD
1000
MTEXTBEGIN
1070
73
1070
1
1070
44
1040
1.0
1070
74
1070
0
1000
MTEXTEND
  0
POINT
  5
F10036
330
F10016
100
AcDbEntity
  8
Bemassung
 62
     0
100
AcDbPoint
10
-84.6337598704073
20
-10.5320478824545
30
0.000000000000000
  0
POINT
  5
F10037
330
F10016
100
AcDbEntity
  8
Bemassung
 62
     0
100
AcDbPoint
10
-49.6337598704073
20
12.1679521175455
30
0.000000000000000
  0
ENDBLK
  5
F10038
330
F10016
100
AcDbEntity
  8
0
100
AcDbBlockEnd
  0
BLOCK
  5
F10039
330
F1001B
100
AcDbEntity
  8
0
100
AcDbBlockBegin
  2
*D8
 70
     1
 10
0.0
 20
0.0
 30
0.0
  3
*D8
  1

  0
LINE
  5
F1003A
330
F1001B
100
AcDbEntity
  8
Bemassung
 62
     0
370
    -2
100
AcDbLine
10
-49.6337598704073
20
12.1679521175455
30
0.000000000000000
11
-49.6337598704073
21
29.4679521175455
31
0.000000000000000
  0
LINE
  5
F1003B
330
F1001B
100
AcDbEntity
  8
Bemassung
 62
     0
370
    -2
100
AcDbLine
10
4.36624012959271
20
11.9679521175455
30
0.000000000000000
11
4.36624012959271
21
34.4679521175455
31
0.000000000000000
  0
LINE
  5
F1003C
330
F1001B
100
AcDbEntity
  8
Bemassung
 62
     0
370
    -2
100
AcDbLine
10
-49.6337598704073
20
27.4679521175455
30
0.000000000000000
11
40.2829236197115
21
27.4679521175455
31
0.000000000000000
  0
INSERT
  5
F1003D
330
F1001B
100
AcDbEntity
  8
Bemassung
 62
     0
370
    -2
100
AcDbBlockReference
  2
VDDIM_DEFAULT
10
-49.6337598704073
20
27.4679521175455
30
0.000000000000000
 41
2.50000000000000
 42
2.50000000000000
 43
2.50000000000000
 50
180.000000000000
  0
INSERT
  5
F1003E
330
F1001B
100
AcDbEntity
  8
Bemassung
 62
     0
370
    -2
100
AcDbBlockReference
  2
VDDIM_DEFAULT
10
4.36624012959271
20
27.4679521175455
30
0.000000000000000
 41
2.50000000000000
 42
2.50000000000000
 43
2.50000000000000
  0
MTEXT
  5
F1003F
330
F1001B
100
AcDbEntity
  8
Bemassung
 62
     0
100
AcDbMText
10
-22.6337598704073
20
28.1346187842122
30
0.000000000000000
 40
2.50000000000000
 41
0.0
 71
     8
 72
     1
  1
54
 11
1.00000000000000
 21
0.000000000000000
 31
0.0
 73
     1
 44
1.0
1001
ACAD
1000
MTEXTBEGIN
1070
73
1070
1
1070
44
1040
1.0
1070
74
1070
0
1000
MTEXTEND
  0
POINT
  5
F10040
330
F1001B
100
AcDbEntity
  8
Bemassung
 62
     0
100
AcDbPoint
10
-49.6337598704073
20
12.1679521175455
30
0.000000000000000
  0
POINT
  5
F10041
330
F1001B
100
AcDbEntity
  8
Bemassung
 62
     0
100
AcDbPoint
10
4.36624012959271
20
11.9679521175455
30
0.000000000000000
  0
ENDBLK
  5
F10042
330
F1001B
100
AcDbEntity
  8
0
100
AcDbBlockEnd
  0
BLOCK
  5
F10043
330
F10025
100
AcDbEntity
  8
0
100
AcDbBlockBegin
  2
*D10
 70
     1
 10
0.0
 20
0.0
 30
0.0
  3
*D10
  1

  0
LINE
  5
F10044
330
F10025
100
AcDbEntity
  8
Bemassung
 62
     0
370
    -2
100
AcDbLine
10
-65.6337598704073
20
-3.23204788245446
30
0.000000000000000
11
-65.6337598704073
21
-10.5320478824545
31
0.000000000000000
  0
LINE
  5
F10045
330
F10025
100
AcDbEntity
  8
Bemassung
 62
     0
370
    -2
100
AcDbLine
10
-84.6337598704073
20
-10.5320478824545
30
0.000000000000000
11
-84.6337598704073
21
34.4679521175455
31
0.000000000000000
  0
LINE
  5
F10046
330
F10025
100
AcDbEntity
  8
Bemassung
 62
     0
370
    -2
100
AcDbLine
10
-64.8075413517143
20
-8.53204788245446
30
0.000000000000000
11
-84.6337598704073
21
-8.53204788245446
31
0.000000000000000
  0
INSERT
  5
F10047
330
F10025
100
AcDbEntity
  8
Bemassung
 62
     0
370
    -2
100
AcDbBlockReference
  2
VDDIM_DEFAULT
10
-65.6337598704073
20
-8.53204788245446
30
0.000000000000000
 41
2.50000000000000
 42
2.50000000000000
 43
2.50000000000000
  0
INSERT
  5
F10048
330
F10025
100
AcDbEntity
  8
Bemassung
 62
     0
370
    -2
100
AcDbBlockReference
  2
VDDIM_DEFAULT
10
-84.6337598704073
20
-8.53204788245446
30
0.000000000000000
 41
2.50000000000000
 42
2.50000000000000
 43
2.50000000000000
 50
180.000000000000
  0
MTEXT
  5
F10049
330
F10025
100
AcDbEntity
  8
Bemassung
 62
     0
100
AcDbMText
10
-75.1337598704073
20
-7.86538121578780
30
0.000000000000000
 40
2.50000000000000
 41
0.0
 71
     8
 72
     1
  1
19
 11
1.00000000000000
 21
0.000000000000000
 31
0.0
 73
     1
 44
1.0
1001
ACAD
1000
MTEXTBEGIN
1070
73
1070
1
1070
44
1040
1.0
1070
74
1070
0
1000
MTEXTEND
  0
POINT
  5
F1004A
330
F10025
100
AcDbEntity
  8
Bemassung
 62
     0
100
AcDbPoint
10
-65.6337598704073
20
-3.23204788245446
30
0.000000000000000
  0
POINT
  5
F1004B
330
F10025
100
AcDbEntity
  8
Bemassung
 62
     0
100
AcDbPoint
10
-84.6337598704073
20
-10.5320478824545
30
0.000000000000000
  0
ENDBLK
  5
F1004C
330
F10025
100
AcDbEntity
  8
0
100
AcDbBlockEnd
  0
BLOCK
  5
F1004D
330
F1002A
100
AcDbEntity
  8
0
100
AcDbBlockBegin
  2
*D11
 70
     1
 10
0.0
 20
0.0
 30
0.0
  3
*D11
  1

  0
LINE
  5
F1004E
330
F1002A
100
AcDbEntity
  8
Bemassung
 62
     0
370
    -2
100
AcDbLine
10
4.36624012959271
20
11.9679521175455
30
0.000000000000000
11
4.36624012959271
21
34.4679521175455
31
0.000000000000000
  0
LINE
  5
F1004F
330
F1002A
100
AcDbEntity
  8
Bemassung
 62
     0
370
    -2
100
AcDbLine
10
-84.6337598704073
20
-10.5320478824545
30
0.000000000000000
11
-84.6337598704073
21
34.4679521175455
31
0.000000000000000
  0
LINE
  5
F10050
330
F1002A
100
AcDbEntity
  8
Bemassung
 62
     0
370
    -2
100
AcDbLine
10
5.29762158056850
20
32.4679521175455
30
0.000000000000000
11
-84.6337598704073
21
32.4679521175455
31
0.000000000000000
  0
INSERT
  5
F10051
330
F1002A
100
AcDbEntity
  8
Bemassung
 62
     0
370
    -2
100
AcDbBlockReference
  2
VDDIM_DEFAULT
10
4.36624012959271
20
32.4679521175455
30
0.000000000000000
 41
2.50000000000000
 42
2.50000000000000
 43
2.50000000000000
  0
INSERT
  5
F10052
330
F1002A
100
AcDbEntity
  8
Bemassung
 62
     0
370
    -2
100
AcDbBlockReference
  2
VDDIM_DEFAULT
10
-84.6337598704073
20
32.4679521175455
30
0.000000000000000
 41
2.50000000000000
 42
2.50000000000000
 43
2.50000000000000
 50
180.000000000000
  0
MTEXT
  5
F10053
330
F1002A
100
AcDbEntity
  8
Bemassung
 62
     0
100
AcDbMText
10
-40.1337598704073
20
33.1346187842122
30
0.000000000000000
 40
2.50000000000000
 41
0.0
 71
     8
 72
     1
  1
89
 11
1.00000000000000
 21
0.000000000000000
 31
0.0
 73
     1
 44
1.0
1001
ACAD
1000
MTEXTBEGIN
1070
73
1070
1
1070
44
1040
1.0
1070
74
1070
0
1000
MTEXTEND
  0
POINT
  5
F10054
330
F1002A
100
AcDbEntity
  8
Bemassung
 62
     0
100
AcDbPoint
10
4.36624012959271
20
11.9679521175455
30
0.000000000000000
  0
POINT
  5
F10055
330
F1002A
100
AcDbEntity
  8
Bemassung
 62
     0
100
AcDbPoint
10
-84.6337598704073
20
-10.5320478824545
30
0.000000000000000
  0
ENDBLK
  5
F10056
330
F1002A
100
AcDbEntity
  8
0
100
AcDbBlockEnd
  0
BLOCK
  5
F10057
330
F10002
100
AcDbEntity
  8
0
100
AcDbBlockBegin
  2
*D3
 70
     1
 10
0.0
 20
0.0
 30
0.0
  3
*D3
  1

 0
ARC
  5
F10058
330
F10002
100
AcDbEntity
  8
Bemassung
 62
     0
370
   -2
100
AcDbCircle
10
-84.6331506974264
20
11.4330526208430
30
0.000000000000000
 40
13.3806233427542
100
AcDbArc
 50
90.0000000000000
 51
112.379130126806
  0
LINE
  5
F10059
330
F10002
100
AcDbEntity
  8
Bemassung
 62
     0
370
    -2
100
AcDbLine
10
-84.6331506974264
20
11.4330526208430
30
0.000000000000000
11
-84.6331506974264
21
26.8136759635972
31
0.000000000000000
  0
LINE
  5
F1005A
330
F10002
100
AcDbEntity
  8
Bemassung
 62
     0
370
    -2
100
AcDbLine
10
-84.6331506974264
20
11.4330526208430
30
0.000000000000000
11
-85.1699267110592
21
26.8043065034274
31
0.000000000000000
  0
INSERT
  5
F1005B
330
F10002
100
AcDbEntity
  8
Bemassung
 62
     0
370
    -2
100
AcDbBlockReference
  2
VDDIM_DEFAULT
10
-84.6331506974264
20
24.8136759635972
30
0.000000000000000
 41
2.50000000000000
 42
2.50000000000000
 43
2.50000000000000
 50
179.785899687237
  0
INSERT
  5
F1005C
330
F10002
100
AcDbEntity
  8
Bemassung
 62
     0
370
    -2
100
AcDbBlockReference
  2
VDDIM_DEFAULT
10
-85.1001277176542
20
24.8055248493892
30
0.000000000000000
 41
2.50000000000000
 42
2.50000000000000
 43
2.50000000000000
 50
2.21410031276408
  0
MTEXT
  5
F1005D
330
F10002
100
AcDbEntity
  8
Bemassung
 62
     0
100
AcDbMText
10
-91.2231452697334
20
23.0783543592105
30
0.000000000000000
 40
2.50000000000000
 41
0.0
 71
     8
 72
     1
  1
2°
 11
0.868864187910738
 21
0.495050525670071
 31
0.0
 73
     1
 44
1.0
1001
ACAD
1000
MTEXTBEGIN
1070
73
1070
1
1070
44
1040
1.0
1070
74
1070
0
1000
MTEXTEND
  0
POINT
  5
F1005E
330
F10002
100
AcDbEntity
  8
Bemassung
 62
     0
100
AcDbPoint
10
-84.6331506974264
20
11.4330526208430
30
0.000000000000000
  0
POINT
  5
F1005F
330
F10002
100
AcDbEntity
  8
Bemassung
 62
     0
100
AcDbPoint
10
-84.6331506974264
20
24.8136759635972
30
0.000000000000000
  0
POINT
  5
F10060
330
F10002
100
AcDbEntity
  8
Bemassung
 62
     0
100
AcDbPoint
10
-85.1001277176542
20
24.8055248493892
30
0.000000000000000
  0
POINT
  5
F10061
330
F10002
100
AcDbEntity
  8
Bemassung
 62
     0
100
AcDbPoint
10
-84.8666747743883
20
24.8116380298516
30
0.000000000000000
  0
ENDBLK
  5
F10062
330
F10002
100
AcDbEntity
  8
0
100
AcDbBlockEnd
  0
BLOCK
  5
F10063
330
F1000C
100
AcDbEntity
  8
0
100
AcDbBlockBegin
  2
*D5
 70
     1
 10
0.0
 20
0.0
 30
0.0
  3
*D5
  1

  0
LINE
  5
F10064
330
F1000C
100
AcDbEntity
  8
Bemassung
 62
     0
370
    -2
100
AcDbLine
10
-84.3530996707459
20
12.1626104880045
30
0.000000000000000
11
-95.9197977088904
21
23.3324409450236
31
0.000000000000000
  0
INSERT
  5
F10065
330
F1000C
100
AcDbEntity
  8
Bemassung
 62
     0
370
    -2
100
AcDbBlockReference
  2
VDDIM_DEFAULT
10
-84.3530996707459
20
12.1626104880045
30
0.000000000000000
 41
2.50000000000000
 42
2.50000000000000
 43
2.50000000000000
 50
316.000000000000
  0
MTEXT
  5
F10066
330
F1000C
100
AcDbEntity
  8
Bemassung
 62
     0
100
AcDbMText
10
-91.5464976741325
20
19.1091941925945
30
0.000000000000000
 40
2.50000000000000
 41
0.0
 71
     8
 72
     1
  1
R1
 11
0.719339800338652
 21
-0.694658370458996
 31
0.0
 73
     1
 44
1.0
1001
ACAD
1000
MTEXTBEGIN
1070
73
1070
1
1070
44
1040
1.0
1070
74
1070
0
1000
MTEXTEND
  0
POINT
  5
F10067
330
F1000C
100
AcDbEntity
  8
Bemassung
 62
     0
100
AcDbPoint
10
-84.3530996707459
20
12.1626104880045
30
0.000000000000000
  0
POINT
  5
F10068
330
F1000C
100
AcDbEntity
  8
Bemassung
 62
     0
100
AcDbPoint
10
-83.6337598704073
20
11.4679521175455
30
0.000000000000000
  0
ENDBLK
  5
F10069
330
F1000C
100
AcDbEntity
  8
0
100
AcDbBlockEnd
  0
BLOCK
  5
F1006A
330
F10007
100
AcDbEntity
  8
0
100
AcDbBlockBegin
  2
*D4
 70
     1
 10
0.0
 20
0.0
 30
0.0
  3
*D4
  1

  0
LINE
  5
F1006B
330
F10007
100
AcDbEntity
  8
Bemassung
 62
     0
370
    -2
100
AcDbLine
10
-83.6337598704073
20
-3.53204788245446
30
0.000000000000000
11
-96.6337598704073
21
-3.53204788245446
31
0.000000000000000
  0
LINE
  5
F1006C
330
F10007
100
AcDbEntity
  8
Bemassung
 62
     0
370
    -2
100
AcDbLine
10
-83.6337598704073
20
12.4679521175455
30
0.000000000000000
11
-96.6337598704073
21
12.4679521175455
31
0.000000000000000
  0
LINE
  5
F1006D
330
F10007
100
AcDbEntity
  8
Bemassung
 62
     0
370
    -2
100
AcDbLine
10
-94.6337598704073
20
-3.53204788245446
30
0.000000000000000
11
-94.6337598704073
21
12.4679521175455
31
0.000000000000000
  0
INSERT
  5
F1006E
330
F10007
100
AcDbEntity
  8
Bemassung
 62
     0
370
    -2
100
AcDbBlockReference
  2
VDDIM_DEFAULT
10
-94.6337598704073
20
-3.53204788245446
30
0.000000000000000
 41
2.50000000000000
 42
2.50000000000000
 43
2.50000000000000
 50
270.000000000000
  0
INSERT
  5
F1006F
330
F10007
100
AcDbEntity
  8
Bemassung
 62
     0
370
    -2
100
AcDbBlockReference
  2
VDDIM_DEFAULT
10
-94.6337598704073
20
12.4679521175455
30
0.000000000000000
 41
2.50000000000000
 42
2.50000000000000
 43
2.50000000000000
 50
90.0000000000000
  0
MTEXT
  5
F10070
330
F10007
100
AcDbEntity
  8
Bemassung
 62
     0
100
AcDbMText
10
-93.9670932037406
20
4.46795211754554
30
0.000000000000000
 40
2.50000000000000
 41
0.0
 71
     8
 72
     1
  1
16
 11
6.12323399573677e-017
 21
1.00000000000000
 31
0.0
 73
     1
 44
1.0
1001
ACAD
1000
MTEXTBEGIN
1070
73
1070
1
1070
44
1040
1.0
1070
74
1070
0
1000
MTEXTEND
  0
POINT
  5
F10071
330
F10007
100
AcDbEntity
  8
Bemassung
 62
     0
100
AcDbPoint
10
-83.6337598704073
20
-3.53204788245446
30
0.000000000000000
  0
POINT
  5
F10072
330
F10007
100
AcDbEntity
  8
Bemassung
 62
     0
100
AcDbPoint
10
-83.6337598704073
20
12.4679521175455
30
0.000000000000000
  0
ENDBLK
  5
F10073
330
F10007
100
AcDbEntity
  8
0
100
AcDbBlockEnd
  0
BLOCK
  5
F10074
330
F10011
100
AcDbEntity
  8
0
100
AcDbBlockBegin
  2
*D6
 70
     1
 10
0.0
 20
0.0
 30
0.0
  3
*D6
  1

  0
LINE
  5
F10075
330
F10011
100
AcDbEntity
  8
Bemassung
 62
     0
370
    -2
100
AcDbLine
10
-65.6337598704073
20
-3.23204788245446
30
0.000000000000000
11
-59.9670932037406
21
-3.23204788245446
31
0.000000000000000
  0
LINE
  5
F10076
330
F10011
100
AcDbEntity
  8
Bemassung
 62
     0
370
    -2
100
AcDbLine
10
-65.6337598704073
20
12.1679521175455
30
0.000000000000000
11
-59.9670932037406
21
12.1679521175455
31
0.000000000000000
  0
LINE
  5
F10077
330
F10011
100
AcDbEntity
  8
Bemassung
 62
     0
370
    -2
100
AcDbLine
10
-61.9670932037406
20
-30.8509304157647
30
0.000000000000000
11
-61.9670932037406
21
12.1679521175455
31
0.000000000000000
  0
INSERT
  5
F10078
330
F10011
100
AcDbEntity
  8
Bemassung
 62
     0
370
    -2
100
AcDbBlockReference
  2
VDDIM_DEFAULT
10
-61.9670932037406
20
-3.23204788245446
30
0.000000000000000
 41
2.50000000000000
 42
2.50000000000000
 43
2.50000000000000
 50
270.000000000000
  0
INSERT
  5
F10079
330
F10011
100
AcDbEntity
  8
Bemassung
 62
     0
370
    -2
100
AcDbBlockReference
  2
VDDIM_DEFAULT
10
-61.9670932037406
20
12.1679521175455
30
0.000000000000000
 41
2.50000000000000
 42
2.50000000000000
 43
2.50000000000000
 50
90.0000000000000
  0
MTEXT
  5
F1007A
330
F10011
100
AcDbEntity
  8
Bemassung
 62
     0
100
AcDbMText
10
-61.3004265370740
20
-10.9581737968378
30
0.000000000000000
 40
2.50000000000000
 41
0.0
 71
     8
 72
     1
  1
15.4
 11
6.12323399573677e-017
 21
1.00000000000000
 31
0.0
 73
     1
 44
1.0
1001
ACAD
1000
MTEXTBEGIN
1070
73
1070
1
1070
44
1040
1.0
1070
74
1070
0
1000
MTEXTEND
  0
POINT
  5
F1007B
330
F10011
100
AcDbEntity
  8
Bemassung
 62
     0
100
AcDbPoint
10
-65.6337598704073
20
-3.23204788245446
30
0.000000000000000
  0
POINT
  5
F1007C
330
F10011
100
AcDbEntity
  8
Bemassung
 62
     0
100
AcDbPoint
10
-65.6337598704073
20
12.1679521175455
30
0.000000000000000
  0
ENDBLK
  5
F1007D
330
F10011
100
AcDbEntity
  8
0
100
AcDbBlockEnd
  0
BLOCK
  5
F1007E
330
F10020
100
AcDbEntity
  8
0
100
AcDbBlockBegin
  2
*D9
 70
     1
 10
0.0
 20
0.0
 30
0.0
  3
*D9
  1

  0
LINE
  5
F1007F
330
F10020
100
AcDbEntity
  8
Bemassung
 62
     0
370
    -2
100
AcDbLine
10
3.86624012959271
20
-3.53204788245446
30
0.000000000000000
11
16.3662401295927
21
-3.53204788245446
31
0.000000000000000
  0
LINE
  5
F10080
330
F10020
100
AcDbEntity
  8
Bemassung
 62
     0
370
    -2
100
AcDbLine
10
3.86624012959271
20
12.4679521175455
30
0.000000000000000
11
16.3662401295927
21
12.4679521175455
31
0.000000000000000
  0
LINE
  5
F10081
330
F10020
100
AcDbEntity
  8
Bemassung
 62
     0
370
    -2
100
AcDbLine
10
14.3662401295927
20
-3.53204788245446
30
0.000000000000000
11
14.3662401295927
21
12.4679521175455
31
0.000000000000000
  0
INSERT
  5
F10082
330
F10020
100
AcDbEntity
  8
Bemassung
 62
     0
370
    -2
100
AcDbBlockReference
  2
VDDIM_DEFAULT
10
14.3662401295927
20
-3.53204788245446
30
0.000000000000000
 41
2.50000000000000
 42
2.50000000000000
 43
2.50000000000000
 50
270.000000000000
  0
INSERT
  5
F10083
330
F10020
100
AcDbEntity
  8
Bemassung
 62
     0
370
    -2
100
AcDbBlockReference
  2
VDDIM_DEFAULT
10
14.3662401295927
20
12.4679521175455
30
0.000000000000000
 41
2.50000000000000
 42
2.50000000000000
 43
2.50000000000000
 50
90.0000000000000
  0
MTEXT
  5
F10084
330
F10020
100
AcDbEntity
  8
Bemassung
 62
     0
100
AcDbMText
10
15.0329067962594
20
4.46795211754554
30
0.000000000000000
 40
2.50000000000000
 41
0.0
 71
     8
 72
     1
  1
16h6
 11
6.12323399573677e-017
 21
1.00000000000000
 31
0.0
 73
     1
 44
1.0
  0
POINT
  5
F10085
330
F10020
100
AcDbEntity
  8
Bemassung
 62
     0
100
AcDbPoint
10
3.86624012959271
20
-3.53204788245446
30
0.000000000000000
  0
POINT
  5
F10086
330
F10020
100
AcDbEntity
  8
Bemassung
 62
     0
100
AcDbPoint
10
3.86624012959271
20
12.4679521175455
30
0.000000000000000
  0
ENDBLK
  5
F10087
330
F10020
100
AcDbEntity
  8
0
100
AcDbBlockEnd
0
ENDSEC
0
SECTION
2
ENTITIES
  0
DIMENSION
  5
F10017
330
261
100
AcDbEntity
  8
Bemassung
100
AcDbDimension
  2
*D7
10
-49.6337598704073
20
22.4679521175455
30
0.000000000000000
11
-67.1337598704073
21
23.1346187842122
31
0.000000000000000
 70
32
 1
35
 71
     8
  3
BEM-ISBE
100
AcDbAlignedDimension
13
-84.6337598704073
23
-10.5320478824545
33
0.000000000000000
14
-49.6337598704073
24
12.1679521175455
34
0.000000000000000
100
AcDbRotatedDimension
1001
ACAD
1000
DSTYLE
1002
{
1070
284
1070
8
1070
78
1070
8
1070
144
1040
1.00000000000000
1070
147
1040
0.625
1070
 72
1070
 0
1070
 71
1070
 0
1002
}
  0
DIMENSION
  5
F1001C
330
261
100
AcDbEntity
  8
Bemassung
100
AcDbDimension
  2
*D8
10
4.36624012959271
20
27.4679521175455
30
0.000000000000000
11
-22.6337598704073
21
28.1346187842122
31
0.000000000000000
 70
32
 1
54
 71
     8
  3
BEM-ISBE
100
AcDbAlignedDimension
13
-49.6337598704073
23
12.1679521175455
33
0.000000000000000
14
4.36624012959271
24
11.9679521175455
34
0.000000000000000
100
AcDbRotatedDimension
1001
ACAD
1000
DSTYLE
1002
{
1070
284
1070
8
1070
78
1070
8
1070
144
1040
1.00000000000000
1070
147
1040
0.625
1070
 72
1070
 0
1070
 71
1070
 0
1002
}
  0
DIMENSION
  5
F10026
330
261
100
AcDbEntity
  8
Bemassung
100
AcDbDimension
  2
*D10
10
-84.6337598704073
20
-8.53204788245446
30
0.000000000000000
11
-75.1337598704073
21
-7.86538121578780
31
0.000000000000000
 70
32
 1
19
 71
     8
  3
BEM-ISBE
100
AcDbAlignedDimension
13
-65.6337598704073
23
-3.23204788245446
33
0.000000000000000
14
-84.6337598704073
24
-10.5320478824545
34
0.000000000000000
100
AcDbRotatedDimension
1001
ACAD
1000
DSTYLE
1002
{
1070
284
1070
8
1070
78
1070
8
1070
144
1040
1.00000000000000
1070
147
1040
0.625
1070
 72
1070
 0
1070
 71
1070
 0
1002
}
  0
DIMENSION
  5
F1002B
330
261
100
AcDbEntity
  8
Bemassung
100
AcDbDimension
  2
*D11
10
-84.6337598704073
20
32.4679521175455
30
0.000000000000000
11
-40.1337598704073
21
33.1346187842122
31
0.000000000000000
 70
32
 1
89
 71
     8
  3
BEM-ISBE
100
AcDbAlignedDimension
13
4.36624012959271
23
11.9679521175455
33
0.000000000000000
14
-84.6337598704073
24
-10.5320478824545
34
0.000000000000000
100
AcDbRotatedDimension
1001
ACAD
1000
DSTYLE
1002
{
1070
284
1070
8
1070
78
1070
8
1070
144
1040
1.00000000000000
1070
147
1040
0.625
1070
 72
1070
 0
1070
 71
1070
 0
1002
}
  0
DIMENSION
  5
F10003
330
261
100
AcDbEntity
  8
Bemassung
100
AcDbDimension
  2
*D3
10
-84.6331506974264
20
11.4330526208430
30
0.000000000000000
11
-91.2231452697334
21
23.0783543592105
31
0.000000000000000
 70
34
 1
2°
 71
     8
  3
BEM-ISBE
100
AcDb2LineAngularDimension
13
-84.6331506974264
23
11.4330526208430
33
0.000000000000000
14
-89.7276034194498
24
23.8059113246239
34
0.000000000000000
15
-84.6331506974264
25
24.8136759635972
35
0.000000000000000
16
-84.8666747743883
26
24.8116380298516
36
0.000000000000000
1001
ACAD
1000
DSTYLE
1002
{
1070
284
1070
8
1070
79
1070
2
1070
147
1040
0.625
1070
 72
1070
 0
1070
 71
1070
 0
1002
}
  0
DIMENSION
  5
F1000D
330
261
100
AcDbEntity
  8
Bemassung
100
AcDbDimension
  2
*D5
10
-83.6337598704073
20
11.4679521175455
30
0.000000000000000
11
-91.5464976741325
21
19.1091941925945
31
0.000000000000000
 70
164
 1
R1
 71
     8
  3
BEM-ISBE
100
AcDbRadialDimension
15
-84.3530996707459
25
12.1626104880045
35
0.000000000000000
40
0.0
1001
ACAD
1000
DSTYLE
1002
{
1070
284
1070
8
1070
78
1070
8
1070
144
1040
1.00000000000000
1070
147
1040
0.625
1070
 72
1070
 0
1070
 71
1070
 0
1002
}
  0
DIMENSION
  5
F10008
330
261
100
AcDbEntity
  8
Bemassung
100
AcDbDimension
  2
*D4
10
-94.6337598704073
20
12.4679521175455
30
0.000000000000000
11
-93.9670932037406
21
4.46795211754554
31
0.000000000000000
 70
32
 1
16
 71
     8
  3
BEM-ISBE
100
AcDbAlignedDimension
13
-83.6337598704073
23
-3.53204788245446
33
0.000000000000000
14
-83.6337598704073
24
12.4679521175455
34
0.000000000000000
50
90.0000000000000
100
AcDbRotatedDimension
1001
ACAD
1000
DSTYLE
1002
{
1070
284
1070
8
1070
78
1070
8
1070
144
1040
1.00000000000000
1070
147
1040
0.625
1070
 72
1070
 0
1070
 71
1070
 0
1002
}
  0
DIMENSION
  5
F10012
330
261
100
AcDbEntity
  8
Bemassung
100
AcDbDimension
  2
*D6
10
-61.9670932037406
20
12.1679521175455
30
0.000000000000000
11
-61.3004265370740
21
-10.9581737968378
31
0.000000000000000
 70
32
 1
15.4
 71
     8
  3
BEM-ISBE
100
AcDbAlignedDimension
13
-65.6337598704073
23
-3.23204788245446
33
0.000000000000000
14
-65.6337598704073
24
12.1679521175455
34
0.000000000000000
50
90.0000000000000
100
AcDbRotatedDimension
1001
ACAD
1000
DSTYLE
1002
{
1070
284
1070
8
1070
78
1070
8
1070
144
1040
1.00000000000000
1070
147
1040
0.625
1070
 72
1070
 0
1070
 71
1070
 0
1002
}
  0
DIMENSION
  5
F10021
330
261
100
AcDbEntity
  8
Bemassung
100
AcDbDimension
  2
*D9
10
14.3662401295927
20
12.4679521175455
30
0.000000000000000
11
15.0329067962594
21
4.46795211754554
31
0.000000000000000
 70
32
 1
16h6
 71
     8
  3
BEM-ISBE
100
AcDbAlignedDimension
13
3.86624012959271
23
-3.53204788245446
33
0.000000000000000
14
3.86624012959271
24
12.4679521175455
34
0.000000000000000
50
90.0000000000000
100
AcDbRotatedDimension
1001
ACAD
1000
DSTYLE
1002
{
1070
284
1070
8
1070
78
1070
8
1070
144
1040
1.00000000000000
1070
147
1040
0.625
1070
 72
1070
 0
1070
 71
1070
 0
1002
}
  0
LINE
  5
F10088
330
F10089
100
AcDbEntity
8
Geo
100
AcDbLine
10
-84.3899240282639
20
4.46795211754554
30
0.000000000000000
11
-84.6331506974264
21
11.4330526208430
31
0.000000000000000
  0
ARC
  5
F1008A
330
F1008B
100
AcDbEntity
8
Geo
100
AcDbCircle
10
-83.6337598704073
20
11.4679521175455
30
0.000000000000000
 40
1.00000000000000
100
AcDbArc
 50
90.0000000000000
 51
182.000000000000
  0
LINE
  5
F1008C
330
F1008D
100
AcDbEntity
8
Geo
100
AcDbLine
10
-83.6337598704073
20
12.4679521175455
30
0.000000000000000
11
-65.6337598704073
21
12.4679521175455
31
0.000000000000000
  0
LINE
  5
F1008E
330
F1008F
100
AcDbEntity
8
Geo
100
AcDbLine
10
-65.6337598704073
20
12.4679521175455
30
0.000000000000000
11
-65.6337598704073
21
12.1679521175455
31
0.000000000000000
  0
LINE
  5
F10090
330
F10091
100
AcDbEntity
8
Geo
100
AcDbLine
10
-65.6337598704073
20
12.1679521175455
30
0.000000000000000
11
-49.6337598704073
21
12.1679521175455
31
0.000000000000000
  0
LINE
  5
F10092
330
F10093
100
AcDbEntity
8
Geo
100
AcDbLine
10
-49.6337598704073
20
12.1679521175455
30
0.000000000000000
11
-49.6337598704073
21
12.4679521175455
31
0.000000000000000
  0
LINE
  5
F10094
330
F10095
100
AcDbEntity
8
Geo
100
AcDbLine
10
-49.6337598704073
20
12.4679521175455
30
0.000000000000000
11
3.86624012959271
21
12.4679521175455
31
0.000000000000000
  0
LINE
  5
F10096
330
F10097
100
AcDbEntity
8
Geo
100
AcDbLine
10
3.86624012959271
20
12.4679521175455
30
0.000000000000000
11
4.36624012959271
21
11.9679521175455
31
0.000000000000000
  0
LINE
  5
F10098
330
F10099
100
AcDbEntity
8
Geo
100
AcDbLine
10
-81.4337598704073
20
12.4654609418406
30
0.000000000000000
11
-81.3337598704073
21
12.4672195029059
31
0.000000000000000
  0
LINE
  5
F1009A
330
F1009B
100
AcDbEntity
8
Geo
100
AcDbLine
10
-81.3337598704073
20
12.4672195029059
30
0.000000000000000
11
-81.2337598704073
21
12.4571287604598
31
0.000000000000000
  0
LINE
  5
F1009C
330
F1009D
100
AcDbEntity
8
Geo
100
AcDbLine
10
-81.2337598704073
20
12.4571287604598
30
0.000000000000000
11
-81.1337598704073
21
12.4352036619047
31
0.000000000000000
  0
LINE
  5
F1009E
330
F1009F
100
AcDbEntity
8
Geo
100
AcDbLine
10
-81.1337598704073
20
12.4352036619047
30
0.000000000000000
11
-81.0337598704073
21
12.4014766848583
31
0.000000000000000
  0
LINE
  5
F100A0
330
F100A1
100
AcDbEntity
8
Geo
100
AcDbLine
10
-81.0337598704073
20
12.4014766848583
30
0.000000000000000
11
-80.9337598704073
21
12.3559977890442
31
0.000000000000000
  0
LINE
  5
F100A2
330
F100A3
100
AcDbEntity
8
Geo
100
AcDbLine
10
-80.9337598704073
20
12.3559977890442
30
0.000000000000000
11
-80.8337598704073
21
12.2988343422867
31
0.000000000000000
  0
LINE
  5
F100A4
330
F100A5
100
AcDbEntity
8
Geo
100
AcDbLine
10
-80.8337598704073
20
12.2988343422867
30
0.000000000000000
11
-80.7337598704073
21
12.2300710207190
31
0.000000000000000
  0
LINE
  5
F100A6
330
F100A7
100
AcDbEntity
8
Geo
100
AcDbLine
10
-80.7337598704073
20
12.2300710207190
30
0.000000000000000
11
-80.6337598704073
21
12.1498096833525
31
0.000000000000000
  0
LINE
  5
F100A8
330
F100A9
100
AcDbEntity
8
Geo
100
AcDbLine
10
-80.6337598704073
20
12.1498096833525
30
0.000000000000000
11
-80.5337598704073
21
12.0581692211931
31
0.000000000000000
  0
LINE
  5
F100AA
330
F100AB
100
AcDbEntity
8
Geo
100
AcDbLine
10
-80.5337598704073
20
12.0581692211931
30
0.000000000000000
11
-80.4337598704073
21
11.9552853811284
31
0.000000000000000
  0
LINE
  5
F100AC
330
F100AD
100
AcDbEntity
8
Geo
100
AcDbLine
10
-80.4337598704073
20
11.9552853811284
30
0.000000000000000
11
-80.3337598704073
21
11.8413105648458
31
0.000000000000000
  0
LINE
  5
F100AE
330
F100AF
100
AcDbEntity
8
Geo
100
AcDbLine
10
-80.3337598704073
20
11.8413105648458
30
0.000000000000000
11
-80.2337598704073
21
11.7164136030801
31
0.000000000000000
  0
LINE
  5
F100B0
330
F100B1
100
AcDbEntity
8
Geo
100
AcDbLine
10
-80.2337598704073
20
11.7164136030801
30
0.000000000000000
11
-80.1337598704073
21
11.5807795055249
31
0.000000000000000
  0
LINE
  5
F100B2
330
F100B3
100
AcDbEntity
8
Geo
100
AcDbLine
10
-80.1337598704073
20
11.5807795055249
30
0.000000000000000
11
-80.0337598704073
21
11.4346091867778
31
0.000000000000000
  0
LINE
  5
F100B4
330
F100B5
100
AcDbEntity
8
Geo
100
AcDbLine
10
-80.0337598704073
20
11.4346091867778
30
0.000000000000000
11
-79.9337598704073
21
11.2781191687262
31
0.000000000000000
  0
LINE
  5
F100B6
330
F100B7
100
AcDbEntity
8
Geo
100
AcDbLine
10
-79.9337598704073
20
11.2781191687262
30
0.000000000000000
11
-79.8337598704073
21
11.1115412598133
31
0.000000000000000
  0
LINE
  5
F100B8
330
F100B9
100
AcDbEntity
8
Geo
100
AcDbLine
10
-79.8337598704073
20
11.1115412598133
30
0.000000000000000
11
-79.7337598704073
21
10.9351222116610
31
0.000000000000000
  0
LINE
  5
F100BA
330
F100BB
100
AcDbEntity
8
Geo
100
AcDbLine
10
-79.7337598704073
20
10.9351222116610
30
0.000000000000000
11
-79.6337598704073
21
10.7491233535570
31
0.000000000000000
  0
LINE
  5
F100BC
330
F100BD
100
AcDbEntity
8
Geo
100
AcDbLine
10
-79.6337598704073
20
10.7491233535570
30
0.000000000000000
11
-79.5337598704073
21
10.5538202053476
31
0.000000000000000
  0
LINE
  5
F100BE
330
F100BF
100
AcDbEntity
8
Geo
100
AcDbLine
10
-79.5337598704073
20
10.5538202053476
30
0.000000000000000
11
-79.4337598704073
21
10.3495020693113
31
0.000000000000000
  0
LINE
  5
F100C0
330
F100C1
100
AcDbEntity
8
Geo
100
AcDbLine
10
-79.4337598704073
20
10.3495020693113
30
0.000000000000000
11
-79.3337598704073
21
10.1364716016153
31
0.000000000000000
  0
LINE
  5
F100C2
330
F100C3
100
AcDbEntity
8
Geo
100
AcDbLine
10
-79.3337598704073
20
10.1364716016153
30
0.000000000000000
11
-79.2337598704073
21
9.91504436399119
31
0.000000000000000
  0
LINE
  5
F100C4
330
F100C5
100
AcDbEntity
8
Geo
100
AcDbLine
10
-79.2337598704073
20
9.91504436399119
30
0.000000000000000
11
-79.1337598704073
21
9.68554835629435
31
0.000000000000000
  0
LINE
  5
F100C6
330
F100C7
100
AcDbEntity
8
Geo
100
AcDbLine
10
-79.1337598704073
20
9.68554835629435
30
0.000000000000000
11
-79.0337598704073
21
9.44832353063769
31
0.000000000000000
  0
LINE
  5
F100C8
330
F100C9
100
AcDbEntity
8
Geo
100
AcDbLine
10
-79.0337598704073
20
9.44832353063769
30
0.000000000000000
11
-78.9337598704073
21
9.20372128782134
31
0.000000000000000
  0
LINE
  5
F100CA
330
F100CB
100
AcDbEntity
8
Geo
100
AcDbLine
10
-78.9337598704073
20
9.20372128782134
30
0.000000000000000
11
-78.8337598704073
21
8.95210395680310
31
0.000000000000000
  0
LINE
  5
F100CC
330
F100CD
100
AcDbEntity
8
Geo
100
AcDbLine
10
-78.8337598704073
20
8.95210395680310
30
0.000000000000000
11
-78.7337598704073
21
8.69384425798099
31
0.000000000000000
  0
LINE
  5
F100CE
330
F100CF
100
AcDbEntity
8
Geo
100
AcDbLine
10
-78.7337598704073
20
8.69384425798099
30
0.000000000000000
11
-78.6337598704073
21
8.42932475108316
31
0.000000000000000
  0
LINE
  5
F100D0
330
F100D1
100
AcDbEntity
8
Geo
100
AcDbLine
10
-78.6337598704073
20
8.42932475108316
30
0.000000000000000
11
-78.5337598704073
21
8.15893726848260
31
0.000000000000000
  0
LINE
  5
F100D2
330
F100D3
100
AcDbEntity
8
Geo
100
AcDbLine
10
-78.5337598704073
20
8.15893726848260
30
0.000000000000000
11
-78.4337598704073
21
7.88308233477646
31
0.000000000000000
  0
LINE
  5
F100D4
330
F100D5
100
AcDbEntity
8
Geo
100
AcDbLine
10
-78.4337598704073
20
7.88308233477646
30
0.000000000000000
11
-78.3337598704073
21
7.60216857348954
31
0.000000000000000
  0
LINE
  5
F100D6
330
F100D7
100
AcDbEntity
8
Geo
100
AcDbLine
10
-78.3337598704073
20
7.60216857348954
30
0.000000000000000
11
-78.2337598704073
21
7.31661210178077
31
0.000000000000000
  0
LINE
  5
F100D8
330
F100D9
100
AcDbEntity
8
Geo
100
AcDbLine
10
-78.2337598704073
20
7.31661210178077
30
0.000000000000000
11
-78.1337598704073
21
7.02683591404950
31
0.000000000000000
  0
LINE
  5
F100DA
330
F100DB
100
AcDbEntity
8
Geo
100
AcDbLine
10
-78.1337598704073
20
7.02683591404950
30
0.000000000000000
11
-78.0337598704073
21
6.73326925535449
31
0.000000000000000
  0
LINE
  5
F100DC
330
F100DD
100
AcDbEntity
8
Geo
100
AcDbLine
10
-78.0337598704073
20
6.73326925535449
30
0.000000000000000
11
-77.9337598704073
21
6.43634698557379
31
0.000000000000000
  0
LINE
  5
F100DE
330
F100DF
100
AcDbEntity
8
Geo
100
AcDbLine
10
-77.9337598704073
20
6.43634698557379
30
0.000000000000000
11
-77.8337598704073
21
6.13650893524745
31
0.000000000000000
  0
LINE
  5
F100E0
330
F100E1
100
AcDbEntity
8
Geo
100
AcDbLine
10
-77.8337598704073
20
6.13650893524745
30
0.000000000000000
11
-77.7337598704073
21
5.83419925405709
31
0.000000000000000
  0
LINE
  5
F100E2
330
F100E3
100
AcDbEntity
8
Geo
100
AcDbLine
10
-77.7337598704073
20
5.83419925405709
30
0.000000000000000
11
-77.6337598704073
21
5.52986575290769
31
0.000000000000000
  0
LINE
  5
F100E4
330
F100E5
100
AcDbEntity
8
Geo
100
AcDbLine
10
-77.6337598704073
20
5.52986575290769
30
0.000000000000000
11
-77.5337598704073
21
5.22395924058587
31
0.000000000000000
  0
LINE
  5
F100E6
330
F100E7
100
AcDbEntity
8
Geo
100
AcDbLine
10
-77.5337598704073
20
5.22395924058587
30
0.000000000000000
11
-77.4337598704073
21
4.91693285597747
31
0.000000000000000
  0
LINE
  5
F100E8
330
F100E9
100
AcDbEntity
8
Geo
100
AcDbLine
10
-77.4337598704073
20
4.91693285597747
30
0.000000000000000
11
-77.3337598704073
21
4.60924139683359
31
0.000000000000000
  0
LINE
  5
F100EA
330
F100EB
100
AcDbEntity
8
Geo
100
AcDbLine
10
-77.3337598704073
20
4.60924139683359
30
0.000000000000000
11
-77.2337598704073
21
4.30134064607930
31
0.000000000000000
  0
LINE
  5
F100EC
330
F100ED
100
AcDbEntity
8
Geo
100
AcDbLine
10
-77.2337598704073
20
4.30134064607930
30
0.000000000000000
11
-77.1337598704073
21
3.99368669666303
31
0.000000000000000
  0
LINE
  5
F100EE
330
F100EF
100
AcDbEntity
8
Geo
100
AcDbLine
10
-77.1337598704073
20
3.99368669666303
30
0.000000000000000
11
-77.0337598704073
21
3.68673527594675
31
0.000000000000000
  0
LINE
  5
F100F0
330
F100F1
100
AcDbEntity
8
Geo
100
AcDbLine
10
-77.0337598704073
20
3.68673527594675
30
0.000000000000000
11
-76.9337598704073
21
3.38094107063763
31
0.000000000000000
  0
LINE
  5
F100F2
330
F100F3
100
AcDbEntity
8
Geo
100
AcDbLine
10
-76.9337598704073
20
3.38094107063763
30
0.000000000000000
11
-76.8337598704073
21
3.07675705326131
31
0.000000000000000
  0
LINE
  5
F100F4
330
F100F5
100
AcDbEntity
8
Geo
100
AcDbLine
10
-76.8337598704073
20
3.07675705326131
30
0.000000000000000
11
-76.7337598704073
21
2.77463381117430
31
0.000000000000000
  0
LINE
  5
F100F6
330
F100F7
100
AcDbEntity
8
Geo
100
AcDbLine
10
-76.7337598704073
20
2.77463381117430
30
0.000000000000000
11
-76.6337598704073
21
2.47501887910960
31
0.000000000000000
  0
LINE
  5
F100F8
330
F100F9
100
AcDbEntity
8
Geo
100
AcDbLine
10
-76.6337598704073
20
2.47501887910960
30
0.000000000000000
11
-76.5337598704073
21
2.17835607624408
31
0.000000000000000
  0
LINE
  5
F100FA
330
F100FB
100
AcDbEntity
8
Geo
100
AcDbLine
10
-76.5337598704073
20
2.17835607624408
30
0.000000000000000
11
-76.4337598704073
21
1.88508484876978
31
0.000000000000000
  0
LINE
  5
F100FC
330
F100FD
100
AcDbEntity
8
Geo
100
AcDbLine
10
-76.4337598704073
20
1.88508484876978
30
0.000000000000000
11
-76.3337598704073
21
1.59563961894292
31
0.000000000000000
  0
LINE
  5
F100FE
330
F100FF
100
AcDbEntity
8
Geo
100
AcDbLine
10
-76.3337598704073
20
1.59563961894292
30
0.000000000000000
11
-76.2337598704073
21
1.31044914157478
31
0.000000000000000
  0
LINE
  5
F10100
330
F10101
100
AcDbEntity
8
Geo
100
AcDbLine
10
-76.2337598704073
20
1.31044914157478
30
0.000000000000000
11
-76.1337598704073
21
1.02993586891781
31
0.000000000000000
  0
LINE
  5
F10102
330
F10103
100
AcDbEntity
8
Geo
100
AcDbLine
10
-76.1337598704073
20
1.02993586891781
30
0.000000000000000
11
-76.0337598704073
21
0.754515324887702
31
0.000000000000000
  0
LINE
  5
F10104
330
F10105
100
AcDbEntity
8
Geo
100
AcDbLine
10
-76.0337598704073
20
0.754515324887702
30
0.000000000000000
11
-75.9337598704073
21
0.484595489548423
31
0.000000000000000
  0
LINE
  5
F10106
330
F10107
100
AcDbEntity
8
Geo
100
AcDbLine
10
-75.9337598704073
20
0.484595489548423
30
0.000000000000000
11
-75.8337598704073
21
0.220576194771901
31
0.000000000000000
  0
LINE
  5
F10108
330
F10109
100
AcDbEntity
8
Geo
100
AcDbLine
10
-75.8337598704073
20
0.220576194771901
30
0.000000000000000
11
-75.7337598704073
21
-0.0371514680323690
31
0.000000000000000
  0
LINE
  5
F1010A
330
F1010B
100
AcDbEntity
8
Geo
100
AcDbLine
10
-75.7337598704073
20
-0.0371514680323690
30
0.000000000000000
11
-75.6337598704073
21
-0.288205727240469
31
0.000000000000000
  0
LINE
  5
F1010C
330
F1010D
100
AcDbEntity
8
Geo
100
AcDbLine
10
-75.6337598704073
20
-0.288205727240469
30
0.000000000000000
11
-75.5337598704073
21
-0.532214696531828
31
0.000000000000000
  0
LINE
  5
F1010E
330
F1010F
100
AcDbEntity
8
Geo
100
AcDbLine
10
-75.5337598704073
20
-0.532214696531828
30
0.000000000000000
11
-75.4337598704073
21
-0.768816925763905
31
0.000000000000000
  0
LINE
  5
F10110
330
F10111
100
AcDbEntity
8
Geo
100
AcDbLine
10
-75.4337598704073
20
-0.768816925763905
30
0.000000000000000
11
-75.3337598704073
21
-0.997661936387775
31
0.000000000000000
  0
LINE
  5
F10112
330
F10113
100
AcDbEntity
8
Geo
100
AcDbLine
10
-75.3337598704073
20
-0.997661936387775
30
0.000000000000000
11
-75.2337598704073
21
-1.21841074061152
31
0.000000000000000
  0
LINE
  5
F10114
330
F10115
100
AcDbEntity
8
Geo
100
AcDbLine
10
-75.2337598704073
20
-1.21841074061152
30
0.000000000000000
11
-75.1337598704073
21
-1.43073634354234
31
0.000000000000000
  0
LINE
  5
F10116
330
F10117
100
AcDbEntity
8
Geo
100
AcDbLine
10
-75.1337598704073
20
-1.43073634354234
30
0.000000000000000
11
-75.0337598704073
21
-1.63432422756368
31
0.000000000000000
  0
LINE
  5
F10118
330
F10119
100
AcDbEntity
8
Geo
100
AcDbLine
10
-75.0337598704073
20
-1.63432422756368
30
0.000000000000000
11
-74.9337598704073
21
-1.82887281822967
31
0.000000000000000
  0
LINE
  5
F1011A
330
F1011B
100
AcDbEntity
8
Geo
100
AcDbLine
10
-74.9337598704073
20
-1.82887281822967
30
0.000000000000000
11
-74.8337598704073
21
-2.01409393098696
31
0.000000000000000
  0
LINE
  5
F1011C
330
F1011D
100
AcDbEntity
8
Geo
100
AcDbLine
10
-74.8337598704073
20
-2.01409393098696
30
0.000000000000000
11
-74.7337598704073
21
-2.18971319806210
31
0.000000000000000
  0
LINE
  5
F1011E
330
F1011F
100
AcDbEntity
8
Geo
100
AcDbLine
10
-74.7337598704073
20
-2.18971319806210
30
0.000000000000000
11
-74.6337598704073
21
-2.35547047488212
31
0.000000000000000
  0
LINE
  5
F10120
330
F10121
100
AcDbEntity
8
Geo
100
AcDbLine
10
-74.6337598704073
20
-2.35547047488212
30
0.000000000000000
11
-74.5337598704073
21
-2.51112022542632
31
0.000000000000000
  0
LINE
  5
F10122
330
F10123
100
AcDbEntity
8
Geo
100
AcDbLine
10
-74.5337598704073
20
-2.51112022542632
30
0.000000000000000
11
-74.4337598704073
21
-2.65643188593845
31
0.000000000000000
  0
LINE
  5
F10124
330
F10125
100
AcDbEntity
8
Geo
100
AcDbLine
10
-74.4337598704073
20
-2.65643188593845
30
0.000000000000000
11
-74.3337598704073
21
-2.79119020646046
31
0.000000000000000
  0
LINE
  5
F10126
330
F10127
100
AcDbEntity
8
Geo
100
AcDbLine
10
-74.3337598704073
20
-2.79119020646046
30
0.000000000000000
11
-74.2337598704073
21
-2.91519556968194
31
0.000000000000000
  0
LINE
  5
F10128
330
F10129
100
AcDbEntity
8
Geo
100
AcDbLine
10
-74.2337598704073
20
-2.91519556968194
30
0.000000000000000
11
-74.1337598704073
21
-3.02826428663302
31
0.000000000000000
  0
LINE
  5
F1012A
330
F1012B
100
AcDbEntity
8
Geo
100
AcDbLine
10
-74.1337598704073
20
-3.02826428663302
30
0.000000000000000
11
-74.0337598704073
21
-3.13022886878252
31
0.000000000000000
  0
LINE
  5
F1012C
330
F1012D
100
AcDbEntity
8
Geo
100
AcDbLine
10
-74.0337598704073
20
-3.13022886878252
30
0.000000000000000
11
-73.9337598704073
21
-3.22093827613851
31
0.000000000000000
  0
LINE
  5
F1012E
330
F1012F
100
AcDbEntity
8
Geo
100
AcDbLine
10
-73.9337598704073
20
-3.22093827613851
30
0.000000000000000
11
-73.8337598704073
21
-3.30025814098365
31
0.000000000000000
  0
LINE
  5
F10130
330
F10131
100
AcDbEntity
8
Geo
100
AcDbLine
10
-73.8337598704073
20
-3.30025814098365
30
0.000000000000000
11
-73.7337598704073
21
-3.36807096691384
31
0.000000000000000
  0
LINE
  5
F10132
330
F10133
100
AcDbEntity
8
Geo
100
AcDbLine
10
-73.7337598704073
20
-3.36807096691384
30
0.000000000000000
11
-73.6337598704073
21
-3.42427630288556
31
0.000000000000000
  0
LINE
  5
F10134
330
F10135
100
AcDbEntity
8
Geo
100
AcDbLine
10
-73.6337598704073
20
-3.42427630288556
30
0.000000000000000
11
-73.5337598704073
21
-3.46879089201378
31
0.000000000000000
  0
LINE
  5
F10136
330
F10137
100
AcDbEntity
8
Geo
100
AcDbLine
10
-73.5337598704073
20
-3.46879089201378
30
0.000000000000000
11
-73.4337598704073
21
-3.50154879490033
31
0.000000000000000
  0
LINE
  5
F10138
330
F10139
100
AcDbEntity
8
Geo
100
AcDbLine
10
-73.4337598704073
20
-3.50154879490033
30
0.000000000000000
11
-73.3337598704073
21
-3.52250148730980
31
0.000000000000000
  0
LINE
  5
F1013A
330
F1013B
100
AcDbEntity
8
Geo
100
AcDbLine
10
-73.3337598704073
20
-3.52250148730980
30
0.000000000000000
11
-73.2337598704073
21
-3.53161793204843
31
0.000000000000000
  0
LINE
  5
F1013C
330
F1013D
100
AcDbEntity
8
Geo
100
AcDbLine
10
-84.6337598704073
20
11.4679521175455
30
0.000000000000000
11
-84.5337598704073
21
11.8983346252858
31
0.000000000000000
  0
LINE
  5
F1013E
330
F1013F
100
AcDbEntity
8
Geo
100
AcDbLine
10
-84.5337598704073
20
11.8983346252858
30
0.000000000000000
11
-84.4337598704073
21
12.0454447170867
31
0.000000000000000
  0
LINE
  5
F10140
330
F10141
100
AcDbEntity
8
Geo
100
AcDbLine
10
-84.4337598704073
20
12.0454447170867
30
0.000000000000000
11
-84.3337598704073
21
12.1307244578560
31
0.000000000000000
  0
LINE
  5
F10142
330
F10143
100
AcDbEntity
8
Geo
100
AcDbLine
10
-84.3337598704073
20
12.1307244578560
30
0.000000000000000
11
-84.2337598704073
21
12.1756901351906
31
0.000000000000000
  0
LINE
  5
F10144
330
F10145
100
AcDbEntity
8
Geo
100
AcDbLine
10
-84.2337598704073
20
12.1756901351906
30
0.000000000000000
11
-84.1337598704073
21
12.1887594194699
31
0.000000000000000
  0
LINE
  5
F10146
330
F10147
100
AcDbEntity
8
Geo
100
AcDbLine
10
-84.1337598704073
20
12.1887594194699
30
0.000000000000000
11
-84.0337598704073
21
12.1742967733909
31
0.000000000000000
  0
LINE
  5
F10148
330
F10149
100
AcDbEntity
8
Geo
100
AcDbLine
10
-84.0337598704073
20
12.1742967733909
30
0.000000000000000
11
-83.9337598704073
21
12.1349350124077
31
0.000000000000000
  0
LINE
  5
F1014A
330
F1014B
100
AcDbEntity
8
Geo
100
AcDbLine
10
-83.9337598704073
20
12.1349350124077
30
0.000000000000000
11
-83.8337598704073
21
12.0724261970216
31
0.000000000000000
  0
LINE
  5
F1014C
330
F1014D
100
AcDbEntity
8
Geo
100
AcDbLine
10
-83.8337598704073
20
12.0724261970216
30
0.000000000000000
11
-83.7337598704073
21
11.9880181539805
31
0.000000000000000
  0
LINE
  5
F1014E
330
F1014F
100
AcDbEntity
8
Geo
100
AcDbLine
10
-83.7337598704073
20
11.9880181539805
30
0.000000000000000
11
-83.6337598704073
21
11.8826394501189
31
0.000000000000000
  0
LINE
  5
F10150
330
F10151
100
AcDbEntity
8
Geo
100
AcDbLine
10
-83.6337598704073
20
11.8826394501189
30
0.000000000000000
11
-83.5337598704073
21
11.7615625757016
31
0.000000000000000
  0
LINE
  5
F10152
330
F10153
100
AcDbEntity
8
Geo
100
AcDbLine
10
-83.5337598704073
20
11.7615625757016
30
0.000000000000000
11
-83.4337598704073
21
11.6296816863852
31
0.000000000000000
  0
LINE
  5
F10154
330
F10155
100
AcDbEntity
8
Geo
100
AcDbLine
10
-83.4337598704073
20
11.6296816863852
30
0.000000000000000
11
-83.3337598704073
21
11.4871921371454
31
0.000000000000000
  0
LINE
  5
F10156
330
F10157
100
AcDbEntity
8
Geo
100
AcDbLine
10
-83.3337598704073
20
11.4871921371454
30
0.000000000000000
11
-83.2337598704073
21
11.3343049975506
31
0.000000000000000
  0
LINE
  5
F10158
330
F10159
100
AcDbEntity
8
Geo
100
AcDbLine
10
-83.2337598704073
20
11.3343049975506
30
0.000000000000000
11
-83.1337598704073
21
11.1712467391055
31
0.000000000000000
  0
LINE
  5
F1015A
330
F1015B
100
AcDbEntity
8
Geo
100
AcDbLine
10
-83.1337598704073
20
11.1712467391055
30
0.000000000000000
11
-83.0337598704073
21
10.9982588997786
31
0.000000000000000
  0
LINE
  5
F1015C
330
F1015D
100
AcDbEntity
8
Geo
100
AcDbLine
10
-83.0337598704073
20
10.9982588997786
30
0.000000000000000
11
-82.9337598704073
21
10.8155977262127
31
0.000000000000000
  0
LINE
  5
F1015E
330
F1015F
100
AcDbEntity
8
Geo
100
AcDbLine
10
-82.9337598704073
20
10.8155977262127
30
0.000000000000000
11
-82.8337598704073
21
10.6235337941470
31
0.000000000000000
  0
LINE
  5
F10160
330
F10161
100
AcDbEntity
8
Geo
100
AcDbLine
10
-82.8337598704073
20
10.6235337941470
30
0.000000000000000
11
-82.7337598704073
21
10.4223516076134
31
0.000000000000000
  0
LINE
  5
F10162
330
F10163
100
AcDbEntity
8
Geo
100
AcDbLine
10
-82.7337598704073
20
10.4223516076134
30
0.000000000000000
11
-82.6337598704073
21
10.2123491775016
31
0.000000000000000
  0
LINE
  5
F10164
330
F10165
100
AcDbEntity
8
Geo
100
AcDbLine
10
-82.6337598704073
20
10.2123491775016
30
0.000000000000000
11
-82.5337598704073
21
9.99383758011548
31
0.000000000000000
  0
LINE
  5
F10166
330
F10167
100
AcDbEntity
8
Geo
100
AcDbLine
10
-82.5337598704073
20
9.99383758011548
30
0.000000000000000
11
-82.4337598704073
21
9.76714049637650
31
0.000000000000000
  0
LINE
  5
F10168
330
F10169
100
AcDbEntity
8
Geo
100
AcDbLine
10
-82.4337598704073
20
9.76714049637650
30
0.000000000000000
11
-82.3337598704073
21
9.53259373235553
31
0.000000000000000
  0
LINE
  5
F1016A
330
F1016B
100
AcDbEntity
8
Geo
100
AcDbLine
10
-82.3337598704073
20
9.53259373235553
30
0.000000000000000
11
-82.2337598704073
21
9.29054472184376
31
0.000000000000000
  0
LINE
  5
F1016C
330
F1016D
100
AcDbEntity
8
Geo
100
AcDbLine
10
-82.2337598704073
20
9.29054472184376
30
0.000000000000000
11
-82.1337598704073
21
9.04135201169954
31
0.000000000000000
  0
LINE
  5
F1016E
330
F1016F
100
AcDbEntity
8
Geo
100
AcDbLine
10
-82.1337598704073
20
9.04135201169954
30
0.000000000000000
11
-82.0337598704073
21
8.78538473073346
31
0.000000000000000
  0
LINE
  5
F10170
330
F10171
100
AcDbEntity
8
Geo
100
AcDbLine
10
-82.0337598704073
20
8.78538473073346
30
0.000000000000000
11
-81.9337598704073
21
8.52302204291828
31
0.000000000000000
  0
LINE
  5
F10172
330
F10173
100
AcDbEntity
8
Geo
100
AcDbLine
10
-81.9337598704073
20
8.52302204291828
30
0.000000000000000
11
-81.8337598704073
21
8.25465258573395
31
0.000000000000000
  0
LINE
  5
F10174
330
F10175
100
AcDbEntity
8
Geo
100
AcDbLine
10
-81.8337598704073
20
8.25465258573395
30
0.000000000000000
11
-81.7337598704073
21
7.98067389447942
31
0.000000000000000
  0
LINE
  5
F10176
330
F10177
100
AcDbEntity
8
Geo
100
AcDbLine
10
-81.7337598704073
20
7.98067389447942
30
0.000000000000000
11
-81.6337598704073
21
7.70149181340415
31
0.000000000000000
  0
LINE
  5
F10178
330
F10179
100
AcDbEntity
8
Geo
100
AcDbLine
10
-81.6337598704073
20
7.70149181340415
30
0.000000000000000
11
-81.5337598704073
21
7.41751989453164
31
0.000000000000000
  0
LINE
  5
F1017A
330
F1017B
100
AcDbEntity
8
Geo
100
AcDbLine
10
-81.5337598704073
20
7.41751989453164
30
0.000000000000000
11
-81.4337598704073
21
7.12917878506535
31
0.000000000000000
  0
LINE
  5
F1017C
330
F1017D
100
AcDbEntity
8
Geo
100
AcDbLine
10
-81.4337598704073
20
7.12917878506535
30
0.000000000000000
11
-81.3337598704073
21
6.83689560428463
31
0.000000000000000
  0
LINE
  5
F1017E
330
F1017F
100
AcDbEntity
8
Geo
100
AcDbLine
10
-81.3337598704073
20
6.83689560428463
30
0.000000000000000
11
-81.2337598704073
21
6.54110331085351
31
0.000000000000000
  0
LINE
  5
F10180
330
F10181
100
AcDbEntity
8
Geo
100
AcDbLine
10
-81.2337598704073
20
6.54110331085351
30
0.000000000000000
11
-81.1337598704073
21
6.24224006147964
31
0.000000000000000
  0
LINE
  5
F10182
330
F10183
100
AcDbEntity
8
Geo
100
AcDbLine
10
-81.1337598704073
20
6.24224006147964
30
0.000000000000000
11
-81.0337598704073
21
5.94074856187339
31
0.000000000000000
  0
LINE
  5
F10184
330
F10185
100
AcDbEntity
8
Geo
100
AcDbLine
10
-81.0337598704073
20
5.94074856187339
30
0.000000000000000
11
-80.9337598704073
21
5.63707541096849
31
0.000000000000000
  0
LINE
  5
F10186
330
F10187
100
AcDbEntity
8
Geo
100
AcDbLine
10
-80.9337598704073
20
5.63707541096849
30
0.000000000000000
11
-80.8337598704073
21
5.33167043937569
31
0.000000000000000
  0
LINE
  5
F10188
330
F10189
100
AcDbEntity
8
Geo
100
AcDbLine
10
-80.8337598704073
20
5.33167043937569
30
0.000000000000000
11
-80.7337598704073
21
5.02498604304924
31
0.000000000000000
  0
LINE
  5
F1018A
330
F1018B
100
AcDbEntity
8
Geo
100
AcDbLine
10
-80.7337598704073
20
5.02498604304924
30
0.000000000000000
11
-80.6337598704073
21
4.71747651315349
31
0.000000000000000
  0
LINE
  5
F1018C
330
F1018D
100
AcDbEntity
8
Geo
100
AcDbLine
10
-80.6337598704073
20
4.71747651315349
30
0.000000000000000
11
-80.5337598704073
21
4.40959736312197
31
0.000000000000000
  0
LINE
  5
F1018E
330
F1018F
100
AcDbEntity
8
Geo
100
AcDbLine
10
-80.5337598704073
20
4.40959736312197
30
0.000000000000000
11
-80.4337598704073
21
4.10180465390599
31
0.000000000000000
  0
LINE
  5
F10190
330
F10191
100
AcDbEntity
8
Geo
100
AcDbLine
10
-80.4337598704073
20
4.10180465390599
30
0.000000000000000
11
-80.3337598704073
21
3.79455431841220
31
0.000000000000000
  0
LINE
  5
F10192
330
F10193
100
AcDbEntity
8
Geo
100
AcDbLine
10
-80.3337598704073
20
3.79455431841220
30
0.000000000000000
11
-80.2337598704073
21
3.48830148612983
31
0.000000000000000
  0
LINE
  5
F10194
330
F10195
100
AcDbEntity
8
Geo
100
AcDbLine
10
-80.2337598704073
20
3.48830148612983
30
0.000000000000000
11
-80.1337598704073
21
3.18349980894800
31
0.000000000000000
  0
LINE
  5
F10196
330
F10197
100
AcDbEntity
8
Geo
100
AcDbLine
10
-80.1337598704073
20
3.18349980894800
30
0.000000000000000
11
-80.0337598704073
21
2.88060078916183
31
0.000000000000000
  0
LINE
  5
F10198
330
F10199
100
AcDbEntity
8
Geo
100
AcDbLine
10
-80.0337598704073
20
2.88060078916183
30
0.000000000000000
11
-79.9337598704073
21
2.58005311066272
31
0.000000000000000
  0
LINE
  5
F1019A
330
F1019B
100
AcDbEntity
8
Geo
100
AcDbLine
10
-79.9337598704073
20
2.58005311066272
30
0.000000000000000
11
-79.8337598704073
21
2.28230197430352
31
0.000000000000000
  0
LINE
  5
F1019C
330
F1019D
100
AcDbEntity
8
Geo
100
AcDbLine
10
-79.8337598704073
20
2.28230197430352
30
0.000000000000000
11
-79.7337598704073
21
1.98778843842315
31
0.000000000000000
  0
LINE
  5
F1019E
330
F1019F
100
AcDbEntity
8
Geo
100
AcDbLine
10
-79.7337598704073
20
1.98778843842315
30
0.000000000000000
11
-79.6337598704073
21
1.69694876550752
31
0.000000000000000
  0
LINE
  5
F101A0
330
F101A1
100
AcDbEntity
8
Geo
100
AcDbLine
10
-79.6337598704073
20
1.69694876550752
30
0.000000000000000
11
-79.5337598704073
21
1.41021377595448
31
0.000000000000000
  0
LINE
  5
F101A2
330
F101A3
100
AcDbEntity
8
Geo
100
AcDbLine
10
-79.5337598704073
20
1.41021377595448
30
0.000000000000000
11
-79.4337598704073
21
1.12800820990022
31
0.000000000000000
  0
LINE
  5
F101A4
330
F101A5
100
AcDbEntity
8
Geo
100
AcDbLine
10
-79.4337598704073
20
1.12800820990022
30
0.000000000000000
11
-79.3337598704073
21
0.850750098052261
31
0.000000000000000
  0
LINE
  5
F101A6
330
F101A7
100
AcDbEntity
8
Geo
100
AcDbLine
10
-79.3337598704073
20
0.850750098052261
30
0.000000000000000
11
-79.2337598704073
21
0.578850142461182
31
0.000000000000000
  0
LINE
  5
F101A8
330
F101A9
100
AcDbEntity
8
Geo
100
AcDbLine
10
-79.2337598704073
20
0.578850142461182
30
0.000000000000000
11
-79.1337598704073
21
0.312711108148247
31
0.000000000000000
  0
LINE
  5
F101AA
330
F101AB
100
AcDbEntity
8
Geo
100
AcDbLine
10
-79.1337598704073
20
0.312711108148247
30
0.000000000000000
11
-79.0337598704073
21
0.0527272264901457
31
0.000000000000000
  0
LINE
  5
F101AC
330
F101AD
100
AcDbEntity
8
Geo
100
AcDbLine
10
-79.0337598704073
20
0.0527272264901457
30
0.000000000000000
11
-78.9337598704073
21
-0.200716388755395
31
0.000000000000000
  0
LINE
  5
F101AE
330
F101AF
100
AcDbEntity
8
Geo
100
AcDbLine
10
-78.9337598704073
20
-0.200716388755395
30
0.000000000000000
11
-78.8337598704073
21
-0.447244311918066
31
0.000000000000000
  0
LINE
  5
F101B0
330
F101B1
100
AcDbEntity
8
Geo
100
AcDbLine
10
-78.8337598704073
20
-0.447244311918066
30
0.000000000000000
11
-78.7337598704073
21
-0.686491361532508
31
0.000000000000000
  0
LINE
  5
F101B2
330
F101B3
100
AcDbEntity
8
Geo
100
AcDbLine
10
-78.7337598704073
20
-0.686491361532508
30
0.000000000000000
11
-78.6337598704073
21
-0.918103141281090
31
0.000000000000000
  0
LINE
  5
F101B4
330
F101B5
100
AcDbEntity
8
Geo
100
AcDbLine
10
-78.6337598704073
20
-0.918103141281090
30
0.000000000000000
11
-78.5337598704073
21
-1.14173656496068
31
0.000000000000000
  0
LINE
  5
F101B6
330
F101B7
100
AcDbEntity
8
Geo
100
AcDbLine
10
-78.5337598704073
20
-1.14173656496068
30
0.000000000000000
11
-78.4337598704073
21
-1.35706036469576
31
0.000000000000000
  0
LINE
  5
F101B8
330
F101B9
100
AcDbEntity
8
Geo
100
AcDbLine
10
-78.4337598704073
20
-1.35706036469576
30
0.000000000000000
11
-78.3337598704073
21
-1.56375558164505
31
0.000000000000000
  0
LINE
  5
F101BA
330
F101BB
100
AcDbEntity
8
Geo
100
AcDbLine
10
-78.3337598704073
20
-1.56375558164505
30
0.000000000000000
11
-78.2337598704073
21
-1.76151603847479
31
0.000000000000000
  0
LINE
  5
F101BC
330
F101BD
100
AcDbEntity
8
Geo
100
AcDbLine
10
-78.2337598704073
20
-1.76151603847479
30
0.000000000000000
11
-78.1337598704073
21
-1.95004879289882
31
0.000000000000000
  0
LINE
  5
F101BE
330
F101BF
100
AcDbEntity
8
Geo
100
AcDbLine
10
-78.1337598704073
20
-1.95004879289882
30
0.000000000000000
11
-78.0337598704073
21
-2.12907457161355
31
0.000000000000000
  0
LINE
  5
F101C0
330
F101C1
100
AcDbEntity
8
Geo
100
AcDbLine
10
-78.0337598704073
20
-2.12907457161355
30
0.000000000000000
11
-77.9337598704073
21
-2.29832818398511
31
0.000000000000000
  0
LINE
  5
F101C2
330
F101C3
100
AcDbEntity
8
Geo
100
AcDbLine
10
-77.9337598704073
20
-2.29832818398511
30
0.000000000000000
11
-77.8337598704073
21
-2.45755891487588
31
0.000000000000000
  0
LINE
  5
F101C4
330
F101C5
100
AcDbEntity
8
Geo
100
AcDbLine
10
-77.8337598704073
20
-2.45755891487588
30
0.000000000000000
11
-77.7337598704073
21
-2.60653089602845
31
0.000000000000000
  0
LINE
  5
F101C6
330
F101C7
100
AcDbEntity
8
Geo
100
AcDbLine
10
-77.7337598704073
20
-2.60653089602845
30
0.000000000000000
11
-77.6337598704073
21
-2.74502345545697
31
0.000000000000000
  0
LINE
  5
F101C8
330
F101C9
100
AcDbEntity
8
Geo
100
AcDbLine
10
-77.6337598704073
20
-2.74502345545697
30
0.000000000000000
11
-77.5337598704073
21
-2.87283144432821
31
0.000000000000000
  0
LINE
  5
F101CA
330
F101CB
100
AcDbEntity
8
Geo
100
AcDbLine
10
-77.5337598704073
20
-2.87283144432821
30
0.000000000000000
11
-77.4337598704073
21
-2.98976554084826
31
0.000000000000000
  0
LINE
  5
F101CC
330
F101CD
100
AcDbEntity
8
Geo
100
AcDbLine
10
-77.4337598704073
20
-2.98976554084826
30
0.000000000000000
11
-77.3337598704073
21
-3.09565253070464
31
0.000000000000000
  0
LINE
  5
F101CE
330
F101CF
100
AcDbEntity
8
Geo
100
AcDbLine
10
-77.3337598704073
20
-3.09565253070464
30
0.000000000000000
11
-77.2337598704073
21
-3.19033556364842
31
0.000000000000000
  0
LINE
  5
F101D0
330
F101D1
100
AcDbEntity
8
Geo
100
AcDbLine
10
-77.2337598704073
20
-3.19033556364842
30
0.000000000000000
11
-77.1337598704073
21
-3.27367438583624
31
0.000000000000000
  0
LINE
  5
F101D2
330
F101D3
100
AcDbEntity
8
Geo
100
AcDbLine
10
-77.1337598704073
20
-3.27367438583624
30
0.000000000000000
11
-77.0337598704073
21
-3.34554554758818
31
0.000000000000000
  0
LINE
  5
F101D4
330
F101D5
100
AcDbEntity
8
Geo
100
AcDbLine
10
-77.0337598704073
20
-3.34554554758818
30
0.000000000000000
11
-76.9337598704073
21
-3.40584258625357
31
0.000000000000000
  0
LINE
  5
F101D6
330
F101D7
100
AcDbEntity
8
Geo
100
AcDbLine
10
-76.9337598704073
20
-3.40584258625357
30
0.000000000000000
11
-76.8337598704073
21
-3.45447618391394
31
0.000000000000000
  0
LINE
  5
F101D8
330
F101D9
100
AcDbEntity
8
Geo
100
AcDbLine
10
-76.8337598704073
20
-3.45447618391394
30
0.000000000000000
11
-76.7337598704073
21
-3.49137429968959
31
0.000000000000000
  0
LINE
  5
F101DA
330
F101DB
100
AcDbEntity
8
Geo
100
AcDbLine
10
-76.7337598704073
20
-3.49137429968959
30
0.000000000000000
11
-76.6337598704073
21
-3.51648227645358
31
0.000000000000000
  0
LINE
  5
F101DC
330
F101DD
100
AcDbEntity
8
Geo
100
AcDbLine
10
-76.6337598704073
20
-3.51648227645358
30
0.000000000000000
11
-76.5337598704073
21
-3.52976292179530
31
0.000000000000000
  0
LINE
  5
F101DE
330
F101DF
100
AcDbEntity
8
Geo
100
AcDbLine
10
-84.6337598704073
20
11.1253477316116
30
0.000000000000000
11
-84.5337598704073
21
11.4462446638749
31
0.000000000000000
  0
LINE
  5
F101E0
330
F101E1
100
AcDbEntity
8
Geo
100
AcDbLine
10
-84.5337598704073
20
11.4462446638749
30
0.000000000000000
11
-84.4337598704073
21
11.4939644776858
31
0.000000000000000
  0
LINE
  5
F101E2
330
F101E3
100
AcDbEntity
8
Geo
100
AcDbLine
10
-84.4337598704073
20
11.4939644776858
30
0.000000000000000
11
-84.3337598704073
21
11.4810353037070
31
0.000000000000000
  0
LINE
  5
F101E4
330
F101E5
100
AcDbEntity
8
Geo
100
AcDbLine
10
-84.3337598704073
20
11.4810353037070
30
0.000000000000000
11
-84.2337598704073
21
11.4288159294091
31
0.000000000000000
  0
LINE
  5
F101E6
330
F101E7
100
AcDbEntity
8
Geo
100
AcDbLine
10
-84.2337598704073
20
11.4288159294091
30
0.000000000000000
11
-84.1337598704073
21
11.3459632250209
31
0.000000000000000
  0
LINE
  5
F101E8
330
F101E9
100
AcDbEntity
8
Geo
100
AcDbLine
10
-84.1337598704073
20
11.3459632250209
30
0.000000000000000
11
-84.0337598704073
21
11.2371723939892
31
0.000000000000000
  0
LINE
  5
F101EA
330
F101EB
100
AcDbEntity
8
Geo
100
AcDbLine
10
-84.0337598704073
20
11.2371723939892
30
0.000000000000000
11
-83.9337598704073
21
11.1054363815421
31
0.000000000000000
  0
LINE
  5
F101EC
330
F101ED
100
AcDbEntity
8
Geo
100
AcDbLine
10
-83.9337598704073
20
11.1054363815421
30
0.000000000000000
11
-83.8337598704073
21
10.9528807858190
31
0.000000000000000
  0
LINE
  5
F101EE
330
F101EF
100
AcDbEntity
8
Geo
100
AcDbLine
10
-83.8337598704073
20
10.9528807858190
30
0.000000000000000
11
-83.7337598704073
21
10.7811378082802
31
0.000000000000000
  0
LINE
  5
F101F0
330
F101F1
100
AcDbEntity
8
Geo
100
AcDbLine
10
-83.7337598704073
20
10.7811378082802
30
0.000000000000000
11
-83.6337598704073
21
10.5915342869233
31
0.000000000000000
  0
LINE
  5
F101F2
330
F101F3
100
AcDbEntity
8
Geo
100
AcDbLine
10
-83.6337598704073
20
10.5915342869233
30
0.000000000000000
11
-83.5337598704073
21
10.3889017768320
31
0.000000000000000
  0
LINE
  5
F101F4
330
F101F5
100
AcDbEntity
8
Geo
100
AcDbLine
10
-83.5337598704073
20
10.3889017768320
30
0.000000000000000
11
-83.4337598704073
21
10.1774985723496
31
0.000000000000000
  0
LINE
  5
F101F6
330
F101F7
100
AcDbEntity
8
Geo
100
AcDbLine
10
-83.4337598704073
20
10.1774985723496
30
0.000000000000000
11
-83.3337598704073
21
9.95763782474528
31
0.000000000000000
  0
LINE
  5
F101F8
330
F101F9
100
AcDbEntity
8
Geo
100
AcDbLine
10
-83.3337598704073
20
9.95763782474528
30
0.000000000000000
11
-83.2337598704073
21
9.72964521343473
31
0.000000000000000
  0
LINE
  5
F101FA
330
F101FB
100
AcDbEntity
8
Geo
100
AcDbLine
10
-83.2337598704073
20
9.72964521343473
30
0.000000000000000
11
-83.1337598704073
21
9.49385846355198
31
0.000000000000000
  0
LINE
  5
F101FC
330
F101FD
100
AcDbEntity
8
Geo
100
AcDbLine
10
-83.1337598704073
20
9.49385846355198
30
0.000000000000000
11
-83.0337598704073
21
9.25062684567756
31
0.000000000000000
  0
LINE
  5
F101FE
330
F101FF
100
AcDbEntity
8
Geo
100
AcDbLine
10
-83.0337598704073
20
9.25062684567756
30
0.000000000000000
11
-82.9337598704073
21
9.00031065846445
31
0.000000000000000
  0
LINE
  5
F10200
330
F10201
100
AcDbEntity
8
Geo
100
AcDbLine
10
-82.9337598704073
20
9.00031065846445
30
0.000000000000000
11
-82.8337598704073
21
8.74328069492820
31
0.000000000000000
  0
LINE
  5
F10202
330
F10203
100
AcDbEntity
8
Geo
100
AcDbLine
10
-82.8337598704073
20
8.74328069492820
30
0.000000000000000
11
-82.7337598704073
21
8.47991769319180
31
0.000000000000000
  0
LINE
  5
F10204
330
F10205
100
AcDbEntity
8
Geo
100
AcDbLine
10
-82.7337598704073
20
8.47991769319180
30
0.000000000000000
11
-82.6337598704073
21
8.21061177249879
31
0.000000000000000
  0
LINE
  5
F10206
330
F10207
100
AcDbEntity
8
Geo
100
AcDbLine
10
-82.6337598704073
20
8.21061177249879
30
0.000000000000000
11
-82.5337598704073
21
7.93576185533019
31
0.000000000000000
  0
LINE
  5
F10208
330
F10209
100
AcDbEntity
8
Geo
100
AcDbLine
10
-82.5337598704073
20
7.93576185533019
30
0.000000000000000
11
-82.4337598704073
21
7.65577507648119
31
0.000000000000000
  0
LINE
  5
F1020A
330
F1020B
100
AcDbEntity
8
Geo
100
AcDbLine
10
-82.4337598704073
20
7.65577507648119
30
0.000000000000000
11
-82.3337598704073
21
7.37106617997296
31
0.000000000000000
  0
LINE
  5
F1020C
330
F1020D
100
AcDbEntity
8
Geo
100
AcDbLine
10
-82.3337598704073
20
7.37106617997296
30
0.000000000000000
11
-82.2337598704073
21
7.08205690469291
31
0.000000000000000
  0
LINE
  5
F1020E
330
F1020F
100
AcDbEntity
8
Geo
100
AcDbLine
10
-82.2337598704073
20
7.08205690469291
30
0.000000000000000
11
-82.1337598704073
21
6.78917535967345
31
0.000000000000000
  0
LINE
  5
F10210
330
F10211
100
AcDbEntity
8
Geo
100
AcDbLine
10
-82.1337598704073
20
6.78917535967345
30
0.000000000000000
11
-82.0337598704073
21
6.49285538993472
31
0.000000000000000
  0
LINE
  5
F10212
330
F10213
100
AcDbEntity
8
Geo
100
AcDbLine
10
-82.0337598704073
20
6.49285538993472
30
0.000000000000000
11
-81.9337598704073
21
6.19353593383054
31
0.000000000000000
  0
LINE
  5
F10214
330
F10215
100
AcDbEntity
8
Geo
100
AcDbLine
10
-81.9337598704073
20
6.19353593383054
30
0.000000000000000
11
-81.8337598704073
21
5.89166037284968
31
0.000000000000000
  0
LINE
  5
F10216
330
F10217
100
AcDbEntity
8
Geo
100
AcDbLine
10
-81.8337598704073
20
5.89166037284968
30
0.000000000000000
11
-81.7337598704073
21
5.58767587483543
31
0.000000000000000
  0
LINE
  5
F10218
330
F10219
100
AcDbEntity
8
Geo
100
AcDbLine
10
-81.7337598704073
20
5.58767587483543
30
0.000000000000000
11
-81.6337598704073
21
5.28203273159657
31
0.000000000000000
  0
LINE
  5
F1021A
330
F1021B
100
AcDbEntity
8
Geo
100
AcDbLine
10
-81.6337598704073
20
5.28203273159657
30
0.000000000000000
11
-81.5337598704073
21
4.97518369189069
31
0.000000000000000
  0
LINE
  5
F1021C
330
F1021D
100
AcDbEntity
8
Geo
100
AcDbLine
10
-81.5337598704073
20
4.97518369189069
30
0.000000000000000
11
-81.4337598704073
21
4.66758329076814
31
0.000000000000000
  0
LINE
  5
F1021E
330
F1021F
100
AcDbEntity
8
Geo
100
AcDbLine
10
-81.4337598704073
20
4.66758329076814
30
0.000000000000000
11
-81.3337598704073
21
4.35968717626986
31
0.000000000000000
  0
LINE
  5
F10220
330
F10221
100
AcDbEntity
8
Geo
100
AcDbLine
10
-81.3337598704073
20
4.35968717626986
30
0.000000000000000
11
-81.2337598704073
21
4.05195143447661
31
0.000000000000000
  0
LINE
  5
F10222
330
F10223
100
AcDbEntity
8
Geo
100
AcDbLine
10
-81.2337598704073
20
4.05195143447661
30
0.000000000000000
11
-81.1337598704073
21
3.74483191390928
31
0.000000000000000
  0
LINE
  5
F10224
330
F10225
100
AcDbEntity
8
Geo
100
AcDbLine
10
-81.1337598704073
20
3.74483191390928
30
0.000000000000000
11
-81.0337598704073
21
3.43878355028112
31
0.000000000000000
  0
LINE
  5
F10226
330
F10227
100
AcDbEntity
8
Geo
100
AcDbLine
10
-81.0337598704073
20
3.43878355028112
30
0.000000000000000
11
-80.9337598704073
21
3.13425969260214
31
0.000000000000000
  0
LINE
  5
F10228
330
F10229
100
AcDbEntity
8
Geo
100
AcDbLine
10
-80.9337598704073
20
3.13425969260214
30
0.000000000000000
11
-80.8337598704073
21
2.83171143163381
31
0.000000000000000
  0
LINE
  5
F1022A
330
F1022B
100
AcDbEntity
8
Geo
100
AcDbLine
10
-80.8337598704073
20
2.83171143163381
30
0.000000000000000
11
-80.7337598704073
21
2.53158693168898
31
0.000000000000000
  0
LINE
  5
F1022C
330
F1022D
100
AcDbEntity
8
Geo
100
AcDbLine
10
-80.7337598704073
20
2.53158693168898
30
0.000000000000000
11
-80.6337598704073
21
2.23433076676672
31
0.000000000000000
  0
LINE
  5
F1022E
330
F1022F
100
AcDbEntity
8
Geo
100
AcDbLine
10
-80.6337598704073
20
2.23433076676672
30
0.000000000000000
11
-80.5337598704073
21
1.94038326200546
31
0.000000000000000
  0
LINE
  5
F10230
330
F10231
100
AcDbEntity
8
Geo
100
AcDbLine
10
-80.5337598704073
20
1.94038326200546
30
0.000000000000000
11
-80.4337598704073
21
1.65017984142999
31
0.000000000000000
  0
LINE
  5
F10232
330
F10233
100
AcDbEntity
8
Geo
100
AcDbLine
10
-80.4337598704073
20
1.65017984142999
30
0.000000000000000
11
-80.3337598704073
21
1.36415038295848
31
0.000000000000000
  0
LINE
  5
F10234
330
F10235
100
AcDbEntity
8
Geo
100
AcDbLine
10
-80.3337598704073
20
1.36415038295848
30
0.000000000000000
11
-80.2337598704073
21
1.08271858162491
31
0.000000000000000
  0
LINE
  5
F10236
330
F10237
100
AcDbEntity
8
Geo
100
AcDbLine
10
-80.2337598704073
20
1.08271858162491
30
0.000000000000000
11
-80.1337598704073
21
0.806301321960217
31
0.000000000000000
  0
LINE
  5
F10238
330
F10239
100
AcDbEntity
8
Geo
100
AcDbLine
10
-80.1337598704073
20
0.806301321960217
30
0.000000000000000
11
-80.0337598704073
21
0.535308060461827
31
0.000000000000000
  0
LINE
  5
F1023A
330
F1023B
100
AcDbEntity
8
Geo
100
AcDbLine
10
-80.0337598704073
20
0.535308060461827
30
0.000000000000000
11
-79.9337598704073
21
0.270140219066324
31
0.000000000000000
  0
LINE
  5
F1023C
330
F1023D
100
AcDbEntity
8
Geo
100
AcDbLine
10
-79.9337598704073
20
0.270140219066324
30
0.000000000000000
11
-79.8337598704073
21
0.0111905905236931
31
0.000000000000000
  0
LINE
  5
F1023E
330
F1023F
100
AcDbEntity
8
Geo
100
AcDbLine
10
-79.8337598704073
20
0.0111905905236931
30
0.000000000000000
11
-79.7337598704073
21
-0.241157243446019
31
0.000000000000000
  0
LINE
  5
F10240
330
F10241
100
AcDbEntity
8
Geo
100
AcDbLine
10
-79.7337598704073
20
-0.241157243446019
30
0.000000000000000
11
-79.6337598704073
21
-0.486529480351770
31
0.000000000000000
  0
LINE
  5
F10242
330
F10243
100
AcDbEntity
8
Geo
100
AcDbLine
10
-79.6337598704073
20
-0.486529480351770
30
0.000000000000000
11
-79.5337598704073
21
-0.724562650644621
31
0.000000000000000
  0
LINE
  5
F10244
330
F10245
100
AcDbEntity
8
Geo
100
AcDbLine
10
-79.5337598704073
20
-0.724562650644621
30
0.000000000000000
11
-79.4337598704073
21
-0.954904156124671
31
0.000000000000000
  0
LINE
  5
F10246
330
F10247
100
AcDbEntity
8
Geo
100
AcDbLine
10
-79.4337598704073
20
-0.954904156124671
30
0.000000000000000
11
-79.3337598704073
21
-1.17721279224428
31
0.000000000000000
  0
LINE
  5
F10248
330
F10249
100
AcDbEntity
8
Geo
100
AcDbLine
10
-79.3337598704073
20
-1.17721279224428
30
0.000000000000000
11
-79.2337598704073
21
-1.39115925353386
31
0.000000000000000
  0
LINE
  5
F1024A
330
F1024B
100
AcDbEntity
8
Geo
100
AcDbLine
10
-79.2337598704073
20
-1.39115925353386
30
0.000000000000000
11
-79.1337598704073
21
-1.59642662140164
31
0.000000000000000
  0
LINE
  5
F1024C
330
F1024D
100
AcDbEntity
8
Geo
100
AcDbLine
10
-79.1337598704073
20
-1.59642662140164
30
0.000000000000000
11
-79.0337598704073
21
-1.79271083358470
31
0.000000000000000
  0
LINE
  5
F1024E
330
F1024F
100
AcDbEntity
8
Geo
100
AcDbLine
10
-79.0337598704073
20
-1.79271083358470
30
0.000000000000000
11
-78.9337598704073
21
-1.97972113455598
31
0.000000000000000
  0
LINE
  5
F10250
330
F10251
100
AcDbEntity
8
Geo
100
AcDbLine
10
-78.9337598704073
20
-1.97972113455598
30
0.000000000000000
11
-78.8337598704073
21
-2.15718050622006
31
0.000000000000000
  0
LINE
  5
F10252
330
F10253
100
AcDbEntity
8
Geo
100
AcDbLine
10
-78.8337598704073
20
-2.15718050622006
30
0.000000000000000
11
-78.7337598704073
21
-2.32482607825963
31
0.000000000000000
  0
LINE
  5
F10254
330
F10255
100
AcDbEntity
8
Geo
100
AcDbLine
10
-78.7337598704073
20
-2.32482607825963
30
0.000000000000000
11
-78.6337598704073
21
-2.48240951752493
31
0.000000000000000
  0
LINE
  5
F10256
330
F10257
100
AcDbEntity
8
Geo
100
AcDbLine
10
-78.6337598704073
20
-2.48240951752493
30
0.000000000000000
11
-78.5337598704073
21
-2.62969739588934
31
0.000000000000000
  0
LINE
  5
F10258
330
F10259
100
AcDbEntity
8
Geo
100
AcDbLine
10
-78.5337598704073
20
-2.62969739588934
30
0.000000000000000
11
-78.4337598704073
21
-2.76647153602607
31
0.000000000000000
  0
LINE
  5
F1025A
330
F1025B
100
AcDbEntity
8
Geo
100
AcDbLine
10
-78.4337598704073
20
-2.76647153602607
30
0.000000000000000
11
-78.3337598704073
21
-2.89252933459399
31
0.000000000000000
  0
LINE
  5
F1025C
330
F1025D
100
AcDbEntity
8
Geo
100
AcDbLine
10
-78.3337598704073
20
-2.89252933459399
30
0.000000000000000
11
-78.2337598704073
21
-3.00768406235361
31
0.000000000000000
  0
LINE
  5
F1025E
330
F1025F
100
AcDbEntity
8
Geo
100
AcDbLine
10
-78.2337598704073
20
-3.00768406235361
30
0.000000000000000
11
-78.1337598704073
21
-3.11176514076889
31
0.000000000000000
  0
LINE
  5
F10260
330
F10261
100
AcDbEntity
8
Geo
100
AcDbLine
10
-78.1337598704073
20
-3.11176514076889
30
0.000000000000000
11
-78.0337598704073
21
-3.20461839468498
31
0.000000000000000
  0
LINE
  5
F10262
330
F10263
100
AcDbEntity
8
Geo
100
AcDbLine
10
-78.0337598704073
20
-3.20461839468498
30
0.000000000000000
11
-77.9337598704073
21
-3.28610628070761
31
0.000000000000000
  0
LINE
  5
F10264
330
F10265
100
AcDbEntity
8
Geo
100
AcDbLine
10
-77.9337598704073
20
-3.28610628070761
30
0.000000000000000
11
-77.8337598704073
21
-3.35610809094600
31
0.000000000000000
  0
LINE
  5
F10266
330
F10267
100
AcDbEntity
8
Geo
100
AcDbLine
10
-77.8337598704073
20
-3.35610809094600
30
0.000000000000000
11
-77.7337598704073
21
-3.41452013181723
31
0.000000000000000
  0
LINE
  5
F10268
330
F10269
100
AcDbEntity
8
Geo
100
AcDbLine
10
-77.7337598704073
20
-3.41452013181723
30
0.000000000000000
11
-77.6337598704073
21
-3.46125587764743
31
0.000000000000000
  0
LINE
  5
F1026A
330
F1026B
100
AcDbEntity
8
Geo
100
AcDbLine
10
-77.6337598704073
20
-3.46125587764743
30
0.000000000000000
11
-77.5337598704073
21
-3.49624609884212
31
0.000000000000000
  0
LINE
  5
F1026C
330
F1026D
100
AcDbEntity
8
Geo
100
AcDbLine
10
-77.5337598704073
20
-3.49624609884212
30
0.000000000000000
11
-77.4337598704073
21
-3.51943896443594
31
0.000000000000000
  0
LINE
  5
F1026E
330
F1026F
100
AcDbEntity
8
Geo
100
AcDbLine
10
-77.4337598704073
20
-3.51943896443594
30
0.000000000000000
11
-77.3337598704073
21
-3.53080011886973
31
0.000000000000000
  0
LINE
  5
F10270
330
F10271
100
AcDbEntity
8
Geo
100
AcDbLine
10
-69.1337598704073
20
12.4679521175455
30
0.000000000000000
11
-69.0337598704073
21
12.4676275844014
31
0.000000000000000
  0
LINE
  5
F10272
330
F10273
100
AcDbEntity
8
Geo
100
AcDbLine
10
-69.0337598704073
20
12.4676275844014
30
0.000000000000000
11
-68.9337598704073
21
12.4619506835465
31
0.000000000000000
  0
LINE
  5
F10274
330
F10275
100
AcDbEntity
8
Geo
100
AcDbLine
10
-68.9337598704073
20
12.4619506835465
30
0.000000000000000
11
-68.8337598704073
21
12.4496638947637
31
0.000000000000000
  0
LINE
  5
F10276
330
F10277
100
AcDbEntity
8
Geo
100
AcDbLine
10
-68.8337598704073
20
12.4496638947637
30
0.000000000000000
11
-68.7337598704073
21
12.4313565196251
31
0.000000000000000
  0
LINE
  5
F10278
330
F10279
100
AcDbEntity
8
Geo
100
AcDbLine
10
-68.7337598704073
20
12.4313565196251
30
0.000000000000000
11
-68.6337598704073
21
12.4076041862934
31
0.000000000000000
  0
LINE
  5
F1027A
330
F1027B
100
AcDbEntity
8
Geo
100
AcDbLine
10
-68.6337598704073
20
12.4076041862934
30
0.000000000000000
11
-68.5337598704073
21
12.3789675550327
31
0.000000000000000
  0
LINE
  5
F1027C
330
F1027D
100
AcDbEntity
8
Geo
100
AcDbLine
10
-68.5337598704073
20
12.3789675550327
30
0.000000000000000
11
-68.4337598704073
21
12.3459912105495
31
0.000000000000000
  0
LINE
  5
F1027E
330
F1027F
100
AcDbEntity
8
Geo
100
AcDbLine
10
-68.4337598704073
20
12.3459912105495
30
0.000000000000000
11
-68.3337598704073
21
12.3092027286974
31
0.000000000000000
  0
LINE
  5
F10280
330
F10281
100
AcDbEntity
8
Geo
100
AcDbLine
10
-68.3337598704073
20
12.3092027286974
30
0.000000000000000
11
-68.2337598704073
21
12.2691119050456
31
0.000000000000000
  0
LINE
  5
F10282
330
F10283
100
AcDbEntity
8
Geo
100
AcDbLine
10
-68.2337598704073
20
12.2691119050456
30
0.000000000000000
11
-68.1337598704073
21
12.2262101328771
31
0.000000000000000
  0
LINE
  5
F10284
330
F10285
100
AcDbEntity
8
Geo
100
AcDbLine
10
-68.1337598704073
20
12.2262101328771
30
0.000000000000000
11
-68.0337598704073
21
12.1809699183327
31
0.000000000000000
  0
LINE
  5
F10286
330
F10287
100
AcDbEntity
8
Geo
100
AcDbLine
10
-68.0337598704073
20
12.1809699183327
30
0.000000000000000
11
-67.9337598704073
21
12.1338445206352
31
0.000000000000000
  0
LINE
  5
F10288
330
F10289
100
AcDbEntity
8
Geo
100
AcDbLine
10
-67.9337598704073
20
12.1338445206352
30
0.000000000000000
11
-67.8337598704073
21
12.0852677056164
31
0.000000000000000
  0
LINE
  5
F1028A
330
F1028B
100
AcDbEntity
8
Geo
100
AcDbLine
10
-67.8337598704073
20
12.0852677056164
30
0.000000000000000
11
-67.7337598704073
21
12.0356536011032
31
0.000000000000000
  0
LINE
  5
F1028C
330
F1028D
100
AcDbEntity
8
Geo
100
AcDbLine
10
-67.7337598704073
20
12.0356536011032
30
0.000000000000000
11
-67.6337598704073
21
11.9853966431046
31
0.000000000000000
  0
LINE
  5
F1028E
330
F1028F
100
AcDbEntity
8
Geo
100
AcDbLine
10
-67.6337598704073
20
11.9853966431046
30
0.000000000000000
11
-67.5337598704073
21
11.9348716021526
31
0.000000000000000
  0
LINE
  5
F10290
330
F10291
100
AcDbEntity
8
Geo
100
AcDbLine
10
-67.5337598704073
20
11.9348716021526
30
0.000000000000000
11
-67.4337598704073
21
11.8844336796036
31
0.000000000000000
  0
LINE
  5
F10292
330
F10293
100
AcDbEntity
8
Geo
100
AcDbLine
10
-67.4337598704073
20
11.8844336796036
30
0.000000000000000
11
-67.3337598704073
21
11.8344186641664
31
0.000000000000000
  0
LINE
  5
F10294
330
F10295
100
AcDbEntity
8
Geo
100
AcDbLine
10
-67.3337598704073
20
11.8344186641664
30
0.000000000000000
11
-67.2337598704073
21
11.7851431394125
31
0.000000000000000
  0
LINE
  5
F10296
330
F10297
100
AcDbEntity
8
Geo
100
AcDbLine
10
-67.2337598704073
20
11.7851431394125
30
0.000000000000000
11
-67.1337598704073
21
11.7369047335134
31
0.000000000000000
  0
LINE
  5
F10298
330
F10299
100
AcDbEntity
8
Geo
100
AcDbLine
10
-67.1337598704073
20
11.7369047335134
30
0.000000000000000
11
-67.0337598704073
21
11.6899824029532
31
0.000000000000000
  0
LINE
  5
F1029A
330
F1029B
100
AcDbEntity
8
Geo
100
AcDbLine
10
-67.0337598704073
20
11.6899824029532
30
0.000000000000000
11
-66.9337598704073
21
11.6446367424626
31
0.000000000000000
  0
LINE
  5
F1029C
330
F1029D
100
AcDbEntity
8
Geo
100
AcDbLine
10
-66.9337598704073
20
11.6446367424626
30
0.000000000000000
11
-66.8337598704073
21
11.6011103139213
31
0.000000000000000
  0
LINE
  5
F1029E
330
F1029F
100
AcDbEntity
8
Geo
100
AcDbLine
10
-66.8337598704073
20
11.6011103139213
30
0.000000000000000
11
-66.7337598704073
21
11.5596279874722
31
0.000000000000000
  0
LINE
  5
F102A0
330
F102A1
100
AcDbEntity
8
Geo
100
AcDbLine
10
-66.7337598704073
20
11.5596279874722
30
0.000000000000000
11
-66.6337598704073
21
11.5203972885766
31
0.000000000000000
  0
LINE
  5
F102A2
330
F102A3
100
AcDbEntity
8
Geo
100
AcDbLine
10
-66.6337598704073
20
11.5203972885766
30
0.000000000000000
11
-66.5337598704073
21
11.4836087452192
31
0.000000000000000
  0
LINE
  5
F102A4
330
F102A5
100
AcDbEntity
8
Geo
100
AcDbLine
10
-66.5337598704073
20
11.4836087452192
30
0.000000000000000
11
-66.4337598704073
21
11.4494362299429
31
0.000000000000000
  0
LINE
  5
F102A6
330
F102A7
100
AcDbEntity
8
Geo
100
AcDbLine
10
-66.4337598704073
20
11.4494362299429
30
0.000000000000000
11
-66.3337598704073
21
11.4180372918483
31
0.000000000000000
  0
LINE
  5
F102A8
330
F102A9
100
AcDbEntity
8
Geo
100
AcDbLine
10
-66.3337598704073
20
11.4180372918483
30
0.000000000000000
11
-66.2337598704073
21
11.3895534741397
31
0.000000000000000
  0
LINE
  5
F102AA
330
F102AB
100
AcDbEntity
8
Geo
100
AcDbLine
10
-66.2337598704073
20
11.3895534741397
30
0.000000000000000
11
-66.1337598704073
21
11.3641106132341
31
0.000000000000000
  0
LINE
  5
F102AC
330
F102AD
100
AcDbEntity
8
Geo
100
AcDbLine
10
-66.1337598704073
20
11.3641106132341
30
0.000000000000000
11
-66.0337598704073
21
11.3418191158700
31
0.000000000000000
  0
LINE
  5
F102AE
330
F102AF
100
AcDbEntity
8
Geo
100
AcDbLine
10
-66.0337598704073
20
11.3418191158700
30
0.000000000000000
11
-65.9337598704073
21
11.3227742110628
31
0.000000000000000
  0
LINE
  5
F102B0
330
F102B1
100
AcDbEntity
8
Geo
100
AcDbLine
10
-65.9337598704073
20
11.3227742110628
30
0.000000000000000
11
-65.8337598704072
21
11.3070561741527
31
0.000000000000000
  0
LINE
  5
F102B2
330
F102B3
100
AcDbEntity
8
Geo
100
AcDbLine
10
-65.8337598704072
20
11.3070561741527
30
0.000000000000000
11
-65.7337598704073
21
11.2947305205790
31
0.000000000000000
  0
LINE
  5
F102B4
330
F102B5
100
AcDbEntity
8
Geo
100
AcDbLine
10
-65.7337598704073
20
11.2947305205790
30
0.000000000000000
11
-65.6337598704073
21
11.2858481673928
31
0.000000000000000
  0
LINE
  5
F102B6
330
F102B7
100
AcDbEntity
8
Geo
100
AcDbLine
10
-84.6337598704073
20
4.46795211754551
30
0.000000000000000
11
-84.5337598704073
21
4.18181524536029
31
0.000000000000000
  0
LINE
  5
F102B8
330
F102B9
100
AcDbEntity
8
Geo
100
AcDbLine
10
-84.5337598704073
20
4.18181524536029
30
0.000000000000000
11
-84.4337598704073
21
3.88348149903790
31
0.000000000000000
  0
LINE
  5
F102BA
330
F102BB
100
AcDbEntity
8
Geo
100
AcDbLine
10
-84.4337598704073
20
3.88348149903790
30
0.000000000000000
11
-84.3337598704073
21
3.57917775892961
31
0.000000000000000
  0
LINE
  5
F102BC
330
F102BD
100
AcDbEntity
8
Geo
100
AcDbLine
10
-84.3337598704073
20
3.57917775892961
30
0.000000000000000
11
-84.2337598704073
21
3.27180218908819
31
0.000000000000000
  0
LINE
  5
F102BE
330
F102BF
100
AcDbEntity
8
Geo
100
AcDbLine
10
-84.2337598704073
20
3.27180218908819
30
0.000000000000000
11
-84.1337598704073
21
2.96346208449964
31
0.000000000000000
  0
LINE
  5
F102C0
330
F102C1
100
AcDbEntity
8
Geo
100
AcDbLine
10
-84.1337598704073
20
2.96346208449964
30
0.000000000000000
11
-84.0337598704073
21
2.65591900769334
31
0.000000000000000
  0
LINE
  5
F102C2
330
F102C3
100
AcDbEntity
8
Geo
100
AcDbLine
10
-84.0337598704073
20
2.65591900769334
30
0.000000000000000
11
-83.9337598704073
21
2.35075536010213
31
0.000000000000000
  0
LINE
  5
F102C4
330
F102C5
100
AcDbEntity
8
Geo
100
AcDbLine
10
-83.9337598704073
20
2.35075536010213
30
0.000000000000000
11
-83.8337598704073
21
2.04945743403625
31
0.000000000000000
  0
LINE
  5
F102C6
330
F102C7
100
AcDbEntity
8
Geo
100
AcDbLine
10
-83.8337598704073
20
2.04945743403625
30
0.000000000000000
11
-83.7337598704073
21
1.75346672853522
31
0.000000000000000
  0
LINE
  5
F102C8
330
F102C9
100
AcDbEntity
8
Geo
100
AcDbLine
10
-83.7337598704073
20
1.75346672853522
30
0.000000000000000
11
-83.6337598704073
21
1.46421914669478
31
0.000000000000000
  0
LINE
  5
F102CA
330
F102CB
100
AcDbEntity
8
Geo
100
AcDbLine
10
-83.6337598704073
20
1.46421914669478
30
0.000000000000000
11
-83.5337598704073
21
1.18112287271454
31
0.000000000000000
  0
LINE
  5
F102CC
330
F102CD
100
AcDbEntity
8
Geo
100
AcDbLine
10
-83.5337598704073
20
1.18112287271454
30
0.000000000000000
11
-83.4337598704073
21
0.902895374265384
31
0.000000000000000
  0
LINE
  5
F102CE
330
F102CF
100
AcDbEntity
8
Geo
100
AcDbLine
10
-83.4337598704073
20
0.902895374265384
30
0.000000000000000
11
-83.3337598704073
21
0.629948789348895
31
0.000000000000000
  0
LINE
  5
F102D0
330
F102D1
100
AcDbEntity
8
Geo
100
AcDbLine
10
-83.3337598704073
20
0.629948789348895
30
0.000000000000000
11
-83.2337598704073
21
0.362687433356889
31
0.000000000000000
  0
LINE
  5
F102D2
330
F102D3
100
AcDbEntity
8
Geo
100
AcDbLine
10
-83.2337598704073
20
0.362687433356889
30
0.000000000000000
11
-83.1337598704073
21
0.101507200159570
31
0.000000000000000
  0
LINE
  5
F102D4
330
F102D5
100
AcDbEntity
8
Geo
100
AcDbLine
10
-83.1337598704073
20
0.101507200159570
30
0.000000000000000
11
-83.0337598704073
21
-0.153205024331477
31
0.000000000000000
  0
LINE
  5
F102D6
330
F102D7
100
AcDbEntity
8
Geo
100
AcDbLine
10
-83.0337598704073
20
-0.153205024331477
30
0.000000000000000
11
-82.9337598704073
21
-0.401071935256863
31
0.000000000000000
  0
LINE
  5
F102D8
330
F102D9
100
AcDbEntity
8
Geo
100
AcDbLine
10
-82.9337598704073
20
-0.401071935256863
30
0.000000000000000
11
-82.8337598704073
21
-0.641726367710538
31
0.000000000000000
  0
LINE
  5
F102DA
330
F102DB
100
AcDbEntity
8
Geo
100
AcDbLine
10
-82.8337598704073
20
-0.641726367710538
30
0.000000000000000
11
-82.7337598704073
21
-0.874811840620650
31
0.000000000000000
  0
LINE
  5
F102DC
330
F102DD
100
AcDbEntity
8
Geo
100
AcDbLine
10
-82.7337598704073
20
-0.874811840620650
30
0.000000000000000
11
-82.6337598704073
21
-1.09998308480447
31
0.000000000000000
  0
LINE
  5
F102DE
330
F102DF
100
AcDbEntity
8
Geo
100
AcDbLine
10
-82.6337598704073
20
-1.09998308480447
30
0.000000000000000
11
-82.5337598704073
21
-1.31690655441512
31
0.000000000000000
  0
LINE
  5
F102E0
330
F102E1
100
AcDbEntity
8
Geo
100
AcDbLine
10
-82.5337598704073
20
-1.31690655441512
30
0.000000000000000
11
-82.4337598704073
21
-1.52526092102260
31
0.000000000000000
  0
LINE
  5
F102E2
330
F102E3
100
AcDbEntity
8
Geo
100
AcDbLine
10
-82.4337598704073
20
-1.52526092102260
30
0.000000000000000
11
-82.3337598704073
21
-1.72473754959709
31
0.000000000000000
  0
LINE
  5
F102E4
330
F102E5
100
AcDbEntity
8
Geo
100
AcDbLine
10
-82.3337598704073
20
-1.72473754959709
30
0.000000000000000
11
-82.2337598704073
21
-1.91504095568965
31
0.000000000000000
  0
LINE
  5
F102E6
330
F102E7
100
AcDbEntity
8
Geo
100
AcDbLine
10
-82.2337598704073
20
-1.91504095568965
30
0.000000000000000
11
-82.1337598704073
21
-2.09588924313285
31
0.000000000000000
  0
LINE
  5
F102E8
330
F102E9
100
AcDbEntity
8
Geo
100
AcDbLine
10
-82.1337598704073
20
-2.09588924313285
30
0.000000000000000
11
-82.0337598704073
21
-2.26701452161323
31
0.000000000000000
  0
LINE
  5
F102EA
330
F102EB
100
AcDbEntity
8
Geo
100
AcDbLine
10
-82.0337598704073
20
-2.26701452161323
30
0.000000000000000
11
-81.9337598704073
21
-2.42816330349678
31
0.000000000000000
  0
LINE
  5
F102EC
330
F102ED
100
AcDbEntity
8
Geo
100
AcDbLine
10
-81.9337598704073
20
-2.42816330349678
30
0.000000000000000
11
-81.8337598704073
21
-2.57909687931988
31
0.000000000000000
  0
LINE
  5
F102EE
330
F102EF
100
AcDbEntity
8
Geo
100
AcDbLine
10
-81.8337598704073
20
-2.57909687931988
30
0.000000000000000
11
-81.7337598704073
21
-2.71959167138922
31
0.000000000000000
  0
LINE
  5
F102F0
330
F102F1
100
AcDbEntity
8
Geo
100
AcDbLine
10
-81.7337598704073
20
-2.71959167138922
30
0.000000000000000
11
-81.6337598704073
21
-2.84943956496721
31
0.000000000000000
  0
LINE
  5
F102F2
330
F102F3
100
AcDbEntity
8
Geo
100
AcDbLine
10
-81.6337598704073
20
-2.84943956496721
30
0.000000000000000
11
-81.5337598704073
21
-2.96844821655196
31
0.000000000000000
  0
LINE
  5
F102F4
330
F102F5
100
AcDbEntity
8
Geo
100
AcDbLine
10
-81.5337598704073
20
-2.96844821655196
30
0.000000000000000
11
-81.4337598704073
21
-3.07644133879550
31
0.000000000000000
  0
LINE
  5
F102F6
330
F102F7
100
AcDbEntity
8
Geo
100
AcDbLine
10
-81.4337598704073
20
-3.07644133879550
30
0.000000000000000
11
-81.3337598704073
21
-3.17325896163795
31
0.000000000000000
  0
LINE
  5
F102F8
330
F102F9
100
AcDbEntity
8
Geo
100
AcDbLine
10
-81.3337598704073
20
-3.17325896163795
30
0.000000000000000
11
-81.2337598704073
21
-3.25875766927096
31
0.000000000000000
  0
LINE
  5
F102FA
330
F102FB
100
AcDbEntity
8
Geo
100
AcDbLine
10
-81.2337598704073
20
-3.25875766927096
30
0.000000000000000
11
-81.1337598704073
21
-3.33281081257932
31
0.000000000000000
  0
LINE
  5
F102FC
330
F102FD
100
AcDbEntity
8
Geo
100
AcDbLine
10
-81.1337598704073
20
-3.33281081257932
30
0.000000000000000
11
-81.0337598704073
21
-3.39530869674616
31
0.000000000000000
  0
LINE
  5
F102FE
330
F102FF
100
AcDbEntity
8
Geo
100
AcDbLine
10
-81.0337598704073
20
-3.39530869674616
30
0.000000000000000
11
-80.9337598704073
21
-3.44615874374368
31
0.000000000000000
  0
LINE
  5
F10300
330
F10301
100
AcDbEntity
8
Geo
100
AcDbLine
10
-80.9337598704073
20
-3.44615874374368
30
0.000000000000000
11
-80.8337598704073
21
-3.48528562946888
31
0.000000000000000
  0
LINE
  5
F10302
330
F10303
100
AcDbEntity
8
Geo
100
AcDbLine
10
-80.8337598704073
20
-3.48528562946888
30
0.000000000000000
11
-80.7337598704073
21
-3.51263139532105
31
0.000000000000000
  0
LINE
  5
F10304
330
F10305
100
AcDbEntity
8
Geo
100
AcDbLine
10
-80.7337598704073
20
-3.51263139532105
30
0.000000000000000
11
-80.6337598704073
21
-3.52815553405574
31
0.000000000000000
  0
LINE
  5
F10306
330
F10307
100
AcDbEntity
8
Geo
100
AcDbLine
10
-72.4337598704073
20
12.4668490008718
30
0.000000000000000
11
-72.3337598704073
21
12.4660366914944
31
0.000000000000000
  0
LINE
  5
F10308
330
F10309
100
AcDbEntity
8
Geo
100
AcDbLine
10
-72.3337598704073
20
12.4660366914944
30
0.000000000000000
11
-72.2337598704073
21
12.4533768307024
31
0.000000000000000
  0
LINE
  5
F1030A
330
F1030B
100
AcDbEntity
8
Geo
100
AcDbLine
10
-72.2337598704073
20
12.4533768307024
30
0.000000000000000
11
-72.1337598704073
21
12.4288881715298
31
0.000000000000000
  0
LINE
  5
F1030C
330
F1030D
100
AcDbEntity
8
Geo
100
AcDbLine
10
-72.1337598704073
20
12.4288881715298
30
0.000000000000000
11
-72.0337598704073
21
12.3926069889928
31
0.000000000000000
  0
LINE
  5
F1030E
330
F1030F
100
AcDbEntity
8
Geo
100
AcDbLine
10
-72.0337598704073
20
12.3926069889928
30
0.000000000000000
11
-71.9337598704073
21
12.3445870263562
31
0.000000000000000
  0
LINE
  5
F10310
330
F10311
100
AcDbEntity
8
Geo
100
AcDbLine
10
-71.9337598704073
20
12.3445870263562
30
0.000000000000000
11
-71.8337598704073
21
12.2848994155228
31
0.000000000000000
  0
LINE
  5
F10312
330
F10313
100
AcDbEntity
8
Geo
100
AcDbLine
10
-71.8337598704073
20
12.2848994155228
30
0.000000000000000
11
-71.7337598704073
21
12.2136325716666
31
0.000000000000000
  0
LINE
  5
F10314
330
F10315
100
AcDbEntity
8
Geo
100
AcDbLine
10
-71.7337598704073
20
12.2136325716666
30
0.000000000000000
11
-71.6337598704073
21
12.1308920622630
31
0.000000000000000
  0
LINE
  5
F10316
330
F10317
100
AcDbEntity
8
Geo
100
AcDbLine
10
-71.6337598704073
20
12.1308920622630
30
0.000000000000000
11
-71.5337598704073
21
12.0368004507121
31
0.000000000000000
  0
LINE
  5
F10318
330
F10319
100
AcDbEntity
8
Geo
100
AcDbLine
10
-71.5337598704073
20
12.0368004507121
30
0.000000000000000
11
-71.4337598704073
21
11.9314971147854
31
0.000000000000000
  0
LINE
  5
F1031A
330
F1031B
100
AcDbEntity
8
Geo
100
AcDbLine
10
-71.4337598704073
20
11.9314971147854
30
0.000000000000000
11
-71.3337598704073
21
11.8151380401663
31
0.000000000000000
  0
LINE
  5
F1031C
330
F1031D
100
AcDbEntity
8
Geo
100
AcDbLine
10
-71.3337598704073
20
11.8151380401663
30
0.000000000000000
11
-71.2337598704073
21
11.6878955893880
31
0.000000000000000
  0
LINE
  5
F1031E
330
F1031F
100
AcDbEntity
8
Geo
100
AcDbLine
10
-71.2337598704073
20
11.6878955893880
30
0.000000000000000
11
-71.1337598704073
21
11.5499582465137
31
0.000000000000000
  0
LINE
  5
F10320
330
F10321
100
AcDbEntity
8
Geo
100
AcDbLine
10
-71.1337598704073
20
11.5499582465137
30
0.000000000000000
11
-71.0337598704073
21
11.4015303379352
31
0.000000000000000
  0
LINE
  5
F10322
330
F10323
100
AcDbEntity
8
Geo
100
AcDbLine
10
-71.0337598704073
20
11.4015303379352
30
0.000000000000000
11
-70.9337598704073
21
11.2428317297042
31
0.000000000000000
  0
LINE
  5
F10324
330
F10325
100
AcDbEntity
8
Geo
100
AcDbLine
10
-70.9337598704073
20
11.2428317297042
30
0.000000000000000
11
-70.8337598704073
21
11.0740975018457
31
0.000000000000000
  0
LINE
  5
F10326
330
F10327
100
AcDbEntity
8
Geo
100
AcDbLine
10
-70.8337598704073
20
11.0740975018457
30
0.000000000000000
11
-70.7337598704073
21
10.8955776001338
31
0.000000000000000
  0
LINE
  5
F10328
330
F10329
100
AcDbEntity
8
Geo
100
AcDbLine
10
-70.7337598704073
20
10.8955776001338
30
0.000000000000000
11
-70.6337598704073
21
10.7075364658474
31
0.000000000000000
  0
LINE
  5
F1032A
330
F1032B
100
AcDbEntity
8
Geo
100
AcDbLine
10
-70.6337598704073
20
10.7075364658474
30
0.000000000000000
11
-70.5337598704073
21
10.7314487773525
31
0.000000000000000
  0
LINE
  5
F1032C
330
F1032D
100
AcDbEntity
8
Geo
100
AcDbLine
10
-70.5337598704073
20
10.7314487773525
30
0.000000000000000
11
-70.4337598704073
21
10.7547575766573
31
0.000000000000000
  0
LINE
  5
F1032E
330
F1032F
100
AcDbEntity
8
Geo
100
AcDbLine
10
-70.4337598704073
20
10.7547575766573
30
0.000000000000000
11
-70.3337598704073
21
10.7774705679064
31
0.000000000000000
  0
LINE
  5
F10330
330
F10331
100
AcDbEntity
8
Geo
100
AcDbLine
10
-70.3337598704073
20
10.7774705679064
30
0.000000000000000
11
-70.2337598704073
21
10.7995953549648
31
0.000000000000000
  0
LINE
  5
F10332
330
F10333
100
AcDbEntity
8
Geo
100
AcDbLine
10
-70.2337598704073
20
10.7995953549648
30
0.000000000000000
11
-70.1337598704073
21
10.8211394379130
31
0.000000000000000
  0
LINE
  5
F10334
330
F10335
100
AcDbEntity
8
Geo
100
AcDbLine
10
-70.1337598704073
20
10.8211394379130
30
0.000000000000000
11
-70.0337598704073
21
10.8421102096492
31
0.000000000000000
  0
LINE
  5
F10336
330
F10337
100
AcDbEntity
8
Geo
100
AcDbLine
10
-70.0337598704073
20
10.8421102096492
30
0.000000000000000
11
-69.9337598704073
21
10.8625149525981
31
0.000000000000000
  0
LINE
  5
F10338
330
F10339
100
AcDbEntity
8
Geo
100
AcDbLine
10
-69.9337598704073
20
10.8625149525981
30
0.000000000000000
11
-69.8337598704073
21
10.8823608355212
31
0.000000000000000
  0
LINE
  5
F1033A
330
F1033B
100
AcDbEntity
8
Geo
100
AcDbLine
10
-69.8337598704073
20
10.8823608355212
30
0.000000000000000
11
-69.7337598704073
21
10.9016549104294
31
0.000000000000000
  0
LINE
  5
F1033C
330
F1033D
100
AcDbEntity
8
Geo
100
AcDbLine
10
-69.7337598704073
20
10.9016549104294
30
0.000000000000000
11
-69.6337598704073
21
10.9204041095948
31
0.000000000000000
  0
LINE
  5
F1033E
330
F1033F
100
AcDbEntity
8
Geo
100
AcDbLine
10
-69.6337598704073
20
10.9204041095948
30
0.000000000000000
11
-69.5337598704073
21
10.9386152426600
31
0.000000000000000
  0
LINE
  5
F10340
330
F10341
100
AcDbEntity
8
Geo
100
AcDbLine
10
-69.5337598704073
20
10.9386152426600
30
0.000000000000000
11
-69.4337598704073
21
10.9562949938425
31
0.000000000000000
  0
LINE
  5
F10342
330
F10343
100
AcDbEntity
8
Geo
100
AcDbLine
10
-69.4337598704073
20
10.9562949938425
30
0.000000000000000
11
-69.3337598704073
21
10.9734499192335
31
0.000000000000000
  0
LINE
  5
F10344
330
F10345
100
AcDbEntity
8
Geo
100
AcDbLine
10
-69.3337598704073
20
10.9734499192335
30
0.000000000000000
11
-69.2337598704073
21
10.9900864441879
31
0.000000000000000
  0
LINE
  5
F10346
330
F10347
100
AcDbEntity
8
Geo
100
AcDbLine
10
-69.2337598704073
20
10.9900864441879
30
0.000000000000000
11
-69.1337598704073
21
11.0062108608049
31
0.000000000000000
  0
LINE
  5
F10348
330
F10349
100
AcDbEntity
8
Geo
100
AcDbLine
10
-69.1337598704073
20
11.0062108608049
30
0.000000000000000
11
-69.0337598704073
21
11.0218293254961
31
0.000000000000000
  0
LINE
  5
F1034A
330
F1034B
100
AcDbEntity
8
Geo
100
AcDbLine
10
-69.0337598704073
20
11.0218293254961
30
0.000000000000000
11
-68.9337598704073
21
11.0369478566411
31
0.000000000000000
  0
LINE
  5
F1034C
330
F1034D
100
AcDbEntity
8
Geo
100
AcDbLine
10
-68.9337598704073
20
11.0369478566411
30
0.000000000000000
11
-68.8337598704073
21
11.0515723323267
31
0.000000000000000
  0
LINE
  5
F1034E
330
F1034F
100
AcDbEntity
8
Geo
100
AcDbLine
10
-68.8337598704073
20
11.0515723323267
30
0.000000000000000
11
-68.7337598704073
21
11.0657084881699
31
0.000000000000000
  0
LINE
  5
F10350
330
F10351
100
AcDbEntity
8
Geo
100
AcDbLine
10
-68.7337598704073
20
11.0657084881699
30
0.000000000000000
11
-68.6337598704073
21
11.0793619152221
31
0.000000000000000
  0
LINE
  5
F10352
330
F10353
100
AcDbEntity
8
Geo
100
AcDbLine
10
-68.6337598704073
20
11.0793619152221
30
0.000000000000000
11
-68.5337598704073
21
11.0925380579528
31
0.000000000000000
  0
LINE
  5
F10354
330
F10355
100
AcDbEntity
8
Geo
100
AcDbLine
10
-68.5337598704073
20
11.0925380579528
30
0.000000000000000
11
-68.4337598704073
21
11.1052422123114
31
0.000000000000000
  0
LINE
  5
F10356
330
F10357
100
AcDbEntity
8
Geo
100
AcDbLine
10
-68.4337598704073
20
11.1052422123114
30
0.000000000000000
11
-68.3337598704073
21
11.1174795238661
31
0.000000000000000
  0
LINE
  5
F10358
330
F10359
100
AcDbEntity
8
Geo
100
AcDbLine
10
-68.3337598704073
20
11.1174795238661
30
0.000000000000000
11
-68.2337598704073
21
11.1292549860169
31
0.000000000000000
  0
LINE
  5
F1035A
330
F1035B
100
AcDbEntity
8
Geo
100
AcDbLine
10
-68.2337598704073
20
11.1292549860169
30
0.000000000000000
11
-68.1337598704073
21
11.1405734382832
31
0.000000000000000
  0
LINE
  5
F1035C
330
F1035D
100
AcDbEntity
8
Geo
100
AcDbLine
10
-68.1337598704073
20
11.1405734382832
30
0.000000000000000
11
-68.0337598704073
21
11.1514395646623
31
0.000000000000000
  0
LINE
  5
F1035E
330
F1035F
100
AcDbEntity
8
Geo
100
AcDbLine
10
-68.0337598704073
20
11.1514395646623
30
0.000000000000000
11
-67.9337598704073
21
11.1618578920596
31
0.000000000000000
  0
LINE
  5
F10360
330
F10361
100
AcDbEntity
8
Geo
100
AcDbLine
10
-67.9337598704073
20
11.1618578920596
30
0.000000000000000
11
-67.8337598704073
21
11.1718327887875
31
0.000000000000000
  0
LINE
  5
F10362
330
F10363
100
AcDbEntity
8
Geo
100
AcDbLine
10
-67.8337598704073
20
11.1718327887875
30
0.000000000000000
11
-67.7337598704073
21
11.1813684631324
31
0.000000000000000
  0
LINE
  5
F10364
330
F10365
100
AcDbEntity
8
Geo
100
AcDbLine
10
-67.7337598704073
20
11.1813684631324
30
0.000000000000000
11
-67.6337598704073
21
11.1904689619885
31
0.000000000000000
  0
LINE
  5
F10366
330
F10367
100
AcDbEntity
8
Geo
100
AcDbLine
10
-67.6337598704073
20
11.1904689619885
30
0.000000000000000
11
-67.5337598704073
21
11.1991381695567
31
0.000000000000000
  0
LINE
  5
F10368
330
F10369
100
AcDbEntity
8
Geo
100
AcDbLine
10
-67.5337598704073
20
11.1991381695567
30
0.000000000000000
11
-67.4337598704073
21
11.2073798061083
31
0.000000000000000
  0
LINE
  5
F1036A
330
F1036B
100
AcDbEntity
8
Geo
100
AcDbLine
10
-67.4337598704073
20
11.2073798061083
30
0.000000000000000
11
-67.3337598704073
21
11.2151974268114
31
0.000000000000000
  0
LINE
  5
F1036C
330
F1036D
100
AcDbEntity
8
Geo
100
AcDbLine
10
-67.3337598704073
20
11.2151974268114
30
0.000000000000000
11
-67.2337598704073
21
11.2225944206191
31
0.000000000000000
  0
LINE
  5
F1036E
330
F1036F
100
AcDbEntity
8
Geo
100
AcDbLine
10
-67.2337598704073
20
11.2225944206191
30
0.000000000000000
11
-67.1337598704073
21
11.2295740092193
31
0.000000000000000
  0
LINE
  5
F10370
330
F10371
100
AcDbEntity
8
Geo
100
AcDbLine
10
-67.1337598704073
20
11.2295740092193
30
0.000000000000000
11
-67.0337598704073
21
11.2361392460438
31
0.000000000000000
  0
LINE
  5
F10372
330
F10373
100
AcDbEntity
8
Geo
100
AcDbLine
10
-67.0337598704073
20
11.2361392460438
30
0.000000000000000
11
-66.9337598704073
21
11.2422930153368
31
0.000000000000000
  0
LINE
  5
F10374
330
F10375
100
AcDbEntity
8
Geo
100
AcDbLine
10
-66.9337598704073
20
11.2422930153368
30
0.000000000000000
11
-66.8337598704073
21
11.2480380312809
31
0.000000000000000
  0
LINE
  5
F10376
330
F10377
100
AcDbEntity
8
Geo
100
AcDbLine
10
-66.8337598704073
20
11.2480380312809
30
0.000000000000000
11
-66.7337598704073
21
11.2533768371811
31
0.000000000000000
  0
LINE
  5
F10378
330
F10379
100
AcDbEntity
8
Geo
100
AcDbLine
10
-66.7337598704073
20
11.2533768371811
30
0.000000000000000
11
-66.6337598704073
21
11.2583118047045
31
0.000000000000000
  0
LINE
  5
F1037A
330
F1037B
100
AcDbEntity
8
Geo
100
AcDbLine
10
-66.6337598704073
20
11.2583118047045
30
0.000000000000000
11
-66.5337598704073
21
11.2628451331759
31
0.000000000000000
  0
LINE
  5
F1037C
330
F1037D
100
AcDbEntity
8
Geo
100
AcDbLine
10
-66.5337598704073
20
11.2628451331759
30
0.000000000000000
11
-66.4337598704073
21
11.2669788489283
31
0.000000000000000
  0
LINE
  5
F1037E
330
F1037F
100
AcDbEntity
8
Geo
100
AcDbLine
10
-66.4337598704073
20
11.2669788489283
30
0.000000000000000
11
-66.3337598704073
21
11.2707148047075
31
0.000000000000000
  0
LINE
  5
F10380
330
F10381
100
AcDbEntity
8
Geo
100
AcDbLine
10
-66.3337598704073
20
11.2707148047075
30
0.000000000000000
11
-66.2337598704073
21
11.2740546791306
31
0.000000000000000
  0
LINE
  5
F10382
330
F10383
100
AcDbEntity
8
Geo
100
AcDbLine
10
-66.2337598704073
20
11.2740546791306
30
0.000000000000000
11
-66.1337598704073
21
11.2769999761974
31
0.000000000000000
  0
LINE
  5
F10384
330
F10385
100
AcDbEntity
8
Geo
100
AcDbLine
10
-66.1337598704073
20
11.2769999761974
30
0.000000000000000
11
-66.0337598704073
21
11.2795520248544
31
0.000000000000000
  0
LINE
  5
F10386
330
F10387
100
AcDbEntity
8
Geo
100
AcDbLine
10
-66.0337598704073
20
11.2795520248544
30
0.000000000000000
11
-65.9337598704073
21
11.2817119786106
31
0.000000000000000
  0
LINE
  5
F10388
330
F10389
100
AcDbEntity
8
Geo
100
AcDbLine
10
-65.9337598704073
20
11.2817119786106
30
0.000000000000000
11
-65.8337598704072
21
11.2834808152059
31
0.000000000000000
  0
LINE
  5
F1038A
330
F1038B
100
AcDbEntity
8
Geo
100
AcDbLine
10
-65.8337598704072
20
11.2834808152059
30
0.000000000000000
11
-65.7337598704073
21
11.2848593363300
31
0.000000000000000
  0
LINE
  5
F1038C
330
F1038D
100
AcDbEntity
8
Geo
100
AcDbLine
10
-65.7337598704073
20
11.2848593363300
30
0.000000000000000
11
-65.6337598704073
21
11.2858481673928
31
0.000000000000000
  0
LINE
  5
F1038E
330
F1038F
100
AcDbEntity
8
Geo
100
AcDbLine
10
-84.6337598704073
20
2.30483315692093
30
0.000000000000000
11
-84.5337598704073
21
1.89970531110340
31
0.000000000000000
  0
LINE
  5
F10390
330
F10391
100
AcDbEntity
8
Geo
100
AcDbLine
10
-84.5337598704073
20
1.89970531110340
30
0.000000000000000
11
-84.4337598704073
21
1.57051353922221
31
0.000000000000000
  0
LINE
  5
F10392
330
F10393
100
AcDbEntity
8
Geo
100
AcDbLine
10
-84.4337598704073
20
1.57051353922221
30
0.000000000000000
11
-84.3337598704073
21
1.25475059508564
31
0.000000000000000
  0
LINE
  5
F10394
330
F10395
100
AcDbEntity
8
Geo
100
AcDbLine
10
-84.3337598704073
20
1.25475059508564
30
0.000000000000000
11
-84.2337598704073
21
0.948523897978040
31
0.000000000000000
  0
LINE
  5
F10396
330
F10397
100
AcDbEntity
8
Geo
100
AcDbLine
10
-84.2337598704073
20
0.948523897978040
30
0.000000000000000
11
-84.1337598704073
21
0.651236401327371
31
0.000000000000000
  0
LINE
  5
F10398
330
F10399
100
AcDbEntity
8
Geo
100
AcDbLine
10
-84.1337598704073
20
0.651236401327371
30
0.000000000000000
11
-84.0337598704073
21
0.363214757511320
31
0.000000000000000
  0
LINE
  5
F1039A
330
F1039B
100
AcDbEntity
8
Geo
100
AcDbLine
10
-84.0337598704073
20
0.363214757511320
30
0.000000000000000
11
-83.9337598704073
21
0.0851503350056344
31
0.000000000000000
  0
LINE
  5
F1039C
330
F1039D
100
AcDbEntity
8
Geo
100
AcDbLine
10
-83.9337598704073
20
0.0851503350056344
30
0.000000000000000
11
-83.8337598704073
21
-0.182084734672998
31
0.000000000000000
  0
LINE
  5
F1039E
330
F1039F
100
AcDbEntity
8
Geo
100
AcDbLine
10
-83.8337598704073
20
-0.182084734672998
30
0.000000000000000
11
-83.7337598704073
21
-0.437505104140915
31
0.000000000000000
  0
LINE
  5
F103A0
330
F103A1
100
AcDbEntity
8
Geo
100
AcDbLine
10
-83.7337598704073
20
-0.437505104140915
30
0.000000000000000
11
-83.6337598704073
21
-0.680032091334455
31
0.000000000000000
  0
LINE
  5
F103A2
330
F103A3
100
AcDbEntity
8
Geo
100
AcDbLine
10
-83.6337598704073
20
-0.680032091334455
30
0.000000000000000
11
-83.5337598704073
21
-0.911857835621494
31
0.000000000000000
  0
LINE
  5
F103A4
330
F103A5
100
AcDbEntity
8
Geo
100
AcDbLine
10
-83.5337598704073
20
-0.911857835621494
30
0.000000000000000
11
-83.4337598704073
21
-1.13571447500202
31
0.000000000000000
  0
LINE
  5
F103A6
330
F103A7
100
AcDbEntity
8
Geo
100
AcDbLine
10
-83.4337598704073
20
-1.13571447500202
30
0.000000000000000
11
-83.3337598704073
21
-1.35127041095141
31
0.000000000000000
  0
LINE
  5
F103A8
330
F103A9
100
AcDbEntity
8
Geo
100
AcDbLine
10
-83.3337598704073
20
-1.35127041095141
30
0.000000000000000
11
-83.2337598704073
21
-1.55820634076533
31
0.000000000000000
  0
LINE
  5
F103AA
330
F103AB
100
AcDbEntity
8
Geo
100
AcDbLine
10
-83.2337598704073
20
-1.55820634076533
30
0.000000000000000
11
-83.1337598704073
21
-1.75621573054241
31
0.000000000000000
  0
LINE
  5
F103AC
330
F103AD
100
AcDbEntity
8
Geo
100
AcDbLine
10
-83.1337598704073
20
-1.75621573054241
30
0.000000000000000
11
-83.0337598704073
21
-1.94500526925245
31
0.000000000000000
  0
LINE
  5
F103AE
330
F103AF
100
AcDbEntity
8
Geo
100
AcDbLine
10
-83.0337598704073
20
-1.94500526925245
30
0.000000000000000
11
-82.9337598704073
21
-2.12429530321766
31
0.000000000000000
  0
LINE
  5
F103B0
330
F103B1
100
AcDbEntity
8
Geo
100
AcDbLine
10
-82.9337598704073
20
-2.12429530321766
30
0.000000000000000
11
-82.8337598704073
21
-2.29382025036325
31
0.000000000000000
  0
LINE
  5
F103B2
330
F103B3
100
AcDbEntity
8
Geo
100
AcDbLine
10
-82.8337598704073
20
-2.29382025036325
30
0.000000000000000
11
-82.7337598704073
21
-2.45332899362377
31
0.000000000000000
  0
LINE
  5
F103B4
330
F103B5
100
AcDbEntity
8
Geo
100
AcDbLine
10
-82.7337598704073
20
-2.45332899362377
30
0.000000000000000
11
-82.6337598704073
21
-2.60258525292249
31
0.000000000000000
  0
LINE
  5
F103B6
330
F103B7
100
AcDbEntity
8
Geo
100
AcDbLine
10
-82.6337598704073
20
-2.60258525292249
30
0.000000000000000
11
-82.5337598704073
21
-2.74136793517272
31
0.000000000000000
  0
LINE
  5
F103B8
330
F103B9
100
AcDbEntity
8
Geo
100
AcDbLine
10
-82.5337598704073
20
-2.74136793517272
30
0.000000000000000
11
-82.4337598704073
21
-2.86947146178273
31
0.000000000000000
  0
LINE
  5
F103BA
330
F103BB
100
AcDbEntity
8
Geo
100
AcDbLine
10
-82.4337598704073
20
-2.86947146178273
30
0.000000000000000
11
-82.3337598704073
21
-2.98670607317896
31
0.000000000000000
  0
LINE
  5
F103BC
330
F103BD
100
AcDbEntity
8
Geo
100
AcDbLine
10
-82.3337598704073
20
-2.98670607317896
30
0.000000000000000
11
-82.2337598704073
21
-3.09289810989667
31
0.000000000000000
  0
LINE
  5
F103BE
330
F103BF
100
AcDbEntity
8
Geo
100
AcDbLine
10
-82.2337598704073
20
-3.09289810989667
30
0.000000000000000
11
-82.1337598704073
21
-3.18789026982144
31
0.000000000000000
  0
LINE
  5
F103C0
330
F103C1
100
AcDbEntity
8
Geo
100
AcDbLine
10
-82.1337598704073
20
-3.18789026982144
30
0.000000000000000
11
-82.0337598704073
21
-3.27154184120056
31
0.000000000000000
  0
LINE
  5
F103C2
330
F103C3
100
AcDbEntity
8
Geo
100
AcDbLine
10
-82.0337598704073
20
-3.27154184120056
30
0.000000000000000
11
-81.9337598704073
21
-3.34372891107917
31
0.000000000000000
  0
LINE
  5
F103C4
330
F103C5
100
AcDbEntity
8
Geo
100
AcDbLine
10
-81.9337598704073
20
-3.34372891107917
30
0.000000000000000
11
-81.8337598704073
21
-3.40434454885231
31
0.000000000000000
  0
LINE
  5
F103C6
330
F103C7
100
AcDbEntity
8
Geo
100
AcDbLine
10
-81.8337598704073
20
-3.40434454885231
30
0.000000000000000
11
-81.7337598704073
21
-3.45329896466114
31
0.000000000000000
  0
LINE
  5
F103C8
330
F103C9
100
AcDbEntity
8
Geo
100
AcDbLine
10
-81.7337598704073
20
-3.45329896466114
30
0.000000000000000
11
-81.6337598704073
21
-3.49051964239847
31
0.000000000000000
  0
LINE
  5
F103CA
330
F103CB
100
AcDbEntity
8
Geo
100
AcDbLine
10
-81.6337598704073
20
-3.49051964239847
30
0.000000000000000
11
-81.5337598704073
21
-3.51595144712678
31
0.000000000000000
  0
LINE
  5
F103CC
330
F103CD
100
AcDbEntity
8
Geo
100
AcDbLine
10
-81.5337598704073
20
-3.51595144712678
30
0.000000000000000
11
-81.4337598704073
21
-3.52955670674955
31
0.000000000000000
  0
LINE
  5
F103CE
330
F103CF
100
AcDbEntity
8
Geo
100
AcDbLine
10
-73.2337598704073
20
12.4675221671395
30
0.000000000000000
11
-73.1337598704073
21
12.4647888600305
31
0.000000000000000
  0
LINE
  5
F103D0
330
F103D1
100
AcDbEntity
8
Geo
100
AcDbLine
10
-73.1337598704073
20
12.4647888600305
30
0.000000000000000
11
-73.0337598704073
21
12.4502098499180
31
0.000000000000000
  0
LINE
  5
F103D2
330
F103D3
100
AcDbEntity
8
Geo
100
AcDbLine
10
-73.0337598704073
20
12.4502098499180
30
0.000000000000000
11
-72.9337598704073
21
12.4238067326689
31
0.000000000000000
  0
LINE
  5
F103D4
330
F103D5
100
AcDbEntity
8
Geo
100
AcDbLine
10
-72.9337598704073
20
12.4238067326689
30
0.000000000000000
11
-72.8337598704073
21
12.3856186191838
31
0.000000000000000
  0
LINE
  5
F103D6
330
F103D7
100
AcDbEntity
8
Geo
100
AcDbLine
10
-72.8337598704073
20
12.3856186191838
30
0.000000000000000
11
-72.7337598704073
21
12.3357020774613
31
0.000000000000000
  0
LINE
  5
F103D8
330
F103D9
100
AcDbEntity
8
Geo
100
AcDbLine
10
-72.7337598704073
20
12.3357020774613
30
0.000000000000000
11
-72.6337598704073
21
12.2741310488044
31
0.000000000000000
  0
LINE
  5
F103DA
330
F103DB
100
AcDbEntity
8
Geo
100
AcDbLine
10
-72.6337598704073
20
12.2741310488044
30
0.000000000000000
11
-72.5337598704073
21
12.2009967382912
31
0.000000000000000
  0
LINE
  5
F103DC
330
F103DD
100
AcDbEntity
8
Geo
100
AcDbLine
10
-72.5337598704073
20
12.2009967382912
30
0.000000000000000
11
-72.4337598704073
21
12.1164074796727
31
0.000000000000000
  0
LINE
  5
F103DE
330
F103DF
100
AcDbEntity
8
Geo
100
AcDbLine
10
-72.4337598704073
20
12.1164074796727
30
0.000000000000000
11
-72.3337598704073
21
12.0204885748986
31
0.000000000000000
  0
LINE
  5
F103E0
330
F103E1
100
AcDbEntity
8
Geo
100
AcDbLine
10
-72.3337598704073
20
12.0204885748986
30
0.000000000000000
11
-72.2337598704073
21
11.9133821085075
31
0.000000000000000
  0
LINE
  5
F103E2
330
F103E3
100
AcDbEntity
8
Geo
100
AcDbLine
10
-72.2337598704073
20
11.9133821085075
30
0.000000000000000
11
-72.1337598704073
21
11.7952467371573
31
0.000000000000000
  0
LINE
  5
F103E4
330
F103E5
100
AcDbEntity
8
Geo
100
AcDbLine
10
-72.1337598704073
20
11.7952467371573
30
0.000000000000000
11
-72.0337598704073
21
11.6662574546070
31
0.000000000000000
  0
LINE
  5
F103E6
330
F103E7
100
AcDbEntity
8
Geo
100
AcDbLine
10
-72.0337598704073
20
11.6662574546070
30
0.000000000000000
11
-71.9337598704073
21
11.5266053324992
31
0.000000000000000
  0
LINE
  5
F103E8
330
F103E9
100
AcDbEntity
8
Geo
100
AcDbLine
10
-71.9337598704073
20
11.5266053324992
30
0.000000000000000
11
-71.8337598704073
21
11.3764972373258
31
0.000000000000000
  0
LINE
  5
F103EA
330
F103EB
100
AcDbEntity
8
Geo
100
AcDbLine
10
-71.8337598704073
20
11.3764972373258
30
0.000000000000000
11
-71.7337598704073
21
11.2161555239968
31
0.000000000000000
  0
LINE
  5
F103EC
330
F103ED
100
AcDbEntity
8
Geo
100
AcDbLine
10
-71.7337598704073
20
11.2161555239968
30
0.000000000000000
11
-71.6337598704073
21
11.0458177064661
31
0.000000000000000
  0
LINE
  5
F103EE
330
F103EF
100
AcDbEntity
8
Geo
100
AcDbLine
10
-71.6337598704073
20
11.0458177064661
30
0.000000000000000
11
-71.5337598704073
21
10.8657361059031
31
0.000000000000000
  0
LINE
  5
F103F0
330
F103F1
100
AcDbEntity
8
Geo
100
AcDbLine
10
-71.5337598704073
20
10.8657361059031
30
0.000000000000000
11
-71.4337598704073
21
10.6761774769289
31
0.000000000000000
  0
LINE
  5
F103F2
330
F103F3
100
AcDbEntity
8
Geo
100
AcDbLine
10
-71.4337598704073
20
10.6761774769289
30
0.000000000000000
11
-71.3337598704073
21
10.4774226124738
31
0.000000000000000
  0
LINE
  5
F103F4
330
F103F5
100
AcDbEntity
8
Geo
100
AcDbLine
10
-71.3337598704073
20
10.4774226124738
30
0.000000000000000
11
-71.2337598704073
21
10.2697659278386
31
0.000000000000000
  0
LINE
  5
F103F6
330
F103F7
100
AcDbEntity
8
Geo
100
AcDbLine
10
-71.2337598704073
20
10.2697659278386
30
0.000000000000000
11
-71.1337598704073
21
10.0535150245776
31
0.000000000000000
  0
LINE
  5
F103F8
330
F103F9
100
AcDbEntity
8
Geo
100
AcDbLine
10
-71.1337598704073
20
10.0535150245776
30
0.000000000000000
11
-71.0337598704073
21
9.82899023484930
31
0.000000000000000
  0
LINE
  5
F103FA
330
F103FB
100
AcDbEntity
8
Geo
100
AcDbLine
10
-71.0337598704073
20
9.82899023484930
30
0.000000000000000
11
-70.9337598704073
21
9.59652414690854
31
0.000000000000000
  0
LINE
  5
F103FC
330
F103FD
100
AcDbEntity
8
Geo
100
AcDbLine
10
-70.9337598704073
20
9.59652414690854
30
0.000000000000000
11
-70.8337598704073
21
9.35646111244395
31
0.000000000000000
  0
LINE
  5
F103FE
330
F103FF
100
AcDbEntity
8
Geo
100
AcDbLine
10
-70.8337598704073
20
9.35646111244395
30
0.000000000000000
11
-70.7337598704073
21
9.10915673649036
31
0.000000000000000
  0
LINE
  5
F10400
330
F10401
100
AcDbEntity
8
Geo
100
AcDbLine
10
-70.7337598704073
20
9.10915673649036
30
0.000000000000000
11
-70.6337598704073
21
8.85497735067147
31
0.000000000000000
  0
LINE
  5
F10402
330
F10403
100
AcDbEntity
8
Geo
100
AcDbLine
10
-70.6337598704073
20
8.85497735067147
30
0.000000000000000
11
-70.5337598704073
21
8.56257128012388
31
0.000000000000000
  0
LINE
  5
F10404
330
F10405
100
AcDbEntity
8
Geo
100
AcDbLine
10
-70.5337598704073
20
8.56257128012388
30
0.000000000000000
11
-70.4337598704073
21
8.26844536204319
31
0.000000000000000
  0
LINE
  5
F10406
330
F10407
100
AcDbEntity
8
Geo
100
AcDbLine
10
-70.4337598704073
20
8.26844536204319
30
0.000000000000000
11
-70.3337598704073
21
7.97354412274266
31
0.000000000000000
  0
LINE
  5
F10408
330
F10409
100
AcDbEntity
8
Geo
100
AcDbLine
10
-70.3337598704073
20
7.97354412274266
30
0.000000000000000
11
-70.2337598704073
21
7.67875394163950
31
0.000000000000000
  0
LINE
  5
F1040A
330
F1040B
100
AcDbEntity
8
Geo
100
AcDbLine
10
-70.2337598704073
20
7.67875394163950
30
0.000000000000000
11
-70.1337598704073
21
7.38490309461987
31
0.000000000000000
  0
LINE
  5
F1040C
330
F1040D
100
AcDbEntity
8
Geo
100
AcDbLine
10
-70.1337598704073
20
7.38490309461987
30
0.000000000000000
11
-70.0337598704073
21
7.09276215903679
31
0.000000000000000
  0
LINE
  5
F1040E
330
F1040F
100
AcDbEntity
8
Geo
100
AcDbLine
10
-70.0337598704073
20
7.09276215903679
30
0.000000000000000
11
-69.9337598704073
21
6.80304474414808
31
0.000000000000000
  0
LINE
  5
F10410
330
F10411
100
AcDbEntity
8
Geo
100
AcDbLine
10
-69.9337598704073
20
6.80304474414808
30
0.000000000000000
11
-69.8337598704073
21
6.51640851193203
31
0.000000000000000
  0
LINE
  5
F10412
330
F10413
100
AcDbEntity
8
Geo
100
AcDbLine
10
-69.8337598704073
20
6.51640851193203
30
0.000000000000000
11
-69.7337598704073
21
6.23345645453382
31
0.000000000000000
  0
LINE
  5
F10414
330
F10415
100
AcDbEntity
8
Geo
100
AcDbLine
10
-69.7337598704073
20
6.23345645453382
30
0.000000000000000
11
-69.6337598704073
21
5.95473839606197
31
0.000000000000000
  0
LINE
  5
F10416
330
F10417
100
AcDbEntity
8
Geo
100
AcDbLine
10
-69.6337598704073
20
5.95473839606197
30
0.000000000000000
11
-69.5337598704073
21
5.68075268804010
31
0.000000000000000
  0
LINE
  5
F10418
330
F10419
100
AcDbEntity
8
Geo
100
AcDbLine
10
-69.5337598704073
20
5.68075268804010
30
0.000000000000000
11
-69.4337598704073
21
5.41194806949510
31
0.000000000000000
  0
LINE
  5
F1041A
330
F1041B
100
AcDbEntity
8
Geo
100
AcDbLine
10
-69.4337598704073
20
5.41194806949510
30
0.000000000000000
11
-69.3337598704073
21
5.14872566440310
31
0.000000000000000
  0
LINE
  5
F1041C
330
F1041D
100
AcDbEntity
8
Geo
100
AcDbLine
10
-69.3337598704073
20
5.14872566440310
30
0.000000000000000
11
-69.2337598704073
21
4.89144109099444
31
0.000000000000000
  0
LINE
  5
F1041E
330
F1041F
100
AcDbEntity
8
Geo
100
AcDbLine
10
-69.2337598704073
20
4.89144109099444
30
0.000000000000000
11
-69.1337598704073
21
4.64040665921742
31
0.000000000000000
  0
LINE
  5
F10420
330
F10421
100
AcDbEntity
8
Geo
100
AcDbLine
10
-69.1337598704073
20
4.64040665921742
30
0.000000000000000
11
-69.0337598704073
21
4.39589363445824
31
0.000000000000000
  0
LINE
  5
F10422
330
F10423
100
AcDbEntity
8
Geo
100
AcDbLine
10
-69.0337598704073
20
4.39589363445824
30
0.000000000000000
11
-68.9337598704073
21
4.15813454739512
31
0.000000000000000
  0
LINE
  5
F10424
330
F10425
100
AcDbEntity
8
Geo
100
AcDbLine
10
-68.9337598704073
20
4.15813454739512
30
0.000000000000000
11
-68.8337598704073
21
3.92732553161287
31
0.000000000000000
  0
LINE
  5
F10426
330
F10427
100
AcDbEntity
8
Geo
100
AcDbLine
10
-68.8337598704073
20
3.92732553161287
30
0.000000000000000
11
-68.7337598704073
21
3.70362867230794
31
0.000000000000000
  0
LINE
  5
F10428
330
F10429
100
AcDbEntity
8
Geo
100
AcDbLine
10
-68.7337598704073
20
3.70362867230794
30
0.000000000000000
11
-68.6337598704073
21
3.48717435106273
31
0.000000000000000
  0
LINE
  5
F1042A
330
F1042B
100
AcDbEntity
8
Geo
100
AcDbLine
10
-68.6337598704073
20
3.48717435106273
30
0.000000000000000
11
-68.5337598704073
21
3.27806357325248
31
0.000000000000000
  0
LINE
  5
F1042C
330
F1042D
100
AcDbEntity
8
Geo
100
AcDbLine
10
-68.5337598704073
20
3.27806357325248
30
0.000000000000000
11
-68.4337598704073
21
3.07637026616147
31
0.000000000000000
  0
LINE
  5
F1042E
330
F1042F
100
AcDbEntity
8
Geo
100
AcDbLine
10
-68.4337598704073
20
3.07637026616147
30
0.000000000000000
11
-68.3337598704073
21
2.88214353732219
31
0.000000000000000
  0
LINE
  5
F10430
330
F10431
100
AcDbEntity
8
Geo
100
AcDbLine
10
-68.3337598704073
20
2.88214353732219
30
0.000000000000000
11
-68.2337598704073
21
2.69540988394663
31
0.000000000000000
  0
LINE
  5
F10432
330
F10433
100
AcDbEntity
8
Geo
100
AcDbLine
10
-68.2337598704073
20
2.69540988394663
30
0.000000000000000
11
-68.1337598704073
21
2.51617534559066
31
0.000000000000000
  0
LINE
  5
F10434
330
F10435
100
AcDbEntity
8
Geo
100
AcDbLine
10
-68.1337598704073
20
2.51617534559066
30
0.000000000000000
11
-68.0337598704073
21
2.34442759337836
31
0.000000000000000
  0
LINE
  5
F10436
330
F10437
100
AcDbEntity
8
Geo
100
AcDbLine
10
-68.0337598704073
20
2.34442759337836
30
0.000000000000000
11
-67.9337598704073
21
2.18013795021219
31
0.000000000000000
  0
LINE
  5
F10438
330
F10439
100
AcDbEntity
8
Geo
100
AcDbLine
10
-67.9337598704073
20
2.18013795021219
30
0.000000000000000
11
-67.8337598704073
21
2.02326333740745
31
0.000000000000000
  0
LINE
  5
F1043A
330
F1043B
100
AcDbEntity
8
Geo
100
AcDbLine
10
-67.8337598704073
20
2.02326333740745
30
0.000000000000000
11
-67.7337598704073
21
1.87374814411585
31
0.000000000000000
  0
LINE
  5
F1043C
330
F1043D
100
AcDbEntity
8
Geo
100
AcDbLine
10
-67.7337598704073
20
1.87374814411585
30
0.000000000000000
11
-67.6337598704073
21
1.73152601674500
31
0.000000000000000
  0
LINE
  5
F1043E
330
F1043F
100
AcDbEntity
8
Geo
100
AcDbLine
10
-67.6337598704073
20
1.73152601674500
30
0.000000000000000
11
-67.5337598704073
21
1.59652156634022
31
0.000000000000000
  0
LINE
  5
F10440
330
F10441
100
AcDbEntity
8
Geo
100
AcDbLine
10
-67.5337598704073
20
1.59652156634022
30
0.000000000000000
11
-67.4337598704073
21
1.46865199257429
31
0.000000000000000
  0
LINE
  5
F10442
330
F10443
100
AcDbEntity
8
Geo
100
AcDbLine
10
-67.4337598704073
20
1.46865199257429
30
0.000000000000000
11
-67.3337598704073
21
1.34782862359299
31
0.000000000000000
  0
LINE
  5
F10444
330
F10445
100
AcDbEntity
8
Geo
100
AcDbLine
10
-67.3337598704073
20
1.34782862359299
30
0.000000000000000
11
-67.2337598704073
21
1.23395837149264
31
0.000000000000000
  0
LINE
  5
F10446
330
F10447
100
AcDbEntity
8
Geo
100
AcDbLine
10
-67.2337598704073
20
1.23395837149264
30
0.000000000000000
11
-67.1337598704073
21
1.12694510366276
31
0.000000000000000
  0
LINE
  5
F10448
330
F10449
100
AcDbEntity
8
Geo
100
AcDbLine
10
-67.1337598704073
20
1.12694510366276
30
0.000000000000000
11
-67.0337598704073
21
1.02669093061804
31
0.000000000000000
  0
LINE
  5
F1044A
330
F1044B
100
AcDbEntity
8
Geo
100
AcDbLine
10
-67.0337598704073
20
1.02669093061804
30
0.000000000000000
11
-66.9337598704073
21
0.933097411269936
31
0.000000000000000
  0
LINE
  5
F1044C
330
F1044D
100
AcDbEntity
8
Geo
100
AcDbLine
10
-66.9337598704073
20
0.933097411269936
30
0.000000000000000
11
-66.8337598704073
21
0.846066676856204
31
0.000000000000000
  0
LINE
  5
F1044E
330
F1044F
100
AcDbEntity
8
Geo
100
AcDbLine
10
-66.8337598704073
20
0.846066676856204
30
0.000000000000000
11
-66.7337598704073
21
0.765502474957651
31
0.000000000000000
  0
LINE
  5
F10450
330
F10451
100
AcDbEntity
8
Geo
100
AcDbLine
10
-66.7337598704073
20
0.765502474957651
30
0.000000000000000
11
-66.6337598704073
21
0.691311135190918
31
0.000000000000000
  0
LINE
  5
F10452
330
F10453
100
AcDbEntity
8
Geo
100
AcDbLine
10
-66.6337598704073
20
0.691311135190918
30
0.000000000000000
11
-66.5337598704073
21
0.623402458277422
31
0.000000000000000
  0
LINE
  5
F10454
330
F10455
100
AcDbEntity
8
Geo
100
AcDbLine
10
-66.5337598704073
20
0.623402458277422
30
0.000000000000000
11
-66.4337598704073
21
0.561690530254908
31
0.000000000000000
  0
LINE
  5
F10456
330
F10457
100
AcDbEntity
8
Geo
100
AcDbLine
10
-66.4337598704073
20
0.561690530254908
30
0.000000000000000
11
-66.3337598704073
21
0.506094463624100
31
0.000000000000000
  0
LINE
  5
F10458
330
F10459
100
AcDbEntity
8
Geo
100
AcDbLine
10
-66.3337598704073
20
0.506094463624100
30
0.000000000000000
11
-66.2337598704073
21
0.456539067211144
31
0.000000000000000
  0
LINE
  5
F1045A
330
F1045B
100
AcDbEntity
8
Geo
100
AcDbLine
10
-66.2337598704073
20
0.456539067211144
30
0.000000000000000
11
-66.1337598704073
21
0.412955446481346
31
0.000000000000000
  0
LINE
  5
F1045C
330
F1045D
100
AcDbEntity
8
Geo
100
AcDbLine
10
-66.1337598704073
20
0.412955446481346
30
0.000000000000000
11
-66.0337598704073
21
0.375281535963731
31
0.000000000000000
  0
LINE
  5
F1045E
330
F1045F
100
AcDbEntity
8
Geo
100
AcDbLine
10
-66.0337598704073
20
0.375281535963731
30
0.000000000000000
11
-65.9337598704073
21
0.343462565343077
31
0.000000000000000
  0
LINE
  5
F10460
330
F10461
100
AcDbEntity
8
Geo
100
AcDbLine
10
-65.9337598704073
20
0.343462565343077
30
0.000000000000000
11
-65.8337598704072
21
0.317451460648943
31
0.000000000000000
  0
LINE
  5
F10462
330
F10463
100
AcDbEntity
8
Geo
100
AcDbLine
10
-65.8337598704072
20
0.317451460648943
30
0.000000000000000
11
-65.7337598704073
21
0.297209181823431
31
0.000000000000000
  0
LINE
  5
F10464
330
F10465
100
AcDbEntity
8
Geo
100
AcDbLine
10
-65.7337598704073
20
0.297209181823431
30
0.000000000000000
11
-65.6337598704073
21
0.282704997783414
31
0.000000000000000
  0
LINE
  5
F10466
330
F10467
100
AcDbEntity
8
Geo
100
AcDbLine
10
-76.5337598704073
20
12.4656671568864
30
0.000000000000000
11
-76.4337598704073
21
12.4671007982046
31
0.000000000000000
  0
LINE
  5
F10468
330
F10469
100
AcDbEntity
8
Geo
100
AcDbLine
10
-76.4337598704073
20
12.4671007982046
30
0.000000000000000
11
-76.3337598704073
21
12.4566853118484
31
0.000000000000000
  0
LINE
  5
F1046A
330
F1046B
100
AcDbEntity
8
Geo
100
AcDbLine
10
-76.3337598704073
20
12.4566853118484
30
0.000000000000000
11
-76.2337598704073
21
12.4344361262631
31
0.000000000000000
  0
LINE
  5
F1046C
330
F1046D
100
AcDbEntity
8
Geo
100
AcDbLine
10
-76.2337598704073
20
12.4344361262631
30
0.000000000000000
11
-76.1337598704073
21
12.4003861991360
31
0.000000000000000
  0
LINE
  5
F1046E
330
F1046F
100
AcDbEntity
8
Geo
100
AcDbLine
10
-76.1337598704073
20
12.4003861991360
30
0.000000000000000
11
-76.0337598704073
21
12.3545859685761
31
0.000000000000000
  0
LINE
  5
F10470
330
F10471
100
AcDbEntity
8
Geo
100
AcDbLine
10
-76.0337598704073
20
12.3545859685761
30
0.000000000000000
11
-75.9337598704073
21
12.2971032784006
31
0.000000000000000
  0
LINE
  5
F10472
330
F10473
100
AcDbEntity
8
Geo
100
AcDbLine
10
-75.9337598704073
20
12.2971032784006
30
0.000000000000000
11
-75.8337598704073
21
12.2280232776373
31
0.000000000000000
  0
LINE
  5
F10474
330
F10475
100
AcDbEntity
8
Geo
100
AcDbLine
10
-75.8337598704073
20
12.2280232776373
30
0.000000000000000
11
-75.7337598704073
21
12.1474482943941
31
0.000000000000000
  0
LINE
  5
F10476
330
F10477
100
AcDbEntity
8
Geo
100
AcDbLine
10
-75.7337598704073
20
12.1474482943941
30
0.000000000000000
11
-75.6337598704073
21
12.0554976842802
31
0.000000000000000
  0
LINE
  5
F10478
330
F10479
100
AcDbEntity
8
Geo
100
AcDbLine
10
-75.6337598704073
20
12.0554976842802
30
0.000000000000000
11
-75.5337598704073
21
11.9523076536049
31
0.000000000000000
  0
LINE
  5
F1047A
330
F1047B
100
AcDbEntity
8
Geo
100
AcDbLine
10
-75.5337598704073
20
11.9523076536049
30
0.000000000000000
11
-75.4337598704073
21
11.8380310576152
31
0.000000000000000
  0
LINE
  5
F1047C
330
F1047D
100
AcDbEntity
8
Geo
100
AcDbLine
10
-75.4337598704073
20
11.8380310576152
30
0.000000000000000
11
-75.3337598704073
21
11.7128371740719
31
0.000000000000000
  0
LINE
  5
F1047E
330
F1047F
100
AcDbEntity
8
Geo
100
AcDbLine
10
-75.3337598704073
20
11.7128371740719
30
0.000000000000000
11
-75.2337598704073
21
11.5769114524983
31
0.000000000000000
  0
LINE
  5
F10480
330
F10481
100
AcDbEntity
8
Geo
100
AcDbLine
10
-75.2337598704073
20
11.5769114524983
30
0.000000000000000
11
-75.1337598704073
21
11.4304552394743
31
0.000000000000000
  0
LINE
  5
F10482
330
F10483
100
AcDbEntity
8
Geo
100
AcDbLine
10
-75.1337598704073
20
11.4304552394743
30
0.000000000000000
11
-75.0337598704073
21
11.2736854803821
31
0.000000000000000
  0
LINE
  5
F10484
330
F10485
100
AcDbEntity
8
Geo
100
AcDbLine
10
-75.0337598704073
20
11.2736854803821
30
0.000000000000000
11
-74.9337598704073
21
11.1068343980449
31
0.000000000000000
  0
LINE
  5
F10486
330
F10487
100
AcDbEntity
8
Geo
100
AcDbLine
10
-74.9337598704073
20
11.1068343980449
30
0.000000000000000
11
-74.8337598704073
21
10.9301491487361
31
0.000000000000000
  0
LINE
  5
F10488
330
F10489
100
AcDbEntity
8
Geo
100
AcDbLine
10
-74.8337598704073
20
10.9301491487361
30
0.000000000000000
11
-74.7337598704073
21
10.7438914560666
31
0.000000000000000
  0
LINE
  5
F1048A
330
F1048B
100
AcDbEntity
8
Geo
100
AcDbLine
10
-74.7337598704073
20
10.7438914560666
30
0.000000000000000
11
-74.6337598704073
21
10.5483372232941
31
0.000000000000000
  0
LINE
  5
F1048C
330
F1048D
100
AcDbEntity
8
Geo
100
AcDbLine
10
-74.6337598704073
20
10.5483372232941
30
0.000000000000000
11
-74.5337598704073
21
10.3437761246283
31
0.000000000000000
  0
LINE
  5
F1048E
330
F1048F
100
AcDbEntity
8
Geo
100
AcDbLine
10
-74.5337598704073
20
10.3437761246283
30
0.000000000000000
11
-74.4337598704073
21
10.1305111761366
31
0.000000000000000
  0
LINE
  5
F10490
330
F10491
100
AcDbEntity
8
Geo
100
AcDbLine
10
-74.4337598704073
20
10.1305111761366
30
0.000000000000000
11
-74.3337598704073
21
9.90885828688670
31
0.000000000000000
  0
LINE
  5
F10492
330
F10493
100
AcDbEntity
8
Geo
100
AcDbLine
10
-74.3337598704073
20
9.90885828688670
30
0.000000000000000
11
-74.2337598704073
21
9.67914579099133
31
0.000000000000000
  0
LINE
  5
F10494
330
F10495
100
AcDbEntity
8
Geo
100
AcDbLine
10
-74.2337598704073
20
9.67914579099133
30
0.000000000000000
11
-74.1337598704073
21
9.44171396124711
31
0.000000000000000
  0
LINE
  5
F10496
330
F10497
100
AcDbEntity
8
Geo
100
AcDbLine
10
-74.1337598704073
20
9.44171396124711
30
0.000000000000000
11
-74.0337598704073
21
9.19691450508904
31
0.000000000000000
  0
LINE
  5
F10498
330
F10499
100
AcDbEntity
8
Geo
100
AcDbLine
10
-74.0337598704073
20
9.19691450508904
30
0.000000000000000
11
-73.9337598704073
21
8.94511004360674
31
0.000000000000000
  0
LINE
  5
F1049A
330
F1049B
100
AcDbEntity
8
Geo
100
AcDbLine
10
-73.9337598704073
20
8.94511004360674
30
0.000000000000000
11
-73.8337598704073
21
8.68667357439435
31
0.000000000000000
  0
LINE
  5
F1049C
330
F1049D
100
AcDbEntity
8
Geo
100
AcDbLine
10
-73.8337598704073
20
8.68667357439435
30
0.000000000000000
11
-73.7337598704073
21
8.42198791902972
31
0.000000000000000
  0
LINE
  5
F1049E
330
F1049F
100
AcDbEntity
8
Geo
100
AcDbLine
10
-73.7337598704073
20
8.42198791902972
30
0.000000000000000
11
-73.6337598704073
21
8.15144515600136
31
0.000000000000000
  0
LINE
  5
F104A0
330
F104A1
100
AcDbEntity
8
Geo
100
AcDbLine
10
-73.6337598704073
20
8.15144515600136
30
0.000000000000000
11
-73.5337598704073
21
7.87544603992309
31
0.000000000000000
  0
LINE
  5
F104A2
330
F104A3
100
AcDbEntity
8
Geo
100
AcDbLine
10
-73.5337598704073
20
7.87544603992309
30
0.000000000000000
11
-73.4337598704073
21
7.59439940789684
31
0.000000000000000
  0
LINE
  5
F104A4
330
F104A5
100
AcDbEntity
8
Geo
100
AcDbLine
10
-73.4337598704073
20
7.59439940789684
30
0.000000000000000
11
-73.3337598704073
21
7.30872157390279
31
0.000000000000000
  0
LINE
  5
F104A6
330
F104A7
100
AcDbEntity
8
Geo
100
AcDbLine
10
-73.3337598704073
20
7.30872157390279
30
0.000000000000000
11
-73.2337598704073
21
7.01883571211407
31
0.000000000000000
  0
LINE
  5
F104A8
330
F104A9
100
AcDbEntity
8
Geo
100
AcDbLine
10
-73.2337598704073
20
7.01883571211407
30
0.000000000000000
11
-73.1337598704073
21
6.72517123004947
31
0.000000000000000
  0
LINE
  5
F104AA
330
F104AB
100
AcDbEntity
8
Geo
100
AcDbLine
10
-73.1337598704073
20
6.72517123004947
30
0.000000000000000
11
-73.0337598704073
21
6.42816313249268
31
0.000000000000000
  0
LINE
  5
F104AC
330
F104AD
100
AcDbEntity
8
Geo
100
AcDbLine
10
-73.0337598704073
20
6.42816313249268
30
0.000000000000000
11
-72.9337598704073
21
6.12825137712027
31
0.000000000000000
  0
LINE
  5
F104AE
330
F104AF
100
AcDbEntity
8
Geo
100
AcDbLine
10
-72.9337598704073
20
6.12825137712027
30
0.000000000000000
11
-72.8337598704073
21
5.82588022279307
31
0.000000000000000
  0
LINE
  5
F104B0
330
F104B1
100
AcDbEntity
8
Geo
100
AcDbLine
10
-72.8337598704073
20
5.82588022279307
30
0.000000000000000
11
-72.7337598704073
21
5.52149757147613
31
0.000000000000000
  0
LINE
  5
F104B2
330
F104B3
100
AcDbEntity
8
Geo
100
AcDbLine
10
-72.7337598704073
20
5.52149757147613
30
0.000000000000000
11
-72.6337598704073
21
5.21555430476212
31
0.000000000000000
  0
LINE
  5
F104B4
330
F104B5
100
AcDbEntity
8
Geo
100
AcDbLine
10
-72.6337598704073
20
5.21555430476212
30
0.000000000000000
11
-72.5337598704073
21
4.90850361598115
31
0.000000000000000
  0
LINE
  5
F104B6
330
F104B7
100
AcDbEntity
8
Geo
100
AcDbLine
10
-72.5337598704073
20
4.90850361598115
30
0.000000000000000
11
-72.4337598704073
21
4.60080033888603
31
0.000000000000000
  0
LINE
  5
F104B8
330
F104B9
100
AcDbEntity
8
Geo
100
AcDbLine
10
-72.4337598704073
20
4.60080033888603
30
0.000000000000000
11
-72.3337598704073
21
4.29290027390774
31
0.000000000000000
  0
LINE
  5
F104BA
330
F104BB
100
AcDbEntity
8
Geo
100
AcDbLine
10
-72.3337598704073
20
4.29290027390774
30
0.000000000000000
11
-72.2337598704073
21
3.98525951297888
31
0.000000000000000
  0
LINE
  5
F104BC
330
F104BD
100
AcDbEntity
8
Geo
100
AcDbLine
10
-72.2337598704073
20
3.98525951297888
30
0.000000000000000
11
-72.1337598704073
21
3.67833376392533
31
0.000000000000000
  0
LINE
  5
F104BE
330
F104BF
100
AcDbEntity
8
Geo
100
AcDbLine
10
-72.1337598704073
20
3.67833376392533
30
0.000000000000000
11
-72.0337598704073
21
3.37257767542688
31
0.000000000000000
  0
LINE
  5
F104C0
330
F104C1
100
AcDbEntity
8
Geo
100
AcDbLine
10
-72.0337598704073
20
3.37257767542688
30
0.000000000000000
11
-71.9337598704073
21
3.06844416354676
31
0.000000000000000
  0
LINE
  5
F104C2
330
F104C3
100
AcDbEntity
8
Geo
100
AcDbLine
10
-71.9337598704073
20
3.06844416354676
30
0.000000000000000
11
-71.8337598704073
21
2.76638374082780
31
0.000000000000000
  0
LINE
  5
F104C4
330
F104C5
100
AcDbEntity
8
Geo
100
AcDbLine
10
-71.8337598704073
20
2.76638374082780
30
0.000000000000000
11
-71.7337598704073
21
2.46684384894871
31
0.000000000000000
  0
LINE
  5
F104C6
330
F104C7
100
AcDbEntity
8
Geo
100
AcDbLine
10
-71.7337598704073
20
2.46684384894871
30
0.000000000000000
11
-71.6337598704073
21
2.17026819592947
31
0.000000000000000
  0
LINE
  5
F104C8
330
F104C9
100
AcDbEntity
8
Geo
100
AcDbLine
10
-71.6337598704073
20
2.17026819592947
30
0.000000000000000
11
-71.5337598704073
21
1.87709609886717
31
0.000000000000000
  0
LINE
  5
F104CA
330
F104CB
100
AcDbEntity
8
Geo
100
AcDbLine
10
-71.5337598704073
20
1.87709609886717
30
0.000000000000000
11
-71.4337598704073
21
1.58776183317630
31
0.000000000000000
  0
LINE
  5
F104CC
330
F104CD
100
AcDbEntity
8
Geo
100
AcDbLine
10
-71.4337598704073
20
1.58776183317630
30
0.000000000000000
11
-71.3337598704073
21
1.30269398929709
31
0.000000000000000
  0
LINE
  5
F104CE
330
F104CF
100
AcDbEntity
8
Geo
100
AcDbLine
10
-71.3337598704073
20
1.30269398929709
30
0.000000000000000
11
-71.2337598704073
21
1.02231483782521
31
0.000000000000000
  0
LINE
  5
F104D0
330
F104D1
100
AcDbEntity
8
Geo
100
AcDbLine
10
-71.2337598704073
20
1.02231483782521
30
0.000000000000000
11
-71.1337598704073
21
0.747039704002812
31
0.000000000000000
  0
LINE
  5
F104D2
330
F104D3
100
AcDbEntity
8
Geo
100
AcDbLine
10
-71.1337598704073
20
0.747039704002812
30
0.000000000000000
11
-71.0337598704073
21
0.477276352497934
31
0.000000000000000
  0
LINE
  5
F104D4
330
F104D5
100
AcDbEntity
8
Geo
100
AcDbLine
10
-71.0337598704073
20
0.477276352497934
30
0.000000000000000
11
-70.9337598704073
21
0.213424383383214
31
0.000000000000000
  0
LINE
  5
F104D6
330
F104D7
100
AcDbEntity
8
Geo
100
AcDbLine
10
-70.9337598704073
20
0.213424383383214
30
0.000000000000000
11
-70.8337598704073
21
-0.0441253597911171
31
0.000000000000000
  0
LINE
  5
F104D8
330
F104D9
100
AcDbEntity
8
Geo
100
AcDbLine
10
-70.8337598704073
20
-0.0441253597911171
30
0.000000000000000
11
-70.7337598704073
21
-0.294991368953237
31
0.000000000000000
  0
LINE
  5
F104DA
330
F104DB
100
AcDbEntity
8
Geo
100
AcDbLine
10
-70.7337598704073
20
-0.294991368953237
30
0.000000000000000
11
-70.6337598704073
21
-0.538802036637192
31
0.000000000000000
  0
LINE
  5
F104DC
330
F104DD
100
AcDbEntity
8
Geo
100
AcDbLine
10
-70.6337598704073
20
-0.538802036637192
30
0.000000000000000
11
-70.5337598704073
21
-0.508855050969832
31
0.000000000000000
  0
LINE
  5
F104DE
330
F104DF
100
AcDbEntity
8
Geo
100
AcDbLine
10
-70.5337598704073
20
-0.508855050969832
30
0.000000000000000
11
-70.4337598704073
21
-0.479378184676328
31
0.000000000000000
  0
LINE
  5
F104E0
330
F104E1
100
AcDbEntity
8
Geo
100
AcDbLine
10
-70.4337598704073
20
-0.479378184676328
30
0.000000000000000
11
-70.3337598704073
21
-0.450378587536783
31
0.000000000000000
  0
LINE
  5
F104E2
330
F104E3
100
AcDbEntity
8
Geo
100
AcDbLine
10
-70.3337598704073
20
-0.450378587536783
30
0.000000000000000
11
-70.2337598704073
21
-0.421863207601418
31
0.000000000000000
  0
LINE
  5
F104E4
330
F104E5
100
AcDbEntity
8
Geo
100
AcDbLine
10
-70.2337598704073
20
-0.421863207601418
30
0.000000000000000
11
-70.1337598704073
21
-0.393838794487011
31
0.000000000000000
  0
LINE
  5
F104E6
330
F104E7
100
AcDbEntity
8
Geo
100
AcDbLine
10
-70.1337598704073
20
-0.393838794487011
30
0.000000000000000
11
-70.0337598704073
21
-0.366311902640846
31
0.000000000000000
  0
LINE
  5
F104E8
330
F104E9
100
AcDbEntity
8
Geo
100
AcDbLine
10
-70.0337598704073
20
-0.366311902640846
30
0.000000000000000
11
-69.9337598704073
21
-0.339288894569802
31
0.000000000000000
  0
LINE
  5
F104EA
330
F104EB
100
AcDbEntity
8
Geo
100
AcDbLine
10
-69.9337598704073
20
-0.339288894569802
30
0.000000000000000
11
-69.8337598704073
21
-0.312775944032272
31
0.000000000000000
  0
LINE
  5
F104EC
330
F104ED
100
AcDbEntity
8
Geo
100
AcDbLine
10
-69.8337598704073
20
-0.312775944032272
30
0.000000000000000
11
-69.7337598704073
21
-0.286779039190703
31
0.000000000000000
  0
LINE
  5
F104EE
330
F104EF
100
AcDbEntity
8
Geo
100
AcDbLine
10
-69.7337598704073
20
-0.286779039190703
30
0.000000000000000
11
-69.6337598704073
21
-0.261303985722613
31
0.000000000000000
  0
LINE
  5
F104F0
330
F104F1
100
AcDbEntity
8
Geo
100
AcDbLine
10
-69.6337598704073
20
-0.261303985722613
30
0.000000000000000
11
-69.5337598704073
21
-0.236356409887986
31
0.000000000000000
  0
LINE
  5
F104F2
330
F104F3
100
AcDbEntity
8
Geo
100
AcDbLine
10
-69.5337598704073
20
-0.236356409887986
30
0.000000000000000
11
-69.4337598704073
21
-0.211941761551090
31
0.000000000000000
  0
LINE
  5
F104F4
330
F104F5
100
AcDbEntity
8
Geo
100
AcDbLine
10
-69.4337598704073
20
-0.211941761551090
30
0.000000000000000
11
-69.3337598704073
21
-0.188065317154728
31
0.000000000000000
  0
LINE
  5
F104F6
330
F104F7
100
AcDbEntity
8
Geo
100
AcDbLine
10
-69.3337598704073
20
-0.188065317154728
30
0.000000000000000
11
-69.2337598704073
21
-0.164732182645099
31
0.000000000000000
  0
LINE
  5
F104F8
330
F104F9
100
AcDbEntity
8
Geo
100
AcDbLine
10
-69.2337598704073
20
-0.164732182645099
30
0.000000000000000
11
-69.1337598704073
21
-0.141947296345459
31
0.000000000000000
  0
LINE
  5
F104FA
330
F104FB
100
AcDbEntity
8
Geo
100
AcDbLine
10
-69.1337598704073
20
-0.141947296345459
30
0.000000000000000
11
-69.0337598704073
21
-0.119715431776838
31
0.000000000000000
  0
LINE
  5
F104FC
330
F104FD
100
AcDbEntity
8
Geo
100
AcDbLine
10
-69.0337598704073
20
-0.119715431776838
30
0.000000000000000
11
-68.9337598704073
21
-0.0980412004241575
31
0.000000000000000
  0
LINE
  5
F104FE
330
F104FF
100
AcDbEntity
8
Geo
100
AcDbLine
10
-68.9337598704073
20
-0.0980412004241575
30
0.000000000000000
11
-68.8337598704073
21
-0.0769290544461434
31
0.000000000000000
  0
LINE
  5
F10500
330
F10501
100
AcDbEntity
8
Geo
100
AcDbLine
10
-68.8337598704073
20
-0.0769290544461434
30
0.000000000000000
11
-68.7337598704073
21
-0.0563832893274734
31
0.000000000000000
  0
LINE
  5
F10502
330
F10503
100
AcDbEntity
8
Geo
100
AcDbLine
10
-68.7337598704073
20
-0.0563832893274734
30
0.000000000000000
11
-68.6337598704073
21
-0.0364080464716867
31
0.000000000000000
  0
LINE
  5
F10504
330
F10505
100
AcDbEntity
8
Geo
100
AcDbLine
10
-68.6337598704073
20
-0.0364080464716867
30
0.000000000000000
11
-68.5337598704073
21
-0.0170073157334301
31
0.000000000000000
  0
LINE
  5
F10506
330
F10507
100
AcDbEntity
8
Geo
100
AcDbLine
10
-68.5337598704073
20
-0.0170073157334301
30
0.000000000000000
11
-68.4337598704073
21
0.00181506211134685
31
0.000000000000000
  0
LINE
  5
F10508
330
F10509
100
AcDbEntity
8
Geo
100
AcDbLine
10
-68.4337598704073
20
0.00181506211134685
30
0.000000000000000
11
-68.3337598704073
21
0.0200553929585396
31
0.000000000000000
  0
LINE
  5
F1050A
330
F1050B
100
AcDbEntity
8
Geo
100
AcDbLine
10
-68.3337598704073
20
0.0200553929585396
30
0.000000000000000
11
-68.2337598704073
21
0.0377101270336579
31
0.000000000000000
  0
LINE
  5
F1050C
330
F1050D
100
AcDbEntity
8
Geo
100
AcDbLine
10
-68.2337598704073
20
0.0377101270336579
30
0.000000000000000
11
-68.1337598704073
21
0.0547758566154126
31
0.000000000000000
  0
LINE
  5
F1050E
330
F1050F
100
AcDbEntity
8
Geo
100
AcDbLine
10
-68.1337598704073
20
0.0547758566154126
30
0.000000000000000
11
-68.0337598704073
21
0.0712493138262875
31
0.000000000000000
  0
LINE
  5
F10510
330
F10511
100
AcDbEntity
8
Geo
100
AcDbLine
10
-68.0337598704073
20
0.0712493138262875
30
0.000000000000000
11
-67.9337598704073
21
0.0871273684911795
31
0.000000000000000
  0
LINE
  5
F10512
330
F10513
100
AcDbEntity
8
Geo
100
AcDbLine
10
-67.9337598704073
20
0.0871273684911795
30
0.000000000000000
11
-67.8337598704073
21
0.102407026065188
31
0.000000000000000
  0
LINE
  5
F10514
330
F10515
100
AcDbEntity
8
Geo
100
AcDbLine
10
-67.8337598704073
20
0.102407026065188
30
0.000000000000000
11
-67.7337598704073
21
0.117085425631540
31
0.000000000000000
  0
LINE
  5
F10516
330
F10517
100
AcDbEntity
8
Geo
100
AcDbLine
10
-67.7337598704073
20
0.117085425631540
30
0.000000000000000
11
-67.6337598704073
21
0.131159837970619
31
0.000000000000000
  0
LINE
  5
F10518
330
F10519
100
AcDbEntity
8
Geo
100
AcDbLine
10
-67.6337598704073
20
0.131159837970619
30
0.000000000000000
11
-67.5337598704073
21
0.144627663701011
31
0.000000000000000
  0
LINE
  5
F1051A
330
F1051B
100
AcDbEntity
8
Geo
100
AcDbLine
10
-67.5337598704073
20
0.144627663701011
30
0.000000000000000
11
-67.4337598704073
21
0.157486431493425
31
0.000000000000000
  0
LINE
  5
F1051C
330
F1051D
100
AcDbEntity
8
Geo
100
AcDbLine
10
-67.4337598704073
20
0.157486431493425
30
0.000000000000000
11
-67.3337598704073
21
0.169733796358328
31
0.000000000000000
  0
LINE
  5
F1051E
330
F1051F
100
AcDbEntity
8
Geo
100
AcDbLine
10
-67.3337598704073
20
0.169733796358328
30
0.000000000000000
11
-67.2337598704073
21
0.181367538008059
31
0.000000000000000
  0
LINE
  5
F10520
330
F10521
100
AcDbEntity
8
Geo
100
AcDbLine
10
-67.2337598704073
20
0.181367538008059
30
0.000000000000000
11
-67.1337598704073
21
0.192385559294166
31
0.000000000000000
  0
LINE
  5
F10522
330
F10523
100
AcDbEntity
8
Geo
100
AcDbLine
10
-67.1337598704073
20
0.192385559294166
30
0.000000000000000
11
-67.0337598704073
21
0.202785884720663
31
0.000000000000000
  0
LINE
  5
F10524
330
F10525
100
AcDbEntity
8
Geo
100
AcDbLine
10
-67.0337598704073
20
0.202785884720663
30
0.000000000000000
11
-66.9337598704073
21
0.212566659033856
31
0.000000000000000
  0
LINE
  5
F10526
330
F10527
100
AcDbEntity
8
Geo
100
AcDbLine
10
-66.9337598704073
20
0.212566659033856
30
0.000000000000000
11
-66.8337598704073
21
0.221726145889361
31
0.000000000000000
  0
LINE
  5
F10528
330
F10529
100
AcDbEntity
8
Geo
100
AcDbLine
10
-66.8337598704073
20
0.221726145889361
30
0.000000000000000
11
-66.7337598704073
21
0.230262726596883
31
0.000000000000000
  0
LINE
  5
F1052A
330
F1052B
100
AcDbEntity
8
Geo
100
AcDbLine
10
-66.7337598704073
20
0.230262726596883
30
0.000000000000000
11
-66.6337598704073
21
0.238174898943296
31
0.000000000000000
  0
LINE
  5
F1052C
330
F1052D
100
AcDbEntity
8
Geo
100
AcDbLine
10
-66.6337598704073
20
0.238174898943296
30
0.000000000000000
11
-66.5337598704073
21
0.245461276094526
31
0.000000000000000
  0
LINE
  5
F1052E
330
F1052F
100
AcDbEntity
8
Geo
100
AcDbLine
10
-66.5337598704073
20
0.245461276094526
30
0.000000000000000
11
-66.4337598704073
21
0.252120585576693
31
0.000000000000000
  0
LINE
  5
F10530
330
F10531
100
AcDbEntity
8
Geo
100
AcDbLine
10
-66.4337598704073
20
0.252120585576693
30
0.000000000000000
11
-66.3337598704073
21
0.258151668336949
31
0.000000000000000
  0
LINE
  5
F10532
330
F10533
100
AcDbEntity
8
Geo
100
AcDbLine
10
-66.3337598704073
20
0.258151668336949
30
0.000000000000000
11
-66.2337598704073
21
0.263553477884387
31
0.000000000000000
  0
LINE
  5
F10534
330
F10535
100
AcDbEntity
8
Geo
100
AcDbLine
10
-66.2337598704073
20
0.263553477884387
30
0.000000000000000
11
-66.1337598704073
21
0.268325079511385
31
0.000000000000000
  0
LINE
  5
F10536
330
F10537
100
AcDbEntity
8
Geo
100
AcDbLine
10
-66.1337598704073
20
0.268325079511385
30
0.000000000000000
11
-66.0337598704073
21
0.272465649595709
31
0.000000000000000
  0
LINE
  5
F10538
330
F10539
100
AcDbEntity
8
Geo
100
AcDbLine
10
-66.0337598704073
20
0.272465649595709
30
0.000000000000000
11
-65.9337598704073
21
0.275974474983645
31
0.000000000000000
  0
LINE
  5
F1053A
330
F1053B
100
AcDbEntity
8
Geo
100
AcDbLine
10
-65.9337598704073
20
0.275974474983645
30
0.000000000000000
11
-65.8337598704072
21
0.278850952454423
31
0.000000000000000
  0
LINE
  5
F1053C
330
F1053D
100
AcDbEntity
8
Geo
100
AcDbLine
10
-65.8337598704072
20
0.278850952454423
30
0.000000000000000
11
-65.7337598704073
21
0.281094588266150
31
0.000000000000000
  0
LINE
  5
F1053E
330
F1053F
100
AcDbEntity
8
Geo
100
AcDbLine
10
-65.7337598704073
20
0.281094588266150
30
0.000000000000000
11
-65.6337598704073
21
0.282704997783416
31
0.000000000000000
  0
LINE
  5
F10540
330
F10541
100
AcDbEntity
8
Geo
100
AcDbLine
10
-77.3337598704073
20
12.4667043539608
30
0.000000000000000
11
-77.2337598704073
21
12.4662169679725
31
0.000000000000000
  0
LINE
  5
F10542
330
F10543
100
AcDbEntity
8
Geo
100
AcDbLine
10
-77.2337598704073
20
12.4662169679725
30
0.000000000000000
11
-77.1337598704073
21
12.4538817635263
31
0.000000000000000
  0
LINE
  5
F10544
330
F10545
100
AcDbEntity
8
Geo
100
AcDbLine
10
-77.1337598704073
20
12.4538817635263
30
0.000000000000000
11
-77.0337598704073
21
12.4297170127432
31
0.000000000000000
  0
LINE
  5
F10546
330
F10547
100
AcDbEntity
8
Geo
100
AcDbLine
10
-77.0337598704073
20
12.4297170127432
30
0.000000000000000
11
-76.9337598704073
21
12.3937585108345
31
0.000000000000000
  0
LINE
  5
F10548
330
F10549
100
AcDbEntity
8
Geo
100
AcDbLine
10
-76.9337598704073
20
12.3937585108345
30
0.000000000000000
11
-76.8337598704073
21
12.3460595230784
31
0.000000000000000
  0
LINE
  5
F1054A
330
F1054B
100
AcDbEntity
8
Geo
100
AcDbLine
10
-76.8337598704073
20
12.3460595230784
30
0.000000000000000
11
-76.7337598704073
21
12.2866907059182
31
0.000000000000000
  0
LINE
  5
F1054C
330
F1054D
100
AcDbEntity
8
Geo
100
AcDbLine
10
-76.7337598704073
20
12.2866907059182
30
0.000000000000000
11
-76.6337598704073
21
12.2157400022993
31
0.000000000000000
  0
LINE
  5
F1054E
330
F1054F
100
AcDbEntity
8
Geo
100
AcDbLine
10
-76.6337598704073
20
12.2157400022993
30
0.000000000000000
11
-76.5337598704073
21
12.1333125113990
31
0.000000000000000
  0
LINE
  5
F10550
330
F10551
100
AcDbEntity
8
Geo
100
AcDbLine
10
-76.5337598704073
20
12.1333125113990
30
0.000000000000000
11
-76.4337598704073
21
12.0395303329434
31
0.000000000000000
  0
LINE
  5
F10552
330
F10553
100
AcDbEntity
8
Geo
100
AcDbLine
10
-76.4337598704073
20
12.0395303329434
30
0.000000000000000
11
-76.3337598704073
21
11.9345323863414
31
0.000000000000000
  0
LINE
  5
F10554
330
F10555
100
AcDbEntity
8
Geo
100
AcDbLine
10
-76.3337598704073
20
11.9345323863414
30
0.000000000000000
11
-76.2337598704073
21
11.8184742049034
31
0.000000000000000
  0
LINE
  5
F10556
330
F10557
100
AcDbEntity
8
Geo
100
AcDbLine
10
-76.2337598704073
20
11.8184742049034
30
0.000000000000000
11
-76.1337598704073
21
11.6915277054502
31
0.000000000000000
  0
LINE
  5
F10558
330
F10559
100
AcDbEntity
8
Geo
100
AcDbLine
10
-76.1337598704073
20
11.6915277054502
30
0.000000000000000
11
-76.0337598704073
21
11.5538809336525
31
0.000000000000000
  0
LINE
  5
F1055A
330
F1055B
100
AcDbEntity
8
Geo
100
AcDbLine
10
-76.0337598704073
20
11.5538809336525
30
0.000000000000000
11
-75.9337598704073
21
11.4057377854796
31
0.000000000000000
  0
LINE
  5
F1055C
330
F1055D
100
AcDbEntity
8
Geo
100
AcDbLine
10
-75.9337598704073
20
11.4057377854796
30
0.000000000000000
11
-75.8337598704073
21
11.2473177051682
31
0.000000000000000
  0
LINE
  5
F1055E
330
F1055F
100
AcDbEntity
8
Geo
100
AcDbLine
10
-75.8337598704073
20
11.2473177051682
30
0.000000000000000
11
-75.7337598704073
21
11.0788553601602
31
0.000000000000000
  0
LINE
  5
F10560
330
F10561
100
AcDbEntity
8
Geo
100
AcDbLine
10
-75.7337598704073
20
11.0788553601602
30
0.000000000000000
11
-75.6337598704073
21
10.9006002934899
31
0.000000000000000
  0
LINE
  5
F10562
330
F10563
100
AcDbEntity
8
Geo
100
AcDbLine
10
-75.6337598704073
20
10.9006002934899
30
0.000000000000000
11
-75.5337598704073
21
10.7128165541366
31
0.000000000000000
  0
LINE
  5
F10564
330
F10565
100
AcDbEntity
8
Geo
100
AcDbLine
10
-75.5337598704073
20
10.7128165541366
30
0.000000000000000
11
-75.4337598704073
21
10.5157823058888
31
0.000000000000000
  0
LINE
  5
F10566
330
F10567
100
AcDbEntity
8
Geo
100
AcDbLine
10
-75.4337598704073
20
10.5157823058888
30
0.000000000000000
11
-75.3337598704073
21
10.3097894153010
31
0.000000000000000
  0
LINE
  5
F10568
330
F10569
100
AcDbEntity
8
Geo
100
AcDbLine
10
-75.3337598704073
20
10.3097894153010
30
0.000000000000000
11
-75.2337598704073
21
10.0951430193519
31
0.000000000000000
  0
LINE
  5
F1056A
330
F1056B
100
AcDbEntity
8
Geo
100
AcDbLine
10
-75.2337598704073
20
10.0951430193519
30
0.000000000000000
11
-75.1337598704073
21
9.87216107344544
31
0.000000000000000
  0
LINE
  5
F1056C
330
F1056D
100
AcDbEntity
8
Geo
100
AcDbLine
10
-75.1337598704073
20
9.87216107344544
30
0.000000000000000
11
-75.0337598704073
21
9.64117388042412
31
0.000000000000000
  0
LINE
  5
F1056E
330
F1056F
100
AcDbEntity
8
Geo
100
AcDbLine
10
-75.0337598704073
20
9.64117388042412
30
0.000000000000000
11
-74.9337598704073
21
9.40252360129158
31
0.000000000000000
  0
LINE
  5
F10570
330
F10571
100
AcDbEntity
8
Geo
100
AcDbLine
10
-74.9337598704073
20
9.40252360129158
30
0.000000000000000
11
-74.8337598704073
21
9.15656374837020
31
0.000000000000000
  0
LINE
  5
F10572
330
F10573
100
AcDbEntity
8
Geo
100
AcDbLine
10
-74.8337598704073
20
9.15656374837020
30
0.000000000000000
11
-74.7337598704073
21
8.90365866164368
31
0.000000000000000
  0
LINE
  5
F10574
330
F10575
100
AcDbEntity
8
Geo
100
AcDbLine
10
-74.7337598704073
20
8.90365866164368
30
0.000000000000000
11
-74.6337598704073
21
8.64418296906080
31
0.000000000000000
  0
LINE
  5
F10576
330
F10577
100
AcDbEntity
8
Geo
100
AcDbLine
10
-74.6337598704073
20
8.64418296906080
30
0.000000000000000
11
-74.5337598704073
21
8.37852103159951
31
0.000000000000000
  0
LINE
  5
F10578
330
F10579
100
AcDbEntity
8
Geo
100
AcDbLine
10
-74.5337598704073
20
8.37852103159951
30
0.000000000000000
11
-74.4337598704073
21
8.10706637391362
31
0.000000000000000
  0
LINE
  5
F1057A
330
F1057B
100
AcDbEntity
8
Geo
100
AcDbLine
10
-74.4337598704073
20
8.10706637391362
30
0.000000000000000
11
-74.3337598704073
21
7.83022110140523
31
0.000000000000000
  0
LINE
  5
F1057C
330
F1057D
100
AcDbEntity
8
Geo
100
AcDbLine
10
-74.3337598704073
20
7.83022110140523
30
0.000000000000000
11
-74.2337598704073
21
7.54839530458658
31
0.000000000000000
  0
LINE
  5
F1057E
330
F1057F
100
AcDbEntity
8
Geo
100
AcDbLine
10
-74.2337598704073
20
7.54839530458658
30
0.000000000000000
11
-74.1337598704073
21
7.26200645161358
31
0.000000000000000
  0
LINE
  5
F10580
330
F10581
100
AcDbEntity
8
Geo
100
AcDbLine
10
-74.1337598704073
20
7.26200645161358
30
0.000000000000000
11
-74.0337598704073
21
6.97147876989076
31
0.000000000000000
  0
LINE
  5
F10582
330
F10583
100
AcDbEntity
8
Geo
100
AcDbLine
10
-74.0337598704073
20
6.97147876989076
30
0.000000000000000
11
-73.9337598704073
21
6.67724261766388
31
0.000000000000000
  0
LINE
  5
F10584
330
F10585
100
AcDbEntity
8
Geo
100
AcDbLine
10
-73.9337598704073
20
6.67724261766388
30
0.000000000000000
11
-73.8337598704073
21
6.37973384653082
31
0.000000000000000
  0
LINE
  5
F10586
330
F10587
100
AcDbEntity
8
Geo
100
AcDbLine
10
-73.8337598704073
20
6.37973384653082
30
0.000000000000000
11
-73.7337598704073
21
6.07939315581523
31
0.000000000000000
  0
LINE
  5
F10588
330
F10589
100
AcDbEntity
8
Geo
100
AcDbLine
10
-73.7337598704073
20
6.07939315581523
30
0.000000000000000
11
-73.6337598704073
21
5.77666543975926
31
0.000000000000000
  0
LINE
  5
F1058A
330
F1058B
100
AcDbEntity
8
Geo
100
AcDbLine
10
-73.6337598704073
20
5.77666543975926
30
0.000000000000000
11
-73.5337598704073
21
5.47199912850233
31
0.000000000000000
  0
LINE
  5
F1058C
330
F1058D
100
AcDbEntity
8
Geo
100
AcDbLine
10
-73.5337598704073
20
5.47199912850233
30
0.000000000000000
11
-73.4337598704073
21
5.16584552382221
31
0.000000000000000
  0
LINE
  5
F1058E
330
F1058F
100
AcDbEntity
8
Geo
100
AcDbLine
10
-73.4337598704073
20
5.16584552382221
30
0.000000000000000
11
-73.3337598704073
21
4.85865813062231
31
0.000000000000000
  0
LINE
  5
F10590
330
F10591
100
AcDbEntity
8
Geo
100
AcDbLine
10
-73.3337598704073
20
4.85865813062231
30
0.000000000000000
11
-73.2337598704073
21
4.55089198515552
31
0.000000000000000
  0
LINE
  5
F10592
330
F10593
100
AcDbEntity
8
Geo
100
AcDbLine
10
-73.2337598704073
20
4.55089198515552
30
0.000000000000000
11
-73.1337598704073
21
4.24300298097965
31
0.000000000000000
  0
LINE
  5
F10594
330
F10595
100
AcDbEntity
8
Geo
100
AcDbLine
10
-73.1337598704073
20
4.24300298097965
30
0.000000000000000
11
-73.0337598704073
21
3.93544719364296
31
0.000000000000000
  0
LINE
  5
F10596
330
F10597
100
AcDbEntity
8
Geo
100
AcDbLine
10
-73.0337598704073
20
3.93544719364296
30
0.000000000000000
11
-72.9337598704073
21
3.62868020510004
31
0.000000000000000
  0
LINE
  5
F10598
330
F10599
100
AcDbEntity
8
Geo
100
AcDbLine
10
-72.9337598704073
20
3.62868020510004
30
0.000000000000000
11
-72.8337598704073
21
3.32315642885897
31
0.000000000000000
  0
LINE
  5
F1059A
330
F1059B
100
AcDbEntity
8
Geo
100
AcDbLine
10
-72.8337598704073
20
3.32315642885897
30
0.000000000000000
11
-72.7337598704073
21
3.01932843685919
31
0.000000000000000
  0
LINE
  5
F1059C
330
F1059D
100
AcDbEntity
8
Geo
100
AcDbLine
10
-72.7337598704073
20
3.01932843685919
30
0.000000000000000
11
-72.6337598704073
21
2.71764628907731
31
0.000000000000000
  0
LINE
  5
F1059E
330
F1059F
100
AcDbEntity
8
Geo
100
AcDbLine
10
-72.6337598704073
20
2.71764628907731
30
0.000000000000000
11
-72.5337598704073
21
2.41855686685395
31
0.000000000000000
  0
LINE
  5
F105A0
330
F105A1
100
AcDbEntity
8
Geo
100
AcDbLine
10
-72.5337598704073
20
2.41855686685395
30
0.000000000000000
11
-72.4337598704073
21
2.12250321092899
31
0.000000000000000
  0
LINE
  5
F105A2
330
F105A3
100
AcDbEntity
8
Geo
100
AcDbLine
10
-72.4337598704073
20
2.12250321092899
30
0.000000000000000
11
-72.3337598704073
21
1.82992386516599
31
0.000000000000000
  0
LINE
  5
F105A4
330
F105A5
100
AcDbEntity
8
Geo
100
AcDbLine
10
-72.3337598704073
20
1.82992386516599
30
0.000000000000000
11
-72.2337598704073
21
1.54125222693775
31
0.000000000000000
  0
LINE
  5
F105A6
330
F105A7
100
AcDbEntity
8
Geo
100
AcDbLine
10
-72.2337598704073
20
1.54125222693775
30
0.000000000000000
11
-72.1337598704073
21
1.25691590513540
31
0.000000000000000
  0
LINE
  5
F105A8
330
F105A9
100
AcDbEntity
8
Geo
100
AcDbLine
10
-72.1337598704073
20
1.25691590513540
30
0.000000000000000
11
-72.0337598704073
21
0.977336086751964
31
0.000000000000000
  0
LINE
  5
F105AA
330
F105AB
100
AcDbEntity
8
Geo
100
AcDbLine
10
-72.0337598704073
20
0.977336086751964
30
0.000000000000000
11
-71.9337598704073
21
0.702926912978634
31
0.000000000000000
  0
LINE
  5
F105AC
330
F105AD
100
AcDbEntity
8
Geo
100
AcDbLine
10
-71.9337598704073
20
0.702926912978634
30
0.000000000000000
11
-71.8337598704073
21
0.434094865738035
31
0.000000000000000
  0
LINE
  5
F105AE
330
F105AF
100
AcDbEntity
8
Geo
100
AcDbLine
10
-71.8337598704073
20
0.434094865738035
30
0.000000000000000
11
-71.7337598704073
21
0.171238165563113
31
0.000000000000000
  0
LINE
  5
F105B0
330
F105B1
100
AcDbEntity
8
Geo
100
AcDbLine
10
-71.7337598704073
20
0.171238165563113
30
0.000000000000000
11
-71.6337598704073
21
-0.0852538182863807
31
0.000000000000000
  0
LINE
  5
F105B2
330
F105B3
100
AcDbEntity
8
Geo
100
AcDbLine
10
-71.6337598704073
20
-0.0852538182863807
30
0.000000000000000
11
-71.5337598704073
21
-0.335001144596021
31
0.000000000000000
  0
LINE
  5
F105B4
330
F105B5
100
AcDbEntity
8
Geo
100
AcDbLine
10
-71.5337598704073
20
-0.335001144596021
30
0.000000000000000
11
-71.4337598704073
21
-0.577633863003099
31
0.000000000000000
  0
LINE
  5
F105B6
330
F105B7
100
AcDbEntity
8
Geo
100
AcDbLine
10
-71.4337598704073
20
-0.577633863003099
30
0.000000000000000
11
-71.3337598704073
21
-0.812792562003581
31
0.000000000000000
  0
LINE
  5
F105B8
330
F105B9
100
AcDbEntity
8
Geo
100
AcDbLine
10
-71.3337598704073
20
-0.812792562003581
30
0.000000000000000
11
-71.2337598704073
21
-1.04012890134782
31
0.000000000000000
  0
LINE
  5
F105BA
330
F105BB
100
AcDbEntity
8
Geo
100
AcDbLine
10
-71.2337598704073
20
-1.04012890134782
30
0.000000000000000
11
-71.1337598704073
21
-1.25930612803655
31
0.000000000000000
  0
LINE
  5
F105BC
330
F105BD
100
AcDbEntity
8
Geo
100
AcDbLine
10
-71.1337598704073
20
-1.25930612803655
30
0.000000000000000
11
-71.0337598704073
21
-1.46999957515257
31
0.000000000000000
  0
LINE
  5
F105BE
330
F105BF
100
AcDbEntity
8
Geo
100
AcDbLine
10
-71.0337598704073
20
-1.46999957515257
30
0.000000000000000
11
-70.9337598704073
21
-1.67189714278941
31
0.000000000000000
  0
LINE
  5
F105C0
330
F105C1
100
AcDbEntity
8
Geo
100
AcDbLine
10
-70.9337598704073
20
-1.67189714278941
30
0.000000000000000
11
-70.8337598704073
21
-1.86469976036450
31
0.000000000000000
  0
LINE
  5
F105C2
330
F105C3
100
AcDbEntity
8
Geo
100
AcDbLine
10
-70.8337598704073
20
-1.86469976036450
30
0.000000000000000
11
-70.7337598704073
21
-2.04812182963197
31
0.000000000000000
  0
LINE
  5
F105C4
330
F105C5
100
AcDbEntity
8
Geo
100
AcDbLine
10
-70.7337598704073
20
-2.04812182963197
30
0.000000000000000
11
-70.6337598704073
21
-2.22189164773901
31
0.000000000000000
  0
LINE
  5
F105C6
330
F105C7
100
AcDbEntity
8
Geo
100
AcDbLine
10
-70.6337598704073
20
-2.22189164773901
30
0.000000000000000
11
-70.5337598704073
21
-2.40475432994998
31
0.000000000000000
  0
LINE
  5
F105C8
330
F105C9
100
AcDbEntity
8
Geo
100
AcDbLine
10
-70.5337598704073
20
-2.40475432994998
30
0.000000000000000
11
-70.4337598704073
21
-2.57166797863351
31
0.000000000000000
  0
LINE
  5
F105CA
330
F105CB
100
AcDbEntity
8
Geo
100
AcDbLine
10
-70.4337598704073
20
-2.57166797863351
30
0.000000000000000
11
-70.3337598704073
21
-2.72307177986283
31
0.000000000000000
  0
LINE
  5
F105CC
330
F105CD
100
AcDbEntity
8
Geo
100
AcDbLine
10
-70.3337598704073
20
-2.72307177986283
30
0.000000000000000
11
-70.2337598704073
21
-2.85944521345782
31
0.000000000000000
  0
LINE
  5
F105CE
330
F105CF
100
AcDbEntity
8
Geo
100
AcDbLine
10
-70.2337598704073
20
-2.85944521345782
30
0.000000000000000
11
-70.1337598704073
21
-2.98130267722053
31
0.000000000000000
  0
LINE
  5
F105D0
330
F105D1
100
AcDbEntity
8
Geo
100
AcDbLine
10
-70.1337598704073
20
-2.98130267722053
30
0.000000000000000
11
-70.0337598704073
21
-3.08918836322408
31
0.000000000000000
  0
LINE
  5
F105D2
330
F105D3
100
AcDbEntity
8
Geo
100
AcDbLine
10
-70.0337598704073
20
-3.08918836322408
30
0.000000000000000
11
-69.9337598704073
21
-3.18367139810044
31
0.000000000000000
  0
LINE
  5
F105D4
330
F105D5
100
AcDbEntity
8
Geo
100
AcDbLine
10
-69.9337598704073
20
-3.18367139810044
30
0.000000000000000
11
-69.8337598704073
21
-3.26534125593366
31
0.000000000000000
  0
LINE
  5
F105D6
330
F105D7
100
AcDbEntity
8
Geo
100
AcDbLine
10
-69.8337598704073
20
-3.26534125593366
30
0.000000000000000
11
-69.7337598704073
21
-3.33480344930876
31
0.000000000000000
  0
LINE
  5
F105D8
330
F105D9
100
AcDbEntity
8
Geo
100
AcDbLine
10
-69.7337598704073
20
-3.33480344930876
30
0.000000000000000
11
-69.6337598704073
21
-3.39267550129097
31
0.000000000000000
  0
LINE
  5
F105DA
330
F105DB
100
AcDbEntity
8
Geo
100
AcDbLine
10
-69.6337598704073
20
-3.39267550129097
30
0.000000000000000
11
-69.5337598704073
21
-3.43958319860754
31
0.000000000000000
  0
LINE
  5
F105DC
330
F105DD
100
AcDbEntity
8
Geo
100
AcDbLine
10
-69.5337598704073
20
-3.43958319860754
30
0.000000000000000
11
-69.4337598704073
21
-3.47615712406884
31
0.000000000000000
  0
LINE
  5
F105DE
330
F105DF
100
AcDbEntity
8
Geo
100
AcDbLine
10
-69.4337598704073
20
-3.47615712406884
30
0.000000000000000
11
-69.3337598704073
21
-3.50302946428609
31
0.000000000000000
  0
LINE
  5
F105E0
330
F105E1
100
AcDbEntity
8
Geo
100
AcDbLine
10
-69.3337598704073
20
-3.50302946428609
30
0.000000000000000
11
-69.2337598704073
21
-3.52083108700866
31
0.000000000000000
  0
LINE
  5
F105E2
330
F105E3
100
AcDbEntity
8
Geo
100
AcDbLine
10
-69.2337598704073
20
-3.52083108700866
30
0.000000000000000
11
-69.1337598704073
21
-3.53018888090259
31
0.000000000000000
  0
LINE
  5
F105E4
330
F105E5
100
AcDbEntity
8
Geo
100
AcDbLine
10
-69.1337598704073
20
-3.53018888090259
30
0.000000000000000
11
-69.0337598704073
21
-3.53204788245446
31
0.000000000000000
  0
LINE
  5
F105E6
330
F105E7
100
AcDbEntity
8
Geo
100
AcDbLine
10
-80.6337598704073
20
12.4640597691468
30
0.000000000000000
11
-80.5337598704073
21
12.4677392848792
31
0.000000000000000
  0
LINE
  5
F105E8
330
F105E9
100
AcDbEntity
8
Geo
100
AcDbLine
10
-80.5337598704073
20
12.4677392848792
30
0.000000000000000
11
-80.4337598704073
21
12.4595687271478
31
0.000000000000000
  0
LINE
  5
F105EA
330
F105EB
100
AcDbEntity
8
Geo
100
AcDbLine
10
-80.4337598704073
20
12.4595687271478
30
0.000000000000000
11
-80.3337598704073
21
12.4395601989882
31
0.000000000000000
  0
LINE
  5
F105EC
330
F105ED
100
AcDbEntity
8
Geo
100
AcDbLine
10
-80.3337598704073
20
12.4395601989882
30
0.000000000000000
11
-80.2337598704073
21
12.4077433390051
31
0.000000000000000
  0
LINE
  5
F105EE
330
F105EF
100
AcDbEntity
8
Geo
100
AcDbLine
10
-80.2337598704073
20
12.4077433390051
30
0.000000000000000
11
-80.1337598704073
21
12.3641652774684
31
0.000000000000000
  0
LINE
  5
F105F0
330
F105F1
100
AcDbEntity
8
Geo
100
AcDbLine
10
-80.1337598704073
20
12.3641652774684
30
0.000000000000000
11
-80.0337598704073
21
12.3088905664991
31
0.000000000000000
  0
LINE
  5
F105F2
330
F105F3
100
AcDbEntity
8
Geo
100
AcDbLine
10
-80.0337598704073
20
12.3088905664991
30
0.000000000000000
11
-79.9337598704073
21
12.2420010844489
31
0.000000000000000
  0
LINE
  5
F105F4
330
F105F5
100
AcDbEntity
8
Geo
100
AcDbLine
10
-79.9337598704073
20
12.2420010844489
30
0.000000000000000
11
-79.8337598704073
21
12.1635959146132
31
0.000000000000000
  0
LINE
  5
F105F6
330
F105F7
100
AcDbEntity
8
Geo
100
AcDbLine
10
-79.8337598704073
20
12.1635959146132
30
0.000000000000000
11
-79.7337598704073
21
12.0737911984598
31
0.000000000000000
  0
LINE
  5
F105F8
330
F105F9
100
AcDbEntity
8
Geo
100
AcDbLine
10
-79.7337598704073
20
12.0737911984598
30
0.000000000000000
11
-79.6337598704073
21
11.9727199635881
31
0.000000000000000
  0
LINE
  5
F105FA
330
F105FB
100
AcDbEntity
8
Geo
100
AcDbLine
10
-79.6337598704073
20
11.9727199635881
30
0.000000000000000
11
-79.5337598704073
21
11.8605319266760
31
0.000000000000000
  0
LINE
  5
F105FC
330
F105FD
100
AcDbEntity
8
Geo
100
AcDbLine
10
-79.5337598704073
20
11.8605319266760
30
0.000000000000000
11
-79.4337598704073
21
11.7373932717047
31
0.000000000000000
  0
LINE
  5
F105FE
330
F105FF
100
AcDbEntity
8
Geo
100
AcDbLine
10
-79.4337598704073
20
11.7373932717047
30
0.000000000000000
11
-79.3337598704073
21
11.6034864037902
31
0.000000000000000
  0
LINE
  5
F10600
330
F10601
100
AcDbEntity
8
Geo
100
AcDbLine
10
-79.3337598704073
20
11.6034864037902
30
0.000000000000000
11
-79.2337598704073
21
11.4590096789875
31
0.000000000000000
  0
LINE
  5
F10602
330
F10603
100
AcDbEntity
8
Geo
100
AcDbLine
10
-79.2337598704073
20
11.4590096789875
30
0.000000000000000
11
-79.1337598704073
21
11.3041771104655
31
0.000000000000000
  0
LINE
  5
F10604
330
F10605
100
AcDbEntity
8
Geo
100
AcDbLine
10
-79.1337598704073
20
11.3041771104655
30
0.000000000000000
11
-79.0337598704073
21
11.1392180514898
31
0.000000000000000
  0
LINE
  5
F10606
330
F10607
100
AcDbEntity
8
Geo
100
AcDbLine
10
-79.0337598704073
20
11.1392180514898
30
0.000000000000000
11
-78.9337598704073
21
10.9643768556822
31
0.000000000000000
  0
LINE
  5
F10608
330
F10609
100
AcDbEntity
8
Geo
100
AcDbLine
10
-78.9337598704073
20
10.9643768556822
30
0.000000000000000
11
-78.8337598704073
21
10.7799125150598
31
0.000000000000000
  0
LINE
  5
F1060A
330
F1060B
100
AcDbEntity
8
Geo
100
AcDbLine
10
-78.8337598704073
20
10.7799125150598
30
0.000000000000000
11
-78.7337598704073
21
10.5860982763905
31
0.000000000000000
  0
LINE
  5
F1060C
330
F1060D
100
AcDbEntity
8
Geo
100
AcDbLine
10
-78.7337598704073
20
10.5860982763905
30
0.000000000000000
11
-78.6337598704073
21
10.3832212364332
31
0.000000000000000
  0
LINE
  5
F1060E
330
F1060F
100
AcDbEntity
8
Geo
100
AcDbLine
10
-78.6337598704073
20
10.3832212364332
30
0.000000000000000
11
-78.5337598704073
21
10.1715819166613
31
0.000000000000000
  0
LINE
  5
F10610
330
F10611
100
AcDbEntity
8
Geo
100
AcDbLine
10
-78.5337598704073
20
10.1715819166613
30
0.000000000000000
11
-78.4337598704073
21
9.95149381810121
31
0.000000000000000
  0
LINE
  5
F10612
330
F10613
100
AcDbEntity
8
Geo
100
AcDbLine
10
-78.4337598704073
20
9.95149381810121
30
0.000000000000000
11
-78.3337598704073
21
9.72328295694328
31
0.000000000000000
  0
LINE
  5
F10614
330
F10615
100
AcDbEntity
8
Geo
100
AcDbLine
10
-78.3337598704073
20
9.72328295694328
30
0.000000000000000
11
-78.2337598704073
21
9.48728738161475
31
0.000000000000000
  0
LINE
  5
F10616
330
F10617
100
AcDbEntity
8
Geo
100
AcDbLine
10
-78.2337598704073
20
9.48728738161475
30
0.000000000000000
11
-78.1337598704073
21
9.24385667202895
31
0.000000000000000
  0
LINE
  5
F10618
330
F10619
100
AcDbEntity
8
Geo
100
AcDbLine
10
-78.1337598704073
20
9.24385667202895
30
0.000000000000000
11
-78.0337598704073
21
8.99335142175315
31
0.000000000000000
  0
LINE
  5
F1061A
330
F1061B
100
AcDbEntity
8
Geo
100
AcDbLine
10
-78.0337598704073
20
8.99335142175315
30
0.000000000000000
11
-77.9337598704073
21
8.73614270386175
31
0.000000000000000
  0
LINE
  5
F1061C
330
F1061D
100
AcDbEntity
8
Geo
100
AcDbLine
10
-77.9337598704073
20
8.73614270386175
30
0.000000000000000
11
-77.8337598704073
21
8.47261152126632
31
0.000000000000000
  0
LINE
  5
F1061E
330
F1061F
100
AcDbEntity
8
Geo
100
AcDbLine
10
-77.8337598704073
20
8.47261152126632
30
0.000000000000000
11
-77.7337598704073
21
8.20314824233646
31
0.000000000000000
  0
LINE
  5
F10620
330
F10621
100
AcDbEntity
8
Geo
100
AcDbLine
10
-77.7337598704073
20
8.20314824233646
30
0.000000000000000
11
-77.6337598704073
21
7.92815202264772
31
0.000000000000000
  0
LINE
  5
F10622
330
F10623
100
AcDbEntity
8
Geo
100
AcDbLine
10
-77.6337598704073
20
7.92815202264772
30
0.000000000000000
11
-77.5337598704073
21
7.64803021371303
31
0.000000000000000
  0
LINE
  5
F10624
330
F10625
100
AcDbEntity
8
Geo
100
AcDbLine
10
-77.5337598704073
20
7.64803021371303
30
0.000000000000000
11
-77.4337598704073
21
7.36319775957341
31
0.000000000000000
  0
LINE
  5
F10626
330
F10627
100
AcDbEntity
8
Geo
100
AcDbLine
10
-77.4337598704073
20
7.36319775957341
30
0.000000000000000
11
-77.3337598704073
21
7.07407658214203
31
0.000000000000000
  0
LINE
  5
F10628
330
F10629
100
AcDbEntity
8
Geo
100
AcDbLine
10
-77.3337598704073
20
7.07407658214203
30
0.000000000000000
11
-77.2337598704073
21
6.78109495621179
31
0.000000000000000
  0
LINE
  5
F1062A
330
F1062B
100
AcDbEntity
8
Geo
100
AcDbLine
10
-77.2337598704073
20
6.78109495621179
30
0.000000000000000
11
-77.1337598704073
21
6.48468687505255
31
0.000000000000000
  0
LINE
  5
F1062C
330
F1062D
100
AcDbEntity
8
Geo
100
AcDbLine
10
-77.1337598704073
20
6.48468687505255
30
0.000000000000000
11
-77.0337598704073
21
6.18529140753746
31
0.000000000000000
  0
LINE
  5
F1062E
330
F1062F
100
AcDbEntity
8
Geo
100
AcDbLine
10
-77.0337598704073
20
6.18529140753746
30
0.000000000000000
11
-76.9337598704073
21
5.88335204775085
31
0.000000000000000
  0
LINE
  5
F10630
330
F10631
100
AcDbEntity
8
Geo
100
AcDbLine
10
-76.9337598704073
20
5.88335204775085
30
0.000000000000000
11
-76.8337598704073
21
5.57931605804114
31
0.000000000000000
  0
LINE
  5
F10632
330
F10633
100
AcDbEntity
8
Geo
100
AcDbLine
10
-76.8337598704073
20
5.57931605804114
30
0.000000000000000
11
-76.7337598704073
21
5.27363380649165
31
0.000000000000000
  0
LINE
  5
F10634
330
F10635
100
AcDbEntity
8
Geo
100
AcDbLine
10
-76.7337598704073
20
5.27363380649165
30
0.000000000000000
11
-76.6337598704073
21
4.96675809979108
31
0.000000000000000
  0
LINE
  5
F10636
330
F10637
100
AcDbEntity
8
Geo
100
AcDbLine
10
-76.6337598704073
20
4.96675809979108
30
0.000000000000000
11
-76.5337598704073
21
4.65914351249154
31
0.000000000000000
  0
LINE
  5
F10638
330
F10639
100
AcDbEntity
8
Geo
100
AcDbLine
10
-76.5337598704073
20
4.65914351249154
30
0.000000000000000
11
-76.4337598704073
21
4.35124571364795
31
0.000000000000000
  0
LINE
  5
F1063A
330
F1063B
100
AcDbEntity
8
Geo
100
AcDbLine
10
-76.4337598704073
20
4.35124571364795
30
0.000000000000000
11
-76.3337598704073
21
4.04352079183608
31
0.000000000000000
  0
LINE
  5
F1063C
330
F1063D
100
AcDbEntity
8
Geo
100
AcDbLine
10
-76.3337598704073
20
4.04352079183608
30
0.000000000000000
11
-76.2337598704073
21
3.73642457954920
31
0.000000000000000
  0
LINE
  5
F1063E
330
F1063F
100
AcDbEntity
8
Geo
100
AcDbLine
10
-76.2337598704073
20
3.73642457954920
30
0.000000000000000
11
-76.1337598704073
21
3.43041197797405
31
0.000000000000000
  0
LINE
  5
F10640
330
F10641
100
AcDbEntity
8
Geo
100
AcDbLine
10
-76.1337598704073
20
3.43041197797405
30
0.000000000000000
11
-76.0337598704073
21
3.12593628314633
31
0.000000000000000
  0
LINE
  5
F10642
330
F10643
100
AcDbEntity
8
Geo
100
AcDbLine
10
-76.0337598704073
20
3.12593628314633
30
0.000000000000000
11
-75.9337598704073
21
2.82344851448397
31
0.000000000000000
  0
LINE
  5
F10644
330
F10645
100
AcDbEntity
8
Geo
100
AcDbLine
10
-75.9337598704073
20
2.82344851448397
30
0.000000000000000
11
-75.8337598704073
21
2.52339674669265
31
0.000000000000000
  0
LINE
  5
F10646
330
F10647
100
AcDbEntity
8
Geo
100
AcDbLine
10
-75.8337598704073
20
2.52339674669265
30
0.000000000000000
11
-75.7337598704073
21
2.22622544603339
31
0.000000000000000
  0
LINE
  5
F10648
330
F10649
100
AcDbEntity
8
Geo
100
AcDbLine
10
-75.7337598704073
20
2.22622544603339
30
0.000000000000000
11
-75.6337598704073
21
1.93237481193531
31
0.000000000000000
  0
LINE
  5
F1064A
330
F1064B
100
AcDbEntity
8
Geo
100
AcDbLine
10
-75.6337598704073
20
1.93237481193531
30
0.000000000000000
11
-75.5337598704073
21
1.64228012492884
31
0.000000000000000
  0
LINE
  5
F1064C
330
F1064D
100
AcDbEntity
8
Geo
100
AcDbLine
10
-75.5337598704073
20
1.64228012492884
30
0.000000000000000
11
-75.4337598704073
21
1.35637110186526
31
0.000000000000000
  0
LINE
  5
F1064E
330
F1064F
100
AcDbEntity
8
Geo
100
AcDbLine
10
-75.4337598704073
20
1.35637110186526
30
0.000000000000000
11
-75.3337598704073
21
1.07507125937775
31
0.000000000000000
  0
LINE
  5
F10650
330
F10651
100
AcDbEntity
8
Geo
100
AcDbLine
10
-75.3337598704073
20
1.07507125937775
30
0.000000000000000
11
-75.2337598704073
21
0.798797286526785
31
0.000000000000000
  0
LINE
  5
F10652
330
F10653
100
AcDbEntity
8
Geo
100
AcDbLine
10
-75.2337598704073
20
0.798797286526785
30
0.000000000000000
11
-75.1337598704073
21
0.527958427559243
31
0.000000000000000
  0
LINE
  5
F10654
330
F10655
100
AcDbEntity
8
Geo
100
AcDbLine
10
-75.1337598704073
20
0.527958427559243
30
0.000000000000000
11
-75.0337598704073
21
0.262955875695454
31
0.000000000000000
  0
LINE
  5
F10656
330
F10657
100
AcDbEntity
8
Geo
100
AcDbLine
10
-75.0337598704073
20
0.262955875695454
30
0.000000000000000
11
-74.9337598704073
21
0.00418217884224070
31
0.000000000000000
  0
LINE
  5
F10658
330
F10659
100
AcDbEntity
8
Geo
100
AcDbLine
10
-74.9337598704073
20
0.00418217884224070
30
0.000000000000000
11
-74.8337598704073
21
-0.247979341887689
31
0.000000000000000
  0
LINE
  5
F1065A
330
F1065B
100
AcDbEntity
8
Geo
100
AcDbLine
10
-74.8337598704073
20
-0.247979341887689
30
0.000000000000000
11
-74.7337598704073
21
-0.493155159988843
31
0.000000000000000
  0
LINE
  5
F1065C
330
F1065D
100
AcDbEntity
8
Geo
100
AcDbLine
10
-74.7337598704073
20
-0.493155159988843
30
0.000000000000000
11
-74.6337598704073
21
-0.730982096867184
31
0.000000000000000
  0
LINE
  5
F1065E
330
F1065F
100
AcDbEntity
8
Geo
100
AcDbLine
10
-74.6337598704073
20
-0.730982096867184
30
0.000000000000000
11
-74.5337598704073
21
-0.961107859816076
31
0.000000000000000
  0
LINE
  5
F10660
330
F10661
100
AcDbEntity
8
Geo
100
AcDbLine
10
-74.5337598704073
20
-0.961107859816076
30
0.000000000000000
11
-74.4337598704073
21
-1.18319156386698
31
0.000000000000000
  0
LINE
  5
F10662
330
F10663
100
AcDbEntity
8
Geo
100
AcDbLine
10
-74.4337598704073
20
-1.18319156386698
30
0.000000000000000
11
-74.3337598704073
21
-1.39690423674188
31
0.000000000000000
  0
LINE
  5
F10664
330
F10665
100
AcDbEntity
8
Geo
100
AcDbLine
10
-74.3337598704073
20
-1.39690423674188
30
0.000000000000000
11
-74.2337598704073
21
-1.60192930615944
31
0.000000000000000
  0
LINE
  5
F10666
330
F10667
100
AcDbEntity
8
Geo
100
AcDbLine
10
-74.2337598704073
20
-1.60192930615944
30
0.000000000000000
11
-74.1337598704073
21
-1.79796306877310
31
0.000000000000000
  0
LINE
  5
F10668
330
F10669
100
AcDbEntity
8
Geo
100
AcDbLine
10
-74.1337598704073
20
-1.79796306877310
30
0.000000000000000
11
-74.0337598704073
21
-1.98471514004640
31
0.000000000000000
  0
LINE
  5
F1066A
330
F1066B
100
AcDbEntity
8
Geo
100
AcDbLine
10
-74.0337598704073
20
-1.98471514004640
30
0.000000000000000
11
-73.9337598704073
21
-2.16190888439919
31
0.000000000000000
  0
LINE
  5
F1066C
330
F1066D
100
AcDbEntity
8
Geo
100
AcDbLine
10
-73.9337598704073
20
-2.16190888439919
30
0.000000000000000
11
-73.8337598704073
21
-2.32928182498753
31
0.000000000000000
  0
LINE
  5
F1066E
330
F1066F
100
AcDbEntity
8
Geo
100
AcDbLine
10
-73.8337598704073
20
-2.32928182498753
30
0.000000000000000
11
-73.7337598704073
21
-2.48658603251026
31
0.000000000000000
  0
LINE
  5
F10670
330
F10671
100
AcDbEntity
8
Geo
100
AcDbLine
10
-73.7337598704073
20
-2.48658603251026
30
0.000000000000000
11
-73.6337598704073
21
-2.63358849246633
31
0.000000000000000
  0
LINE
  5
F10672
330
F10673
100
AcDbEntity
8
Geo
100
AcDbLine
10
-73.6337598704073
20
-2.63358849246633
30
0.000000000000000
11
-73.5337598704073
21
-2.77007145031884
31
0.000000000000000
  0
LINE
  5
F10674
330
F10675
100
AcDbEntity
8
Geo
100
AcDbLine
10
-73.5337598704073
20
-2.77007145031884
30
0.000000000000000
11
-73.4337598704073
21
-2.89583273405457
31
0.000000000000000
  0
LINE
  5
F10676
330
F10677
100
AcDbEntity
8
Geo
100
AcDbLine
10
-73.4337598704073
20
-2.89583273405457
30
0.000000000000000
11
-73.3337598704073
21
-3.01068605366103
31
0.000000000000000
  0
LINE
  5
F10678
330
F10679
100
AcDbEntity
8
Geo
100
AcDbLine
10
-73.3337598704073
20
-3.01068605366103
30
0.000000000000000
11
-73.2337598704073
21
-3.11446127707766
31
0.000000000000000
  0
LINE
  5
F1067A
330
F1067B
100
AcDbEntity
8
Geo
100
AcDbLine
10
-73.2337598704073
20
-3.11446127707766
30
0.000000000000000
11
-73.1337598704073
21
-3.20700468221217
31
0.000000000000000
  0
LINE
  5
F1067C
330
F1067D
100
AcDbEntity
8
Geo
100
AcDbLine
10
-73.1337598704073
20
-3.20700468221217
30
0.000000000000000
11
-73.0337598704073
21
-3.28817918464888
31
0.000000000000000
  0
LINE
  5
F1067E
330
F1067F
100
AcDbEntity
8
Geo
100
AcDbLine
10
-73.0337598704073
20
-3.28817918464888
30
0.000000000000000
11
-72.9337598704073
21
-3.35786454071165
31
0.000000000000000
  0
LINE
  5
F10680
330
F10681
100
AcDbEntity
8
Geo
100
AcDbLine
10
-72.9337598704073
20
-3.35786454071165
30
0.000000000000000
11
-72.8337598704073
21
-3.41595752558070
31
0.000000000000000
  0
LINE
  5
F10682
330
F10683
100
AcDbEntity
8
Geo
100
AcDbLine
10
-72.8337598704073
20
-3.41595752558070
30
0.000000000000000
11
-72.7337598704073
21
-3.46237208619937
31
0.000000000000000
  0
LINE
  5
F10684
330
F10685
100
AcDbEntity
8
Geo
100
AcDbLine
10
-72.7337598704073
20
-3.46237208619937
30
0.000000000000000
11
-72.6337598704073
21
-3.49703946874437
31
0.000000000000000
  0
LINE
  5
F10686
330
F10687
100
AcDbEntity
8
Geo
100
AcDbLine
10
-72.6337598704073
20
-3.49703946874437
30
0.000000000000000
11
-72.5337598704073
21
-3.51990832047078
31
0.000000000000000
  0
LINE
  5
F10688
330
F10689
100
AcDbEntity
8
Geo
100
AcDbLine
10
-72.5337598704073
20
-3.51990832047078
30
0.000000000000000
11
-72.4337598704073
21
-3.53094476578073
31
0.000000000000000
  0
LINE
  5
F1068A
330
F1068B
100
AcDbEntity
8
Geo
100
AcDbLine
10
-84.6337598704073
20
11.4592697086622
30
0.000000000000000
11
-84.5337598704073
21
11.8877638515498
31
0.000000000000000
  0
LINE
  5
F1068C
330
F1068D
100
AcDbEntity
8
Geo
100
AcDbLine
10
-84.6337598704073
20
4.41871172989493
30
0.000000000000000
11
-84.5337598704073
21
4.13294543113288
31
0.000000000000000
  0
LINE
  5
F1068E
330
F1068F
100
AcDbEntity
8
Geo
100
AcDbLine
10
-84.5337598704073
20
11.8877638515498
30
0.000000000000000
11
-84.4337598704073
21
12.0330012369702
31
0.000000000000000
  0
LINE
  5
F10690
330
F10691
100
AcDbEntity
8
Geo
100
AcDbLine
10
-84.5337598704073
20
4.13294543113288
30
0.000000000000000
11
-84.4337598704073
21
3.83505464902068
31
0.000000000000000
  0
LINE
  5
F10692
330
F10693
100
AcDbEntity
8
Geo
100
AcDbLine
10
-84.4337598704073
20
12.0330012369702
30
0.000000000000000
11
-84.3337598704073
21
12.1164267038686
31
0.000000000000000
  0
LINE
  5
F10694
330
F10695
100
AcDbEntity
8
Geo
100
AcDbLine
10
-84.4337598704073
20
3.83505464902068
30
0.000000000000000
11
-84.3337598704073
21
3.53126560774731
31
0.000000000000000
  0
LINE
  5
F10696
330
F10697
100
AcDbEntity
8
Geo
100
AcDbLine
10
-84.3337598704073
20
12.1164267038686
30
0.000000000000000
11
-84.2337598704073
21
12.1595592865752
31
0.000000000000000
  0
LINE
  5
F10698
330
F10699
100
AcDbEntity
8
Geo
100
AcDbLine
10
-84.3337598704073
20
3.53126560774731
30
0.000000000000000
11
-84.2337598704073
21
3.22447570894286
31
0.000000000000000
  0
LINE
  5
F1069A
330
F1069B
100
AcDbEntity
8
Geo
100
AcDbLine
10
-84.2337598704073
20
12.1595592865752
30
0.000000000000000
11
-84.1337598704073
21
12.1708193708297
31
0.000000000000000
  0
LINE
  5
F1069C
330
F1069D
100
AcDbEntity
8
Geo
100
AcDbLine
10
-84.2337598704073
20
3.22447570894286
30
0.000000000000000
11
-84.1337598704073
21
2.91679138003967
31
0.000000000000000
  0
LINE
  5
F1069E
330
F1069F
100
AcDbEntity
8
Geo
100
AcDbLine
10
-84.1337598704073
20
12.1708193708297
30
0.000000000000000
11
-84.0337598704073
21
12.1545740992948
31
0.000000000000000
  0
LINE
  5
F106A0
330
F106A1
100
AcDbEntity
8
Geo
100
AcDbLine
10
-84.1337598704073
20
2.91679138003967
30
0.000000000000000
11
-84.0337598704073
21
2.60997321216752
31
0.000000000000000
  0
LINE
  5
F106A2
330
F106A3
100
AcDbEntity
8
Geo
100
AcDbLine
10
-84.0337598704073
20
12.1545740992948
30
0.000000000000000
11
-83.9337598704073
21
12.1134589280250
31
0.000000000000000
  0
LINE
  5
F106A4
330
F106A5
100
AcDbEntity
8
Geo
100
AcDbLine
10
-84.0337598704073
20
2.60997321216752
30
0.000000000000000
11
-83.9337598704073
21
2.30560253295266
31
0.000000000000000
  0
LINE
  5
F106A6
330
F106A7
100
AcDbEntity
8
Geo
100
AcDbLine
10
-83.9337598704073
20
12.1134589280250
30
0.000000000000000
11
-83.8337598704073
21
12.0492285148460
31
0.000000000000000
  0
LINE
  5
F106A8
330
F106A9
100
AcDbEntity
8
Geo
100
AcDbLine
10
-83.9337598704073
20
2.30560253295266
30
0.000000000000000
11
-83.8337598704073
21
2.00516446008238
31
0.000000000000000
  0
LINE
  5
F106AA
330
F106AB
100
AcDbEntity
8
Geo
100
AcDbLine
10
-83.8337598704073
20
12.0492285148460
30
0.000000000000000
11
-83.7337598704073
21
11.9631332367058
31
0.000000000000000
  0
LINE
  5
F106AC
330
F106AD
100
AcDbEntity
8
Geo
100
AcDbLine
10
-83.8337598704073
20
2.00516446008238
30
0.000000000000000
11
-83.7337598704073
21
1.71009921889690
31
0.000000000000000
  0
LINE
  5
F106AE
330
F106AF
100
AcDbEntity
8
Geo
100
AcDbLine
10
-83.7337598704073
20
11.9631332367058
30
0.000000000000000
11
-83.6337598704073
21
11.8561041597380
31
0.000000000000000
  0
LINE
  5
F106B0
330
F106B1
100
AcDbEntity
8
Geo
100
AcDbLine
10
-83.7337598704073
20
1.71009921889690
30
0.000000000000000
11
-83.6337598704073
21
1.42184134160295
31
0.000000000000000
  0
LINE
  5
F106B2
330
F106B3
100
AcDbEntity
8
Geo
100
AcDbLine
10
-83.6337598704073
20
11.8561041597380
30
0.000000000000000
11
-83.5337598704073
21
11.7334162189028
31
0.000000000000000
  0
LINE
  5
F106B4
330
F106B5
100
AcDbEntity
8
Geo
100
AcDbLine
10
-83.6337598704073
20
1.42184134160295
30
0.000000000000000
11
-83.5337598704073
21
1.13979754635219
31
0.000000000000000
  0
LINE
  5
F106B6
330
F106B7
100
AcDbEntity
8
Geo
100
AcDbLine
10
-83.5337598704073
20
11.7334162189028
30
0.000000000000000
11
-83.4337598704073
21
11.5999659563272
31
0.000000000000000
  0
LINE
  5
F106B8
330
F106B9
100
AcDbEntity
8
Geo
100
AcDbLine
10
-83.5337598704073
20
1.13979754635219
30
0.000000000000000
11
-83.4337598704073
21
0.862683741780257
31
0.000000000000000
  0
LINE
  5
F106BA
330
F106BB
100
AcDbEntity
8
Geo
100
AcDbLine
10
-83.4337598704073
20
11.5999659563272
30
0.000000000000000
11
-83.3337598704073
21
11.4559510516972
31
0.000000000000000
  0
LINE
  5
F106BC
330
F106BD
100
AcDbEntity
8
Geo
100
AcDbLine
10
-83.4337598704073
20
0.862683741780257
30
0.000000000000000
11
-83.3337598704073
21
0.590910416175555
31
0.000000000000000
  0
LINE
  5
F106BE
330
F106BF
100
AcDbEntity
8
Geo
100
AcDbLine
10
-83.3337598704073
20
11.4559510516972
30
0.000000000000000
11
-83.2337598704073
21
11.3015848340882
31
0.000000000000000
  0
LINE
  5
F106C0
330
F106C1
100
AcDbEntity
8
Geo
100
AcDbLine
10
-83.3337598704073
20
0.590910416175555
30
0.000000000000000
11
-83.2337598704073
21
0.324880146982533
31
0.000000000000000
  0
LINE
  5
F106C2
330
F106C3
100
AcDbEntity
8
Geo
100
AcDbLine
10
-83.2337598704073
20
11.3015848340882
30
0.000000000000000
11
-83.1337598704073
21
11.1370959659608
31
0.000000000000000
  0
LINE
  5
F106C4
330
F106C5
100
AcDbEntity
8
Geo
100
AcDbLine
10
-83.2337598704073
20
0.324880146982533
30
0.000000000000000
11
-83.1337598704073
21
0.0649870044642560
31
0.000000000000000
  0
LINE
  5
F106C6
330
F106C7
100
AcDbEntity
8
Geo
100
AcDbLine
10
-83.1337598704073
20
11.1370959659608
30
0.000000000000000
11
-83.0337598704073
21
10.9627281044439
31
0.000000000000000
  0
LINE
  5
F106C8
330
F106C9
100
AcDbEntity
8
Geo
100
AcDbLine
10
-83.1337598704073
20
0.0649870044642560
30
0.000000000000000
11
-83.0337598704073
21
-0.188384032033301
31
0.000000000000000
  0
LINE
  5
F106CA
330
F106CB
100
AcDbEntity
8
Geo
100
AcDbLine
10
-83.0337598704073
20
10.9627281044439
30
0.000000000000000
11
-82.9337598704073
21
10.7787395404051
31
0.000000000000000
  0
LINE
  5
F106CC
330
F106CD
100
AcDbEntity
8
Geo
100
AcDbLine
10
-83.0337598704073
20
-0.188384032033301
30
0.000000000000000
11
-82.9337598704073
21
-0.434857644350637
31
0.000000000000000
  0
LINE
  5
F106CE
330
F106CF
100
AcDbEntity
8
Geo
100
AcDbLine
10
-82.9337598704073
20
10.7787395404051
30
0.000000000000000
11
-82.8337598704073
21
10.5854028158451
31
0.000000000000000
  0
LINE
  5
F106D0
330
F106D1
100
AcDbEntity
8
Geo
100
AcDbLine
10
-82.9337598704073
20
-0.434857644350637
30
0.000000000000000
11
-82.8337598704073
21
-0.674068731472966
31
0.000000000000000
  0
LINE
  5
F106D2
330
F106D3
100
AcDbEntity
8
Geo
100
AcDbLine
10
-82.8337598704073
20
10.5854028158451
30
0.000000000000000
11
-82.7337598704073
21
10.3830043201817
31
0.000000000000000
  0
LINE
  5
F106D4
330
F106D5
100
AcDbEntity
8
Geo
100
AcDbLine
10
-82.8337598704073
20
-0.674068731472966
30
0.000000000000000
11
-82.7337598704073
21
-0.905662950353841
31
0.000000000000000
  0
LINE
  5
F106D6
330
F106D7
100
AcDbEntity
8
Geo
100
AcDbLine
10
-82.7337598704073
20
10.3830043201817
30
0.000000000000000
11
-82.6337598704073
21
10.1718438660216
31
0.000000000000000
  0
LINE
  5
F106D8
330
F106D9
100
AcDbEntity
8
Geo
100
AcDbLine
10
-82.7337598704073
20
-0.905662950353841
30
0.000000000000000
11
-82.6337598704073
21
-1.12929724080303
31
0.000000000000000
  0
LINE
  5
F106DA
330
F106DB
100
AcDbEntity
8
Geo
100
AcDbLine
10
-82.6337598704073
20
10.1718438660216
30
0.000000000000000
11
-82.5337598704073
21
9.95223424504799
31
0.000000000000000
  0
LINE
  5
F106DC
330
F106DD
100
AcDbEntity
8
Geo
100
AcDbLine
10
-82.6337598704073
20
-1.12929724080303
30
0.000000000000000
11
-82.5337598704073
21
-1.34464033366106
31
0.000000000000000
  0
LINE
  5
F106DE
330
F106DF
100
AcDbEntity
8
Geo
100
AcDbLine
10
-82.5337598704073
20
9.95223424504799
30
0.000000000000000
11
-82.4337598704073
21
9.72450076468317
31
0.000000000000000
  0
LINE
  5
F106E0
330
F106E1
100
AcDbEntity
8
Geo
100
AcDbLine
10
-82.5337598704073
20
-1.34464033366106
30
0.000000000000000
11
-82.4337598704073
21
-1.55137324150777
31
0.000000000000000
  0
LINE
  5
F106E2
330
F106E3
100
AcDbEntity
8
Geo
100
AcDbLine
10
-82.4337598704073
20
9.72450076468317
30
0.000000000000000
11
-82.3337598704073
21
9.48898076621085
31
0.000000000000000
  0
LINE
  5
F106E4
330
F106E5
100
AcDbEntity
8
Geo
100
AcDbLine
10
-82.4337598704073
20
-1.55137324150777
30
0.000000000000000
11
-82.3337598704073
21
-1.74918973117795
31
0.000000000000000
  0
LINE
  5
F106E6
330
F106E7
100
AcDbEntity
8
Geo
100
AcDbLine
10
-82.3337598704073
20
9.48898076621085
30
0.000000000000000
11
-82.2337598704073
21
9.24602312507306
31
0.000000000000000
  0
LINE
  5
F106E8
330
F106E9
100
AcDbEntity
8
Geo
100
AcDbLine
10
-82.3337598704073
20
-1.74918973117795
30
0.000000000000000
11
-82.2337598704073
21
-1.93779677738405
31
0.000000000000000
  0
LINE
  5
F106EA
330
F106EB
100
AcDbEntity
8
Geo
100
AcDbLine
10
-82.2337598704073
20
9.24602312507306
30
0.000000000000000
11
-82.1337598704073
21
8.99598773408142
31
0.000000000000000
  0
LINE
  5
F106EC
330
F106ED
100
AcDbEntity
8
Geo
100
AcDbLine
10
-82.2337598704073
20
-1.93779677738405
30
0.000000000000000
11
-82.1337598704073
21
-2.11691499677417
31
0.000000000000000
  0
LINE
  5
F106EE
330
F106EF
100
AcDbEntity
8
Geo
100
AcDbLine
10
-82.1337598704073
20
8.99598773408142
30
0.000000000000000
11
-82.0337598704073
21
8.73924497030845
31
0.000000000000000
  0
LINE
  5
F106F0
330
F106F1
100
AcDbEntity
8
Geo
100
AcDbLine
10
-82.1337598704073
20
-2.11691499677417
30
0.000000000000000
11
-82.0337598704073
21
-2.28627906178221
31
0.000000000000000
  0
LINE
  5
F106F2
330
F106F3
100
AcDbEntity
8
Geo
100
AcDbLine
10
-82.0337598704073
20
8.73924497030845
30
0.000000000000000
11
-81.9337598704073
21
8.47617514644852
31
0.000000000000000
  0
LINE
  5
F106F4
330
F106F5
100
AcDbEntity
8
Geo
100
AcDbLine
10
-82.0337598704073
20
-2.28627906178221
30
0.000000000000000
11
-81.9337598704073
21
-2.44563809365721
31
0.000000000000000
  0
LINE
  5
F106F6
330
F106F7
100
AcDbEntity
8
Geo
100
AcDbLine
10
-81.9337598704073
20
8.47617514644852
30
0.000000000000000
11
-81.8337598704073
21
8.20716794746119
31
0.000000000000000
  0
LINE
  5
F106F8
330
F106F9
100
AcDbEntity
8
Geo
100
AcDbLine
10
-81.9337598704073
20
-2.44563809365721
30
0.000000000000000
11
-81.8337598704073
21
-2.59475603408970
31
0.000000000000000
  0
LINE
  5
F106FA
330
F106FB
100
AcDbEntity
8
Geo
100
AcDbLine
10
-81.8337598704073
20
8.20716794746119
30
0.000000000000000
11
-81.7337598704073
21
7.93262185333146
31
0.000000000000000
  0
LINE
  5
F106FC
330
F106FD
100
AcDbEntity
8
Geo
100
AcDbLine
10
-81.8337598704073
20
-2.59475603408970
30
0.000000000000000
11
-81.7337598704073
21
-2.73341199488454
31
0.000000000000000
  0
LINE
  5
F106FE
330
F106FF
100
AcDbEntity
8
Geo
100
AcDbLine
10
-81.7337598704073
20
7.93262185333146
30
0.000000000000000
11
-81.6337598704073
21
7.65294354880187
31
0.000000000000000
  0
LINE
  5
F10700
330
F10701
100
AcDbEntity
8
Geo
100
AcDbLine
10
-81.7337598704073
20
-2.73341199488454
30
0.000000000000000
11
-81.6337598704073
21
-2.86140058516228
31
0.000000000000000
  0
LINE
  5
F10702
330
F10703
100
AcDbEntity
8
Geo
100
AcDbLine
10
-81.6337598704073
20
7.65294354880187
30
0.000000000000000
11
-81.5337598704073
21
7.36854732095101
31
0.000000000000000
  0
LINE
  5
F10704
330
F10705
100
AcDbEntity
8
Geo
100
AcDbLine
10
-81.6337598704073
20
-2.86140058516228
30
0.000000000000000
11
-81.5337598704073
21
-2.97853221560442
31
0.000000000000000
  0
LINE
  5
F10706
330
F10707
100
AcDbEntity
8
Geo
100
AcDbLine
10
-81.5337598704073
20
7.36854732095101
30
0.000000000000000
11
-81.4337598704073
21
7.07985444551065
31
0.000000000000000
  0
LINE
  5
F10708
330
F10709
100
AcDbEntity
8
Geo
100
AcDbLine
10
-81.5337598704073
20
-2.97853221560442
30
0.000000000000000
11
-81.4337598704073
21
-3.08463337929176
31
0.000000000000000
  0
LINE
  5
F1070A
330
F1070B
100
AcDbEntity
8
Geo
100
AcDbLine
10
-81.4337598704073
20
7.07985444551065
30
0.000000000000000
11
-81.3337598704073
21
6.78729256283056
31
0.000000000000000
  0
LINE
  5
F1070C
330
F1070D
100
AcDbEntity
8
Geo
100
AcDbLine
10
-81.4337598704073
20
-3.08463337929176
30
0.000000000000000
11
-81.3337598704073
21
-3.17954690871995
31
0.000000000000000
  0
LINE
  5
F1070E
330
F1070F
100
AcDbEntity
8
Geo
100
AcDbLine
10
-81.3337598704073
20
6.78729256283056
30
0.000000000000000
11
-81.2337598704073
21
6.49129504441552
31
0.000000000000000
  0
LINE
  5
F10710
330
F10711
100
AcDbEntity
8
Geo
100
AcDbLine
10
-81.3337598704073
20
-3.17954690871995
30
0.000000000000000
11
-81.2337598704073
21
-3.26313220861155
31
0.000000000000000
  0
LINE
  5
F10712
330
F10713
100
AcDbEntity
8
Geo
100
AcDbLine
10
-81.2337598704073
20
6.49129504441552
30
0.000000000000000
11
-81.1337598704073
21
6.19230035097265
31
0.000000000000000
  0
LINE
  5
F10714
330
F10715
100
AcDbEntity
8
Geo
100
AcDbLine
10
-81.2337598704073
20
-3.26313220861155
30
0.000000000000000
11
-81.1337598704073
21
-3.33526546417954
31
0.000000000000000
  0
LINE
  5
F10716
330
F10717
100
AcDbEntity
8
Geo
100
AcDbLine
10
-81.1337598704073
20
6.19230035097265
30
0.000000000000000
11
-81.0337598704073
21
5.89075138292024
31
0.000000000000000
  0
LINE
  5
F10718
330
F10719
100
AcDbEntity
8
Geo
100
AcDbLine
10
-81.1337598704073
20
-3.33526546417954
30
0.000000000000000
11
-81.0337598704073
21
-3.39583982453404
31
0.000000000000000
  0
LINE
  5
F1071A
330
F1071B
100
AcDbEntity
8
Geo
100
AcDbLine
10
-81.0337598704073
20
5.89075138292024
30
0.000000000000000
11
-80.9337598704073
21
5.58709482431995
31
0.000000000000000
  0
LINE
  5
F1071C
330
F1071D
100
AcDbEntity
8
Geo
100
AcDbLine
10
-81.0337598704073
20
-3.39583982453404
30
0.000000000000000
11
-80.9337598704073
21
-3.44476556096039
31
0.000000000000000
  0
LINE
  5
F1071E
330
F1071F
100
AcDbEntity
8
Geo
100
AcDbLine
10
-80.9337598704073
20
5.58709482431995
30
0.000000000000000
11
-80.8337598704073
21
5.28178048120436
31
0.000000000000000
  0
LINE
  5
F10720
330
F10721
100
AcDbEntity
8
Geo
100
AcDbLine
10
-80.9337598704073
20
-3.44476556096039
30
0.000000000000000
11
-80.8337598704073
21
-3.48197019983411
31
0.000000000000000
  0
LINE
  5
F10722
330
F10723
100
AcDbEntity
8
Geo
100
AcDbLine
10
-80.8337598704073
20
5.28178048120436
30
0.000000000000000
11
-80.7337598704073
21
4.97526061527990
31
0.000000000000000
  0
LINE
  5
F10724
330
F10725
100
AcDbEntity
8
Geo
100
AcDbLine
10
-80.8337598704073
20
-3.48197019983411
30
0.000000000000000
11
-80.7337598704073
21
-3.50739862997604
31
0.000000000000000
  0
LINE
  5
F10726
330
F10727
100
AcDbEntity
8
Geo
100
AcDbLine
10
-80.7337598704073
20
4.97526061527990
30
0.000000000000000
11
-80.6337598704073
21
4.66798927399226
31
0.000000000000000
  0
LINE
  5
F10728
330
F10729
100
AcDbEntity
8
Geo
100
AcDbLine
10
-80.7337598704073
20
-3.50739862997604
30
0.000000000000000
11
-80.6337598704073
21
-3.52101318428844
31
0.000000000000000
  0
LINE
  5
F1072A
330
F1072B
100
AcDbEntity
8
Geo
100
AcDbLine
10
-80.6337598704073
20
4.66798927399226
30
0.000000000000000
11
-80.5337598704073
21
4.36042161794651
31
0.000000000000000
  0
LINE
  5
F1072C
330
F1072D
100
AcDbEntity
8
Geo
100
AcDbLine
10
-80.5337598704073
20
4.36042161794651
30
0.000000000000000
11
-80.4337598704073
21
4.05301324667837
31
0.000000000000000
  0
LINE
  5
F1072E
330
F1072F
100
AcDbEntity
8
Geo
100
AcDbLine
10
-80.5337598704073
20
12.4586979306422
30
0.000000000000000
11
-80.4337598704073
21
12.4486417613865
31
0.000000000000000
  0
LINE
  5
F10730
330
F10731
100
AcDbEntity
8
Geo
100
AcDbLine
10
-80.4337598704073
20
4.05301324667837
30
0.000000000000000
11
-80.3337598704073
21
3.74621952377523
31
0.000000000000000
  0
LINE
  5
F10732
330
F10733
100
AcDbEntity
8
Geo
100
AcDbLine
10
-80.4337598704073
20
12.4486417613865
30
0.000000000000000
11
-80.3337598704073
21
12.4267638078016
31
0.000000000000000
  0
LINE
  5
F10734
330
F10735
100
AcDbEntity
8
Geo
100
AcDbLine
10
-80.3337598704073
20
3.74621952377523
30
0.000000000000000
11
-80.2337598704073
21
3.44049490234673
31
0.000000000000000
  0
LINE
  5
F10736
330
F10737
100
AcDbEntity
8
Geo
100
AcDbLine
10
-80.3337598704073
20
12.4267638078016
30
0.000000000000000
11
-80.2337598704073
21
12.3930964776694
31
0.000000000000000
  0
LINE
  5
F10738
330
F10739
100
AcDbEntity
8
Geo
100
AcDbLine
10
-80.2337598704073
20
3.44049490234673
30
0.000000000000000
11
-80.1337598704073
21
3.13629225184400
31
0.000000000000000
  0
LINE
  5
F1073A
330
F1073B
100
AcDbEntity
8
Geo
100
AcDbLine
10
-80.2337598704073
20
12.3930964776694
30
0.000000000000000
11
-80.1337598704073
21
12.3476896423585
31
0.000000000000000
  0
LINE
  5
F1073C
330
F1073D
100
AcDbEntity
8
Geo
100
AcDbLine
10
-80.1337598704073
20
3.13629225184400
30
0.000000000000000
11
-80.0337598704073
21
2.83406218722477
31
0.000000000000000
  0
LINE
  5
F1073E
330
F1073F
100
AcDbEntity
8
Geo
100
AcDbLine
10
-80.1337598704073
20
12.3476896423585
30
0.000000000000000
11
-80.0337598704073
21
12.2906105629503
31
0.000000000000000
  0
LINE
  5
F10740
330
F10741
100
AcDbEntity
8
Geo
100
AcDbLine
10
-80.0337598704073
20
2.83406218722477
30
0.000000000000000
11
-79.9337598704073
21
2.53425240145810
31
0.000000000000000
  0
LINE
  5
F10742
330
F10743
100
AcDbEntity
8
Geo
100
AcDbLine
10
-80.0337598704073
20
12.2906105629503
30
0.000000000000000
11
-79.9337598704073
21
12.2219437906046
31
0.000000000000000
  0
LINE
  5
F10744
330
F10745
100
AcDbEntity
8
Geo
100
AcDbLine
10
-79.9337598704073
20
2.53425240145810
30
0.000000000000000
11
-79.8337598704073
21
2.23730700235738
31
0.000000000000000
  0
LINE
  5
F10746
330
F10747
100
AcDbEntity
8
Geo
100
AcDbLine
10
-79.9337598704073
20
12.2219437906046
30
0.000000000000000
11
-79.8337598704073
21
12.1417910413146
31
0.000000000000000
  0
LINE
  5
F10748
330
F10749
100
AcDbEntity
8
Geo
100
AcDbLine
10
-79.8337598704073
20
2.23730700235738
30
0.000000000000000
11
-79.7337598704073
21
1.94366585472407
31
0.000000000000000
  0
LINE
  5
F1074A
330
F1074B
100
AcDbEntity
8
Geo
100
AcDbLine
10
-79.8337598704073
20
12.1417910413146
30
0.000000000000000
11
-79.7337598704073
21
12.0502710452350
31
0.000000000000000
  0
LINE
  5
F1074C
330
F1074D
100
AcDbEntity
8
Geo
100
AcDbLine
10
-79.7337598704073
20
1.94366585472407
30
0.000000000000000
11
-79.6337598704073
21
1.65376392877659
31
0.000000000000000
  0
LINE
  5
F1074E
330
F1074F
100
AcDbEntity
8
Geo
100
AcDbLine
10
-79.7337598704073
20
12.0502710452350
30
0.000000000000000
11
-79.6337598704073
21
11.9475193708069
31
0.000000000000000
  0
LINE
  5
F10750
330
F10751
100
AcDbEntity
8
Geo
100
AcDbLine
10
-79.6337598704073
20
1.65376392877659
30
0.000000000000000
11
-79.5337598704073
21
1.36803065582952
31
0.000000000000000
  0
LINE
  5
F10752
330
F10753
100
AcDbEntity
8
Geo
100
AcDbLine
10
-79.6337598704073
20
11.9475193708069
30
0.000000000000000
11
-79.5337598704073
21
11.8336882239411
31
0.000000000000000
  0
LINE
  5
F10754
330
F10755
100
AcDbEntity
8
Geo
100
AcDbLine
10
-79.5337598704073
20
1.36803065582952
30
0.000000000000000
11
-79.4337598704073
21
1.08688929217766
31
0.000000000000000
  0
LINE
  5
F10756
330
F10757
100
AcDbEntity
8
Geo
100
AcDbLine
10
-79.5337598704073
20
11.8336882239411
30
0.000000000000000
11
-79.4337598704073
21
11.7089462225550
31
0.000000000000000
  0
LINE
  5
F10758
330
F10759
100
AcDbEntity
8
Geo
100
AcDbLine
10
-79.4337598704073
20
1.08688929217766
30
0.000000000000000
11
-79.3337598704073
21
0.810756292127011
31
0.000000000000000
  0
LINE
  5
F1075A
330
F1075B
100
AcDbEntity
8
Geo
100
AcDbLine
10
-79.4337598704073
20
11.7089462225550
30
0.000000000000000
11
-79.3337598704073
21
11.5734781467997
31
0.000000000000000
  0
LINE
  5
F1075C
330
F1075D
100
AcDbEntity
8
Geo
100
AcDbLine
10
-79.3337598704073
20
0.810756292127011
30
0.000000000000000
11
-79.2337598704073
21
0.540040691101629
31
0.000000000000000
  0
LINE
  5
F1075E
330
F1075F
100
AcDbEntity
8
Geo
100
AcDbLine
10
-79.3337598704073
20
11.5734781467997
30
0.000000000000000
11
-79.2337598704073
21
11.4274846653448
31
0.000000000000000
  0
LINE
  5
F10760
330
F10761
100
AcDbEntity
8
Geo
100
AcDbLine
10
-79.2337598704073
20
0.540040691101629
30
0.000000000000000
11
-79.1337598704073
21
0.275143499740030
31
0.000000000000000
  0
LINE
  5
F10762
330
F10763
100
AcDbEntity
8
Geo
100
AcDbLine
10
-79.2337598704073
20
11.4274846653448
30
0.000000000000000
11
-79.1337598704073
21
11.2711820381290
31
0.000000000000000
  0
LINE
  5
F10764
330
F10765
100
AcDbEntity
8
Geo
100
AcDbLine
10
-79.1337598704073
20
0.275143499740030
30
0.000000000000000
11
-79.0337598704073
21
0.0164571098786883
31
0.000000000000000
  0
LINE
  5
F10766
330
F10767
100
AcDbEntity
8
Geo
100
AcDbLine
10
-79.1337598704073
20
11.2711820381290
30
0.000000000000000
11
-79.0337598704073
21
11.1048017960137
31
0.000000000000000
  0
LINE
  5
F10768
330
F10769
100
AcDbEntity
8
Geo
100
AcDbLine
10
-79.0337598704073
20
0.0164571098786883
30
0.000000000000000
11
-78.9337598704073
21
-0.235635286697439
31
0.000000000000000
  0
LINE
  5
F1076A
330
F1076B
100
AcDbEntity
8
Geo
100
AcDbLine
10
-79.0337598704073
20
11.1048017960137
30
0.000000000000000
11
-78.9337598704073
21
10.9285903978173
31
0.000000000000000
  0
LINE
  5
F1076C
330
F1076D
100
AcDbEntity
8
Geo
100
AcDbLine
10
-78.9337598704073
20
-0.235635286697439
30
0.000000000000000
11
-78.8337598704073
21
-0.480760265876358
31
0.000000000000000
  0
LINE
  5
F1076E
330
F1076F
100
AcDbEntity
8
Geo
100
AcDbLine
10
-78.9337598704073
20
10.9285903978173
30
0.000000000000000
11
-78.8337598704073
21
10.7428088652357
31
0.000000000000000
  0
LINE
  5
F10770
330
F10771
100
AcDbEntity
8
Geo
100
AcDbLine
10
-78.8337598704073
20
-0.480760265876358
30
0.000000000000000
11
-78.7337598704073
21
-0.718554724371654
31
0.000000000000000
  0
LINE
  5
F10772
330
F10773
100
AcDbEntity
8
Geo
100
AcDbLine
10
-78.8337598704073
20
10.7428088652357
30
0.000000000000000
11
-78.7337598704073
21
10.5477323961915
31
0.000000000000000
  0
LINE
  5
F10774
330
F10775
100
AcDbEntity
8
Geo
100
AcDbLine
10
-78.7337598704073
20
-0.718554724371654
30
0.000000000000000
11
-78.6337598704073
21
-0.948666417586876
31
0.000000000000000
  0
LINE
  5
F10776
330
F10777
100
AcDbEntity
8
Geo
100
AcDbLine
10
-78.7337598704073
20
10.5477323961915
30
0.000000000000000
11
-78.6337598704073
21
10.3436499571835
31
0.000000000000000
  0
LINE
  5
F10778
330
F10779
100
AcDbEntity
8
Geo
100
AcDbLine
10
-78.6337598704073
20
-0.948666417586876
30
0.000000000000000
11
-78.5337598704073
21
-1.17075448139496
31
0.000000000000000
  0
LINE
  5
F1077A
330
F1077B
100
AcDbEntity
8
Geo
100
AcDbLine
10
-78.6337598704073
20
10.3436499571835
30
0.000000000000000
11
-78.5337598704073
21
10.1308638552412
31
0.000000000000000
  0
LINE
  5
F1077C
330
F1077D
100
AcDbEntity
8
Geo
100
AcDbLine
10
-78.5337598704073
20
-1.17075448139496
30
0.000000000000000
11
-78.4337598704073
21
-1.38448993705979
31
0.000000000000000
  0
LINE
  5
F1077E
330
F1077F
100
AcDbEntity
8
Geo
100
AcDbLine
10
-78.5337598704073
20
10.1308638552412
30
0.000000000000000
11
-78.4337598704073
21
9.90968929011768
31
0.000000000000000
  0
LINE
  5
F10780
330
F10781
100
AcDbEntity
8
Geo
100
AcDbLine
10
-78.4337598704073
20
-1.38448993705979
30
0.000000000000000
11
-78.3337598704073
21
-1.58955617855192
31
0.000000000000000
  0
LINE
  5
F10782
330
F10783
100
AcDbEntity
8
Geo
100
AcDbLine
10
-78.4337598704073
20
9.90968929011768
30
0.000000000000000
11
-78.3337598704073
21
9.68045388738475
31
0.000000000000000
  0
LINE
  5
F10784
330
F10785
100
AcDbEntity
8
Geo
100
AcDbLine
10
-78.3337598704073
20
-1.58955617855192
30
0.000000000000000
11
-78.2337598704073
21
-1.78564944153664
31
0.000000000000000
  0
LINE
  5
F10786
330
F10787
100
AcDbEntity
8
Geo
100
AcDbLine
10
-78.3337598704073
20
9.68045388738475
30
0.000000000000000
11
-78.2337598704073
21
9.44349721312164
31
0.000000000000000
  0
LINE
  5
F10788
330
F10789
100
AcDbEntity
8
Geo
100
AcDbLine
10
-78.2337598704073
20
-1.78564944153664
30
0.000000000000000
11
-78.1337598704073
21
-1.97247925333968
31
0.000000000000000
  0
LINE
  5
F1078A
330
F1078B
100
AcDbEntity
8
Geo
100
AcDbLine
10
-78.2337598704073
20
9.44349721312164
30
0.000000000000000
11
-78.1337598704073
21
9.19917027091618
31
0.000000000000000
  0
LINE
  5
F1078C
330
F1078D
100
AcDbEntity
8
Geo
100
AcDbLine
10
-78.1337598704073
20
-1.97247925333968
30
0.000000000000000
11
-78.0337598704073
21
-2.14976886322397
31
0.000000000000000
  0
LINE
  5
F1078E
330
F1078F
100
AcDbEntity
8
Geo
100
AcDbLine
10
-78.1337598704073
20
9.19917027091618
30
0.000000000000000
11
-78.0337598704073
21
8.94783498192375
31
0.000000000000000
  0
LINE
  5
F10790
330
F10791
100
AcDbEntity
8
Geo
100
AcDbLine
10
-78.0337598704073
20
-2.14976886322397
30
0.000000000000000
11
-77.9337598704073
21
-2.31725565234007
31
0.000000000000000
  0
LINE
  5
F10792
330
F10793
100
AcDbEntity
8
Geo
100
AcDbLine
10
-78.0337598704073
20
8.94783498192375
30
0.000000000000000
11
-77.9337598704073
21
8.68986364875394
31
0.000000000000000
  0
LINE
  5
F10794
330
F10795
100
AcDbEntity
8
Geo
100
AcDbLine
10
-77.9337598704073
20
-2.31725565234007
30
0.000000000000000
11
-77.8337598704073
21
-2.47469152274316
31
0.000000000000000
  0
LINE
  5
F10796
330
F10797
100
AcDbEntity
8
Geo
100
AcDbLine
10
-77.9337598704073
20
8.68986364875394
30
0.000000000000000
11
-77.8337598704073
21
8.42563840397924
31
0.000000000000000
  0
LINE
  5
F10798
330
F10799
100
AcDbEntity
8
Geo
100
AcDbLine
10
-77.8337598704073
20
-2.47469152274316
30
0.000000000000000
11
-77.7337598704073
21
-2.62184326490015
31
0.000000000000000
  0
LINE
  5
F1079A
330
F1079B
100
AcDbEntity
8
Geo
100
AcDbLine
10
-77.8337598704073
20
8.42563840397924
30
0.000000000000000
11
-77.7337598704073
21
8.15555064408259
31
0.000000000000000
  0
LINE
  5
F1079C
330
F1079D
100
AcDbEntity
8
Geo
100
AcDbLine
10
-77.7337598704073
20
-2.62184326490015
30
0.000000000000000
11
-77.6337598704073
21
-2.75849290314265
31
0.000000000000000
  0
LINE
  5
F1079E
330
F1079F
100
AcDbEntity
8
Geo
100
AcDbLine
10
-77.7337598704073
20
8.15555064408259
30
0.000000000000000
11
-77.6337598704073
21
7.88000044968232
31
0.000000000000000
  0
LINE
  5
F107A0
330
F107A1
100
AcDbEntity
8
Geo
100
AcDbLine
10
-77.6337598704073
20
-2.75849290314265
30
0.000000000000000
11
-77.5337598704073
21
-2.88443801855398
31
0.000000000000000
  0
LINE
  5
F107A2
330
F107A3
100
AcDbEntity
8
Geo
100
AcDbLine
10
-77.6337598704073
20
7.88000044968232
30
0.000000000000000
11
-77.5337598704073
21
7.59939599289330
31
0.000000000000000
  0
LINE
  5
F107A4
330
F107A5
100
AcDbEntity
8
Geo
100
AcDbLine
10
-77.5337598704073
20
-2.88443801855398
30
0.000000000000000
11
-77.4337598704073
21
-2.99949204881207
31
0.000000000000000
  0
LINE
  5
F107A6
330
F107A7
100
AcDbEntity
8
Geo
100
AcDbLine
10
-77.5337598704073
20
7.59939599289330
30
0.000000000000000
11
-77.4337598704073
21
7.31415293270217
31
0.000000000000000
  0
LINE
  5
F107A8
330
F107A9
100
AcDbEntity
8
Geo
100
AcDbLine
10
-77.4337598704073
20
-2.99949204881207
30
0.000000000000000
11
-77.3337598704073
21
-3.10348456454394
31
0.000000000000000
  0
LINE
  5
F107AA
330
F107AB
100
AcDbEntity
8
Geo
100
AcDbLine
10
-77.4337598704073
20
7.31415293270217
30
0.000000000000000
11
-77.3337598704073
21
7.02469379925224
31
0.000000000000000
  0
LINE
  5
F107AC
330
F107AD
100
AcDbEntity
8
Geo
100
AcDbLine
10
-77.3337598704073
20
-3.10348456454394
30
0.000000000000000
11
-77.2337598704073
21
-3.19626152178251
31
0.000000000000000
  0
LINE
  5
F107AE
330
F107AF
100
AcDbEntity
8
Geo
100
AcDbLine
10
-77.3337598704073
20
7.02469379925224
30
0.000000000000000
11
-77.2337598704073
21
6.73144736795020
31
0.000000000000000
  0
LINE
  5
F107B0
330
F107B1
100
AcDbEntity
8
Geo
100
AcDbLine
10
-77.2337598704073
20
-3.19626152178251
30
0.000000000000000
11
-77.1337598704073
21
-3.27768549015169
31
0.000000000000000
  0
LINE
  5
F107B2
330
F107B3
100
AcDbEntity
8
Geo
100
AcDbLine
10
-77.2337598704073
20
6.73144736795020
30
0.000000000000000
11
-77.1337598704073
21
6.43484802432172
31
0.000000000000000
  0
LINE
  5
F107B4
330
F107B5
100
AcDbEntity
8
Geo
100
AcDbLine
10
-77.1337598704073
20
-3.27768549015169
30
0.000000000000000
11
-77.0337598704073
21
-3.34763585644182
31
0.000000000000000
  0
LINE
  5
F107B6
330
F107B7
100
AcDbEntity
8
Geo
100
AcDbLine
10
-77.1337598704073
20
6.43484802432172
30
0.000000000000000
11
-77.0337598704073
21
6.13533512055677
31
0.000000000000000
  0
LINE
  5
F107B8
330
F107B9
100
AcDbEntity
8
Geo
100
AcDbLine
10
-77.0337598704073
20
-3.34763585644182
30
0.000000000000000
11
-76.9337598704073
21
-3.40600900327382
31
0.000000000000000
  0
LINE
  5
F107BA
330
F107BB
100
AcDbEntity
8
Geo
100
AcDbLine
10
-77.0337598704073
20
6.13533512055677
30
0.000000000000000
11
-76.9337598704073
21
5.83335232469786
31
0.000000000000000
  0
LINE
  5
F107BC
330
F107BD
100
AcDbEntity
8
Geo
100
AcDbLine
10
-76.9337598704073
20
-3.40600900327382
30
0.000000000000000
11
-76.8337598704073
21
-3.45271846258752
31
0.000000000000000
  0
LINE
  5
F107BE
330
F107BF
100
AcDbEntity
8
Geo
100
AcDbLine
10
-76.9337598704073
20
5.83335232469786
30
0.000000000000000
11
-76.8337598704073
21
5.52934696343518
31
0.000000000000000
  0
LINE
  5
F107C0
330
F107C1
100
AcDbEntity
8
Geo
100
AcDbLine
10
-76.8337598704073
20
-3.45271846258752
30
0.000000000000000
11
-76.7337598704073
21
-3.48769504372662
31
0.000000000000000
  0
LINE
  5
F107C2
330
F107C3
100
AcDbEntity
8
Geo
100
AcDbLine
10
-76.8337598704073
20
5.52934696343518
30
0.000000000000000
11
-76.7337598704073
21
5.22376935948219
31
0.000000000000000
  0
LINE
  5
F107C4
330
F107C5
100
AcDbEntity
8
Geo
100
AcDbLine
10
-76.7337598704073
20
-3.48769504372662
30
0.000000000000000
11
-76.6337598704073
21
-3.51088693593074
31
0.000000000000000
  0
LINE
  5
F107C6
330
F107C7
100
AcDbEntity
8
Geo
100
AcDbLine
10
-76.7337598704073
20
5.22376935948219
30
0.000000000000000
11
-76.6337598704073
21
4.91707216451324
31
0.000000000000000
  0
LINE
  5
F107C8
330
F107C9
100
AcDbEntity
8
Geo
100
AcDbLine
10
-76.6337598704073
20
-3.51088693593074
30
0.000000000000000
11
-76.5337598704073
21
-3.52225978508262
31
0.000000000000000
  0
LINE
  5
F107CA
330
F107CB
100
AcDbEntity
8
Geo
100
AcDbLine
10
-76.6337598704073
20
4.91707216451324
30
0.000000000000000
11
-76.5337598704073
21
4.60970968865127
31
0.000000000000000
  0
LINE
  5
F107CC
330
F107CD
100
AcDbEntity
8
Geo
100
AcDbLine
10
-76.5337598704073
20
4.60970968865127
30
0.000000000000000
11
-76.4337598704073
21
4.30213722749887
31
0.000000000000000
  0
LINE
  5
F107CE
330
F107CF
100
AcDbEntity
8
Geo
100
AcDbLine
10
-76.4337598704073
20
12.4577009796879
30
0.000000000000000
11
-76.3337598704073
21
12.4454027354657
31
0.000000000000000
  0
LINE
  5
F107D0
330
F107D1
100
AcDbEntity
8
Geo
100
AcDbLine
10
-76.4337598704073
20
4.30213722749887
30
0.000000000000000
11
-76.3337598704073
21
3.99481038770957
31
0.000000000000000
  0
LINE
  5
F107D2
330
F107D3
100
AcDbEntity
8
Geo
100
AcDbLine
10
-76.3337598704073
20
12.4454027354657
30
0.000000000000000
11
-76.2337598704073
21
12.4212875048788
31
0.000000000000000
  0
LINE
  5
F107D4
330
F107D5
100
AcDbEntity
8
Geo
100
AcDbLine
10
-76.3337598704073
20
3.99481038770957
30
0.000000000000000
11
-76.2337598704073
21
3.68818441209828
31
0.000000000000000
  0
LINE
  5
F107D6
330
F107D7
100
AcDbEntity
8
Geo
100
AcDbLine
10
-76.2337598704073
20
12.4212875048788
30
0.000000000000000
11
-76.1337598704073
21
12.3853910097845
31
0.000000000000000
  0
LINE
  5
F107D8
330
F107D9
100
AcDbEntity
8
Geo
100
AcDbLine
10
-76.2337598704073
20
3.68818441209828
30
0.000000000000000
11
-76.1337598704073
21
3.38271350529082
31
0.000000000000000
  0
LINE
  5
F107DA
330
F107DB
100
AcDbEntity
8
Geo
100
AcDbLine
10
-76.1337598704073
20
12.3853910097845
30
0.000000000000000
11
-76.0337598704073
21
12.3377664236103
31
0.000000000000000
  0
LINE
  5
F107DC
330
F107DD
100
AcDbEntity
8
Geo
100
AcDbLine
10
-76.1337598704073
20
3.38271350529082
30
0.000000000000000
11
-76.0337598704073
21
3.07885016091121
31
0.000000000000000
  0
LINE
  5
F107DE
330
F107DF
100
AcDbEntity
8
Geo
100
AcDbLine
10
-76.0337598704073
20
12.3377664236103
30
0.000000000000000
11
-75.9337598704073
21
12.2784842925886
31
0.000000000000000
  0
LINE
  5
F107E0
330
F107E1
100
AcDbEntity
8
Geo
100
AcDbLine
10
-76.0337598704073
20
3.07885016091121
30
0.000000000000000
11
-75.9337598704073
21
2.77704449130349
31
0.000000000000000
  0
LINE
  5
F107E2
330
F107E3
100
AcDbEntity
8
Geo
100
AcDbLine
10
-75.9337598704073
20
12.2784842925886
30
0.000000000000000
11
-75.8337598704073
21
12.2076324312567
31
0.000000000000000
  0
LINE
  5
F107E4
330
F107E5
100
AcDbEntity
8
Geo
100
AcDbLine
10
-75.9337598704073
20
2.77704449130349
30
0.000000000000000
11
-75.8337598704073
21
2.47774356078100
31
0.000000000000000
  0
LINE
  5
F107E6
330
F107E7
100
AcDbEntity
8
Geo
100
AcDbLine
10
-75.8337598704073
20
12.2076324312567
30
0.000000000000000
11
-75.7337598704073
21
12.1253157923769
31
0.000000000000000
  0
LINE
  5
F107E8
330
F107E9
100
AcDbEntity
8
Geo
100
AcDbLine
10
-75.8337598704073
20
2.47774356078100
30
0.000000000000000
11
-75.7337598704073
21
2.18139072339056
31
0.000000000000000
  0
LINE
  5
F107EA
330
F107EB
100
AcDbEntity
8
Geo
100
AcDbLine
10
-75.7337598704073
20
12.1253157923769
30
0.000000000000000
11
-75.6337598704073
21
12.0316563114705
31
0.000000000000000
  0
LINE
  5
F107EC
330
F107ED
100
AcDbEntity
8
Geo
100
AcDbLine
10
-75.7337598704073
20
2.18139072339056
30
0.000000000000000
11
-75.6337598704073
21
1.88842496617281
31
0.000000000000000
  0
LINE
  5
F107EE
330
F107EF
100
AcDbEntity
8
Geo
100
AcDbLine
10
-75.6337598704073
20
12.0316563114705
30
0.000000000000000
11
-75.5337598704073
21
11.9267927261946
31
0.000000000000000
  0
LINE
  5
F107F0
330
F107F1
100
AcDbEntity
8
Geo
100
AcDbLine
10
-75.6337598704073
20
1.88842496617281
30
0.000000000000000
11
-75.5337598704073
21
1.59928025889129
31
0.000000000000000
  0
LINE
  5
F107F2
330
F107F3
100
AcDbEntity
8
Geo
100
AcDbLine
10
-75.5337598704073
20
11.9267927261946
30
0.000000000000000
11
-75.4337598704073
21
11.8108803708304
31
0.000000000000000
  0
LINE
  5
F107F4
330
F107F5
100
AcDbEntity
8
Geo
100
AcDbLine
10
-75.5337598704073
20
1.59928025889129
30
0.000000000000000
11
-75.4337598704073
21
1.31438491119366
31
0.000000000000000
  0
LINE
  5
F107F6
330
F107F7
100
AcDbEntity
8
Geo
100
AcDbLine
10
-75.4337598704073
20
11.8108803708304
30
0.000000000000000
11
-75.3337598704073
21
11.6840909461866
31
0.000000000000000
  0
LINE
  5
F107F8
330
F107F9
100
AcDbEntity
8
Geo
100
AcDbLine
10
-75.4337598704073
20
1.31438491119366
30
0.000000000000000
11
-75.3337598704073
21
1.03416093815720
31
0.000000000000000
  0
LINE
  5
F107FA
330
F107FB
100
AcDbEntity
8
Geo
100
AcDbLine
10
-75.3337598704073
20
11.6840909461866
30
0.000000000000000
11
-75.2337598704073
21
11.5466122652595
31
0.000000000000000
  0
LINE
  5
F107FC
330
F107FD
100
AcDbEntity
8
Geo
100
AcDbLine
10
-75.3337598704073
20
1.03416093815720
30
0.000000000000000
11
-75.2337598704073
21
0.759023435158500
31
0.000000000000000
  0
LINE
  5
F107FE
330
F107FF
100
AcDbEntity
8
Geo
100
AcDbLine
10
-75.2337598704073
20
11.5466122652595
30
0.000000000000000
11
-75.1337598704073
21
11.3986479750253
31
0.000000000000000
  0
LINE
  5
F10800
330
F10801
100
AcDbEntity
8
Geo
100
AcDbLine
10
-75.2337598704073
20
0.759023435158500
30
0.000000000000000
11
-75.1337598704073
21
0.489379962993230
31
0.000000000000000
  0
LINE
  5
F10802
330
F10803
100
AcDbEntity
8
Geo
100
AcDbLine
10
-75.1337598704073
20
11.3986479750253
30
0.000000000000000
11
-75.0337598704073
21
11.2404172547790
31
0.000000000000000
  0
LINE
  5
F10804
330
F10805
100
AcDbEntity
8
Geo
100
AcDbLine
10
-75.1337598704073
20
0.489379962993230
30
0.000000000000000
11
-75.0337598704073
21
0.225629944156941
31
0.000000000000000
  0
LINE
  5
F10806
330
F10807
100
AcDbEntity
8
Geo
100
AcDbLine
10
-75.0337598704073
20
11.2404172547790
30
0.000000000000000
11
-74.9337598704073
21
11.0721544914634
31
0.000000000000000
  0
LINE
  5
F10808
330
F10809
100
AcDbEntity
8
Geo
100
AcDbLine
10
-75.0337598704073
20
0.225629944156941
30
0.000000000000000
11
-74.9337598704073
21
-0.0318359288189543
31
0.000000000000000
  0
LINE
  5
F1080A
330
F1080B
100
AcDbEntity
8
Geo
100
AcDbLine
10
-74.9337598704073
20
11.0721544914634
30
0.000000000000000
11
-74.8337598704073
21
10.8941089324729
31
0.000000000000000
  0
LINE
  5
F1080C
330
F1080D
100
AcDbEntity
8
Geo
100
AcDbLine
10
-74.9337598704073
20
-0.0318359288189543
30
0.000000000000000
11
-74.8337598704073
21
-0.282636272099417
31
0.000000000000000
  0
LINE
  5
F1080E
330
F1080F
100
AcDbEntity
8
Geo
100
AcDbLine
10
-74.8337598704073
20
10.8941089324729
30
0.000000000000000
11
-74.7337598704073
21
10.7065443164433
31
0.000000000000000
  0
LINE
  5
F10810
330
F10811
100
AcDbEntity
8
Geo
100
AcDbLine
10
-74.8337598704073
20
-0.282636272099417
30
0.000000000000000
11
-74.7337598704073
21
-0.526399575489195
31
0.000000000000000
  0
LINE
  5
F10812
330
F10813
100
AcDbEntity
8
Geo
100
AcDbLine
10
-74.7337598704073
20
10.7065443164433
30
0.000000000000000
11
-74.6337598704073
21
10.5097384825761
31
0.000000000000000
  0
LINE
  5
F10814
330
F10815
100
AcDbEntity
8
Geo
100
AcDbLine
10
-74.7337598704073
20
-0.526399575489195
30
0.000000000000000
11
-74.6337598704073
21
-0.762764752750296
31
0.000000000000000
  0
LINE
  5
F10816
330
F10817
100
AcDbEntity
8
Geo
100
AcDbLine
10
-74.6337598704073
20
10.5097384825761
30
0.000000000000000
11
-74.5337598704073
21
10.3039829590759
31
0.000000000000000
  0
LINE
  5
F10818
330
F10819
100
AcDbEntity
8
Geo
100
AcDbLine
10
-74.6337598704073
20
-0.762764752750296
30
0.000000000000000
11
-74.5337598704073
21
-0.991381676478559
31
0.000000000000000
  0
LINE
  5
F1081A
330
F1081B
100
AcDbEntity
8
Geo
100
AcDbLine
10
-74.5337598704073
20
10.3039829590759
30
0.000000000000000
11
-74.4337598704073
21
10.0895825313097
31
0.000000000000000
  0
LINE
  5
F1081C
330
F1081D
100
AcDbEntity
8
Geo
100
AcDbLine
10
-74.5337598704073
20
-0.991381676478559
30
0.000000000000000
11
-74.4337598704073
21
-1.21191169674685
31
0.000000000000000
  0
LINE
  5
F1081E
330
F1081F
100
AcDbEntity
8
Geo
100
AcDbLine
10
-74.4337598704073
20
10.0895825313097
30
0.000000000000000
11
-74.3337598704073
21
9.86685479032940
31
0.000000000000000
  0
LINE
  5
F10820
330
F10821
100
AcDbEntity
8
Geo
100
AcDbLine
10
-74.4337598704073
20
-1.21191169674685
30
0.000000000000000
11
-74.3337598704073
21
-1.42402814274675
31
0.000000000000000
  0
LINE
  5
F10822
330
F10823
100
AcDbEntity
8
Geo
100
AcDbLine
10
-74.3337598704073
20
9.86685479032940
30
0.000000000000000
11
-74.2337598704073
21
9.63612966242388
31
0.000000000000000
  0
LINE
  5
F10824
330
F10825
100
AcDbEntity
8
Geo
100
AcDbLine
10
-74.3337598704073
20
-1.42402814274675
30
0.000000000000000
11
-74.2337598704073
21
-1.62741680668555
31
0.000000000000000
  0
LINE
  5
F10826
330
F10827
100
AcDbEntity
8
Geo
100
AcDbLine
10
-74.2337598704073
20
9.63612966242388
30
0.000000000000000
11
-74.1337598704073
21
9.39774892040017
31
0.000000000000000
  0
LINE
  5
F10828
330
F10829
100
AcDbEntity
8
Geo
100
AcDbLine
10
-74.2337598704073
20
-1.62741680668555
30
0.000000000000000
11
-74.1337598704073
21
-1.82177640922181
31
0.000000000000000
  0
LINE
  5
F1082A
330
F1082B
100
AcDbEntity
8
Geo
100
AcDbLine
10
-74.1337598704073
20
9.39774892040017
30
0.000000000000000
11
-74.0337598704073
21
9.15206567731569
31
0.000000000000000
  0
LINE
  5
F1082C
330
F1082D
100
AcDbEntity
8
Geo
100
AcDbLine
10
-74.1337598704073
20
-1.82177640922181
30
0.000000000000000
11
-74.0337598704073
21
-2.00681904575005
31
0.000000000000000
  0
LINE
  5
F1082E
330
F1082F
100
AcDbEntity
8
Geo
100
AcDbLine
10
-74.0337598704073
20
9.15206567731569
30
0.000000000000000
11
-73.9337598704073
21
8.89944386341239
31
0.000000000000000
  0
LINE
  5
F10830
330
F10831
100
AcDbEntity
8
Geo
100
AcDbLine
10
-74.0337598704073
20
-2.00681904575005
30
0.000000000000000
11
-73.9337598704073
21
-2.18227061287340
31
0.000000000000000
  0
LINE
  5
F10832
330
F10833
100
AcDbEntity
8
Geo
100
AcDbLine
10
-73.9337598704073
20
8.89944386341239
30
0.000000000000000
11
-73.8337598704073
21
8.64025768702741
31
0.000000000000000
  0
LINE
  5
F10834
330
F10835
100
AcDbEntity
8
Geo
100
AcDbLine
10
-73.9337598704073
20
-2.18227061287340
30
0.000000000000000
11
-73.8337598704073
21
-2.34787121443258
31
0.000000000000000
  0
LINE
  5
F10836
330
F10837
100
AcDbEntity
8
Geo
100
AcDbLine
10
-73.8337598704073
20
8.64025768702741
30
0.000000000000000
11
-73.7337598704073
21
8.37489108027877
31
0.000000000000000
  0
LINE
  5
F10838
330
F10839
100
AcDbEntity
8
Geo
100
AcDbLine
10
-73.8337598704073
20
-2.34787121443258
30
0.000000000000000
11
-73.7337598704073
21
-2.50337554648974
31
0.000000000000000
  0
LINE
  5
F1083A
330
F1083B
100
AcDbEntity
8
Geo
100
AcDbLine
10
-73.7337598704073
20
8.37489108027877
30
0.000000000000000
11
-73.6337598704073
21
8.10373713034731
31
0.000000000000000
  0
LINE
  5
F1083C
330
F1083D
100
AcDbEntity
8
Geo
100
AcDbLine
10
-73.7337598704073
20
-2.50337554648974
30
0.000000000000000
11
-73.6337598704073
21
-2.64855326069684
31
0.000000000000000
  0
LINE
  5
F1083E
330
F1083F
100
AcDbEntity
8
Geo
100
AcDbLine
10
-73.6337598704073
20
8.10373713034731
30
0.000000000000000
11
-73.5337598704073
21
7.82719749719715
31
0.000000000000000
  0
LINE
  5
F10840
330
F10841
100
AcDbEntity
8
Geo
100
AcDbLine
10
-73.6337598704073
20
-2.64855326069684
30
0.000000000000000
11
-73.5337598704073
21
-2.78318930551028
31
0.000000000000000
  0
LINE
  5
F10842
330
F10843
100
AcDbEntity
8
Geo
100
AcDbLine
10
-73.5337598704073
20
7.82719749719715
30
0.000000000000000
11
-73.4337598704073
21
7.54568181859740
31
0.000000000000000
  0
LINE
  5
F10844
330
F10845
100
AcDbEntity
8
Geo
100
AcDbLine
10
-73.5337598704073
20
-2.78318930551028
30
0.000000000000000
11
-73.4337598704073
21
-2.90708424474651
31
0.000000000000000
  0
LINE
  5
F10846
330
F10847
100
AcDbEntity
8
Geo
100
AcDbLine
10
-73.4337598704073
20
7.54568181859740
30
0.000000000000000
11
-73.3337598704073
21
7.25960710332625
31
0.000000000000000
  0
LINE
  5
F10848
330
F10849
100
AcDbEntity
8
Geo
100
AcDbLine
10
-73.4337598704073
20
-2.90708424474651
30
0.000000000000000
11
-73.3337598704073
21
-3.02005455300653
31
0.000000000000000
  0
LINE
  5
F1084A
330
F1084B
100
AcDbEntity
8
Geo
100
AcDbLine
10
-73.3337598704073
20
7.25960710332625
30
0.000000000000000
11
-73.2337598704073
21
6.96939711345652
31
0.000000000000000
  0
LINE
  5
F1084C
330
F1084D
100
AcDbEntity
8
Geo
100
AcDbLine
10
-73.3337598704073
20
-3.02005455300653
30
0.000000000000000
11
-73.2337598704073
21
-3.12193288753184
31
0.000000000000000
  0
LINE
  5
F1084E
330
F1084F
100
AcDbEntity
8
Geo
100
AcDbLine
10
-73.2337598704073
20
6.96939711345652
30
0.000000000000000
11
-73.1337598704073
21
6.67548173663749
31
0.000000000000000
  0
LINE
  5
F10850
330
F10851
100
AcDbEntity
8
Geo
100
AcDbLine
10
-73.2337598704073
20
-3.12193288753184
30
0.000000000000000
11
-73.1337598704073
21
-3.21256833608899
31
0.000000000000000
  0
LINE
  5
F10852
330
F10853
100
AcDbEntity
8
Geo
100
AcDbLine
10
-73.1337598704073
20
6.67548173663749
30
0.000000000000000
11
-73.0337598704073
21
6.37829634930286
31
0.000000000000000
  0
LINE
  5
F10854
330
F10855
100
AcDbEntity
8
Geo
100
AcDbLine
10
-73.1337598704073
20
-3.21256833608899
30
0.000000000000000
11
-73.0337598704073
21
-3.29182664051568
31
0.000000000000000
  0
LINE
  5
F10856
330
F10857
100
AcDbEntity
8
Geo
100
AcDbLine
10
-73.0337598704073
20
6.37829634930286
30
0.000000000000000
11
-72.9337598704073
21
6.07828117174832
31
0.000000000000000
  0
LINE
  5
F10858
330
F10859
100
AcDbEntity
8
Geo
100
AcDbLine
10
-73.0337598704073
20
-3.29182664051568
30
0.000000000000000
11
-72.9337598704073
21
-3.35959039559720
31
0.000000000000000
  0
LINE
  5
F1085A
330
F1085B
100
AcDbEntity
8
Geo
100
AcDbLine
10
-72.9337598704073
20
6.07828117174832
30
0.000000000000000
11
-72.8337598704073
21
5.77588061603383
31
0.000000000000000
  0
LINE
  5
F1085C
330
F1085D
100
AcDbEntity
8
Geo
100
AcDbLine
10
-72.9337598704073
20
-3.35959039559720
30
0.000000000000000
11
-72.8337598704073
21
-3.41575922297859
31
0.000000000000000
  0
LINE
  5
F1085E
330
F1085F
100
AcDbEntity
8
Geo
100
AcDbLine
10
-72.8337598704073
20
5.77588061603383
30
0.000000000000000
11
-72.7337598704073
21
5.47154262767666
31
0.000000000000000
  0
LINE
  5
F10860
330
F10861
100
AcDbEntity
8
Geo
100
AcDbLine
10
-72.8337598704073
20
-3.41575922297859
30
0.000000000000000
11
-72.7337598704073
21
-3.46024991985495
31
0.000000000000000
  0
LINE
  5
F10862
330
F10863
100
AcDbEntity
8
Geo
100
AcDbLine
10
-72.7337598704073
20
5.47154262767666
30
0.000000000000000
11
-72.6337598704073
21
5.16571802211033
31
0.000000000000000
  0
LINE
  5
F10864
330
F10865
100
AcDbEntity
8
Geo
100
AcDbLine
10
-72.7337598704073
20
-3.46024991985495
30
0.000000000000000
11
-72.6337598704073
21
-3.49299658221967
31
0.000000000000000
  0
LINE
  5
F10866
330
F10867
100
AcDbEntity
8
Geo
100
AcDbLine
10
-72.6337598704073
20
5.16571802211033
30
0.000000000000000
11
-72.5337598704073
21
4.85885981689233
31
0.000000000000000
  0
LINE
  5
F10868
330
F10869
100
AcDbEntity
8
Geo
100
AcDbLine
10
-72.6337598704073
20
-3.49299658221967
30
0.000000000000000
11
-72.5337598704073
21
-3.51395070248791
31
0.000000000000000
  0
LINE
  5
F1086A
330
F1086B
100
AcDbEntity
8
Geo
100
AcDbLine
10
-72.5337598704073
20
4.85885981689233
30
0.000000000000000
11
-72.4337598704073
21
4.55142256064985
31
0.000000000000000
  0
LINE
  5
F1086C
330
F1086D
100
AcDbEntity
8
Geo
100
AcDbLine
10
-72.5337598704073
20
-3.51395070248791
30
0.000000000000000
11
-72.4337598704073
21
-3.52308124135082
31
0.000000000000000
  0
LINE
  5
F1086E
330
F1086F
100
AcDbEntity
8
Geo
100
AcDbLine
10
-72.4337598704073
20
4.55142256064985
30
0.000000000000000
11
-72.3337598704073
21
4.24386165975757
31
0.000000000000000
  0
LINE
  5
F10870
330
F10871
100
AcDbEntity
8
Geo
100
AcDbLine
10
-72.3337598704073
20
12.4562789088451
30
0.000000000000000
11
-72.2337598704073
21
12.4417392440234
31
0.000000000000000
  0
LINE
  5
F10872
330
F10873
100
AcDbEntity
8
Geo
100
AcDbLine
10
-72.3337598704073
20
4.24386165975757
30
0.000000000000000
11
-72.2337598704073
21
3.93663270374478
31
0.000000000000000
  0
LINE
  5
F10874
330
F10875
100
AcDbEntity
8
Geo
100
AcDbLine
10
-72.2337598704073
20
12.4417392440234
30
0.000000000000000
11
-72.1337598704073
21
12.4153880195619
31
0.000000000000000
  0
LINE
  5
F10876
330
F10877
100
AcDbEntity
8
Geo
100
AcDbLine
10
-72.2337598704073
20
3.93663270374478
30
0.000000000000000
11
-72.1337598704073
21
3.63019079043134
31
0.000000000000000
  0
LINE
  5
F10878
330
F10879
100
AcDbEntity
8
Geo
100
AcDbLine
10
-72.1337598704073
20
12.4153880195619
30
0.000000000000000
11
-72.0337598704073
21
12.3772642694921
31
0.000000000000000
  0
LINE
  5
F1087A
330
F1087B
100
AcDbEntity
8
Geo
100
AcDbLine
10
-72.1337598704073
20
3.63019079043134
30
0.000000000000000
11
-72.0337598704073
21
3.32498985179181
31
0.000000000000000
  0
LINE
  5
F1087C
330
F1087D
100
AcDbEntity
8
Geo
100
AcDbLine
10
-72.0337598704073
20
12.3772642694921
30
0.000000000000000
11
-71.9337598704073
21
12.3274244664714
31
0.000000000000000
  0
LINE
  5
F1087E
330
F1087F
100
AcDbEntity
8
Geo
100
AcDbLine
10
-72.0337598704073
20
3.32498985179181
30
0.000000000000000
11
-71.9337598704073
21
3.02148198154676
31
0.000000000000000
  0
LINE
  5
F10880
330
F10881
100
AcDbEntity
8
Geo
100
AcDbLine
10
-71.9337598704073
20
12.3274244664714
30
0.000000000000000
11
-71.8337598704073
21
12.2659424381298
31
0.000000000000000
  0
LINE
  5
F10882
330
F10883
100
AcDbEntity
8
Geo
100
AcDbLine
10
-71.9337598704073
20
3.02148198154676
30
0.000000000000000
11
-71.8337598704073
21
2.72011676547690
31
0.000000000000000
  0
LINE
  5
F10884
330
F10885
100
AcDbEntity
8
Geo
100
AcDbLine
10
-71.8337598704073
20
12.2659424381298
30
0.000000000000000
11
-71.7337598704073
21
12.1929092577092
31
0.000000000000000
  0
LINE
  5
F10886
330
F10887
100
AcDbEntity
8
Geo
100
AcDbLine
10
-71.8337598704073
20
2.72011676547690
30
0.000000000000000
11
-71.7337598704073
21
2.42134061545235
31
0.000000000000000
  0
LINE
  5
F10888
330
F10889
100
AcDbEntity
8
Geo
100
AcDbLine
10
-71.7337598704073
20
12.1929092577092
30
0.000000000000000
11
-71.6337598704073
21
12.1084331091571
31
0.000000000000000
  0
LINE
  5
F1088A
330
F1088B
100
AcDbEntity
8
Geo
100
AcDbLine
10
-71.7337598704073
20
2.42134061545235
30
0.000000000000000
11
-71.6337598704073
21
2.12559610816333
31
0.000000000000000
  0
LINE
  5
F1088C
330
F1088D
100
AcDbEntity
8
Geo
100
AcDbLine
10
-71.6337598704073
20
12.1084331091571
30
0.000000000000000
11
-71.5337598704073
21
12.0126391268732
31
0.000000000000000
  0
LINE
  5
F1088E
330
F1088F
100
AcDbEntity
8
Geo
100
AcDbLine
10
-71.6337598704073
20
2.12559610816333
30
0.000000000000000
11
-71.5337598704073
21
1.83332132953195
31
0.000000000000000
  0
LINE
  5
F10890
330
F10891
100
AcDbEntity
8
Geo
100
AcDbLine
10
-71.5337598704073
20
12.0126391268732
30
0.000000000000000
11
-71.4337598704073
21
11.9056692103485
31
0.000000000000000
  0
LINE
  5
F10892
330
F10893
100
AcDbEntity
8
Geo
100
AcDbLine
10
-71.5337598704073
20
1.83332132953195
30
0.000000000000000
11
-71.4337598704073
21
1.54494922577615
31
0.000000000000000
  0
LINE
  5
F10894
330
F10895
100
AcDbEntity
8
Geo
100
AcDbLine
10
-71.4337598704073
20
11.9056692103485
30
0.000000000000000
11
-71.3337598704073
21
11.7876818139699
31
0.000000000000000
  0
LINE
  5
F10896
330
F10897
100
AcDbEntity
8
Geo
100
AcDbLine
10
-71.4337598704073
20
1.54494922577615
30
0.000000000000000
11
-71.3337598704073
21
1.26090696208706
31
0.000000000000000
  0
LINE
  5
F10898
330
F10899
100
AcDbEntity
8
Geo
100
AcDbLine
10
-71.3337598704073
20
11.7876818139699
30
0.000000000000000
11
-71.2337598704073
21
11.6588517123013
31
0.000000000000000
  0
LINE
  5
F1089A
330
F1089B
100
AcDbEntity
8
Geo
100
AcDbLine
10
-71.3337598704073
20
1.26090696208706
30
0.000000000000000
11
-71.2337598704073
21
0.981615289869842
31
0.000000000000000
  0
LINE
  5
F1089C
330
F1089D
100
AcDbEntity
8
Geo
100
AcDbLine
10
-71.2337598704073
20
11.6588517123013
30
0.000000000000000
11
-71.1337598704073
21
11.5193697411909
31
0.000000000000000
  0
LINE
  5
F1089E
330
F1089F
100
AcDbEntity
8
Geo
100
AcDbLine
10
-71.2337598704073
20
0.981615289869842
30
0.000000000000000
11
-71.1337598704073
21
0.707487923485185
31
0.000000000000000
  0
LINE
  5
F108A0
330
F108A1
100
AcDbEntity
8
Geo
100
AcDbLine
10
-71.1337598704073
20
11.5193697411909
30
0.000000000000000
11
-71.0337598704073
21
11.3694425150860
31
0.000000000000000
  0
LINE
  5
F108A2
330
F108A3
100
AcDbEntity
8
Geo
100
AcDbLine
10
-71.1337598704073
20
0.707487923485185
30
0.000000000000000
11
-71.0337598704073
21
0.438930927414819
31
0.000000000000000
  0
LINE
  5
F108A4
330
F108A5
100
AcDbEntity
8
Geo
100
AcDbLine
10
-71.0337598704073
20
11.3694425150860
30
0.000000000000000
11
-70.9337598704073
21
11.2092921209756
31
0.000000000000000
  0
LINE
  5
F108A6
330
F108A7
100
AcDbEntity
8
Geo
100
AcDbLine
10
-71.0337598704073
20
0.438930927414819
30
0.000000000000000
11
-70.9337598704073
21
0.176342114758778
31
0.000000000000000
  0
LINE
  5
F108A8
330
F108A9
100
AcDbEntity
8
Geo
100
AcDbLine
10
-70.9337598704073
20
11.2092921209756
30
0.000000000000000
11
-70.8337598704073
21
11.0391557894129
31
0.000000000000000
  0
LINE
  5
F108AA
330
F108AB
100
AcDbEntity
8
Geo
100
AcDbLine
10
-70.9337598704073
20
0.176342114758778
30
0.000000000000000
11
-70.8337598704073
21
-0.0798895420445858
31
0.000000000000000
  0
LINE
  5
F108AC
330
F108AD
100
AcDbEntity
8
Geo
100
AcDbLine
10
-70.8337598704073
20
11.0391557894129
30
0.000000000000000
11
-70.7337598704073
21
10.8592855431061
31
0.000000000000000
  0
LINE
  5
F108AE
330
F108AF
100
AcDbEntity
8
Geo
100
AcDbLine
10
-70.8337598704073
20
-0.0798895420445858
30
0.000000000000000
11
-70.7337598704073
21
-0.329384487402943
31
0.000000000000000
  0
LINE
  5
F108B0
330
F108B1
100
AcDbEntity
8
Geo
100
AcDbLine
10
-70.7337598704073
20
10.8592855431061
30
0.000000000000000
11
-70.6337598704073
21
10.6699478235978
31
0.000000000000000
  0
LINE
  5
F108B2
330
F108B3
100
AcDbEntity
8
Geo
100
AcDbLine
10
-70.7337598704073
20
-0.329384487402943
30
0.000000000000000
11
-70.6337598704073
21
-0.571773144805126
31
0.000000000000000
  0
LINE
  5
F108B4
330
F108B5
100
AcDbEntity
8
Geo
100
AcDbLine
10
-84.6337598704073
20
4.46795211754554
30
0.000000000000000
11
-84.6337598704073
21
4.46795211754554
31
0.000000000000000
  0
LINE
  5
F108B6
330
F108B7
100
AcDbEntity
8
Geo
100
AcDbLine
10
-84.6337598704073
20
4.46795211754554
30
0.000000000000000
11
-84.6337598704073
21
4.46795211754554
31
0.000000000000000
  0
LINE
  5
F108B8
330
F108B9
100
AcDbEntity
8
Geo
100
AcDbLine
10
-85.6337598704073
20
4.46795211754554
30
0.000000000000000
11
-85.3337598704073
21
4.46795211754554
31
0.000000000000000
  0
LINE
  5
F108BA
330
F108BB
100
AcDbEntity
8
Geo
100
AcDbLine
10
-85.2062598704073
20
4.46795211754554
30
0.000000000000000
11
-85.1212598704073
21
4.46795211754554
31
0.000000000000000
  0
LINE
  5
F108BC
330
F108BD
100
AcDbEntity
8
Geo
100
AcDbLine
10
-84.9087598704073
20
4.46795211754554
30
0.000000000000000
11
-84.4837598704073
21
4.46795211754554
31
0.000000000000000
  0
LINE
  5
F108BE
330
F108BF
100
AcDbEntity
8
Geo
100
AcDbLine
10
-84.3562598704073
20
4.46795211754554
30
0.000000000000000
11
-84.2712598704073
21
4.46795211754554
31
0.000000000000000
  0
LINE
  5
F108C0
330
F108C1
100
AcDbEntity
8
Geo
100
AcDbLine
10
-84.0587598704073
20
4.46795211754554
30
0.000000000000000
11
-83.6337598704073
21
4.46795211754554
31
0.000000000000000
  0
LINE
  5
F108C2
330
F108C3
100
AcDbEntity
8
Geo
100
AcDbLine
10
4.36624012959271
20
11.9679521175455
30
0.000000000000000
11
4.36624012959271
21
4.46795211754554
31
0.000000000000000
  0
LINE
  5
F108C4
330
F108C5
100
AcDbEntity
8
Geo
100
AcDbLine
10
-84.3899240282639
20
4.46795211754554
30
0.000000000000000
11
-84.6331506974264
21
-2.49714838575196
31
0.000000000000000
  0
ARC
  5
F108C6
330
F108C7
100
AcDbEntity
8
Geo
100
AcDbCircle
10
-83.6337598704073
20
-2.53204788245446
30
0.000000000000000
 40
0.999999999999999
100
AcDbArc
 50
178.000000000000
 51
270.000000000000
  0
LINE
  5
F108C8
330
F108C9
100
AcDbEntity
8
Geo
100
AcDbLine
10
-83.6337598704073
20
-3.53204788245446
30
0.000000000000000
11
-65.6337598704073
21
-3.53204788245446
31
0.000000000000000
  0
LINE
  5
F108CA
330
F108CB
100
AcDbEntity
8
Geo
100
AcDbLine
10
-65.6337598704073
20
-3.53204788245446
30
0.000000000000000
11
-65.6337598704073
21
-3.23204788245446
31
0.000000000000000
  0
LINE
  5
F108CC
330
F108CD
100
AcDbEntity
8
Geo
100
AcDbLine
10
-65.6337598704073
20
-3.23204788245446
30
0.000000000000000
11
-49.6337598704073
21
-3.23204788245446
31
0.000000000000000
  0
LINE
  5
F108CE
330
F108CF
100
AcDbEntity
8
Geo
100
AcDbLine
10
-49.6337598704073
20
-3.23204788245446
30
0.000000000000000
11
-49.6337598704073
21
-3.53204788245446
31
0.000000000000000
  0
LINE
  5
F108D0
330
F108D1
100
AcDbEntity
8
Geo
100
AcDbLine
10
-49.6337598704073
20
-3.53204788245446
30
0.000000000000000
11
3.86624012959271
21
-3.53204788245446
31
0.000000000000000
  0
LINE
  5
F108D2
330
F108D3
100
AcDbEntity
8
Geo
100
AcDbLine
10
3.86624012959271
20
-3.53204788245446
30
0.000000000000000
11
4.36624012959271
21
-3.03204788245446
31
0.000000000000000
  0
LINE
  5
F108D4
330
F108D5
100
AcDbEntity
8
Geo
100
AcDbLine
10
-83.6337598704073
20
12.4679521175455
30
0.000000000000000
11
-83.6337598704073
21
-3.53204788245446
31
0.000000000000000
  0
LINE
  5
F108D6
330
F108D7
100
AcDbEntity
8
Geo
100
AcDbLine
10
-83.6337598704073
20
12.4679521175455
30
0.000000000000000
11
-83.6337598704073
21
-3.53204788245446
31
0.000000000000000
  0
LINE
  5
F108D8
330
F108D9
100
AcDbEntity
8
Geo
100
AcDbLine
10
-65.6337598704073
20
12.4679521175455
30
0.000000000000000
11
-65.6337598704073
21
-3.53204788245446
31
0.000000000000000
  0
LINE
  5
F108DA
330
F108DB
100
AcDbEntity
8
Geo
100
AcDbLine
10
-65.6337598704073
20
12.1679521175455
30
0.000000000000000
11
-65.6337598704073
21
-3.23204788245446
31
0.000000000000000
  0
LINE
  5
F108DC
330
F108DD
100
AcDbEntity
8
Geo
100
AcDbLine
10
-49.6337598704073
20
12.1679521175455
30
0.000000000000000
11
-49.6337598704073
21
-3.23204788245446
31
0.000000000000000
  0
LINE
  5
F108DE
330
F108DF
100
AcDbEntity
8
Geo
100
AcDbLine
10
-49.6337598704073
20
12.1679521175455
30
0.000000000000000
11
-49.6337598704073
21
-3.23204788245446
31
0.000000000000000
  0
LINE
  5
F108E0
330
F108E1
100
AcDbEntity
8
Geo
100
AcDbLine
10
3.86624012959271
20
12.4679521175455
30
0.000000000000000
11
3.86624012959271
21
-3.53204788245446
31
0.000000000000000
  0
LINE
  5
F108E2
330
F108E3
100
AcDbEntity
8
Geo
100
AcDbLine
10
4.36624012959271
20
11.9679521175455
30
0.000000000000000
11
4.36624012959271
21
-3.03204788245446
31
0.000000000000000
  0
LWPOLYLINE
  5
F108E4
330
F108E5
100
AcDbEntity
8
Rahmen
100
AcDbPolyline
90
   4
70
   1
43
   0.0
 10
-125.493584504228
 20
102.900570456959
 10
134.474121417404
 20
102.900570456959
 10
134.474121417404
 20
-103.109035011995
 10
-125.493584504228
 20
-103.109035011995
  0
TEXT
  5
F108E6
330
F108E7
 100
AcDbEntity
8
Text
100
AcDbText
10
-124.417113672254
20
-102.609035011995
30
0.000000000000000
40
1.00000000000000
1
ISBESketcher
100
AcDbText
  0
LWPOLYLINE
  5
F108E8
330
F108E9
100
AcDbEntity
8
Rahmen
100
AcDbPolyline
90
   4
70
   1
43
   0.0
 10
94.3755829263865
 20
-100.014181370070
 10
134.474121417404
 20
-100.014181370070
 10
134.474121417404
 20
-103.109035011995
 10
94.3755829263865
 20
-103.109035011995
  0
TEXT
  5
F108EA
330
F108EB
 100
AcDbEntity
8
Text
100
AcDbText
10
95.5000000000000
20
-101.922794269984
30
0.000000000000000
40
0.750000000000000
1
Created by:
100
AcDbText
  0
TEXT
  5
F108EC
330
F108ED
 100
AcDbEntity
8
Text
100
AcDbText
10
120.818014325041
20
-101.922794269984
30
0.000000000000000
40
0.750000000000000
1
nsarkol
100
AcDbText
  0
LWPOLYLINE
  5
F108EE
330
F108EF
100
AcDbEntity
8
Rahmen
100
AcDbPolyline
90
   4
70
   1
43
   0.0
 10
54.4116032893655
 20
-100.014181370070
 10
94.3755829263865
 20
-100.014181370070
 10
94.3755829263865
 20
-103.109035011995
 10
54.4116032893655
 20
-103.109035011995
  0
TEXT
  5
F108F0
330
F108F1
 100
AcDbEntity
8
Text
100
AcDbText
10
55.5000000000000
20
-101.922794269984
30
0.000000000000000
40
0.750000000000000
1
Created for:
100
AcDbText
  0
TEXT
  5
F108F2
330
F108F3
 100
AcDbEntity
8
Text
100
AcDbText
10
0.000000000000000
20
0.250000000000000
30
0.000000000000000
40
0.750000000000000
1

100
AcDbText
  0
LWPOLYLINE
  5
F108F4
330
F108F5
100
AcDbEntity
8
Rahmen
100
AcDbPolyline
90
   4
70
   1
43
   0.0
 10
121.152794871731
 20
-97.0538865821430
 10
134.474121417404
 20
-97.0538865821430
 10
134.474121417404
 20
-100.014181370070
 10
121.152794871731
 20
-100.014181370070
  0
TEXT
  5
F108F6
330
F108F7
 100
AcDbEntity
8
Text
100
AcDbText
10
122.166666666667
20
-98.9227942699835
30
0.000000000000000
40
0.750000000000000
1
Pages
100
AcDbText
  0
TEXT
  5
F108F8
330
F108F9
 100
AcDbEntity
8
Text
100
AcDbText
10
0.000000000000000
20
0.250000000000000
30
0.000000000000000
40
0.750000000000000
1

100
AcDbText
  0
LWPOLYLINE
  5
F108FA
330
F108FB
100
AcDbEntity
8
Rahmen
100
AcDbPolyline
90
   4
70
   1
43
   0.0
 10
121.152794871731
 20
-94.0935917942155
 10
134.474121417404
 20
-94.0935917942155
 10
134.474121417404
 20
-97.0538865821430
 10
121.152794871731
 20
-97.0538865821430
  0
TEXT
  5
F108FC
330
F108FD
 100
AcDbEntity
8
Text
100
AcDbText
10
122.166666666667
20
-95.9227942699835
30
0.000000000000000
40
0.750000000000000
1
Page
100
AcDbText
  0
TEXT
  5
F108FE
330
F108FF
 100
AcDbEntity
8
Text
100
AcDbText
10
0.000000000000000
20
0.250000000000000
30
0.000000000000000
40
0.750000000000000
1

100
AcDbText
  0
LWPOLYLINE
  5
F10900
330
F10901
100
AcDbEntity
8
Rahmen
100
AcDbPolyline
90
   4
70
   1
43
   0.0
 10
54.4116032893655
 20
-94.0935917942155
 10
121.152794871731
 20
-94.0935917942155
 10
121.152794871731
 20
-100.014181370070
 10
54.4116032893655
 20
-100.014181370070
  0
TEXT
  5
F10902
330
F10903
 100
AcDbEntity
8
Text
100
AcDbText
10
55.5000000000000
20
-95.9227942699835
30
0.000000000000000
40
0.750000000000000
1
Date:
100
AcDbText
  0
TEXT
  5
F10904
330
F10905
 100
AcDbEntity
8
Text
100
AcDbText
10
85.3439945343943
20
-98.9227942699835
30
0.000000000000000
40
0.750000000000000
1
05.07.2016
100
AcDbText
  0
LWPOLYLINE
  5
F10906
330
F10907
100
AcDbEntity
8
Rahmen
100
AcDbPolyline
90
   4
70
   1
43
   0.0
 10
54.4116032893655
 20
-88.0384433643638
 10
134.474121417404
 20
-88.0384433643638
 10
134.474121417404
 20
-94.0935917942155
 10
54.4116032893655
 20
-94.0935917942155
  0
TEXT
  5
F10908
330
F10909
 100
AcDbEntity
8
Text
100
AcDbText
10
0.000000000000000
20
0.500000000000000
30
0.000000000000000
40
1.50000000000000
1

100
AcDbText
  0
TEXT
  5
F1090A
330
F1090B
 100
AcDbEntity
8
Text
100
AcDbText
10
65.9062435257004
20
-92.5887260386073
30
0.000000000000000
40
2.50000000000000
1
VHRS 4 160 089 16 03 100 S
100
AcDbText
  0
LWPOLYLINE
  5
F1090C
330
F1090D
100
AcDbEntity
8
Rahmen
100
AcDbPolyline
90
   4
70
   1
43
   0.0
 10
94.3755829263865
 20
-82.1178537885089
 10
134.474121417404
 20
-82.1178537885089
 10
134.474121417404
 20
-88.0384433643638
 10
94.3755829263865
 20
-88.0384433643638
  0
TEXT
  5
F1090E
330
F1090F
 100
AcDbEntity
8
Text
100
AcDbText
10
95.5000000000000
20
-83.9227942699835
30
0.000000000000000
40
0.750000000000000
1
Work piece material:
100
AcDbText
  0
TEXT
  5
F10910
330
F10911
 100
AcDbEntity
8
Text
100
AcDbText
10
0.000000000000000
20
0.250000000000000
30
0.000000000000000
40
0.750000000000000
1

100
AcDbText
  0
LWPOLYLINE
  5
F10912
330
F10913
100
AcDbEntity
8
Rahmen
100
AcDbPolyline
90
   4
70
   1
43
   0.0
 10
54.4116032893655
 20
-82.1178537885089
 10
94.3755829263865
 20
-82.1178537885089
 10
94.3755829263865
 20
-88.0384433643638
 10
54.4116032893655
 20
-88.0384433643638
  0
TEXT
  5
F10914
330
F10915
 100
AcDbEntity
8
Text
100
AcDbText
10
55.5000000000000
20
-83.9227942699835
30
0.000000000000000
40
0.750000000000000
1
Tool material:
100
AcDbText
  0
TEXT
  5
F10916
330
F10917
 100
AcDbEntity
8
Text
100
AcDbText
10
0.000000000000000
20
0.250000000000000
30
0.000000000000000
40
0.750000000000000
1

100
AcDbText
  0
LWPOLYLINE
  5
F10918
330
F10919
100
AcDbEntity
8
Rahmen
100
AcDbPolyline
90
   4
70
   1
43
   0.0
 10
94.3755829263865
 20
-79.0230001465847
 10
134.474121417404
 20
-79.0230001465847
 10
134.474121417404
 20
-82.1178537885089
 10
94.3755829263865
 20
-82.1178537885089
  0
TEXT
  5
F1091A
330
F1091B
 100
AcDbEntity
8
Text
100
AcDbText
10
0.000000000000000
20
0.500000000000000
30
0.000000000000000
40
1.50000000000000
1

100
AcDbText
  0
TEXT
  5
F1091C
330
F1091D
 100
AcDbEntity
8
Text
100
AcDbText
10
0.000000000000000
20
0.250000000000000
30
0.000000000000000
40
0.750000000000000
1

100
AcDbText
  0
LWPOLYLINE
  5
F1091E
330
F1091F
100
AcDbEntity
8
Rahmen
100
AcDbPolyline
90
   4
70
   1
43
   0.0
 10
54.4116032893655
 20
-79.0230001465847
 10
94.3755829263865
 20
-79.0230001465847
 10
94.3755829263865
 20
-82.1178537885089
 10
54.4116032893655
 20
-82.1178537885089
  0
TEXT
  5
F10920
330
F10921
 100
AcDbEntity
8
Text
100
AcDbText
10
55.5000000000000
20
-80.9227942699835
30
0.000000000000000
40
0.750000000000000
1
Scale:
100
AcDbText
  0
TEXT
  5
F10922
330
F10923
 100
AcDbEntity
8
Text
100
AcDbText
10
81.4908085950247
20
-80.9227942699835
30
0.000000000000000
40
0.750000000000000
1
2 : 1
100
AcDbText
0
VIEWPORT
5
294
102
{ACAD_XDICTIONARY
360
58A
102
}
330
25D
100
AcDbEntity
67
1
8
0
60
1
100
AcDbViewport
10
0.0
20
0.0
30
0.0
40
10.0
41
10.0
68
-1
69
1
12
0.0
22
0.0
13
0.0
23
0.0
14
1.0
24
1.0
15
0.0
25
0.0
16
0.0
26
0.0
36
1.0
17
0.0
27
0.0
37
0.0
42
0.0
43
0.0
44
0.0
45
10.0
50
0.0
51
0.0000000000007958
72
100
90
32800
1

281
0
71
0
74
0
110
0.0
120
0.0
130
0.0
111
1.0
121
0.0
131
0.0
112
0.0
122
1.0
132
0.0
79
0
146
0.0
1001
VD_INVISIBLE_NOT_FOR_READ
1000
VD_INVISIBLE_NOT_FOR_READ
0
VIEWPORT
5
295
102
{ACAD_XDICTIONARY
360
58C
102
}
330
25D
100
AcDbEntity
67
1
8
0
60
1
100
AcDbViewport
10
0.0
20
0.0
30
0.0
40
10.0
41
10.0
68
0
69
2
12
0.0
22
0.0
13
0.0
23
0.0
14
1.0
24
1.0
15
0.0
25
0.0
16
0.0
26
0.0
36
1.0
17
0.0
27
0.0
37
0.0
42
0.0
43
0.0
44
0.0
45
10.0
50
0.0
51
0.0000000000007958
72
100
90
163872
1

281
0
71
0
74
0
110
0.0
120
0.0
130
0.0
111
1.0
121
0.0
131
0.0
112
0.0
122
1.0
132
0.0
79
0
146
0.0
1001
VD_INVISIBLE_NOT_FOR_READ
1000
VD_INVISIBLE_NOT_FOR_READ
0
ENDSEC
0
SECTION
2
OBJECTS
0
DICTIONARY
5
13
330
0
100
AcDbDictionary
281
1
3
ACAD_COLOR
350
FA7
3
ACAD_GROUP
350
14
3
ACAD_LAYOUT
350
FCF
3
ACAD_MATERIAL
350
F7A
3
ACAD_MLEADERSTYLE
350
FCD
3
ACAD_MLINESTYLE
350
16
3
ACAD_PLOTSETTINGS
350
17
3
ACAD_PLOTSTYLENAME
350
18
3
ACAD_SCALELIST
350
FAB
3
ACAD_TABLESTYLE
350
FA8
3
ACAD_VISUALSTYLE
350
F93
3
ACDB_RECOMPOSE_DATA
350
107E
3
AcDbVariableDictionary
350
FF0
3
DWGPROPS
350
107F
0
DICTIONARY
5
F10019
330
F10018
100
AcDbDictionary
280
1
281
1
3
ACAD_MTEXT_2008_RT
360
F1001A
0
DICTIONARY
5
F1001E
330
F1001D
100
AcDbDictionary
280
1
281
1
3
ACAD_MTEXT_2008_RT
360
F1001F
0
DICTIONARY
5
F10028
330
F10027
100
AcDbDictionary
280
1
281
1
3
ACAD_MTEXT_2008_RT
360
F10029
0
DICTIONARY
5
F1002D
330
F1002C
100
AcDbDictionary
280
1
281
1
3
ACAD_MTEXT_2008_RT
360
F1002E
0
DICTIONARY
5
F10005
330
F10004
100
AcDbDictionary
280
1
281
1
3
ACAD_MTEXT_2008_RT
360
F10006
0
DICTIONARY
5
F1000F
330
F1000E
100
AcDbDictionary
280
1
281
1
3
ACAD_MTEXT_2008_RT
360
F10010
0
DICTIONARY
5
F1000A
330
F10009
100
AcDbDictionary
280
1
281
1
3
ACAD_MTEXT_2008_RT
360
F1000B
0
DICTIONARY
5
F10014
330
F10013
100
AcDbDictionary
280
1
281
1
3
ACAD_MTEXT_2008_RT
360
F10015
0
DICTIONARY
5
F10023
330
F10022
100
AcDbDictionary
280
1
281
1
3
ACAD_MTEXT_2008_RT
360
F10024
0
DICTIONARY
5
FA7
102
{ACAD_REACTORS
330
13
102
}
330
13
100
AcDbDictionary
281
1
0
DICTIONARY
5
14
330
13
100
AcDbDictionary
281
1
0
DICTIONARY
5
FCF
102
{ACAD_REACTORS
330
13
102
}
330
13
100
AcDbDictionary
281
1
3
Layout1
350
FD1
3
Model
350
FD0
0
DICTIONARY
5
F7A
102
{ACAD_REACTORS
330
13
102
}
330
13
100
AcDbDictionary
281
1
3
ByBlock
350
F83
3
ByLayer
350
F7B
3
Global
350
F8B
0
DICTIONARY
5
FCD
102
{ACAD_REACTORS
330
13
102
}
330
13
100
AcDbDictionary
281
1
3
Standard
350
FCE
0
DICTIONARY
5
16
330
13
100
AcDbDictionary
281
1
3
Standard
350
FAA
0
DICTIONARY
5
17
102
{ACAD_REACTORS
330
13
102
}
330
13
100
AcDbDictionary
281
1
0
ACDBDICTIONARYWDFLT
5
18
102
{ACAD_REACTORS
330
13
102
}
330
13
100
AcDbDictionary
281
1
3
Normal
350
19
100
AcDbDictionaryWithDefault
340
19
0
DICTIONARY
5
FAB
102
{ACAD_REACTORS
330
13
102
}
330
13
100
AcDbDictionary
281
1
3
A0
350
FAC
3
A1
350
FAD
3
A2
350
FAE
3
A3
350
FAF
3
A4
350
FB0
3
A5
350
FB1
3
A6
350
FB2
3
A7
350
FB3
3
A8
350
FB4
3
A9
350
FB5
3
B0
350
FB6
3
B1
350
FB7
3
B2
350
FB8
3
B3
350
FB9
3
B4
350
FBA
3
B5
350
FBB
3
B6
350
FBC
3
B7
350
FBD
3
B8
350
FBE
3
B9
350
FBF
3
C0
350
FC0
3
C1
350
FC1
3
C2
350
FC2
3
C3
350
FC3
3
C4
350
FC4
3
C5
350
FC5
3
C6
350
FC6
3
C7
350
FC7
3
C8
350
FC8
3
C9
350
FC9
3
D0
350
FCA
3
D1
350
FCB
3
D2
350
FCC
0
DICTIONARY
5
FA8
102
{ACAD_REACTORS
330
13
102
}
330
13
100
AcDbDictionary
281
1
3
Standard
350
FA9
0
DICTIONARY
5
F93
102
{ACAD_REACTORS
330
13
102
}
330
13
100
AcDbDictionary
281
1
3
2dWireframe
350
F99
3
3D Hidden
350
F9B
3
3dWireframe
350
F9A
3
Basic
350
F98
3
Brighten
350
F9F
3
ColorChange
350
FA3
3
Conceptual
350
F9C
3
Dim
350
F9E
3
EdgeColorOff
350
FA6
3
Facepattern
350
FA2
3
Flat
350
F94
3
FlatWithEdges
350
F95
3
Gouraud
350
F96
3
GouraudWithEdges
350
F97
3
JitterOff
350
FA4
3
Linepattern
350
FA1
3
OverhangOff
350
FA5
3
Realistic
350
F9D
3
Thicken
350
FA0
0
XRECORD
5
107E
102
{ACAD_REACTORS
330
13
102
}
330
13
100
AcDbXrecord
280
1
90
1
330
FA9
330
F10018
330
F1001D
330
F10027
330
F1002C
330
F10004
330
F1000E
330
F10009
330
F10013
330
F10022
0
XRECORD
5
F1001A
102
{ACAD_REACTORS
330
F10019
102
}
330
F10019
100
AcDbXrecord
280
1
40
48458.0
1
35
0
XRECORD
5
F1001F
102
{ACAD_REACTORS
330
F1001E
102
}
330
F1001E
100
AcDbXrecord
280
1
40
48458.0
1
54
0
XRECORD
5
F10029
102
{ACAD_REACTORS
330
F10028
102
}
330
F10028
100
AcDbXrecord
280
1
40
48458.0
1
19
0
XRECORD
5
F1002E
102
{ACAD_REACTORS
330
F1002D
102
}
330
F1002D
100
AcDbXrecord
280
1
40
48458.0
1
89
0
XRECORD
5
F10006
102
{ACAD_REACTORS
330
F10005
102
}
330
F10005
100
AcDbXrecord
280
1
40
48458.0
1
2°
0
XRECORD
5
F10010
102
{ACAD_REACTORS
330
F1000F
102
}
330
F1000F
100
AcDbXrecord
280
1
40
48458.0
1
R1
0
XRECORD
5
F1000B
102
{ACAD_REACTORS
330
F1000A
102
}
330
F1000A
100
AcDbXrecord
280
1
40
48458.0
1
16
0
XRECORD
5
F10015
102
{ACAD_REACTORS
330
F10014
102
}
330
F10014
100
AcDbXrecord
280
1
40
48458.0
1
15.4
0
LAYOUT
5
FD1
102
{ACAD_XDICTIONARY
360
10A9
102
}
102
{ACAD_REACTORS
330
FCF
102
}
330
FCF
100
AcDbPlotSettings
1

2
Microsoft XPS Document Writer
4

6

40
0.0
41
0.0
42
0.0
43
0.0
44
0.0
45
0.0
46
0.0
47
0.0
48
0.0
49
0.0
140
0.0
141
0.0
142
1.0
143
1.0
70
688
72
0
73
0
74
5
7

75
16
147
1.0
148
0.0
149
0.0
100
AcDbLayout
1
Layout1
70
1
71
1
10
0.0
20
0.0
11
12.0
21
9.0
12
0.0
22
0.0
32
0.0
14
1.000000000000000E+20
24
1.000000000000000E+20
34
1.000000000000000E+20
15
-1.000000000000000E+20
25
-1.000000000000000E+20
35
-1.000000000000000E+20
146
0.0
13
0.0
23
0.0
33
0.0
16
1.0
26
0.0
36
0.0
17
0.0
27
1.0
37
0.0
76
0
330
25D
0
LAYOUT
5
FD0
102
{ACAD_XDICTIONARY
360
10A7
102
}
102
{ACAD_REACTORS
330
FCF
102
}
330
FCF
100
AcDbPlotSettings
1

2
Microsoft XPS Document Writer
4

6

40
0.0
41
0.0
42
0.0
43
0.0
44
0.0
45
0.0
46
0.0
47
0.0
48
0.0
49
0.0
140
0.0
141
0.0
142
1.0
143
1.0
70
1712
72
0
73
0
74
0
7

75
0
147
1.0
148
0.0
149
0.0
100
AcDbLayout
1
Model
70
1
71
0
10
0.0
20
0.0
11
12.0
21
9.0
12
0.0
22
0.0
32
0.0
14
0.0
24
0.0
34
0.0
15
0.0
25
0.0
35
0.0
146
0.0
13
0.0
23
0.0
33
0.0
16
1.0
26
0.0
36
0.0
17
0.0
27
1.0
37
0.0
76
0
330
261
331
26B
0
MATERIAL
5
F83
102
{ACAD_XDICTIONARY
360
F84
102
}
102
{ACAD_REACTORS
330
F7A
102
}
330
F7A
100
AcDbMaterial
1
ByBlock
72
0
43
0.0208333333333333
43
0.0
43
0.0
43
0.0
43
0.0
43
0.0208333333333333
43
0.0
43
0.0
43
0.0
43
0.0
43
1.0
43
0.0
43
0.0
43
0.0
43
0.0
43
1.0
77
0
47
0.0208333333333333
47
0.0
47
0.0
47
0.0
47
0.0
47
0.0208333333333333
47
0.0
47
0.0
47
0.0
47
0.0
47
1.0
47
0.0
47
0.0
47
0.0
47
0.0
47
1.0
171
0
49
0.0208333333333333
49
0.0
49
0.0
49
0.0
49
0.0
49
0.0208333333333333
49
0.0
49
0.0
49
0.0
49
0.0
49
1.0
49
0.0
49
0.0
49
0.0
49
0.0
49
1.0
175
0
142
0.0208333333333333
142
0.0
142
0.0
142
0.0
142
0.0
142
0.0208333333333333
142
0.0
142
0.0
142
0.0
142
0.0
142
1.0
142
0.0
142
0.0
142
0.0
142
0.0
142
1.0
179
0
144
0.0208333333333333
144
0.0
144
0.0
144
0.0
144
0.0
144
0.0208333333333333
144
0.0
144
0.0
144
0.0
144
0.0
144
1.0
144
0.0
144
0.0
144
0.0
144
0.0
144
1.0
147
0.0208333333333333
147
0.0
147
0.0
147
0.0
147
0.0
147
0.0208333333333333
147
0.0
147
0.0
147
0.0
147
0.0
147
1.0
147
0.0
147
0.0
147
0.0
147
0.0
147
1.0
0
MATERIAL
5
F7B
102
{ACAD_XDICTIONARY
360
F7C
102
}
102
{ACAD_REACTORS
330
F7A
102
}
330
F7A
100
AcDbMaterial
1
ByLayer
72
0
43
0.0208333333333333
43
0.0
43
0.0
43
0.0
43
0.0
43
0.0208333333333333
43
0.0
43
0.0
43
0.0
43
0.0
43
1.0
43
0.0
43
0.0
43
0.0
43
0.0
43
1.0
77
0
47
0.0208333333333333
47
0.0
47
0.0
47
0.0
47
0.0
47
0.0208333333333333
47
0.0
47
0.0
47
0.0
47
0.0
47
1.0
47
0.0
47
0.0
47
0.0
47
0.0
47
1.0
171
0
49
0.0208333333333333
49
0.0
49
0.0
49
0.0
49
0.0
49
0.0208333333333333
49
0.0
49
0.0
49
0.0
49
0.0
49
1.0
49
0.0
49
0.0
49
0.0
49
0.0
49
1.0
175
0
142
0.0208333333333333
142
0.0
142
0.0
142
0.0
142
0.0
142
0.0208333333333333
142
0.0
142
0.0
142
0.0
142
0.0
142
1.0
142
0.0
142
0.0
142
0.0
142
0.0
142
1.0
179
0
144
0.0208333333333333
144
0.0
144
0.0
144
0.0
144
0.0
144
0.0208333333333333
144
0.0
144
0.0
144
0.0
144
0.0
144
1.0
144
0.0
144
0.0
144
0.0
144
0.0
144
1.0
147
0.0208333333333333
147
0.0
147
0.0
147
0.0
147
0.0
147
0.0208333333333333
147
0.0
147
0.0
147
0.0
147
0.0
147
1.0
147
0.0
147
0.0
147
0.0
147
0.0
147
1.0
0
MATERIAL
5
F8B
102
{ACAD_XDICTIONARY
360
F8C
102
}
102
{ACAD_REACTORS
330
F7A
102
}
330
F7A
100
AcDbMaterial
1
Global
72
0
43
0.0208333333333333
43
0.0
43
0.0
43
0.0
43
0.0
43
0.0208333333333333
43
0.0
43
0.0
43
0.0
43
0.0
43
1.0
43
0.0
43
0.0
43
0.0
43
0.0
43
1.0
77
0
47
0.0208333333333333
47
0.0
47
0.0
47
0.0
47
0.0
47
0.0208333333333333
47
0.0
47
0.0
47
0.0
47
0.0
47
1.0
47
0.0
47
0.0
47
0.0
47
0.0
47
1.0
171
0
49
0.0208333333333333
49
0.0
49
0.0
49
0.0
49
0.0
49
0.0208333333333333
49
0.0
49
0.0
49
0.0
49
0.0
49
1.0
49
0.0
49
0.0
49
0.0
49
0.0
49
1.0
175
0
142
0.0208333333333333
142
0.0
142
0.0
142
0.0
142
0.0
142
0.0208333333333333
142
0.0
142
0.0
142
0.0
142
0.0
142
1.0
142
0.0
142
0.0
142
0.0
142
0.0
142
1.0
179
0
144
0.0208333333333333
144
0.0
144
0.0
144
0.0
144
0.0
144
0.0208333333333333
144
0.0
144
0.0
144
0.0
144
0.0
144
1.0
144
0.0
144
0.0
144
0.0
144
0.0
144
1.0
147
0.0208333333333333
147
0.0
147
0.0
147
0.0
147
0.0
147
0.0208333333333333
147
0.0
147
0.0
147
0.0
147
0.0
147
1.0
147
0.0
147
0.0
147
0.0
147
0.0
147
1.0
0
MLEADERSTYLE
5
FCE
102
{ACAD_REACTORS
330
FCD
102
}
330
FCD
100
AcDbMLeaderStyle
170
2
171
1
172
0
90
2
40
0.0
41
0.0
173
1
91
-1056964608
340
256
92
-2
290
1
42
0.09
291
1
43
0.36
3
Standard
44
0.18
300

342
253
174
1
178
6
175
1
176
0
93
-1056964608
45
0.18
292
0
297
0
46
0.18
94
-1056964608
47
1.0
49
1.0
140
1.0
293
1
141
0.0
294
1
177
0
142
1.0
295
0
296
0
143
0.125
1001
ACAD_MLEADERVER
1070
2
0
MLINESTYLE
5
FAA
102
{ACAD_REACTORS
330
16
102
}
330
16
100
AcDbMlineStyle
2
STANDARD
70
0
3

62
256
51
90.0
52
90.0
71
2
49
0.5
62
256
6
BYLAYER
49
-0.5
62
256
6
BYLAYER
0
ACDBPLACEHOLDER
5
19
102
{ACAD_REACTORS
330
18
102
}
330
18
0
SCALE
5
FAC
102
{ACAD_REACTORS
330
FAB
102
}
330
FAB
100
AcDbScale
70
0
300
1:1
140
1.0
141
1.0
290
1
0
SCALE
5
FAD
102
{ACAD_REACTORS
330
FAB
102
}
330
FAB
100
AcDbScale
70
0
300
1:2
140
1.0
141
2.0
290
0
0
SCALE
5
FAE
102
{ACAD_REACTORS
330
FAB
102
}
330
FAB
100
AcDbScale
70
0
300
1:4
140
1.0
141
4.0
290
0
0
SCALE
5
FAF
102
{ACAD_REACTORS
330
FAB
102
}
330
FAB
100
AcDbScale
70
0
300
1:5
140
1.0
141
5.0
290
0
0
SCALE
5
FB0
102
{ACAD_REACTORS
330
FAB
102
}
330
FAB
100
AcDbScale
70
0
300
1:8
140
1.0
141
8.0
290
0
0
SCALE
5
FB1
102
{ACAD_REACTORS
330
FAB
102
}
330
FAB
100
AcDbScale
70
0
300
1:10
140
1.0
141
10.0
290
0
0
SCALE
5
FB2
102
{ACAD_REACTORS
330
FAB
102
}
330
FAB
100
AcDbScale
70
0
300
1:16
140
1.0
141
16.0
290
0
0
SCALE
5
FB3
102
{ACAD_REACTORS
330
FAB
102
}
330
FAB
100
AcDbScale
70
0
300
1:20
140
1.0
141
20.0
290
0
0
SCALE
5
FB4
102
{ACAD_REACTORS
330
FAB
102
}
330
FAB
100
AcDbScale
70
0
300
1:30
140
1.0
141
30.0
290
0
0
SCALE
5
FB5
102
{ACAD_REACTORS
330
FAB
102
}
330
FAB
100
AcDbScale
70
0
300
1:40
140
1.0
141
40.0
290
0
0
SCALE
5
FB6
102
{ACAD_REACTORS
330
FAB
102
}
330
FAB
100
AcDbScale
70
0
300
1:50
140
1.0
141
50.0
290
0
0
SCALE
5
FB7
102
{ACAD_REACTORS
330
FAB
102
}
330
FAB
100
AcDbScale
70
0
300
1:100
140
1.0
141
100.0
290
0
0
SCALE
5
FB8
102
{ACAD_REACTORS
330
FAB
102
}
330
FAB
100
AcDbScale
70
0
300
2:1
140
2.0
141
1.0
290
0
0
SCALE
5
FB9
102
{ACAD_REACTORS
330
FAB
102
}
330
FAB
100
AcDbScale
70
0
300
4:1
140
4.0
141
1.0
290
0
0
SCALE
5
FBA
102
{ACAD_REACTORS
330
FAB
102
}
330
FAB
100
AcDbScale
70
0
300
8:1
140
8.0
141
1.0
290
0
0
SCALE
5
FBB
102
{ACAD_REACTORS
330
FAB
102
}
330
FAB
100
AcDbScale
70
0
300
10:1
140
10.0
141
1.0
290
0
0
SCALE
5
FBC
102
{ACAD_REACTORS
330
FAB
102
}
330
FAB
100
AcDbScale
70
0
300
100:1
140
100.0
141
1.0
290
0
0
SCALE
5
FBD
102
{ACAD_REACTORS
330
FAB
102
}
330
FAB
100
AcDbScale
70
0
300
1/128" = 1'-0"
140
0.0078125
141
12.0
290
0
0
SCALE
5
FBE
102
{ACAD_REACTORS
330
FAB
102
}
330
FAB
100
AcDbScale
70
0
300
1/64" = 1'-0"
140
0.015625
141
12.0
290
0
0
SCALE
5
FBF
102
{ACAD_REACTORS
330
FAB
102
}
330
FAB
100
AcDbScale
70
0
300
1/32" = 1'-0"
140
0.03125
141
12.0
290
0
0
SCALE
5
FC0
102
{ACAD_REACTORS
330
FAB
102
}
330
FAB
100
AcDbScale
70
0
300
1/16" = 1'-0"
140
0.0625
141
12.0
290
0
0
SCALE
5
FC1
102
{ACAD_REACTORS
330
FAB
102
}
330
FAB
100
AcDbScale
70
0
300
3/32" = 1'-0"
140
0.09375
141
12.0
290
0
0
SCALE
5
FC2
102
{ACAD_REACTORS
330
FAB
102
}
330
FAB
100
AcDbScale
70
0
300
1/8" = 1'-0"
140
0.125
141
12.0
290
0
0
SCALE
5
FC3
102
{ACAD_REACTORS
330
FAB
102
}
330
FAB
100
AcDbScale
70
0
300
3/16" = 1'-0"
140
0.1875
141
12.0
290
0
0
SCALE
5
FC4
102
{ACAD_REACTORS
330
FAB
102
}
330
FAB
100
AcDbScale
70
0
300
1/4" = 1'-0"
140
0.25
141
12.0
290
0
0
SCALE
5
FC5
102
{ACAD_REACTORS
330
FAB
102
}
330
FAB
100
AcDbScale
70
0
300
3/8" = 1'-0"
140
0.375
141
12.0
290
0
0
SCALE
5
FC6
102
{ACAD_REACTORS
330
FAB
102
}
330
FAB
100
AcDbScale
70
0
300
1/2" = 1'-0"
140
0.5
141
12.0
290
0
0
SCALE
5
FC7
102
{ACAD_REACTORS
330
FAB
102
}
330
FAB
100
AcDbScale
70
0
300
3/4" = 1'-0"
140
0.75
141
12.0
290
0
0
SCALE
5
FC8
102
{ACAD_REACTORS
330
FAB
102
}
330
FAB
100
AcDbScale
70
0
300
1" = 1'-0"
140
1.0
141
12.0
290
0
0
SCALE
5
FC9
102
{ACAD_REACTORS
330
FAB
102
}
330
FAB
100
AcDbScale
70
0
300
1-1/2" = 1'-0"
140
1.5
141
12.0
290
0
0
SCALE
5
FCA
102
{ACAD_REACTORS
330
FAB
102
}
330
FAB
100
AcDbScale
70
0
300
3" = 1'-0"
140
3.0
141
12.0
290
0
0
SCALE
5
FCB
102
{ACAD_REACTORS
330
FAB
102
}
330
FAB
100
AcDbScale
70
0
300
6" = 1'-0"
140
6.0
141
12.0
290
0
0
SCALE
5
FCC
102
{ACAD_REACTORS
330
FAB
102
}
330
FAB
100
AcDbScale
70
0
300
1'-0" = 1'-0"
140
12.0
141
12.0
290
0
0
TABLESTYLE
5
FA9
102
{ACAD_XDICTIONARY
360
FF8
102
}
102
{ACAD_REACTORS
330
FA8
102
}
330
FA8
100
AcDbTableStyle
3
Standard
70
0
71
0
40
0.06
41
0.06
280
0
281
0
7
Standard
140
0.18
170
2
62
0
63
7
283
0
274
-2
284
1
64
0
275
-2
285
1
65
0
276
-2
286
1
66
0
277
-2
287
1
67
0
278
-2
288
1
68
0
279
-2
289
1
69
0
7
Standard
140
0.25
170
5
62
0
63
7
283
0
274
-2
284
1
64
0
275
-2
285
1
65
0
276
-2
286
1
66
0
277
-2
287
1
67
0
278
-2
288
1
68
0
279
-2
289
1
69
0
7
Standard
140
0.18
170
5
62
0
63
7
283
0
274
-2
284
1
64
0
275
-2
285
1
65
0
276
-2
286
1
66
0
277
-2
287
1
67
0
278
-2
288
1
68
0
279
-2
289
1
69
0
0
VISUALSTYLE
5
F99
102
{ACAD_XDICTIONARY
360
108A
102
}
102
{ACAD_REACTORS
330
F93
102
}
330
F93
100
AcDbVisualStyle
2

70
4
71
0
72
2
73
0
90
0
40
-0.6
41
-30.0
62
5
63
7
74
1
91
4
64
7
65
257
75
1
175
1
42
1.0
92
0
66
257
43
1.0
76
1
77
6
78
2
67
7
79
5
170
0
171
0
290
0
174
0
93
1
44
0.0
173
0
291
0
45
0.0
1001
ACAD
1000
AcDbSavedByObjectVersion
1070
0
0
VISUALSTYLE
5
F9B
102
{ACAD_XDICTIONARY
360
108E
102
}
102
{ACAD_REACTORS
330
F93
102
}
330
F93
100
AcDbVisualStyle
2

70
6
71
1
72
2
73
2
90
0
40
-0.6
41
-30.0
62
5
63
7
74
2
91
2
64
7
65
257
75
2
175
1
42
179.0
92
0
66
257
43
1.0
76
1
77
6
78
2
67
7
79
3
170
0
171
0
290
0
174
0
93
1
44
0.0
173
0
291
0
45
0.0
1001
ACAD
1000
AcDbSavedByObjectVersion
1070
0
0
VISUALSTYLE
5
F9A
102
{ACAD_XDICTIONARY
360
108C
102
}
102
{ACAD_REACTORS
330
F93
102
}
330
F93
100
AcDbVisualStyle
2

70
5
71
0
72
2
73
0
90
0
40
-0.6
41
-30.0
62
5
63
7
74
1
91
4
64
7
65
257
75
1
175
1
42
1.0
92
0
66
257
43
1.0
76
1
77
6
78
2
67
7
79
5
170
0
171
0
290
0
174
0
93
1
44
0.0
173
0
291
0
45
0.0
1001
ACAD
1000
AcDbSavedByObjectVersion
1070
0
0
VISUALSTYLE
5
F98
102
{ACAD_XDICTIONARY
360
1088
102
}
102
{ACAD_REACTORS
330
F93
102
}
330
F93
100
AcDbVisualStyle
2

70
7
71
1
72
0
73
1
90
0
40
-0.6
41
-30.0
62
5
63
7
74
0
91
4
64
7
65
257
75
1
175
1
42
1.0
92
8
66
7
43
1.0
76
1
77
6
78
2
67
7
79
5
170
0
171
0
290
0
174
0
93
1
44
0.0
173
0
291
1
45
0.0
1001
ACAD
1000
AcDbSavedByObjectVersion
1070
0
0
VISUALSTYLE
5
F9F
102
{ACAD_XDICTIONARY
360
1096
102
}
102
{ACAD_REACTORS
330
F93
102
}
330
F93
100
AcDbVisualStyle
2

70
12
71
2
72
2
73
0
90
0
40
-0.6
41
-30.0
62
5
63
7
74
1
91
4
64
7
65
257
75
1
175
1
42
1.0
92
8
66
7
43
1.0
76
1
77
6
78
2
67
7
79
5
170
0
171
0
290
0
174
0
93
1
44
50.0
173
0
291
1
45
0.0
1001
ACAD
1000
AcDbSavedByObjectVersion
1070
0
0
VISUALSTYLE
5
FA3
102
{ACAD_XDICTIONARY
360
109E
102
}
102
{ACAD_REACTORS
330
F93
102
}
330
F93
100
AcDbVisualStyle
2

70
16
71
2
72
2
73
3
90
0
40
-0.6
41
-30.0
62
5
63
8
74
1
91
4
64
7
65
257
75
1
175
1
42
1.0
92
8
66
8
43
1.0
76
1
77
6
78
2
67
7
79
5
170
0
171
0
290
0
174
0
93
1
44
0.0
173
0
291
1
45
0.0
1001
ACAD
1000
AcDbSavedByObjectVersion
1070
0
0
VISUALSTYLE
5
F9C
102
{ACAD_XDICTIONARY
360
1090
102
}
102
{ACAD_REACTORS
330
F93
102
}
330
F93
100
AcDbVisualStyle
2

70
9
71
3
72
2
73
0
90
0
40
-0.6
41
-30.0
62
5
63
7
74
2
91
2
64
7
65
257
75
1
175
1
42
179.0
92
8
66
7
43
1.0
76
1
77
6
78
2
67
7
79
3
170
0
171
0
290
0
174
0
93
1
44
0.0
173
0
291
0
45
0.0
1001
ACAD
1000
AcDbSavedByObjectVersion
1070
0
0
VISUALSTYLE
5
F9E
102
{ACAD_XDICTIONARY
360
1094
102
}
102
{ACAD_REACTORS
330
F93
102
}
330
F93
100
AcDbVisualStyle
2

70
11
71
2
72
2
73
0
90
0
40
-0.6
41
-30.0
62
5
63
7
74
1
91
4
64
7
65
257
75
1
175
1
42
1.0
92
8
66
7
43
1.0
76
1
77
6
78
2
67
7
79
5
170
0
171
0
290
0
174
0
93
1
44
-50.0
173
0
291
1
45
0.0
1001
ACAD
1000
AcDbSavedByObjectVersion
1070
0
0
VISUALSTYLE
5
FA6
102
{ACAD_XDICTIONARY
360
10A4
102
}
102
{ACAD_REACTORS
330
F93
102
}
330
F93
100
AcDbVisualStyle
2

70
22
71
2
72
2
73
0
90
0
40
-0.6
41
-30.0
62
5
63
7
74
1
91
4
64
7
65
257
75
1
175
1
42
1.0
92
8
66
7
43
1.0
76
1
77
6
78
2
67
7
79
5
170
0
171
0
290
0
174
0
93
1
44
0.0
173
0
291
1
45
0.0
1001
ACAD
1000
AcDbSavedByObjectVersion
1070
0
0
VISUALSTYLE
5
FA2
102
{ACAD_XDICTIONARY
360
109C
102
}
102
{ACAD_REACTORS
330
F93
102
}
330
F93
100
AcDbVisualStyle
2

70
15
71
2
72
2
73
0
90
0
40
-0.6
41
-30.0
62
5
63
7
74
1
91
4
64
7
65
257
75
1
175
1
42
1.0
92
8
66
7
43
1.0
76
1
77
6
78
2
67
7
79
5
170
0
171
0
290
0
174
0
93
1
44
0.0
173
0
291
1
45
0.0
1001
ACAD
1000
AcDbSavedByObjectVersion
1070
0
0
VISUALSTYLE
5
F94
102
{ACAD_XDICTIONARY
360
1080
102
}
102
{ACAD_REACTORS
330
F93
102
}
330
F93
100
AcDbVisualStyle
2

70
0
71
2
72
1
73
1
90
2
40
-0.6
41
30.0
62
5
63
7
74
0
91
4
64
7
65
257
75
1
175
1
42
1.0
92
8
66
7
43
1.0
76
1
77
6
78
2
67
7
79
5
170
0
171
0
290
0
174
0
93
13
44
0.0
173
0
291
1
45
0.0
1001
ACAD
1000
AcDbSavedByObjectVersion
1070
0
0
VISUALSTYLE
5
F95
102
{ACAD_XDICTIONARY
360
1082
102
}
102
{ACAD_REACTORS
330
F93
102
}
330
F93
100
AcDbVisualStyle
2

70
1
71
2
72
1
73
1
90
2
40
-0.6
41
30.0
62
5
63
7
74
1
91
4
64
7
65
257
75
1
175
1
42
1.0
92
0
66
257
43
1.0
76
1
77
6
78
2
67
7
79
5
170
0
171
0
290
0
174
0
93
13
44
0.0
173
0
291
1
45
0.0
1001
ACAD
1000
AcDbSavedByObjectVersion
1070
0
0
VISUALSTYLE
5
F96
102
{ACAD_XDICTIONARY
360
1084
102
}
102
{ACAD_REACTORS
330
F93
102
}
330
F93
100
AcDbVisualStyle
2

70
2
71
2
72
2
73
1
90
2
40
-0.6
41
30.0
62
5
63
7
74
0
91
4
64
7
65
257
75
1
175
1
42
1.0
92
0
66
7
43
1.0
76
1
77
6
78
2
67
7
79
5
170
0
171
0
290
0
174
0
93
13
44
0.0
173
0
291
1
45
0.0
1001
ACAD
1000
AcDbSavedByObjectVersion
1070
0
0
VISUALSTYLE
5
F97
102
{ACAD_XDICTIONARY
360
1086
102
}
102
{ACAD_REACTORS
330
F93
102
}
330
F93
100
AcDbVisualStyle
2

70
3
71
2
72
2
73
1
90
2
40
-0.6
41
30.0
62
5
63
7
74
1
91
4
64
7
65
257
75
1
175
1
42
1.0
92
0
66
257
43
1.0
76
1
77
6
78
2
67
7
79
5
170
0
171
0
290
0
174
0
93
13
44
0.0
173
0
291
1
45
0.0
1001
ACAD
1000
AcDbSavedByObjectVersion
1070
0
0
VISUALSTYLE
5
FA4
102
{ACAD_XDICTIONARY
360
10A0
102
}
102
{ACAD_REACTORS
330
F93
102
}
330
F93
100
AcDbVisualStyle
2

70
20
71
2
72
2
73
0
90
0
40
-0.6
41
-30.0
62
5
63
7
74
1
91
4
64
7
65
257
75
1
175
1
42
1.0
92
10
66
7
43
1.0
76
1
77
6
78
2
67
7
79
5
170
0
171
0
290
0
174
0
93
1
44
0.0
173
0
291
1
45
0.0
1001
ACAD
1000
AcDbSavedByObjectVersion
1070
0
0
VISUALSTYLE
5
FA1
102
{ACAD_XDICTIONARY
360
109A
102
}
102
{ACAD_REACTORS
330
F93
102
}
330
F93
100
AcDbVisualStyle
2

70
14
71
2
72
2
73
0
90
0
40
-0.6
41
-30.0
62
5
63
7
74
1
91
4
64
7
65
257
75
7
175
7
42
1.0
92
8
66
7
43
1.0
76
1
77
6
78
2
67
7
79
5
170
0
171
0
290
0
174
0
93
1
44
0.0
173
0
291
1
45
0.0
1001
ACAD
1000
AcDbSavedByObjectVersion
1070
0
0
VISUALSTYLE
5
FA5
102
{ACAD_XDICTIONARY
360
10A2
102
}
102
{ACAD_REACTORS
330
F93
102
}
330
F93
100
AcDbVisualStyle
2

70
21
71
2
72
2
73
0
90
0
40
-0.6
41
-30.0
62
5
63
7
74
1
91
4
64
7
65
257
75
1
175
1
42
1.0
92
9
66
7
43
1.0
76
1
77
6
78
2
67
7
79
5
170
0
171
0
290
0
174
0
93
1
44
0.0
173
0
291
1
45
0.0
1001
ACAD
1000
AcDbSavedByObjectVersion
1070
0
0
VISUALSTYLE
5
F9D
102
{ACAD_XDICTIONARY
360
1092
102
}
102
{ACAD_REACTORS
330
F93
102
}
330
F93
100
AcDbVisualStyle
2

70
8
71
2
72
2
73
0
90
0
40
-0.6
41
-30.0
62
5
63
7
74
1
91
0
64
7
65
257
75
1
175
1
42
1.0
92
8
66
8
43
1.0
76
1
77
6
78
2
67
7
79
5
170
0
171
0
290
0
174
0
93
13
44
0.0
173
0
291
0
45
0.0
1001
ACAD
1000
AcDbSavedByObjectVersion
1070
0
0
VISUALSTYLE
5
FA0
102
{ACAD_XDICTIONARY
360
1098
102
}
102
{ACAD_REACTORS
330
F93
102
}
330
F93
100
AcDbVisualStyle
2

70
13
71
2
72
2
73
0
90
0
40
-0.6
41
-30.0
62
5
63
7
74
1
91
4
64
7
65
257
75
1
175
1
42
1.0
92
12
66
7
43
1.0
76
1
77
6
78
2
67
7
79
5
170
0
171
0
290
0
174
0
93
1
44
0.0
173
0
291
1
45
0.0
1001
ACAD
1000
AcDbSavedByObjectVersion
1070
0
0
DICTIONARYVAR
5
FF3
102
{ACAD_REACTORS
330
FF0
102
}
330
FF0
100
DictionaryVariables
280
0
1
1:1
0
DICTIONARYVAR
5
FF2
102
{ACAD_REACTORS
330
FF0
102
}
330
FF0
100
DictionaryVariables
280
0
1
STANDARD
0
DICTIONARYVAR
5
FF1
102
{ACAD_REACTORS
330
FF0
102
}
330
FF0
100
DictionaryVariables
280
0
1
STANDARD
0
DICTIONARYVAR
5
FF6
102
{ACAD_REACTORS
330
FF0
102
}
330
FF0
100
DictionaryVariables
280
0
1
1
0
DICTIONARYVAR
5
FF5
102
{ACAD_REACTORS
330
FF0
102
}
330
FF0
100
DictionaryVariables
280
0
1
0
0
DICTIONARYVAR
5
FF4
102
{ACAD_REACTORS
330
FF0
102
}
330
FF0
100
DictionaryVariables
280
0
1
127
0
DICTIONARYVAR
5
1078
102
{ACAD_REACTORS
330
FF0
102
}
330
FF0
100
DictionaryVariables
280
0
1
2
0
DICTIONARY
5
10A9
330
FD1
100
AcDbDictionary
280
1
281
1
3
ACAD_XREC_ROUNDTRIP
360
10AA
0
DICTIONARY
5
10A7
330
FD0
100
AcDbDictionary
280
1
281
1
3
ACAD_XREC_ROUNDTRIP
360
10A8
0
DICTIONARY
5
F84
330
F83
100
AcDbDictionary
280
1
281
1
3
ACAD_XREC_ROUNDTRIP
360
FFF
3
BUMPTILE
360
F86
3
DIFFUSETILE
360
F85
3
OPACITYTILE
360
F89
3
REFLECTIONTILE
360
F88
3
REFRACTIONTILE
360
F8A
3
SPECULARTILE
360
F87
0
DICTIONARY
5
F7C
330
F7B
100
AcDbDictionary
280
1
281
1
3
ACAD_XREC_ROUNDTRIP
360
FFE
3
BUMPTILE
360
F7E
3
DIFFUSETILE
360
F7D
3
OPACITYTILE
360
F81
3
REFLECTIONTILE
360
F80
3
REFRACTIONTILE
360
F82
3
SPECULARTILE
360
F7F
0
DICTIONARY
5
F8C
330
F8B
100
AcDbDictionary
280
1
281
1
3
ACAD_XREC_ROUNDTRIP
360
1000
3
BUMPTILE
360
F8E
3
DIFFUSETILE
360
F8D
3
OPACITYTILE
360
F91
3
REFLECTIONTILE
360
F90
3
REFRACTIONTILE
360
F92
3
SPECULARTILE
360
F8F
0
DICTIONARY
5
FF8
330
FA9
100
AcDbDictionary
280
1
281
1
3
ACAD_ROUNDTRIP_2008_TABLESTYLE_CELLSTYLEMAP
360
1079
3
ACAD_XREC_ROUNDTRIP
360
10A6
0
DICTIONARY
5
108A
330
F99
100
AcDbDictionary
280
1
281
1
3
ACAD_XREC_ROUNDTRIP
360
108B
0
DICTIONARY
5
108E
330
F9B
100
AcDbDictionary
280
1
281
1
3
ACAD_XREC_ROUNDTRIP
360
108F
0
DICTIONARY
5
108C
330
F9A
100
AcDbDictionary
280
1
281
1
3
ACAD_XREC_ROUNDTRIP
360
108D
0
DICTIONARY
5
1088
330
F98
100
AcDbDictionary
280
1
281
1
3
ACAD_XREC_ROUNDTRIP
360
1089
0
DICTIONARY
5
1096
330
F9F
100
AcDbDictionary
280
1
281
1
3
ACAD_XREC_ROUNDTRIP
360
1097
0
DICTIONARY
5
109E
330
FA3
100
AcDbDictionary
280
1
281
1
3
ACAD_XREC_ROUNDTRIP
360
109F
0
DICTIONARY
5
1090
330
F9C
100
AcDbDictionary
280
1
281
1
3
ACAD_XREC_ROUNDTRIP
360
1091
0
DICTIONARY
5
1094
330
F9E
100
AcDbDictionary
280
1
281
1
3
ACAD_XREC_ROUNDTRIP
360
1095
0
DICTIONARY
5
10A4
330
FA6
100
AcDbDictionary
280
1
281
1
3
ACAD_XREC_ROUNDTRIP
360
10A5
0
DICTIONARY
5
109C
330
FA2
100
AcDbDictionary
280
1
281
1
3
ACAD_XREC_ROUNDTRIP
360
109D
0
DICTIONARY
5
1080
330
F94
100
AcDbDictionary
280
1
281
1
3
ACAD_XREC_ROUNDTRIP
360
1081
0
DICTIONARY
5
1082
330
F95
100
AcDbDictionary
280
1
281
1
3
ACAD_XREC_ROUNDTRIP
360
1083
0
DICTIONARY
5
1084
330
F96
100
AcDbDictionary
280
1
281
1
3
ACAD_XREC_ROUNDTRIP
360
1085
0
DICTIONARY
5
1086
330
F97
100
AcDbDictionary
280
1
281
1
3
ACAD_XREC_ROUNDTRIP
360
1087
0
DICTIONARY
5
10A0
330
FA4
100
AcDbDictionary
280
1
281
1
3
ACAD_XREC_ROUNDTRIP
360
10A1
0
DICTIONARY
5
109A
330
FA1
100
AcDbDictionary
280
1
281
1
3
ACAD_XREC_ROUNDTRIP
360
109B
0
DICTIONARY
5
10A2
330
FA5
100
AcDbDictionary
280
1
281
1
3
ACAD_XREC_ROUNDTRIP
360
10A3
0
DICTIONARY
5
1092
330
F9D
100
AcDbDictionary
280
1
281
1
3
ACAD_XREC_ROUNDTRIP
360
1093
0
DICTIONARY
5
1098
330
FA0
100
AcDbDictionary
280
1
281
1
3
ACAD_XREC_ROUNDTRIP
360
1099
0
XRECORD
5
10AA
102
{ACAD_REACTORS
330
10A9
102
}
330
10A9
100
AcDbXrecord
280
1
102
SHADEPLOT
70
0
102
SHADEPLOTRESLEVEL
70
2
102
SHADEPLOTCUSTOMDPI
70
300
0
XRECORD
5
10A8
102
{ACAD_REACTORS
330
10A7
102
}
330
10A7
100
AcDbXrecord
280
1
102
SHADEPLOT
70
0
102
SHADEPLOTRESLEVEL
70
2
102
SHADEPLOTCUSTOMDPI
70
300
0
XRECORD
5
FFF
102
{ACAD_REACTORS
330
F84
102
}
330
F84
100
AcDbXrecord
280
1
102
MATERIAL
148
0.0
149
0.0
149
0.0
93
0
94
127
282
0
72
0
77
0
171
0
175
0
179
0
273
0
0
XRECORD
5
F86
102
{ACAD_REACTORS
330
F84
102
}
330
F84
100
AcDbXrecord
280
1
270
1
271
1
0
XRECORD
5
F85
102
{ACAD_REACTORS
330
F84
102
}
330
F84
100
AcDbXrecord
280
1
270
1
271
1
0
XRECORD
5
F89
102
{ACAD_REACTORS
330
F84
102
}
330
F84
100
AcDbXrecord
280
1
270
1
271
1
0
XRECORD
5
F88
102
{ACAD_REACTORS
330
F84
102
}
330
F84
100
AcDbXrecord
280
1
270
1
271
1
0
XRECORD
5
F8A
102
{ACAD_REACTORS
330
F84
102
}
330
F84
100
AcDbXrecord
280
1
270
1
271
1
0
XRECORD
5
F87
102
{ACAD_REACTORS
330
F84
102
}
330
F84
100
AcDbXrecord
280
1
270
1
271
1
0
XRECORD
5
FFE
102
{ACAD_REACTORS
330
F7C
102
}
330
F7C
100
AcDbXrecord
280
1
102
MATERIAL
148
0.0
149
0.0
149
0.0
93
0
94
127
282
0
72
0
77
0
171
0
175
0
179
0
273
0
0
XRECORD
5
F7E
102
{ACAD_REACTORS
330
F7C
102
}
330
F7C
100
AcDbXrecord
280
1
270
1
271
1
0
XRECORD
5
F7D
102
{ACAD_REACTORS
330
F7C
102
}
330
F7C
100
AcDbXrecord
280
1
270
1
271
1
0
XRECORD
5
F81
102
{ACAD_REACTORS
330
F7C
102
}
330
F7C
100
AcDbXrecord
280
1
270
1
271
1
0
XRECORD
5
F80
102
{ACAD_REACTORS
330
F7C
102
}
330
F7C
100
AcDbXrecord
280
1
270
1
271
1
0
XRECORD
5
F82
102
{ACAD_REACTORS
330
F7C
102
}
330
F7C
100
AcDbXrecord
280
1
270
1
271
1
0
XRECORD
5
F7F
102
{ACAD_REACTORS
330
F7C
102
}
330
F7C
100
AcDbXrecord
280
1
270
1
271
1
0
XRECORD
5
1000
102
{ACAD_REACTORS
330
F8C
102
}
330
F8C
100
AcDbXrecord
280
1
102
MATERIAL
148
0.0
149
0.0
149
0.0
93
0
94
127
282
0
72
0
77
0
171
0
175
0
179
0
273
0
0
XRECORD
5
F8E
102
{ACAD_REACTORS
330
F8C
102
}
330
F8C
100
AcDbXrecord
280
1
270
1
271
1
0
XRECORD
5
F8D
102
{ACAD_REACTORS
330
F8C
102
}
330
F8C
100
AcDbXrecord
280
1
270
1
271
1
0
XRECORD
5
F91
102
{ACAD_REACTORS
330
F8C
102
}
330
F8C
100
AcDbXrecord
280
1
270
1
271
1
0
XRECORD
5
F90
102
{ACAD_REACTORS
330
F8C
102
}
330
F8C
100
AcDbXrecord
280
1
270
1
271
1
0
XRECORD
5
F92
102
{ACAD_REACTORS
330
F8C
102
}
330
F8C
100
AcDbXrecord
280
1
270
1
271
1
0
XRECORD
5
F8F
102
{ACAD_REACTORS
330
F8C
102
}
330
F8C
100
AcDbXrecord
280
1
270
1
271
1
0
CELLSTYLEMAP
5
1079
102
{ACAD_REACTORS
330
FF8
102
}
330
FF8
100
AcDbCellStyleMap
90
3
300
CELLSTYLE
1
TABLEFORMAT_BEGIN
90
5
170
1
91
0
92
32768
62
257
93
1
300
CONTENTFORMAT
1
CONTENTFORMAT_BEGIN
90
0
91
0
92
512
93
0
300

40
0.0
140
1.0
94
5
62
0
340
253
144
0.25
309
CONTENTFORMAT_END
171
1
301
MARGIN
1
CELLMARGIN_BEGIN
40
0.06
40
0.06
40
0.06
40
0.06
40
0.18
40
0.18
309
CELLMARGIN_END
94
6
95
1
302
GRIDFORMAT
1
GRIDFORMAT_BEGIN
90
0
91
1
62
0
92
-2
340
0
93
0
40
0.045
309
GRIDFORMAT_END
95
2
302
GRIDFORMAT
1
GRIDFORMAT_BEGIN
90
0
91
1
62
0
92
-2
340
0
93
0
40
0.045
309
GRIDFORMAT_END
95
4
302
GRIDFORMAT
1
GRIDFORMAT_BEGIN
90
0
91
1
62
0
92
-2
340
0
93
0
40
0.045
309
GRIDFORMAT_END
95
8
302
GRIDFORMAT
1
GRIDFORMAT_BEGIN
90
0
91
1
62
0
92
-2
340
0
93
0
40
0.045
309
GRIDFORMAT_END
95
16
302
GRIDFORMAT
1
GRIDFORMAT_BEGIN
90
0
91
1
62
0
92
-2
340
0
93
0
40
0.045
309
GRIDFORMAT_END
95
32
302
GRIDFORMAT
1
GRIDFORMAT_BEGIN
90
0
91
1
62
0
92
-2
340
0
93
0
40
0.045
309
GRIDFORMAT_END
309
TABLEFORMAT_END
1
CELLSTYLE_BEGIN
90
1
91
1
300
_TITLE
309
CELLSTYLE_END
300
CELLSTYLE
1
TABLEFORMAT_BEGIN
90
5
170
1
91
0
92
0
62
257
93
1
300
CONTENTFORMAT
1
CONTENTFORMAT_BEGIN
90
0
91
0
92
512
93
0
300

40
0.0
140
1.0
94
5
62
0
340
253
144
0.18
309
CONTENTFORMAT_END
171
1
301
MARGIN
1
CELLMARGIN_BEGIN
40
0.06
40
0.06
40
0.06
40
0.06
40
0.18
40
0.18
309
CELLMARGIN_END
94
6
95
1
302
GRIDFORMAT
1
GRIDFORMAT_BEGIN
90
0
91
1
62
0
92
-2
340
0
93
0
40
0.045
309
GRIDFORMAT_END
95
2
302
GRIDFORMAT
1
GRIDFORMAT_BEGIN
90
0
91
1
62
0
92
-2
340
0
93
0
40
0.045
309
GRIDFORMAT_END
95
4
302
GRIDFORMAT
1
GRIDFORMAT_BEGIN
90
0
91
1
62
0
92
-2
340
0
93
0
40
0.045
309
GRIDFORMAT_END
95
8
302
GRIDFORMAT
1
GRIDFORMAT_BEGIN
90
0
91
1
62
0
92
-2
340
0
93
0
40
0.045
309
GRIDFORMAT_END
95
16
302
GRIDFORMAT
1
GRIDFORMAT_BEGIN
90
0
91
1
62
0
92
-2
340
0
93
0
40
0.045
309
GRIDFORMAT_END
95
32
302
GRIDFORMAT
1
GRIDFORMAT_BEGIN
90
0
91
1
62
0
92
-2
340
0
93
0
40
0.045
309
GRIDFORMAT_END
309
TABLEFORMAT_END
1
CELLSTYLE_BEGIN
90
2
91
1
300
_HEADER
309
CELLSTYLE_END
300
CELLSTYLE
1
TABLEFORMAT_BEGIN
90
5
170
1
91
0
92
0
62
257
93
1
300
CONTENTFORMAT
1
CONTENTFORMAT_BEGIN
90
0
91
0
92
512
93
0
300

40
0.0
140
1.0
94
2
62
0
340
253
144
0.18
309
CONTENTFORMAT_END
171
1
301
MARGIN
1
CELLMARGIN_BEGIN
40
0.06
40
0.06
40
0.06
40
0.06
40
0.18
40
0.18
309
CELLMARGIN_END
94
6
95
1
302
GRIDFORMAT
1
GRIDFORMAT_BEGIN
90
0
91
1
62
0
92
-2
340
0
93
0
40
0.045
309
GRIDFORMAT_END
95
2
302
GRIDFORMAT
1
GRIDFORMAT_BEGIN
90
0
91
1
62
0
92
-2
340
0
93
0
40
0.045
309
GRIDFORMAT_END
95
4
302
GRIDFORMAT
1
GRIDFORMAT_BEGIN
90
0
91
1
62
0
92
-2
340
0
93
0
40
0.045
309
GRIDFORMAT_END
95
8
302
GRIDFORMAT
1
GRIDFORMAT_BEGIN
90
0
91
1
62
0
92
-2
340
0
93
0
40
0.045
309
GRIDFORMAT_END
95
16
302
GRIDFORMAT
1
GRIDFORMAT_BEGIN
90
0
91
1
62
0
92
-2
340
0
93
0
40
0.045
309
GRIDFORMAT_END
95
32
302
GRIDFORMAT
1
GRIDFORMAT_BEGIN
90
0
91
1
62
0
92
-2
340
0
93
0
40
0.045
309
GRIDFORMAT_END
309
TABLEFORMAT_END
1
CELLSTYLE_BEGIN
90
3
91
2
300
_DATA
309
CELLSTYLE_END
0
XRECORD
5
10A6
102
{ACAD_REACTORS
330
FF8
102
}
330
FF8
100
AcDbXrecord
280
1
102
ACAD_ROUNDTRIP_PRE2007_TABLESTYLE
90
512
91
0
1

92
512
93
0
2

94
512
95
0
3

0
XRECORD
5
108B
102
{ACAD_REACTORS
330
108A
102
}
330
108A
100
AcDbXrecord
280
1
102
RTVSPropertyOp0
70
1
102
RTVSPropertyOp1
70
1
102
RTVSPropertyOp2
70
1
102
RTVSPropertyOp3
70
1
102
RTVSPropertyOp4
70
1
102
RTVSPropertyOp5
70
1
102
RTVSPropertyOp6
70
1
102
RTVSPropertyOp7
70
1
102
RTVSPropertyOp8
70
1
102
RTVSPropertyOp9
70
1
102
RTVSPropertyOp10
70
1
102
RTVSPropertyOp11
70
1
102
RTVSPropertyOp12
70
1
102
RTVSPropertyOp13
70
1
102
RTVSPropertyOp14
70
1
102
RTVSPropertyOp15
70
1
102
RTVSPropertyOp16
70
1
102
RTVSPropertyOp17
70
1
102
RTVSPropertyOp18
70
1
102
RTVSPropertyOp19
70
1
102
RTVSPropertyOp20
70
1
102
RTVSPropertyOp21
70
1
102
RTVSPropertyOp22
70
1
102
RTVSPropertyOp23
70
1
102
RTVSPropertyOp24
70
1
102
RTVSPropertyOp25
70
1
102
RTVSPropertyOp26
70
1
102
RTVSPropertyOp27
70
1
0
XRECORD
5
108F
102
{ACAD_REACTORS
330
108E
102
}
330
108E
100
AcDbXrecord
280
1
102
RTVSPropertyOp0
70
1
102
RTVSPropertyOp1
70
1
102
RTVSPropertyOp2
70
1
102
RTVSPropertyOp3
70
1
102
RTVSPropertyOp4
70
1
102
RTVSPropertyOp5
70
1
102
RTVSPropertyOp6
70
1
102
RTVSPropertyOp7
70
1
102
RTVSPropertyOp8
70
1
102
RTVSPropertyOp9
70
1
102
RTVSPropertyOp10
70
1
102
RTVSPropertyOp11
70
1
102
RTVSPropertyOp12
70
1
102
RTVSPropertyOp13
70
1
102
RTVSPropertyOp14
70
1
102
RTVSPropertyOp15
70
1
102
RTVSPropertyOp16
70
1
102
RTVSPropertyOp17
70
1
102
RTVSPropertyOp18
70
1
102
RTVSPropertyOp19
70
1
102
RTVSPropertyOp20
70
1
102
RTVSPropertyOp21
70
1
102
RTVSPropertyOp22
70
1
102
RTVSPropertyOp23
70
1
102
RTVSPropertyOp24
70
1
102
RTVSPropertyOp25
70
1
102
RTVSPropertyOp26
70
1
102
RTVSPropertyOp27
70
1
0
XRECORD
5
108D
102
{ACAD_REACTORS
330
108C
102
}
330
108C
100
AcDbXrecord
280
1
102
RTVSPropertyOp0
70
1
102
RTVSPropertyOp1
70
1
102
RTVSPropertyOp2
70
1
102
RTVSPropertyOp3
70
1
102
RTVSPropertyOp4
70
1
102
RTVSPropertyOp5
70
1
102
RTVSPropertyOp6
70
1
102
RTVSPropertyOp7
70
1
102
RTVSPropertyOp8
70
1
102
RTVSPropertyOp9
70
1
102
RTVSPropertyOp10
70
1
102
RTVSPropertyOp11
70
1
102
RTVSPropertyOp12
70
1
102
RTVSPropertyOp13
70
1
102
RTVSPropertyOp14
70
1
102
RTVSPropertyOp15
70
1
102
RTVSPropertyOp16
70
1
102
RTVSPropertyOp17
70
1
102
RTVSPropertyOp18
70
1
102
RTVSPropertyOp19
70
1
102
RTVSPropertyOp20
70
1
102
RTVSPropertyOp21
70
1
102
RTVSPropertyOp22
70
1
102
RTVSPropertyOp23
70
1
102
RTVSPropertyOp24
70
1
102
RTVSPropertyOp25
70
1
102
RTVSPropertyOp26
70
1
102
RTVSPropertyOp27
70
1
0
XRECORD
5
1089
102
{ACAD_REACTORS
330
1088
102
}
330
1088
100
AcDbXrecord
280
1
102
RTVSPropertyOp0
70
1
102
RTVSPropertyOp1
70
1
102
RTVSPropertyOp2
70
1
102
RTVSPropertyOp3
70
1
102
RTVSPropertyOp4
70
1
102
RTVSPropertyOp5
70
1
102
RTVSPropertyOp6
70
1
102
RTVSPropertyOp7
70
1
102
RTVSPropertyOp8
70
1
102
RTVSPropertyOp9
70
1
102
RTVSPropertyOp10
70
1
102
RTVSPropertyOp11
70
1
102
RTVSPropertyOp12
70
1
102
RTVSPropertyOp13
70
1
102
RTVSPropertyOp14
70
1
102
RTVSPropertyOp15
70
1
102
RTVSPropertyOp16
70
1
102
RTVSPropertyOp17
70
1
102
RTVSPropertyOp18
70
1
102
RTVSPropertyOp19
70
1
102
RTVSPropertyOp20
70
1
102
RTVSPropertyOp21
70
1
102
RTVSPropertyOp22
70
1
102
RTVSPropertyOp23
70
1
102
RTVSPropertyOp24
70
1
102
RTVSPropertyOp25
70
1
102
RTVSPropertyOp26
70
1
102
RTVSPropertyOp27
70
1
0
XRECORD
5
1097
102
{ACAD_REACTORS
330
1096
102
}
330
1096
100
AcDbXrecord
280
1
102
RTVSPropertyOp0
70
1
102
RTVSPropertyOp1
70
1
102
RTVSPropertyOp2
70
1
102
RTVSPropertyOp3
70
1
102
RTVSPropertyOp4
70
1
102
RTVSPropertyOp5
70
1
102
RTVSPropertyOp6
70
1
102
RTVSPropertyOp7
70
1
102
RTVSPropertyOp8
70
1
102
RTVSPropertyOp9
70
1
102
RTVSPropertyOp10
70
1
102
RTVSPropertyOp11
70
1
102
RTVSPropertyOp12
70
1
102
RTVSPropertyOp13
70
1
102
RTVSPropertyOp14
70
1
102
RTVSPropertyOp15
70
1
102
RTVSPropertyOp16
70
1
102
RTVSPropertyOp17
70
1
102
RTVSPropertyOp18
70
1
102
RTVSPropertyOp19
70
1
102
RTVSPropertyOp20
70
1
102
RTVSPropertyOp21
70
1
102
RTVSPropertyOp22
70
1
102
RTVSPropertyOp23
70
1
102
RTVSPropertyOp24
70
1
102
RTVSPropertyOp25
70
1
102
RTVSPropertyOp26
70
1
102
RTVSPropertyOp27
70
1
0
XRECORD
5
109F
102
{ACAD_REACTORS
330
109E
102
}
330
109E
100
AcDbXrecord
280
1
102
RTVSPropertyOp0
70
1
102
RTVSPropertyOp1
70
1
102
RTVSPropertyOp2
70
1
102
RTVSPropertyOp3
70
1
102
RTVSPropertyOp4
70
1
102
RTVSPropertyOp5
70
1
102
RTVSPropertyOp6
70
1
102
RTVSPropertyOp7
70
1
102
RTVSPropertyOp8
70
1
102
RTVSPropertyOp9
70
1
102
RTVSPropertyOp10
70
1
102
RTVSPropertyOp11
70
1
102
RTVSPropertyOp12
70
1
102
RTVSPropertyOp13
70
1
102
RTVSPropertyOp14
70
1
102
RTVSPropertyOp15
70
1
102
RTVSPropertyOp16
70
1
102
RTVSPropertyOp17
70
1
102
RTVSPropertyOp18
70
1
102
RTVSPropertyOp19
70
1
102
RTVSPropertyOp20
70
1
102
RTVSPropertyOp21
70
1
102
RTVSPropertyOp22
70
1
102
RTVSPropertyOp23
70
1
102
RTVSPropertyOp24
70
1
102
RTVSPropertyOp25
70
1
102
RTVSPropertyOp26
70
1
102
RTVSPropertyOp27
70
1
0
XRECORD
5
1091
102
{ACAD_REACTORS
330
1090
102
}
330
1090
100
AcDbXrecord
280
1
102
RTVSPropertyOp0
70
1
102
RTVSPropertyOp1
70
1
102
RTVSPropertyOp2
70
1
102
RTVSPropertyOp3
70
1
102
RTVSPropertyOp4
70
1
102
RTVSPropertyOp5
70
1
102
RTVSPropertyOp6
70
1
102
RTVSPropertyOp7
70
1
102
RTVSPropertyOp8
70
1
102
RTVSPropertyOp9
70
1
102
RTVSPropertyOp10
70
1
102
RTVSPropertyOp11
70
1
102
RTVSPropertyOp12
70
1
102
RTVSPropertyOp13
70
1
102
RTVSPropertyOp14
70
1
102
RTVSPropertyOp15
70
1
102
RTVSPropertyOp16
70
1
102
RTVSPropertyOp17
70
1
102
RTVSPropertyOp18
70
1
102
RTVSPropertyOp19
70
1
102
RTVSPropertyOp20
70
1
102
RTVSPropertyOp21
70
1
102
RTVSPropertyOp22
70
1
102
RTVSPropertyOp23
70
1
102
RTVSPropertyOp24
70
1
102
RTVSPropertyOp25
70
1
102
RTVSPropertyOp26
70
1
102
RTVSPropertyOp27
70
1
0
XRECORD
5
1095
102
{ACAD_REACTORS
330
1094
102
}
330
1094
100
AcDbXrecord
280
1
102
RTVSPropertyOp0
70
1
102
RTVSPropertyOp1
70
1
102
RTVSPropertyOp2
70
1
102
RTVSPropertyOp3
70
1
102
RTVSPropertyOp4
70
1
102
RTVSPropertyOp5
70
1
102
RTVSPropertyOp6
70
1
102
RTVSPropertyOp7
70
1
102
RTVSPropertyOp8
70
1
102
RTVSPropertyOp9
70
1
102
RTVSPropertyOp10
70
1
102
RTVSPropertyOp11
70
1
102
RTVSPropertyOp12
70
1
102
RTVSPropertyOp13
70
1
102
RTVSPropertyOp14
70
1
102
RTVSPropertyOp15
70
1
102
RTVSPropertyOp16
70
1
102
RTVSPropertyOp17
70
1
102
RTVSPropertyOp18
70
1
102
RTVSPropertyOp19
70
1
102
RTVSPropertyOp20
70
1
102
RTVSPropertyOp21
70
1
102
RTVSPropertyOp22
70
1
102
RTVSPropertyOp23
70
1
102
RTVSPropertyOp24
70
1
102
RTVSPropertyOp25
70
1
102
RTVSPropertyOp26
70
1
102
RTVSPropertyOp27
70
1
0
XRECORD
5
10A5
102
{ACAD_REACTORS
330
10A4
102
}
330
10A4
100
AcDbXrecord
280
1
102
RTVSPropertyOp0
70
0
102
RTVSPropertyOp1
70
0
102
RTVSPropertyOp2
70
0
102
RTVSPropertyOp3
70
0
102
RTVSPropertyOp4
70
0
102
RTVSPropertyOp5
70
0
102
RTVSPropertyOp6
70
0
102
RTVSPropertyOp7
70
0
102
RTVSPropertyOp8
70
0
102
RTVSPropertyOp9
70
0
102
RTVSPropertyOp10
70
0
102
RTVSPropertyOp11
70
0
102
RTVSPropertyOp12
70
0
102
RTVSPropertyOp13
70
0
102
RTVSPropertyOp14
70
2
102
RTVSPropertyOp15
70
0
102
RTVSPropertyOp16
70
0
102
RTVSPropertyOp17
70
0
102
RTVSPropertyOp18
70
0
102
RTVSPropertyOp19
70
0
102
RTVSPropertyOp20
70
0
102
RTVSPropertyOp21
70
0
102
RTVSPropertyOp22
70
0
102
RTVSPropertyOp23
70
0
102
RTVSPropertyOp24
70
0
102
RTVSPropertyOp25
70
0
102
RTVSPropertyOp26
70
0
102
RTVSPropertyOp27
70
0
0
XRECORD
5
109D
102
{ACAD_REACTORS
330
109C
102
}
330
109C
100
AcDbXrecord
280
1
102
RTVSPropertyOp0
70
1
102
RTVSPropertyOp1
70
1
102
RTVSPropertyOp2
70
1
102
RTVSPropertyOp3
70
1
102
RTVSPropertyOp4
70
1
102
RTVSPropertyOp5
70
1
102
RTVSPropertyOp6
70
1
102
RTVSPropertyOp7
70
1
102
RTVSPropertyOp8
70
1
102
RTVSPropertyOp9
70
1
102
RTVSPropertyOp10
70
1
102
RTVSPropertyOp11
70
1
102
RTVSPropertyOp12
70
1
102
RTVSPropertyOp13
70
1
102
RTVSPropertyOp14
70
1
102
RTVSPropertyOp15
70
1
102
RTVSPropertyOp16
70
1
102
RTVSPropertyOp17
70
1
102
RTVSPropertyOp18
70
1
102
RTVSPropertyOp19
70
1
102
RTVSPropertyOp20
70
1
102
RTVSPropertyOp21
70
1
102
RTVSPropertyOp22
70
1
102
RTVSPropertyOp23
70
1
102
RTVSPropertyOp24
70
1
102
RTVSPropertyOp25
70
1
102
RTVSPropertyOp26
70
1
102
RTVSPropertyOp27
70
1
0
XRECORD
5
1081
102
{ACAD_REACTORS
330
1080
102
}
330
1080
100
AcDbXrecord
280
1
102
RTVSPropertyOp0
70
1
102
RTVSPropertyOp1
70
1
102
RTVSPropertyOp2
70
1
102
RTVSPropertyOp3
70
1
102
RTVSPropertyOp4
70
1
102
RTVSPropertyOp5
70
1
102
RTVSPropertyOp6
70
1
102
RTVSPropertyOp7
70
1
102
RTVSPropertyOp8
70
1
102
RTVSPropertyOp9
70
1
102
RTVSPropertyOp10
70
1
102
RTVSPropertyOp11
70
1
102
RTVSPropertyOp12
70
1
102
RTVSPropertyOp13
70
1
102
RTVSPropertyOp14
70
1
102
RTVSPropertyOp15
70
1
102
RTVSPropertyOp16
70
1
102
RTVSPropertyOp17
70
1
102
RTVSPropertyOp18
70
1
102
RTVSPropertyOp19
70
1
102
RTVSPropertyOp20
70
1
102
RTVSPropertyOp21
70
1
102
RTVSPropertyOp22
70
1
102
RTVSPropertyOp23
70
1
102
RTVSPropertyOp24
70
1
102
RTVSPropertyOp25
70
1
102
RTVSPropertyOp26
70
1
102
RTVSPropertyOp27
70
1
0
XRECORD
5
1083
102
{ACAD_REACTORS
330
1082
102
}
330
1082
100
AcDbXrecord
280
1
102
RTVSPropertyOp0
70
1
102
RTVSPropertyOp1
70
1
102
RTVSPropertyOp2
70
1
102
RTVSPropertyOp3
70
1
102
RTVSPropertyOp4
70
1
102
RTVSPropertyOp5
70
1
102
RTVSPropertyOp6
70
1
102
RTVSPropertyOp7
70
1
102
RTVSPropertyOp8
70
1
102
RTVSPropertyOp9
70
1
102
RTVSPropertyOp10
70
1
102
RTVSPropertyOp11
70
1
102
RTVSPropertyOp12
70
1
102
RTVSPropertyOp13
70
1
102
RTVSPropertyOp14
70
1
102
RTVSPropertyOp15
70
1
102
RTVSPropertyOp16
70
1
102
RTVSPropertyOp17
70
1
102
RTVSPropertyOp18
70
1
102
RTVSPropertyOp19
70
1
102
RTVSPropertyOp20
70
1
102
RTVSPropertyOp21
70
1
102
RTVSPropertyOp22
70
1
102
RTVSPropertyOp23
70
1
102
RTVSPropertyOp24
70
1
102
RTVSPropertyOp25
70
1
102
RTVSPropertyOp26
70
1
102
RTVSPropertyOp27
70
1
0
XRECORD
5
1085
102
{ACAD_REACTORS
330
1084
102
}
330
1084
100
AcDbXrecord
280
1
102
RTVSPropertyOp0
70
1
102
RTVSPropertyOp1
70
1
102
RTVSPropertyOp2
70
1
102
RTVSPropertyOp3
70
1
102
RTVSPropertyOp4
70
1
102
RTVSPropertyOp5
70
1
102
RTVSPropertyOp6
70
1
102
RTVSPropertyOp7
70
1
102
RTVSPropertyOp8
70
1
102
RTVSPropertyOp9
70
1
102
RTVSPropertyOp10
70
1
102
RTVSPropertyOp11
70
1
102
RTVSPropertyOp12
70
1
102
RTVSPropertyOp13
70
1
102
RTVSPropertyOp14
70
1
102
RTVSPropertyOp15
70
1
102
RTVSPropertyOp16
70
1
102
RTVSPropertyOp17
70
1
102
RTVSPropertyOp18
70
1
102
RTVSPropertyOp19
70
1
102
RTVSPropertyOp20
70
1
102
RTVSPropertyOp21
70
1
102
RTVSPropertyOp22
70
1
102
RTVSPropertyOp23
70
1
102
RTVSPropertyOp24
70
1
102
RTVSPropertyOp25
70
1
102
RTVSPropertyOp26
70
1
102
RTVSPropertyOp27
70
1
0
XRECORD
5
1087
102
{ACAD_REACTORS
330
1086
102
}
330
1086
100
AcDbXrecord
280
1
102
RTVSPropertyOp0
70
1
102
RTVSPropertyOp1
70
1
102
RTVSPropertyOp2
70
1
102
RTVSPropertyOp3
70
1
102
RTVSPropertyOp4
70
1
102
RTVSPropertyOp5
70
1
102
RTVSPropertyOp6
70
1
102
RTVSPropertyOp7
70
1
102
RTVSPropertyOp8
70
1
102
RTVSPropertyOp9
70
1
102
RTVSPropertyOp10
70
1
102
RTVSPropertyOp11
70
1
102
RTVSPropertyOp12
70
1
102
RTVSPropertyOp13
70
1
102
RTVSPropertyOp14
70
1
102
RTVSPropertyOp15
70
1
102
RTVSPropertyOp16
70
1
102
RTVSPropertyOp17
70
1
102
RTVSPropertyOp18
70
1
102
RTVSPropertyOp19
70
1
102
RTVSPropertyOp20
70
1
102
RTVSPropertyOp21
70
1
102
RTVSPropertyOp22
70
1
102
RTVSPropertyOp23
70
1
102
RTVSPropertyOp24
70
1
102
RTVSPropertyOp25
70
1
102
RTVSPropertyOp26
70
1
102
RTVSPropertyOp27
70
1
0
XRECORD
5
10A1
102
{ACAD_REACTORS
330
10A0
102
}
330
10A0
100
AcDbXrecord
280
1
102
RTVSPropertyOp0
70
0
102
RTVSPropertyOp1
70
0
102
RTVSPropertyOp2
70
0
102
RTVSPropertyOp3
70
0
102
RTVSPropertyOp4
70
0
102
RTVSPropertyOp5
70
0
102
RTVSPropertyOp6
70
0
102
RTVSPropertyOp7
70
0
102
RTVSPropertyOp8
70
0
102
RTVSPropertyOp9
70
0
102
RTVSPropertyOp10
70
0
102
RTVSPropertyOp11
70
0
102
RTVSPropertyOp12
70
0
102
RTVSPropertyOp13
70
0
102
RTVSPropertyOp14
70
2
102
RTVSPropertyOp15
70
0
102
RTVSPropertyOp16
70
0
102
RTVSPropertyOp17
70
0
102
RTVSPropertyOp18
70
0
102
RTVSPropertyOp19
70
0
102
RTVSPropertyOp20
70
0
102
RTVSPropertyOp21
70
0
102
RTVSPropertyOp22
70
0
102
RTVSPropertyOp23
70
0
102
RTVSPropertyOp24
70
0
102
RTVSPropertyOp25
70
0
102
RTVSPropertyOp26
70
0
102
RTVSPropertyOp27
70
0
0
XRECORD
5
109B
102
{ACAD_REACTORS
330
109A
102
}
330
109A
100
AcDbXrecord
280
1
102
RTVSPropertyOp0
70
1
102
RTVSPropertyOp1
70
1
102
RTVSPropertyOp2
70
1
102
RTVSPropertyOp3
70
1
102
RTVSPropertyOp4
70
1
102
RTVSPropertyOp5
70
1
102
RTVSPropertyOp6
70
1
102
RTVSPropertyOp7
70
1
102
RTVSPropertyOp8
70
1
102
RTVSPropertyOp9
70
1
102
RTVSPropertyOp10
70
1
102
RTVSPropertyOp11
70
1
102
RTVSPropertyOp12
70
1
102
RTVSPropertyOp13
70
1
102
RTVSPropertyOp14
70
1
102
RTVSPropertyOp15
70
1
102
RTVSPropertyOp16
70
1
102
RTVSPropertyOp17
70
1
102
RTVSPropertyOp18
70
1
102
RTVSPropertyOp19
70
1
102
RTVSPropertyOp20
70
1
102
RTVSPropertyOp21
70
1
102
RTVSPropertyOp22
70
1
102
RTVSPropertyOp23
70
1
102
RTVSPropertyOp24
70
1
102
RTVSPropertyOp25
70
1
102
RTVSPropertyOp26
70
1
102
RTVSPropertyOp27
70
1
0
XRECORD
5
10A3
102
{ACAD_REACTORS
330
10A2
102
}
330
10A2
100
AcDbXrecord
280
1
102
RTVSPropertyOp0
70
0
102
RTVSPropertyOp1
70
0
102
RTVSPropertyOp2
70
0
102
RTVSPropertyOp3
70
0
102
RTVSPropertyOp4
70
0
102
RTVSPropertyOp5
70
0
102
RTVSPropertyOp6
70
0
102
RTVSPropertyOp7
70
0
102
RTVSPropertyOp8
70
0
102
RTVSPropertyOp9
70
0
102
RTVSPropertyOp10
70
0
102
RTVSPropertyOp11
70
0
102
RTVSPropertyOp12
70
0
102
RTVSPropertyOp13
70
0
102
RTVSPropertyOp14
70
2
102
RTVSPropertyOp15
70
0
102
RTVSPropertyOp16
70
0
102
RTVSPropertyOp17
70
0
102
RTVSPropertyOp18
70
0
102
RTVSPropertyOp19
70
0
102
RTVSPropertyOp20
70
0
102
RTVSPropertyOp21
70
0
102
RTVSPropertyOp22
70
0
102
RTVSPropertyOp23
70
0
102
RTVSPropertyOp24
70
0
102
RTVSPropertyOp25
70
0
102
RTVSPropertyOp26
70
0
102
RTVSPropertyOp27
70
0
0
XRECORD
5
1093
102
{ACAD_REACTORS
330
1092
102
}
330
1092
100
AcDbXrecord
280
1
102
RTVSPropertyOp0
70
1
102
RTVSPropertyOp1
70
1
102
RTVSPropertyOp2
70
1
102
RTVSPropertyOp3
70
1
102
RTVSPropertyOp4
70
1
102
RTVSPropertyOp5
70
1
102
RTVSPropertyOp6
70
1
102
RTVSPropertyOp7
70
1
102
RTVSPropertyOp8
70
1
102
RTVSPropertyOp9
70
1
102
RTVSPropertyOp10
70
1
102
RTVSPropertyOp11
70
1
102
RTVSPropertyOp12
70
1
102
RTVSPropertyOp13
70
1
102
RTVSPropertyOp14
70
1
102
RTVSPropertyOp15
70
1
102
RTVSPropertyOp16
70
1
102
RTVSPropertyOp17
70
1
102
RTVSPropertyOp18
70
1
102
RTVSPropertyOp19
70
1
102
RTVSPropertyOp20
70
1
102
RTVSPropertyOp21
70
1
102
RTVSPropertyOp22
70
1
102
RTVSPropertyOp23
70
1
102
RTVSPropertyOp24
70
1
102
RTVSPropertyOp25
70
1
102
RTVSPropertyOp26
70
1
102
RTVSPropertyOp27
70
1
0
XRECORD
5
1099
102
{ACAD_REACTORS
330
1098
102
}
330
1098
100
AcDbXrecord
280
1
102
RTVSPropertyOp0
70
1
102
RTVSPropertyOp1
70
1
102
RTVSPropertyOp2
70
1
102
RTVSPropertyOp3
70
1
102
RTVSPropertyOp4
70
1
102
RTVSPropertyOp5
70
1
102
RTVSPropertyOp6
70
1
102
RTVSPropertyOp7
70
1
102
RTVSPropertyOp8
70
1
102
RTVSPropertyOp9
70
1
102
RTVSPropertyOp10
70
1
102
RTVSPropertyOp11
70
1
102
RTVSPropertyOp12
70
1
102
RTVSPropertyOp13
70
1
102
RTVSPropertyOp14
70
1
102
RTVSPropertyOp15
70
1
102
RTVSPropertyOp16
70
1
102
RTVSPropertyOp17
70
1
102
RTVSPropertyOp18
70
1
102
RTVSPropertyOp19
70
1
102
RTVSPropertyOp20
70
1
102
RTVSPropertyOp21
70
1
102
RTVSPropertyOp22
70
1
102
RTVSPropertyOp23
70
1
102
RTVSPropertyOp24
70
1
102
RTVSPropertyOp25
70
1
102
RTVSPropertyOp26
70
1
102
RTVSPropertyOp27
70
1
0
ENDSEC
0
EOF
